0
SECTION
2
HEADER
9
$ACADVER
1
AC1015
9
$DWGCODEPAGE
3
ANSI_1252
9
$HANDSEED
5
1ab
9
$ANGBASE
50
0
9
$ANGDIR
70
0
9
$ATTMODE
70
1
9
$AUNITS
70
0
9
$AUPREC
70
0
9
$CECOLOR
62
256
9
$CELTSCALE
40
1
9
$CELTYPE
6
ByLayer
9
$CELWEIGHT
370
18
9
$CLAYER
8
0
9
$CMLJUST
70
0
9
$CMLSCALE
40
1
9
$CMLSTYLE
2
Standard
9
$DIMSTYLE
2
Standard
9
$TEXTSIZE
40
0.2
9
$TEXTSTYLE
7
Standard
9
$LUNITS
70
2
9
$LUPREC
70
4
9
$EXTNAMES
290
1
9
$INSUNITS
70
4
9
$LTSCALE
40
1
9
$LWDISPLAY
290
1
9
$PDMODE
70
0
9
$PDSIZE
40
0
9
$PLINEGEN
70
0
0
ENDSEC
0
SECTION
2
CLASSES
0
CLASS
1
RASTERVARIABLES
2
AcDbRasterVariables
3
ISM
90
0
280
0
281
0
0
ENDSEC
0
SECTION
2
TABLES
0
TABLE
2
VPORT
5
1a1
100
AcDbSymbolTable
0
VPORT
5
1
100
AcDbSymbolTableRecord
100
AcDbViewportTableRecord
2
*Active
70
0
10
0
20
0
11
1
21
1
12
-1
22
1
13
0
23
0
14
0.5
24
0.5
15
10
25
10
16
0
26
0
36
1
17
0
27
0
37
0
0
ENDTAB
0
TABLE
2
LTYPE
5
1a2
100
AcDbSymbolTable
0
LTYPE
5
14
100
AcDbSymbolTableRecord
100
AcDbLinetypeTableRecord
70
0
2
ByBlock
3

72
65
73
0
40
0
0
LTYPE
5
15
100
AcDbSymbolTableRecord
100
AcDbLinetypeTableRecord
70
0
2
ByLayer
3

72
65
73
0
40
0
0
LTYPE
5
16
100
AcDbSymbolTableRecord
100
AcDbLinetypeTableRecord
70
0
2
CONTINUOUS
3
Solid line
72
65
73
0
40
0
0
LTYPE
5
6A
100
AcDbSymbolTableRecord
100
AcDbLinetypeTableRecord
70
0
2
CENTER
3
____ _ ____ _ ____ _ ____
72
65
73
4
40
47.5
49
22
74
0
49
-8.5
74
0
49
8.5
74
0
49
-8.5
74
0
0
LTYPE
5
6B
100
AcDbSymbolTableRecord
100
AcDbLinetypeTableRecord
70
0
2
DASHED
3
__ __ __ __ __ __ __ __ __
72
65
73
2
40
25.72
49
12.86
74
0
49
-12.86
74
0
0
ENDTAB
0
TABLE
2
LAYER
5
1a3
100
AcDbSymbolTable
0
LAYER
5
10
100
AcDbSymbolTableRecord
100
AcDbLayerTableRecord
2
0
70
0
62
7
6
CONTINUOUS
290
1
370
-3
390
0
0
LAYER
5
6D
100
AcDbSymbolTableRecord
100
AcDbLayerTableRecord
2
81
70
0
62
-3
6
CONTINUOUS
290
1
370
-3
390
0
0
LAYER
5
6F
100
AcDbSymbolTableRecord
100
AcDbLayerTableRecord
2
80
70
0
62
-6
6
CONTINUOUS
290
1
370
-3
390
0
0
LAYER
5
74
100
AcDbSymbolTableRecord
100
AcDbLayerTableRecord
2
2
70
0
62
7
6
CONTINUOUS
290
1
370
-3
390
0
0
LAYER
5
78
100
AcDbSymbolTableRecord
100
AcDbLayerTableRecord
2
1
70
0
62
4
6
CONTINUOUS
290
1
370
-3
390
0
0
LAYER
5
88
100
AcDbSymbolTableRecord
100
AcDbLayerTableRecord
2
4
70
0
62
-2
6
CENTER
290
1
370
-3
390
0
0
LAYER
5
18d
100
AcDbSymbolTableRecord
100
AcDbLayerTableRecord
2
SK2
70
0
62
7
6
CONTINUOUS
290
1
370
-3
390
0
0
LAYER
5
18e
100
AcDbSymbolTableRecord
100
AcDbLayerTableRecord
2
SK1
70
0
62
4
6
CONTINUOUS
290
1
370
-3
390
0
0
LAYER
5
18f
100
AcDbSymbolTableRecord
100
AcDbLayerTableRecord
2
SK4
70
0
62
2
6
CENTER
290
1
370
-3
390
0
0
LAYER
5
190
100
AcDbSymbolTableRecord
100
AcDbLayerTableRecord
2
SK6
70
0
62
5
6
CONTINUOUS
290
1
370
-3
390
0
0
ENDTAB
0
TABLE
2
STYLE
5
1a4
100
AcDbSymbolTable
0
STYLE
5
11
100
AcDbSymbolTableRecord
100
AcDbTextStyleTableRecord
2
Standard
3
txt
70
0
71
0
40
0
41
1
42
0
50
0
0
STYLE
5
E9
100
AcDbSymbolTableRecord
100
AcDbTextStyleTableRecord
2
iso_b_vert
3
simplex.shx
70
0
71
0
40
0
41
1
42
0
50
0
0
STYLE
5
EA
100
AcDbSymbolTableRecord
100
AcDbTextStyleTableRecord
2
DWGDirectTextStyle
3
simplex
70
0
71
0
40
0
41
1
42
0
50
0
0
ENDTAB
0
TABLE
2
DIMSTYLE
5
1a5
100
AcDbSymbolTable
100
AcDbDimStyleTable
0
DIMSTYLE
105
27
100
AcDbSymbolTableRecord
100
AcDbDimStyleTableRecord
2
Standard
70
0
3
<>
41
0.18
42
0.0625
44
0.18
140
0.18
147
0.09
73
0
74
0
77
1
271
2
275
0
278
52
280
0
340
11
0
ENDTAB
0
TABLE
2
VIEW
5
1a6
100
AcDbSymbolTable
0
ENDTAB
0
TABLE
2
UCS
5
1a7
100
AcDbSymbolTable
0
ENDTAB
0
TABLE
2
APPID
5
1a8
100
AcDbSymbolTable
0
APPID
5
12
100
AcDbSymbolTableRecord
100
AcDbRegAppTableRecord
2
ACAD
70
0
0
ENDTAB
0
TABLE
2
BLOCK_RECORD
5
1a9
100
AcDbSymbolTable
0
BLOCK_RECORD
5
1F
100
AcDbSymbolTableRecord
100
AcDbBlockTableRecord
2
*Model_Space
340
0
70
0
0
BLOCK_RECORD
5
1B
100
AcDbSymbolTableRecord
100
AcDbBlockTableRecord
2
*Paper_Space
340
0
70
0
0
BLOCK_RECORD
5
23
100
AcDbSymbolTableRecord
100
AcDbBlockTableRecord
2
*Paper_Space0
340
0
70
0
0
BLOCK_RECORD
5
EC
100
AcDbSymbolTableRecord
100
AcDbBlockTableRecord
2
DimnDraft3D1
340
0
70
0
0
BLOCK_RECORD
5
F6
100
AcDbSymbolTableRecord
100
AcDbBlockTableRecord
2
DimnDraft3D2
340
0
70
0
0
BLOCK_RECORD
5
100
100
AcDbSymbolTableRecord
100
AcDbBlockTableRecord
2
DimnDraft3D3
340
0
70
0
0
BLOCK_RECORD
5
10A
100
AcDbSymbolTableRecord
100
AcDbBlockTableRecord
2
DimnDraft3D4
340
0
70
0
0
BLOCK_RECORD
5
114
100
AcDbSymbolTableRecord
100
AcDbBlockTableRecord
2
DimnDraft3D5
340
0
70
0
0
BLOCK_RECORD
5
11E
100
AcDbSymbolTableRecord
100
AcDbBlockTableRecord
2
DimnDraft3D6
340
0
70
0
0
BLOCK_RECORD
5
129
100
AcDbSymbolTableRecord
100
AcDbBlockTableRecord
2
DimnDraft3D7
340
0
70
0
0
ENDTAB
0
ENDSEC
0
SECTION
2
BLOCKS
0
BLOCK
5
20
100
AcDbEntity
8
0
100
AcDbBlockBegin
2
*Model_Space
70
0
10
0
20
0
30
0
3
*Model_Space
0
ENDBLK
5
21
100
AcDbEntity
8
0
100
AcDbBlockEnd
0
BLOCK
5
1C
100
AcDbEntity
8
0
100
AcDbBlockBegin
2
*Paper_Space
70
0
10
0
20
0
30
0
3
*Paper_Space
0
ENDBLK
5
1D
100
AcDbEntity
8
0
100
AcDbBlockEnd
0
BLOCK
5
24
100
AcDbEntity
8
0
100
AcDbBlockBegin
2
*Paper_Space0
70
0
10
0
20
0
30
0
3
*Paper_Space0
0
ENDBLK
5
25
100
AcDbEntity
8
0
100
AcDbBlockEnd
0
BLOCK
5
F3
100
AcDbEntity
8
0
100
AcDbBlockBegin
2
DimnDraft3D1
70
0
10
0
20
0
30
0
3
DimnDraft3D1
0
MTEXT
5
ED
100
AcDbEntity
8
SK2
62
256
6
ByLayer
370
13
48
1
60
0
100
AcDbMText
10
24.894664
20
-14.188398
30
0
210
0
220
0
230
1
1
\W0.6898;61,34
40
3.5
41
0
44
1.084337
50
0
71
7
72
5
7
iso_b_vert
0
LINE
5
EE
100
AcDbEntity
8
SK2
62
256
6
ByLayer
370
13
48
1
60
0
100
AcDbLine
10
0
20
-1.5875
30
0
11
0
21
-17.063398
31
0
39
0
210
0
220
0
230
1
0
LINE
5
EF
100
AcDbEntity
8
SK2
62
256
6
ByLayer
370
13
48
1
60
0
100
AcDbLine
10
61.34
20
-6.4375
30
0
11
61.34
21
-17.063398
31
0
39
0
210
0
220
0
230
1
0
LINE
5
F0
100
AcDbEntity
8
SK2
62
256
6
ByLayer
370
13
48
1
60
0
100
AcDbLine
10
0
20
-15.063398
30
0
11
61.34
21
-15.063398
31
0
39
0
210
0
220
0
230
1
0
SOLID
5
F1
100
AcDbEntity
8
SK2
62
256
6
ByLayer
370
13
48
1
60
0
100
AcDbTrace
10
0
20
-15.063398
30
0
11
3.499998
21
-14.602615
31
0
12
3.500002
22
-15.524182
32
0
13
0
23
-15.063398
33
0
39
0
210
0
220
0
230
1
0
SOLID
5
F2
100
AcDbEntity
8
SK2
62
256
6
ByLayer
370
13
48
1
60
0
100
AcDbTrace
10
61.34
20
-15.063398
30
0
11
57.840002
21
-15.524182
31
0
12
57.839998
22
-14.602615
32
0
13
61.34
23
-15.063398
33
0
39
0
210
0
220
0
230
1
0
ENDBLK
5
F4
100
AcDbEntity
8
0
100
AcDbBlockEnd
0
BLOCK
5
FD
100
AcDbEntity
8
0
100
AcDbBlockBegin
2
DimnDraft3D2
70
0
10
0
20
0
30
0
3
DimnDraft3D2
0
MTEXT
5
F7
100
AcDbEntity
8
SK2
62
256
6
ByLayer
370
13
48
1
60
0
100
AcDbMText
10
5.862221
20
-32.817985
30
0
210
0
220
0
230
1
1
\W0.6930;103,00
40
3.5
41
0
44
1.084337
50
0
71
7
72
5
7
iso_b_vert
0
LINE
5
F8
100
AcDbEntity
8
SK2
62
256
6
ByLayer
370
13
48
1
60
0
100
AcDbLine
10
-40
20
-6.5875
30
0
11
-40
21
-35.692985
31
0
39
0
210
0
220
0
230
1
0
LINE
5
F9
100
AcDbEntity
8
SK2
62
256
6
ByLayer
370
13
48
1
60
0
100
AcDbLine
10
63
20
-1.5875
30
0
11
63
21
-35.692985
31
0
39
0
210
0
220
0
230
1
0
LINE
5
FA
100
AcDbEntity
8
SK2
62
256
6
ByLayer
370
13
48
1
60
0
100
AcDbLine
10
-40
20
-33.692985
30
0
11
63
21
-33.692985
31
0
39
0
210
0
220
0
230
1
0
SOLID
5
FB
100
AcDbEntity
8
SK2
62
256
6
ByLayer
370
13
48
1
60
0
100
AcDbTrace
10
-40
20
-33.692985
30
0
11
-36.500002
21
-33.232202
31
0
12
-36.499998
22
-34.153769
32
0
13
-40
23
-33.692985
33
0
39
0
210
0
220
0
230
1
0
SOLID
5
FC
100
AcDbEntity
8
SK2
62
256
6
ByLayer
370
13
48
1
60
0
100
AcDbTrace
10
63
20
-33.692985
30
0
11
59.500002
21
-34.153769
31
0
12
59.499998
22
-33.232202
32
0
13
63
23
-33.692985
33
0
39
0
210
0
220
0
230
1
0
ENDBLK
5
FE
100
AcDbEntity
8
0
100
AcDbBlockEnd
0
BLOCK
5
107
100
AcDbEntity
8
0
100
AcDbBlockBegin
2
DimnDraft3D3
70
0
10
0
20
0
30
0
3
DimnDraft3D3
0
MTEXT
5
101
100
AcDbEntity
8
SK2
62
256
6
ByLayer
370
13
48
1
60
0
100
AcDbMText
10
33.908816
20
17.334119
30
0
210
0
220
0
230
1
1
\W0.6713;50,16
40
3.5
41
0
44
1.084337
50
0
71
7
72
5
7
iso_b_vert
0
LINE
5
102
100
AcDbEntity
8
SK2
62
256
6
ByLayer
370
13
48
1
60
0
100
AcDbLine
10
12.84
20
6.4375
30
0
11
12.84
21
18.459119
31
0
39
0
210
0
220
0
230
1
0
LINE
5
103
100
AcDbEntity
8
SK2
62
256
6
ByLayer
370
13
48
1
60
0
100
AcDbLine
10
63
20
1.5875
30
0
11
63
21
18.459119
31
0
39
0
210
0
220
0
230
1
0
LINE
5
104
100
AcDbEntity
8
SK2
62
256
6
ByLayer
370
13
48
1
60
0
100
AcDbLine
10
12.84
20
16.459119
30
0
11
63
21
16.459119
31
0
39
0
210
0
220
0
230
1
0
SOLID
5
105
100
AcDbEntity
8
SK2
62
256
6
ByLayer
370
13
48
1
60
0
100
AcDbTrace
10
12.84
20
16.459119
30
0
11
16.339998
21
16.919903
31
0
12
16.340002
22
15.998335
32
0
13
12.84
23
16.459119
33
0
39
0
210
0
220
0
230
1
0
SOLID
5
106
100
AcDbEntity
8
SK2
62
256
6
ByLayer
370
13
48
1
60
0
100
AcDbTrace
10
63
20
16.459119
30
0
11
59.500002
21
15.998335
31
0
12
59.499998
22
16.919903
32
0
13
63
23
16.459119
33
0
39
0
210
0
220
0
230
1
0
ENDBLK
5
108
100
AcDbEntity
8
0
100
AcDbBlockEnd
0
BLOCK
5
111
100
AcDbEntity
8
0
100
AcDbBlockBegin
2
DimnDraft3D4
70
0
10
0
20
0
30
0
3
DimnDraft3D4
0
MTEXT
5
10B
100
AcDbEntity
8
SK2
62
256
6
ByLayer
370
13
48
1
60
0
100
AcDbMText
10
70.278136
20
-16.777503
30
0
210
0
220
0
230
1
1
\W0.6367;1,66
40
3.5
41
0
44
1.084337
50
0
71
7
72
5
7
iso_b_vert
0
LINE
5
10C
100
AcDbEntity
8
SK2
62
256
6
ByLayer
370
13
48
1
60
0
100
AcDbLine
10
63
20
-1.5875
30
0
11
63
21
-19.652503
31
0
39
0
210
0
220
0
230
1
0
LINE
5
10D
100
AcDbEntity
8
SK2
62
256
6
ByLayer
370
13
48
1
60
0
100
AcDbLine
10
61.34
20
-6.4375
30
0
11
61.34
21
-19.652503
31
0
39
0
210
0
220
0
230
1
0
LINE
5
10E
100
AcDbEntity
8
SK2
62
256
6
ByLayer
370
13
48
1
60
0
100
AcDbLine
10
52.59
20
-17.652503
30
0
11
76.559715
21
-17.652503
31
0
39
0
210
0
220
0
230
1
0
SOLID
5
10F
100
AcDbEntity
8
SK2
62
256
6
ByLayer
370
13
48
1
60
0
100
AcDbTrace
10
63
20
-17.652503
30
0
11
66.499998
21
-17.191719
31
0
12
66.500002
22
-18.113287
32
0
13
63
23
-17.652503
33
0
39
0
210
0
220
0
230
1
0
SOLID
5
110
100
AcDbEntity
8
SK2
62
256
6
ByLayer
370
13
48
1
60
0
100
AcDbTrace
10
61.34
20
-17.652503
30
0
11
57.840002
21
-18.113287
31
0
12
57.839998
22
-17.191719
32
0
13
61.34
23
-17.652503
33
0
39
0
210
0
220
0
230
1
0
ENDBLK
5
112
100
AcDbEntity
8
0
100
AcDbBlockEnd
0
BLOCK
5
11B
100
AcDbEntity
8
0
100
AcDbBlockBegin
2
DimnDraft3D5
70
0
10
0
20
0
30
0
3
DimnDraft3D5
0
MTEXT
5
115
100
AcDbEntity
8
SK2
62
256
6
ByLayer
370
13
48
1
60
0
100
AcDbMText
10
3.034887
20
-22.468428
30
0
210
0
220
0
230
1
1
\W0.6593;101,34
40
3.5
41
0
44
1.084337
50
0
71
7
72
5
7
iso_b_vert
0
LINE
5
116
100
AcDbEntity
8
SK2
62
256
6
ByLayer
370
13
48
1
60
0
100
AcDbLine
10
-40
20
-6.5875
30
0
11
-40
21
-25.343428
31
0
39
0
210
0
220
0
230
1
0
LINE
5
117
100
AcDbEntity
8
SK2
62
256
6
ByLayer
370
13
48
1
60
0
100
AcDbLine
10
61.34
20
-6.4375
30
0
11
61.34
21
-25.343428
31
0
39
0
210
0
220
0
230
1
0
LINE
5
118
100
AcDbEntity
8
SK2
62
256
6
ByLayer
370
13
48
1
60
0
100
AcDbLine
10
-40
20
-23.343428
30
0
11
61.34
21
-23.343428
31
0
39
0
210
0
220
0
230
1
0
SOLID
5
119
100
AcDbEntity
8
SK2
62
256
6
ByLayer
370
13
48
1
60
0
100
AcDbTrace
10
-40
20
-23.343428
30
0
11
-36.500002
21
-22.882645
31
0
12
-36.499998
22
-23.804212
32
0
13
-40
23
-23.343428
33
0
39
0
210
0
220
0
230
1
0
SOLID
5
11A
100
AcDbEntity
8
SK2
62
256
6
ByLayer
370
13
48
1
60
0
100
AcDbTrace
10
61.34
20
-23.343428
30
0
11
57.840002
21
-23.804212
31
0
12
57.839998
22
-22.882645
32
0
13
61.34
23
-23.343428
33
0
39
0
210
0
220
0
230
1
0
ENDBLK
5
11C
100
AcDbEntity
8
0
100
AcDbBlockEnd
0
BLOCK
5
126
100
AcDbEntity
8
0
100
AcDbBlockBegin
2
DimnDraft3D6
70
0
10
0
20
0
30
0
3
DimnDraft3D6
0
MTEXT
5
11F
100
AcDbEntity
8
SK2
62
256
6
ByLayer
370
13
48
1
60
0
100
AcDbMText
10
-50.375163
20
24.34918
30
0
210
0
220
0
230
1
1
\W0.6930;10,000
40
3.5
41
0
44
1.084337
50
90
71
7
72
5
7
iso_b_vert
0
MTEXT
5
120
100
AcDbEntity
8
SK2
62
256
6
ByLayer
370
13
48
1
60
0
100
AcDbMText
10
-50.375163
20
19.126524
30
0
210
0
220
0
230
1
1
%%c
40
3.5
41
0
44
1.084337
50
90
71
7
72
5
7
iso_b_vert
0
LINE
5
121
100
AcDbEntity
8
SK2
62
256
6
ByLayer
370
13
48
1
60
0
100
AcDbLine
10
-41.5875
20
-5
30
0
11
-50.625163
21
-5
31
0
39
0
210
0
220
0
230
1
0
LINE
5
122
100
AcDbEntity
8
SK2
62
256
6
ByLayer
370
13
48
1
60
0
100
AcDbLine
10
-41.5875
20
5
30
0
11
-50.625163
21
5
31
0
39
0
210
0
220
0
230
1
0
LINE
5
123
100
AcDbEntity
8
SK2
62
256
6
ByLayer
370
13
48
1
60
0
100
AcDbLine
10
-48.625163
20
-5
30
0
11
-48.625163
21
35.862338
31
0
39
0
210
0
220
0
230
1
0
SOLID
5
124
100
AcDbEntity
8
SK2
62
256
6
ByLayer
370
13
48
1
60
0
100
AcDbTrace
10
-48.625163
20
-5
30
0
11
-49.085946
21
-1.500002
31
0
12
-48.164379
22
-1.499998
32
0
13
-48.625163
23
-5
33
0
39
0
210
0
220
0
230
1
0
SOLID
5
125
100
AcDbEntity
8
SK2
62
256
6
ByLayer
370
13
48
1
60
0
100
AcDbTrace
10
-48.625163
20
5
30
0
11
-48.164379
21
1.500002
31
0
12
-49.085946
22
1.499998
32
0
13
-48.625163
23
5
33
0
39
0
210
0
220
0
230
1
0
ENDBLK
5
127
100
AcDbEntity
8
0
100
AcDbBlockEnd
0
BLOCK
5
131
100
AcDbEntity
8
0
100
AcDbBlockBegin
2
DimnDraft3D7
70
0
10
0
20
0
30
0
3
DimnDraft3D7
0
MTEXT
5
12A
100
AcDbEntity
8
2
62
256
6
ByLayer
370
13
48
1
60
0
100
AcDbMText
10
73.333343
20
22.792266
30
0
210
0
220
0
230
1
1
\W0.7317;9,700
40
3.5
41
0
44
1.084337
50
90
71
7
72
5
7
iso_b_vert
0
MTEXT
5
12B
100
AcDbEntity
8
2
62
256
6
ByLayer
370
13
48
1
60
0
100
AcDbMText
10
73.333343
20
17.56961
30
0
210
0
220
0
230
1
1
%%c
40
3.5
41
0
44
1.084337
50
90
71
7
72
5
7
iso_b_vert
0
LINE
5
12C
100
AcDbEntity
8
2
62
256
6
ByLayer
370
13
48
1
60
0
100
AcDbLine
10
62.9275
20
-4.85
30
0
11
77.083343
21
-4.85
31
0
39
0
210
0
220
0
230
1
0
LINE
5
12D
100
AcDbEntity
8
2
62
256
6
ByLayer
370
13
48
1
60
0
100
AcDbLine
10
62.9275
20
4.85
30
0
11
77.083343
21
4.85
31
0
39
0
210
0
220
0
230
1
0
LINE
5
12E
100
AcDbEntity
8
2
62
256
6
ByLayer
370
13
48
1
60
0
100
AcDbLine
10
75.083343
20
-4.85
30
0
11
75.083343
21
32.564635
31
0
39
0
210
0
220
0
230
1
0
SOLID
5
12F
100
AcDbEntity
8
2
62
256
6
ByLayer
370
13
48
1
60
0
100
AcDbTrace
10
75.083343
20
-4.85
30
0
11
74.622559
21
-1.350002
31
0
12
75.544126
22
-1.349998
32
0
13
75.083343
23
-4.85
33
0
39
0
210
0
220
0
230
1
0
SOLID
5
130
100
AcDbEntity
8
2
62
256
6
ByLayer
370
13
48
1
60
0
100
AcDbTrace
10
75.083343
20
4.85
30
0
11
75.544126
21
1.350002
31
0
12
74.622559
22
1.349998
32
0
13
75.083343
23
4.85
33
0
39
0
210
0
220
0
230
1
0
ENDBLK
5
132
100
AcDbEntity
8
0
100
AcDbBlockEnd
0
ENDSEC
0
SECTION
2
ENTITIES
0
ARC
5
9E
100
AcDbEntity
8
1
62
256
6
ByLayer
370
18
48
1
60
0
100
AcDbCircle
39
0
10
0
20
4.8
30
0
40
0.200000000000002
210
0
220
0
230
1
100
AcDbArc
50
32.235953
51
90
0
ARC
5
9F
100
AcDbEntity
8
1
62
256
6
ByLayer
370
18
48
1
60
0
100
AcDbCircle
39
0
10
0
20
-4.8
30
0
40
0.200000000000002
210
0
220
0
230
1
100
AcDbArc
50
270
51
327.764047
0
ARC
5
A0
100
AcDbEntity
8
1
62
256
6
ByLayer
370
18
48
1
60
0
100
AcDbCircle
39
0
10
-0.338343
20
5.013363
30
0
40
0.199999999999996
210
0
220
0
230
-1
100
AcDbArc
50
269.965623
51
327.764047
0
ARC
5
A1
100
AcDbEntity
8
1
62
256
6
ByLayer
370
18
48
1
60
0
100
AcDbCircle
39
0
10
-0.338343
20
-5.013363
30
0
40
0.199999999999996
210
0
220
0
230
-1
100
AcDbArc
50
32.235953
51
90.034377
0
ELLIPSE
5
A2
100
AcDbEntity
8
1
62
256
6
ByLayer
370
18
48
1
60
0
100
AcDbEllipse
10
62.859988
20
0.131463
30
0
11
0.0727819104916536
21
0.301917195720376
31
0
210
0
220
0
230
-1
40
0.478434
41
1.73621477447286
42
2.45976119973469
0
ELLIPSE
5
A3
100
AcDbEntity
8
1
62
256
6
ByLayer
370
13
48
1
60
0
100
AcDbEllipse
10
62.594273
20
2.322001
30
0
11
2.75779876538445
21
-1.49584001679216
31
0
210
0
220
0
230
-1
40
0.501375
41
1.53150829102371
42
1.86073450557896
0
ELLIPSE
5
A4
100
AcDbEntity
8
1
62
256
6
ByLayer
370
18
48
1
60
0
100
AcDbEllipse
10
62.084456
20
-2.322001
30
0
11
0.749184721898303
21
2.03565915338158
31
0
210
0
220
0
230
-1
40
0.098637
41
0.749112684720298
42
1.55143789121295
0
ELLIPSE
5
A5
100
AcDbEntity
8
1
62
256
6
ByLayer
370
18
48
1
60
0
100
AcDbEllipse
10
63.032155
20
0.02931
30
0
11
0.140634104974709
21
-0.431000092698361
31
0
210
0
220
0
230
-1
40
0.07518
41
1.63729733284775
42
2.31001430907056
0
ELLIPSE
5
A6
100
AcDbEntity
8
1
62
256
6
ByLayer
370
18
48
1
60
0
100
AcDbEllipse
10
62.084456
20
2.322001
30
0
11
0.749184721930592
21
-2.03565915345342
31
0
210
0
220
0
230
-1
40
0.098637
41
-1.55143789119569
42
-0.749112684719667
0
ELLIPSE
5
A7
100
AcDbEntity
8
1
62
256
6
ByLayer
370
13
48
1
60
0
100
AcDbEllipse
10
61.953196
20
0.669492
30
0
11
0.153082081612418
21
0.258003636193773
31
0
210
0
220
0
230
1
40
0.454519
41
0.917105603404792
42
2.31336900500021
0
ELLIPSE
5
A8
100
AcDbEntity
8
1
62
256
6
ByLayer
370
13
48
1
60
0
100
AcDbEllipse
10
62.404366
20
2.198803
30
0
11
2.68253613079885
21
-1.84700240764975
31
0
210
0
220
0
230
-1
40
0.533762
41
1.44484622741892
42
1.75490863525335
0
ELLIPSE
5
A9
100
AcDbEntity
8
1
62
256
6
ByLayer
370
18
48
1
60
0
100
AcDbEllipse
10
63.032155
20
-0.02931
30
0
11
0.140634104942908
21
0.431000092616319
31
0
210
0
220
0
230
-1
40
0.07518
41
-2.31001430904523
42
-1.63729733271135
0
ELLIPSE
5
AA
100
AcDbEntity
8
1
62
256
6
ByLayer
370
13
48
1
60
0
100
AcDbEllipse
10
4.250205
20
-3.316642
30
0
11
0.0386367559014471
21
0.0922344897173069
31
0
210
0
220
0
230
1
40
0.358247
41
0.860599422128138
42
2.41619287268859
0
ELLIPSE
5
AB
100
AcDbEntity
8
1
62
256
6
ByLayer
370
18
48
1
60
0
100
AcDbEllipse
10
63.000422
20
0.001059
30
0
11
1.78412623887385
21
4.84776689388795
31
0
210
0
220
0
230
-1
40
0.098637
41
2.8804675034347
42
2.97946171299922
0
ELLIPSE
5
AC
100
AcDbEntity
8
1
62
256
6
ByLayer
370
18
48
1
60
0
100
AcDbEllipse
10
63.000422
20
-0.001059
30
0
11
1.78412627112764
21
-4.84776698740858
31
0
210
0
220
0
230
-1
40
0.098637
41
-2.97946171456736
42
-2.88046750597128
0
ELLIPSE
5
AD
100
AcDbEntity
8
1
62
256
6
ByLayer
370
13
48
1
60
0
100
AcDbEllipse
10
4.173486
20
-3.299373
30
0
11
0.00013191643596732
21
0.0999999129902318
31
0
210
0
220
0
230
1
40
0.639197
41
0.926068682107806
42
2.21965153751426
0
POINT
5
6C
100
AcDbEntity
8
81
62
256
6
ByLayer
370
18
48
1
60
0
100
AcDbPoint
10
63
20
0
30
0
39
0
210
0
220
0
230
1
50
360
0
POINT
5
6E
100
AcDbEntity
8
80
62
256
6
ByLayer
370
18
48
1
60
0
100
AcDbPoint
10
0
20
0
30
0
39
0
210
0
220
0
230
1
50
360
0
POINT
5
70
100
AcDbEntity
8
SK2
62
256
6
ByLayer
370
18
48
1
60
1
100
AcDbPoint
10
-40
20
-5
30
0
39
0
210
0
220
0
230
1
50
360
0
POINT
5
72
100
AcDbEntity
8
SK2
62
256
6
ByLayer
370
18
48
1
60
1
100
AcDbPoint
10
-40
20
5
30
0
39
0
210
0
220
0
230
1
50
360
0
POINT
5
73
100
AcDbEntity
8
2
62
256
6
ByLayer
370
18
48
1
60
1
100
AcDbPoint
10
61.34
20
-4.85
30
0
39
0
210
0
220
0
230
1
50
360
0
POINT
5
75
100
AcDbEntity
8
2
62
256
6
ByLayer
370
18
48
1
60
1
100
AcDbPoint
10
61.34
20
4.85
30
0
39
0
210
0
220
0
230
1
50
360
0
SPLINE
5
AE
100
AcDbEntity
8
1
62
256
6
ByLayer
370
18
48
1
60
0
100
AcDbSpline
70
4
71
2
72
6
73
3
40
0
40
0
40
0
40
1
40
1
40
1
41
1
10
47.8123611693478
20
0.0014718777253222
30
0
41
1
10
47.8123489591187
20
0.0014770952288927
30
0
41
1
10
47.8123367489292
20
0.0014825257975701
30
0
0
SPLINE
5
AF
100
AcDbEntity
8
1
62
256
6
ByLayer
370
18
48
1
60
0
100
AcDbSpline
70
4
71
3
72
33
73
29
40
0
40
0
40
0
40
0
40
0.0550315095496982
40
0.100768949380599
40
0.132253165147179
40
0.156444252515902
40
0.180114906250231
40
0.20327945714563
40
0.22563915738802
40
0.263813133660636
40
0.303841647576237
40
0.352018302163181
40
0.408880207098538
40
0.458090469842227
40
0.509587910377269
40
0.565746154195674
40
0.61729809528219
40
0.668631935118275
40
0.707849741825879
40
0.738167915790011
40
0.779365291968847
40
0.824288145459041
40
0.847714916550932
40
0.867331518569268
40
0.896120121513583
40
0.93513754953858
40
0.986736100552162
40
1
40
1
40
1
40
1
41
1
10
10.5085653019269
20
-4.60061554586096
30
0
41
1
10
10.7408522237519
20
-4.60082103127371
30
0
41
1
10
11.1661980716292
20
-4.60116523871633
30
0
41
1
10
11.7243152398485
20
-4.60156351890294
30
0
41
1
10
12.1524532321839
20
-4.60179312677491
30
0
41
1
10
12.4870800527384
20
-4.60214265355478
30
0
41
1
10
12.7868796597136
20
-4.60256693997874
30
0
41
1
10
13.0789441538485
20
-4.60283084330086
30
0
41
1
10
13.4322073470449
20
-4.60298168261002
30
0
41
1
10
13.8566779446176
20
-4.60292872145087
30
0
41
1
10
14.3900916623568
20
-4.60383443684802
30
0
41
1
10
15.0024175658058
20
-4.60453367772112
30
0
41
1
10
15.653393499985
20
-4.60365231250313
30
0
41
1
10
16.3187811329321
20
-4.60590926729319
30
0
41
1
10
16.9796905819523
20
-4.60519251451171
30
0
41
1
10
17.649597248463
20
-4.60467467883825
30
0
41
1
10
18.3218093175292
20
-4.60720621307101
30
0
41
1
10
18.9195402762065
20
-4.60600129076622
30
0
41
1
10
19.4295679444652
20
-4.60672488782356
30
0
41
1
10
19.8969807464737
20
-4.60848802861861
30
0
41
1
10
20.3883522698601
20
-4.60786589785607
30
0
41
1
10
20.8510954688051
20
-4.60754941536212
30
0
41
1
10
21.2216517025379
20
-4.60806588204366
30
0
41
1
10
21.52515361669
20
-4.60900768723658
30
0
41
1
10
21.8918406286255
20
-4.60968517975485
30
0
41
1
10
22.3911632651949
20
-4.60791952952155
30
0
41
1
10
22.8316774696041
20
-4.60895046040088
30
0
41
1
10
23.1046270808295
20
-4.60933792590151
30
0
41
1
10
23.1604448371462
20
-4.60943244831165
30
0
0
SPLINE
5
B0
100
AcDbEntity
8
1
62
256
6
ByLayer
370
18
48
1
60
0
100
AcDbSpline
70
4
71
3
72
9
73
5
40
0
40
0
40
0
40
0
40
0.127755717622643
40
1
40
1
40
1
40
1
41
1
10
48.901660787201
20
-1.08166958353218
30
0
41
1
10
48.9015486630441
20
-1.08161738528216
30
0
41
1
10
48.9021329167633
20
-1.08208464765843
30
0
41
1
10
48.9251841836096
20
-1.09563639851839
30
0
41
1
10
48.9532236234719
20
-1.11223599451378
30
0
0
SPLINE
5
B1
100
AcDbEntity
8
1
62
256
6
ByLayer
370
18
48
1
60
0
100
AcDbSpline
70
4
71
3
72
12
73
8
40
0
40
0
40
0
40
0
40
0.0979722424824951
40
0.163649717452775
40
0.271940710687135
40
0.645729876487202
40
1
40
1
40
1
40
1
41
1
10
23.8067071122008
20
-1.02916117887756
30
0
41
1
10
23.8066534644058
20
-1.02913717339223
30
0
41
1
10
23.8077692904004
20
-1.02975357156842
30
0
41
1
10
23.81415649741
20
-1.03332148559903
30
0
41
1
10
23.8509175094069
20
-1.05395698102825
30
0
41
1
10
23.9166303993093
20
-1.09170195075674
30
0
41
1
10
23.9807697561128
20
-1.12962588350072
30
0
41
1
10
24.0140767150779
20
-1.14953077610073
30
0
0
SPLINE
5
B2
100
AcDbEntity
8
1
62
256
6
ByLayer
370
18
48
1
60
0
100
AcDbSpline
70
4
71
3
72
30
73
26
40
0
40
0
40
0
40
0
40
0.0665119745161171
40
0.114972285579101
40
0.147443000333689
40
0.175504945039055
40
0.201001165016364
40
0.249652308463307
40
0.301325797794656
40
0.364334236460473
40
0.419802999695932
40
0.485447745485993
40
0.542735467224213
40
0.591804664563737
40
0.64515148075954
40
0.689181727190954
40
0.740394853733613
40
0.791593661776288
40
0.826785525499533
40
0.866508428336508
40
0.909385479883034
40
0.939428371245587
40
0.968032708925202
40
0.999471362694317
40
1
40
1
40
1
40
1
41
1
10
35.4435251260632
20
-4.61559332720611
30
0
41
1
10
35.7301771324104
20
-4.61580385129159
30
0
41
1
10
36.2256447517569
20
-4.6162039917522
30
0
41
1
10
36.8613837280802
20
-4.61642609377017
30
0
41
1
10
37.3307685807647
20
-4.61709052414486
30
0
41
1
10
37.7014374490967
20
-4.6173436872516
30
0
41
1
10
38.1420626689788
20
-4.61742020790115
30
0
41
1
10
38.6844037438448
20
-4.6176229889131
30
0
41
1
10
39.3884678132315
20
-4.61849945658949
30
0
41
1
10
40.1219033664009
20
-4.61804892711029
30
0
41
1
10
40.9155807959415
20
-4.61957120774019
30
0
41
1
10
41.6845925595443
20
-4.61866637254252
30
0
41
1
10
42.4260211608018
20
-4.62056410775946
30
0
41
1
10
43.1144403090832
20
-4.62017412333219
30
0
41
1
10
43.7457090848318
20
-4.61986772859834
30
0
41
1
10
44.3862191125463
20
-4.62176059558033
30
0
41
1
10
45.0174732080261
20
-4.62074151090064
30
0
41
1
10
45.6106245479099
20
-4.62146373580561
30
0
41
1
10
46.1542564997636
20
-4.62312394854092
30
0
41
1
10
46.6619734197574
20
-4.62243103331869
30
0
41
1
10
47.1469446727714
20
-4.62188865928695
30
0
41
1
10
47.5806117989891
20
-4.62221041322013
30
0
41
1
10
47.951780703546
20
-4.61813259109903
30
0
41
1
10
48.2252437555069
20
-4.61921948852387
30
0
41
1
10
48.3552396768707
20
-4.6200136316634
30
0
41
1
10
48.3573883310762
20
-4.62002694054104
30
0
0
SPLINE
5
B3
100
AcDbEntity
8
1
62
256
6
ByLayer
370
18
48
1
60
0
100
AcDbSpline
70
4
71
3
72
31
73
27
40
0
40
0
40
0
40
0
40
0.0427614762573582
40
0.0967093477838189
40
0.143324785181819
40
0.181064527724683
40
0.221240955635155
40
0.268925604179477
40
0.326162592092269
40
0.367940517788223
40
0.397028217028037
40
0.427929016843265
40
0.46348586704769
40
0.503938690962606
40
0.550460504483143
40
0.615315905482167
40
0.672654287462351
40
0.704206270183303
40
0.746606022922045
40
0.798427673583249
40
0.839739399200878
40
0.877188266996914
40
0.926267202664441
40
0.976368514639037
40
0.996552334138863
40
1
40
1
40
1
40
1
41
1
10
23.3475836456418
20
4.60793203175984
30
0
41
1
10
23.1936087418264
20
4.60658744648822
30
0
41
1
10
22.8473240553695
20
4.60456842457924
30
0
41
1
10
22.3489675053734
20
4.60905018641748
30
0
41
1
10
21.8596403516544
20
4.60952871758479
30
0
41
1
10
21.4130478306326
20
4.60886245983244
30
0
41
1
10
20.964202831657
20
4.60747546914581
30
0
41
1
10
20.4450311296764
20
4.60779758327945
30
0
41
1
10
19.9203165243351
20
4.6086569722481
30
0
41
1
10
19.462083653783
20
4.6068178630195
30
0
41
1
10
19.098040631912
20
4.60633790940079
30
0
41
1
10
18.75633574408
20
4.60641795079835
30
0
41
1
10
18.3743125665255
20
4.6071065562511
30
0
41
1
10
17.9367525549422
20
4.60679830395765
30
0
41
1
10
17.3933382982522
20
4.60451036168877
30
0
41
1
10
16.7902540246184
20
4.60562562203785
30
0
41
1
10
16.2411426984583
20
4.60546001283896
30
0
41
1
10
15.7713332878555
20
4.60410407579044
30
0
41
1
10
15.3217293357217
20
4.60410021329176
30
0
41
1
10
14.8374696592211
20
4.60429253172305
30
0
41
1
10
14.3700177974385
20
4.60370237704777
30
0
41
1
10
13.9139484022658
20
4.60299102212193
30
0
41
1
10
13.4248443646237
20
4.60298677569261
30
0
41
1
10
12.9979648481225
20
4.60280862700409
30
0
41
1
10
12.7342104108498
20
4.60248641880472
30
0
41
1
10
12.6498246600626
20
4.60236298910749
30
0
41
1
10
12.6375154832799
20
4.60234469318669
30
0
0
SPLINE
5
B4
100
AcDbEntity
8
1
62
256
6
ByLayer
370
18
48
1
60
0
100
AcDbSpline
70
4
71
2
72
6
73
3
40
0
40
0
40
0
40
1
40
1
40
1
41
1
10
60.5119204084082
20
-4.63061323885569
30
0
41
1
10
60.9126962915889
20
-4.62859874892553
30
0
41
1
10
61.3131906321374
20
-4.63248918719907
30
0
0
SPLINE
5
B5
100
AcDbEntity
8
1
62
256
6
ByLayer
370
18
48
1
60
0
100
AcDbSpline
70
4
71
3
72
24
73
20
40
0
40
0
40
0
40
0
40
0.0007128428471339
40
0.0387995731546129
40
0.0900477334803148
40
0.145638722606974
40
0.200577083660186
40
0.256513889910589
40
0.324752813831943
40
0.382723048659656
40
0.434353047179345
40
0.497062763465883
40
0.554022347347806
40
0.623424237907368
40
0.702950344481245
40
0.770148636169059
40
0.846480957178914
40
0.925385280022239
40
1
40
1
40
1
40
1
41
1
10
48.3581179218908
20
4.62003140874145
30
0
41
1
10
48.3557265477123
20
4.62001657789727
30
0
41
1
10
48.2254878063391
20
4.61921955847305
30
0
41
1
10
47.8914590262078
20
4.6182997263777
30
0
41
1
10
47.4002583648283
20
4.62296062697322
30
0
41
1
10
46.822254656936
20
4.62183890685859
30
0
41
1
10
46.2309734955086
20
4.62334921051433
30
0
41
1
10
45.5933610044198
20
4.62130242935817
30
0
41
1
10
44.9453453458424
20
4.62088478279424
30
0
41
1
10
44.3125404253614
20
4.62165985556203
30
0
41
1
10
43.6994382461656
20
4.61977270944118
30
0
41
1
10
43.0899253434035
20
4.62023090194228
30
0
41
1
10
42.417176021821
20
4.62053195154081
30
0
41
1
10
41.6845927322034
20
4.6186693357169
30
0
41
1
10
40.9155799946155
20
4.6195715704053
30
0
41
1
10
40.1219059935525
20
4.61804549673775
30
0
41
1
10
39.3304454641514
20
4.61855103344018
30
0
41
1
10
38.5126450472914
20
4.61727824376658
30
0
41
1
10
37.966286081562
20
4.61741934822342
30
0
41
1
10
37.7008635657865
20
4.61731228591256
30
0
0
SPLINE
5
B6
100
AcDbEntity
8
1
62
256
6
ByLayer
370
18
48
1
60
0
100
AcDbSpline
70
4
71
3
72
10
73
6
40
0
40
0
40
0
40
0
40
0.890490162253524
40
0.890490162253524
40
1
40
1
40
1
40
1
41
1
10
61.3168803618218
20
4.81153884744205
30
0
41
1
10
61.0175613706522
20
4.83432337135969
30
0
41
1
10
60.7182892204993
20
4.84681492993624
30
0
41
1
10
60.3817950028879
20
4.84927227186733
30
0
41
1
10
60.3449312258086
20
4.84938450316773
30
0
41
1
10
60.3080579891307
20
4.8493402469002
30
0
0
SPLINE
5
B7
100
AcDbEntity
8
1
62
256
6
ByLayer
370
18
48
1
60
0
100
AcDbSpline
70
4
71
3
72
46
73
42
40
0
40
0
40
0
40
0
40
0.049217201820495
40
0.049217201820495
40
0.114621515142398
40
0.114621515142398
40
0.14732367180335
40
0.14732367180335
40
0.180025828464302
40
0.180025828464302
40
0.310834455108113
40
0.310834455108113
40
0.343536611769066
40
0.343536611769066
40
0.376238768430018
40
0.376238768430018
40
0.441643081751924
40
0.441643081751924
40
0.507047395073829
40
0.507047395073829
40
0.523398473404306
40
0.523398473404306
40
0.539749551734783
40
0.539749551734783
40
0.572451708395736
40
0.572451708395736
40
0.703260335039548
40
0.703260335039548
40
0.735962491700502
40
0.735962491700502
40
0.768664648361455
40
0.768664648361455
40
0.834068961683361
40
0.834068961683361
40
0.866771118344314
40
0.866771118344314
40
0.899473275005267
40
0.899473275005267
40
0.964877588327173
40
0.964877588327173
40
1
40
1
40
1
40
1
41
1
10
37.6255075573222
20
-4.63325896935689
30
0
41
1
10
37.178942619617
20
-4.71070496210561
30
0
41
1
10
36.7336003298634
20
-4.76603628351117
30
0
41
1
10
35.6954265334658
20
-4.84237686332733
30
0
41
1
10
35.1022156708775
20
-4.8461063007108
30
0
41
1
10
34.2052582881454
20
-4.79018470439524
30
0
41
1
10
33.9042652811411
20
-4.76113710304918
30
0
41
1
10
33.3060183227116
20
-4.68333839416786
30
0
41
1
10
33.008109885297
20
-4.63460013106896
30
0
41
1
10
31.5222039382515
20
-4.34372272454647
30
0
41
1
10
30.3447918073951
20
-3.96033429379449
30
0
41
1
10
28.8476397309035
20
-3.32374381862232
30
0
41
1
10
28.5466905106638
20
-3.18847090678653
30
0
41
1
10
27.9491227410765
20
-2.906798436917
30
0
41
1
10
27.6514785220576
20
-2.76006940114098
30
0
41
1
10
26.7604344860417
20
-2.30455906006708
30
0
41
1
10
26.1687645195144
20
-1.98070436446861
30
0
41
1
10
24.9830224140301
20
-1.30353414599759
30
0
41
1
10
24.3885961523382
20
-0.950774073605857
30
0
41
1
10
23.6388965965758
20
-0.499249611558355
30
0
41
1
10
23.4884992011466
20
-0.408351773377206
30
0
41
1
10
23.1887989930824
20
-0.226934078167602
30
0
41
1
10
23.0392713640528
20
-0.136274176916146
30
0
41
1
10
22.5914879888118
20
0.135289073202898
30
0
41
1
10
22.2940297673079
20
0.315772518287446
30
0
41
1
10
20.8095697661043
20
1.21133880466331
30
0
41
1
10
19.6309886849479
20
1.90576574981367
30
0
41
1
10
18.1290183045721
20
2.68087660429643
30
0
41
1
10
17.8294966289901
20
2.83011623748126
30
0
41
1
10
17.2330248219162
20
3.11470519549209
30
0
41
1
10
16.9357374496658
20
3.25020670169317
30
0
41
1
10
16.0452381371972
20
3.63482825648137
30
0
41
1
10
15.4537163283269
20
3.86242284848234
30
0
41
1
10
14.5631194016781
20
4.15364540223754
30
0
41
1
10
14.2657793853661
20
4.24243775553978
30
0
41
1
10
13.6691225552026
20
4.40233881578425
30
0
41
1
10
13.3693158969623
20
4.47351957975189
30
0
41
1
10
12.4681944643086
20
4.65814799161979
30
0
41
1
10
11.8733127602478
20
4.74138904727258
30
0
41
1
10
10.961289022961
20
4.80769135132013
30
0
41
1
10
10.6430949478787
20
4.81930719899944
30
0
41
1
10
10.3247489642521
20
4.81935344836506
30
0
0
SPLINE
5
B8
100
AcDbEntity
8
1
62
256
6
ByLayer
370
18
48
1
60
0
100
AcDbSpline
70
4
71
3
72
16
73
12
40
0
40
0
40
0
40
0
40
0.250000000000002
40
0.250000000000002
40
0.375000000000002
40
0.375000000000002
40
0.500000000000001
40
0.500000000000001
40
0.750000000000001
40
0.750000000000001
40
1
40
1
40
1
40
1
41
1
10
9.22086096972703
20
0.783083872819759
30
0
41
1
10
8.79025099037483
20
1.02750138831914
30
0
41
1
10
8.36541560467074
20
1.273496152972
30
0
41
1
10
7.73374681894225
20
1.63731475597916
30
0
41
1
10
7.52414982086222
20
1.75763966067123
30
0
41
1
10
7.10634155710196
20
1.99619245781361
30
0
41
1
10
6.8981372542284
20
2.1144139033317
30
0
41
1
10
6.27536665677266
20
2.46464782779543
30
0
41
1
10
5.86249723630701
20
2.69222122242778
30
0
41
1
10
5.04213433707778
20
3.13196092543348
30
0
41
1
10
4.63993003398514
20
3.34109340197796
30
0
41
1
10
4.25131757572524
20
3.53857502186696
30
0
0
SPLINE
5
B9
100
AcDbEntity
8
1
62
256
6
ByLayer
370
18
48
1
60
0
100
AcDbSpline
70
4
71
3
72
56
73
52
40
0
40
0
40
0
40
0
40
0.0775434587043728
40
0.0775434587043728
40
0.11631518805656
40
0.11631518805656
40
0.155086917408747
40
0.155086917408747
40
0.193858646760933
40
0.193858646760933
40
0.23263037611312
40
0.23263037611312
40
0.271402105465307
40
0.271402105465307
40
0.310173834817494
40
0.310173834817494
40
0.34894556416968
40
0.34894556416968
40
0.387717293521867
40
0.387717293521867
40
0.426489022874054
40
0.426489022874054
40
0.465260752226241
40
0.465260752226241
40
0.504032481578428
40
0.504032481578428
40
0.542804210930615
40
0.542804210930615
40
0.581575940282802
40
0.581575940282802
40
0.620347669634988
40
0.620347669634988
40
0.659119398987175
40
0.659119398987175
40
0.697891128339362
40
0.697891128339362
40
0.736662857691549
40
0.736662857691549
40
0.775434587043736
40
0.775434587043736
40
0.814206316395923
40
0.814206316395923
40
0.852978045748109
40
0.852978045748109
40
0.891749775100296
40
0.891749775100296
40
0.930521504452483
40
0.930521504452483
40
0.96929323380467
40
0.96929323380467
40
1
40
1
40
1
40
1
41
1
10
9.22106871157177
20
0.782960365218486
30
0
41
1
10
9.72434035311798
20
0.496043644235641
30
0
41
1
10
10.2262186751255
20
0.20653166847822
30
0
41
1
10
10.9783942429869
20
-0.22908922186167
30
0
41
1
10
11.2289752486022
20
-0.374586741473138
30
0
41
1
10
11.7315656263421
20
-0.66318741533405
30
0
41
1
10
11.9835990136054
20
-0.806788655131271
30
0
41
1
10
12.4862410458274
20
-1.09112806250542
30
0
41
1
10
12.736989114627
20
-1.23226616882309
30
0
41
1
10
13.2382767021891
20
-1.50994924228698
30
0
41
1
10
13.4891778986927
20
-1.64603850778363
30
0
41
1
10
13.9913611957918
20
-1.91342476712498
30
0
41
1
10
14.2426036286815
20
-2.04491356673628
30
0
41
1
10
14.745625364427
20
-2.30247325803632
30
0
41
1
10
14.9964579019261
20
-2.42753814340443
30
0
41
1
10
15.4984217578893
20
-2.66896470431462
30
0
41
1
10
15.7493223218117
20
-2.78570721550048
30
0
41
1
10
16.2509325079849
20
-3.01191407600661
30
0
41
1
10
16.5015247033531
20
-3.12092345432376
30
0
41
1
10
17.0036262753156
20
-3.32864330798799
30
0
41
1
10
17.2555784522959
20
-3.42744168349898
30
0
41
1
10
17.7582213043221
20
-3.615166271144
30
0
41
1
10
18.0091576411254
20
-3.70447511283726
30
0
41
1
10
18.5104200569504
20
-3.86993899342733
30
0
41
1
10
18.7609263269528
20
-3.94665262470875
30
0
41
1
10
19.2630061974658
20
-4.08857434783124
30
0
41
1
10
19.5144129550202
20
-4.15427652897679
30
0
41
1
10
20.0174926418045
20
-4.27321805997784
30
0
41
1
10
20.2681952098039
20
-4.32553527345524
30
0
41
1
10
20.7695873261869
20
-4.41718204337843
30
0
41
1
10
21.0204229709207
20
-4.45641762038136
30
0
41
1
10
21.5220659669638
20
-4.52305152279814
30
0
41
1
10
21.7728862926653
20
-4.54953093266673
30
0
41
1
10
22.2749292584121
20
-4.58769535625379
30
0
41
1
10
22.5264528729526
20
-4.59988946133572
30
0
41
1
10
23.0288319931108
20
-4.61160915613939
30
0
41
1
10
23.2797778462251
20
-4.61167733316029
30
0
41
1
10
23.7811915439948
20
-4.59520068158568
30
0
41
1
10
24.0315699702694
20
-4.57934397546526
30
0
41
1
10
24.5332847676113
20
-4.53530863912113
30
0
41
1
10
24.7848519081912
20
-4.50741069617894
30
0
41
1
10
25.2877376338617
20
-4.43843112758191
30
0
41
1
10
25.5385577327925
20
-4.39600485674265
30
0
41
1
10
26.0395327373129
20
-4.29810197322692
30
0
41
1
10
26.2899778194651
20
-4.24297040325092
30
0
41
1
10
26.7914664515197
20
-4.12199241495964
30
0
41
1
10
27.0423368239549
20
-4.05543269726729
30
0
41
1
10
27.544651754412
20
-3.9079733043344
30
0
41
1
10
27.7958121843071
20
-3.82773314564605
30
0
41
1
10
28.2454058947522
20
-3.67594989335654
30
0
41
1
10
28.4440809367041
20
-3.60601986550046
30
0
41
1
10
28.6426886820453
20
-3.53234670428606
30
0
0
SPLINE
5
BA
100
AcDbEntity
8
1
62
256
6
ByLayer
370
18
48
1
60
0
100
AcDbSpline
70
4
71
3
72
30
73
26
40
0
40
0
40
0
40
0
40
8.3355516115E-05
40
8.3355516115E-05
40
0.0834097425564388
40
0.0834097425564388
40
0.166736129596763
40
0.166736129596763
40
0.250062516637087
40
0.250062516637087
40
0.33338890367741
40
0.33338890367741
40
0.416715290717734
40
0.416715290717734
40
0.500041677758057
40
0.500041677758057
40
0.583368064798381
40
0.583368064798381
40
0.666694451838705
40
0.666694451838705
40
0.750020838879029
40
0.750020838879029
40
0.833347225919352
40
0.833347225919352
40
1
40
1
40
1
40
1
41
1
10
48.3580028335791
20
4.62005025474119
30
0
41
1
10
48.3582537233386
20
4.62004492694965
30
0
41
1
10
48.3585046127915
20
4.62003959220766
30
0
41
1
10
48.6095569728889
20
4.61469442536637
30
0
41
1
10
48.8603300326402
20
4.60271837663558
30
0
41
1
10
49.361536125615
20
4.56710639187438
30
0
41
1
10
49.611939483683
20
4.54255673458212
30
0
41
1
10
50.1126882479994
20
4.47801000932279
30
0
41
1
10
50.3631824192539
20
4.43833129761708
30
0
41
1
10
50.8657617875902
20
4.34619840571631
30
0
41
1
10
51.1169619938442
20
4.29367868492838
30
0
41
1
10
51.618381335807
20
4.17643315078431
30
0
41
1
10
51.8686042794507
20
4.11155544361185
30
0
41
1
10
52.3694189484943
20
3.97078553892234
30
0
41
1
10
52.6201644222738
20
3.89511653713325
30
0
41
1
10
53.1221384968924
20
3.73140638617755
30
0
41
1
10
53.3736652648103
20
3.64309206072772
30
0
41
1
10
53.8750834741812
20
3.45546222528739
30
0
41
1
10
54.1254455576117
20
3.35643125077556
30
0
41
1
10
54.6265967988081
20
3.1495844517581
30
0
41
1
10
54.8771839374011
20
3.04145633626746
30
0
41
1
10
55.3784817009292
20
2.81582162085914
30
0
41
1
10
55.6291670380952
20
2.69807816467289
30
0
41
1
10
56.3825453930095
20
2.33424973324841
30
0
41
1
10
56.8838303199834
20
2.07852329546881
30
0
41
1
10
57.3843997252584
20
1.81013152259206
30
0
0
SPLINE
5
BB
100
AcDbEntity
8
1
62
256
6
ByLayer
370
18
48
1
60
0
100
AcDbSpline
70
4
71
3
72
24
73
20
40
0
40
0
40
0
40
0
40
0.250000000000017
40
0.250000000000017
40
0.375000000000014
40
0.375000000000014
40
0.500000000000012
40
0.500000000000012
40
0.625000000000009
40
0.625000000000009
40
0.750000000000006
40
0.750000000000006
40
0.812500000000004
40
0.812500000000004
40
0.875000000000003
40
0.875000000000003
40
0.937500000000001
40
0.937500000000001
40
1
40
1
40
1
40
1
41
1
10
61.0871643881638
20
1.4246722831692
30
0
41
1
10
61.2241996078786
20
1.45594262900522
30
0
41
1
10
61.3598434529036
20
1.49182695800403
30
0
41
1
10
61.5590710951375
20
1.55725191883829
30
0
41
1
10
61.6247942788829
20
1.58102544187088
30
0
41
1
10
61.7543241674003
20
1.63416083935448
30
0
41
1
10
61.8181537431398
20
1.6635316665151
30
0
41
1
10
61.9409970745478
20
1.72976013593157
30
0
41
1
10
62.000543344496
20
1.76683231859704
30
0
41
1
10
62.1111702857006
20
1.85258310371503
30
0
41
1
10
62.1615599252721
20
1.90052717870194
30
0
41
1
10
62.2248573729835
20
1.98531986385211
30
0
41
1
10
62.2433765241628
20
2.01518910787612
30
0
41
1
10
62.2740393605204
20
2.07815050119424
30
0
41
1
10
62.2863302340615
20
2.111793964161
30
0
41
1
10
62.3029298675768
20
2.18036415469121
30
0
41
1
10
62.3073330257914
20
2.21520394133023
30
0
41
1
10
62.3087765942826
20
2.28594647625931
30
0
41
1
10
62.3057258451804
20
2.32177653730739
30
0
41
1
10
62.2997114024282
20
2.35647952382823
30
0
0
SPLINE
5
BC
100
AcDbEntity
8
1
62
256
6
ByLayer
370
18
48
1
60
0
100
AcDbSpline
70
2053
71
3
72
62
73
58
40
0
40
0
40
0
40
0
40
0.03125
40
0.03125
40
0.0625000000000001
40
0.0625000000000001
40
0.0937500000000001
40
0.0937500000000001
40
0.125
40
0.125
40
0.15625
40
0.15625
40
0.1875
40
0.1875
40
0.21875
40
0.21875
40
0.25
40
0.25
40
0.28125
40
0.28125
40
0.3125
40
0.3125
40
0.375000000000003
40
0.375000000000003
40
0.437500000000006
40
0.437500000000006
40
0.468750000000006
40
0.468750000000006
40
0.500000000000005
40
0.500000000000005
40
0.531250000000005
40
0.531250000000005
40
0.562500000000004
40
0.562500000000004
40
0.593750000000004
40
0.593750000000004
40
0.625000000000003
40
0.625000000000003
40
0.656250000000003
40
0.656250000000003
40
0.687500000000002
40
0.687500000000002
40
0.718750000000002
40
0.718750000000002
40
0.750000000000001
40
0.750000000000001
40
0.812500000000002
40
0.812500000000002
40
0.843750000000002
40
0.843750000000002
40
0.875000000000003
40
0.875000000000003
40
0.906250000000003
40
0.906250000000003
40
0.937500000000003
40
0.937500000000003
40
1
40
1
40
1
40
1
41
1
10
61.739829902226
20
-1.55116121839066
30
0
41
1
10
61.717078154329
20
-1.58343644638549
30
0
41
1
10
61.6947859319291
20
-1.61804828372331
30
0
41
1
10
61.651196548288
20
-1.69233164497317
30
0
41
1
10
61.6296667356623
20
-1.73248407641242
30
0
41
1
10
61.5890641001162
20
-1.81632286016748
30
0
41
1
10
61.5700653767415
20
-1.85974467025224
30
0
41
1
10
61.5350421630252
20
-1.95001878410963
30
0
41
1
10
61.5193614146984
20
-1.99614248710307
30
0
41
1
10
61.4931326230532
20
-2.08673859266804
30
0
41
1
10
61.4822612510242
20
-2.13248770046081
30
0
41
1
10
61.4666916252176
20
-2.21862764426342
30
0
41
1
10
61.4618368928065
20
-2.25941573960628
30
0
41
1
10
61.4580207219474
20
-2.33507766255934
30
0
41
1
10
61.4590782219982
20
-2.36884259854753
30
0
41
1
10
61.4664820256201
20
-2.42912115031837
30
0
41
1
10
61.4728244807454
20
-2.45513338281083
30
0
41
1
10
61.4897604771267
20
-2.49860588793553
30
0
41
1
10
61.5005091331342
20
-2.51638174251363
30
0
41
1
10
61.525238066402
20
-2.5435481352425
30
0
41
1
10
61.5392492001513
20
-2.55312676592732
30
0
41
1
10
61.585812328076
20
-2.57084671686275
30
0
41
1
10
61.6217540140407
20
-2.56776433789989
30
0
41
1
10
61.7011962693189
20
-2.53512478887214
30
0
41
1
10
61.7433246404917
20
-2.50618899158857
30
0
41
1
10
61.8097482745113
20
-2.44423563848687
30
0
41
1
10
61.8323677344932
20
-2.42044620936073
30
0
41
1
10
61.8772710521346
20
-2.3678234722864
30
0
41
1
10
61.899733585744
20
-2.33883572102655
30
0
41
1
10
61.9446823447361
20
-2.27502946010225
30
0
41
1
10
61.9673986856752
20
-2.23979886231703
30
0
41
1
10
62.0112218395872
20
-2.16515531361503
30
0
41
1
10
62.0324255045438
20
-2.12568133856351
30
0
41
1
10
62.073211000448
20
-2.0418026734969
30
0
41
1
10
62.0926378562215
20
-1.99759927640631
30
0
41
1
10
62.1276596706844
20
-1.90795277609283
30
0
41
1
10
62.1436927001755
20
-1.86130117837001
30
0
41
1
10
62.1704077206977
20
-1.77003030231572
30
0
41
1
10
62.1812127433661
20
-1.72531440160645
30
0
41
1
10
62.1973454089538
20
-1.63785583410203
30
0
41
1
10
62.2023096198099
20
-1.59698021892748
30
0
41
1
10
62.2063340951377
20
-1.52144566247924
30
0
41
1
10
62.2053188393106
20
-1.48689707527112
30
0
41
1
10
62.1979510358238
20
-1.42682772230518
30
0
41
1
10
62.1915246480462
20
-1.40062348759736
30
0
41
1
10
62.1658628464862
20
-1.33562513699317
30
0
41
1
10
62.1399890531653
20
-1.30914119894206
30
0
41
1
10
62.0934286986925
20
-1.29200656764425
30
0
41
1
10
62.0763833680562
20
-1.28998746838593
30
0
41
1
10
62.0405017011417
20
-1.29292149400172
30
0
41
1
10
62.0216368198767
20
-1.29780662129048
30
0
41
1
10
61.9821536442073
20
-1.3140628680348
30
0
41
1
10
61.9613764742661
20
-1.32556231834147
30
0
41
1
10
61.9190707655288
20
-1.35452856248301
30
0
41
1
10
61.8974998260514
20
-1.37196740171606
30
0
41
1
10
61.8315235058352
20
-1.43321644016763
30
0
41
1
10
61.7853333980202
20
-1.486610762401
30
0
41
1
10
61.739829902226
20
-1.55116121839066
30
0
0
SPLINE
5
BD
100
AcDbEntity
8
1
62
256
6
ByLayer
370
18
48
1
60
0
100
AcDbSpline
70
4
71
3
72
16
73
12
40
0
40
0
40
0
40
0
40
0.250000000000039
40
0.250000000000039
40
0.500000000000079
40
0.500000000000079
40
0.62500000000008
40
0.62500000000008
40
0.750000000000082
40
0.750000000000082
40
1
40
1
40
1
40
1
41
1
10
60.9440666902982
20
1.12930565393904
30
0
41
1
10
60.9365373493554
20
1.15815761033431
30
0
41
1
10
60.9323855467124
20
1.18765597899903
30
0
41
1
10
60.9328074249064
20
1.24838523567954
30
0
41
1
10
60.9373984737818
20
1.27911067533802
30
0
41
1
10
60.9539074521463
20
1.32337334485135
30
0
41
1
10
60.9608981953841
20
1.33775536515938
30
0
41
1
10
60.9787858892026
20
1.36349104042532
30
0
41
1
10
60.9897545125488
20
1.3752254500605
30
0
41
1
10
61.0265949172845
20
1.40495295853307
30
0
41
1
10
61.056341397763
20
1.41763872222396
30
0
41
1
10
61.0871643881637
20
1.42467228316934
30
0
0
SPLINE
5
BE
100
AcDbEntity
8
1
62
256
6
ByLayer
370
13
48
1
60
0
100
AcDbSpline
70
4
71
3
72
8
73
4
40
0
40
0
40
0
40
0
40
1
40
1
40
1
40
1
41
1
10
4.12247676575717
20
-3.35973371129549
30
0
41
1
10
4.14640839850239
20
-3.35962692012595
30
0
41
1
10
4.1725211976725
20
-3.36543554366537
30
0
41
1
10
4.19937376864505
20
-3.376472089684
30
0
0
SPLINE
5
BF
100
AcDbEntity
8
1
62
256
6
ByLayer
370
18
48
1
60
0
100
AcDbSpline
70
4
71
3
72
16
73
12
40
0
40
0
40
0
40
0
40
0.25
40
0.25
40
0.374999999999999
40
0.374999999999999
40
0.499999999999998
40
0.499999999999998
40
0.749999999999999
40
0.749999999999999
40
1
40
1
40
1
40
1
41
1
10
4.25131756924776
20
3.53857502515649
30
0
41
1
10
4.22563440765856
20
3.55162646559654
30
0
41
1
10
4.19894826783559
20
3.56625777281312
30
0
41
1
10
4.15736066284637
20
3.59136962380953
30
0
41
1
10
4.14360125839073
20
3.60005912565339
30
0
41
1
10
4.11634378030791
20
3.61822862723844
30
0
41
1
10
4.10289226087173
20
3.62769919842046
30
0
41
1
10
4.06567588949099
20
3.65567999736487
30
0
41
1
10
4.04425390320307
20
3.67447031272556
30
0
41
1
10
4.01438669519291
20
3.70707701669446
30
0
41
1
10
4.0057585988682
20
3.72080231694432
30
0
41
1
10
4.0021111061194
20
3.7319044810063
30
0
0
SPLINE
5
C0
100
AcDbEntity
8
1
62
256
6
ByLayer
370
13
48
1
60
0
100
AcDbSpline
70
4
71
3
72
31
73
27
40
0
40
0
40
0
40
0
40
0.125
40
0.125
40
0.1875
40
0.1875
40
0.25
40
0.3125
40
0.3125
40
0.375
40
0.375
40
0.5
40
0.5
40
0.5625
40
0.5625
40
0.625
40
0.625
40
0.6875
40
0.6875
40
0.75
40
0.75
40
0.8125
40
0.8125
40
0.875
40
0.875
40
1
40
1
40
1
40
1
41
1
10
4.25034121329574
20
-3.24601160049499
30
0
41
1
10
4.2504101915323
20
-3.01869498637751
30
0
41
1
10
4.25046856528905
20
-2.77057851805384
30
0
41
1
10
4.25054664284838
20
-2.36741062032502
30
0
41
1
10
4.25057094052386
20
-2.22842862437599
30
0
41
1
10
4.25061656438109
20
-1.94537109009809
30
0
41
1
10
4.25065943522611
20
-1.65610390783758
30
0
41
1
10
4.25069890766201
20
-1.3545476393605
30
0
41
1
10
4.25073761641957
20
-1.04671177307009
30
0
41
1
10
4.25075665100979
20
-0.8890904422652
30
0
41
1
10
4.25081259345686
20
-0.417414222063457
30
0
41
1
10
4.2508488501785
20
-0.101356307191821
30
0
41
1
10
4.25090525274109
20
0.375129407104112
30
0
41
1
10
4.25092445346453
20
0.535058764866875
30
0
41
1
10
4.25096333327573
20
0.851828581488633
30
0
41
1
10
4.25098299146674
20
1.00852725347397
30
0
41
1
10
4.25102281846722
20
1.31855165978121
30
0
41
1
10
4.25104296658262
20
1.47168401351286
30
0
41
1
10
4.25108298362926
20
1.76980148835409
30
0
41
1
10
4.25110293103023
20
1.91540450935926
30
0
41
1
10
4.2511423328661
20
2.19973941747696
30
0
41
1
10
4.25116178842714
20
2.33847169482033
30
0
41
1
10
4.25119960705695
20
2.60888004411089
30
0
41
1
10
4.25121771908357
20
2.73879692692569
30
0
41
1
10
4.25126826594661
20
3.11059045707268
30
0
41
1
10
4.25129719281654
20
3.33591866654928
30
0
41
1
10
4.25131756924594
20
3.53857502108363
30
0
0
SPLINE
5
C1
100
AcDbEntity
8
1
62
256
6
ByLayer
370
18
48
1
60
0
100
AcDbSpline
70
4
71
3
72
16
73
12
40
0
40
0
40
0
40
0
40
0.161144571000694
40
0.161144571000694
40
0.29805586641107
40
0.29805586641107
40
0.434967161821445
40
0.434967161821445
40
0.982612343462944
40
0.982612343462944
40
1
40
1
40
1
40
1
41
1
10
22.7967095741076
20
0.0106414310183141
30
0
41
1
10
23.1454028132242
20
-0.195592732631923
30
0
41
1
10
23.4942052743357
20
-0.401946765332042
30
0
41
1
10
24.1409395178615
20
-0.781465048703012
30
0
41
1
10
24.4386651953734
20
-0.954898579038428
30
0
41
1
10
25.0364080985172
20
-1.29826552646256
30
0
41
1
10
25.3373183514665
20
-1.46881528488893
30
0
41
1
10
26.8344584113196
20
-2.30029009276385
30
0
41
1
10
28.0125741500505
20
-2.89825663926609
30
0
41
1
10
29.2388311740477
20
-3.40328059689071
30
0
41
1
10
29.2765768672901
20
-3.41871233146313
30
0
41
1
10
29.3143340207745
20
-3.43403328312883
30
0
0
SPLINE
5
C2
100
AcDbEntity
8
1
62
256
6
ByLayer
370
13
48
1
60
0
100
AcDbSpline
70
4
71
3
72
16
73
12
40
0
40
0
40
0
40
0
40
0.103740749454506
40
0.103740749454506
40
0.222573145493549
40
0.222573145493549
40
0.460237937571629
40
0.460237937571629
40
0.935567521727792
40
0.935567521727792
40
1
40
1
40
1
40
1
41
1
10
29.3143340205532
20
-3.43403328303904
30
0
41
1
10
29.5738786216104
20
-3.53935028713084
30
0
41
1
10
29.8339647486419
20
-3.63943251328024
30
0
41
1
10
30.3939428469872
20
-3.8418773924339
30
0
41
1
10
30.6946859948374
20
-3.94268127605622
30
0
41
1
10
31.5945983677951
20
-4.21847479216592
30
0
41
1
10
32.1935418367286
20
-4.36757300856962
30
0
41
1
10
33.9950564103045
20
-4.70102864259368
30
0
41
1
10
35.179967137493
20
-4.76738266545769
30
0
41
1
10
36.5427028629843
20
-4.66042751469851
30
0
41
1
10
36.7053603671302
20
-4.64471816579757
30
0
41
1
10
36.8677440787109
20
-4.62615724247738
30
0
0
SPLINE
5
C3
100
AcDbEntity
8
1
62
256
6
ByLayer
370
18
48
1
60
0
100
AcDbSpline
70
4
71
3
72
14
73
10
40
0
40
0
40
0
40
0
40
0.185116432105846
40
0.185116432105846
40
0.365720013770551
40
0.365720013770551
40
0.546323595435256
40
0.546323595435256
40
1
40
1
40
1
40
1
41
1
10
60.5068866327682
20
-4.63060745409862
30
0
41
1
10
60.2008320235405
20
-4.6303546059047
30
0
41
1
10
59.8949396290226
20
-4.61979909749056
30
0
41
1
10
59.2900762028045
20
-4.5787334827827
30
0
41
1
10
58.99110898622
20
-4.54871218245958
30
0
41
1
10
58.3916348397141
20
-4.46930662616023
30
0
41
1
10
58.0925430073964
20
-4.42008351727731
30
0
41
1
10
57.047459551993
20
-4.21605510945594
30
0
41
1
10
56.3065208200057
20
-4.01376922460065
30
0
41
1
10
55.5649510540678
20
-3.76231362361935
30
0
0
SPLINE
5
C4
100
AcDbEntity
8
1
62
256
6
ByLayer
370
13
48
1
60
0
100
AcDbSpline
70
4
71
3
72
24
73
20
40
0
40
0
40
0
40
0
40
0.116742397009855
40
0.116742397009855
40
0.195198369534006
40
0.195198369534006
40
0.273654342058157
40
0.273654342058157
40
0.430566287106458
40
0.430566287106458
40
0.58747823215476
40
0.58747823215476
40
0.66593420467891
40
0.66593420467891
40
0.744390177203061
40
0.744390177203061
40
0.901302122251362
40
0.901302122251362
40
1
40
1
40
1
40
1
41
1
10
55.5649510540736
20
-3.76231362362128
30
0
41
1
10
55.1256777835627
20
-3.61336239973804
30
0
41
1
10
54.6861830923359
20
-3.44715823133657
30
0
41
1
10
53.9484560844679
20
-3.14290606960884
30
0
41
1
10
53.6511734990747
20
-3.01346670942908
30
0
41
1
10
53.0540452979627
20
-2.74137969841794
30
0
41
1
10
52.7534165012547
20
-2.59838867246819
30
0
41
1
10
51.8577631627412
20
-2.15643059863547
30
0
41
1
10
51.2656623748659
20
-1.84359508091418
30
0
41
1
10
50.0836498572689
20
-1.19482692641086
30
0
41
1
10
49.493760531816
20
-0.858851821314545
30
0
41
1
10
48.6058096122213
20
-0.345706987134662
30
0
41
1
10
48.3092197076364
20
-0.173277693666023
30
0
41
1
10
47.7137786432927
20
0.172575862977226
30
0
41
1
10
47.4144128869068
20
0.346291821219637
30
0
41
1
10
46.5153945075958
20
0.865487187270304
30
0
41
1
10
45.9211347453763
20
1.20343984877923
30
0
41
1
10
44.9561288254408
20
1.73255529242058
30
0
41
1
10
44.5840254124109
20
1.93124776615838
30
0
41
1
10
44.2116683088532
20
2.12313582592614
30
0
0
SPLINE
5
C5
100
AcDbEntity
8
1
62
256
6
ByLayer
370
18
48
1
60
0
100
AcDbSpline
70
4
71
3
72
18
73
14
40
0
40
0
40
0
40
0
40
0.194350601844036
40
0.194350601844036
40
0.27989421392577
40
0.27989421392577
40
0.365437826007505
40
0.365437826007505
40
0.536525050170979
40
0.536525050170979
40
0.878699498497922
40
0.878699498497922
40
1
40
1
40
1
40
1
41
1
10
10.6241039954627
20
-4.60024824951904
30
0
41
1
10
10.2862395151207
20
-4.60280989669229
30
0
41
1
10
9.94740267068363
20
-4.59292978291492
30
0
41
1
10
9.45704319415188
20
-4.56048812044958
30
0
41
1
10
9.30668140031645
20
-4.5480940972738
30
0
41
1
10
9.00696801086849
20
-4.51856332566442
30
0
41
1
10
8.85743266408736
20
-4.50141976399271
30
0
41
1
10
8.40962728002791
20
-4.44299969199721
30
0
41
1
10
8.112149791446
20
-4.3947421435536
30
0
41
1
10
7.22137268323962
20
-4.22307702025353
30
0
41
1
10
6.62993531347229
20
-4.07278061016703
30
0
41
1
10
5.82684842840405
20
-3.82513433661799
30
0
41
1
10
5.6164762385813
20
-3.75622991814924
30
0
41
1
10
5.40576046964901
20
-3.68333343186541
30
0
0
SPLINE
5
C6
100
AcDbEntity
8
1
62
256
6
ByLayer
370
13
48
1
60
0
100
AcDbSpline
70
4
71
3
72
8
73
4
40
0
40
0
40
0
40
0
40
1
40
1
40
1
40
1
41
1
10
5.40576046957511
20
-3.68333343183986
30
0
41
1
10
5.02207183710442
20
-3.55059750383484
30
0
41
1
10
4.63724402938485
20
-3.40462542520245
30
0
41
1
10
4.25034121329566
20
-3.24601160049497
30
0
0
SPLINE
5
C7
100
AcDbEntity
8
1
62
256
6
ByLayer
370
18
48
1
60
0
100
AcDbSpline
70
4
71
3
72
16
73
12
40
0
40
0
40
0
40
0
40
0.249999999999999
40
0.249999999999999
40
0.499999999999998
40
0.499999999999998
40
0.749999999999996
40
0.749999999999996
40
0.874999999999998
40
0.874999999999998
40
1
40
1
40
1
40
1
41
1
10
62.299711402435
20
-2.35647952380987
30
0
41
1
10
62.2254136311777
20
-2.55588756902051
30
0
41
1
10
62.1509726900042
20
-2.75520997270854
30
0
41
1
10
62.0016894971928
20
-3.15289921174534
30
0
41
1
10
61.9268171358182
20
-3.3508991554443
30
0
41
1
10
61.7770407971906
20
-3.74678331831154
30
0
41
1
10
61.7021266700614
20
-3.94463038558788
30
0
41
1
10
61.5891784804775
20
-4.23928898045446
30
0
41
1
10
61.5514461780043
20
-4.3372050490012
30
0
41
1
10
61.4759658323708
20
-4.53297956999319
30
0
41
1
10
61.4381848834976
20
-4.63071757668848
30
0
41
1
10
61.4002252069413
20
-4.72780138117528
30
0
0
SPLINE
5
C8
100
AcDbEntity
8
1
62
256
6
ByLayer
370
18
48
1
60
0
100
AcDbSpline
70
4
71
3
72
77
73
73
40
0
40
0
40
0
40
0
40
0.0348836470674566
40
0.0348836470674566
40
0.111923962403113
40
0.111923962403113
40
0.150444120070941
40
0.150444120070941
40
0.188964277738769
40
0.188964277738769
40
0.266004593074425
40
0.266004593074425
40
0.304524750742253
40
0.304524750742253
40
0.343044908410081
40
0.343044908410081
40
0.420085223745737
40
0.420085223745737
40
0.497125539081394
40
0.497125539081394
40
0.498329294008513
40
0.498329294008513
40
0.498630232740293
40
0.498630232740293
40
0.498931171472073
40
0.498931171472073
40
0.499533048935633
40
0.499533048935633
40
0.501940558789872
40
0.501940558789872
40
0.50675557849835
40
0.50675557849835
40
0.516385617915307
40
0.516385617915307
40
0.53564569674922
40
0.53564569674922
40
0.574165854417047
40
0.574165854417047
40
0.651206169752701
40
0.651206169752701
40
0.728246485088355
40
0.728246485088355
40
0.766766642756182
40
0.766766642756182
40
0.776396682173138
40
0.776396682173138
40
0.786026721590095
40
0.786026721590095
40
0.787230476517215
40
0.787230476517215
40
0.787832353980774
40
0.787832353980774
40
0.788434231444334
40
0.788434231444334
40
0.788735170176114
40
0.788735170176114
40
0.789036108907894
40
0.789637986371454
40
0.790841741298574
40
0.795656761007052
40
0.795656761007052
40
0.805286800424009
40
0.805286800424009
40
0.843806958091837
40
0.843806958091837
40
0.882327115759666
40
0.882327115759666
40
0.920847273427494
40
0.920847273427494
40
0.959367431095323
40
0.959367431095323
40
1
40
1
40
1
40
1
41
1
10
14.3705449005206
20
3.98114773966532
30
0
41
1
10
14.2450889357726
20
3.98521759237789
30
0
41
1
10
14.119757647262
20
3.98515349065659
30
0
41
1
10
13.7177355788729
20
3.96989500550754
30
0
41
1
10
13.4412167025675
20
3.93638310864125
30
0
41
1
10
13.0228681152666
20
3.84330730084733
30
0
41
1
10
12.8839258650988
20
3.80536594914986
30
0
41
1
10
12.6091967277846
20
3.71673026127635
30
0
41
1
10
12.472945316159
20
3.66594034259643
30
0
41
1
10
12.0659675258239
20
3.49543358340802
30
0
41
1
10
11.7970366209012
20
3.35750013928868
30
0
41
1
10
11.3901398025715
20
3.12173070788424
30
0
41
1
10
11.2550043421976
20
3.03897658361109
30
0
41
1
10
10.9866584456528
20
2.8683583386854
30
0
41
1
10
10.8530969572176
20
2.78029114210546
30
0
41
1
10
10.4525110418441
20
2.51033999953071
30
0
41
1
10
10.1855476059647
20
2.32277428466554
30
0
41
1
10
9.64395309914337
20
1.94370017367456
30
0
41
1
10
9.3721840580242
20
1.75421777822976
30
0
41
1
10
9.09535332777887
20
1.56886187821235
30
0
41
1
10
9.09109420670873
20
1.56601192524204
30
0
41
1
10
9.08577005803772
20
1.56245159867029
30
0
41
1
10
9.08412889831436
20
1.56189478821321
30
0
41
1
10
9.08411446356908
20
1.55955600290244
30
0
41
1
10
9.08495865721019
20
1.55859599990083
30
0
41
1
10
9.08714614066653
20
1.55590799244556
30
0
41
1
10
9.08887974104599
20
1.55433304346741
30
0
41
1
10
9.09770007459667
20
1.54663099342201
30
0
41
1
10
9.10545134350849
20
1.54122318476527
30
0
41
1
10
9.12876512038221
20
1.52507146418287
30
0
41
1
10
9.14473403348919
20
1.51484660835621
30
0
41
1
10
9.19289960608941
20
1.48451283863073
30
0
41
1
10
9.22547501111825
20
1.46489136108528
30
0
41
1
10
9.32353616102719
20
1.40658273639787
30
0
41
1
10
9.38946637792674
20
1.36854914991554
30
0
41
1
10
9.58776721018194
20
1.25537932105036
30
0
41
1
10
9.72073683770515
20
1.18129248922793
30
0
41
1
10
10.120328921488
20
0.961066408389371
30
0
41
1
10
10.3876543368601
20
0.81693342305806
30
0
41
1
10
10.9219784424616
20
0.531957661300453
30
0
41
1
10
11.189507156394
20
0.391453685218608
30
0
41
1
10
11.5884973323171
20
0.181349633514572
30
0
41
1
10
11.7212767413825
20
0.111556632799136
30
0
41
1
10
11.8855948293148
20
0.0239584369235502
30
0
41
1
10
11.9183676949519
20
0.0064171702436511
30
0
41
1
10
11.9834590240059
20
-0.0288385518619236
30
0
41
1
10
12.0161016038898
20
-0.0463986492752326
30
0
41
1
10
12.0510274947855
20
-0.0669852243613605
30
0
41
1
10
12.0548741065228
20
-0.0692884960122626
30
0
41
1
10
12.0604914289885
20
-0.0728155699576973
30
0
41
1
10
12.0623415616398
20
-0.0740038442938555
30
0
41
1
10
12.0658683793602
20
-0.0764172223470609
30
0
41
1
10
12.0677759779549
20
-0.0776504587756506
30
0
41
1
10
12.0692610075412
20
-0.0795659494258985
30
0
41
1
10
12.0683174019425
20
-0.0798317339835251
30
0
41
1
10
12.0664525648378
20
-0.0801768419113955
30
0
41
1
10
12.0636553954203
20
-0.0806931506067485
30
0
41
1
10
12.0571292812516
20
-0.0818883930225809
30
0
41
1
10
12.0366222613823
20
-0.0855852917746347
30
0
41
1
10
12.0179919795352
20
-0.0887650502548638
30
0
41
1
10
11.9732999255879
20
-0.0960474055315501
30
0
41
1
10
11.9435372582836
20
-0.100436062969749
30
0
41
1
10
11.7949023512971
20
-0.120022023941175
30
0
41
1
10
11.6762852663885
20
-0.128143594974631
30
0
41
1
10
11.4409808437792
20
-0.128838428313657
30
0
41
1
10
11.3240683230729
20
-0.121470250791589
30
0
41
1
10
11.090024553982
20
-0.0910550299054194
30
0
41
1
10
10.972901328723
20
-0.0680068701171024
30
0
41
1
10
10.7362733277217
20
-0.0056790304384435
30
0
41
1
10
10.6166378476599
20
0.033754553082872
30
0
41
1
10
10.3708676547997
20
0.1297469699293
30
0
41
1
10
10.2440848288295
20
0.187307695417274
30
0
41
1
10
10.1150595390443
20
0.252562126411448
30
0
0
SPLINE
5
C9
100
AcDbEntity
8
1
62
256
6
ByLayer
370
18
48
1
60
0
100
AcDbSpline
70
4
71
3
72
22
73
18
40
0
40
0
40
0
40
0
40
0.124999999999999
40
0.124999999999999
40
0.187499999999997
40
0.187499999999997
40
0.249999999999995
40
0.249999999999995
40
0.374999999999991
40
0.374999999999991
40
0.437499999999991
40
0.437499999999991
40
0.499999999999991
40
0.499999999999991
40
0.749999999999996
40
0.749999999999996
40
1
40
1
40
1
40
1
41
1
10
57.3843997252575
20
1.81013152259177
30
0
41
1
10
57.4284632305171
20
1.59846733456229
30
0
41
1
10
57.4918129760127
20
1.38594242117949
30
0
41
1
10
57.6122572170103
20
1.06602059910532
30
0
41
1
10
57.6569297841193
20
0.958637816594404
30
0
41
1
10
57.7530316490819
20
0.746656574052423
30
0
41
1
10
57.8043726172239
20
0.642124829170314
30
0
41
1
10
57.967289998719
20
0.332473607271822
30
0
41
1
10
58.0877471723073
20
0.131292060648491
30
0
41
1
10
58.2836393377509
20
-0.163737394591237
30
0
41
1
10
58.3512966152498
20
-0.260652292918792
30
0
41
1
10
58.4894331469026
20
-0.449942471364693
30
0
41
1
10
58.560118707863
20
-0.542637575477187
30
0
41
1
10
58.9208320792935
20
-0.997328832643205
30
0
41
1
10
59.232295872042
20
-1.33347945794364
30
0
41
1
10
59.8901948160309
20
-1.96361547418655
30
0
41
1
10
60.2305119645278
20
-2.25146016500588
30
0
41
1
10
60.5793004727145
20
-2.51654147858159
30
0
0
SPLINE
5
CA
100
AcDbEntity
8
1
62
256
6
ByLayer
370
13
48
1
60
0
100
AcDbSpline
70
4
71
3
72
12
73
8
40
0
40
0
40
0
40
0
40
0.25000000000001
40
0.25000000000001
40
0.50000000000002
40
0.50000000000002
40
1
40
1
40
1
40
1
41
1
10
4.12247676575717
20
-3.23920806259369
30
0
41
1
10
4.10497542445356
20
-3.24217800142514
30
0
41
1
10
4.08941406066572
20
-3.24561109726935
30
0
41
1
10
4.06164428211122
20
-3.25323234790824
30
0
41
1
10
4.04937993425807
20
-3.25747223989856
30
0
41
1
10
4.01911682186281
20
-3.27056035536873
30
0
41
1
10
4.00658407536099
20
-3.28007456419257
30
0
41
1
10
4.00197656123277
20
-3.28967792172253
30
0
0
SPLINE
5
CB
100
AcDbEntity
8
1
62
256
6
ByLayer
370
18
48
1
60
0
100
AcDbSpline
70
4
71
3
72
46
73
42
40
0
40
0
40
0
40
0
40
0.034350143787914
40
0.034350143787914
40
0.0687002875758279
40
0.0687002875758279
40
0.137400575151657
40
0.137400575151657
40
0.171750718939572
40
0.171750718939572
40
0.206100862727486
40
0.206100862727486
40
0.274801150303315
40
0.274801150303315
40
0.343501437879145
40
0.343501437879145
40
0.377851581667059
40
0.377851581667059
40
0.412201725454973
40
0.412201725454973
40
0.549602300606628
40
0.549602300606628
40
0.566777372500585
40
0.566777372500585
40
0.583952444394542
40
0.583952444394542
40
0.618302588182456
40
0.618302588182456
40
0.687002875758283
40
0.687002875758283
40
0.755703163334111
40
0.755703163334111
40
0.772878235228067
40
0.772878235228067
40
0.790053307122024
40
0.790053307122024
40
0.824403450909938
40
0.824403450909938
40
0.961804026061595
40
0.961804026061595
40
1
40
1
40
1
40
1
41
1
10
61.3168803618218
20
-4.81153884744205
30
0
41
1
10
61.0174175565076
20
-4.83433431866646
30
0
41
1
10
60.7181562767467
20
-4.84681516439127
30
0
41
1
10
60.1191968037768
20
-4.85119070404494
30
0
41
1
10
59.8191617173391
20
-4.84305913367311
30
0
41
1
10
58.9193779686125
20
-4.78780207471348
30
0
41
1
10
58.3220509862169
20
-4.71008955468525
30
0
41
1
10
57.4239964099223
20
-4.53447566786747
30
0
41
1
10
57.1235248185042
20
-4.46590468590611
30
0
41
1
10
56.525028905327
20
-4.31070515790941
30
0
41
1
10
56.2270485088924
20
-4.22415831038302
30
0
41
1
10
55.335425980922
20
-3.93940087593401
30
0
41
1
10
54.7441080923296
20
-3.71607531034945
30
0
41
1
10
53.5598291492981
20
-3.21122087592767
30
0
41
1
10
52.9667860957966
20
-2.92980441804133
30
0
41
1
10
52.0701346358192
20
-2.47037466828766
30
0
41
1
10
51.7693660649639
20
-2.3106885138229
30
0
41
1
10
51.1717652145958
20
-1.98445730597052
30
0
41
1
10
50.8741346331199
20
-1.8175092144381
30
0
41
1
10
49.389255417364
20
-0.967864214783276
30
0
41
1
10
48.2124572505165
20
-0.239486195153603
30
0
41
1
10
46.8654220975784
20
0.576294172476366
30
0
41
1
10
46.7151740212955
20
0.667005562503391
30
0
41
1
10
46.415462819009
20
0.847068820909385
30
0
41
1
10
46.265938298806
20
0.936466341767868
30
0
41
1
10
45.8181715460317
20
1.20248661872515
30
0
41
1
10
45.5207635704195
20
1.37698655795009
30
0
41
1
10
44.630640148792
20
1.89016372396736
30
0
41
1
10
44.039302320606
20
2.21738919956235
30
0
41
1
10
42.8541924781069
20
2.83224231983351
30
0
41
1
10
42.2597811745403
20
3.11895722629618
30
0
41
1
10
41.5102283522056
20
3.44496125309743
30
0
41
1
10
41.3600218131022
20
3.50847600474569
30
0
41
1
10
41.0607157022917
20
3.63120113801131
30
0
41
1
10
40.911374192187
20
3.69052109277581
30
0
41
1
10
40.4640700956392
20
3.86220497316006
30
0
41
1
10
40.1668525873655
20
3.96832900810517
30
0
41
1
10
38.683848683085
20
4.45610896731989
30
0
41
1
10
37.5053290439142
20
4.70780093107965
30
0
41
1
10
35.9701105317031
20
4.82257910987764
30
0
41
1
10
35.6379525780297
20
4.83475214142373
30
0
41
1
10
35.3068962519426
20
4.8343732699455
30
0
0
SPLINE
5
CC
100
AcDbEntity
8
1
62
256
6
ByLayer
370
18
48
1
60
0
100
AcDbSpline
70
4
71
3
72
20
73
16
40
0
40
0
40
0
40
0
40
0.163527130821372
40
0.163527130821372
40
0.268086239468701
40
0.268086239468701
40
0.372645348116029
40
0.372645348116029
40
0.581763565410687
40
0.581763565410687
40
0.686322674058016
40
0.686322674058016
40
0.790881782705344
40
0.790881782705344
40
1
40
1
40
1
40
1
41
1
10
12.7002171177226
20
-4.60576044137571
30
0
41
1
10
12.2367756514411
20
-4.68842840142207
30
0
41
1
10
11.7731631115956
20
-4.74767095721415
30
0
41
1
10
11.0097112999201
20
-4.8047627367153
30
0
41
1
10
10.7110787247324
20
-4.81703909839675
30
0
41
1
10
10.1110920690315
20
-4.82107005734792
30
0
41
1
10
9.81032035599273
20
-4.81276640027235
30
0
41
1
10
8.91089943334575
20
-4.75728823644448
30
0
41
1
10
8.3126245443313
20
-4.67958640574767
30
0
41
1
10
7.4110344749848
20
-4.50371308572025
30
0
41
1
10
7.11106618408061
20
-4.43540326353829
30
0
41
1
10
6.51275119677388
20
-4.28069494797592
30
0
41
1
10
6.2141306718712
20
-4.19426259358619
30
0
41
1
10
5.3183444291852
20
-3.90914850765657
30
0
41
1
10
4.7211870221567
20
-3.68476967996006
30
0
41
1
10
4.12049369612703
20
-3.42909385206372
30
0
0
SPLINE
5
CD
100
AcDbEntity
8
1
62
256
6
ByLayer
370
18
48
1
60
0
100
AcDbSpline
70
4
71
3
72
8
73
4
40
0
40
0
40
0
40
0
40
1
40
1
40
1
40
1
41
1
10
4.00526816343876
20
-3.31278918813143
30
0
41
1
10
4.00308569946458
20
-3.30519056895929
30
0
41
1
10
4.00197625723632
20
-3.29748824399539
30
0
41
1
10
4.00197656123243
20
-3.28967792172006
30
0
0
SPLINE
5
CE
100
AcDbEntity
8
1
62
256
6
ByLayer
370
18
48
1
60
0
100
AcDbSpline
70
4
71
3
72
8
73
4
40
0
40
0
40
0
40
0
40
1
40
1
40
1
40
1
41
1
10
61.3810970695856
20
-4.60329954358244
30
0
41
1
10
61.3556578860316
20
-4.62169723540376
30
0
41
1
10
61.333429715233
20
-4.63097032229675
30
0
41
1
10
61.3144695384745
20
-4.63095688284463
30
0
0
SPLINE
5
CF
100
AcDbEntity
8
1
62
256
6
ByLayer
370
18
48
1
60
0
100
AcDbSpline
70
4
71
3
72
12
73
8
40
0
40
0
40
0
40
0
40
0.534381224956371
40
0.534381224956371
40
0.890751615576468
40
0.890751615576468
40
1
40
1
40
1
40
1
41
1
10
35.5134218997938
20
-4.61565461941774
30
0
41
1
10
34.6185176494559
20
-4.61528136639166
30
0
41
1
10
33.7274873229625
20
-4.52735009261647
30
0
41
1
10
32.2275936331329
20
-4.23867931864146
30
0
41
1
10
31.6291811244643
20
-4.08643179031918
30
0
41
1
10
30.8459203679005
20
-3.84358592864146
30
0
41
1
10
30.6618781548605
20
-3.78338811682326
30
0
41
1
10
30.4781267583336
20
-3.7203377118077
30
0
0
SPLINE
5
D0
100
AcDbEntity
8
1
62
256
6
ByLayer
370
13
48
1
60
0
100
AcDbSpline
70
4
71
3
72
26
73
22
40
0
40
0
40
0
40
0
40
0.0297376202517774
40
0.0297376202517774
40
0.106602267782065
40
0.106602267782065
40
0.41406085790322
40
0.41406085790322
40
0.49092550543351
40
0.49092550543351
40
0.5677901529638
40
0.5677901529638
40
0.721519448024379
40
0.721519448024379
40
0.875248743084959
40
0.875248743084959
40
0.913681066850104
40
0.913681066850104
40
0.952113390615249
40
0.952113390615249
40
1
40
1
40
1
40
1
41
1
10
30.4781267584626
20
-3.72033771185198
30
0
41
1
10
30.3621778101642
20
-3.68055228279204
30
0
41
1
10
30.2463446572887
20
-3.63963102677209
30
0
41
1
10
29.832026460251
20
-3.4891962211679
30
0
41
1
10
29.534447125801
20
-3.37350677437294
30
0
41
1
10
28.0496484603194
20
-2.76249526122643
30
0
41
1
10
26.8716796589455
20
-2.16972583170562
30
0
41
1
10
25.3754846084153
20
-1.35037166279687
30
0
41
1
10
25.0748602973192
20
-1.18260722145709
30
0
41
1
10
24.4775625801205
20
-0.845176290698902
30
0
41
1
10
24.1800266546168
20
-0.674897043761547
30
0
41
1
10
23.289296168702
20
-0.16193392768497
30
0
41
1
10
22.6977986676387
20
0.182557130574338
30
0
41
1
10
21.5125319284422
20
0.864399057679009
30
0
41
1
10
20.9186268315778
20
1.20151763458392
30
0
41
1
10
20.1701050277484
20
1.61015491800688
30
0
41
1
10
20.0198583521507
20
1.69135907573889
30
0
41
1
10
19.7200746478804
20
1.85146379116318
30
0
41
1
10
19.570502181046
20
1.93038922588454
30
0
41
1
10
19.2351712332504
20
2.10496610796923
30
0
41
1
10
19.0495596115743
20
2.19995307709874
30
0
41
1
10
18.8642436245415
20
2.29291123481303
30
0
0
SPLINE
5
D1
100
AcDbEntity
8
1
62
256
6
ByLayer
370
18
48
1
60
0
100
AcDbSpline
70
4
71
3
72
90
73
86
40
0
40
0
40
0
40
0
40
0.0007202656158682
40
0.0007202656158682
40
0.0255544997078417
40
0.0255544997078417
40
0.0503887337998152
40
0.0503887337998152
40
0.0752229678917888
40
0.0752229678917888
40
0.100057201983762
40
0.100057201983762
40
0.124891436075736
40
0.124891436075736
40
0.149725670167709
40
0.149725670167709
40
0.174559904259683
40
0.174559904259683
40
0.199394138351657
40
0.199394138351657
40
0.22422837244363
40
0.22422837244363
40
0.249062606535603
40
0.249062606535603
40
0.273896840627577
40
0.273896840627577
40
0.298731074719551
40
0.298731074719551
40
0.323565308811524
40
0.323565308811524
40
0.348399542903498
40
0.348399542903498
40
0.373233776995471
40
0.373233776995471
40
0.398068011087445
40
0.398068011087445
40
0.422902245179418
40
0.422902245179418
40
0.447736479271392
40
0.447736479271392
40
0.472570713363365
40
0.472570713363365
40
0.497404947455339
40
0.497404947455339
40
0.522239181547312
40
0.522239181547312
40
0.547073415639286
40
0.547073415639286
40
0.57190764973126
40
0.57190764973126
40
0.596741883823233
40
0.596741883823233
40
0.621576117915207
40
0.621576117915207
40
0.64641035200718
40
0.64641035200718
40
0.671244586099154
40
0.671244586099154
40
0.696078820191127
40
0.696078820191127
40
0.720913054283101
40
0.720913054283101
40
0.745747288375074
40
0.745747288375074
40
0.770581522467048
40
0.770581522467048
40
0.795415756559021
40
0.795415756559021
40
0.820249990650995
40
0.820249990650995
40
0.845084224742968
40
0.845084224742968
40
0.869918458834942
40
0.869918458834942
40
0.894752692926915
40
0.894752692926915
40
0.919586927018889
40
0.919586927018889
40
0.944421161110863
40
0.944421161110863
40
0.969255395202836
40
0.969255395202836
40
0.99408962929481
40
0.99408962929481
40
1
40
1
40
1
40
1
41
1
10
53.6440716705386
20
-3.54189561533195
30
0
41
1
10
53.6367877797594
20
-3.54462930371878
30
0
41
1
10
53.6295036309559
20
-3.54735859198249
30
0
41
1
10
53.371057942499
20
-3.64403480603443
30
0
41
1
10
53.1201896084427
20
-3.7320692584893
30
0
41
1
10
52.6187127023748
20
-3.89556252873839
30
0
41
1
10
52.3680647766475
20
-3.97118556876092
30
0
41
1
10
51.8671836274056
20
-4.11193525861304
30
0
41
1
10
51.6167913628359
20
-4.17683620129407
30
0
41
1
10
51.1147555473323
20
-4.29416310359068
30
0
41
1
10
50.8630814910735
20
-4.34672951983219
30
0
41
1
10
50.3611982552235
20
-4.43865490153698
30
0
41
1
10
50.1109267221946
20
-4.4782700972402
30
0
41
1
10
49.6103374230644
20
-4.54272999170337
30
0
41
1
10
49.3598688122718
20
-4.56725486223201
30
0
41
1
10
48.8582818161991
20
-4.6028336810983
30
0
41
1
10
48.6070731708166
20
-4.61479659298504
30
0
41
1
10
48.1049356845252
20
-4.62538851159036
30
0
41
1
10
47.8544210399363
20
-4.62372345162453
30
0
41
1
10
47.3532475817433
20
-4.60540501667779
30
0
41
1
10
47.1026729532389
20
-4.58952522769712
30
0
41
1
10
46.6015601180843
20
-4.54523804884178
30
0
41
1
10
46.3512787556384
20
-4.51648675178765
30
0
41
1
10
45.849567997959
20
-4.44408338540819
30
0
41
1
10
45.598013908565
20
-4.40029645905815
30
0
41
1
10
45.0960250282055
20
-4.3018580942456
30
0
41
1
10
44.8452868665985
20
-4.24682721659886
30
0
41
1
10
44.3445406032707
20
-4.12332907477608
30
0
41
1
10
44.0941906827842
20
-4.05468933529829
30
0
41
1
10
43.5924598405223
20
-3.90598165715895
30
0
41
1
10
43.340952203977
20
-3.82632801264901
30
0
41
1
10
42.8384877764358
20
-3.65569145717458
30
0
41
1
10
42.588077631702
20
-3.56445294550497
30
0
41
1
10
42.0871269844866
20
-3.37114408973997
30
0
41
1
10
41.8365610813742
20
-3.2696695437941
30
0
41
1
10
41.3351478397818
20
-3.05811267672314
30
0
41
1
10
41.0843343229252
20
-2.94774820542179
30
0
41
1
10
40.582436112731
20
-2.71672722152823
30
0
41
1
10
40.3312015714531
20
-2.59655034352872
30
0
41
1
10
39.8294163206601
20
-2.3507508568708
30
0
41
1
10
39.5786567262102
20
-2.22474051915321
30
0
41
1
10
39.0774478756717
20
-1.96577214723089
30
0
41
1
10
38.8272037087025
20
-1.83228276847956
30
0
41
1
10
38.3255520162575
20
-1.56087146641713
30
0
41
1
10
38.07394723342
20
-1.42301440619229
30
0
41
1
10
37.5715427756999
20
-1.143621084709
30
0
41
1
10
37.3208109710618
20
-1.0020671879366
30
0
41
1
10
36.8200956076361
20
-0.715465969617014
30
0
41
1
10
36.569688056165
20
-0.571263753110969
30
0
41
1
10
36.0682645758025
20
-0.282051255520941
30
0
41
1
10
35.8172861327276
20
-0.136876518420905
30
0
41
1
10
35.314701920848
20
0.154605432245347
30
0
41
1
10
35.0638879815909
20
0.300818280203828
30
0
41
1
10
34.5624130435423
20
0.590544424826845
30
0
41
1
10
34.3117223457046
20
0.734365243972121
30
0
41
1
10
33.8103050766957
20
1.01932742205088
30
0
41
1
10
33.5596339005508
20
1.16054654403663
30
0
41
1
10
33.0580551483938
20
1.44027163264897
30
0
41
1
10
32.8065245638276
20
1.57849984194308
30
0
41
1
10
32.3043370675156
20
1.84870440112877
30
0
41
1
10
32.0535247469366
20
1.98079395535515
30
0
41
1
10
31.5524387331258
20
2.23858037403426
30
0
41
1
10
31.3022781418821
20
2.3650465150929
30
0
41
1
10
30.8009558164161
20
2.6101462322859
30
0
41
1
10
30.5499207047799
20
2.72903429581479
30
0
41
1
10
30.0469055175835
20
2.95777320935778
30
0
41
1
10
29.7960389250887
20
3.06754991918279
30
0
41
1
10
29.2949352730888
20
3.27901452200229
30
0
41
1
10
29.044382963982
20
3.38010502405694
30
0
41
1
10
28.5429553570894
20
3.57109513378714
30
0
41
1
10
28.2920202521001
20
3.66028350914746
30
0
41
1
10
27.7899303222795
20
3.82964657065438
30
0
41
1
10
27.5386842966084
20
3.90982210268635
30
0
41
1
10
27.0368044291309
20
4.05695754418917
30
0
41
1
10
26.7860591393117
20
4.12337514667496
30
0
41
1
10
26.2846683603131
20
4.24417126901241
30
0
41
1
10
26.0342094348497
20
4.29923536982429
30
0
41
1
10
25.5330304403128
20
4.39698989760498
30
0
41
1
10
25.2817985451101
20
4.43935858275722
30
0
41
1
10
24.7789254932524
20
4.50810810683782
30
0
41
1
10
24.5277922889714
20
4.53587823715858
30
0
41
1
10
24.0263772883237
20
4.57971032537438
30
0
41
1
10
23.7760706585791
20
4.59547472338156
30
0
41
1
10
23.4656836348463
20
4.60554187031011
30
0
41
1
10
23.4059958202526
20
4.60700738597467
30
0
41
1
10
23.3462896132719
20
4.60803684561287
30
0
0
SPLINE
5
D2
100
AcDbEntity
8
1
62
256
6
ByLayer
370
18
48
1
60
0
100
AcDbSpline
70
4
71
3
72
16
73
12
40
0
40
0
40
0
40
0
40
0.25
40
0.25
40
0.5
40
0.5
40
0.750000000000001
40
0.750000000000001
40
0.875
40
0.875
40
1
40
1
40
1
40
1
41
1
10
62.2997114024282
20
2.35647952382823
30
0
41
1
10
62.2254136311715
20
2.55588756903731
30
0
41
1
10
62.1509726899984
20
2.7552099727238
30
0
41
1
10
62.0016894971882
20
3.1528992117575
30
0
41
1
10
61.9268171358141
20
3.35089915545493
30
0
41
1
10
61.7770407971877
20
3.7467833183191
30
0
41
1
10
61.702126670059
20
3.94463038559391
30
0
41
1
10
61.589178480476
20
4.23928898045818
30
0
41
1
10
61.5514461780032
20
4.33720504900418
30
0
41
1
10
61.4759658323702
20
4.53297956999469
30
0
41
1
10
61.4381848834974
20
4.63071757668922
30
0
41
1
10
61.4002252069413
20
4.72780138117528
30
0
0
SPLINE
5
D3
100
AcDbEntity
8
1
62
256
6
ByLayer
370
18
48
1
60
0
100
AcDbSpline
70
4
71
3
72
40
73
36
40
0
40
0
40
0
40
0
40
0.0178951146129192
40
0.0178951146129192
40
0.329787937743207
40
0.329787937743207
40
0.48573434930835
40
0.48573434930835
40
0.641680760873493
40
0.641680760873493
40
0.719653966656063
40
0.719653966656063
40
0.739147268101705
40
0.739147268101705
40
0.748893918824526
40
0.748893918824526
40
0.758640569547348
40
0.758640569547348
40
0.763513894908757
40
0.763513894908757
40
0.768387220270166
40
0.768387220270166
40
0.778133870992982
40
0.778133870992982
40
0.797627172438614
40
0.797627172438614
40
0.875600378221141
40
0.875600378221141
40
0.914586981112404
40
0.914586981112404
40
0.953573584003666
40
0.953573584003666
40
0.992560186894929
40
0.992560186894929
40
1
40
1
40
1
40
1
41
1
10
8.58464718288954
20
-4.81828318080011
30
0
41
1
10
8.54531167763224
20
-4.81821432822562
30
0
41
1
10
8.50592786933669
20
-4.8180791171275
30
0
41
1
10
7.77921886923622
20
-4.81441501758212
30
0
41
1
10
7.07679818414562
20
-4.79193625455849
30
0
41
1
10
5.99681694112866
20
-4.75385391254443
30
0
41
1
10
5.63462554254957
20
-4.74051163483168
30
0
41
1
10
4.90555072887605
20
-4.71598077884082
30
0
41
1
10
4.53864828134869
20
-4.70480007398436
30
0
41
1
10
3.98643507736025
20
-4.69162985025193
30
0
41
1
10
3.80196772991491
20
-4.68782994063506
30
0
41
1
10
3.57113288605095
20
-4.68396271255213
30
0
41
1
10
3.52495045895554
20
-4.68323316876652
30
0
41
1
10
3.45565348115136
20
-4.68220684339894
30
0
41
1
10
3.43251848758169
20
-4.68168447828785
30
0
41
1
10
3.38650728546168
20
-4.68208576232291
30
0
41
1
10
3.36303272734901
20
-4.68292802684863
30
0
41
1
10
3.3306554792832
20
-4.68565350070966
30
0
41
1
10
3.32060067657071
20
-4.68692103491759
30
0
41
1
10
3.3004610885894
20
-4.68941998387297
30
0
41
1
10
3.29040832048779
20
-4.69066858961924
30
0
41
1
10
3.2603021754623
20
-4.69441121149981
30
0
41
1
10
3.24030970553338
20
-4.69690095253728
30
0
41
1
10
3.18062033929704
20
-4.70434362376591
30
0
41
1
10
3.14119374331901
20
-4.709272320965
30
0
41
1
10
2.94604703016995
20
-4.73367268510364
30
0
41
1
10
2.79547875264473
20
-4.75256737906685
30
0
41
1
10
2.58826575821604
20
-4.77700242944385
30
0
41
1
10
2.52218251570645
20
-4.78450303158064
30
0
41
1
10
2.39740992654524
20
-4.79757279260312
30
0
41
1
10
2.3383805086421
20
-4.80317304422255
30
0
41
1
10
2.23143188492784
20
-4.8113403785257
30
0
41
1
10
2.18402973131646
20
-4.81387571484996
30
0
41
1
10
2.13609630916051
20
-4.81444692697707
30
0
41
1
10
2.12866753848363
20
-4.8144609591786
30
0
41
1
10
2.12150918120031
20
-4.8143945694724
30
0
0
SPLINE
5
D4
100
AcDbEntity
8
1
62
256
6
ByLayer
370
13
48
1
60
0
100
AcDbSpline
70
4
71
3
72
20
73
16
40
0
40
0
40
0
40
0
40
0.230867257326369
40
0.230867257326369
40
0.461734514652739
40
0.461734514652739
40
0.577168143315923
40
0.577168143315923
40
0.634884957647517
40
0.634884957647517
40
0.69260177197911
40
0.69260177197911
40
0.923469029305481
40
0.923469029305481
40
1
40
1
40
1
40
1
41
1
10
4.19937376864505
20
-3.376472089684
30
0
41
1
10
4.79954111961328
20
-3.62314398544481
30
0
41
1
10
5.39452045620433
20
-3.83819843598675
30
0
41
1
10
6.58126536691461
20
-4.20099360689019
30
0
41
1
10
7.17304774365928
20
-4.3487188660234
30
0
41
1
10
8.06440061547167
20
-4.51483814867731
30
0
41
1
10
8.36208253147441
20
-4.56098243516402
30
0
41
1
10
8.81021847779971
20
-4.6158411834393
30
0
41
1
10
8.959868144658
20
-4.6317317869335
30
0
41
1
10
9.25982590236788
20
-4.65862570798194
30
0
41
1
10
9.41031659829443
20
-4.66963351124107
30
0
41
1
10
10.1601987163277
20
-4.7119942027594
30
0
41
1
10
10.7548066282763
20
-4.70576131323449
30
0
41
1
10
11.5446078283001
20
-4.64576207711809
30
0
41
1
10
11.741076858001
20
-4.62655927572251
30
0
41
1
10
11.937530921654
20
-4.60314918853237
30
0
0
SPLINE
5
D5
100
AcDbEntity
8
1
62
256
6
ByLayer
370
18
48
1
60
0
100
AcDbSpline
70
4
71
3
72
20
73
16
40
0
40
0
40
0
40
0
40
0.0297205629049756
40
0.0297205629049756
40
0.165461966467114
40
0.165461966467114
40
0.436944773591385
40
0.436944773591385
40
0.708427580715656
40
0.708427580715656
40
0.844168984277791
40
0.844168984277791
40
0.979910387839927
40
0.979910387839927
40
1
40
1
40
1
40
1
41
1
10
47.7905736532739
20
0.0143940824926574
30
0
41
1
10
47.8559224595944
20
-0.0243650346363609
30
0
41
1
10
47.9212067825487
20
-0.0630903051109897
30
0
41
1
10
48.2842466676906
20
-0.278421389327832
30
0
41
1
10
48.5809248374496
20
-0.454339499652008
30
0
41
1
10
49.4690855358856
20
-0.977279325585869
30
0
41
1
10
50.0591186250409
20
-1.31876021792988
30
0
41
1
10
51.241633064798
20
-1.97652445359023
30
0
41
1
10
51.834062576173
20
-2.29288975895631
30
0
41
1
10
52.7305239258004
20
-2.73856113692929
30
0
41
1
10
53.0314047546234
20
-2.88246490371569
30
0
41
1
10
53.6287701635932
20
-3.15561153280586
30
0
41
1
10
53.9261522335469
20
-3.28525552482819
30
0
41
1
10
54.2666495565186
20
-3.42553686814364
30
0
41
1
10
54.3105289619421
20
-3.44345939927516
30
0
41
1
10
54.3543926473535
20
-3.46121805007422
30
0
0
SPLINE
5
D6
100
AcDbEntity
8
1
62
256
6
ByLayer
370
13
48
1
60
0
100
AcDbSpline
70
4
71
3
72
16
73
12
40
0
40
0
40
0
40
0
40
0.490575637108414
40
0.490575637108414
40
0.61793172783131
40
0.61793172783131
40
0.745287818554207
40
0.745287818554207
40
0.872643909277103
40
0.872643909277103
40
1
40
1
40
1
40
1
41
1
10
54.3543935743839
20
-3.46121842539171
30
0
41
1
10
55.4960414050297
20
-3.9234258855287
30
0
41
1
10
56.6270402887826
20
-4.27461852978249
30
0
41
1
10
58.0720406667922
20
-4.54492670581604
30
0
41
1
10
58.3715629730551
20
-4.59147538411759
30
0
41
1
10
58.9714199575453
20
-4.66492577106987
30
0
41
1
10
59.2705602393792
20
-4.69171490739123
30
0
41
1
10
59.8682882595531
20
-4.72532728596406
30
0
41
1
10
60.1668734262839
20
-4.73215346092948
30
0
41
1
10
60.7643644467391
20
-4.72576346561985
30
0
41
1
10
61.0632908064271
20
-4.71225120490533
30
0
41
1
10
61.3627346905148
20
-4.68925822514095
30
0
0
SPLINE
5
D7
100
AcDbEntity
8
1
62
256
6
ByLayer
370
18
48
1
60
0
100
AcDbSpline
70
4
71
3
72
10
73
6
40
0
40
0
40
0
40
0
40
0.5
40
0.5
40
1
40
1
40
1
40
1
41
1
10
4.12049369612691
20
-3.42909385206366
30
0
41
1
10
4.0909633021609
20
-3.41652469639271
30
0
41
1
10
4.06563490744799
20
-3.39981537819887
30
0
41
1
10
4.0261533391664
20
-3.36003310900617
30
0
41
1
10
4.01220830346733
20
-3.33695246491934
30
0
41
1
10
4.00526816343728
20
-3.31278918812882
30
0
0
SPLINE
5
D8
100
AcDbEntity
8
1
62
256
6
ByLayer
370
18
48
1
60
0
100
AcDbSpline
70
4
71
3
72
32
73
28
40
0
40
0
40
0
40
0
40
0.0624999999999999
40
0.0624999999999999
40
0.125
40
0.1875
40
0.1875
40
0.25
40
0.25
40
0.375
40
0.375
40
0.4375
40
0.4375
40
0.5
40
0.5
40
0.625000000000001
40
0.625000000000001
40
0.687500000000001
40
0.687500000000001
40
0.75
40
0.8125
40
0.8125
40
0.84375
40
0.84375
40
0.875
40
0.875
40
1
40
1
40
1
40
1
41
1
10
4.00197656123259
20
-3.28967792172341
30
0
41
1
10
4.00198127216291
20
-3.16864376084646
30
0
41
1
10
4.00198567068492
20
-3.04133980603322
30
0
41
1
10
4.00199383371816
20
-2.77858870165113
30
0
41
1
10
4.00200138523232
20
-2.50732217790161
30
0
41
1
10
4.00200800836433
20
-2.21940608225134
30
0
41
1
10
4.00201430267117
20
-1.92309278642929
30
0
41
1
10
4.00201729570028
20
-1.77016347834095
30
0
41
1
10
4.00202590475089
20
-1.30212590368487
30
0
41
1
10
4.00203106281512
20
-0.983757628861582
30
0
41
1
10
4.00203868152536
20
-0.496996721703027
30
0
41
1
10
4.00204119836445
20
-0.333196225758201
30
0
41
1
10
4.00204628300702
20
-0.002404132344509
30
0
41
1
10
4.00204883265573
20
0.163367702690238
30
0
41
1
10
4.00205650196199
20
0.654716266075155
30
0
41
1
10
4.00206169922868
20
0.977269484760541
30
0
41
1
10
4.00206980513639
20
1.4534912915091
30
0
41
1
10
4.00207256580279
20
1.61148807720679
30
0
41
1
10
4.00207804728473
20
1.91788003020741
30
0
41
1
10
4.00208351576967
20
2.21631985954622
30
0
41
1
10
4.00208887023712
20
2.49915475103245
30
0
41
1
10
4.0020927876698
20
2.70535662679214
30
0
41
1
10
4.00209407683946
20
2.77310130422464
30
0
41
1
10
4.00209660942321
20
2.90657603027043
30
0
41
1
10
4.00209785544476
20
2.97244732452919
30
0
41
1
10
4.00210386933082
20
3.29316822898255
30
0
41
1
10
4.00210805003826
20
3.5247305896909
30
0
41
1
10
4.00211110611934
20
3.73190448100635
30
0
0
SPLINE
5
D9
100
AcDbEntity
8
1
62
256
6
ByLayer
370
18
48
1
60
0
100
AcDbSpline
70
4
71
3
72
56
73
52
40
0
40
0
40
0
40
0
40
0.0726612842451827
40
0.0726612842451827
40
0.108991926367774
40
0.108991926367774
40
0.145322568490366
40
0.145322568490366
40
0.181653210612958
40
0.181653210612958
40
0.217983852735549
40
0.217983852735549
40
0.254314494858141
40
0.254314494858141
40
0.290645136980733
40
0.290645136980733
40
0.363306421225917
40
0.363306421225917
40
0.399637063348509
40
0.399637063348509
40
0.435967705471102
40
0.435967705471102
40
0.472298347593695
40
0.472298347593695
40
0.508628989716288
40
0.508628989716288
40
0.544959631838881
40
0.544959631838881
40
0.581290273961473
40
0.581290273961473
40
0.617620916084066
40
0.617620916084066
40
0.653951558206659
40
0.653951558206659
40
0.726612842451845
40
0.726612842451845
40
0.762943484574437
40
0.762943484574437
40
0.79927412669703
40
0.79927412669703
40
0.835604768819623
40
0.835604768819623
40
0.871935410942216
40
0.871935410942216
40
0.908266053064808
40
0.908266053064808
40
0.944596695187401
40
0.944596695187401
40
0.980927337309994
40
0.980927337309994
40
1
40
1
40
1
40
1
41
1
10
14.3705212632292
20
3.98114850642173
30
0
41
1
10
14.860803804218
20
3.81238275670151
30
0
41
1
10
15.3517961744029
20
3.62410657736902
30
0
41
1
10
16.0862951454404
20
3.31002018166257
30
0
41
1
10
16.3304917457596
20
3.19955594607987
30
0
41
1
10
16.8210209884065
20
2.97122117285139
30
0
41
1
10
17.0672532251309
20
2.85289274958646
30
0
41
1
10
17.5582282406796
20
2.6086988435853
30
0
41
1
10
17.8031922516135
20
2.48265160140494
30
0
41
1
10
18.2920070574542
20
2.22244724308689
30
0
41
1
10
18.5366975116148
20
2.08949963202818
30
0
41
1
10
19.0271434241067
20
1.81878412828718
30
0
41
1
10
19.272798018461
20
1.68070697399946
30
0
41
1
10
19.7640836809236
20
1.39867225589856
30
0
41
1
10
20.0085089323886
20
1.25453560278777
30
0
41
1
10
20.7430680900781
20
0.820683805105176
30
0
41
1
10
21.2336775623837
20
0.528339899211119
30
0
41
1
10
21.9683056712519
20
0.0807259833951832
30
0
41
1
10
22.2138733680148
20
-0.0688677069316839
30
0
41
1
10
22.7046339545724
20
-0.365230057175126
30
0
41
1
10
22.9498596645793
20
-0.512633664551487
30
0
41
1
10
23.4395896193892
20
-0.806566702386561
30
0
41
1
10
23.6836893754876
20
-0.953747164606312
30
0
41
1
10
24.1733030269036
20
-1.24371501585097
30
0
41
1
10
24.4190186734664
20
-1.38654230853979
30
0
41
1
10
24.9105988571956
20
-1.66835240631025
30
0
41
1
10
25.1558815701276
20
-1.80692366721749
30
0
41
1
10
25.6449671625924
20
-2.08004167318984
30
0
41
1
10
25.889280951113
20
-2.21378655149917
30
0
41
1
10
26.3792369532148
20
-2.47311094888309
30
0
41
1
10
26.6245230025981
20
-2.59923197488737
30
0
41
1
10
27.1152949889843
20
-2.84492842135575
30
0
41
1
10
27.3604937853028
20
-2.96499708465618
30
0
41
1
10
28.0950094552023
20
-3.30991823300195
30
0
41
1
10
28.5855822436191
20
-3.51924646876887
30
0
41
1
10
29.3196700929898
20
-3.80598580074263
30
0
41
1
10
29.5645680841666
20
-3.89670057896819
30
0
41
1
10
30.0557295192837
20
-4.06544829384367
30
0
41
1
10
30.3011121616216
20
-4.14380441835726
30
0
41
1
10
30.7910584142993
20
-4.28894331394423
30
0
41
1
10
31.0353263880472
20
-4.35591606215201
30
0
41
1
10
31.5241783473599
20
-4.47719134348091
30
0
41
1
10
31.7693516206712
20
-4.53115464716458
30
0
41
1
10
32.2604407918625
20
-4.626359819198
30
0
41
1
10
32.5063741203864
20
-4.66754766936572
30
0
41
1
10
32.9960425368218
20
-4.73670102879598
30
0
41
1
10
33.2401184547661
20
-4.76464166757646
30
0
41
1
10
33.7297323169985
20
-4.80651899769404
30
0
41
1
10
33.974807732316
20
-4.82064837297588
30
0
41
1
10
34.3486188585549
20
-4.83185662034342
30
0
41
1
10
34.4773357456483
20
-4.83383819038522
30
0
41
1
10
34.6060245295888
20
-4.8339176423714
30
0
0
SPLINE
5
DA
100
AcDbEntity
8
1
62
256
6
ByLayer
370
18
48
1
60
0
100
AcDbSpline
70
4
71
3
72
26
73
22
40
0
40
0
40
0
40
0
40
0.0543786391034542
40
0.0543786391034542
40
0.148940775193108
40
0.148940775193108
40
0.243502911282761
40
0.243502911282761
40
0.432627183462068
40
0.432627183462068
40
0.527189319551723
40
0.527189319551723
40
0.621751455641378
40
0.621751455641378
40
0.716313591731034
40
0.716313591731034
40
0.81087572782069
40
0.81087572782069
40
0.905437863910344
40
0.905437863910344
40
1
40
1
40
1
40
1
41
1
10
53.6346412112536
20
3.54265634415091
30
0
41
1
10
53.7751103480301
20
3.60132618745592
30
0
41
1
10
53.9155907543238
20
3.6582644630407
30
0
41
1
10
54.3010033859993
20
3.80883284945295
30
0
41
1
10
54.5459914933852
20
3.89898213457644
30
0
41
1
10
55.0361276444589
20
4.0687561759145
30
0
41
1
10
55.2812525221427
20
4.14870193963043
30
0
41
1
10
56.0151755645044
20
4.3695794194285
30
0
41
1
10
56.505338981853
20
4.49075650728057
30
0
41
1
10
57.2387353587743
20
4.63586128626204
30
0
41
1
10
57.4829623485016
20
4.67792339957089
30
0
41
1
10
57.9738634950198
20
4.74810219075587
30
0
41
1
10
58.2191465807325
20
4.77634604158104
30
0
41
1
10
58.7088407860369
20
4.81940236917424
30
0
41
1
10
58.9530463469197
20
4.83423067300504
30
0
41
1
10
59.4413184490414
20
4.8500555283016
30
0
41
1
10
59.6861537989067
20
4.85103049767127
30
0
41
1
10
60.1766300915061
20
4.83934021487892
30
0
41
1
10
60.4224319731869
20
4.82664074183003
30
0
41
1
10
60.9118967071449
20
4.7874633896167
30
0
41
1
10
61.1557014873554
20
4.76086166034574
30
0
41
1
10
61.4002252069413
20
4.72780138117528
30
0
0
SPLINE
5
DB
100
AcDbEntity
8
1
62
256
6
ByLayer
370
18
48
1
60
0
100
AcDbSpline
70
4
71
3
72
84
73
80
40
0
40
0
40
0
40
0
40
0.0143008596756312
40
0.0143008596756312
40
0.0380166466356798
40
0.0380166466356798
40
0.0617324335957283
40
0.0617324335957283
40
0.0854482205557769
40
0.0854482205557769
40
0.109164007515825
40
0.109164007515825
40
0.132879794475874
40
0.132879794475874
40
0.156595581435923
40
0.156595581435923
40
0.180311368395971
40
0.180311368395971
40
0.20402715535602
40
0.20402715535602
40
0.251458729276117
40
0.251458729276117
40
0.275174516236165
40
0.275174516236165
40
0.298890303196213
40
0.298890303196213
40
0.322606090156261
40
0.322606090156261
40
0.346321877116309
40
0.346321877116309
40
0.370037664076357
40
0.370037664076357
40
0.393753451036405
40
0.393753451036405
40
0.441185024956501
40
0.441185024956501
40
0.464900811916549
40
0.464900811916549
40
0.488616598876597
40
0.488616598876597
40
0.512332385836645
40
0.512332385836645
40
0.536048172796693
40
0.536048172796693
40
0.559763959756742
40
0.559763959756742
40
0.58347974671679
40
0.58347974671679
40
0.607195533676838
40
0.607195533676838
40
0.630911320636886
40
0.630911320636886
40
0.678342894556982
40
0.678342894556982
40
0.70205868151703
40
0.70205868151703
40
0.725774468477079
40
0.725774468477079
40
0.749490255437127
40
0.749490255437127
40
0.773206042397176
40
0.773206042397176
40
0.796921829357224
40
0.796921829357224
40
0.820637616317273
40
0.820637616317273
40
0.844353403277322
40
0.844353403277322
40
0.86806919023737
40
0.86806919023737
40
0.915500764157468
40
0.915500764157468
40
0.939216551117517
40
0.939216551117517
40
0.962932338077566
40
0.962932338077566
40
0.986648125037615
40
0.986648125037615
40
1
40
1
40
1
40
1
41
1
10
28.6320466050256
20
3.53247724969504
30
0
41
1
10
28.7797585232642
20
3.59348324688142
30
0
41
1
10
28.9274200077606
20
3.65277044988008
30
0
41
1
10
29.3196700929899
20
3.80598580074263
30
0
41
1
10
29.5645680841666
20
3.89670057896819
30
0
41
1
10
30.0557295192837
20
4.06544829384364
30
0
41
1
10
30.3011121616216
20
4.14380441835726
30
0
41
1
10
30.7910584142993
20
4.28894331394423
30
0
41
1
10
31.0353263880472
20
4.35591606215201
30
0
41
1
10
31.5241783473599
20
4.47719134348091
30
0
41
1
10
31.7693516206713
20
4.53115464716458
30
0
41
1
10
32.2604407918625
20
4.626359819198
30
0
41
1
10
32.5063741203864
20
4.66754766936572
30
0
41
1
10
32.9960425368219
20
4.73670102879595
30
0
41
1
10
33.2401184547662
20
4.76464166757646
30
0
41
1
10
33.7297323169985
20
4.80651899769407
30
0
41
1
10
33.974807732316
20
4.82064837297588
30
0
41
1
10
34.465060012203
20
4.83534795904964
30
0
41
1
10
34.7103019032235
20
4.83588753446119
30
0
41
1
10
35.4451306405649
20
4.81655238271122
30
0
41
1
10
35.935671424127
20
4.77653730195348
30
0
41
1
10
36.6695405916716
20
4.67583603383596
30
0
41
1
10
36.9136911054262
20
4.63525800932305
30
0
41
1
10
37.4043626768015
20
4.54155929286341
30
0
41
1
10
37.6502882015963
20
4.48830726468907
30
0
41
1
10
38.140603099449
20
4.36932972270921
30
0
41
1
10
38.3851655740766
20
4.30343409278842
30
0
41
1
10
38.8736226336425
20
4.15899292502064
30
0
41
1
10
39.1183845645653
20
4.08115916300508
30
0
41
1
10
39.6087657629059
20
3.91431578174223
30
0
41
1
10
39.8546319316332
20
3.82512533458299
30
0
41
1
10
40.3450318002305
20
3.63546514934123
30
0
41
1
10
40.5891196405195
20
3.53468101383501
30
0
41
1
10
41.3232240623356
20
3.2203475832757
30
0
41
1
10
41.8133939981337
20
2.99329311802197
30
0
41
1
10
42.5479585157601
20
2.62350525817629
30
0
41
1
10
42.7933359674253
20
2.49676509605476
30
0
41
1
10
43.2835529585381
20
2.23792745361089
30
0
41
1
10
43.5285207749799
20
2.10548249541466
30
0
41
1
10
44.0177697548189
20
1.83391295936485
30
0
41
1
10
44.2616696563538
20
1.69417337003449
30
0
41
1
10
44.7513882939353
20
1.41193684560321
30
0
41
1
10
44.9973046742091
20
1.26893280459026
30
0
41
1
10
45.4881257149452
20
0.979798577519858
30
0
41
1
10
45.7330193672741
20
0.833666623601772
30
0
41
1
10
46.2214992042196
20
0.537803942496879
30
0
41
1
10
46.4658441940914
20
0.389312176034593
30
0
41
1
10
46.9556662709381
20
0.0927533504806775
30
0
41
1
10
47.2009015642836
20
-0.0557098403055818
30
0
41
1
10
47.6916184442557
20
-0.353690904263118
30
0
41
1
10
47.9362020769324
20
-0.503581929222889
30
0
41
1
10
48.6701323550228
20
-0.947059234869528
30
0
41
1
10
49.1603157323269
20
-1.23545060527903
30
0
41
1
10
49.8940363773117
20
-1.66172764800748
30
0
41
1
10
50.1392436229105
20
-1.80200106019217
30
0
41
1
10
50.6297566749724
20
-2.07486557945205
30
0
41
1
10
50.8748353699634
20
-2.20806210764215
30
0
41
1
10
51.3642232933916
20
-2.46861711687257
30
0
41
1
10
51.6081519480811
20
-2.59648803211508
30
0
41
1
10
52.0970155160757
20
-2.84375590369123
30
0
41
1
10
52.3422041487307
20
-2.96284769222609
30
0
41
1
10
52.8333779946857
20
-3.1929635152525
30
0
41
1
10
53.0787143778317
20
-3.30359803678346
30
0
41
1
10
53.5676204307468
20
-3.51610305104003
30
0
41
1
10
53.8116083002021
20
-3.6176418444611
30
0
41
1
10
54.3010033859994
20
-3.80883284945298
30
0
41
1
10
54.5459914933852
20
-3.89898213457644
30
0
41
1
10
55.0361276444589
20
-4.0687561759145
30
0
41
1
10
55.2812525221427
20
-4.14870193963046
30
0
41
1
10
56.0151755645045
20
-4.36957941942848
30
0
41
1
10
56.505338981853
20
-4.49075650728059
30
0
41
1
10
57.2387353587744
20
-4.63586128626201
30
0
41
1
10
57.4829623485016
20
-4.67792339957089
30
0
41
1
10
57.9738634950199
20
-4.74810219075587
30
0
41
1
10
58.2191465807325
20
-4.77634604158104
30
0
41
1
10
58.708840786037
20
-4.81940236917424
30
0
41
1
10
58.9530463469197
20
-4.83423067300504
30
0
41
1
10
59.3346298304891
20
-4.8465977596864
30
0
41
1
10
59.4722989152852
20
-4.84885349675821
30
0
41
1
10
59.610136741814
20
-4.84893125241641
30
0
0
SPLINE
5
DC
100
AcDbEntity
8
1
62
256
6
ByLayer
370
18
48
1
60
0
100
AcDbSpline
70
4
71
3
72
40
73
36
40
0
40
0
40
0
40
0
40
0.124999999999996
40
0.124999999999996
40
0.249999999999993
40
0.249999999999993
40
0.312499999999991
40
0.312499999999991
40
0.374999999999989
40
0.374999999999989
40
0.499999999999991
40
0.499999999999991
40
0.624999999999993
40
0.624999999999993
40
0.687499999999994
40
0.687499999999994
40
0.718749999999995
40
0.718749999999995
40
0.749999999999995
40
0.749999999999995
40
0.781249999999996
40
0.781249999999996
40
0.812499999999996
40
0.812499999999996
40
0.843749999999997
40
0.843749999999997
40
0.874999999999997
40
0.874999999999997
40
0.906249999999998
40
0.906249999999998
40
0.937499999999999
40
0.937499999999999
40
0.968749999999999
40
0.968749999999999
40
1
40
1
40
1
40
1
41
1
10
57.3843997252582
20
1.8101315225922
30
0
41
1
10
57.5528434327893
20
1.67145362872787
30
0
41
1
10
57.7234592619894
20
1.53911796054919
30
0
41
1
10
58.0699042712508
20
1.2896687216458
30
0
41
1
10
58.2454490369593
20
1.17271761655027
30
0
41
1
10
58.5102874050611
20
1.01177937980233
30
0
41
1
10
58.5989228279941
20
0.960484781207924
30
0
41
1
10
58.7769591638736
20
0.862952331454892
30
0
41
1
10
58.8665693553165
20
0.816590303336426
30
0
41
1
10
59.1343673614263
20
0.686596378414407
30
0
41
1
10
59.3118312164594
20
0.611898384571447
30
0
41
1
10
59.6644092954159
20
0.488821242683514
30
0
41
1
10
59.8395255718411
20
0.440419104017195
30
0
41
1
10
60.1001419000873
20
0.390869071542255
30
0
41
1
10
60.1867266468569
20
0.378189957213465
30
0
41
1
10
60.3158613612786
20
0.365576846803776
30
0
41
1
10
60.3586093739279
20
0.362463049025706
30
0
41
1
10
60.443497553677
20
0.358468249240104
30
0
41
1
10
60.4858929169966
20
0.356931528221025
30
0
41
1
10
60.5682175624582
20
0.361037253131201
30
0
41
1
10
60.6084168394234
20
0.366249491260731
30
0
41
1
10
60.6850334155004
20
0.383417002486567
30
0
41
1
10
60.7215124292844
20
0.395379213296792
30
0
41
1
10
60.7901272229959
20
0.427325078919068
30
0
41
1
10
60.8224126839239
20
0.447297061515229
30
0
41
1
10
60.8807644922948
20
0.497627291575753
30
0
41
1
10
60.9059561386344
20
0.527187153751868
30
0
41
1
10
60.9465500975563
20
0.59710478533222
30
0
41
1
10
60.9617511597606
20
0.637828771417389
30
0
41
1
10
60.9815758274369
20
0.724838257023322
30
0
41
1
10
60.9865485541238
20
0.772049439332847
30
0
41
1
10
60.9875672036802
20
0.870243426207395
30
0
41
1
10
60.9836960101255
20
0.920647622532243
30
0
41
1
10
60.968920342436
20
1.02355483636799
30
0
41
1
10
60.9578935932518
20
1.07632183980067
30
0
41
1
10
60.9440666902982
20
1.12930565393904
30
0
0
SPLINE
5
DD
100
AcDbEntity
8
1
62
256
6
ByLayer
370
18
48
1
60
0
100
AcDbSpline
70
4
71
3
72
66
73
62
40
0
40
0
40
0
40
0
40
0.0625000000000055
40
0.0625000000000055
40
0.125000000000011
40
0.125000000000011
40
0.250000000000021
40
0.250000000000021
40
0.375000000000031
40
0.375000000000031
40
0.500000000000041
40
0.500000000000041
40
0.562500000000046
40
0.562500000000046
40
0.625000000000051
40
0.625000000000051
40
0.656250000000054
40
0.656250000000054
40
0.664062500000055
40
0.664062500000055
40
0.667968750000055
40
0.667968750000055
40
0.671875000000056
40
0.671875000000056
40
0.673828125000055
40
0.673828125000055
40
0.675781250000055
40
0.675781250000055
40
0.679687500000054
40
0.679687500000054
40
0.687500000000053
40
0.687500000000053
40
0.718750000000048
40
0.718750000000048
40
0.734375000000045
40
0.734375000000045
40
0.750000000000042
40
0.750000000000042
40
0.76562500000004
40
0.76562500000004
40
0.781250000000037
40
0.781250000000037
40
0.796875000000035
40
0.796875000000035
40
0.812500000000032
40
0.812500000000032
40
0.828125000000029
40
0.828125000000029
40
0.843750000000027
40
0.843750000000027
40
0.859375000000024
40
0.859375000000024
40
0.875000000000021
40
0.875000000000021
40
0.906250000000016
40
0.906250000000016
40
0.937500000000011
40
0.937500000000011
40
0.968750000000005
40
0.968750000000005
40
1
40
1
40
1
40
1
41
1
10
14.3705534252434
20
3.98111306832999
30
0
41
1
10
14.0548935401146
20
4.089247272839
30
0
41
1
10
13.7375132627665
20
4.18573996315524
30
0
41
1
10
13.0981717188618
20
4.3566701491302
30
0
41
1
10
12.775623983422
20
4.43119323962768
30
0
41
1
10
11.8030043027414
20
4.62240076617323
30
0
41
1
10
11.1506544252815
20
4.70604348168987
30
0
41
1
10
9.82609182795457
20
4.80548754674444
30
0
41
1
10
9.15377079000453
20
4.82134557034436
30
0
41
1
10
7.77921886923659
20
4.81441501758212
30
0
41
1
10
7.07679818414596
20
4.79193625455849
30
0
41
1
10
5.99681694112908
20
4.75385391254446
30
0
41
1
10
5.63462554255005
20
4.74051163483168
30
0
41
1
10
4.90555072887656
20
4.71598077884082
30
0
41
1
10
4.5386482813492
20
4.70480007398436
30
0
41
1
10
3.98643507736079
20
4.69162985025193
30
0
41
1
10
3.80196772991542
20
4.68782994063508
30
0
41
1
10
3.57113288605146
20
4.68396271255216
30
0
41
1
10
3.52495045895611
20
4.68323316876652
30
0
41
1
10
3.45565348115193
20
4.68220684339894
30
0
41
1
10
3.43251848758223
20
4.68168447828785
30
0
41
1
10
3.38650728546224
20
4.68208576232288
30
0
41
1
10
3.36303272734955
20
4.68292802684863
30
0
41
1
10
3.33065547928368
20
4.68565350070963
30
0
41
1
10
3.32060067657119
20
4.68692103491753
30
0
41
1
10
3.30046108858986
20
4.68941998387294
30
0
41
1
10
3.29040832048821
20
4.69066858961921
30
0
41
1
10
3.26030217546275
20
4.69441121149976
30
0
41
1
10
3.24030970553386
20
4.69690095253719
30
0
41
1
10
3.18062033929749
20
4.70434362376585
30
0
41
1
10
3.14119374331943
20
4.70927232096497
30
0
41
1
10
2.94604703017029
20
4.73367268510361
30
0
41
1
10
2.79547875264498
20
4.75256737906682
30
0
41
1
10
2.58826575821618
20
4.77700242944385
30
0
41
1
10
2.52218251570659
20
4.78450303158067
30
0
41
1
10
2.39740992654532
20
4.79757279260315
30
0
41
1
10
2.33838050864222
20
4.80317304422255
30
0
41
1
10
2.2314318849279
20
4.8113403785257
30
0
41
1
10
2.18402973131651
20
4.81387571484996
30
0
41
1
10
2.10352550738668
20
4.81483506611102
30
0
41
1
10
2.07020822955303
20
4.81318644339504
30
0
41
1
10
2.02258743647965
20
4.80479291365785
30
0
41
1
10
2.00794348807688
20
4.79810926201279
30
0
41
1
10
1.99697795680686
20
4.7792810128378
30
0
41
1
10
2.00092389290757
20
4.76700152920179
30
0
41
1
10
2.02541569240327
20
4.73800691922696
30
0
41
1
10
2.04579422286886
20
4.72121461566184
30
0
41
1
10
2.10031751277947
20
4.68337001822368
30
0
41
1
10
2.13382318814988
20
4.66275120871296
30
0
41
1
10
2.21018213296517
20
4.61873952720828
30
0
41
1
10
2.25308447704214
20
4.59532421094448
30
0
41
1
10
2.34641870784628
20
4.54600143122923
30
0
41
1
10
2.39709667782088
20
4.51997480649686
30
0
41
1
10
2.55622532598545
20
4.43961394149739
30
0
41
1
10
2.67173428709208
20
4.38293987700405
30
0
41
1
10
2.91490147887532
20
4.26442227223689
30
0
41
1
10
3.04265687116777
20
4.20256444272997
30
0
41
1
10
3.30705422930268
20
4.07415970102912
30
0
41
1
10
3.44363039132355
20
4.00765122900629
30
0
41
1
10
3.71996607352239
20
3.87205443277719
30
0
41
1
10
3.86024050338372
20
3.80272248747494
30
0
41
1
10
4.00211110609203
20
3.73190448101997
30
0
0
SPLINE
5
DE
100
AcDbEntity
8
1
62
256
6
ByLayer
370
18
48
1
60
0
100
AcDbSpline
70
4
71
3
72
8
73
4
40
0
40
0
40
0
40
0
40
1
40
1
40
1
40
1
41
1
10
61.3168803618217
20
-4.81153884744205
30
0
41
1
10
61.3321812176049
20
-4.7708094685008
30
0
41
1
10
61.3474664786551
20
-4.7300479624468
30
0
41
1
10
61.362734690515
20
-4.68925822514095
30
0
0
SPLINE
5
DF
100
AcDbEntity
8
1
62
256
6
ByLayer
370
18
48
1
60
0
100
AcDbSpline
70
4
71
3
72
12
73
8
40
0
40
0
40
0
40
0
40
0.249999999999996
40
0.249999999999996
40
0.499999999999991
40
0.499999999999991
40
1
40
1
40
1
40
1
41
1
10
61.3627346904993
20
-4.68925822514214
30
0
41
1
10
61.3677117584831
20
-4.67596175680146
30
0
41
1
10
61.3724356652889
20
-4.66233646192407
30
0
41
1
10
61.3799868142303
20
-4.6379691642189
30
0
41
1
10
61.3827837651469
20
-4.62726752049201
30
0
41
1
10
61.3872222093536
20
-4.60420199120244
30
0
41
1
10
61.3853359411104
20
-4.60023397931954
30
0
41
1
10
61.3810970695857
20
-4.60329954358244
30
0
0
SPLINE
5
E0
100
AcDbEntity
8
1
62
256
6
ByLayer
370
18
48
1
60
0
100
AcDbSpline
70
4
71
3
72
22
73
18
40
0
40
0
40
0
40
0
40
0.125000000000001
40
0.125000000000001
40
0.187500000000001
40
0.187500000000001
40
0.250000000000002
40
0.250000000000002
40
0.500000000000001
40
0.500000000000001
40
0.625000000000001
40
0.625000000000001
40
0.750000000000001
40
0.750000000000001
40
0.875
40
0.875
40
1
40
1
40
1
40
1
41
1
10
61.3144695384703
20
-4.6309568828446
30
0
41
1
10
61.2438056064287
20
-4.63091697489065
30
0
41
1
10
61.1767057340848
20
-4.62012245393433
30
0
41
1
10
61.0816898497962
20
-4.58693020676788
30
0
41
1
10
61.0509594096712
20
-4.57302506723596
30
0
41
1
10
60.9914649568371
20
-4.53928105875849
30
0
41
1
10
60.9626656583587
20
-4.51938261496016
30
0
41
1
10
60.8258488205303
20
-4.4061568603849
30
0
41
1
10
60.7372860574267
20
-4.271503005711
30
0
41
1
10
60.6378659523215
20
-3.99900732567403
30
0
41
1
10
60.6102836971309
20
-3.89534350257506
30
0
41
1
10
60.5687210628388
20
-3.66972686534749
30
0
41
1
10
60.5544484588343
20
-3.54735739462012
30
0
41
1
10
60.5388763703939
20
-3.2835612344966
30
0
41
1
10
60.5375746850304
20
-3.14213777821351
30
0
41
1
10
60.5485403422943
20
-2.83935827101075
30
0
41
1
10
60.5607313532889
20
-2.68086922244734
30
0
41
1
10
60.5793004727145
20
-2.51654147858159
30
0
0
SPLINE
5
E1
100
AcDbEntity
8
1
62
256
6
ByLayer
370
13
48
1
60
0
100
AcDbSpline
70
4
71
3
72
10
73
6
40
0
40
0
40
0
40
0
40
0.5
40
0.5
40
1
40
1
40
1
40
1
41
1
10
4.25034121329577
20
-3.24601160049502
30
0
41
1
10
4.2279610400314
20
-3.24049750394295
30
0
41
1
10
4.20603384396924
20
-3.23718935957871
30
0
41
1
10
4.1630955598836
20
-3.23485206081926
30
0
41
1
10
4.14202193411086
20
-3.23589129084098
30
0
41
1
10
4.12247676575717
20
-3.23920806259369
30
0
0
SPLINE
5
E2
100
AcDbEntity
8
1
62
256
6
ByLayer
370
13
48
1
60
0
100
AcDbSpline
70
4
71
3
72
10
73
6
40
0
40
0
40
0
40
0
40
0.5
40
0.5
40
1
40
1
40
1
40
1
41
1
10
4.00526816343725
20
-3.31278918812933
30
0
41
1
10
4.01210420789818
20
-3.32231031561361
30
0
41
1
10
4.02530347952523
20
-3.331246982431
30
0
41
1
10
4.06467984796092
20
-3.34737065557073
30
0
41
1
10
4.0906373416228
20
-3.35440987048088
30
0
41
1
10
4.12247676575717
20
-3.35973371129549
30
0
0
SPLINE
5
E3
100
AcDbEntity
8
1
62
256
6
ByLayer
370
13
48
1
60
0
100
AcDbSpline
70
4
71
3
72
8
73
4
40
0
40
0
40
0
40
0
40
1
40
1
40
1
40
1
41
1
10
4.12049369612697
20
-3.42909385206275
30
0
41
1
10
4.12114925333691
20
-3.40597727377226
30
0
41
1
10
4.12181026473269
20
-3.38285726916865
30
0
41
1
10
4.12247676575717
20
-3.35973371129546
30
0
0
SPLINE
5
E4
100
AcDbEntity
8
SK1
62
256
6
ByLayer
370
18
48
1
60
0
100
AcDbSpline
70
4
71
3
72
10
73
6
40
0
40
0
40
0
40
0
40
0.5
40
0.5
40
1
40
1
40
1
40
1
41
1
10
-38.95
20
-2.97083419589282
30
0
41
1
10
-39.1281002653425
20
-2.71541126198889
30
0
41
1
10
-39.3053068773951
20
-2.45960247159272
30
0
41
1
10
-39.6562276857791
20
-1.94647695556975
30
0
41
1
10
-39.8300482945171
20
-1.68920617608163
30
0
41
1
10
-40
20
-1.43026490373478
30
0
0
SPLINE
5
E5
100
AcDbEntity
8
SK1
62
256
6
ByLayer
370
18
48
1
60
0
100
AcDbSpline
70
4
71
3
72
10
73
6
40
0
40
0
40
0
40
0
40
0.5
40
0.5
40
1
40
1
40
1
40
1
41
1
10
-39.9999999999999
20
-2.93138539848053
30
0
41
1
10
-39.8301257758578
20
-3.19020861895541
30
0
41
1
10
-39.6563253118241
20
-3.44745352006709
30
0
41
1
10
-39.3053898261476
20
-3.96060285482343
30
0
41
1
10
-39.1281394681189
20
-4.21647553397622
30
0
41
1
10
-38.95
20
-4.47195469063837
30
0
0
SPLINE
5
E6
100
AcDbEntity
8
SK1
62
256
6
ByLayer
370
18
48
1
60
0
100
AcDbSpline
70
4
71
3
72
14
73
10
40
0
40
0
40
0
40
0
40
0.125
40
0.125
40
0.25
40
0.25
40
0.499999999999999
40
0.499999999999999
40
1
40
1
40
1
40
1
41
1
10
-38.85
20
-3.19392027559022
30
0
41
1
10
-38.85
20
-3.18544127471898
30
0
41
1
10
-38.8517453396944
20
-3.17513574001222
30
0
41
1
10
-38.8568901241517
20
-3.15433583169417
30
0
41
1
10
-38.860211966304
20
-3.14393339471013
30
0
41
1
10
-38.8714485682308
20
-3.1127218901058
30
0
41
1
10
-38.8802054040538
20
-3.09299233281615
30
0
41
1
10
-38.9082792076556
20
-3.03565583132684
30
0
41
1
10
-38.9286347141248
20
-3.00147527321758
30
0
41
1
10
-38.95
20
-2.97083419589282
30
0
0
SPLINE
5
E7
100
AcDbEntity
8
SK1
62
256
6
ByLayer
370
18
48
1
60
0
100
AcDbSpline
70
4
71
3
72
14
73
10
40
0
40
0
40
0
40
0
40
0.500000000000003
40
0.500000000000003
40
0.750000000000004
40
0.750000000000004
40
0.875000000000002
40
0.875000000000002
40
1
40
1
40
1
40
1
41
1
10
-38.9500000000001
20
-4.47195469063846
30
0
41
1
10
-38.9287234691649
20
-4.50246847970419
30
0
41
1
10
-38.9083432483059
20
-4.5293351409164
30
0
41
1
10
-38.880223151313
20
-4.56115691474727
30
0
41
1
10
-38.8713218079587
20
-4.57023385888195
30
0
41
1
10
-38.8602667834558
20
-4.57852251004863
30
0
41
1
10
-38.8569157654531
20
-4.58043450660466
30
0
41
1
10
-38.851744720606
20
-4.58090995270186
30
0
41
1
10
-38.8499999999999
20
-4.57937559624045
30
0
41
1
10
-38.8499999999999
20
-4.57495113075626
30
0
0
LINE
5
76
100
AcDbEntity
8
81
62
256
6
ByLayer
370
18
48
1
60
0
100
AcDbLine
10
63
20
0
30
0
11
68
21
0
31
0
39
0
210
0
220
0
230
1
0
LINE
5
77
100
AcDbEntity
8
1
62
256
6
ByLayer
370
18
48
1
60
0
100
AcDbLine
10
2.147222
20
4.814448
30
0
11
0.338463
21
4.813363
31
0
39
0
210
0
220
0
230
1
0
LINE
5
79
100
AcDbEntity
8
1
62
256
6
ByLayer
370
18
48
1
60
0
100
AcDbLine
10
35.314239
20
4.834348
30
0
11
34.605521
21
4.833923
31
0
39
0
210
0
220
0
230
1
0
LINE
5
7A
100
AcDbEntity
8
1
62
256
6
ByLayer
370
18
48
1
60
0
100
AcDbLine
10
60.314772
20
4.849349
30
0
11
59.61186
21
4.848927
31
0
39
0
210
0
220
0
230
1
0
LINE
5
7B
100
AcDbEntity
8
1
62
256
6
ByLayer
370
18
48
1
60
0
100
AcDbLine
10
59.61186
20
-4.848927
30
0
11
60.314594
21
-4.849349
31
0
39
0
210
0
220
0
230
1
0
LINE
5
7C
100
AcDbEntity
8
1
62
256
6
ByLayer
370
18
48
1
60
0
100
AcDbLine
10
34.605521
20
-4.833923
30
0
11
35.314675
21
-4.834349
31
0
39
0
210
0
220
0
230
1
0
LINE
5
7D
100
AcDbEntity
8
1
62
256
6
ByLayer
370
18
48
1
60
0
100
AcDbLine
10
0.338463
20
-4.813363
30
0
11
2.147222
21
-4.814448
31
0
39
0
210
0
220
0
230
1
0
LINE
5
7E
100
AcDbEntity
8
SK1
62
256
6
ByLayer
370
18
48
1
60
0
100
AcDbLine
10
-38.845299
20
5
30
0
11
-40
21
3
31
0
39
0
210
0
220
0
230
1
0
LINE
5
80
100
AcDbEntity
8
SK1
62
256
6
ByLayer
370
18
48
1
60
0
100
AcDbLine
10
-40
20
-3
30
0
11
-38.845299
21
-5
31
0
39
0
210
0
220
0
230
1
0
LINE
5
81
100
AcDbEntity
8
SK1
62
256
6
ByLayer
370
18
48
1
60
0
100
AcDbLine
10
0
20
5
30
0
11
-38.845299
21
5
31
0
39
0
210
0
220
0
230
1
0
LINE
5
82
100
AcDbEntity
8
SK1
62
256
6
ByLayer
370
18
48
1
60
0
100
AcDbLine
10
-38.845299
20
-5
30
0
11
0
21
-5
31
0
39
0
210
0
220
0
230
1
0
LINE
5
83
100
AcDbEntity
8
1
62
256
6
ByLayer
370
18
48
1
60
0
100
AcDbLine
10
10.315137
20
4.819349
30
0
11
8.584023
21
4.81831
31
0
39
0
210
0
220
0
230
1
0
LINE
5
84
100
AcDbEntity
8
1
62
256
6
ByLayer
370
18
48
1
60
0
100
AcDbLine
10
8.584023
20
-4.81831
30
0
11
10.314701
21
-4.819349
31
0
39
0
210
0
220
0
230
1
0
LINE
5
85
100
AcDbEntity
8
SK4
62
256
6
ByLayer
370
18
48
0.05
60
0
100
AcDbLine
10
68
20
0
30
0
11
-45
21
0
31
0
39
0
210
0
220
0
230
1
0
LINE
5
87
100
AcDbEntity
8
4
62
256
6
ByLayer
370
18
48
0.05
60
0
100
AcDbLine
10
63
20
0
30
0
11
0
21
0
31
0
39
0
210
0
220
0
230
1
0
LINE
5
89
100
AcDbEntity
8
80
62
256
6
ByLayer
370
18
48
1
60
0
100
AcDbLine
10
0
20
0
30
0
11
-5
21
0
31
0
39
0
210
0
220
0
230
1
0
LINE
5
8A
100
AcDbEntity
8
1
62
256
6
ByLayer
370
18
48
1
60
0
100
AcDbLine
10
10.598121
20
-0.008912
30
0
11
10.594838
21
-0.007045
31
0
39
0
210
0
220
0
230
1
0
LINE
5
8B
100
AcDbEntity
8
1
62
256
6
ByLayer
370
13
48
1
60
0
100
AcDbLine
10
61.76329
20
0.546295
30
0
11
62.894512
21
-0.124897
31
0
39
0
210
0
220
0
230
1
0
LINE
5
8C
100
AcDbEntity
8
1
62
256
6
ByLayer
370
13
48
1
60
0
100
AcDbLine
10
0.169172
20
4.906681
30
0
11
0.169172
21
-4.906681
31
0
39
0
210
0
220
0
230
1
0
LINE
5
8D
100
AcDbEntity
8
1
62
256
6
ByLayer
370
18
48
1
60
0
100
AcDbLine
10
62.990479
20
0.047402
30
0
11
63
21
0
31
0
39
0
210
0
220
0
230
1
0
LINE
5
8E
100
AcDbEntity
8
1
62
256
6
ByLayer
370
13
48
1
60
0
100
AcDbLine
10
0.338463
20
4.813363
30
0
11
0.338463
21
-4.813363
31
0
39
0
210
0
220
0
230
1
0
LINE
5
8F
100
AcDbEntity
8
1
62
256
6
ByLayer
370
18
48
1
60
0
100
AcDbLine
10
62.913463
20
-0.311866
30
0
11
62.769815
21
-0.881624
31
0
39
0
210
0
220
0
230
1
0
LINE
5
90
100
AcDbEntity
8
1
62
256
6
ByLayer
370
18
48
1
60
0
100
AcDbLine
10
60.5793
20
-2.516541
30
0
11
62.894512
21
-0.124897
31
0
39
0
210
0
220
0
230
1
0
LINE
5
91
100
AcDbEntity
8
1
62
256
6
ByLayer
370
13
48
1
60
0
100
AcDbLine
10
61.953196
20
0.881624
30
0
11
62.913463
21
0.311866
31
0
39
0
210
0
220
0
230
1
0
LINE
5
92
100
AcDbEntity
8
1
62
256
6
ByLayer
370
18
48
1
60
0
100
AcDbLine
10
63
20
0
30
0
11
62.990479
21
-0.047402
31
0
39
0
210
0
220
0
230
1
0
LINE
5
93
100
AcDbEntity
8
1
62
256
6
ByLayer
370
18
48
1
60
0
100
AcDbLine
10
62.913463
20
0.311866
30
0
11
62.769815
21
0.881624
31
0
39
0
210
0
220
0
230
1
0
LINE
5
94
100
AcDbEntity
8
1
62
256
6
ByLayer
370
18
48
1
60
0
100
AcDbLine
10
63
20
0
30
0
11
61.31447
21
-4.630957
31
0
39
0
210
0
220
0
230
1
0
LINE
5
95
100
AcDbEntity
8
1
62
256
6
ByLayer
370
18
48
1
60
0
100
AcDbLine
10
0
20
-5
30
0
11
0
21
5
31
0
39
0
210
0
220
0
230
1
0
LINE
5
96
100
AcDbEntity
8
1
62
256
6
ByLayer
370
13
48
1
60
0
100
AcDbLine
10
62.769815
20
0.881624
30
0
11
61.953196
21
0.881624
31
0
39
0
210
0
220
0
230
1
0
LINE
5
97
100
AcDbEntity
8
SK1
62
256
6
ByLayer
370
18
48
1
60
0
100
AcDbLine
10
-40
20
-1.430228
30
0
11
-40
21
-2.931385
31
0
39
0
210
0
220
0
230
1
0
LINE
5
98
100
AcDbEntity
8
SK1
62
256
6
ByLayer
370
13
48
1
60
0
100
AcDbLine
10
-38.95
20
-2.970721
30
0
11
-38.95
21
-4.471955
31
0
39
0
210
0
220
0
230
1
0
LINE
5
99
100
AcDbEntity
8
SK1
62
256
6
ByLayer
370
18
48
1
60
0
100
AcDbLine
10
-38.85
20
-4.574951
30
0
11
-38.85
21
-3.19392
31
0
39
0
210
0
220
0
230
1
0
LINE
5
9A
100
AcDbEntity
8
SK1
62
256
6
ByLayer
370
18
48
1
60
0
100
AcDbLine
10
-38.845299
20
5
30
0
11
-38.845299
21
-5
31
0
39
0
210
0
220
0
230
1
0
LINE
5
9B
100
AcDbEntity
8
SK1
62
256
6
ByLayer
370
18
48
1
60
0
100
AcDbLine
10
-40
20
3
30
0
11
-40
21
-1.430265
31
0
39
0
210
0
220
0
230
1
0
LINE
5
9C
100
AcDbEntity
8
SK1
62
256
6
ByLayer
370
18
48
1
60
0
100
AcDbLine
10
-40
20
-3
30
0
11
-40
21
-2.931385
31
0
39
0
210
0
220
0
230
1
0
LINE
5
9D
100
AcDbEntity
8
SK1
62
256
6
ByLayer
370
18
48
1
60
0
100
AcDbLine
10
0
20
-5
30
0
11
0
21
5
31
0
39
0
210
0
220
0
230
1
0
MTEXT
5
E8
100
AcDbEntity
8
SK6
62
256
6
ByLayer
370
13
48
1
60
0
100
AcDbMText
10
13.629169
20
37.232694
30
0
210
0
220
0
230
1
1
\W0.7542;R840-0970-50-A1A1220
40
3.5
41
0
44
1.084337
50
0
71
8
72
5
7
iso_b_vert
0
DIMENSION
5
F5
100
AcDbEntity
8
SK2
62
256
6
ByLayer
370
13
48
1
60
0
100
AcDbDimension
2
DimnDraft3D1
10
61.34
20
-15.063398
30
0
11
29.090059
21
-15.063398
31
0
70
32
71
5
72
1
41
1
210
0
220
0
230
1
3
Standard
100
AcDbAlignedDimension
13
0
23
-1.5875
33
0
14
61.34
24
-6.4375
34
0
50
0
100
AcDbRotatedDimension
1001
ACAD
1000
DSTYLE
1002
{
1070
   279
1070
     0
1070
   172
1070
     1
1070
   173
1070
     1
1070
   340
1005
E9
1070
   271
1070
     2
1070
   272
1070
     2
1070
    77
1070
     1
1070
    73
1070
     0
1070
   171
1070
     3
1070
   274
1070
     4
1070
   177
1070
    35
1070
   176
1070
    35
1070
   178
1070
    35
1070
    48
1040
-0.005
1070
    41
1041
3.5
1070
   147
1041
1.75
1070
    42
1041
1.5875
1070
    44
1041
2.0
1070
   140
1041
3.5
1070
   343
1005
0
1070
   344
1005
0
1002
}
0
DIMENSION
5
FF
100
AcDbEntity
8
SK2
62
256
6
ByLayer
370
13
48
1
60
0
100
AcDbDimension
2
DimnDraft3D2
10
63
20
-33.692985
30
0
11
11.1813
21
-33.692985
31
0
70
32
71
5
72
1
41
1
210
0
220
0
230
1
3
Standard
100
AcDbAlignedDimension
13
-40
23
-6.5875
33
0
14
63
24
-1.5875
34
0
50
0
100
AcDbRotatedDimension
1001
ACAD
1000
DSTYLE
1002
{
1070
   279
1070
     0
1070
   172
1070
     1
1070
   173
1070
     1
1070
   340
1005
E9
1070
   271
1070
     2
1070
   272
1070
     2
1070
    77
1070
     1
1070
    73
1070
     0
1070
   171
1070
     3
1070
   274
1070
     4
1070
   177
1070
    35
1070
   176
1070
    35
1070
   178
1070
    35
1070
    48
1040
-0.005
1070
    41
1041
3.5
1070
   147
1041
1.75
1070
    42
1041
1.5875
1070
    44
1041
2.0
1070
   140
1041
3.5
1070
   343
1005
0
1070
   344
1005
0
1002
}
0
DIMENSION
5
109
100
AcDbEntity
8
SK2
62
256
6
ByLayer
370
13
48
1
60
0
100
AcDbDimension
2
DimnDraft3D3
10
63
20
16.459119
30
0
11
37.92
21
16.459119
31
0
70
32
71
5
72
1
41
1
210
0
220
0
230
1
3
Standard
100
AcDbAlignedDimension
13
12.84
23
6.4375
33
0
14
63
24
1.5875
34
0
50
0
100
AcDbRotatedDimension
1001
ACAD
1000
DSTYLE
1002
{
1070
   279
1070
     0
1070
   172
1070
     1
1070
   173
1070
     1
1070
   340
1005
E9
1070
   271
1070
     2
1070
   272
1070
     2
1070
    77
1070
     1
1070
    73
1070
     0
1070
   171
1070
     3
1070
   274
1070
     4
1070
   177
1070
    35
1070
   176
1070
    35
1070
   178
1070
    35
1070
    48
1040
-0.005
1070
    41
1041
3.5
1070
   147
1041
1.75
1070
    42
1041
1.5875
1070
    44
1041
2.0
1070
   140
1041
3.5
1070
   343
1005
0
1070
   344
1005
0
1002
}
0
DIMENSION
5
113
100
AcDbEntity
8
SK2
62
256
6
ByLayer
370
13
48
1
60
0
100
AcDbDimension
2
DimnDraft3D4
10
61.34
20
-17.652503
30
0
11
72.981425
21
-17.652503
31
0
70
32
71
5
72
1
41
1
210
0
220
0
230
1
3
Standard
100
AcDbAlignedDimension
13
63
23
-1.5875
33
0
14
61.34
24
-6.4375
34
0
50
0
100
AcDbRotatedDimension
1001
ACAD
1000
DSTYLE
1002
{
1070
   279
1070
     0
1070
   172
1070
     1
1070
   173
1070
     1
1070
   340
1005
E9
1070
   271
1070
     2
1070
   272
1070
     2
1070
    77
1070
     1
1070
    73
1070
     0
1070
   171
1070
     3
1070
   274
1070
     4
1070
   177
1070
    35
1070
   176
1070
    35
1070
   178
1070
    35
1070
    48
1040
-0.005
1070
    41
1041
3.5
1070
   147
1041
1.75
1070
    42
1041
1.5875
1070
    44
1041
2.0
1070
   140
1041
3.5
1070
   343
1005
0
1070
   344
1005
0
1002
}
0
DIMENSION
5
11D
100
AcDbEntity
8
SK2
62
256
6
ByLayer
370
13
48
1
60
0
100
AcDbDimension
2
DimnDraft3D5
10
61.34
20
-23.343428
30
0
11
8.100676
21
-23.343428
31
0
70
32
71
5
72
1
41
1
210
0
220
0
230
1
3
Standard
100
AcDbAlignedDimension
13
-40
23
-6.5875
33
0
14
61.34
24
-6.4375
34
0
50
0
100
AcDbRotatedDimension
1001
ACAD
1000
DSTYLE
1002
{
1070
   279
1070
     0
1070
   172
1070
     1
1070
   173
1070
     1
1070
   340
1005
E9
1070
   271
1070
     2
1070
   272
1070
     2
1070
    77
1070
     1
1070
    73
1070
     0
1070
   171
1070
     3
1070
   274
1070
     4
1070
   177
1070
    35
1070
   176
1070
    35
1070
   178
1070
    35
1070
    48
1040
-0.005
1070
    41
1041
3.5
1070
   147
1041
1.75
1070
    42
1041
1.5875
1070
    44
1041
2.0
1070
   140
1041
3.5
1070
   343
1005
0
1070
   344
1005
0
1002
}
0
DIMENSION
5
128
100
AcDbEntity
8
SK2
62
256
6
ByLayer
370
13
48
1
60
0
100
AcDbDimension
2
DimnDraft3D6
10
-50.625163
20
5
30
0
11
-51.250163
21
23.47418
31
0
70
33
71
5
72
1
41
1
210
0
220
0
230
1
3
Standard
100
AcDbAlignedDimension
13
-41.5875
23
-5
33
0
14
-41.5875
24
5
34
0
1001
ACAD
1000
DSTYLE
1002
{
1070
   279
1070
     0
1070
    74
1070
     0
1070
   173
1070
     1
1070
   340
1005
E9
1070
   271
1070
     3
1070
   272
1070
     2
1070
    77
1070
     1
1070
    73
1070
     0
1070
   171
1070
     3
1070
   274
1070
     4
1070
   177
1070
    35
1070
   176
1070
    35
1070
   178
1070
    35
1070
    48
1040
-0.005
1070
    41
1041
3.5
1070
   147
1041
1.75
1070
    42
1041
1.5875
1070
    44
1041
2.0
1070
   140
1041
3.5
1070
   343
1005
0
1070
   344
1005
0
1002
}
0
DIMENSION
5
133
100
AcDbEntity
8
2
62
256
6
ByLayer
370
13
48
1
60
0
100
AcDbDimension
2
DimnDraft3D7
10
77.083343
20
4.85
30
0
11
72.458343
21
21.917266
31
0
70
33
71
5
72
1
41
1
210
0
220
0
230
1
3
Standard
100
AcDbAlignedDimension
13
62.9275
23
-4.85
33
0
14
62.9275
24
4.85
34
0
1001
ACAD
1000
DSTYLE
1002
{
1070
   279
1070
     0
1070
    74
1070
     0
1070
   173
1070
     1
1070
   340
1005
E9
1070
   271
1070
     3
1070
   272
1070
     2
1070
    77
1070
     1
1070
    73
1070
     0
1070
   171
1070
     3
1070
   274
1070
     4
1070
   177
1070
    35
1070
   176
1070
    35
1070
   178
1070
    35
1070
    48
1040
-0.005
1070
    41
1041
3.5
1070
   147
1041
1.75
1070
    42
1041
1.5875
1070
    44
1041
2.0
1070
   140
1041
3.5
1070
   343
1005
0
1070
   344
1005
0
1002
}
0
ENDSEC
0
SECTION
2
OBJECTS
0
DICTIONARY
5
19e
330
0
100
AcDbDictionary
280
0
281
1
3
ACAD_GROUP
350
19f
3
ACAD_MLINESTYLE
350
1a0
0
DICTIONARY
5
19f
330
0
100
AcDbDictionary
280
0
281
1
0
DICTIONARY
5
1a0
330
0
100
AcDbDictionary
280
0
281
1
3
Standard
350
18
0
MLINESTYLE
5
18
330
1a0
100
AcDbMlineStyle
2
Standard
70
0
3

62
256
51
90
52
90
71
2
49
-0.5
62
256
6
ByLayer
49
0.5
62
256
6
ByLayer
0
RASTERVARIABLES
5
18c
330

100
AcDbRasterVariables
90
0
70
1
71
1
72
1
0
ENDSEC
0
EOF
