0
SECTION
2
HEADER
9
$ACADVER
1
AC1015
9
$DWGCODEPAGE
3
ANSI_1252
9
$HANDSEED
5
1ad
9
$ANGBASE
50
0
9
$ANGDIR
70
0
9
$ATTMODE
70
1
9
$AUNITS
70
0
9
$AUPREC
70
0
9
$CECOLOR
62
256
9
$CELTSCALE
40
1
9
$CELTYPE
6
ByLayer
9
$CELWEIGHT
370
18
9
$CLAYER
8
0
9
$CMLJUST
70
0
9
$CMLSCALE
40
1
9
$CMLSTYLE
2
Standard
9
$DIMSTYLE
2
Standard
9
$TEXTSIZE
40
0.2
9
$TEXTSTYLE
7
Standard
9
$LUNITS
70
2
9
$LUPREC
70
4
9
$EXTNAMES
290
1
9
$INSUNITS
70
4
9
$LTSCALE
40
1
9
$LWDISPLAY
290
1
9
$PDMODE
70
0
9
$PDSIZE
40
0
9
$PLINEGEN
70
0
0
ENDSEC
0
SECTION
2
CLASSES
0
CLASS
1
RASTERVARIABLES
2
AcDbRasterVariables
3
ISM
90
0
280
0
281
0
0
ENDSEC
0
SECTION
2
TABLES
0
TABLE
2
VPORT
5
1a3
100
AcDbSymbolTable
0
VPORT
5
1
100
AcDbSymbolTableRecord
100
AcDbViewportTableRecord
2
*Active
70
0
10
0
20
0
11
1
21
1
12
-1
22
1
13
0
23
0
14
0.5
24
0.5
15
10
25
10
16
0
26
0
36
1
17
0
27
0
37
0
0
ENDTAB
0
TABLE
2
LTYPE
5
1a4
100
AcDbSymbolTable
0
LTYPE
5
14
100
AcDbSymbolTableRecord
100
AcDbLinetypeTableRecord
70
0
2
ByBlock
3

72
65
73
0
40
0
0
LTYPE
5
15
100
AcDbSymbolTableRecord
100
AcDbLinetypeTableRecord
70
0
2
ByLayer
3

72
65
73
0
40
0
0
LTYPE
5
16
100
AcDbSymbolTableRecord
100
AcDbLinetypeTableRecord
70
0
2
CONTINUOUS
3
Solid line
72
65
73
0
40
0
0
LTYPE
5
6A
100
AcDbSymbolTableRecord
100
AcDbLinetypeTableRecord
70
0
2
CENTER
3
____ _ ____ _ ____ _ ____
72
65
73
4
40
47.5
49
22
74
0
49
-8.5
74
0
49
8.5
74
0
49
-8.5
74
0
0
LTYPE
5
6B
100
AcDbSymbolTableRecord
100
AcDbLinetypeTableRecord
70
0
2
DASHED
3
__ __ __ __ __ __ __ __ __
72
65
73
2
40
25.72
49
12.86
74
0
49
-12.86
74
0
0
ENDTAB
0
TABLE
2
LAYER
5
1a5
100
AcDbSymbolTable
0
LAYER
5
10
100
AcDbSymbolTableRecord
100
AcDbLayerTableRecord
2
0
70
0
62
7
6
CONTINUOUS
290
1
370
-3
390
0
0
LAYER
5
6D
100
AcDbSymbolTableRecord
100
AcDbLayerTableRecord
2
81
70
0
62
-3
6
CONTINUOUS
290
1
370
-3
390
0
0
LAYER
5
6F
100
AcDbSymbolTableRecord
100
AcDbLayerTableRecord
2
80
70
0
62
-6
6
CONTINUOUS
290
1
370
-3
390
0
0
LAYER
5
74
100
AcDbSymbolTableRecord
100
AcDbLayerTableRecord
2
2
70
0
62
7
6
CONTINUOUS
290
1
370
-3
390
0
0
LAYER
5
78
100
AcDbSymbolTableRecord
100
AcDbLayerTableRecord
2
1
70
0
62
4
6
CONTINUOUS
290
1
370
-3
390
0
0
LAYER
5
88
100
AcDbSymbolTableRecord
100
AcDbLayerTableRecord
2
4
70
0
62
-2
6
CENTER
290
1
370
-3
390
0
0
LAYER
5
18f
100
AcDbSymbolTableRecord
100
AcDbLayerTableRecord
2
SK2
70
0
62
7
6
CONTINUOUS
290
1
370
-3
390
0
0
LAYER
5
190
100
AcDbSymbolTableRecord
100
AcDbLayerTableRecord
2
SK1
70
0
62
4
6
CONTINUOUS
290
1
370
-3
390
0
0
LAYER
5
191
100
AcDbSymbolTableRecord
100
AcDbLayerTableRecord
2
SK4
70
0
62
2
6
CENTER
290
1
370
-3
390
0
0
LAYER
5
192
100
AcDbSymbolTableRecord
100
AcDbLayerTableRecord
2
SK6
70
0
62
5
6
CONTINUOUS
290
1
370
-3
390
0
0
ENDTAB
0
TABLE
2
STYLE
5
1a6
100
AcDbSymbolTable
0
STYLE
5
11
100
AcDbSymbolTableRecord
100
AcDbTextStyleTableRecord
2
Standard
3
txt
70
0
71
0
40
0
41
1
42
0
50
0
0
STYLE
5
EB
100
AcDbSymbolTableRecord
100
AcDbTextStyleTableRecord
2
iso_b_vert
3
simplex.shx
70
0
71
0
40
0
41
1
42
0
50
0
0
STYLE
5
EC
100
AcDbSymbolTableRecord
100
AcDbTextStyleTableRecord
2
DWGDirectTextStyle
3
simplex
70
0
71
0
40
0
41
1
42
0
50
0
0
ENDTAB
0
TABLE
2
DIMSTYLE
5
1a7
100
AcDbSymbolTable
100
AcDbDimStyleTable
0
DIMSTYLE
105
27
100
AcDbSymbolTableRecord
100
AcDbDimStyleTableRecord
2
Standard
70
0
3
<>
41
0.18
42
0.0625
44
0.18
140
0.18
147
0.09
73
0
74
0
77
1
271
2
275
0
278
52
280
0
340
11
0
ENDTAB
0
TABLE
2
VIEW
5
1a8
100
AcDbSymbolTable
0
ENDTAB
0
TABLE
2
UCS
5
1a9
100
AcDbSymbolTable
0
ENDTAB
0
TABLE
2
APPID
5
1aa
100
AcDbSymbolTable
0
APPID
5
12
100
AcDbSymbolTableRecord
100
AcDbRegAppTableRecord
2
ACAD
70
0
0
ENDTAB
0
TABLE
2
BLOCK_RECORD
5
1ab
100
AcDbSymbolTable
0
BLOCK_RECORD
5
1F
100
AcDbSymbolTableRecord
100
AcDbBlockTableRecord
2
*Model_Space
340
0
70
0
0
BLOCK_RECORD
5
1B
100
AcDbSymbolTableRecord
100
AcDbBlockTableRecord
2
*Paper_Space
340
0
70
0
0
BLOCK_RECORD
5
23
100
AcDbSymbolTableRecord
100
AcDbBlockTableRecord
2
*Paper_Space0
340
0
70
0
0
BLOCK_RECORD
5
EE
100
AcDbSymbolTableRecord
100
AcDbBlockTableRecord
2
DimnDraft3D1
340
0
70
0
0
BLOCK_RECORD
5
F8
100
AcDbSymbolTableRecord
100
AcDbBlockTableRecord
2
DimnDraft3D2
340
0
70
0
0
BLOCK_RECORD
5
102
100
AcDbSymbolTableRecord
100
AcDbBlockTableRecord
2
DimnDraft3D3
340
0
70
0
0
BLOCK_RECORD
5
10C
100
AcDbSymbolTableRecord
100
AcDbBlockTableRecord
2
DimnDraft3D4
340
0
70
0
0
BLOCK_RECORD
5
116
100
AcDbSymbolTableRecord
100
AcDbBlockTableRecord
2
DimnDraft3D5
340
0
70
0
0
BLOCK_RECORD
5
120
100
AcDbSymbolTableRecord
100
AcDbBlockTableRecord
2
DimnDraft3D6
340
0
70
0
0
BLOCK_RECORD
5
12B
100
AcDbSymbolTableRecord
100
AcDbBlockTableRecord
2
DimnDraft3D7
340
0
70
0
0
ENDTAB
0
ENDSEC
0
SECTION
2
BLOCKS
0
BLOCK
5
20
100
AcDbEntity
8
0
100
AcDbBlockBegin
2
*Model_Space
70
0
10
0
20
0
30
0
3
*Model_Space
0
ENDBLK
5
21
100
AcDbEntity
8
0
100
AcDbBlockEnd
0
BLOCK
5
1C
100
AcDbEntity
8
0
100
AcDbBlockBegin
2
*Paper_Space
70
0
10
0
20
0
30
0
3
*Paper_Space
0
ENDBLK
5
1D
100
AcDbEntity
8
0
100
AcDbBlockEnd
0
BLOCK
5
24
100
AcDbEntity
8
0
100
AcDbBlockBegin
2
*Paper_Space0
70
0
10
0
20
0
30
0
3
*Paper_Space0
0
ENDBLK
5
25
100
AcDbEntity
8
0
100
AcDbBlockEnd
0
BLOCK
5
F5
100
AcDbEntity
8
0
100
AcDbBlockBegin
2
DimnDraft3D1
70
0
10
0
20
0
30
0
3
DimnDraft3D1
0
MTEXT
5
EF
100
AcDbEntity
8
SK2
62
256
6
ByLayer
370
13
48
1
60
0
100
AcDbMText
10
25.098875
20
-14.138398
30
0
210
0
220
0
230
1
1
\W0.6713;61,36
40
3.5
41
0
44
1.084337
50
0
71
7
72
5
7
iso_b_vert
0
LINE
5
F0
100
AcDbEntity
8
SK2
62
256
6
ByLayer
370
13
48
1
60
0
100
AcDbLine
10
0
20
-1.5875
30
0
11
0
21
-17.013398
31
0
39
0
210
0
220
0
230
1
0
LINE
5
F1
100
AcDbEntity
8
SK2
62
256
6
ByLayer
370
13
48
1
60
0
100
AcDbLine
10
61.36
20
-6.3875
30
0
11
61.36
21
-17.013398
31
0
39
0
210
0
220
0
230
1
0
LINE
5
F2
100
AcDbEntity
8
SK2
62
256
6
ByLayer
370
13
48
1
60
0
100
AcDbLine
10
0
20
-15.013398
30
0
11
61.36
21
-15.013398
31
0
39
0
210
0
220
0
230
1
0
SOLID
5
F3
100
AcDbEntity
8
SK2
62
256
6
ByLayer
370
13
48
1
60
0
100
AcDbTrace
10
0
20
-15.013398
30
0
11
3.499998
21
-14.552615
31
0
12
3.500002
22
-15.474182
32
0
13
0
23
-15.013398
33
0
39
0
210
0
220
0
230
1
0
SOLID
5
F4
100
AcDbEntity
8
SK2
62
256
6
ByLayer
370
13
48
1
60
0
100
AcDbTrace
10
61.36
20
-15.013398
30
0
11
57.860002
21
-15.474182
31
0
12
57.859998
22
-14.552615
32
0
13
61.36
23
-15.013398
33
0
39
0
210
0
220
0
230
1
0
ENDBLK
5
F6
100
AcDbEntity
8
0
100
AcDbBlockEnd
0
BLOCK
5
FF
100
AcDbEntity
8
0
100
AcDbBlockBegin
2
DimnDraft3D2
70
0
10
0
20
0
30
0
3
DimnDraft3D2
0
MTEXT
5
F9
100
AcDbEntity
8
SK2
62
256
6
ByLayer
370
13
48
1
60
0
100
AcDbMText
10
5.882221
20
-32.817985
30
0
210
0
220
0
230
1
1
\W0.6930;103,00
40
3.5
41
0
44
1.084337
50
0
71
7
72
5
7
iso_b_vert
0
LINE
5
FA
100
AcDbEntity
8
SK2
62
256
6
ByLayer
370
13
48
1
60
0
100
AcDbLine
10
-40
20
-6.5875
30
0
11
-40
21
-35.692985
31
0
39
0
210
0
220
0
230
1
0
LINE
5
FB
100
AcDbEntity
8
SK2
62
256
6
ByLayer
370
13
48
1
60
0
100
AcDbLine
10
63
20
-1.5875
30
0
11
63
21
-35.692985
31
0
39
0
210
0
220
0
230
1
0
LINE
5
FC
100
AcDbEntity
8
SK2
62
256
6
ByLayer
370
13
48
1
60
0
100
AcDbLine
10
-40
20
-33.692985
30
0
11
63
21
-33.692985
31
0
39
0
210
0
220
0
230
1
0
SOLID
5
FD
100
AcDbEntity
8
SK2
62
256
6
ByLayer
370
13
48
1
60
0
100
AcDbTrace
10
-40
20
-33.692985
30
0
11
-36.500002
21
-33.232202
31
0
12
-36.499998
22
-34.153769
32
0
13
-40
23
-33.692985
33
0
39
0
210
0
220
0
230
1
0
SOLID
5
FE
100
AcDbEntity
8
SK2
62
256
6
ByLayer
370
13
48
1
60
0
100
AcDbTrace
10
63
20
-33.692985
30
0
11
59.500002
21
-34.153769
31
0
12
59.499998
22
-33.232202
32
0
13
63
23
-33.692985
33
0
39
0
210
0
220
0
230
1
0
ENDBLK
5
100
100
AcDbEntity
8
0
100
AcDbBlockEnd
0
BLOCK
5
109
100
AcDbEntity
8
0
100
AcDbBlockBegin
2
DimnDraft3D3
70
0
10
0
20
0
30
0
3
DimnDraft3D3
0
MTEXT
5
103
100
AcDbEntity
8
SK2
62
256
6
ByLayer
370
13
48
1
60
0
100
AcDbMText
10
33.362895
20
17.284119
30
0
210
0
220
0
230
1
1
\W0.7756;49,64
40
3.5
41
0
44
1.084337
50
0
71
7
72
5
7
iso_b_vert
0
LINE
5
104
100
AcDbEntity
8
SK2
62
256
6
ByLayer
370
13
48
1
60
0
100
AcDbLine
10
13.36
20
6.3875
30
0
11
13.36
21
18.409119
31
0
39
0
210
0
220
0
230
1
0
LINE
5
105
100
AcDbEntity
8
SK2
62
256
6
ByLayer
370
13
48
1
60
0
100
AcDbLine
10
63
20
1.5875
30
0
11
63
21
18.409119
31
0
39
0
210
0
220
0
230
1
0
LINE
5
106
100
AcDbEntity
8
SK2
62
256
6
ByLayer
370
13
48
1
60
0
100
AcDbLine
10
13.36
20
16.409119
30
0
11
63
21
16.409119
31
0
39
0
210
0
220
0
230
1
0
SOLID
5
107
100
AcDbEntity
8
SK2
62
256
6
ByLayer
370
13
48
1
60
0
100
AcDbTrace
10
13.36
20
16.409119
30
0
11
16.859998
21
16.869903
31
0
12
16.860002
22
15.948335
32
0
13
13.36
23
16.409119
33
0
39
0
210
0
220
0
230
1
0
SOLID
5
108
100
AcDbEntity
8
SK2
62
256
6
ByLayer
370
13
48
1
60
0
100
AcDbTrace
10
63
20
16.409119
30
0
11
59.500002
21
15.948335
31
0
12
59.499998
22
16.869903
32
0
13
63
23
16.409119
33
0
39
0
210
0
220
0
230
1
0
ENDBLK
5
10A
100
AcDbEntity
8
0
100
AcDbBlockEnd
0
BLOCK
5
113
100
AcDbEntity
8
0
100
AcDbBlockBegin
2
DimnDraft3D4
70
0
10
0
20
0
30
0
3
DimnDraft3D4
0
MTEXT
5
10D
100
AcDbEntity
8
SK2
62
256
6
ByLayer
370
13
48
1
60
0
100
AcDbMText
10
70.093925
20
-16.727503
30
0
210
0
220
0
230
1
1
\W0.6611;1,64
40
3.5
41
0
44
1.084337
50
0
71
7
72
5
7
iso_b_vert
0
LINE
5
10E
100
AcDbEntity
8
SK2
62
256
6
ByLayer
370
13
48
1
60
0
100
AcDbLine
10
63
20
-1.5875
30
0
11
63
21
-19.602503
31
0
39
0
210
0
220
0
230
1
0
LINE
5
10F
100
AcDbEntity
8
SK2
62
256
6
ByLayer
370
13
48
1
60
0
100
AcDbLine
10
61.36
20
-6.3875
30
0
11
61.36
21
-19.602503
31
0
39
0
210
0
220
0
230
1
0
LINE
5
110
100
AcDbEntity
8
SK2
62
256
6
ByLayer
370
13
48
1
60
0
100
AcDbLine
10
52.61
20
-17.602503
30
0
11
76.743925
21
-17.602503
31
0
39
0
210
0
220
0
230
1
0
SOLID
5
111
100
AcDbEntity
8
SK2
62
256
6
ByLayer
370
13
48
1
60
0
100
AcDbTrace
10
63
20
-17.602503
30
0
11
66.499998
21
-17.141719
31
0
12
66.500002
22
-18.063287
32
0
13
63
23
-17.602503
33
0
39
0
210
0
220
0
230
1
0
SOLID
5
112
100
AcDbEntity
8
SK2
62
256
6
ByLayer
370
13
48
1
60
0
100
AcDbTrace
10
61.36
20
-17.602503
30
0
11
57.860002
21
-18.063287
31
0
12
57.859998
22
-17.141719
32
0
13
61.36
23
-17.602503
33
0
39
0
210
0
220
0
230
1
0
ENDBLK
5
114
100
AcDbEntity
8
0
100
AcDbBlockEnd
0
BLOCK
5
11D
100
AcDbEntity
8
0
100
AcDbBlockBegin
2
DimnDraft3D5
70
0
10
0
20
0
30
0
3
DimnDraft3D5
0
MTEXT
5
117
100
AcDbEntity
8
SK2
62
256
6
ByLayer
370
13
48
1
60
0
100
AcDbMText
10
3.239097
20
-22.468428
30
0
210
0
220
0
230
1
1
\W0.6440;101,36
40
3.5
41
0
44
1.084337
50
0
71
7
72
5
7
iso_b_vert
0
LINE
5
118
100
AcDbEntity
8
SK2
62
256
6
ByLayer
370
13
48
1
60
0
100
AcDbLine
10
-40
20
-6.5875
30
0
11
-40
21
-25.343428
31
0
39
0
210
0
220
0
230
1
0
LINE
5
119
100
AcDbEntity
8
SK2
62
256
6
ByLayer
370
13
48
1
60
0
100
AcDbLine
10
61.36
20
-6.3875
30
0
11
61.36
21
-25.343428
31
0
39
0
210
0
220
0
230
1
0
LINE
5
11A
100
AcDbEntity
8
SK2
62
256
6
ByLayer
370
13
48
1
60
0
100
AcDbLine
10
-40
20
-23.343428
30
0
11
61.36
21
-23.343428
31
0
39
0
210
0
220
0
230
1
0
SOLID
5
11B
100
AcDbEntity
8
SK2
62
256
6
ByLayer
370
13
48
1
60
0
100
AcDbTrace
10
-40
20
-23.343428
30
0
11
-36.500002
21
-22.882645
31
0
12
-36.499998
22
-23.804212
32
0
13
-40
23
-23.343428
33
0
39
0
210
0
220
0
230
1
0
SOLID
5
11C
100
AcDbEntity
8
SK2
62
256
6
ByLayer
370
13
48
1
60
0
100
AcDbTrace
10
61.36
20
-23.343428
30
0
11
57.860002
21
-23.804212
31
0
12
57.859998
22
-22.882645
32
0
13
61.36
23
-23.343428
33
0
39
0
210
0
220
0
230
1
0
ENDBLK
5
11E
100
AcDbEntity
8
0
100
AcDbBlockEnd
0
BLOCK
5
128
100
AcDbEntity
8
0
100
AcDbBlockBegin
2
DimnDraft3D6
70
0
10
0
20
0
30
0
3
DimnDraft3D6
0
MTEXT
5
121
100
AcDbEntity
8
SK2
62
256
6
ByLayer
370
13
48
1
60
0
100
AcDbMText
10
-50.375163
20
24.34918
30
0
210
0
220
0
230
1
1
\W0.6930;10,000
40
3.5
41
0
44
1.084337
50
90
71
7
72
5
7
iso_b_vert
0
MTEXT
5
122
100
AcDbEntity
8
SK2
62
256
6
ByLayer
370
13
48
1
60
0
100
AcDbMText
10
-50.375163
20
19.126524
30
0
210
0
220
0
230
1
1
%%c
40
3.5
41
0
44
1.084337
50
90
71
7
72
5
7
iso_b_vert
0
LINE
5
123
100
AcDbEntity
8
SK2
62
256
6
ByLayer
370
13
48
1
60
0
100
AcDbLine
10
-41.5875
20
-5
30
0
11
-50.625163
21
-5
31
0
39
0
210
0
220
0
230
1
0
LINE
5
124
100
AcDbEntity
8
SK2
62
256
6
ByLayer
370
13
48
1
60
0
100
AcDbLine
10
-41.5875
20
5
30
0
11
-50.625163
21
5
31
0
39
0
210
0
220
0
230
1
0
LINE
5
125
100
AcDbEntity
8
SK2
62
256
6
ByLayer
370
13
48
1
60
0
100
AcDbLine
10
-48.625163
20
-5
30
0
11
-48.625163
21
35.862338
31
0
39
0
210
0
220
0
230
1
0
SOLID
5
126
100
AcDbEntity
8
SK2
62
256
6
ByLayer
370
13
48
1
60
0
100
AcDbTrace
10
-48.625163
20
-5
30
0
11
-49.085946
21
-1.500002
31
0
12
-48.164379
22
-1.499998
32
0
13
-48.625163
23
-5
33
0
39
0
210
0
220
0
230
1
0
SOLID
5
127
100
AcDbEntity
8
SK2
62
256
6
ByLayer
370
13
48
1
60
0
100
AcDbTrace
10
-48.625163
20
5
30
0
11
-48.164379
21
1.500002
31
0
12
-49.085946
22
1.499998
32
0
13
-48.625163
23
5
33
0
39
0
210
0
220
0
230
1
0
ENDBLK
5
129
100
AcDbEntity
8
0
100
AcDbBlockEnd
0
BLOCK
5
133
100
AcDbEntity
8
0
100
AcDbBlockBegin
2
DimnDraft3D7
70
0
10
0
20
0
30
0
3
DimnDraft3D7
0
MTEXT
5
12C
100
AcDbEntity
8
2
62
256
6
ByLayer
370
13
48
1
60
0
100
AcDbMText
10
73.333343
20
22.742266
30
0
210
0
220
0
230
1
1
\W0.7317;9,600
40
3.5
41
0
44
1.084337
50
90
71
7
72
5
7
iso_b_vert
0
MTEXT
5
12D
100
AcDbEntity
8
2
62
256
6
ByLayer
370
13
48
1
60
0
100
AcDbMText
10
73.333343
20
17.51961
30
0
210
0
220
0
230
1
1
%%c
40
3.5
41
0
44
1.084337
50
90
71
7
72
5
7
iso_b_vert
0
LINE
5
12E
100
AcDbEntity
8
2
62
256
6
ByLayer
370
13
48
1
60
0
100
AcDbLine
10
62.9475
20
-4.8
30
0
11
77.083343
21
-4.8
31
0
39
0
210
0
220
0
230
1
0
LINE
5
12F
100
AcDbEntity
8
2
62
256
6
ByLayer
370
13
48
1
60
0
100
AcDbLine
10
62.9475
20
4.8
30
0
11
77.083343
21
4.8
31
0
39
0
210
0
220
0
230
1
0
LINE
5
130
100
AcDbEntity
8
2
62
256
6
ByLayer
370
13
48
1
60
0
100
AcDbLine
10
75.083343
20
-4.8
30
0
11
75.083343
21
32.514635
31
0
39
0
210
0
220
0
230
1
0
SOLID
5
131
100
AcDbEntity
8
2
62
256
6
ByLayer
370
13
48
1
60
0
100
AcDbTrace
10
75.083343
20
-4.8
30
0
11
74.622559
21
-1.300002
31
0
12
75.544126
22
-1.299998
32
0
13
75.083343
23
-4.8
33
0
39
0
210
0
220
0
230
1
0
SOLID
5
132
100
AcDbEntity
8
2
62
256
6
ByLayer
370
13
48
1
60
0
100
AcDbTrace
10
75.083343
20
4.8
30
0
11
75.544126
21
1.300002
31
0
12
74.622559
22
1.299998
32
0
13
75.083343
23
4.8
33
0
39
0
210
0
220
0
230
1
0
ENDBLK
5
134
100
AcDbEntity
8
0
100
AcDbBlockEnd
0
ENDSEC
0
SECTION
2
ENTITIES
0
ARC
5
9F
100
AcDbEntity
8
1
62
256
6
ByLayer
370
18
48
1
60
0
100
AcDbCircle
39
0
10
0
20
4.8
30
0
40
0.199999999999997
210
0
220
0
230
1
100
AcDbArc
50
24.105746
51
90
0
ARC
5
A0
100
AcDbEntity
8
1
62
256
6
ByLayer
370
18
48
1
60
0
100
AcDbCircle
39
0
10
0
20
-4.8
30
0
40
0.199999999999997
210
0
220
0
230
1
100
AcDbArc
50
270
51
335.894254
0
ARC
5
A1
100
AcDbEntity
8
1
62
256
6
ByLayer
370
18
48
1
60
0
100
AcDbCircle
39
0
10
-0.365117
20
-4.963369
30
0
40
0.200000000000004
210
0
220
0
230
-1
100
AcDbArc
50
24.105746
51
90.034377
0
ARC
5
A2
100
AcDbEntity
8
1
62
256
6
ByLayer
370
18
48
1
60
0
100
AcDbCircle
39
0
10
-0.365117
20
4.963369
30
0
40
0.200000000000004
210
0
220
0
230
-1
100
AcDbArc
50
269.965623
51
335.894254
0
ELLIPSE
5
A3
100
AcDbEntity
8
1
62
256
6
ByLayer
370
18
48
1
60
0
100
AcDbEllipse
10
63.032371
20
-0.028454
30
0
11
0.140634104976058
21
0.431000092701411
31
0
210
0
220
0
230
-1
40
0.07518
41
-2.31001430908236
42
-1.63814749270201
0
ELLIPSE
5
A4
100
AcDbEntity
8
1
62
256
6
ByLayer
370
18
48
1
60
0
100
AcDbEllipse
10
63.032371
20
0.028454
30
0
11
0.140634104920027
21
-0.431000092557107
31
0
210
0
220
0
230
-1
40
0.07518
41
1.63814749245577
42
2.31001430903075
0
ELLIPSE
5
A5
100
AcDbEntity
8
1
62
256
6
ByLayer
370
18
48
1
60
0
100
AcDbEllipse
10
63.000418
20
-0.001048
30
0
11
1.76573310879262
21
-4.79778971069798
31
0
210
0
220
0
230
-1
40
0.098637
41
-2.9791383774856
42
-2.88003115475315
0
ELLIPSE
5
A6
100
AcDbEntity
8
1
62
256
6
ByLayer
370
18
48
1
60
0
100
AcDbEllipse
10
62.092768
20
2.302208
30
0
11
0.741461168091117
21
-2.0146729766021
31
0
210
0
220
0
230
-1
40
0.098637
41
-1.55053611466821
42
-0.74911268471877
0
ELLIPSE
5
A7
100
AcDbEntity
8
1
62
256
6
ByLayer
370
13
48
1
60
0
100
AcDbEllipse
10
61.9603
20
0.664549
30
0
11
0.153082081612418
21
0.258003636193774
31
0
210
0
220
0
230
1
40
0.454519
41
0.917105603404855
42
2.31336900500021
0
ELLIPSE
5
A8
100
AcDbEntity
8
1
62
256
6
ByLayer
370
13
48
1
60
0
100
AcDbEllipse
10
62.595616
20
2.302208
30
0
11
2.73357361446789
21
-1.47939328325491
31
0
210
0
220
0
230
-1
40
0.501009
41
1.53225753137913
42
1.86100884110681
0
ELLIPSE
5
A9
100
AcDbEntity
8
1
62
256
6
ByLayer
370
18
48
1
60
0
100
AcDbEllipse
10
62.092768
20
-2.302208
30
0
11
0.741461168086489
21
2.01467297659225
31
0
210
0
220
0
230
-1
40
0.098637
41
0.749112684720597
42
1.55053611467311
0
ELLIPSE
5
AA
100
AcDbEntity
8
1
62
256
6
ByLayer
370
13
48
1
60
0
100
AcDbEllipse
10
62.40571
20
2.179011
30
0
11
2.65843118430312
21
-1.83040546656133
31
0
210
0
220
0
230
-1
40
0.533762
41
1.44484622737995
42
1.75347390097741
0
ELLIPSE
5
AB
100
AcDbEntity
8
1
62
256
6
ByLayer
370
18
48
1
60
0
100
AcDbEllipse
10
63.000418
20
0.001049
30
0
11
1.76573315863444
21
4.79778985544693
31
0
210
0
220
0
230
-1
40
0.098637
41
2.88003115872471
42
2.97913837993951
0
ELLIPSE
5
AC
100
AcDbEntity
8
1
62
256
6
ByLayer
370
18
48
1
60
0
100
AcDbEllipse
10
62.860005
20
0.130724
30
0
11
0.0727819104891698
21
0.301917195732738
31
0
210
0
220
0
230
-1
40
0.478434
41
1.73536461466704
42
2.45976119974874
0
ELLIPSE
5
AD
100
AcDbEntity
8
1
62
256
6
ByLayer
370
13
48
1
60
0
100
AcDbEllipse
10
4.174068
20
-3.258864
30
0
11
0.000285037474686419
21
0.099999593767365
31
0
210
0
220
0
230
1
40
0.635252
41
0.926569169954588
42
2.22399746213006
0
ELLIPSE
5
AE
100
AcDbEntity
8
1
62
256
6
ByLayer
370
13
48
1
60
0
100
AcDbEllipse
10
4.250205
20
-3.275896
30
0
11
0.0383683328225507
21
0.0923464727881795
31
0
210
0
220
0
230
1
40
0.35477
41
0.861344082033068
42
2.41669015720834
0
POINT
5
6C
100
AcDbEntity
8
81
62
256
6
ByLayer
370
18
48
1
60
0
100
AcDbPoint
10
63
20
0
30
0
39
0
210
0
220
0
230
1
50
360
0
POINT
5
6E
100
AcDbEntity
8
80
62
256
6
ByLayer
370
18
48
1
60
0
100
AcDbPoint
10
0
20
0
30
0
39
0
210
0
220
0
230
1
50
360
0
POINT
5
70
100
AcDbEntity
8
SK2
62
256
6
ByLayer
370
18
48
1
60
1
100
AcDbPoint
10
-40
20
-5
30
0
39
0
210
0
220
0
230
1
50
360
0
POINT
5
72
100
AcDbEntity
8
SK2
62
256
6
ByLayer
370
18
48
1
60
1
100
AcDbPoint
10
-40
20
5
30
0
39
0
210
0
220
0
230
1
50
360
0
POINT
5
73
100
AcDbEntity
8
2
62
256
6
ByLayer
370
18
48
1
60
1
100
AcDbPoint
10
61.36
20
-4.8
30
0
39
0
210
0
220
0
230
1
50
360
0
POINT
5
75
100
AcDbEntity
8
2
62
256
6
ByLayer
370
18
48
1
60
1
100
AcDbPoint
10
61.36
20
4.8
30
0
39
0
210
0
220
0
230
1
50
360
0
SPLINE
5
AF
100
AcDbEntity
8
1
62
256
6
ByLayer
370
18
48
1
60
0
100
AcDbSpline
70
4
71
2
72
6
73
3
40
0
40
0
40
0
40
1
40
1
40
1
41
1
10
47.8275389030285
20
0.0013652385476917
30
0
41
1
10
47.8275273210592
20
0.0013700670111803
30
0
41
1
10
47.8275157391261
20
0.0013750933699441
30
0
0
SPLINE
5
B0
100
AcDbEntity
8
1
62
256
6
ByLayer
370
18
48
1
60
0
100
AcDbSpline
70
4
71
3
72
34
73
30
40
0
40
0
40
0
40
0
40
0.0520256226485373
40
0.0963823276763177
40
0.128110848087837
40
0.151693458741294
40
0.174480426347782
40
0.196602925281034
40
0.218022099495233
40
0.272842306503909
40
0.336299333722837
40
0.38364977856627
40
0.423239287550287
40
0.46156106109541
40
0.507635800500746
40
0.558298021237716
40
0.589995306966379
40
0.615704684533353
40
0.644649999967428
40
0.67716058744266
40
0.717876486380845
40
0.768329441639917
40
0.821372153962135
40
0.849292507194484
40
0.871536078545667
40
0.901387032028935
40
0.939955063906517
40
0.989706670337757
40
1
40
1
40
1
40
1
41
1
10
10.5246047050059
20
-4.55261427806175
30
0
41
1
10
10.743678454588
20
-4.55280803499844
30
0
41
1
10
11.1495409176008
20
-4.5531370230822
30
0
41
1
10
11.6888594711871
20
-4.55353603680172
30
0
41
1
10
12.1086791893035
20
-4.55375375683099
30
0
41
1
10
12.4371935634462
20
-4.55407741386847
30
0
41
1
10
12.7255804612741
20
-4.55447715930538
30
0
41
1
10
13.0048845782617
20
-4.55477220787893
30
0
41
1
10
13.4190484386968
20
-4.5550101271707
30
0
41
1
10
14.0072972242151
20
-4.55486652595368
30
0
41
1
10
14.7047257052732
20
-4.55658404012092
30
0
41
1
10
15.3380106184822
20
-4.55607466715108
30
0
41
1
10
15.8654662943791
20
-4.55620143240142
30
0
41
1
10
16.3875448730996
20
-4.55791161518158
30
0
41
1
10
16.9562545323531
20
-4.55732046834146
30
0
41
1
10
17.4970703143048
20
-4.55715988069974
30
0
41
1
10
17.9521258470945
20
-4.55903580982792
30
0
41
1
10
18.3157388165585
20
-4.55925679085175
30
0
41
1
10
18.6827760484682
20
-4.55854065679392
30
0
41
1
10
19.1129954604861
20
-4.55819704974576
30
0
41
1
10
19.633816487464
20
-4.55960205048211
30
0
41
1
10
20.2408997508955
20
-4.56041985515594
30
0
41
1
10
20.7948358504927
20
-4.55948569694272
30
0
41
1
10
21.2282440357155
20
-4.56004564046012
30
0
41
1
10
21.5659355506566
20
-4.56119216094413
30
0
41
1
10
21.9444000024768
20
-4.56156316872554
30
0
41
1
10
22.4384723329877
20
-4.55983017490925
30
0
41
1
10
22.8553856519461
20
-4.56099341398286
30
0
41
1
10
23.1074104942064
20
-4.56136673552808
30
0
41
1
10
23.1506103692416
20
-4.56143973371715
30
0
0
SPLINE
5
B1
100
AcDbEntity
8
1
62
256
6
ByLayer
370
18
48
1
60
0
100
AcDbSpline
70
4
71
2
72
6
73
3
40
0
40
0
40
0
40
1
40
1
40
1
41
1
10
60.5286181091509
20
-4.5826104128796
30
0
41
1
10
60.9298105473166
20
-4.58061751312508
30
0
41
1
10
61.3307329061576
20
-4.58447819223463
30
0
0
SPLINE
5
B2
100
AcDbEntity
8
1
62
256
6
ByLayer
370
18
48
1
60
0
100
AcDbSpline
70
4
71
3
72
26
73
22
40
0
40
0
40
0
40
0
40
0.0002329019375436
40
0.0373957229518118
40
0.0888659044007354
40
0.145558483318289
40
0.201093523864584
40
0.237003931707533
40
0.276595718456277
40
0.324549208713699
40
0.382498868082294
40
0.43315886893864
40
0.496409333475314
40
0.553220640228072
40
0.621922327766439
40
0.701783940589229
40
0.768309003497085
40
0.844765019297093
40
0.923264814986974
40
0.998948421658215
40
1
40
1
40
1
40
1
41
1
10
48.3568811270186
20
4.57173791003603
30
0
41
1
10
48.3561052264144
20
4.57173259309323
30
0
41
1
10
48.2314935494931
20
4.57088244307755
30
0
41
1
10
47.8997979414472
20
4.56984677929341
30
0
41
1
10
47.4077326092324
20
4.57487836057908
30
0
41
1
10
46.8218394362397
20
4.57382343706286
30
0
41
1
10
46.2952473897559
20
4.57509722739755
30
0
41
1
10
45.8282305793498
20
4.5742223004635
30
0
41
1
10
45.3884700581631
20
4.57286467560112
30
0
41
1
10
44.8701222358565
20
4.57304818901849
30
0
41
1
10
44.3123689679735
20
4.57357203633404
30
0
41
1
10
43.7001135383313
20
4.57173676575252
30
0
41
1
10
43.0919158606869
20
4.57223116190514
30
0
41
1
10
42.4194405791914
20
4.57246729132316
30
0
41
1
10
41.6877903904605
20
4.5706371845136
30
0
41
1
10
40.9215356389886
20
4.5715619913737
30
0
41
1
10
40.127654979917
20
4.5700233665352
30
0
41
1
10
39.3386260743439
20
4.570529673501
30
0
41
1
10
38.5170199144125
20
4.56924742748319
30
0
41
1
10
37.9638772329852
20
4.56939995524093
30
0
41
1
10
37.6905850134373
20
4.56928188761148
30
0
41
1
10
37.6868398443093
20
4.569280233261
30
0
0
SPLINE
5
B3
100
AcDbEntity
8
1
62
256
6
ByLayer
370
18
48
1
60
0
100
AcDbSpline
70
4
71
3
72
29
73
25
40
0
40
0
40
0
40
0
40
0.0674791168814445
40
0.116727067122469
40
0.149820227533046
40
0.178437771965548
40
0.204441971556377
40
0.253910209235041
40
0.306399172126282
40
0.370822515899118
40
0.426877843302881
40
0.494170810157696
40
0.552060204316817
40
0.60204624575014
40
0.656919289945255
40
0.700977184601094
40
0.75347634041084
40
0.806066359112823
40
0.841014469840254
40
0.881641697731753
40
0.926395872233294
40
0.957476701023384
40
0.98671202310464
40
1
40
1
40
1
40
1
41
1
10
35.460236392252
20
-4.56758177681437
30
0
41
1
10
35.7454753305904
20
-4.5677896141753
30
0
41
1
10
36.2388527276663
20
-4.56818580453762
30
0
41
1
10
36.8724527756133
20
-4.56840726783653
30
0
41
1
10
37.3411354045676
20
-4.56907007960177
30
0
41
1
10
37.711818013723
20
-4.5693215096428
30
0
41
1
10
38.1519435162821
20
-4.56939893259076
30
0
41
1
10
38.6929315039267
20
-4.56959443989012
30
0
41
1
10
39.3963750513719
20
-4.57047967396471
30
0
41
1
10
40.1276523612081
20
-4.57002637952007
30
0
41
1
10
40.9215364563965
20
-4.57156170099799
30
0
41
1
10
41.6877901722817
20
-4.57063436509097
30
0
41
1
10
42.4283857224393
20
-4.57249869031534
30
0
41
1
10
43.1164730945157
20
-4.57217874076088
30
0
41
1
10
43.7460791659858
20
-4.57181637671349
30
0
41
1
10
44.3863103659673
20
-4.57370456016287
30
0
41
1
10
45.0168921244572
20
-4.57273453836206
30
0
41
1
10
45.6089542972799
20
-4.57337504296856
30
0
41
1
10
46.1508344221987
20
-4.57508281197624
30
0
41
1
10
46.6595374099756
20
-4.57443510904085
30
0
41
1
10
47.1510829948621
20
-4.5737881872854
30
0
41
1
10
47.5915769036621
20
-4.57403020243657
30
0
41
1
10
47.8883766677041
20
-4.57054414297846
30
0
41
1
10
48.0723688444739
20
-4.57053102840152
30
0
41
1
10
48.1293865469103
20
-4.57065679388404
30
0
0
SPLINE
5
B4
100
AcDbEntity
8
1
62
256
6
ByLayer
370
18
48
1
60
0
100
AcDbSpline
70
4
71
3
72
9
73
5
40
0
40
0
40
0
40
0
40
0.972543728635561
40
1
40
1
40
1
40
1
41
1
10
48.2582618221924
20
-4.57114212160124
30
0
41
1
10
48.2911031464279
20
-4.57131181864625
30
0
41
1
10
48.3242282242237
20
-4.57151527854668
30
0
41
1
10
48.3563152355547
20
-4.57173401975078
30
0
41
1
10
48.3571960038324
20
-4.57174005871198
30
0
0
SPLINE
5
B5
100
AcDbEntity
8
1
62
256
6
ByLayer
370
18
48
1
60
0
100
AcDbSpline
70
4
71
3
72
28
73
24
40
0
40
0
40
0
40
0
40
0.0387458010515187
40
0.129442798475214
40
0.19793948190327
40
0.266931456964838
40
0.34419883730196
40
0.397115944599592
40
0.452921261261143
40
0.50122353772073
40
0.537695942138596
40
0.57028847428508
40
0.611411010294674
40
0.656629765215031
40
0.68854415647091
40
0.712569931691005
40
0.749421435216242
40
0.796604880837253
40
0.83619478447718
40
0.874583897263756
40
0.923785504124371
40
0.977989177749138
40
1
40
1
40
1
40
1
41
1
10
23.3447026743587
20
4.55973252305381
30
0
41
1
10
23.2068555774928
20
4.55865093390932
30
0
41
1
10
22.7471757702924
20
4.55573045348976
30
0
41
1
10
22.0666890615495
20
4.5630500972147
30
0
41
1
10
21.2516297641228
20
4.55982237824719
30
0
41
1
10
20.4908519288107
20
4.55971472049544
30
0
41
1
10
19.7836359759071
20
4.5603622955586
30
0
41
1
10
19.123669141085
20
4.55796625858935
30
0
41
1
10
18.5664054562546
20
4.55875632010461
30
0
41
1
10
18.0675153028808
20
4.55949987615583
30
0
41
1
10
17.6510401772266
20
4.55768970486525
30
0
41
1
10
17.2600516360076
20
4.55724041263756
30
0
41
1
10
16.8379567644456
20
4.55740873804541
30
0
41
1
10
16.4183288683854
20
4.55779674394333
30
0
41
1
10
16.0593561525699
20
4.55683960904824
30
0
41
1
10
15.7300486710303
20
4.55616547020898
30
0
41
1
10
15.3467737528698
20
4.55610924445887
30
0
41
1
10
14.908675753692
20
4.55625648109145
30
0
41
1
10
14.464039652726
20
4.55589724271221
30
0
41
1
10
14.0139970079255
20
4.555073186096
30
0
41
1
10
13.5104935713809
20
4.55498102916312
30
0
41
1
10
13.0655191481934
20
4.55486030259843
30
0
41
1
10
12.7950156891555
20
4.55455546674636
30
0
41
1
10
12.7169817129438
20
4.55445055501264
30
0
0
SPLINE
5
B6
100
AcDbEntity
8
1
62
256
6
ByLayer
370
18
48
1
60
0
100
AcDbSpline
70
4
71
3
72
11
73
7
40
0
40
0
40
0
40
0
40
0.0396567644861303
40
0.388972859472394
40
0.63220015025402
40
1
40
1
40
1
40
1
41
1
10
48.9012311496867
20
-1.06582458142131
30
0
41
1
10
48.9009421923004
20
-1.06569771324791
30
0
41
1
10
48.9003013848646
20
-1.06557762619062
30
0
41
1
10
48.9362800008281
20
-1.08460705898972
30
0
41
1
10
48.9812739835957
20
-1.10884199186168
30
0
41
1
10
49.0089742200481
20
-1.12505351093293
30
0
41
1
10
49.024753813705
20
-1.13470082469326
30
0
0
SPLINE
5
B7
100
AcDbEntity
8
1
62
256
6
ByLayer
370
18
48
1
60
0
100
AcDbSpline
70
4
71
3
72
11
73
7
40
0
40
0
40
0
40
0
40
0.0716913971257192
40
0.221455595464153
40
0.430394323360887
40
1
40
1
40
1
40
1
41
1
10
23.8741423465108
20
-1.05014218951447
30
0
41
1
10
23.8741341535514
20
-1.05015417128686
30
0
41
1
10
23.8754017690888
20
-1.05089553405054
30
0
41
1
10
23.8878119418015
20
-1.05778203556562
30
0
41
1
10
23.9472656234842
20
-1.09113893598078
30
0
41
1
10
24.0098248353551
20
-1.12752199828128
30
0
41
1
10
24.0676922065695
20
-1.16150385944167
30
0
0
SPLINE
5
B8
100
AcDbEntity
8
1
62
256
6
ByLayer
370
13
48
1
60
0
100
AcDbSpline
70
4
71
3
72
12
73
8
40
0
40
0
40
0
40
0
40
0.500000000000002
40
0.500000000000002
40
0.750000000000001
40
0.750000000000001
40
1
40
1
40
1
40
1
41
1
10
4.00223778652469
20
-3.2483624540701
30
0
41
1
10
4.0071174894473
20
-3.23888762698158
30
0
41
1
10
4.01983598652998
20
-3.22951377728381
30
0
41
1
10
4.05027855494404
20
-3.21662283224634
30
0
41
1
10
4.06258713957268
20
-3.2124484032328
30
0
41
1
10
4.09040127489359
20
-3.20495130378711
30
0
41
1
10
4.10596583006927
20
-3.20157699109348
30
0
41
1
10
4.12344737236558
20
-3.19866171078095
30
0
0
SPLINE
5
B9
100
AcDbEntity
8
1
62
256
6
ByLayer
370
18
48
1
60
0
100
AcDbSpline
70
4
71
3
72
56
73
52
40
0
40
0
40
0
40
0
40
0.0726820736493062
40
0.0726820736493062
40
0.10902311047396
40
0.10902311047396
40
0.145364147298613
40
0.145364147298613
40
0.181705184123267
40
0.181705184123267
40
0.21804622094792
40
0.21804622094792
40
0.254387257772574
40
0.254387257772574
40
0.290728294597227
40
0.290728294597227
40
0.363410368246534
40
0.363410368246534
40
0.399751405071188
40
0.399751405071188
40
0.436092441895841
40
0.436092441895841
40
0.472433478720496
40
0.472433478720496
40
0.50877451554515
40
0.50877451554515
40
0.545115552369805
40
0.545115552369805
40
0.58145658919446
40
0.58145658919446
40
0.617797626019114
40
0.617797626019114
40
0.654138662843769
40
0.654138662843769
40
0.726820736493077
40
0.726820736493077
40
0.76316177331773
40
0.76316177331773
40
0.799502810142384
40
0.799502810142384
40
0.835843846967038
40
0.835843846967038
40
0.872184883791692
40
0.872184883791692
40
0.908525920616346
40
0.908525920616346
40
0.944866957441
40
0.944866957441
40
0.981207994265654
40
0.981207994265654
40
1
40
1
40
1
40
1
41
1
10
14.3892574732071
20
3.93790378305411
30
0
41
1
10
14.8831283289329
20
3.7694784534624
30
0
41
1
10
15.3756384473944
20
3.58221058302792
30
0
41
1
10
16.1095322614156
20
3.2712041982777
30
0
41
1
10
16.3530543986486
20
3.16204404591917
30
0
41
1
10
16.841203876871
20
2.93699406289144
30
0
41
1
10
17.0855104833073
20
2.82074449755868
30
0
41
1
10
17.5740861336927
20
2.58018764358945
30
0
41
1
10
17.8183137862264
20
2.45581596111038
30
0
41
1
10
18.3065862117663
20
2.19855638288178
30
0
41
1
10
18.5514468108678
20
2.06687997994675
30
0
41
1
10
19.043111659138
20
1.79827692647353
30
0
41
1
10
19.2897381111955
20
1.66108230762634
30
0
41
1
10
19.7842172756308
20
1.38008191208019
30
0
41
1
10
20.0305202147619
20
1.23627728473423
30
0
41
1
10
20.7679878354032
20
0.805167565388501
30
0
41
1
10
21.2583227013494
20
0.515909052812646
30
0
41
1
10
21.9893703514686
20
0.075005489479139
30
0
41
1
10
22.2330583429195
20
-0.0718603399691347
30
0
41
1
10
22.7214395753118
20
-0.363704744705615
30
0
41
1
10
22.9658833888743
20
-0.509106768251399
30
0
41
1
10
23.4548756274941
20
-0.799549401403169
30
0
41
1
10
23.6990316583566
20
-0.945253374210267
30
0
41
1
10
24.1895650767042
20
-1.2327120186583
30
0
41
1
10
24.4359642267781
20
-1.37443117914725
30
0
41
1
10
24.9304146119177
20
-1.65488408201008
30
0
41
1
10
25.1779806301259
20
-1.7932591428789
30
0
41
1
10
25.6693166793175
20
-2.06471219504041
30
0
41
1
10
25.9142139263313
20
-2.19720928661241
30
0
41
1
10
26.4040705833959
20
-2.45354915611645
30
0
41
1
10
26.6487058484658
20
-2.57791117168719
30
0
41
1
10
27.1369840622665
20
-2.81965599008524
30
0
41
1
10
27.3802569931661
20
-2.93751127309304
30
0
41
1
10
28.1111595896472
20
-3.276915322267
30
0
41
1
10
28.6006845137796
20
-3.48364120958016
30
0
41
1
10
29.3353634499056
20
-3.76758746895166
30
0
41
1
10
29.5806196496858
20
-3.85744822676142
30
0
41
1
10
30.0741700915972
20
-4.02511796746492
30
0
41
1
10
30.3222412749847
20
-4.10340922232373
30
0
41
1
10
30.8149726476851
20
-4.24757929256586
30
0
41
1
10
31.059965339254
20
-4.31389658371032
30
0
41
1
10
31.5490895712362
20
-4.43354357019572
30
0
41
1
10
31.7937197766751
20
-4.48659600869013
30
0
41
1
10
32.2823861387261
20
-4.58000270303137
30
0
41
1
10
32.5264655777759
20
-4.62032466881919
30
0
41
1
10
33.0136858439504
20
-4.68823402288106
30
0
41
1
10
33.2568914279258
20
-4.7157145530665
30
0
41
1
10
33.7452907459003
20
-4.75694228282362
30
0
41
1
10
33.9900362752069
20
-4.77087787661273
30
0
41
1
10
34.3618508240813
20
-4.78185723451566
30
0
41
1
10
34.4886130214897
20
-4.78380237012425
30
0
41
1
10
34.6154891815573
20
-4.78391544930528
30
0
0
SPLINE
5
BA
100
AcDbEntity
8
1
62
256
6
ByLayer
370
18
48
1
60
0
100
AcDbSpline
70
4
71
3
72
28
73
24
40
0
40
0
40
0
40
0
40
0.0566087338056327
40
0.0566087338056327
40
0.150947860425069
40
0.150947860425069
40
0.245286987044506
40
0.245286987044506
40
0.339626113663943
40
0.339626113663943
40
0.43396524028338
40
0.43396524028338
40
0.528304366902816
40
0.528304366902816
40
0.622643493522253
40
0.622643493522253
40
0.71698262014169
40
0.71698262014169
40
0.811321746761126
40
0.811321746761126
40
0.905660873380564
40
0.905660873380564
40
1
40
1
40
1
40
1
41
1
10
53.6358249690417
20
3.50112845255873
30
0
41
1
10
53.7818691926773
20
3.56158123170334
30
0
41
1
10
53.9279541734832
20
3.62018054367368
30
0
41
1
10
54.3181590337348
20
3.77090345637328
30
0
41
1
10
54.5623529047831
20
3.85978697868572
30
0
41
1
10
55.0509806427031
20
4.02726660669939
30
0
41
1
10
55.2950838166491
20
4.10613508615305
30
0
41
1
10
55.7849645835496
20
4.25193928229413
30
0
41
1
10
56.0311611648568
20
4.31857522673877
30
0
41
1
10
56.5253342765445
20
4.4398890093961
30
0
41
1
10
56.7724932478799
20
4.49428932860414
30
0
41
1
10
57.2633615135837
20
4.59011267815674
30
0
41
1
10
57.5077230325661
20
4.63147828880707
30
0
41
1
10
57.9968513694206
20
4.70028085662793
30
0
41
1
10
58.2411915687209
20
4.72796522853926
30
0
41
1
10
58.729011257
20
4.77014963791046
30
0
41
1
10
58.9722274455099
20
4.78466445017023
30
0
41
1
10
59.4587376303588
20
4.80007641297766
30
0
41
1
10
59.7026834583865
20
4.80097315721346
30
0
41
1
10
60.1912610512134
20
4.78937515113353
30
0
41
1
10
60.4359211191666
20
4.77687599519794
30
0
41
1
10
60.9255869298311
20
4.73806035668815
30
0
41
1
10
61.1705331842512
20
4.7116357453701
30
0
41
1
10
61.4171163682292
20
4.67859343079661
30
0
0
SPLINE
5
BB
100
AcDbEntity
8
1
62
256
6
ByLayer
370
18
48
1
60
0
100
AcDbSpline
70
4
71
3
72
16
73
12
40
0
40
0
40
0
40
0
40
0.249999999999999
40
0.249999999999999
40
0.499999999999998
40
0.499999999999998
40
0.749999999999996
40
0.749999999999996
40
0.874999999999998
40
0.874999999999998
40
1
40
1
40
1
40
1
41
1
10
62.306469115457
20
-2.33451371231317
30
0
41
1
10
62.23298864241
20
-2.53178256590115
30
0
41
1
10
62.1594306375357
20
-2.72881488652052
30
0
41
1
10
62.0119591556546
20
-3.12179505855778
30
0
41
1
10
61.9379645567445
20
-3.31749542445527
30
0
41
1
10
61.7899178535364
20
-3.70872071965025
30
0
41
1
10
61.7158608249927
20
-3.90423062613075
30
0
41
1
10
61.6041462180097
20
-4.19557634605732
30
0
41
1
10
61.5668058790926
20
-4.29237998921471
30
0
41
1
10
61.4921009773679
20
-4.48591337363632
30
0
41
1
10
61.4547041436084
20
-4.58254466315083
30
0
41
1
10
61.4171163682422
20
-4.67859343079488
30
0
0
SPLINE
5
BC
100
AcDbEntity
8
1
62
256
6
ByLayer
370
18
48
1
60
0
100
AcDbSpline
70
4
71
3
72
56
73
52
40
0
40
0
40
0
40
0
40
0.0775825626552042
40
0.0775825626552042
40
0.116373843982806
40
0.116373843982806
40
0.155165125310407
40
0.155165125310407
40
0.193956406638009
40
0.193956406638009
40
0.232747687965611
40
0.232747687965611
40
0.271538969293212
40
0.271538969293212
40
0.310330250620814
40
0.310330250620814
40
0.349121531948416
40
0.349121531948416
40
0.387912813276018
40
0.387912813276018
40
0.426704094603619
40
0.426704094603619
40
0.465495375931221
40
0.465495375931221
40
0.504286657258823
40
0.504286657258823
40
0.543077938586424
40
0.543077938586424
40
0.581869219914026
40
0.581869219914026
40
0.620660501241628
40
0.620660501241628
40
0.659451782569229
40
0.659451782569229
40
0.698243063896831
40
0.698243063896831
40
0.737034345224433
40
0.737034345224433
40
0.775825626552034
40
0.775825626552034
40
0.814616907879636
40
0.814616907879636
40
0.853408189207238
40
0.853408189207238
40
0.892199470534839
40
0.892199470534839
40
0.930990751862441
40
0.930990751862441
40
0.969782033190043
40
0.969782033190043
40
1
40
1
40
1
40
1
41
1
10
9.17257749794484
20
0.79408198868677
30
0
41
1
10
9.68034025450294
20
0.507803545615559
30
0
41
1
10
10.1846227713383
20
0.22002874707951
30
0
41
1
10
10.9375557547206
20
-0.211517403423216
30
0
41
1
10
11.18792116878
20
-0.355399638745695
30
0
41
1
10
11.6889982850716
20
-0.640239524500345
30
0
41
1
10
11.9395011395495
20
-0.781564781560462
30
0
41
1
10
12.4404731267355
20
-1.06220820630421
30
0
41
1
10
12.6908110902384
20
-1.20180279758679
30
0
41
1
10
13.1923125826791
20
-1.47708634530167
30
0
41
1
10
13.443801535444
20
-1.61227148682883
30
0
41
1
10
13.9480330944207
20
-1.87834129283621
30
0
41
1
10
14.2007200685118
20
-2.00937767037866
30
0
41
1
10
14.7075339822197
20
-2.26669315702912
30
0
41
1
10
14.9608287186972
20
-2.39189256958585
30
0
41
1
10
15.4655659334172
20
-2.63249480251852
30
0
41
1
10
15.7172996890814
20
-2.74854767570395
30
0
41
1
10
16.2195889229187
20
-2.97308029679115
30
0
41
1
10
16.4699460894141
20
-3.08116953144105
30
0
41
1
10
16.9704177700925
20
-3.28648693429742
30
0
41
1
10
17.2207733547456
20
-3.38386185874307
30
0
41
1
10
17.7214689187654
20
-3.56941167793954
30
0
41
1
10
17.9717761315259
20
-3.65794420734224
30
0
41
1
10
18.4727295768271
20
-3.82243447537235
30
0
41
1
10
18.7235379059973
20
-3.89875477109305
30
0
41
1
10
19.2268934286326
20
-4.04018420390287
30
0
41
1
10
19.4791900865712
20
-4.10568574976807
30
0
41
1
10
19.9851935491364
20
-4.22483206963841
30
0
41
1
10
20.239075929591
20
-4.27763550341885
30
0
41
1
10
20.7441991897387
20
-4.36939955558697
30
0
41
1
10
20.9962455662085
20
-4.40852256450233
30
0
41
1
10
21.4991753369946
20
-4.47490698208614
30
0
41
1
10
21.7499910343099
20
-4.5013567545513
30
0
41
1
10
22.2506201164441
20
-4.53937456861604
30
0
41
1
10
22.500741188236
20
-4.55152657958797
30
0
41
1
10
23.0014339235325
20
-4.56342801053978
30
0
41
1
10
23.2517964805274
20
-4.5637558655587
30
0
41
1
10
23.7527939895018
20
-4.54813667087191
30
0
41
1
10
24.0033139996313
20
-4.53266513135432
30
0
41
1
10
24.5059494887985
20
-4.48942906445623
30
0
41
1
10
24.7579997973278
20
-4.46188088951845
30
0
41
1
10
25.2634176555689
20
-4.39374181681097
30
0
41
1
10
25.517634923037
20
-4.35145387458883
30
0
41
1
10
26.0233066101919
20
-4.25377331281049
30
0
41
1
10
26.2754602497743
20
-4.19884514651574
30
0
41
1
10
26.7789868032819
20
-4.07856709573471
30
0
41
1
10
27.0301681737811
20
-4.01262705716542
30
0
41
1
10
27.5314105774946
20
-3.86693863712531
30
0
41
1
10
27.7814178924532
20
-3.78783594320032
30
0
41
1
10
28.2266947431334
20
-3.63911315090277
30
0
41
1
10
28.4217429388493
20
-3.57125699277199
30
0
41
1
10
28.616871099677
20
-3.49978553481878
30
0
0
SPLINE
5
BD
100
AcDbEntity
8
1
62
256
6
ByLayer
370
18
48
1
60
0
100
AcDbSpline
70
4
71
3
72
26
73
22
40
0
40
0
40
0
40
0
40
0.0051400844954094
40
0.0051400844954094
40
0.0880450774541259
40
0.0880450774541259
40
0.170950070412842
40
0.170950070412842
40
0.33676005633027
40
0.33676005633027
40
0.419665049288987
40
0.419665049288987
40
0.502570042247704
40
0.502570042247704
40
0.668380028165135
40
0.668380028165135
40
0.751285021123851
40
0.751285021123851
40
0.834190014082568
40
0.834190014082568
40
1
40
1
40
1
40
1
41
1
10
48.3638432672074
20
4.57159329221909
30
0
41
1
10
48.3794346106799
20
4.57124405056996
30
0
41
1
10
48.3950246957683
20
4.57086865021557
30
0
41
1
10
48.6620514863355
20
4.56399401160485
30
0
41
1
10
48.9132024099583
20
4.55104240690656
30
0
41
1
10
49.4147465552539
20
4.51350729296141
30
0
41
1
10
49.6650754333859
20
4.48784228567362
30
0
41
1
10
50.4153707754293
20
4.38827310892435
30
0
41
1
10
50.9165161016347
20
4.2942104504742
30
0
41
1
10
51.6705342450769
20
4.11633806945818
30
0
41
1
10
51.9220890175127
20
4.05063651883677
30
0
41
1
10
52.4273112199979
20
3.908204479343
30
0
41
1
10
52.6815436889143
20
3.83117275390956
30
0
41
1
10
53.4412710749353
20
3.58226549176328
30
0
41
1
10
53.9429544534862
20
3.39206330406955
30
0
41
1
10
54.694834558164
20
3.08192469133502
30
0
41
1
10
54.945120544314
20
2.97398616733125
30
0
41
1
10
55.4451505056213
20
2.74917483355102
30
0
41
1
10
55.6948020888071
20
2.63219481925424
30
0
41
1
10
56.4453574808217
20
2.27174341469348
30
0
41
1
10
56.9468351573527
20
2.01675612795873
30
0
41
1
10
57.4503577657002
20
1.74836375523066
30
0
0
SPLINE
5
BE
100
AcDbEntity
8
1
62
256
6
ByLayer
370
13
48
1
60
0
100
AcDbSpline
70
4
71
3
72
8
73
4
40
0
40
0
40
0
40
0
40
1
40
1
40
1
40
1
41
1
10
4.12148111785953
20
-3.38757704557437
30
0
41
1
10
4.1221312322192
20
-3.36488593263508
30
0
41
1
10
4.12278663974254
20
-3.34219143717451
30
0
41
1
10
4.12344737236558
20
-3.31949343692415
30
0
0
SPLINE
5
BF
100
AcDbEntity
8
1
62
256
6
ByLayer
370
18
48
1
60
0
100
AcDbSpline
70
4
71
3
72
34
73
30
40
0
40
0
40
0
40
0
40
0.0625
40
0.0625
40
0.125
40
0.1875
40
0.1875
40
0.25
40
0.25
40
0.375
40
0.375
40
0.4375
40
0.4375
40
0.46875
40
0.46875
40
0.5
40
0.5
40
0.625
40
0.625
40
0.6875
40
0.6875
40
0.749999999999999
40
0.8125
40
0.8125
40
0.84375
40
0.84375
40
0.875
40
0.875
40
1
40
1
40
1
40
1
41
1
10
4.00223778652472
20
-3.24836245406939
30
0
41
1
10
4.00224292648451
20
-3.12868503680872
30
0
41
1
10
4.00224774344062
20
-3.00284308058625
30
0
41
1
10
4.0022567133197
20
-2.74313341595064
30
0
41
1
10
4.00226504149612
20
-2.47508417746496
30
0
41
1
10
4.00227239039029
20
-2.19073579301519
30
0
41
1
10
4.00227938893718
20
-1.89817166297814
30
0
41
1
10
4.00228272296926
20
-1.74729205207186
30
0
41
1
10
4.00229233153559
20
-1.28505979327249
30
0
41
1
10
4.00229809717771
20
-0.970759997220739
30
0
41
1
10
4.00230656478831
20
-0.490402649640373
30
0
41
1
10
4.00230935401538
20
-0.328787233730736
30
0
41
1
10
4.00231356205452
20
-0.0840513278249091
30
0
41
1
10
4.002314969976
20
-0.002009481170461
30
0
41
1
10
4.00231777164561
20
0.160962436276719
30
0
41
1
10
4.00231916938739
20
0.24212473010877
30
0
41
1
10
4.0023261640923
20
0.646345526728396
30
0
41
1
10
4.0023317965715
20
0.964681169739606
30
0
41
1
10
4.00234049226401
20
1.43455058666501
30
0
41
1
10
4.00234344159102
20
1.5905390960572
30
0
41
1
10
4.00234927486696
20
1.89319079113844
30
0
41
1
10
4.00235506815892
20
2.18795757727329
30
0
41
1
10
4.00236069395305
20
2.46727081989673
30
0
41
1
10
4.00236479396563
20
2.67089734582336
30
0
41
1
10
4.00236614049839
20
2.73779458670288
30
0
41
1
10
4.00236878054432
20
2.86959847718276
30
0
41
1
10
4.00237007751107
20
2.93468179504265
30
0
41
1
10
4.00237633142359
20
3.2519236715797
30
0
41
1
10
4.00238063670358
20
3.48096955959042
30
0
41
1
10
4.00238374360572
20
3.68596402982254
30
0
0
SPLINE
5
C0
100
AcDbEntity
8
1
62
256
6
ByLayer
370
18
48
1
60
0
100
AcDbSpline
70
4
71
3
72
16
73
12
40
0
40
0
40
0
40
0
40
0.249999999999964
40
0.249999999999964
40
0.37499999999997
40
0.37499999999997
40
0.499999999999976
40
0.499999999999976
40
0.749999999999988
40
0.749999999999988
40
1
40
1
40
1
40
1
41
1
10
4.25133474720605
20
3.49538363156202
30
0
41
1
10
4.22573613332608
20
3.5083070541809
30
0
41
1
10
4.1991244635787
20
3.52278669059166
30
0
41
1
10
4.15769211058472
20
3.5475791484684
30
0
41
1
10
4.14398467441885
20
3.55615244151761
30
0
41
1
10
4.11683091356002
20
3.57406405865763
30
0
41
1
10
4.10343398846916
20
3.58339064321243
30
0
41
1
10
4.06635379642162
20
3.61092727475383
30
0
41
1
10
4.04499344221333
20
3.62938334995707
30
0
41
1
10
4.01500997685423
20
3.66147199350027
30
0
41
1
10
4.00623388708001
20
3.67499777694201
30
0
41
1
10
4.00238374360703
20
3.68596402981598
30
0
0
SPLINE
5
C1
100
AcDbEntity
8
1
62
256
6
ByLayer
370
13
48
1
60
0
100
AcDbSpline
70
4
71
3
72
18
73
14
40
0
40
0
40
0
40
0
40
0.231267690859594
40
0.231267690859594
40
0.462535381719188
40
0.462535381719188
40
0.578169227148985
40
0.578169227148985
40
0.693803072578782
40
0.693803072578782
40
0.925070763438376
40
0.925070763438376
40
1
40
1
40
1
40
1
41
1
10
4.19976103784859
20
-3.33599736469463
30
0
41
1
10
4.79994966790161
20
-3.58062383576131
30
0
41
1
10
5.39520231119079
20
-3.79409954257298
30
0
41
1
10
6.58288899198584
20
-4.15450876587411
30
0
41
1
10
7.17534124927693
20
-4.30142740707882
30
0
41
1
10
8.06791901510408
20
-4.46681997809452
30
0
41
1
10
8.36604801000476
20
-4.5128036023255
30
0
41
1
10
8.96452633274768
20
-4.58577569341651
30
0
41
1
10
9.26574049551536
20
-4.6127723123216
30
0
41
1
10
10.164237013863
20
-4.66367507347064
30
0
41
1
10
10.7583367379964
20
-4.65804045157009
30
0
41
1
10
11.5434366777505
20
-4.59967917589236
30
0
41
1
10
11.7354363868551
20
-4.58136431294409
30
0
41
1
10
11.9274502800556
20
-4.559065490629
30
0
0
SPLINE
5
C2
100
AcDbEntity
8
1
62
256
6
ByLayer
370
18
48
1
60
0
100
AcDbSpline
70
4
71
3
72
18
73
14
40
0
40
0
40
0
40
0
40
0.163107463460124
40
0.163107463460124
40
0.296583140247744
40
0.296583140247744
40
0.363320978641553
40
0.363320978641553
40
0.430058817035363
40
0.430058817035363
40
0.96396152418585
40
0.96396152418585
40
1
40
1
40
1
40
1
41
1
10
47.7833279977837
20
0.027220547122397
30
0
41
1
10
48.1449595476346
20
-0.185134347288084
30
0
41
1
10
48.5067157081573
20
-0.397631095674626
30
0
41
1
10
49.1660307828214
20
-0.78203107914706
30
0
41
1
10
49.4634807280567
20
-0.95400189783831
30
0
41
1
10
49.9113553969567
20
-1.20937043367971
30
0
41
1
10
50.0609370052972
20
-1.29404972568861
30
0
41
1
10
50.3607996069678
20
-1.46231418925569
30
0
41
1
10
50.5110412766189
20
-1.54589128863239
30
0
41
1
10
51.8580490556338
20
-2.2877001394595
30
0
41
1
10
53.0346041853855
20
-2.88110530086345
30
0
41
1
10
54.3012048090808
20
-3.39876551717455
30
0
41
1
10
54.3813391207981
20
-3.43100485541228
30
0
41
1
10
54.4615274992853
20
-3.46273818700624
30
0
0
SPLINE
5
C3
100
AcDbEntity
8
1
62
256
6
ByLayer
370
13
48
1
60
0
100
AcDbSpline
70
4
71
3
72
20
73
16
40
0
40
0
40
0
40
0
40
0.0944372196293991
40
0.0944372196293991
40
0.159120275370156
40
0.159120275370156
40
0.223803331110913
40
0.223803331110913
40
0.48253555407394
40
0.48253555407394
40
0.741267777036968
40
0.741267777036968
40
0.870633888518483
40
0.870633888518483
40
1
40
1
40
1
40
1
41
1
10
54.4615274992649
20
-3.46273818699814
30
0
41
1
10
54.678332760146
20
-3.54853557266244
30
0
41
1
10
54.8955332485626
20
-3.63063405493386
30
0
41
1
10
55.2624784078634
20
-3.76230924229472
30
0
41
1
10
55.4119161691864
20
-3.81398156205327
30
0
41
1
10
55.7114617095253
20
-3.91344610342097
30
0
41
1
10
55.8617145146751
20
-3.96127639207214
30
0
41
1
10
56.610599501632
20
-4.18902461852281
30
0
41
1
10
57.2050986325508
20
-4.33585907364971
30
0
41
1
10
58.3927437866338
20
-4.55496752102874
30
0
41
1
10
58.986051804788
20
-4.62731106242262
30
0
41
1
10
59.8806053454938
20
-4.67724641552556
30
0
41
1
10
60.1796564681187
20
-4.68411741834814
30
0
41
1
10
60.7799119703122
20
-4.67780661627543
30
0
41
1
10
61.0796962734625
20
-4.66436242146443
30
0
41
1
10
61.3795176095617
20
-4.64152519332146
30
0
0
SPLINE
5
C4
100
AcDbEntity
8
1
62
256
6
ByLayer
370
18
48
1
60
0
100
AcDbSpline
70
4
71
3
72
16
73
12
40
0
40
0
40
0
40
0
40
0.167150668640406
40
0.167150668640406
40
0.305405890074939
40
0.305405890074939
40
0.443661111509471
40
0.443661111509471
40
0.996681997247602
40
0.996681997247602
40
1
40
1
40
1
40
1
41
1
10
22.7721757933114
20
0.0336883698844588
30
0
41
1
10
23.1303676901595
20
-0.175995979738786
30
0
41
1
10
23.4886975106519
20
-0.385887475067193
30
0
41
1
10
24.1451198054379
20
-0.76723066308665
30
0
41
1
10
24.4429492995491
20
-0.93899873409373
30
0
41
1
10
25.0409293060525
20
-1.27910999004464
30
0
41
1
10
25.3419212687664
20
-1.4480337116558
30
0
41
1
10
26.8386109161123
20
-2.27118646874502
30
0
41
1
10
28.0168310111962
20
-2.86365888651497
30
0
41
1
10
29.2125843171306
20
-3.35177957336779
30
0
41
1
10
29.2197161520281
20
-3.35468686595388
30
0
41
1
10
29.2268483619419
20
-3.35759029132026
30
0
0
SPLINE
5
C5
100
AcDbEntity
8
1
62
256
6
ByLayer
370
13
48
1
60
0
100
AcDbSpline
70
4
71
3
72
20
73
16
40
0
40
0
40
0
40
0
40
0.113382642761341
40
0.113382642761341
40
0.229553401441248
40
0.229553401441248
40
0.461894918801059
40
0.461894918801059
40
0.578065677480963
40
0.578065677480963
40
0.694236436160868
40
0.694236436160868
40
0.926577953520671
40
0.926577953520671
40
1
40
1
40
1
40
1
41
1
10
29.2268492882195
20
-3.35759066839523
30
0
41
1
10
29.5169031611554
20
-3.47566762932644
30
0
41
1
10
29.8075772739141
20
-3.5873485970213
30
0
41
1
10
30.3983807036725
20
-3.79912993756656
30
0
41
1
10
30.6991151541279
20
-3.89910716081567
30
0
41
1
10
31.5991318735854
20
-4.1727010336196
30
0
41
1
10
32.1979087424267
20
-4.32067467513568
30
0
41
1
10
33.0989606673299
20
-4.4864131915071
30
0
41
1
10
33.3989440940626
20
-4.53210680466225
30
0
41
1
10
33.9991375911037
20
-4.60407632384724
30
0
41
1
10
34.2998995258507
20
-4.63036509327324
30
0
41
1
10
35.197694780422
20
-4.67917386722013
30
0
41
1
10
35.7913414077017
20
-4.67200810262671
30
0
41
1
10
36.5711358360935
20
-4.61207045903745
30
0
41
1
10
36.7582761144637
20
-4.59384369175407
30
0
41
1
10
36.9454248016322
20
-4.57182187268586
30
0
0
SPLINE
5
C6
100
AcDbEntity
8
1
62
256
6
ByLayer
370
18
48
1
60
0
100
AcDbSpline
70
4
71
3
72
10
73
6
40
0
40
0
40
0
40
0
40
0.5
40
0.5
40
1
40
1
40
1
40
1
41
1
10
4.1214811178595
20
-3.38757704557531
30
0
41
1
10
4.09218417159229
20
-3.37521453814242
30
0
41
1
10
4.06698549265371
20
-3.35879095800453
30
0
41
1
10
4.02741311018147
20
-3.31960359698994
30
0
41
1
10
4.01327443457404
20
-3.2968598866303
30
0
41
1
10
4.00597024959228
20
-3.27298788055484
30
0
0
SPLINE
5
C7
100
AcDbEntity
8
1
62
256
6
ByLayer
370
18
48
1
60
0
100
AcDbSpline
70
4
71
3
72
14
73
10
40
0
40
0
40
0
40
0
40
0.547209608311875
40
0.547209608311875
40
0.909007735811146
40
0.909007735811146
40
0.999457267685965
40
0.999457267685965
40
1
40
1
40
1
40
1
41
1
10
60.5263172952813
20
-4.58262118635884
30
0
41
1
10
59.6279483873734
20
-4.58208817693844
30
0
41
1
10
58.7374659132823
20
-4.49369155383789
30
0
41
1
10
57.2519212873117
20
-4.20988704148076
30
0
41
1
10
56.6588461136517
20
-4.06074756875284
30
0
41
1
10
55.9104875679041
20
-3.83113072197767
30
0
41
1
10
55.7602663408923
20
-3.78297435496941
30
0
41
1
10
55.6096305678018
20
-3.73268795680031
30
0
41
1
10
55.608732097594
20
-3.7323879511971
30
0
41
1
10
55.6078336390575
20
-3.73208787817944
30
0
0
SPLINE
5
C8
100
AcDbEntity
8
1
62
256
6
ByLayer
370
13
48
1
60
0
100
AcDbSpline
70
4
71
3
72
26
73
22
40
0
40
0
40
0
40
0
40
0.0387947679368755
40
0.0387947679368755
40
0.11685268159526
40
0.11685268159526
40
0.42908433622879
40
0.42908433622879
40
0.468113293057982
40
0.468113293057982
40
0.507142249887173
40
0.507142249887173
40
0.585200163545558
40
0.585200163545558
40
0.741315990862331
40
0.741315990862331
40
0.897431818179105
40
0.897431818179105
40
0.975489731837492
40
0.975489731837492
40
1
40
1
40
1
40
1
41
1
10
55.6078336391051
20
-3.73208787819539
30
0
41
1
10
55.4589986987976
20
-3.68237901812404
30
0
41
1
10
55.3104840422993
20
-3.63082017945024
30
0
41
1
10
54.8639334154266
20
-3.47020004386729
30
0
41
1
10
54.5666885732177
20
-3.35575875161305
30
0
41
1
10
53.0834332178182
20
-2.75101811657126
30
0
41
1
10
51.9063958687648
20
-2.16301801595063
30
0
41
1
10
50.5596584466364
20
-1.43207065701134
30
0
41
1
10
50.4094652432362
20
-1.34977218962797
30
0
41
1
10
50.1096907445356
20
-1.18417759727723
30
0
41
1
10
49.9601390896345
20
-1.10088780916439
30
0
41
1
10
49.5123191839102
20
-0.84984537947264
30
0
41
1
10
49.2148511259442
20
-0.680985919412535
30
0
41
1
10
48.3245812010847
20
-0.171842130386438
30
0
41
1
10
47.7332774310626
20
0.169854460074504
30
0
41
1
10
46.5488930909441
20
0.846830768678586
30
0
41
1
10
45.9552993398912
20
1.18119506089221
30
0
41
1
10
45.0581210286177
20
1.66825355817059
30
0
41
1
10
44.7574336105955
20
1.82824658767274
30
0
41
1
10
44.3648497695684
20
2.03137663368014
30
0
41
1
10
44.2711396489876
20
2.07943159128132
30
0
41
1
10
44.1775243424693
20
2.12699388081663
30
0
0
SPLINE
5
C9
100
AcDbEntity
8
1
62
256
6
ByLayer
370
18
48
1
60
0
100
AcDbSpline
70
4
71
3
72
16
73
12
40
0
40
0
40
0
40
0
40
0.179844715792278
40
0.179844715792278
40
0.355994982717027
40
0.355994982717027
40
0.532145249641776
40
0.532145249641776
40
0.884445783491271
40
0.884445783491271
40
1
40
1
40
1
40
1
41
1
10
10.5284452968659
20
-4.55263999393264
30
0
41
1
10
10.2247034069974
20
-4.55246550502349
30
0
41
1
10
9.92021184198026
20
-4.54233564136982
30
0
41
1
10
9.31503956115296
20
-4.50232666117412
30
0
41
1
10
9.01392821337512
20
-4.47272026946217
30
0
41
1
10
8.41557630187265
20
-4.39505492315436
30
0
41
1
10
8.1174936118027
20
-4.34697594933434
30
0
41
1
10
7.22501190837375
20
-4.17606281622813
30
0
41
1
10
6.63257790127994
20
-4.02654857852013
30
0
41
1
10
5.84412668660073
20
-3.78524711367675
30
0
41
1
10
5.64924763449099
20
-3.72218406335952
30
0
41
1
10
5.45410586666804
20
-3.65573711802185
30
0
0
SPLINE
5
CA
100
AcDbEntity
8
1
62
256
6
ByLayer
370
13
48
1
60
0
100
AcDbSpline
70
4
71
3
72
8
73
4
40
0
40
0
40
0
40
0
40
1
40
1
40
1
40
1
41
1
10
5.45410586558617
20
-3.65573711765345
30
0
41
1
10
5.05430137341065
20
-3.51960128400506
30
0
41
1
10
4.65339412145443
20
-3.36926141481641
30
0
41
1
10
4.25034215571651
20
-3.20541186422233
30
0
0
SPLINE
5
CB
100
AcDbEntity
8
1
62
256
6
ByLayer
370
13
48
1
60
0
100
AcDbSpline
70
4
71
3
72
10
73
6
40
0
40
0
40
0
40
0
40
0.5
40
0.5
40
1
40
1
40
1
40
1
41
1
10
4.12344737236558
20
-3.19866171078093
30
0
41
1
10
4.14287492177084
20
-3.19542190783042
30
0
41
1
10
4.1637951835919
20
-3.19441513055949
30
0
41
1
10
4.20639469106556
20
-3.19673146420664
30
0
41
1
10
4.22814522425358
20
-3.19998862801691
30
0
41
1
10
4.25034215571668
20
-3.20541186422241
30
0
0
SPLINE
5
CC
100
AcDbEntity
8
1
62
256
6
ByLayer
370
13
48
1
60
0
100
AcDbSpline
70
4
71
3
72
10
73
6
40
0
40
0
40
0
40
0
40
0.5
40
0.5
40
1
40
1
40
1
40
1
41
1
10
4.00597024959228
20
-3.27298788055666
30
0
41
1
10
4.01316624816727
20
-3.28244711235948
30
0
41
1
10
4.02653413203618
20
-3.29128894578861
30
0
41
1
10
4.06601906948868
20
-3.30726696100911
30
0
41
1
10
4.09186534775941
20
-3.31422820390017
30
0
41
1
10
4.12344737236558
20
-3.31949343692418
30
0
0
SPLINE
5
CD
100
AcDbEntity
8
1
62
256
6
ByLayer
370
18
48
1
60
0
100
AcDbSpline
70
4
71
3
72
10
73
6
40
0
40
0
40
0
40
0
40
0.888907433202667
40
0.888907433202667
40
1
40
1
40
1
40
1
41
1
10
61.3344754472042
20
4.76174003585589
30
0
41
1
10
61.0349158809714
20
4.78436398538304
30
0
41
1
10
60.7354040655522
20
4.79678491304193
30
0
41
1
10
60.3980480434016
20
4.79926861480081
30
0
41
1
10
60.3605555768634
20
4.79938395056482
30
0
41
1
10
60.3230534811489
20
4.79933909660139
30
0
0
SPLINE
5
CE
100
AcDbEntity
8
1
62
256
6
ByLayer
370
18
48
1
60
0
100
AcDbSpline
70
4
71
3
72
50
73
46
40
0
40
0
40
0
40
0
40
0.0186727386375627
40
0.0186727386375627
40
0.0349950094695323
40
0.0349950094695323
40
0.0513172803015018
40
0.0513172803015018
40
0.181895446957256
40
0.181895446957256
40
0.214539988621195
40
0.214539988621195
40
0.230862259453165
40
0.230862259453165
40
0.247184530285135
40
0.247184530285135
40
0.312473613613013
40
0.312473613613013
40
0.377762696940891
40
0.377762696940891
40
0.41040723860483
40
0.41040723860483
40
0.4267295094368
40
0.4267295094368
40
0.443051780268769
40
0.443051780268769
40
0.573629946924521
40
0.573629946924521
40
0.606274488588459
40
0.606274488588459
40
0.638919030252397
40
0.638919030252397
40
0.704208113580273
40
0.704208113580273
40
0.769497196908149
40
0.769497196908149
40
0.802141738572087
40
0.802141738572087
40
0.834786280236025
40
0.834786280236025
40
0.965364446891777
40
0.965364446891777
40
0.998008988555714
40
0.998008988555714
40
1
40
1
40
1
40
1
41
1
10
37.7118121596824
20
-4.57293767458924
30
0
41
1
10
37.541685883869
20
-4.60301647346557
30
0
41
1
10
37.3713179071693
20
-4.63000025162637
30
0
41
1
10
37.0513849010827
20
-4.67462904956048
30
0
41
1
10
36.9019027182545
20
-4.69302353792415
30
0
41
1
10
36.6023034070434
20
-4.72487601532583
30
0
41
1
10
36.4519525770264
20
-4.73834936644948
30
0
41
1
10
35.1009779384365
20
-4.83655409965655
30
0
41
1
10
33.9220860812976
20
-4.76012714376174
30
0
41
1
10
32.4367319932467
20
-4.47321167889746
30
0
41
1
10
32.1390588832762
20
-4.40626387981865
30
0
41
1
10
31.6909607225111
20
-4.29168666941399
30
0
41
1
10
31.5413224302237
20
-4.25113970817614
30
0
41
1
10
31.2413728727448
20
-4.16537731172193
30
0
41
1
10
31.0908787125134
20
-4.12009847591264
30
0
41
1
10
30.3410087437891
20
-3.8836111671842
30
0
41
1
10
29.7463793983083
20
-3.66149513100103
30
0
41
1
10
28.5597906468121
20
-3.16160011910395
30
0
41
1
10
27.9678126184546
20
-2.88384155860945
30
0
41
1
10
27.0760642884894
20
-2.43282773584249
30
0
41
1
10
26.7781572796759
20
-2.27679741578433
30
0
41
1
10
26.3295483546909
20
-2.03519601855959
30
0
41
1
10
26.1797255675529
20
-1.95339549117955
30
0
41
1
10
25.8794072108485
20
-1.78737515133707
30
0
41
1
10
25.7290096967378
20
-1.70320871491336
30
0
41
1
10
24.3805026503812
20
-0.940651509556545
30
0
41
1
10
23.2016622463885
20
-0.220424069641155
30
0
41
1
10
21.7143675887495
20
0.667551682928547
30
0
41
1
10
21.4162144185084
20
0.844520208076744
30
0
41
1
10
20.8174844823191
20
1.19545039300462
30
0
41
1
10
20.5161201375761
20
1.36986887970755
30
0
41
1
10
19.6176965089171
20
1.88005258458642
30
0
41
1
10
19.0235854423914
20
2.20422576105443
30
0
41
1
10
17.8370083913599
20
2.80955781269435
30
0
41
1
10
17.2447515806272
20
3.09099926667028
30
0
41
1
10
16.3515929558868
20
3.4725459228188
30
0
41
1
10
16.0531658047122
20
3.59307149010061
30
0
41
1
10
15.4538520342332
20
3.81932891692091
30
0
41
1
10
15.1525266044852
20
3.92510196437732
30
0
41
1
10
13.6560558950118
20
4.40729002512154
30
0
41
1
10
12.4774629041566
20
4.65062419443336
30
0
41
1
10
10.988065720138
20
4.75676530377177
30
0
41
1
10
10.6893595219064
20
4.76808805376641
30
0
41
1
10
10.3710464055732
20
4.76932128377382
30
0
41
1
10
10.35273988178
20
4.76935420756197
30
0
41
1
10
10.3344267231666
20
4.76934918070859
30
0
0
SPLINE
5
CF
100
AcDbEntity
8
1
62
256
6
ByLayer
370
18
48
1
60
0
100
AcDbSpline
70
4
71
3
72
22
73
18
40
0
40
0
40
0
40
0
40
0.125000000000001
40
0.125000000000001
40
0.187500000000001
40
0.187500000000001
40
0.25
40
0.25
40
0.499999999999999
40
0.499999999999999
40
0.625
40
0.625
40
0.75
40
0.75
40
0.875
40
0.875
40
1
40
1
40
1
40
1
41
1
10
61.3319404421819
20
-4.58295596942082
30
0
41
1
10
61.2620284852415
20
-4.58291517402566
30
0
41
1
10
61.1956417367514
20
-4.57223642446223
30
0
41
1
10
61.1016338639033
20
-4.53940302812438
30
0
41
1
10
61.0712291214673
20
-4.52564845242628
30
0
41
1
10
61.0123644988664
20
-4.49227032732367
30
0
41
1
10
60.9838699278678
20
-4.47258801173999
30
0
41
1
10
60.848497845194
20
-4.36059272384375
30
0
41
1
10
60.7608608594006
20
-4.22740324150101
30
0
41
1
10
60.662462151593
20
-3.9578704850185
30
0
41
1
10
60.635159292526
20
-3.85533464974279
30
0
41
1
10
60.5940066562072
20
-3.63217157406658
30
0
41
1
10
60.5798677309824
20
-3.51113180071022
30
0
41
1
10
60.5644210236496
20
-3.25019990572449
30
0
41
1
10
60.5631110652124
20
-3.11031098169943
30
0
41
1
10
60.5739115055968
20
-2.81081507371647
30
0
41
1
10
60.5859475039458
20
-2.65403475283821
30
0
41
1
10
60.604292544266
20
-2.49148064121576
30
0
0
SPLINE
5
D0
100
AcDbEntity
8
1
62
256
6
ByLayer
370
18
48
1
60
0
100
AcDbSpline
70
4
71
3
72
82
73
78
40
0
40
0
40
0
40
0
40
0.0351866193542133
40
0.0351866193542133
40
0.0738070462929756
40
0.0738070462929756
40
0.112427473231738
40
0.112427473231738
40
0.189668327109263
40
0.189668327109263
40
0.228288754048025
40
0.228288754048025
40
0.266909180986787
40
0.266909180986787
40
0.344150034864312
40
0.344150034864312
40
0.382770461803074
40
0.382770461803074
40
0.421390888741837
40
0.421390888741837
40
0.460011315680599
40
0.460011315680599
40
0.47932152914998
40
0.488976635884671
40
0.493804189252016
40
0.496217965935689
40
0.497424854277525
40
0.498028298448443
40
0.498028298448443
40
0.498330020533902
40
0.498330020533902
40
0.498631742619361
40
0.498631742619361
40
0.499838630961198
40
0.499838630961198
40
0.501045519303034
40
0.501045519303034
40
0.503459295986706
40
0.503459295986706
40
0.508286849354051
40
0.508286849354051
40
0.517941956088742
40
0.517941956088742
40
0.537252169558122
40
0.537252169558122
40
0.575872596496883
40
0.575872596496883
40
0.653113450374404
40
0.653113450374404
40
0.730354304251926
40
0.730354304251926
40
0.768974731190687
40
0.768974731190687
40
0.778629837925377
40
0.778629837925377
40
0.783457391292722
40
0.783457391292722
40
0.785871167976394
40
0.785871167976394
40
0.787078056318231
40
0.787078056318231
40
0.78737977840369
40
0.78737977840369
40
0.787681500489149
40
0.787681500489149
40
0.788284944660067
40
0.807595158129448
40
0.807595158129448
40
0.846215585068209
40
0.846215585068209
40
0.884836012006971
40
0.884836012006971
40
0.923456438945733
40
0.923456438945733
40
0.962076865884494
40
0.962076865884494
40
1
40
1
40
1
40
1
41
1
10
14.389281591979
20
3.93790307506828
30
0
41
1
10
14.2620908332108
20
3.94163691151829
30
0
41
1
10
14.134956020432
20
3.94124076390492
30
0
41
1
10
13.8681838390539
20
3.93056315444059
30
0
41
1
10
13.7285195371932
20
3.91931020064149
30
0
41
1
10
13.4485043646491
20
3.8839928500696
30
0
41
1
10
13.3076926940892
20
3.85981773301097
30
0
41
1
10
12.886208794378
20
3.76681052659657
30
0
41
1
10
12.610685416507
20
3.67835522076925
30
0
41
1
10
12.2001672633504
20
3.50919294719387
30
0
41
1
10
12.0637649024154
20
3.44678070194953
30
0
41
1
10
11.7907222459104
20
3.31096451446274
30
0
41
1
10
11.6536920072103
20
3.23734062158604
30
0
41
1
10
11.2430782102517
20
3.00339659002219
30
0
41
1
10
10.9739026959272
20
2.83257346875811
30
0
41
1
10
10.5697835182085
20
2.56461065869024
30
0
41
1
10
10.4350368892061
20
2.47330830083553
30
0
41
1
10
10.1644462805694
20
2.28822304520293
30
0
41
1
10
10.0283460983156
20
2.19426057723706
30
0
41
1
10
9.75526069971545
20
2.00600303154906
30
0
41
1
10
9.61892769115218
20
1.91216157562906
30
0
41
1
10
9.4141083959683
20
1.77274464313652
30
0
41
1
10
9.31162011369898
20
1.70337068472773
30
0
41
1
10
9.1917847002502
20
1.62320551626789
30
0
41
1
10
9.13178505059534
20
1.5833382773894
30
0
41
1
10
9.10176280325004
20
1.56346131606418
30
0
41
1
10
9.08674583308334
20
1.55353735119385
30
0
41
1
10
9.08030870759734
20
1.54928736983322
30
0
41
1
10
9.07709013467471
20
1.54716304227378
30
0
41
1
10
9.07558588625773
20
1.54675366566545
30
0
41
1
10
9.07455759150074
20
1.54451500474514
30
0
41
1
10
9.07554959547446
20
1.54341621900014
30
0
41
1
10
9.07910700412918
20
1.53884602835984
30
0
41
1
10
9.08295760264079
20
1.53597581886385
30
0
41
1
10
9.09040726419042
20
1.53018070116806
30
0
41
1
10
9.09424436961956
20
1.52740037867096
30
0
41
1
10
9.10587864591386
20
1.51919887540515
30
0
41
1
10
9.11379590145731
20
1.51393352992227
30
0
41
1
10
9.13771719998024
20
1.49835272807195
30
0
41
1
10
9.15390760949356
20
1.48827353044007
30
0
41
1
10
9.20272540406191
20
1.45835794448479
30
0
41
1
10
9.23560927461043
20
1.43889025744269
30
0
41
1
10
9.33459188134074
20
1.38100645700996
30
0
41
1
10
9.40106930765691
20
1.34316296943587
30
0
41
1
10
9.60099640957134
20
1.23054145234724
30
0
41
1
10
9.73497519804187
20
1.15677129280567
30
0
41
1
10
10.137609873672
20
0.937466438161437
30
0
41
1
10
10.4069006875546
20
0.7938755241465
30
0
41
1
10
10.945238657765
20
0.510045600312651
30
0
41
1
10
11.2146610978559
20
0.370077007664122
30
0
41
1
10
11.6163868128288
20
0.160736638785096
30
0
41
1
10
11.7501205256445
20
0.0912134652674865
30
0
41
1
10
11.9153316541349
20
0.0037614225120421
30
0
41
1
10
11.9482735918238
20
-0.0137576313410648
30
0
41
1
10
11.9971764407937
20
-0.0402591843678692
30
0
41
1
10
12.01340635567
20
-0.0491232005669247
30
0
41
1
10
12.037338428311
20
-0.0626177850451768
30
0
41
1
10
12.0452801365707
20
-0.0671469490245613
30
0
41
1
10
12.0567099938232
20
-0.0740917654959787
30
0
41
1
10
12.06056092227
20
-0.0764234883033907
30
0
41
1
10
12.0645759842922
20
-0.0794936682041225
30
0
41
1
10
12.0653959192228
20
-0.0801297772383123
30
0
41
1
10
12.0662312515809
20
-0.0813789904569262
30
0
41
1
10
12.0650351402259
20
-0.0815427857532143
30
0
41
1
10
12.0622145121738
20
-0.0820460442930369
30
0
41
1
10
12.0001639590686
20
-0.0930582547189829
30
0
41
1
10
11.9382277756521
20
-0.102103637758233
30
0
41
1
10
11.7583971843907
20
-0.122748951868175
30
0
41
1
10
11.6387965492712
20
-0.128938093890355
30
0
41
1
10
11.401334836492
20
-0.125809793907763
30
0
41
1
10
11.2831888338745
20
-0.116542830903938
30
0
41
1
10
11.0463270948373
20
-0.0823468344191554
30
0
41
1
10
10.9276189000028
20
-0.0574162569338341
30
0
41
1
10
10.6874224166995
20
0.0086355930513093
30
0
41
1
10
10.5664027307721
20
0.0497137916054271
30
0
41
1
10
10.3260710200562
20
0.145291795441835
30
0
41
1
10
10.2062654106653
20
0.199702040233888
30
0
41
1
10
10.0844695783143
20
0.260656696505208
30
0
0
SPLINE
5
D1
100
AcDbEntity
8
1
62
256
6
ByLayer
370
18
48
1
60
0
100
AcDbSpline
70
4
71
3
72
60
73
56
40
0
40
0
40
0
40
0
40
0.0625000000000117
40
0.0625000000000117
40
0.125000000000023
40
0.125000000000023
40
0.250000000000047
40
0.250000000000047
40
0.37500000000007
40
0.37500000000007
40
0.500000000000093
40
0.500000000000093
40
0.562500000000105
40
0.562500000000105
40
0.625000000000117
40
0.625000000000117
40
0.656250000000123
40
0.656250000000123
40
0.664062500000124
40
0.664062500000124
40
0.667968750000124
40
0.667968750000124
40
0.669921875000123
40
0.669921875000123
40
0.671875000000122
40
0.671875000000122
40
0.687500000000117
40
0.687500000000117
40
0.718750000000105
40
0.718750000000105
40
0.734375000000099
40
0.734375000000099
40
0.750000000000094
40
0.750000000000094
40
0.765625000000088
40
0.765625000000088
40
0.773437500000086
40
0.773437500000086
40
0.781250000000083
40
0.781250000000083
40
0.796875000000077
40
0.796875000000077
40
0.812500000000071
40
0.812500000000071
40
0.828125000000065
40
0.828125000000065
40
0.84375000000006
40
0.84375000000006
40
0.875000000000048
40
0.875000000000048
40
0.906250000000036
40
0.906250000000036
40
0.937500000000024
40
0.937500000000024
40
1
40
1
40
1
40
1
41
1
10
14.3892907454134
20
3.93786800547252
30
0
41
1
10
14.0717506574145
20
4.04563764881726
30
0
41
1
10
13.7524589793047
20
4.14170625669664
30
0
41
1
10
13.1092627809034
20
4.31174028136084
30
0
41
1
10
12.784752233565
20
4.38579235730913
30
0
41
1
10
11.8064511565281
20
4.57556607307396
30
0
41
1
10
11.1503144866767
20
4.65829627849033
30
0
41
1
10
9.81839939912751
20
4.75626506504847
30
0
41
1
10
9.14251390462445
20
4.77156100947778
30
0
41
1
10
7.76126738225025
20
4.76399736107919
30
0
41
1
10
7.05589074203965
20
4.74145630906344
30
0
41
1
10
5.97140532412737
20
4.70359999120936
30
0
41
1
10
5.60776934340075
20
4.69038571216478
30
0
41
1
10
4.87592858988484
20
4.66618981863923
30
0
41
1
10
4.50769792833606
20
4.65521725596707
30
0
41
1
10
3.95407395058345
20
4.64239789076038
30
0
41
1
10
3.76922648741936
20
4.6387202973377
30
0
41
1
10
3.53777484886751
20
4.6350047472776
30
0
41
1
10
3.49146489762552
20
4.63430555883485
30
0
41
1
10
3.4219703272384
20
4.63332477671031
30
0
41
1
10
3.39854501179303
20
4.63323157515978
30
0
41
1
10
3.36333344969174
20
4.63448854099607
30
0
41
1
10
3.35200379454713
20
4.63509698400065
30
0
41
1
10
3.33034994431588
20
4.63677221347066
30
0
41
1
10
3.320248853544
20
4.63794121635246
30
0
41
1
10
3.23071703826417
20
4.64900315553095
30
0
41
1
10
3.15205782769016
20
4.65879802664034
30
0
41
1
10
2.92165393964842
20
4.68746065261087
30
0
41
1
10
2.77543238582194
20
4.70565980387158
30
0
41
1
10
2.57202571508185
20
4.72931945703371
30
0
41
1
10
2.50690603309488
20
4.73658724913017
30
0
41
1
10
2.38350927719523
20
4.74920579745552
30
0
41
1
10
2.32523157210468
20
4.75454235946648
30
0
41
1
10
2.22105889318936
20
4.76205608180626
30
0
41
1
10
2.17468451417557
20
4.76429065208134
30
0
41
1
10
2.11562845016473
20
4.76448828146363
30
0
41
1
10
2.09774669429541
20
4.76401601733875
30
0
41
1
10
2.06654162047244
20
4.76190364496475
30
0
41
1
10
2.05310331740418
20
4.76026564647577
30
0
41
1
10
2.01941848811185
20
4.75347893959014
30
0
41
1
10
2.00578605209361
20
4.74645000531217
30
0
41
1
10
1.99717332712208
20
4.72668081127841
30
0
41
1
10
2.00229953169017
20
4.71429916808023
30
0
41
1
10
2.0287270884242
20
4.68482933454973
30
0
41
1
10
2.050331619177
20
4.66756257520728
30
0
41
1
10
2.10586929254509
20
4.62971824753038
30
0
41
1
10
2.13972328182294
20
4.60911870130082
30
0
41
1
10
2.25555229156842
20
4.54295884216458
30
0
41
1
10
2.35241177264098
20
4.4926882580817
30
0
41
1
10
2.5636335732145
20
4.38657122691302
30
0
41
1
10
2.67881904730035
20
4.33030712835983
30
0
41
1
10
2.92189081099491
20
4.21238272468347
30
0
41
1
10
3.05041146035111
20
4.15044391721693
30
0
41
1
10
3.4450939002121
20
3.95970041164964
30
0
41
1
10
3.72037028020529
20
3.82587923362607
30
0
41
1
10
4.00238374347836
20
3.68596402988268
30
0
0
SPLINE
5
D2
100
AcDbEntity
8
1
62
256
6
ByLayer
370
13
48
1
60
0
100
AcDbSpline
70
4
71
3
72
30
73
26
40
0
40
0
40
0
40
0
40
0.125
40
0.125
40
0.1875
40
0.1875
40
0.25
40
0.3125
40
0.3125
40
0.375
40
0.375
40
0.5
40
0.5
40
0.5625
40
0.5625
40
0.625
40
0.625
40
0.6875
40
0.6875
40
0.75
40
0.8125
40
0.8125
40
0.875
40
0.875
40
1
40
1
40
1
40
1
41
1
10
4.25034215571665
20
-3.20541186422241
30
0
41
1
10
4.25041274513481
20
-2.98057560743746
30
0
41
1
10
4.25047296187455
20
-2.7353125433807
30
0
41
1
10
4.25055393171388
20
-2.33698452723218
30
0
41
1
10
4.25057921590107
20
-2.19967286319246
30
0
41
1
10
4.25062678026376
20
-1.92008021167234
30
0
41
1
10
4.25067157009084
20
-1.63440284064947
30
0
41
1
10
4.25071285188969
20
-1.33668643999602
30
0
41
1
10
4.25075328291234
20
-1.03282070883094
30
0
41
1
10
4.25077314279531
20
-0.877212792535119
30
0
41
1
10
4.25083134615829
20
-0.41152677822302
30
0
41
1
10
4.25086882844442
20
-0.0995514267042097
30
0
41
1
10
4.25092655487632
20
0.370674984179146
30
0
41
1
10
4.25094611050497
20
0.528472315878588
30
0
41
1
10
4.2509855376328
20
0.841194213429191
30
0
41
1
10
4.25100537643885
20
0.995878111536399
30
0
41
1
10
4.2510453830885
20
1.30189391761337
30
0
41
1
10
4.25106554273839
20
1.45313644876526
30
0
41
1
10
4.25110541789789
20
1.74756957293508
30
0
41
1
10
4.2511450078816
20
2.03518054983957
30
0
41
1
10
4.25118333013495
20
2.30923452092966
30
0
41
1
10
4.25122044414408
20
2.57633247800129
30
0
41
1
10
4.25123816155335
20
2.70474964621704
30
0
41
1
10
4.2512874128916
20
3.07219314927067
30
0
41
1
10
4.25131534180119
20
3.29494348522579
30
0
41
1
10
4.25133474720363
20
3.49538362784531
30
0
0
SPLINE
5
D3
100
AcDbEntity
8
1
62
256
6
ByLayer
370
18
48
1
60
0
100
AcDbSpline
70
4
71
3
72
12
73
8
40
0
40
0
40
0
40
0
40
0.25
40
0.25
40
0.499999999999999
40
0.499999999999999
40
1
40
1
40
1
40
1
41
1
10
61.3795176095642
20
-4.64152519332129
30
0
41
1
10
61.3844840227574
20
-4.62824654483239
30
0
41
1
10
61.389195691373
20
-4.6146490014375
30
0
41
1
10
61.3967349312363
20
-4.59032208058136
30
0
41
1
10
61.3995344940593
20
-4.5796273240947
30
0
41
1
10
61.4040000389372
20
-4.556517188828
30
0
41
1
10
61.4021355071164
20
-4.55250595152765
30
0
41
1
10
61.3979030193822
20
-4.55556767106506
30
0
0
SPLINE
5
D4
100
AcDbEntity
8
1
62
256
6
ByLayer
370
13
48
1
60
0
100
AcDbSpline
70
4
71
3
72
8
73
4
40
0
40
0
40
0
40
0
40
1
40
1
40
1
40
1
41
1
10
4.12344737236558
20
-3.31949343692418
30
0
41
1
10
4.14722932939608
20
-3.31942283277414
30
0
41
1
10
4.17311834269617
20
-3.32513826445768
30
0
41
1
10
4.19976103784859
20
-3.33599736469466
30
0
0
SPLINE
5
D5
100
AcDbEntity
8
1
62
256
6
ByLayer
370
18
48
1
60
0
100
AcDbSpline
70
4
71
3
72
8
73
4
40
0
40
0
40
0
40
0
40
1
40
1
40
1
40
1
41
1
10
61.3979030193823
20
-4.55556767106509
30
0
41
1
10
61.3727172483243
20
-4.57378668837981
30
0
41
1
10
61.3507107899417
20
-4.58296992876245
30
0
41
1
10
61.3319404421783
20
-4.58295596942085
30
0
0
SPLINE
5
D6
100
AcDbEntity
8
1
62
256
6
ByLayer
370
18
48
1
60
0
100
AcDbSpline
70
4
71
3
72
88
73
84
40
0
40
0
40
0
40
0
40
0.0234780184340586
40
0.0234780184340586
40
0.048375324807495
40
0.048375324807495
40
0.0732726311809313
40
0.0732726311809313
40
0.0981699375543676
40
0.0981699375543676
40
0.123067243927804
40
0.123067243927804
40
0.14796455030124
40
0.14796455030124
40
0.172861856674677
40
0.172861856674677
40
0.197759163048113
40
0.197759163048113
40
0.222656469421549
40
0.222656469421549
40
0.247553775794986
40
0.247553775794986
40
0.272451082168422
40
0.272451082168422
40
0.297348388541858
40
0.297348388541858
40
0.322245694915295
40
0.322245694915295
40
0.347143001288731
40
0.347143001288731
40
0.372040307662167
40
0.372040307662167
40
0.396937614035604
40
0.396937614035604
40
0.42183492040904
40
0.42183492040904
40
0.446732226782476
40
0.446732226782476
40
0.471629533155913
40
0.471629533155913
40
0.496526839529349
40
0.496526839529349
40
0.521424145902785
40
0.521424145902785
40
0.546321452276222
40
0.546321452276222
40
0.571218758649658
40
0.571218758649658
40
0.596116065023094
40
0.596116065023094
40
0.621013371396531
40
0.621013371396531
40
0.645910677769967
40
0.645910677769967
40
0.670807984143403
40
0.670807984143403
40
0.69570529051684
40
0.69570529051684
40
0.720602596890276
40
0.720602596890276
40
0.745499903263712
40
0.745499903263712
40
0.770397209637149
40
0.770397209637149
40
0.795294516010585
40
0.795294516010585
40
0.820191822384021
40
0.820191822384021
40
0.845089128757458
40
0.845089128757458
40
0.869986435130894
40
0.869986435130894
40
0.89488374150433
40
0.89488374150433
40
0.919781047877767
40
0.919781047877767
40
0.944678354251203
40
0.944678354251203
40
0.969575660624639
40
0.969575660624639
40
0.994472966998076
40
0.994472966998076
40
1
40
1
40
1
40
1
41
1
10
53.6460169485592
20
-3.49892099930688
30
0
41
1
10
53.4075187333937
20
-3.58776263681881
30
0
41
1
10
53.1684766809404
20
-3.67171346685285
30
0
41
1
10
52.6770469460953
20
-3.83256690432773
30
0
41
1
10
52.4242730719741
20
-3.90910280113945
30
0
41
1
10
51.9190796790039
20
-4.05144259851787
30
0
41
1
10
51.6667944565986
20
-4.11730636644694
30
0
41
1
10
51.161050542615
20
-4.23643704066225
30
0
41
1
10
50.9072618858806
20
-4.2899300202148
30
0
41
1
10
50.4011828675094
20
-4.3835950167767
30
0
41
1
10
50.1492486818177
20
-4.42390910634469
30
0
41
1
10
49.6470332996949
20
-4.48989432630901
30
0
41
1
10
49.3964247192134
20
-4.51516398871257
30
0
41
1
10
48.8956543583096
20
-4.55204890495244
30
0
41
1
10
48.6454547429523
20
-4.56467627686499
30
0
41
1
10
48.1457538964029
20
-4.57701539736783
30
0
41
1
10
47.8962673556108
20
-4.5764664816667
30
0
41
1
10
47.3962472698881
20
-4.56047426728915
30
0
41
1
10
47.1458632094953
20
-4.54575200690422
30
0
41
1
10
46.6443737760197
20
-4.5039253587347
30
0
41
1
10
46.3934427587311
20
-4.47653119369539
30
0
41
1
10
45.890051708497
20
-4.40665110842437
30
0
41
1
10
45.6368856907264
20
-4.36395623340596
30
0
41
1
10
45.1302476621383
20
-4.26729599736561
30
0
41
1
10
44.8777218018506
20
-4.21325685290509
30
0
41
1
10
44.3746817145426
20
-4.09216079137056
30
0
41
1
10
44.1240775071444
20
-4.02479612172417
30
0
41
1
10
43.6230172089896
20
-3.87910428875449
30
0
41
1
10
43.3726768963289
20
-3.80127264639486
30
0
41
1
10
42.8724445591951
20
-3.63463055751035
30
0
41
1
10
42.6227649357011
20
-3.54549205218436
30
0
41
1
10
42.1229536313989
20
-3.35584021285894
30
0
41
1
10
41.8726568494252
20
-3.25606825670391
30
0
41
1
10
41.371190747457
20
-3.04791020750247
30
0
41
1
10
41.1200051487365
20
-2.93926888899762
30
0
41
1
10
40.6167806845299
20
-2.71139176703062
30
0
41
1
10
40.3644691032146
20
-2.59225831502249
30
0
41
1
10
39.8574792696821
20
-2.34722008242184
30
0
41
1
10
39.6045575847056
20
-2.22178788385204
30
0
41
1
10
39.100683432936
20
-1.96495531679099
30
0
41
1
10
38.8498786863748
20
-1.83297106871134
30
0
41
1
10
38.3488302316566
20
-1.56498803056428
30
0
41
1
10
38.0984815559029
20
-1.42939752903555
30
0
41
1
10
37.5981515989577
20
-1.15446693453032
30
0
41
1
10
37.3481541821481
20
-1.01516919318908
30
0
41
1
10
36.8485620000013
20
-0.732607743533436
30
0
41
1
10
36.5986549976791
20
-0.590049367291897
30
0
41
1
10
36.0977381470311
20
-0.304170314024617
30
0
41
1
10
35.8468046868284
20
-0.160556755343265
30
0
41
1
10
35.3437955569027
20
0.127931448699371
30
0
41
1
10
35.0919059968384
20
0.273205380461633
30
0
41
1
10
34.5860870340275
20
0.562736849608314
30
0
41
1
10
34.3322836061706
20
0.70697932852255
30
0
41
1
10
33.826243267732
20
0.991790127686301
30
0
41
1
10
33.5735567164095
20
1.13260104247593
30
0
41
1
10
33.0687524013572
20
1.41142818694738
30
0
41
1
10
32.8162724916631
20
1.54903794023636
30
0
41
1
10
32.3104629764856
20
1.81878272324738
30
0
41
1
10
32.056917688786
20
1.95099344792922
30
0
41
1
10
31.550070418179
20
2.20911764624819
30
0
41
1
10
31.2974091875779
20
2.33562840960954
30
0
41
1
10
30.7918730643429
20
2.58054776040902
30
0
41
1
10
30.5391071958514
20
2.69905285211701
30
0
41
1
10
30.0333600932971
20
2.92659416738397
30
0
41
1
10
29.7804437916017
20
3.03607635698802
30
0
41
1
10
29.2743272492697
20
3.24740067828634
30
0
41
1
10
29.0205583468293
20
3.34870124569505
30
0
41
1
10
28.5155089629121
20
3.53867077129576
30
0
41
1
10
28.2638156223592
20
3.62694196890607
30
0
41
1
10
27.7616473957501
20
3.7941942225348
30
0
41
1
10
27.5113415670261
20
3.87309568060394
30
0
41
1
10
27.0106775473855
20
4.017941594946
30
0
41
1
10
26.7604531506935
20
4.0832325033723
30
0
41
1
10
26.2599505025613
20
4.20229495724894
30
0
41
1
10
26.0098311950442
20
4.25655867229312
30
0
41
1
10
25.5093350918008
20
4.35286673625444
30
0
41
1
10
25.2586181552947
20
4.39445538246775
30
0
41
1
10
24.7556217577302
20
4.46213402412064
30
0
41
1
10
24.5034457492312
20
4.48970828019429
30
0
41
1
10
23.9980736189171
20
4.53305106920232
30
0
41
1
10
23.7444879186294
20
4.5486048357867
30
0
41
1
10
23.4361212961224
20
4.55795762961054
30
0
41
1
10
23.3801417154059
20
4.55925120778736
30
0
41
1
10
23.3241983503647
20
4.56016779682778
30
0
0
SPLINE
5
D7
100
AcDbEntity
8
1
62
256
6
ByLayer
370
18
48
1
60
0
100
AcDbSpline
70
4
71
3
72
16
73
12
40
0
40
0
40
0
40
0
40
0.249999999999998
40
0.249999999999998
40
0.499999999999997
40
0.499999999999997
40
0.749999999999995
40
0.749999999999995
40
0.874999999999998
40
0.874999999999998
40
1
40
1
40
1
40
1
41
1
10
62.306469115457
20
2.33451371231311
30
0
41
1
10
62.2329886424099
20
2.5317825659011
30
0
41
1
10
62.1594306375357
20
2.7288148865205
30
0
41
1
10
62.0119591556546
20
3.12179505855775
30
0
41
1
10
61.9379645567445
20
3.31749542445524
30
0
41
1
10
61.7899178535364
20
3.70872071965022
30
0
41
1
10
61.7158608249926
20
3.90423062613073
30
0
41
1
10
61.6041462180096
20
4.19557634605729
30
0
41
1
10
61.5668058790927
20
4.29237998921471
30
0
41
1
10
61.4921009773679
20
4.48591337363629
30
0
41
1
10
61.4547041436083
20
4.58254466315083
30
0
41
1
10
61.4171163682422
20
4.67859343079488
30
0
0
SPLINE
5
D8
100
AcDbEntity
8
1
62
256
6
ByLayer
370
18
48
1
60
0
100
AcDbSpline
70
4
71
3
72
8
73
4
40
0
40
0
40
0
40
0
40
1
40
1
40
1
40
1
41
1
10
4.00597024959032
20
-3.27298788055958
30
0
41
1
10
4.00349708591193
20
-3.26490492831974
30
0
41
1
10
4.00223742851136
20
-3.25669835897674
30
0
41
1
10
4.00223778652472
20
-3.24836245407781
30
0
0
SPLINE
5
D9
100
AcDbEntity
8
1
62
256
6
ByLayer
370
18
48
1
60
0
100
AcDbSpline
70
4
71
3
72
18
73
14
40
0
40
0
40
0
40
0
40
0.250000000000002
40
0.250000000000002
40
0.375000000000002
40
0.375000000000002
40
0.500000000000001
40
0.500000000000001
40
0.625000000000001
40
0.625000000000001
40
0.750000000000001
40
0.750000000000001
40
1
40
1
40
1
40
1
41
1
10
9.17235796867953
20
0.794209918905779
30
0
41
1
10
8.74648841645998
20
1.03323866210928
30
0
41
1
10
8.32602735730575
20
1.27384650282178
30
0
41
1
10
7.70062198856647
20
1.62986748183045
30
0
41
1
10
7.49305612562921
20
1.74765930921757
30
0
41
1
10
7.07922884182867
20
1.98132559498455
30
0
41
1
10
6.8729793004415
20
2.09716925911619
30
0
41
1
10
6.4616494864494
20
2.32607228169937
30
0
41
1
10
6.2565641968161
20
2.43914559853991
30
0
41
1
10
5.84752870306511
20
2.66204546636965
30
0
41
1
10
5.64333654243919
20
2.77200348779851
30
0
41
1
10
5.03433486323314
20
3.09562126962282
30
0
41
1
10
4.63631080045423
20
3.30102903648478
30
0
41
1
10
4.25133475250018
20
3.49538362889251
30
0
0
SPLINE
5
DA
100
AcDbEntity
8
1
62
256
6
ByLayer
370
18
48
1
60
0
100
AcDbSpline
70
4
71
3
72
24
73
20
40
0
40
0
40
0
40
0
40
0.125
40
0.125
40
0.1875
40
0.1875
40
0.249999999999999
40
0.249999999999999
40
0.374999999999999
40
0.374999999999999
40
0.437500000000001
40
0.437500000000001
40
0.500000000000003
40
0.500000000000003
40
0.750000000000002
40
0.750000000000002
40
0.875000000000001
40
0.875000000000001
40
1
40
1
40
1
40
1
41
1
10
57.4503577656996
20
1.74836375523034
30
0
41
1
10
57.4962666429559
20
1.54016702705468
30
0
41
1
10
57.5606994276809
20
1.33155545358761
30
0
41
1
10
57.681644543615
20
1.01809398270879
30
0
41
1
10
57.7262648234129
20
0.913033594908171
30
0
41
1
10
57.8222106473754
20
0.705176901082496
30
0
41
1
10
57.8733248928915
20
0.602736888663145
30
0
41
1
10
58.035156381775
20
0.299438742989395
30
0
41
1
10
58.1543571070103
20
0.102600004221102
30
0
41
1
10
58.3475510508358
20
-0.18583890317916
30
0
41
1
10
58.4144015314722
20
-0.280871766986849
30
0
41
1
10
58.5507218161977
20
-0.466387702982274
30
0
41
1
10
58.6204126780287
20
-0.557215046545906
30
0
41
1
10
58.975772257852
20
-1.00264247141325
30
0
41
1
10
59.2817421525981
20
-1.33163763379326
30
0
41
1
10
59.7654413691509
20
-1.79392146229057
30
0
41
1
10
59.9303876139265
20
-1.94218940820872
30
0
41
1
10
60.2639790651415
20
-2.22570399304087
30
0
41
1
10
60.4330751938425
20
-2.36139103330868
30
0
41
1
10
60.6042925442659
20
-2.49148064121576
30
0
0
SPLINE
5
DB
100
AcDbEntity
8
1
62
256
6
ByLayer
370
18
48
1
60
0
100
AcDbSpline
70
4
71
3
72
20
73
16
40
0
40
0
40
0
40
0
40
0.249999999999999
40
0.249999999999999
40
0.499999999999997
40
0.499999999999997
40
0.624999999999997
40
0.624999999999997
40
0.749999999999996
40
0.749999999999996
40
0.812499999999996
40
0.812499999999996
40
0.874999999999995
40
0.874999999999995
40
1
40
1
40
1
40
1
41
1
10
61.1031935944013
20
1.41327105801267
30
0
41
1
10
61.2387262105601
20
1.44424070105922
30
0
41
1
10
61.3734273410785
20
1.4798972647375
30
0
41
1
10
61.6365174142668
20
1.56620199998733
30
0
41
1
10
61.7652381103395
20
1.61633284723049
30
0
41
1
10
61.9488809962857
20
1.71491741916381
30
0
41
1
10
62.0076496908466
20
1.75136438064766
30
0
41
1
10
62.1173788259164
20
1.83589915970444
30
0
41
1
10
62.1679999525958
20
1.88387943711166
30
0
41
1
10
62.2303922513345
20
1.96668472805851
30
0
41
1
10
62.2491706479933
20
1.99657134208147
30
0
41
1
10
62.2799316279022
20
2.05894712518202
30
0
41
1
10
62.2920464344294
20
2.09149927126924
30
0
41
1
10
62.3174666037941
20
2.19376157230298
30
0
41
1
10
62.3183657463724
20
2.26517760071042
30
0
41
1
10
62.3064691154565
20
2.33451371231286
30
0
0
SPLINE
5
DC
100
AcDbEntity
8
1
62
256
6
ByLayer
370
18
48
1
60
0
100
AcDbSpline
70
4
71
3
72
86
73
82
40
0
40
0
40
0
40
0
40
0.0150500598491494
40
0.0150500598491494
40
0.0387506660659837
40
0.0387506660659837
40
0.062451272282818
40
0.062451272282818
40
0.0861518784996523
40
0.0861518784996523
40
0.109852484716487
40
0.109852484716487
40
0.133553090933321
40
0.133553090933321
40
0.157253697150155
40
0.157253697150155
40
0.18095430336699
40
0.18095430336699
40
0.204654909583824
40
0.204654909583824
40
0.228355515800658
40
0.228355515800658
40
0.252056122017493
40
0.252056122017493
40
0.275756728234327
40
0.275756728234327
40
0.299457334451161
40
0.299457334451161
40
0.323157940667996
40
0.323157940667996
40
0.34685854688483
40
0.34685854688483
40
0.370559153101664
40
0.370559153101664
40
0.394259759318499
40
0.394259759318499
40
0.441660971752166
40
0.441660971752166
40
0.489062184185834
40
0.489062184185834
40
0.512762790402667
40
0.512762790402667
40
0.5364633966195
40
0.5364633966195
40
0.560164002836334
40
0.560164002836334
40
0.583864609053167
40
0.583864609053167
40
0.60756521527
40
0.60756521527
40
0.631265821486834
40
0.631265821486834
40
0.6786670339205
40
0.6786670339205
40
0.702367640137334
40
0.702367640137334
40
0.726068246354167
40
0.726068246354167
40
0.749768852571
40
0.749768852571
40
0.773469458787834
40
0.773469458787834
40
0.797170065004667
40
0.797170065004667
40
0.8208706712215
40
0.8208706712215
40
0.844571277438334
40
0.844571277438334
40
0.868271883655167
40
0.868271883655167
40
0.891972489872
40
0.891972489872
40
0.915673096088834
40
0.915673096088834
40
0.939373702305667
40
0.939373702305667
40
0.9630743085225
40
0.9630743085225
40
0.986774914739334
40
0.986774914739334
40
1
40
1
40
1
40
1
41
1
10
28.624086738255
20
3.48729225584515
30
0
41
1
10
28.779479088205
20
3.55097647184434
30
0
41
1
10
28.9349616225039
20
3.61283605912396
30
0
41
1
10
29.3353634499096
20
3.76758746895317
30
0
41
1
10
29.5806196496899
20
3.8574482267629
30
0
41
1
10
30.0741700916016
20
4.02511796746634
30
0
41
1
10
30.3222412749891
20
4.1034092223251
30
0
41
1
10
30.8149726476897
20
4.24757929256708
30
0
41
1
10
31.0599653392586
20
4.31389658371148
30
0
41
1
10
31.5490895712409
20
4.4335435701968
30
0
41
1
10
31.7937197766798
20
4.48659600869112
30
0
41
1
10
32.2823861387309
20
4.58000270303225
30
0
41
1
10
32.5264655777809
20
4.62032466881999
30
0
41
1
10
33.0136858439555
20
4.68823402288166
30
0
41
1
10
33.256891427931
20
4.71571455306704
30
0
41
1
10
33.7452907459056
20
4.75694228282399
30
0
41
1
10
33.9900362752123
20
4.77087787661301
30
0
41
1
10
34.4802006334782
20
4.78535200070758
30
0
41
1
10
34.7253943621142
20
4.78586804320963
30
0
41
1
10
35.217221886471
20
4.77295333436146
30
0
41
1
10
35.4651607977637
20
4.75955782420792
30
0
41
1
10
35.9586284273198
20
4.71938310693821
30
0
41
1
10
36.2045409119954
20
4.69262381049307
30
0
41
1
10
36.6943193351983
20
4.62567641074014
30
0
41
1
10
36.9380810646148
20
4.58536077651809
30
0
41
1
10
37.426483125294
20
4.49273779472759
30
0
41
1
10
37.67067912913
20
4.44027562427988
30
0
41
1
10
38.1586276301979
20
4.32288721674496
30
0
41
1
10
38.4022251656299
20
4.25782995823388
30
0
41
1
10
38.8893166513117
20
4.11518383108935
30
0
41
1
10
39.1336404641618
20
4.03830142669176
30
0
41
1
10
39.6235292319001
20
3.87331002308124
30
0
41
1
10
39.8690489792315
20
3.78516044531989
30
0
41
1
10
40.3608655252523
20
3.59682097710765
30
0
41
1
10
40.6075568674363
20
3.49597862927911
30
0
41
1
10
41.3478190064337
20
3.18210740469249
30
0
41
1
10
41.8388313076762
20
2.95645214559966
30
0
41
1
10
42.8139551208994
20
2.47016949866762
30
0
41
1
10
43.3022418675809
20
2.21542180378231
30
0
41
1
10
44.0338140832331
20
1.8133538759021
30
0
41
1
10
44.2771457317306
20
1.67533736467178
30
0
41
1
10
44.7660838379909
20
1.39653638712136
30
0
41
1
10
45.0114185679199
20
1.25535798811805
30
0
41
1
10
45.5033085271246
20
0.968565430921501
30
0
41
1
10
45.7502416904209
20
0.822661927750715
30
0
41
1
10
46.2433901329874
20
0.526949012451183
30
0
41
1
10
46.4892911973287
20
0.379190136924535
30
0
41
1
10
46.9804256380966
20
0.0849490807280802
30
0
41
1
10
47.2254646561316
20
-0.0618745060175456
30
0
41
1
10
47.7140953005776
20
-0.355614315624024
30
0
41
1
10
47.9572930747502
20
-0.503185618437215
30
0
41
1
10
48.6882591961555
20
-0.940017831567076
30
0
41
1
10
49.1768061895087
20
-1.2245135183118
30
0
41
1
10
49.9087763683172
20
-1.64551312731757
30
0
41
1
10
50.1532732568306
20
-1.78381453224887
30
0
41
1
10
50.644601057406
20
-2.05424317887045
30
0
41
1
10
50.8911375318394
20
-2.18684826080138
30
0
41
1
10
51.3855885171947
20
-2.44735839182326
30
0
41
1
10
51.6312524728154
20
-2.57483479606816
30
0
41
1
10
52.1218688603892
20
-2.82001215818698
30
0
41
1
10
52.3669836838057
20
-2.93766602372256
30
0
41
1
10
52.8562032870677
20
-3.16426205930276
30
0
41
1
10
53.1003475610734
20
-3.27314761253638
30
0
41
1
10
53.5872456553547
20
-3.48254519149344
30
0
41
1
10
53.830419948009
20
-3.58250637800126
30
0
41
1
10
54.3181590337456
20
-3.77090345637731
30
0
41
1
10
54.5623529047941
20
-3.85978697868961
30
0
41
1
10
55.0509806427141
20
-4.02726660670302
30
0
41
1
10
55.2950838166602
20
-4.10613508615654
30
0
41
1
10
55.7849645835609
20
-4.25193928229732
30
0
41
1
10
56.0311611648683
20
-4.31857522674179
30
0
41
1
10
56.5253342765561
20
-4.43988900939874
30
0
41
1
10
56.7724932478915
20
-4.49428932860661
30
0
41
1
10
57.2633615135954
20
-4.59011267815882
30
0
41
1
10
57.5077230325779
20
-4.63147828880895
30
0
41
1
10
57.9968513694325
20
-4.70028085662938
30
0
41
1
10
58.2411915687328
20
-4.72796522854048
30
0
41
1
10
58.729011257012
20
-4.77014963791129
30
0
41
1
10
58.972227445522
20
-4.78466445017085
30
0
41
1
10
59.3512203881928
20
-4.79667041699014
30
0
41
1
10
59.4871733134203
20
-4.79885020395429
30
0
41
1
10
59.6232808901513
20
-4.79892951098435
30
0
0
SPLINE
5
DD
100
AcDbEntity
8
1
62
256
6
ByLayer
370
18
48
1
60
0
100
AcDbSpline
70
4
71
3
72
48
73
44
40
0
40
0
40
0
40
0
40
0.034357176456721
40
0.034357176456721
40
0.068714352913442
40
0.068714352913442
40
0.137428705826885
40
0.137428705826885
40
0.171785882283607
40
0.171785882283607
40
0.206143058740328
40
0.206143058740328
40
0.27485741165377
40
0.27485741165377
40
0.343571764567212
40
0.343571764567212
40
0.377928941023932
40
0.377928941023932
40
0.412286117480653
40
0.412286117480653
40
0.549714823307533
40
0.549714823307533
40
0.584071999764253
40
0.584071999764253
40
0.618429176220972
40
0.618429176220972
40
0.687143529134412
40
0.687143529134412
40
0.755857882047853
40
0.755857882047853
40
0.773036470276213
40
0.773036470276213
40
0.790215058504573
40
0.790215058504573
40
0.824572234961294
40
0.824572234961294
40
0.962000940788177
40
0.962000940788177
40
0.979179529016537
40
0.979179529016537
40
0.996358117244898
40
0.996358117244898
40
1
40
1
40
1
40
1
41
1
10
61.3344754472041
20
-4.76174003585592
30
0
41
1
10
61.0346613980439
20
-4.78438320496258
30
0
41
1
10
60.7350476229623
20
-4.79679450632784
30
0
41
1
10
60.1353902348661
20
-4.80119539290834
30
0
41
1
10
59.835014226076
20
-4.79315930793021
30
0
41
1
10
58.9341996706781
20
-4.73843610830735
30
0
41
1
10
58.3361761296817
20
-4.66140390131091
30
0
41
1
10
57.4371304426525
20
-4.4873041253245
30
0
41
1
10
57.1363485982583
20
-4.41932636762664
30
0
41
1
10
56.5370554478534
20
-4.26541312567454
30
0
41
1
10
56.2386800974171
20
-4.17958059894875
30
0
41
1
10
55.345902861138
20
-3.89717656934761
30
0
41
1
10
54.7538548752249
20
-3.67569947508952
30
0
41
1
10
53.5682911833985
20
-3.17512173093141
30
0
41
1
10
52.9746938020933
20
-2.89613279554712
30
0
41
1
10
52.0774060421164
20
-2.44084832656884
30
0
41
1
10
51.776297952294
20
-2.28254975772529
30
0
41
1
10
51.1777189529489
20
-1.9589883710083
30
0
41
1
10
50.8796249683811
20
-1.79342350422169
30
0
41
1
10
49.3925794124356
20
-0.950947384633736
30
0
41
1
10
48.2145181750884
20
-0.229110550834576
30
0
41
1
10
46.7173109812786
20
0.668086313331457
30
0
41
1
10
46.4161827692176
20
0.847358959022301
30
0
41
1
10
45.8180212066052
20
1.19891116919465
30
0
41
1
10
45.5200968495959
20
1.37182917973914
30
0
41
1
10
44.6285496529531
20
1.88016218771026
30
0
41
1
10
44.0364679357581
20
2.20407652444825
30
0
41
1
10
42.8503433797409
20
2.81222519141622
30
0
41
1
10
42.2556720474727
20
3.09555509083793
30
0
41
1
10
41.5061797652754
20
3.41740498226577
30
0
41
1
10
41.3557242573586
20
3.48021102217314
30
0
41
1
10
41.0557114865738
20
3.60162082112575
30
0
41
1
10
40.9060327252508
20
3.6602845004046
30
0
41
1
10
40.4577659425876
20
3.83000733033236
30
0
41
1
10
40.1599815816604
20
3.93484436235886
30
0
41
1
10
38.6744558012353
20
4.4162724260735
30
0
41
1
10
37.4952736596003
20
4.66317990974761
30
0
41
1
10
36.1442527934905
20
4.76063032382893
30
0
41
1
10
35.993805983568
20
4.76893609001033
30
0
41
1
10
35.6940376722075
20
4.780398006132
30
0
41
1
10
35.5444711166718
20
4.78357476180656
30
0
41
1
10
35.3635050736874
20
4.78436224058763
30
0
41
1
10
35.3318623002912
20
4.78438643216634
30
0
41
1
10
35.3002304735905
20
4.78429730275906
30
0
0
SPLINE
5
DE
100
AcDbEntity
8
1
62
256
6
ByLayer
370
18
48
1
60
0
100
AcDbSpline
70
4
71
3
72
18
73
14
40
0
40
0
40
0
40
0
40
0.165099168047779
40
0.165099168047779
40
0.269461772041806
40
0.269461772041806
40
0.373824376035834
40
0.373824376035834
40
0.582549584023889
40
0.582549584023889
40
0.791274792011945
40
0.791274792011945
40
1
40
1
40
1
40
1
41
1
10
12.6768724539173
20
-4.5646905091121
30
0
41
1
10
12.2075436932903
20
-4.64624487906715
30
0
41
1
10
11.7384938861257
20
-4.70391498375568
30
0
41
1
10
10.9702078652778
20
-4.75762041582763
30
0
41
1
10
10.6719656351116
20
-4.76852328385064
30
0
41
1
10
10.073156362819
20
-4.77008633339204
30
0
41
1
10
9.77160640064426
20
-4.76064610284644
30
0
41
1
10
8.87237955336241
20
-4.70213865329805
30
0
41
1
10
8.27849545203176
20
-4.62317940314389
30
0
41
1
10
7.09395025018563
20
-4.39109626041164
30
0
41
1
10
6.50343334382853
20
-4.23786456643279
30
0
41
1
10
5.31773012125376
20
-3.86287410658869
30
0
41
1
10
4.72254028398126
20
-3.64120752095028
30
0
41
1
10
4.12148111785973
20
-3.38757704557543
30
0
0
SPLINE
5
DF
100
AcDbEntity
8
1
62
256
6
ByLayer
370
18
48
1
60
0
100
AcDbSpline
70
4
71
3
72
16
73
12
40
0
40
0
40
0
40
0
40
0.176966939345123
40
0.176966939345123
40
0.35252520677629
40
0.35252520677629
40
0.528083474207458
40
0.528083474207458
40
0.879200009069788
40
0.879200009069788
40
1
40
1
40
1
40
1
41
1
10
35.5491860777677
20
-4.56763939465179
30
0
41
1
10
35.2495007994026
20
-4.56793071273503
30
0
41
1
10
34.949082026875
20
-4.55850527960834
30
0
41
1
10
34.3482578953119
20
-4.52008314666267
30
0
41
1
10
34.0476019759931
20
-4.49115289856712
30
0
41
1
10
33.4475609499071
20
-4.41441436547746
30
0
41
1
10
33.1476467172022
20
-4.36659012766643
30
0
41
1
10
32.2468809837
20
-4.19523258430394
30
0
41
1
10
31.648198593996
20
-4.04460065278695
30
0
41
1
10
30.8419813317237
20
-3.79735219303947
30
0
41
1
10
30.6352754083806
20
-3.73004058840417
30
0
41
1
10
30.429011297516
20
-3.65922040591099
30
0
0
SPLINE
5
E0
100
AcDbEntity
8
1
62
256
6
ByLayer
370
13
48
1
60
0
100
AcDbSpline
70
4
71
3
72
24
73
20
40
0
40
0
40
0
40
0
40
0.0243795245799536
40
0.0243795245799536
40
0.102541719881201
40
0.102541719881201
40
0.41519050108619
40
0.41519050108619
40
0.493352696387436
40
0.493352696387436
40
0.571514891688683
40
0.571514891688683
40
0.727839282291176
40
0.727839282291176
40
0.884163672893669
40
0.884163672893669
40
0.962325868194914
40
0.962325868194914
40
1
40
1
40
1
40
1
41
1
10
30.4290112971114
20
-3.65922040577206
30
0
41
1
10
30.3355123894405
20
-3.62711782778669
30
0
41
1
10
30.2421042645992
20
-3.59429431356591
30
0
41
1
10
29.8499093540264
20
-3.45340534720029
30
0
41
1
10
29.5521175903511
20
-3.33885859474137
30
0
41
1
10
28.0663125122558
20
-2.73385500474268
30
0
41
1
10
26.8876437249668
20
-2.14685185085608
30
0
41
1
10
25.3912424294324
20
-1.33589733323231
30
0
41
1
10
25.0903552540244
20
-1.16971982479481
30
0
41
1
10
24.4924534733361
20
-0.835456025091105
30
0
41
1
10
24.1946364294133
20
-0.666785149771016
30
0
41
1
10
23.3031437217973
20
-0.158715479773349
30
0
41
1
10
22.711247741788
20
0.182420938657685
30
0
41
1
10
21.5254954828228
20
0.857403719934041
30
0
41
1
10
20.9315048098401
20
1.19101896295277
30
0
41
1
10
20.0334812840218
20
1.67608765764359
30
0
41
1
10
19.7325176056358
20
1.83535982508158
30
0
41
1
10
19.2894047376252
20
2.06358386656399
30
0
41
1
10
19.14554850483
20
2.13669933856337
30
0
41
1
10
19.0018961728187
20
2.20862675114523
30
0
0
SPLINE
5
E1
100
AcDbEntity
8
1
62
256
6
ByLayer
370
18
48
1
60
0
100
AcDbSpline
70
2053
71
3
72
62
73
58
40
0
40
0
40
0
40
0
40
0.03125
40
0.03125
40
0.0625000000000001
40
0.0625000000000001
40
0.0937500000000001
40
0.0937500000000001
40
0.125
40
0.125
40
0.15625
40
0.15625
40
0.187500000000001
40
0.187500000000001
40
0.218750000000001
40
0.218750000000001
40
0.250000000000001
40
0.250000000000001
40
0.281250000000001
40
0.281250000000001
40
0.312500000000001
40
0.312500000000001
40
0.375000000000001
40
0.375000000000001
40
0.437500000000001
40
0.437500000000001
40
0.468750000000002
40
0.468750000000002
40
0.500000000000002
40
0.500000000000002
40
0.531250000000002
40
0.531250000000002
40
0.562500000000002
40
0.562500000000002
40
0.593750000000002
40
0.593750000000002
40
0.625000000000002
40
0.625000000000002
40
0.656250000000002
40
0.656250000000002
40
0.687500000000002
40
0.687500000000002
40
0.718750000000002
40
0.718750000000002
40
0.750000000000002
40
0.750000000000002
40
0.812500000000004
40
0.812500000000004
40
0.843750000000003
40
0.843750000000003
40
0.875000000000002
40
0.875000000000002
40
0.906250000000002
40
0.906250000000002
40
0.937500000000001
40
0.937500000000001
40
1
40
1
40
1
40
1
41
1
10
61.9306276105186
20
-2.29483103784512
30
0
41
1
10
61.9533330080612
20
-2.26185709623397
30
0
41
1
10
61.9755353485319
20
-2.22660431325988
30
0
41
1
10
62.018855586186
20
-2.15118623465986
30
0
41
1
10
62.0402031975239
20
-2.11053619807669
30
0
41
1
10
62.080351341803
20
-2.02591838038595
30
0
41
1
10
62.0990815441611
20
-1.98221190466739
30
0
41
1
10
62.1334721255013
20
-1.89160646872315
30
0
41
1
10
62.1487966420442
20
-1.84543061994984
30
0
41
1
10
62.1742314775221
20
-1.75500833218163
30
0
41
1
10
62.1846563552377
20
-1.70947776622319
30
0
41
1
10
62.1992642595633
20
-1.6240481140168
30
0
41
1
10
62.2035978916835
20
-1.58377272086733
30
0
41
1
10
62.2063125977996
20
-1.50940009988724
30
0
41
1
10
62.2046905719867
20
-1.47641226600859
30
0
41
1
10
62.1961556359044
20
-1.41789239880703
30
0
41
1
10
62.1892585865511
20
-1.39286285960571
30
0
41
1
10
62.1712816005235
20
-1.35139184115712
30
0
41
1
10
62.160043528896
20
-1.33466390897218
30
0
41
1
10
62.1344429969758
20
-1.30952326647636
30
0
41
1
10
62.1200415727452
20
-1.30092752995415
30
0
41
1
10
62.072452981275
20
-1.28602359580739
30
0
41
1
10
62.0360358527598
20
-1.29072707004312
30
0
41
1
10
61.9559656843883
20
-1.32604859949257
30
0
41
1
10
61.9136143827395
20
-1.35606095142518
30
0
41
1
10
61.847094413657
20
-1.41932018635981
30
0
41
1
10
61.8243957091269
20
-1.44357904147003
30
0
41
1
10
61.7794439667599
20
-1.49704052639646
30
0
41
1
10
61.7569987092743
20
-1.52640868527962
30
0
41
1
10
61.7121751802974
20
-1.59091594788075
30
0
41
1
10
61.6895461322469
20
-1.62649527422047
30
0
41
1
10
61.6458285072164
20
-1.70211608228414
30
0
41
1
10
61.6247589460834
20
-1.74202693673132
30
0
41
1
10
61.5844234630071
20
-1.8266487065072
30
0
41
1
10
61.5652639338125
20
-1.87127209046534
30
0
41
1
10
61.5310254811134
20
-1.96140003420288
30
0
41
1
10
61.5155011511582
20
-2.0081539222831
30
0
41
1
10
61.4899547243891
20
-2.09925378231213
30
0
41
1
10
61.4798053988388
20
-2.14370589828039
30
0
41
1
10
61.4650537696933
20
-2.23028929983016
30
0
41
1
10
61.4608016788378
20
-2.27037732020594
30
0
41
1
10
61.4580598272095
20
-2.34450695765636
30
0
41
1
10
61.4596597596849
20
-2.37819058407621
30
0
41
1
10
61.4680212850699
20
-2.43673533441918
30
0
41
1
10
61.4748708288183
20
-2.46219681751552
30
0
41
1
10
61.5015940539391
20
-2.52513480925168
30
0
41
1
10
61.5279607820047
20
-2.55046708736057
30
0
41
1
10
61.5751364373013
20
-2.56586284964086
30
0
41
1
10
61.592369853611
20
-2.56729789490654
30
0
41
1
10
61.6286410263552
20
-2.56315082685597
30
0
41
1
10
61.6476779519531
20
-2.55763724109821
30
0
41
1
10
61.6874649789112
20
-2.54007156212677
30
0
41
1
10
61.7083831447804
20
-2.52788455834448
30
0
41
1
10
61.7509994879703
20
-2.49745153766062
30
0
41
1
10
61.7726932602073
20
-2.47926399592944
30
0
41
1
10
61.8389346604739
20
-2.41576299180718
30
0
41
1
10
61.8852168154332
20
-2.36077892106744
30
0
41
1
10
61.9306276105185
20
-2.29483103784512
30
0
0
SPLINE
5
E2
100
AcDbEntity
8
1
62
256
6
ByLayer
370
18
48
1
60
0
100
AcDbSpline
70
4
71
3
72
18
73
14
40
0
40
0
40
0
40
0
40
0.25
40
0.25
40
0.5
40
0.5
40
0.625
40
0.625
40
0.75
40
0.75
40
0.875
40
0.875
40
1
40
1
40
1
40
1
41
1
10
60.9620268164397
20
1.11617002590072
30
0
41
1
10
60.9543065829867
20
1.14514074899893
30
0
41
1
10
60.9499410408833
20
1.17476929400638
30
0
41
1
10
60.9498154345122
20
1.23578299385264
30
0
41
1
10
60.954077174961
20
1.26675659234206
30
0
41
1
10
60.9700487404064
20
1.31141413471457
30
0
41
1
10
60.9768202979349
20
1.32560503174616
30
0
41
1
10
60.9947632487145
20
1.35175656019774
30
0
41
1
10
61.0056984098455
20
1.36354061750825
30
0
41
1
10
61.0302456245236
20
1.38349035819323
30
0
41
1
10
61.0441188728373
20
1.39185077671252
30
0
41
1
10
61.0727608360194
20
1.40488073358847
30
0
41
1
10
61.087722143909
20
1.40973578131886
30
0
41
1
10
61.1031935944013
20
1.41327105801267
30
0
0
SPLINE
5
E3
100
AcDbEntity
8
1
62
256
6
ByLayer
370
18
48
1
60
0
100
AcDbSpline
70
4
71
3
72
36
73
32
40
0
40
0
40
0
40
0
40
0.0160479076404486
40
0.0160479076404486
40
0.327655697804392
40
0.327655697804392
40
0.483459592886364
40
0.483459592886364
40
0.639263487968335
40
0.639263487968335
40
0.717165435509322
40
0.717165435509322
40
0.73664092239457
40
0.73664092239457
40
0.746378665837194
40
0.746378665837194
40
0.751247537558506
40
0.751247537558506
40
0.756116409279817
40
0.756116409279817
40
0.795067383050312
40
0.795067383050312
40
0.872969330591301
40
0.872969330591301
40
0.911920304361795
40
0.911920304361795
40
0.950871278132288
40
0.950871278132288
40
0.989822251902782
40
0.989822251902782
40
1
40
1
40
1
40
1
41
1
10
8.55847603576177
20
-4.76820968621831
30
0
41
1
10
8.5229862224202
20
-4.76811811607166
30
0
41
1
10
8.48745797730842
20
-4.76797395051662
30
0
41
1
10
7.76126738224917
20
-4.76399736107916
30
0
41
1
10
7.05589074203846
20
-4.74145630906338
30
0
41
1
10
5.97140532412601
20
-4.7035999912093
30
0
41
1
10
5.6077693433993
20
-4.69038571216475
30
0
41
1
10
4.87592858988325
20
-4.66618981863917
30
0
41
1
10
4.50769792833438
20
-4.65521725596705
30
0
41
1
10
3.95407395058174
20
-4.64239789076035
30
0
41
1
10
3.76922648741765
20
-4.63872029733764
30
0
41
1
10
3.53777484886575
20
-4.63500474727755
30
0
41
1
10
3.4914648976237
20
-4.63430555883485
30
0
41
1
10
3.42197032723655
20
-4.63332477671031
30
0
41
1
10
3.39854501179113
20
-4.63323157515978
30
0
41
1
10
3.36333344968997
20
-4.63448854099616
30
0
41
1
10
3.3520037945454
20
-4.63509698400074
30
0
41
1
10
3.33034994431426
20
-4.63677221347078
30
0
41
1
10
3.32024885354241
20
-4.63794121635269
30
0
41
1
10
3.23071703826255
20
-4.64900315553118
30
0
41
1
10
3.15205782768857
20
-4.65879802664054
30
0
41
1
10
2.92165393964686
20
-4.68746065261107
30
0
41
1
10
2.77543238582041
20
-4.70565980387175
30
0
41
1
10
2.57202571508043
20
-4.72931945703388
30
0
41
1
10
2.50690603309351
20
-4.73658724913028
30
0
41
1
10
2.38350927719398
20
-4.74920579745563
30
0
41
1
10
2.32523157210341
20
-4.7545423594666
30
0
41
1
10
2.22105889318828
20
-4.76205608180632
30
0
41
1
10
2.1746845141746
20
-4.76429065208137
30
0
41
1
10
2.12502638135567
20
-4.76445683156314
30
0
41
1
10
2.11523152643468
20
-4.76434429022129
30
0
41
1
10
2.10599712140612
20
-4.76407824696551
30
0
0
SPLINE
5
E4
100
AcDbEntity
8
1
62
256
6
ByLayer
370
18
48
1
60
0
100
AcDbSpline
70
4
71
3
72
8
73
4
40
0
40
0
40
0
40
0
40
1
40
1
40
1
40
1
41
1
10
61.3344754472041
20
-4.76174003585592
30
0
41
1
10
61.3495052548533
20
-4.72169761577467
30
0
41
1
10
61.3645197688506
20
-4.6816247676868
30
0
41
1
10
61.3795176095794
20
-4.64152519332936
30
0
0
SPLINE
5
E5
100
AcDbEntity
8
1
62
256
6
ByLayer
370
18
48
1
60
0
100
AcDbSpline
70
4
71
3
72
36
73
32
40
0
40
0
40
0
40
0
40
0.125000000000007
40
0.125000000000007
40
0.250000000000013
40
0.250000000000013
40
0.37500000000002
40
0.37500000000002
40
0.500000000000027
40
0.500000000000027
40
0.625000000000034
40
0.625000000000034
40
0.687500000000035
40
0.687500000000035
40
0.718750000000032
40
0.718750000000032
40
0.750000000000029
40
0.750000000000029
40
0.812500000000019
40
0.812500000000019
40
0.843750000000015
40
0.843750000000015
40
0.875000000000012
40
0.875000000000012
40
0.906250000000009
40
0.906250000000009
40
0.937500000000006
40
0.937500000000006
40
0.968750000000003
40
0.968750000000003
40
1
40
1
40
1
40
1
41
1
10
57.4503577657001
20
1.74836375523071
30
0
41
1
10
57.6176410767446
20
1.61333324643246
30
0
41
1
10
57.7872374973693
20
1.48426629363652
30
0
41
1
10
58.1307195539029
20
1.24158972856029
30
0
41
1
10
58.304576370698
20
1.12792304483796
30
0
41
1
10
58.6540476269933
20
0.919668327693074
30
0
41
1
10
58.8298040683467
20
0.825001064116549
30
0
41
1
10
59.1836159769446
20
0.656972103175264
30
0
41
1
10
59.3596777481927
20
0.584680459571473
30
0
41
1
10
59.7079634503173
20
0.46654547571552
30
0
41
1
10
59.880493449297
20
0.420543378427766
30
0
41
1
10
60.1365071314494
20
0.37407112401641
30
0
41
1
10
60.2213821565069
20
0.362329982402912
30
0
41
1
10
60.3479291747782
20
0.350919590029292
30
0
41
1
10
60.3900618123969
20
0.34814915505612
30
0
41
1
10
60.4736523762851
20
0.344793508517313
30
0
41
1
10
60.5152678021883
20
0.343626961137602
30
0
41
1
10
60.6363298094001
20
0.350884846273345
30
0
41
1
10
60.713933651602
20
0.367653675811795
30
0
41
1
10
60.8158552760765
20
0.416440862296497
30
0
41
1
10
60.8475553981148
20
0.436621287160364
30
0
41
1
10
60.904744640941
20
0.487438131993315
30
0
41
1
10
60.9292294808081
20
0.517260386141061
30
0
41
1
10
60.9683151972528
20
0.587520093884024
30
0
41
1
10
60.9828753589937
20
0.628229143723161
30
0
41
1
10
61.0017351230505
20
0.714959991993709
30
0
41
1
10
61.006312647793
20
0.761900983892303
30
0
41
1
10
61.0066392228416
20
0.859420899377028
30
0
41
1
10
61.0024867535612
20
0.909431182087701
30
0
41
1
10
60.9872236887992
20
1.01146759764055
30
0
41
1
10
60.9759713124864
20
1.06384231636088
30
0
41
1
10
60.9620268164397
20
1.11617002590072
30
0
0
SPLINE
5
E6
100
AcDbEntity
8
SK1
62
256
6
ByLayer
370
18
48
1
60
0
100
AcDbSpline
70
4
71
3
72
10
73
6
40
0
40
0
40
0
40
0
40
0.5
40
0.5
40
1
40
1
40
1
40
1
41
1
10
-39.9999999999999
20
-2.93138539848053
30
0
41
1
10
-39.8301257758578
20
-3.19020861895541
30
0
41
1
10
-39.6563253118241
20
-3.44745352006709
30
0
41
1
10
-39.3053898261476
20
-3.96060285482343
30
0
41
1
10
-39.1281394681189
20
-4.21647553397622
30
0
41
1
10
-38.95
20
-4.47195469063837
30
0
0
SPLINE
5
E7
100
AcDbEntity
8
SK1
62
256
6
ByLayer
370
18
48
1
60
0
100
AcDbSpline
70
4
71
3
72
14
73
10
40
0
40
0
40
0
40
0
40
0.499999999999999
40
0.499999999999999
40
0.750000000000002
40
0.750000000000002
40
0.875000000000001
40
0.875000000000001
40
1
40
1
40
1
40
1
41
1
10
-38.9500000000001
20
-4.47195469063846
30
0
41
1
10
-38.9287234691649
20
-4.50246847970419
30
0
41
1
10
-38.9083432483059
20
-4.5293351409164
30
0
41
1
10
-38.880223151313
20
-4.56115691474727
30
0
41
1
10
-38.8713218079587
20
-4.57023385888195
30
0
41
1
10
-38.8602667834558
20
-4.57852251004863
30
0
41
1
10
-38.8569157654531
20
-4.58043450660466
30
0
41
1
10
-38.851744720606
20
-4.58090995270183
30
0
41
1
10
-38.8499999999999
20
-4.57937559624045
30
0
41
1
10
-38.8499999999999
20
-4.57495113075626
30
0
0
SPLINE
5
E8
100
AcDbEntity
8
SK1
62
256
6
ByLayer
370
18
48
1
60
0
100
AcDbSpline
70
4
71
3
72
14
73
10
40
0
40
0
40
0
40
0
40
0.124999999999999
40
0.124999999999999
40
0.249999999999999
40
0.249999999999999
40
0.499999999999997
40
0.499999999999997
40
1
40
1
40
1
40
1
41
1
10
-38.85
20
-3.19392027559022
30
0
41
1
10
-38.85
20
-3.18544127471898
30
0
41
1
10
-38.8517453396944
20
-3.17513574001222
30
0
41
1
10
-38.8568901241517
20
-3.1543358316942
30
0
41
1
10
-38.860211966304
20
-3.14393339471013
30
0
41
1
10
-38.8714485682308
20
-3.11272189010583
30
0
41
1
10
-38.8802054040538
20
-3.09299233281615
30
0
41
1
10
-38.9082792076556
20
-3.03565583132684
30
0
41
1
10
-38.9286347141249
20
-3.00147527321758
30
0
41
1
10
-38.95
20
-2.97083419589282
30
0
0
SPLINE
5
E9
100
AcDbEntity
8
SK1
62
256
6
ByLayer
370
18
48
1
60
0
100
AcDbSpline
70
4
71
3
72
10
73
6
40
0
40
0
40
0
40
0
40
0.5
40
0.5
40
1
40
1
40
1
40
1
41
1
10
-38.95
20
-2.97083419589282
30
0
41
1
10
-39.1281002653425
20
-2.71541126198889
30
0
41
1
10
-39.3053068773952
20
-2.45960247159272
30
0
41
1
10
-39.6562276857791
20
-1.94647695556978
30
0
41
1
10
-39.8300482945171
20
-1.68920617608163
30
0
41
1
10
-40
20
-1.43026490373478
30
0
0
LINE
5
76
100
AcDbEntity
8
81
62
256
6
ByLayer
370
18
48
1
60
0
100
AcDbLine
10
63
20
0
30
0
11
68
21
0
31
0
39
0
210
0
220
0
230
1
0
LINE
5
77
100
AcDbEntity
8
1
62
256
6
ByLayer
370
18
48
1
60
0
100
AcDbLine
10
2.136425
20
4.764432
30
0
11
0.365237
21
4.763369
31
0
39
0
210
0
220
0
230
1
0
LINE
5
79
100
AcDbEntity
8
1
62
256
6
ByLayer
370
18
48
1
60
0
100
AcDbLine
10
10.329583
20
4.769347
30
0
11
8.58651
21
4.768302
31
0
39
0
210
0
220
0
230
1
0
LINE
5
7A
100
AcDbEntity
8
1
62
256
6
ByLayer
370
18
48
1
60
0
100
AcDbLine
10
35.32933
20
4.784347
30
0
11
34.617848
21
4.78392
31
0
39
0
210
0
220
0
230
1
0
LINE
5
7B
100
AcDbEntity
8
1
62
256
6
ByLayer
370
18
48
1
60
0
100
AcDbLine
10
60.329791
20
4.799348
30
0
11
59.625356
21
4.798925
31
0
39
0
210
0
220
0
230
1
0
LINE
5
7C
100
AcDbEntity
8
1
62
256
6
ByLayer
370
18
48
1
60
0
100
AcDbLine
10
59.625356
20
-4.798925
30
0
11
60.329613
21
-4.799347
31
0
39
0
210
0
220
0
230
1
0
LINE
5
7D
100
AcDbEntity
8
1
62
256
6
ByLayer
370
18
48
1
60
0
100
AcDbLine
10
34.617848
20
-4.78392
30
0
11
35.32929
21
-4.784347
31
0
39
0
210
0
220
0
230
1
0
LINE
5
7E
100
AcDbEntity
8
1
62
256
6
ByLayer
370
18
48
1
60
0
100
AcDbLine
10
8.58651
20
-4.768302
30
0
11
10.329636
21
-4.769347
31
0
39
0
210
0
220
0
230
1
0
LINE
5
7F
100
AcDbEntity
8
1
62
256
6
ByLayer
370
18
48
1
60
0
100
AcDbLine
10
0.365237
20
-4.763369
30
0
11
2.136425
21
-4.764432
31
0
39
0
210
0
220
0
230
1
0
LINE
5
80
100
AcDbEntity
8
SK1
62
256
6
ByLayer
370
18
48
1
60
0
100
AcDbLine
10
-38.845299
20
5
30
0
11
-40
21
3
31
0
39
0
210
0
220
0
230
1
0
LINE
5
82
100
AcDbEntity
8
SK1
62
256
6
ByLayer
370
18
48
1
60
0
100
AcDbLine
10
-40
20
-3
30
0
11
-38.845299
21
-5
31
0
39
0
210
0
220
0
230
1
0
LINE
5
83
100
AcDbEntity
8
SK1
62
256
6
ByLayer
370
18
48
1
60
0
100
AcDbLine
10
0
20
5
30
0
11
-38.845299
21
5
31
0
39
0
210
0
220
0
230
1
0
LINE
5
84
100
AcDbEntity
8
SK1
62
256
6
ByLayer
370
18
48
1
60
0
100
AcDbLine
10
-38.845299
20
-5
30
0
11
0
21
-5
31
0
39
0
210
0
220
0
230
1
0
LINE
5
85
100
AcDbEntity
8
SK4
62
256
6
ByLayer
370
18
48
0.05
60
0
100
AcDbLine
10
68
20
0
30
0
11
-45
21
0
31
0
39
0
210
0
220
0
230
1
0
LINE
5
87
100
AcDbEntity
8
4
62
256
6
ByLayer
370
18
48
0.05
60
0
100
AcDbLine
10
63
20
0
30
0
11
0
21
0
31
0
39
0
210
0
220
0
230
1
0
LINE
5
89
100
AcDbEntity
8
80
62
256
6
ByLayer
370
18
48
1
60
0
100
AcDbLine
10
0
20
0
30
0
11
-5
21
0
31
0
39
0
210
0
220
0
230
1
0
LINE
5
8A
100
AcDbEntity
8
1
62
256
6
ByLayer
370
18
48
1
60
0
100
AcDbLine
10
35.55565
20
0.006559
30
0
11
35.547731
21
0.010925
31
0
39
0
210
0
220
0
230
1
0
LINE
5
8B
100
AcDbEntity
8
1
62
256
6
ByLayer
370
18
48
1
60
0
100
AcDbLine
10
10.531729
20
0.021026
30
0
11
10.525318
21
0.024663
31
0
39
0
210
0
220
0
230
1
0
LINE
5
8C
100
AcDbEntity
8
1
62
256
6
ByLayer
370
18
48
1
60
0
100
AcDbLine
10
63
20
0
30
0
11
62.990577
21
-0.046911
31
0
39
0
210
0
220
0
230
1
0
LINE
5
8D
100
AcDbEntity
8
1
62
256
6
ByLayer
370
13
48
1
60
0
100
AcDbLine
10
61.9603
20
0.876681
30
0
11
62.913679
21
0.31101
31
0
39
0
210
0
220
0
230
1
0
LINE
5
8E
100
AcDbEntity
8
1
62
256
6
ByLayer
370
18
48
1
60
0
100
AcDbLine
10
0
20
-5
30
0
11
0
21
5
31
0
39
0
210
0
220
0
230
1
0
LINE
5
8F
100
AcDbEntity
8
1
62
256
6
ByLayer
370
18
48
1
60
0
100
AcDbLine
10
62.990577
20
0.046911
30
0
11
63
21
0
31
0
39
0
210
0
220
0
230
1
0
LINE
5
90
100
AcDbEntity
8
1
62
256
6
ByLayer
370
13
48
1
60
0
100
AcDbLine
10
62.771062
20
0.876681
30
0
11
61.9603
21
0.876681
31
0
39
0
210
0
220
0
230
1
0
LINE
5
91
100
AcDbEntity
8
1
62
256
6
ByLayer
370
18
48
1
60
0
100
AcDbLine
10
60.604293
20
-2.491481
30
0
11
62.894529
21
-0.125635
31
0
39
0
210
0
220
0
230
1
0
LINE
5
92
100
AcDbEntity
8
1
62
256
6
ByLayer
370
18
48
1
60
0
100
AcDbLine
10
62.913679
20
-0.31101
30
0
11
62.771062
21
-0.876681
31
0
39
0
210
0
220
0
230
1
0
LINE
5
93
100
AcDbEntity
8
1
62
256
6
ByLayer
370
13
48
1
60
0
100
AcDbLine
10
0.365237
20
4.763369
30
0
11
0.365237
21
-4.763369
31
0
39
0
210
0
220
0
230
1
0
LINE
5
94
100
AcDbEntity
8
1
62
256
6
ByLayer
370
18
48
1
60
0
100
AcDbLine
10
62.913679
20
0.31101
30
0
11
62.771062
21
0.876681
31
0
39
0
210
0
220
0
230
1
0
LINE
5
95
100
AcDbEntity
8
1
62
256
6
ByLayer
370
18
48
1
60
0
100
AcDbLine
10
63
20
0
30
0
11
61.33194
21
-4.582956
31
0
39
0
210
0
220
0
230
1
0
LINE
5
96
100
AcDbEntity
8
1
62
256
6
ByLayer
370
13
48
1
60
0
100
AcDbLine
10
61.770394
20
0.541351
30
0
11
62.894529
21
-0.125635
31
0
39
0
210
0
220
0
230
1
0
LINE
5
97
100
AcDbEntity
8
1
62
256
6
ByLayer
370
13
48
1
60
0
100
AcDbLine
10
0.182559
20
4.881684
30
0
11
0.182559
21
-4.881684
31
0
39
0
210
0
220
0
230
1
0
LINE
5
98
100
AcDbEntity
8
SK1
62
256
6
ByLayer
370
18
48
1
60
0
100
AcDbLine
10
-40
20
-1.430228
30
0
11
-40
21
-2.931385
31
0
39
0
210
0
220
0
230
1
0
LINE
5
99
100
AcDbEntity
8
SK1
62
256
6
ByLayer
370
18
48
1
60
0
100
AcDbLine
10
-40
20
-3
30
0
11
-40
21
-2.931385
31
0
39
0
210
0
220
0
230
1
0
LINE
5
9A
100
AcDbEntity
8
SK1
62
256
6
ByLayer
370
18
48
1
60
0
100
AcDbLine
10
-40
20
3
30
0
11
-40
21
-1.430265
31
0
39
0
210
0
220
0
230
1
0
LINE
5
9B
100
AcDbEntity
8
SK1
62
256
6
ByLayer
370
13
48
1
60
0
100
AcDbLine
10
-38.95
20
-2.970721
30
0
11
-38.95
21
-4.471955
31
0
39
0
210
0
220
0
230
1
0
LINE
5
9C
100
AcDbEntity
8
SK1
62
256
6
ByLayer
370
18
48
1
60
0
100
AcDbLine
10
0
20
-5
30
0
11
0
21
5
31
0
39
0
210
0
220
0
230
1
0
LINE
5
9D
100
AcDbEntity
8
SK1
62
256
6
ByLayer
370
18
48
1
60
0
100
AcDbLine
10
-38.85
20
-4.574951
30
0
11
-38.85
21
-3.19392
31
0
39
0
210
0
220
0
230
1
0
LINE
5
9E
100
AcDbEntity
8
SK1
62
256
6
ByLayer
370
18
48
1
60
0
100
AcDbLine
10
-38.845299
20
5
30
0
11
-38.845299
21
-5
31
0
39
0
210
0
220
0
230
1
0
MTEXT
5
EA
100
AcDbEntity
8
SK6
62
256
6
ByLayer
370
13
48
1
60
0
100
AcDbMText
10
13.629169
20
37.182694
30
0
210
0
220
0
230
1
1
\W0.7542;R840-0960-50-A1A1220
40
3.5
41
0
44
1.084337
50
0
71
8
72
5
7
iso_b_vert
0
DIMENSION
5
F7
100
AcDbEntity
8
SK2
62
256
6
ByLayer
370
13
48
1
60
0
100
AcDbDimension
2
DimnDraft3D1
10
61.36
20
-15.013398
30
0
11
29.110059
21
-15.013398
31
0
70
32
71
5
72
1
41
1
210
0
220
0
230
1
3
Standard
100
AcDbAlignedDimension
13
0
23
-1.5875
33
0
14
61.36
24
-6.3875
34
0
50
0
100
AcDbRotatedDimension
1001
ACAD
1000
DSTYLE
1002
{
1070
   279
1070
     0
1070
   172
1070
     1
1070
   173
1070
     1
1070
   340
1005
EB
1070
   271
1070
     2
1070
   272
1070
     2
1070
    77
1070
     1
1070
    73
1070
     0
1070
   171
1070
     3
1070
   274
1070
     4
1070
   177
1070
    35
1070
   176
1070
    35
1070
   178
1070
    35
1070
    48
1040
-0.005
1070
    41
1041
3.5
1070
   147
1041
1.75
1070
    42
1041
1.5875
1070
    44
1041
2.0
1070
   140
1041
3.5
1070
   343
1005
0
1070
   344
1005
0
1002
}
0
DIMENSION
5
101
100
AcDbEntity
8
SK2
62
256
6
ByLayer
370
13
48
1
60
0
100
AcDbDimension
2
DimnDraft3D2
10
63
20
-33.692985
30
0
11
11.2013
21
-33.692985
31
0
70
32
71
5
72
1
41
1
210
0
220
0
230
1
3
Standard
100
AcDbAlignedDimension
13
-40
23
-6.5875
33
0
14
63
24
-1.5875
34
0
50
0
100
AcDbRotatedDimension
1001
ACAD
1000
DSTYLE
1002
{
1070
   279
1070
     0
1070
   172
1070
     1
1070
   173
1070
     1
1070
   340
1005
EB
1070
   271
1070
     2
1070
   272
1070
     2
1070
    77
1070
     1
1070
    73
1070
     0
1070
   171
1070
     3
1070
   274
1070
     4
1070
   177
1070
    35
1070
   176
1070
    35
1070
   178
1070
    35
1070
    48
1040
-0.005
1070
    41
1041
3.5
1070
   147
1041
1.75
1070
    42
1041
1.5875
1070
    44
1041
2.0
1070
   140
1041
3.5
1070
   343
1005
0
1070
   344
1005
0
1002
}
0
DIMENSION
5
10B
100
AcDbEntity
8
SK2
62
256
6
ByLayer
370
13
48
1
60
0
100
AcDbDimension
2
DimnDraft3D3
10
63
20
16.409119
30
0
11
38.18
21
16.409119
31
0
70
32
71
5
72
1
41
1
210
0
220
0
230
1
3
Standard
100
AcDbAlignedDimension
13
13.36
23
6.3875
33
0
14
63
24
1.5875
34
0
50
0
100
AcDbRotatedDimension
1001
ACAD
1000
DSTYLE
1002
{
1070
   279
1070
     0
1070
   172
1070
     1
1070
   173
1070
     1
1070
   340
1005
EB
1070
   271
1070
     2
1070
   272
1070
     2
1070
    77
1070
     1
1070
    73
1070
     0
1070
   171
1070
     3
1070
   274
1070
     4
1070
   177
1070
    35
1070
   176
1070
    35
1070
   178
1070
    35
1070
    48
1040
-0.005
1070
    41
1041
3.5
1070
   147
1041
1.75
1070
    42
1041
1.5875
1070
    44
1041
2.0
1070
   140
1041
3.5
1070
   343
1005
0
1070
   344
1005
0
1002
}
0
DIMENSION
5
115
100
AcDbEntity
8
SK2
62
256
6
ByLayer
370
13
48
1
60
0
100
AcDbDimension
2
DimnDraft3D4
10
61.36
20
-17.602503
30
0
11
72.981425
21
-17.602503
31
0
70
32
71
5
72
1
41
1
210
0
220
0
230
1
3
Standard
100
AcDbAlignedDimension
13
63
23
-1.5875
33
0
14
61.36
24
-6.3875
34
0
50
0
100
AcDbRotatedDimension
1001
ACAD
1000
DSTYLE
1002
{
1070
   279
1070
     0
1070
   172
1070
     1
1070
   173
1070
     1
1070
   340
1005
EB
1070
   271
1070
     2
1070
   272
1070
     2
1070
    77
1070
     1
1070
    73
1070
     0
1070
   171
1070
     3
1070
   274
1070
     4
1070
   177
1070
    35
1070
   176
1070
    35
1070
   178
1070
    35
1070
    48
1040
-0.005
1070
    41
1041
3.5
1070
   147
1041
1.75
1070
    42
1041
1.5875
1070
    44
1041
2.0
1070
   140
1041
3.5
1070
   343
1005
0
1070
   344
1005
0
1002
}
0
DIMENSION
5
11F
100
AcDbEntity
8
SK2
62
256
6
ByLayer
370
13
48
1
60
0
100
AcDbDimension
2
DimnDraft3D5
10
61.36
20
-23.343428
30
0
11
8.120676
21
-23.343428
31
0
70
32
71
5
72
1
41
1
210
0
220
0
230
1
3
Standard
100
AcDbAlignedDimension
13
-40
23
-6.5875
33
0
14
61.36
24
-6.3875
34
0
50
0
100
AcDbRotatedDimension
1001
ACAD
1000
DSTYLE
1002
{
1070
   279
1070
     0
1070
   172
1070
     1
1070
   173
1070
     1
1070
   340
1005
EB
1070
   271
1070
     2
1070
   272
1070
     2
1070
    77
1070
     1
1070
    73
1070
     0
1070
   171
1070
     3
1070
   274
1070
     4
1070
   177
1070
    35
1070
   176
1070
    35
1070
   178
1070
    35
1070
    48
1040
-0.005
1070
    41
1041
3.5
1070
   147
1041
1.75
1070
    42
1041
1.5875
1070
    44
1041
2.0
1070
   140
1041
3.5
1070
   343
1005
0
1070
   344
1005
0
1002
}
0
DIMENSION
5
12A
100
AcDbEntity
8
SK2
62
256
6
ByLayer
370
13
48
1
60
0
100
AcDbDimension
2
DimnDraft3D6
10
-50.625163
20
5
30
0
11
-51.250163
21
23.47418
31
0
70
33
71
5
72
1
41
1
210
0
220
0
230
1
3
Standard
100
AcDbAlignedDimension
13
-41.5875
23
-5
33
0
14
-41.5875
24
5
34
0
1001
ACAD
1000
DSTYLE
1002
{
1070
   279
1070
     0
1070
    74
1070
     0
1070
   173
1070
     1
1070
   340
1005
EB
1070
   271
1070
     3
1070
   272
1070
     2
1070
    77
1070
     1
1070
    73
1070
     0
1070
   171
1070
     3
1070
   274
1070
     4
1070
   177
1070
    35
1070
   176
1070
    35
1070
   178
1070
    35
1070
    48
1040
-0.005
1070
    41
1041
3.5
1070
   147
1041
1.75
1070
    42
1041
1.5875
1070
    44
1041
2.0
1070
   140
1041
3.5
1070
   343
1005
0
1070
   344
1005
0
1002
}
0
DIMENSION
5
135
100
AcDbEntity
8
2
62
256
6
ByLayer
370
13
48
1
60
0
100
AcDbDimension
2
DimnDraft3D7
10
77.083343
20
4.8
30
0
11
72.458343
21
21.867266
31
0
70
33
71
5
72
1
41
1
210
0
220
0
230
1
3
Standard
100
AcDbAlignedDimension
13
62.9475
23
-4.8
33
0
14
62.9475
24
4.8
34
0
1001
ACAD
1000
DSTYLE
1002
{
1070
   279
1070
     0
1070
    74
1070
     0
1070
   173
1070
     1
1070
   340
1005
EB
1070
   271
1070
     3
1070
   272
1070
     2
1070
    77
1070
     1
1070
    73
1070
     0
1070
   171
1070
     3
1070
   274
1070
     4
1070
   177
1070
    35
1070
   176
1070
    35
1070
   178
1070
    35
1070
    48
1040
-0.005
1070
    41
1041
3.5
1070
   147
1041
1.75
1070
    42
1041
1.5875
1070
    44
1041
2.0
1070
   140
1041
3.5
1070
   343
1005
0
1070
   344
1005
0
1002
}
0
ENDSEC
0
SECTION
2
OBJECTS
0
DICTIONARY
5
1a0
330
0
100
AcDbDictionary
280
0
281
1
3
ACAD_GROUP
350
1a1
3
ACAD_MLINESTYLE
350
1a2
0
DICTIONARY
5
1a1
330
0
100
AcDbDictionary
280
0
281
1
0
DICTIONARY
5
1a2
330
0
100
AcDbDictionary
280
0
281
1
3
Standard
350
18
0
MLINESTYLE
5
18
330
1a2
100
AcDbMlineStyle
2
Standard
70
0
3

62
256
51
90
52
90
71
2
49
-0.5
62
256
6
ByLayer
49
0.5
62
256
6
ByLayer
0
RASTERVARIABLES
5
18e
330

100
AcDbRasterVariables
90
0
70
1
71
1
72
1
0
ENDSEC
0
EOF
