0
SECTION
2
HEADER
9
$ACADVER
1
AC1015
9
$DWGCODEPAGE
3
ANSI_1252
9
$HANDSEED
5
1a2
9
$ANGBASE
50
0
9
$ANGDIR
70
0
9
$ATTMODE
70
1
9
$AUNITS
70
0
9
$AUPREC
70
0
9
$CECOLOR
62
256
9
$CELTSCALE
40
1
9
$CELTYPE
6
ByLayer
9
$CELWEIGHT
370
18
9
$CLAYER
8
0
9
$CMLJUST
70
0
9
$CMLSCALE
40
1
9
$CMLSTYLE
2
Standard
9
$DIMSTYLE
2
Standard
9
$TEXTSIZE
40
0.2
9
$TEXTSTYLE
7
Standard
9
$LUNITS
70
2
9
$LUPREC
70
4
9
$EXTNAMES
290
1
9
$INSUNITS
70
4
9
$LTSCALE
40
1
9
$LWDISPLAY
290
1
9
$PDMODE
70
0
9
$PDSIZE
40
0
9
$PLINEGEN
70
0
0
ENDSEC
0
SECTION
2
CLASSES
0
CLASS
1
RASTERVARIABLES
2
AcDbRasterVariables
3
ISM
90
0
280
0
281
0
0
ENDSEC
0
SECTION
2
TABLES
0
TABLE
2
VPORT
5
198
100
AcDbSymbolTable
0
VPORT
5
1
100
AcDbSymbolTableRecord
100
AcDbViewportTableRecord
2
*Active
70
0
10
0
20
0
11
1
21
1
12
-1
22
1
13
0
23
0
14
0.5
24
0.5
15
10
25
10
16
0
26
0
36
1
17
0
27
0
37
0
0
ENDTAB
0
TABLE
2
LTYPE
5
199
100
AcDbSymbolTable
0
LTYPE
5
14
100
AcDbSymbolTableRecord
100
AcDbLinetypeTableRecord
70
0
2
ByBlock
3

72
65
73
0
40
0
0
LTYPE
5
15
100
AcDbSymbolTableRecord
100
AcDbLinetypeTableRecord
70
0
2
ByLayer
3

72
65
73
0
40
0
0
LTYPE
5
16
100
AcDbSymbolTableRecord
100
AcDbLinetypeTableRecord
70
0
2
CONTINUOUS
3
Solid line
72
65
73
0
40
0
0
LTYPE
5
6A
100
AcDbSymbolTableRecord
100
AcDbLinetypeTableRecord
70
0
2
CENTER
3
____ _ ____ _ ____ _ ____
72
65
73
4
40
47.5
49
22
74
0
49
-8.5
74
0
49
8.5
74
0
49
-8.5
74
0
0
LTYPE
5
6B
100
AcDbSymbolTableRecord
100
AcDbLinetypeTableRecord
70
0
2
DASHED
3
__ __ __ __ __ __ __ __ __
72
65
73
2
40
25.72
49
12.86
74
0
49
-12.86
74
0
0
ENDTAB
0
TABLE
2
LAYER
5
19a
100
AcDbSymbolTable
0
LAYER
5
10
100
AcDbSymbolTableRecord
100
AcDbLayerTableRecord
2
0
70
0
62
7
6
CONTINUOUS
290
1
370
-3
390
0
0
LAYER
5
6D
100
AcDbSymbolTableRecord
100
AcDbLayerTableRecord
2
81
70
0
62
-3
6
CONTINUOUS
290
1
370
-3
390
0
0
LAYER
5
6F
100
AcDbSymbolTableRecord
100
AcDbLayerTableRecord
2
80
70
0
62
-6
6
CONTINUOUS
290
1
370
-3
390
0
0
LAYER
5
74
100
AcDbSymbolTableRecord
100
AcDbLayerTableRecord
2
2
70
0
62
7
6
CONTINUOUS
290
1
370
-3
390
0
0
LAYER
5
78
100
AcDbSymbolTableRecord
100
AcDbLayerTableRecord
2
1
70
0
62
4
6
CONTINUOUS
290
1
370
-3
390
0
0
LAYER
5
84
100
AcDbSymbolTableRecord
100
AcDbLayerTableRecord
2
4
70
0
62
-2
6
CENTER
290
1
370
-3
390
0
0
LAYER
5
184
100
AcDbSymbolTableRecord
100
AcDbLayerTableRecord
2
SK2
70
0
62
7
6
CONTINUOUS
290
1
370
-3
390
0
0
LAYER
5
185
100
AcDbSymbolTableRecord
100
AcDbLayerTableRecord
2
SK1
70
0
62
4
6
CONTINUOUS
290
1
370
-3
390
0
0
LAYER
5
186
100
AcDbSymbolTableRecord
100
AcDbLayerTableRecord
2
SK4
70
0
62
2
6
CENTER
290
1
370
-3
390
0
0
LAYER
5
187
100
AcDbSymbolTableRecord
100
AcDbLayerTableRecord
2
SK6
70
0
62
5
6
CONTINUOUS
290
1
370
-3
390
0
0
ENDTAB
0
TABLE
2
STYLE
5
19b
100
AcDbSymbolTable
0
STYLE
5
11
100
AcDbSymbolTableRecord
100
AcDbTextStyleTableRecord
2
Standard
3
txt
70
0
71
0
40
0
41
1
42
0
50
0
0
STYLE
5
E0
100
AcDbSymbolTableRecord
100
AcDbTextStyleTableRecord
2
iso_b_vert
3
simplex.shx
70
0
71
0
40
0
41
1
42
0
50
0
0
STYLE
5
E1
100
AcDbSymbolTableRecord
100
AcDbTextStyleTableRecord
2
DWGDirectTextStyle
3
simplex
70
0
71
0
40
0
41
1
42
0
50
0
0
ENDTAB
0
TABLE
2
DIMSTYLE
5
19c
100
AcDbSymbolTable
100
AcDbDimStyleTable
0
DIMSTYLE
105
27
100
AcDbSymbolTableRecord
100
AcDbDimStyleTableRecord
2
Standard
70
0
3
<>
41
0.18
42
0.0625
44
0.18
140
0.18
147
0.09
73
0
74
0
77
1
271
2
275
0
278
52
280
0
340
11
0
ENDTAB
0
TABLE
2
VIEW
5
19d
100
AcDbSymbolTable
0
ENDTAB
0
TABLE
2
UCS
5
19e
100
AcDbSymbolTable
0
ENDTAB
0
TABLE
2
APPID
5
19f
100
AcDbSymbolTable
0
APPID
5
12
100
AcDbSymbolTableRecord
100
AcDbRegAppTableRecord
2
ACAD
70
0
0
ENDTAB
0
TABLE
2
BLOCK_RECORD
5
1a0
100
AcDbSymbolTable
0
BLOCK_RECORD
5
1F
100
AcDbSymbolTableRecord
100
AcDbBlockTableRecord
2
*Model_Space
340
0
70
0
0
BLOCK_RECORD
5
1B
100
AcDbSymbolTableRecord
100
AcDbBlockTableRecord
2
*Paper_Space
340
0
70
0
0
BLOCK_RECORD
5
23
100
AcDbSymbolTableRecord
100
AcDbBlockTableRecord
2
*Paper_Space0
340
0
70
0
0
BLOCK_RECORD
5
E3
100
AcDbSymbolTableRecord
100
AcDbBlockTableRecord
2
DimnDraft3D1
340
0
70
0
0
BLOCK_RECORD
5
ED
100
AcDbSymbolTableRecord
100
AcDbBlockTableRecord
2
DimnDraft3D2
340
0
70
0
0
BLOCK_RECORD
5
F7
100
AcDbSymbolTableRecord
100
AcDbBlockTableRecord
2
DimnDraft3D3
340
0
70
0
0
BLOCK_RECORD
5
101
100
AcDbSymbolTableRecord
100
AcDbBlockTableRecord
2
DimnDraft3D4
340
0
70
0
0
BLOCK_RECORD
5
10B
100
AcDbSymbolTableRecord
100
AcDbBlockTableRecord
2
DimnDraft3D5
340
0
70
0
0
BLOCK_RECORD
5
115
100
AcDbSymbolTableRecord
100
AcDbBlockTableRecord
2
DimnDraft3D6
340
0
70
0
0
BLOCK_RECORD
5
120
100
AcDbSymbolTableRecord
100
AcDbBlockTableRecord
2
DimnDraft3D7
340
0
70
0
0
ENDTAB
0
ENDSEC
0
SECTION
2
BLOCKS
0
BLOCK
5
20
100
AcDbEntity
8
0
100
AcDbBlockBegin
2
*Model_Space
70
0
10
0
20
0
30
0
3
*Model_Space
0
ENDBLK
5
21
100
AcDbEntity
8
0
100
AcDbBlockEnd
0
BLOCK
5
1C
100
AcDbEntity
8
0
100
AcDbBlockBegin
2
*Paper_Space
70
0
10
0
20
0
30
0
3
*Paper_Space
0
ENDBLK
5
1D
100
AcDbEntity
8
0
100
AcDbBlockEnd
0
BLOCK
5
24
100
AcDbEntity
8
0
100
AcDbBlockBegin
2
*Paper_Space0
70
0
10
0
20
0
30
0
3
*Paper_Space0
0
ENDBLK
5
25
100
AcDbEntity
8
0
100
AcDbBlockEnd
0
BLOCK
5
EA
100
AcDbEntity
8
0
100
AcDbBlockBegin
2
DimnDraft3D1
70
0
10
0
20
0
30
0
3
DimnDraft3D1
0
MTEXT
5
E4
100
AcDbEntity
8
SK2
62
256
6
ByLayer
370
13
48
1
60
0
100
AcDbMText
10
17.487164
20
-14.098398
30
0
210
0
220
0
230
1
1
\W0.7581;47,37
40
3.5
41
0
44
1.084337
50
0
71
7
72
5
7
iso_b_vert
0
LINE
5
E5
100
AcDbEntity
8
SK2
62
256
6
ByLayer
370
13
48
1
60
0
100
AcDbLine
10
0
20
-1.5875
30
0
11
0
21
-16.973398
31
0
39
0
210
0
220
0
230
1
0
LINE
5
E6
100
AcDbEntity
8
SK2
62
256
6
ByLayer
370
13
48
1
60
0
100
AcDbLine
10
47.37
20
-6.3475
30
0
11
47.37
21
-16.973398
31
0
39
0
210
0
220
0
230
1
0
LINE
5
E7
100
AcDbEntity
8
SK2
62
256
6
ByLayer
370
13
48
1
60
0
100
AcDbLine
10
0
20
-14.973398
30
0
11
47.37
21
-14.973398
31
0
39
0
210
0
220
0
230
1
0
SOLID
5
E8
100
AcDbEntity
8
SK2
62
256
6
ByLayer
370
13
48
1
60
0
100
AcDbTrace
10
0
20
-14.973398
30
0
11
3.499998
21
-14.512615
31
0
12
3.500002
22
-15.434182
32
0
13
0
23
-14.973398
33
0
39
0
210
0
220
0
230
1
0
SOLID
5
E9
100
AcDbEntity
8
SK2
62
256
6
ByLayer
370
13
48
1
60
0
100
AcDbTrace
10
47.37
20
-14.973398
30
0
11
43.870002
21
-15.434182
31
0
12
43.869998
22
-14.512615
32
0
13
47.37
23
-14.973398
33
0
39
0
210
0
220
0
230
1
0
ENDBLK
5
EB
100
AcDbEntity
8
0
100
AcDbBlockEnd
0
BLOCK
5
F4
100
AcDbEntity
8
0
100
AcDbBlockBegin
2
DimnDraft3D2
70
0
10
0
20
0
30
0
3
DimnDraft3D2
0
MTEXT
5
EE
100
AcDbEntity
8
SK2
62
256
6
ByLayer
370
13
48
1
60
0
100
AcDbMText
10
-0.237384
20
-32.817985
30
0
210
0
220
0
230
1
1
\W0.7317;89,00
40
3.5
41
0
44
1.084337
50
0
71
7
72
5
7
iso_b_vert
0
LINE
5
EF
100
AcDbEntity
8
SK2
62
256
6
ByLayer
370
13
48
1
60
0
100
AcDbLine
10
-40
20
-6.5875
30
0
11
-40
21
-35.692985
31
0
39
0
210
0
220
0
230
1
0
LINE
5
F0
100
AcDbEntity
8
SK2
62
256
6
ByLayer
370
13
48
1
60
0
100
AcDbLine
10
49
20
-1.5875
30
0
11
49
21
-35.692985
31
0
39
0
210
0
220
0
230
1
0
LINE
5
F1
100
AcDbEntity
8
SK2
62
256
6
ByLayer
370
13
48
1
60
0
100
AcDbLine
10
-40
20
-33.692985
30
0
11
49
21
-33.692985
31
0
39
0
210
0
220
0
230
1
0
SOLID
5
F2
100
AcDbEntity
8
SK2
62
256
6
ByLayer
370
13
48
1
60
0
100
AcDbTrace
10
-40
20
-33.692985
30
0
11
-36.500002
21
-33.232202
31
0
12
-36.499998
22
-34.153769
32
0
13
-40
23
-33.692985
33
0
39
0
210
0
220
0
230
1
0
SOLID
5
F3
100
AcDbEntity
8
SK2
62
256
6
ByLayer
370
13
48
1
60
0
100
AcDbTrace
10
49
20
-33.692985
30
0
11
45.500002
21
-34.153769
31
0
12
45.499998
22
-33.232202
32
0
13
49
23
-33.692985
33
0
39
0
210
0
220
0
230
1
0
ENDBLK
5
F5
100
AcDbEntity
8
0
100
AcDbBlockEnd
0
BLOCK
5
FE
100
AcDbEntity
8
0
100
AcDbBlockBegin
2
DimnDraft3D3
70
0
10
0
20
0
30
0
3
DimnDraft3D3
0
MTEXT
5
F8
100
AcDbEntity
8
SK2
62
256
6
ByLayer
370
13
48
1
60
0
100
AcDbMText
10
29.893816
20
17.244119
30
0
210
0
220
0
230
1
1
\W0.6791;30,19
40
3.5
41
0
44
1.084337
50
0
71
7
72
5
7
iso_b_vert
0
LINE
5
F9
100
AcDbEntity
8
SK2
62
256
6
ByLayer
370
13
48
1
60
0
100
AcDbLine
10
18.81
20
6.3475
30
0
11
18.81
21
18.369119
31
0
39
0
210
0
220
0
230
1
0
LINE
5
FA
100
AcDbEntity
8
SK2
62
256
6
ByLayer
370
13
48
1
60
0
100
AcDbLine
10
49
20
1.5875
30
0
11
49
21
18.369119
31
0
39
0
210
0
220
0
230
1
0
LINE
5
FB
100
AcDbEntity
8
SK2
62
256
6
ByLayer
370
13
48
1
60
0
100
AcDbLine
10
18.81
20
16.369119
30
0
11
49
21
16.369119
31
0
39
0
210
0
220
0
230
1
0
SOLID
5
FC
100
AcDbEntity
8
SK2
62
256
6
ByLayer
370
13
48
1
60
0
100
AcDbTrace
10
18.81
20
16.369119
30
0
11
22.309998
21
16.829903
31
0
12
22.310002
22
15.908335
32
0
13
18.81
23
16.369119
33
0
39
0
210
0
220
0
230
1
0
SOLID
5
FD
100
AcDbEntity
8
SK2
62
256
6
ByLayer
370
13
48
1
60
0
100
AcDbTrace
10
49
20
16.369119
30
0
11
45.500002
21
15.908335
31
0
12
45.499998
22
16.829903
32
0
13
49
23
16.369119
33
0
39
0
210
0
220
0
230
1
0
ENDBLK
5
FF
100
AcDbEntity
8
0
100
AcDbBlockEnd
0
BLOCK
5
108
100
AcDbEntity
8
0
100
AcDbBlockBegin
2
DimnDraft3D4
70
0
10
0
20
0
30
0
3
DimnDraft3D4
0
MTEXT
5
102
100
AcDbEntity
8
SK2
62
256
6
ByLayer
370
13
48
1
60
0
100
AcDbMText
10
56.278136
20
-16.687503
30
0
210
0
220
0
230
1
1
\W0.6367;1,63
40
3.5
41
0
44
1.084337
50
0
71
7
72
5
7
iso_b_vert
0
LINE
5
103
100
AcDbEntity
8
SK2
62
256
6
ByLayer
370
13
48
1
60
0
100
AcDbLine
10
49
20
-1.5875
30
0
11
49
21
-19.562503
31
0
39
0
210
0
220
0
230
1
0
LINE
5
104
100
AcDbEntity
8
SK2
62
256
6
ByLayer
370
13
48
1
60
0
100
AcDbLine
10
47.37
20
-6.3475
30
0
11
47.37
21
-19.562503
31
0
39
0
210
0
220
0
230
1
0
LINE
5
105
100
AcDbEntity
8
SK2
62
256
6
ByLayer
370
13
48
1
60
0
100
AcDbLine
10
38.62
20
-17.562503
30
0
11
62.559715
21
-17.562503
31
0
39
0
210
0
220
0
230
1
0
SOLID
5
106
100
AcDbEntity
8
SK2
62
256
6
ByLayer
370
13
48
1
60
0
100
AcDbTrace
10
49
20
-17.562503
30
0
11
52.499998
21
-17.101719
31
0
12
52.500002
22
-18.023287
32
0
13
49
23
-17.562503
33
0
39
0
210
0
220
0
230
1
0
SOLID
5
107
100
AcDbEntity
8
SK2
62
256
6
ByLayer
370
13
48
1
60
0
100
AcDbTrace
10
47.37
20
-17.562503
30
0
11
43.870002
21
-18.023287
31
0
12
43.869998
22
-17.101719
32
0
13
47.37
23
-17.562503
33
0
39
0
210
0
220
0
230
1
0
ENDBLK
5
109
100
AcDbEntity
8
0
100
AcDbBlockEnd
0
BLOCK
5
112
100
AcDbEntity
8
0
100
AcDbBlockBegin
2
DimnDraft3D5
70
0
10
0
20
0
30
0
3
DimnDraft3D5
0
MTEXT
5
10C
100
AcDbEntity
8
SK2
62
256
6
ByLayer
370
13
48
1
60
0
100
AcDbMText
10
-3.318008
20
-22.468428
30
0
210
0
220
0
230
1
1
\W0.7317;87,37
40
3.5
41
0
44
1.084337
50
0
71
7
72
5
7
iso_b_vert
0
LINE
5
10D
100
AcDbEntity
8
SK2
62
256
6
ByLayer
370
13
48
1
60
0
100
AcDbLine
10
-40
20
-6.5875
30
0
11
-40
21
-25.343428
31
0
39
0
210
0
220
0
230
1
0
LINE
5
10E
100
AcDbEntity
8
SK2
62
256
6
ByLayer
370
13
48
1
60
0
100
AcDbLine
10
47.37
20
-6.3475
30
0
11
47.37
21
-25.343428
31
0
39
0
210
0
220
0
230
1
0
LINE
5
10F
100
AcDbEntity
8
SK2
62
256
6
ByLayer
370
13
48
1
60
0
100
AcDbLine
10
-40
20
-23.343428
30
0
11
47.37
21
-23.343428
31
0
39
0
210
0
220
0
230
1
0
SOLID
5
110
100
AcDbEntity
8
SK2
62
256
6
ByLayer
370
13
48
1
60
0
100
AcDbTrace
10
-40
20
-23.343428
30
0
11
-36.500002
21
-22.882645
31
0
12
-36.499998
22
-23.804212
32
0
13
-40
23
-23.343428
33
0
39
0
210
0
220
0
230
1
0
SOLID
5
111
100
AcDbEntity
8
SK2
62
256
6
ByLayer
370
13
48
1
60
0
100
AcDbTrace
10
47.37
20
-23.343428
30
0
11
43.870002
21
-23.804212
31
0
12
43.869998
22
-22.882645
32
0
13
47.37
23
-23.343428
33
0
39
0
210
0
220
0
230
1
0
ENDBLK
5
113
100
AcDbEntity
8
0
100
AcDbBlockEnd
0
BLOCK
5
11D
100
AcDbEntity
8
0
100
AcDbBlockBegin
2
DimnDraft3D6
70
0
10
0
20
0
30
0
3
DimnDraft3D6
0
MTEXT
5
116
100
AcDbEntity
8
SK2
62
256
6
ByLayer
370
13
48
1
60
0
100
AcDbMText
10
-50.375163
20
24.34918
30
0
210
0
220
0
230
1
1
\W0.6930;10,000
40
3.5
41
0
44
1.084337
50
90
71
7
72
5
7
iso_b_vert
0
MTEXT
5
117
100
AcDbEntity
8
SK2
62
256
6
ByLayer
370
13
48
1
60
0
100
AcDbMText
10
-50.375163
20
19.126524
30
0
210
0
220
0
230
1
1
%%c
40
3.5
41
0
44
1.084337
50
90
71
7
72
5
7
iso_b_vert
0
LINE
5
118
100
AcDbEntity
8
SK2
62
256
6
ByLayer
370
13
48
1
60
0
100
AcDbLine
10
-41.5875
20
-5
30
0
11
-50.625163
21
-5
31
0
39
0
210
0
220
0
230
1
0
LINE
5
119
100
AcDbEntity
8
SK2
62
256
6
ByLayer
370
13
48
1
60
0
100
AcDbLine
10
-41.5875
20
5
30
0
11
-50.625163
21
5
31
0
39
0
210
0
220
0
230
1
0
LINE
5
11A
100
AcDbEntity
8
SK2
62
256
6
ByLayer
370
13
48
1
60
0
100
AcDbLine
10
-48.625163
20
-5
30
0
11
-48.625163
21
35.862338
31
0
39
0
210
0
220
0
230
1
0
SOLID
5
11B
100
AcDbEntity
8
SK2
62
256
6
ByLayer
370
13
48
1
60
0
100
AcDbTrace
10
-48.625163
20
-5
30
0
11
-49.085946
21
-1.500002
31
0
12
-48.164379
22
-1.499998
32
0
13
-48.625163
23
-5
33
0
39
0
210
0
220
0
230
1
0
SOLID
5
11C
100
AcDbEntity
8
SK2
62
256
6
ByLayer
370
13
48
1
60
0
100
AcDbTrace
10
-48.625163
20
5
30
0
11
-48.164379
21
1.500002
31
0
12
-49.085946
22
1.499998
32
0
13
-48.625163
23
5
33
0
39
0
210
0
220
0
230
1
0
ENDBLK
5
11E
100
AcDbEntity
8
0
100
AcDbBlockEnd
0
BLOCK
5
128
100
AcDbEntity
8
0
100
AcDbBlockBegin
2
DimnDraft3D7
70
0
10
0
20
0
30
0
3
DimnDraft3D7
0
MTEXT
5
121
100
AcDbEntity
8
2
62
256
6
ByLayer
370
13
48
1
60
0
100
AcDbMText
10
59.333343
20
22.702266
30
0
210
0
220
0
230
1
1
\W0.7317;9,520
40
3.5
41
0
44
1.084337
50
90
71
7
72
5
7
iso_b_vert
0
MTEXT
5
122
100
AcDbEntity
8
2
62
256
6
ByLayer
370
13
48
1
60
0
100
AcDbMText
10
59.333343
20
17.47961
30
0
210
0
220
0
230
1
1
%%c
40
3.5
41
0
44
1.084337
50
90
71
7
72
5
7
iso_b_vert
0
LINE
5
123
100
AcDbEntity
8
2
62
256
6
ByLayer
370
13
48
1
60
0
100
AcDbLine
10
48.9575
20
-4.76
30
0
11
63.083343
21
-4.76
31
0
39
0
210
0
220
0
230
1
0
LINE
5
124
100
AcDbEntity
8
2
62
256
6
ByLayer
370
13
48
1
60
0
100
AcDbLine
10
48.9575
20
4.76
30
0
11
63.083343
21
4.76
31
0
39
0
210
0
220
0
230
1
0
LINE
5
125
100
AcDbEntity
8
2
62
256
6
ByLayer
370
13
48
1
60
0
100
AcDbLine
10
61.083343
20
-4.76
30
0
11
61.083343
21
32.474635
31
0
39
0
210
0
220
0
230
1
0
SOLID
5
126
100
AcDbEntity
8
2
62
256
6
ByLayer
370
13
48
1
60
0
100
AcDbTrace
10
61.083343
20
-4.76
30
0
11
60.622559
21
-1.260002
31
0
12
61.544126
22
-1.259998
32
0
13
61.083343
23
-4.76
33
0
39
0
210
0
220
0
230
1
0
SOLID
5
127
100
AcDbEntity
8
2
62
256
6
ByLayer
370
13
48
1
60
0
100
AcDbTrace
10
61.083343
20
4.76
30
0
11
61.544126
21
1.260002
31
0
12
60.622559
22
1.259998
32
0
13
61.083343
23
4.76
33
0
39
0
210
0
220
0
230
1
0
ENDBLK
5
129
100
AcDbEntity
8
0
100
AcDbBlockEnd
0
ENDSEC
0
SECTION
2
ENTITIES
0
ARC
5
9B
100
AcDbEntity
8
1
62
256
6
ByLayer
370
18
48
1
60
0
100
AcDbCircle
39
0
10
0
20
4.2
30
0
40
0.799999999999999
210
0
220
0
230
1
100
AcDbArc
50
56.361165
51
90
0
ARC
5
9C
100
AcDbEntity
8
1
62
256
6
ByLayer
370
18
48
1
60
0
100
AcDbCircle
39
0
10
0
20
-4.2
30
0
40
0.799999999999999
210
0
220
0
230
1
100
AcDbArc
50
270
51
303.638835
0
ARC
5
9D
100
AcDbEntity
8
1
62
256
6
ByLayer
370
18
48
1
60
0
100
AcDbCircle
39
0
10
-0.88633
20
5.532074
30
0
40
0.800000000000003
210
0
220
0
230
-1
100
AcDbArc
50
269.965623
51
303.638835
0
ARC
5
9E
100
AcDbEntity
8
1
62
256
6
ByLayer
370
18
48
1
60
0
100
AcDbCircle
39
0
10
-0.88633
20
-5.532074
30
0
40
0.800000000000003
210
0
220
0
230
-1
100
AcDbArc
50
56.361165
51
90.034377
0
ELLIPSE
5
9F
100
AcDbEntity
8
1
62
256
6
ByLayer
370
18
48
1
60
0
100
AcDbEllipse
10
4.25
20
-4.768927
30
0
11
-0.25
21
3.06151588455594E-17
31
0
210
0
220
0
230
1
40
0.999993
41
-1.5619807942572
42
-0.18803956773701
0
ELLIPSE
5
A0
100
AcDbEntity
8
1
62
256
6
ByLayer
370
18
48
1
60
0
100
AcDbEllipse
10
4.25
20
4.768927
30
0
11
-0.25
21
3.06151588455594E-17
31
0
210
0
220
0
230
1
40
0.999993
41
0.187516346741101
42
1.58235124212187
0
ELLIPSE
5
A1
100
AcDbEntity
8
1
62
256
6
ByLayer
370
18
48
1
60
0
100
AcDbEllipse
10
49.032544
20
-0.027769
30
0
11
0.140634104943637
21
0.431000092618212
31
0
210
0
220
0
230
-1
40
0.07518
41
-2.3100143090441
42
-1.63882824058827
0
ELLIPSE
5
A2
100
AcDbEntity
8
1
62
256
6
ByLayer
370
18
48
1
60
0
100
AcDbEllipse
10
48.860019
20
0.130133
30
0
11
0.0727819104932773
21
0.301917195712871
31
0
210
0
220
0
230
-1
40
0.478434
41
1.73468386657667
42
2.45976119972642
0
ELLIPSE
5
A3
100
AcDbEntity
8
1
62
256
6
ByLayer
370
18
48
1
60
0
100
AcDbEllipse
10
49.000414
20
0.00104
30
0
11
1.75101860668655
21
4.757807969816
31
0
210
0
220
0
230
-1
40
0.098637
41
2.8795719800578
42
2.97887454566837
0
ELLIPSE
5
A4
100
AcDbEntity
8
1
62
256
6
ByLayer
370
18
48
1
60
0
100
AcDbEllipse
10
49.000414
20
-0.00104
30
0
11
1.75101861191807
21
-4.75780798490848
31
0
210
0
220
0
230
-1
40
0.098637
41
-2.97887454592785
42
-2.87957198047671
0
ELLIPSE
5
A5
100
AcDbEntity
8
1
62
256
6
ByLayer
370
18
48
1
60
0
100
AcDbEllipse
10
48.099326
20
2.286735
30
0
11
0.735282324988204
21
-1.99788403505122
31
0
210
0
220
0
230
-1
40
0.098637
41
-1.55460595161812
42
-0.749112684719049
0
ELLIPSE
5
A6
100
AcDbEntity
8
1
62
256
6
ByLayer
370
13
48
1
60
0
100
AcDbEllipse
10
47.965375
20
0.660955
30
0
11
0.153082081612419
21
0.258003636193773
31
0
210
0
220
0
230
1
40
0.454519
41
0.917105603404793
42
2.31336900500025
0
ELLIPSE
5
A7
100
AcDbEntity
8
1
62
256
6
ByLayer
370
13
48
1
60
0
100
AcDbEllipse
10
48.596082
20
2.286735
30
0
11
2.71419192255753
21
-1.46623812613043
31
0
210
0
220
0
230
-1
40
0.50071
41
1.53286616768057
42
1.86147526982025
0
ELLIPSE
5
A8
100
AcDbEntity
8
1
62
256
6
ByLayer
370
18
48
1
60
0
100
AcDbEllipse
10
49.032544
20
0.027769
30
0
11
0.140634104976346
21
-0.431000092702537
31
0
210
0
220
0
230
-1
40
0.07518
41
1.63882824072941
42
2.3100143090717
0
ELLIPSE
5
A9
100
AcDbEntity
8
1
62
256
6
ByLayer
370
18
48
1
60
0
100
AcDbEllipse
10
48.099326
20
-2.286735
30
0
11
0.735282325011918
21
1.99788403510423
31
0
210
0
220
0
230
-1
40
0.098637
41
0.749112684719188
42
1.55460595159871
0
ELLIPSE
5
AA
100
AcDbEntity
8
1
62
256
6
ByLayer
370
13
48
1
60
0
100
AcDbEllipse
10
48.406175
20
2.163538
30
0
11
2.63914722732933
21
-1.81712791382098
31
0
210
0
220
0
230
-1
40
0.533762
41
1.44484622736957
42
1.75198181482282
0
POINT
5
6C
100
AcDbEntity
8
81
62
256
6
ByLayer
370
18
48
1
60
0
100
AcDbPoint
10
49
20
0
30
0
39
0
210
0
220
0
230
1
50
360
0
POINT
5
6E
100
AcDbEntity
8
80
62
256
6
ByLayer
370
18
48
1
60
0
100
AcDbPoint
10
0
20
0
30
0
39
0
210
0
220
0
230
1
50
360
0
POINT
5
70
100
AcDbEntity
8
SK2
62
256
6
ByLayer
370
18
48
1
60
1
100
AcDbPoint
10
-40
20
-5
30
0
39
0
210
0
220
0
230
1
50
360
0
POINT
5
72
100
AcDbEntity
8
SK2
62
256
6
ByLayer
370
18
48
1
60
1
100
AcDbPoint
10
-40
20
5
30
0
39
0
210
0
220
0
230
1
50
360
0
POINT
5
73
100
AcDbEntity
8
2
62
256
6
ByLayer
370
18
48
1
60
1
100
AcDbPoint
10
47.37
20
-4.76
30
0
39
0
210
0
220
0
230
1
50
360
0
POINT
5
75
100
AcDbEntity
8
2
62
256
6
ByLayer
370
18
48
1
60
1
100
AcDbPoint
10
47.37
20
4.76
30
0
39
0
210
0
220
0
230
1
50
360
0
SPLINE
5
AB
100
AcDbEntity
8
1
62
256
6
ByLayer
370
18
48
1
60
0
100
AcDbSpline
70
4
71
1
72
4
73
2
40
0
40
0
40
1
40
1
41
1
10
33.8414537220862
20
0.0001668973526989
30
0
41
1
10
33.8414394415798
20
0.00017850772619
30
0
0
SPLINE
5
AC
100
AcDbEntity
8
1
62
256
6
ByLayer
370
18
48
1
60
0
100
AcDbSpline
70
4
71
3
72
11
73
7
40
0
40
0
40
0
40
0
40
0.124613561184279
40
0.285775251722084
40
0.58634124804181
40
1
40
1
40
1
40
1
41
1
10
34.9448465986067
20
-1.07706461985668
30
0
41
1
10
34.9445876491979
20
-1.07698874323276
30
0
41
1
10
34.9460105354679
20
-1.07780976466745
30
0
41
1
10
34.9655787661216
20
-1.08786126293606
30
0
41
1
10
35.0171311033368
20
-1.11555458958759
30
0
41
1
10
35.0648963970812
20
-1.14315787977068
30
0
41
1
10
35.0967082425792
20
-1.16191813978736
30
0
0
SPLINE
5
AD
100
AcDbEntity
8
1
62
256
6
ByLayer
370
18
48
1
60
0
100
AcDbSpline
70
4
71
3
72
32
73
28
40
0
40
0
40
0
40
0
40
0.0636176708683634
40
0.10975122404944
40
0.138540479212941
40
0.162544371085404
40
0.19040315068411
40
0.232711187973273
40
0.275784478080513
40
0.314047935501613
40
0.3519996306975
40
0.386341157837481
40
0.419186223300117
40
0.461533183134976
40
0.511623068519164
40
0.550995199627747
40
0.589757952021371
40
0.646436949904576
40
0.703450108879025
40
0.749318909591463
40
0.785727318197809
40
0.816071307139043
40
0.841635021927171
40
0.876356010321284
40
0.92207287168481
40
0.980325624774337
40
1
40
1
40
1
40
1
41
1
10
21.47379437522
20
-4.52901360202986
30
0
41
1
10
21.7421464318577
20
-4.52929833726338
30
0
41
1
10
22.2051002425535
20
-4.52964334665472
30
0
41
1
10
22.7894192005334
20
-4.52963855843359
30
0
41
1
10
23.2067501740847
20
-4.52962130019452
30
0
41
1
10
23.5467844276331
20
-4.52980458876002
30
0
41
1
10
23.9439802144933
20
-4.53086845242942
30
0
41
1
10
24.4216398934535
20
-4.53132946805738
30
0
41
1
10
24.9431859356483
20
-4.53121792884303
30
0
41
1
10
25.4463322536048
20
-4.53099430931761
30
0
41
1
10
25.912661450559
20
-4.53068647690935
30
0
41
1
10
26.3561470340096
20
-4.53181537377077
30
0
41
1
10
26.8181656935778
20
-4.53341997822142
30
0
41
1
10
27.3466203088809
20
-4.53218216522734
30
0
41
1
10
27.9026010588101
20
-4.53164451552297
30
0
41
1
10
28.4434645924593
20
-4.53110469564422
30
0
41
1
10
29.0121243070494
20
-4.53294984629429
30
0
41
1
10
29.6551953124734
20
-4.53407836564296
30
0
41
1
10
30.3282403300806
20
-4.53401690528312
30
0
41
1
10
30.9157766917999
20
-4.53398934182502
30
0
41
1
10
31.3908422119571
20
-4.53351405832603
30
0
41
1
10
31.7801934290588
20
-4.53491066082236
30
0
41
1
10
32.1625359475698
20
-4.53524617404611
30
0
41
1
10
32.6092759286767
20
-4.53497012667219
30
0
41
1
10
33.1913198055587
20
-4.53570210496534
30
0
41
1
10
33.7142840309505
20
-4.53504368337113
30
0
41
1
10
34.0422116232647
20
-4.53555607095291
30
0
41
1
10
34.1249953434338
20
-4.53570237414277
30
0
0
SPLINE
5
AE
100
AcDbEntity
8
1
62
256
6
ByLayer
370
18
48
1
60
0
100
AcDbSpline
70
4
71
2
72
6
73
3
40
0
40
0
40
0
40
1
40
1
40
1
41
1
10
46.5414079574155
20
-4.54421966283013
30
0
41
1
10
46.9422126889251
20
-4.54319039780299
30
0
41
1
10
47.3423765801026
20
-4.54549683109653
30
0
0
SPLINE
5
AF
100
AcDbEntity
8
1
62
256
6
ByLayer
370
18
48
1
60
0
100
AcDbSpline
70
4
71
3
72
26
73
22
40
0
40
0
40
0
40
0
40
0.0285755012254053
40
0.102087675558278
40
0.158780990545361
40
0.200555762017169
40
0.233161298918221
40
0.272096126491965
40
0.32865102944106
40
0.403158150077676
40
0.487670102427188
40
0.545399185483649
40
0.593230949426994
40
0.654083321555062
40
0.705529096254171
40
0.745431366551216
40
0.787151633480706
40
0.833257761715306
40
0.893433918808061
40
0.961100601511724
40
1
40
1
40
1
40
1
41
1
10
34.1241719201407
20
4.53573965904639
30
0
41
1
10
34.0251951504192
20
4.53556958741578
30
0
41
1
10
33.6715696940918
20
4.53504074320063
30
0
41
1
10
33.1187362271306
20
4.53560635964163
30
0
41
1
10
32.5249079830779
20
4.53499980781763
30
0
41
1
10
32.0697819932552
20
4.53528766251245
30
0
41
1
10
31.6764106444765
20
4.53453743030965
30
0
41
1
10
31.2316479528884
20
4.53340716387018
30
0
41
1
10
30.6414049606601
20
4.53424420139177
30
0
41
1
10
29.8929157813268
20
4.53379782007121
30
0
41
1
10
29.1403475634248
20
4.53377577459591
30
0
41
1
10
28.4803993437981
20
4.53102242062371
30
0
41
1
10
27.902601004336
20
4.53165923626602
30
0
41
1
10
27.3466203248763
20
4.53217855895449
30
0
41
1
10
26.8181656833547
20
4.53342056697088
30
0
41
1
10
26.3561470566923
20
4.53181546495409
30
0
41
1
10
25.9126613589966
20
4.53068544891923
30
0
41
1
10
25.39879651178
20
4.53103075397382
30
0
41
1
10
24.7948610604552
20
4.53124805400856
30
0
41
1
10
24.2159092206533
20
4.53140849047443
30
0
41
1
10
23.8459008917031
20
4.53050120798898
30
0
41
1
10
23.7108560642767
20
4.53022236004867
30
0
0
SPLINE
5
B0
100
AcDbEntity
8
1
62
256
6
ByLayer
370
18
48
1
60
0
100
AcDbSpline
70
4
71
3
72
19
73
15
40
0
40
0
40
0
40
0
40
0.0948539362825599
40
0.215248241006184
40
0.309288750117277
40
0.377417785107518
40
0.431841629482896
40
0.480672708159022
40
0.523965727002405
40
0.576966109635341
40
0.666596791042756
40
0.792982467246091
40
0.955592265796401
40
1
40
1
40
1
40
1
41
1
10
4.25032543797411
20
-4.5188410752306
30
0
41
1
10
4.40168301406311
20
-4.51906766455002
30
0
41
1
10
4.7451519741121
20
-4.51951383851315
30
0
41
1
10
5.23867834927196
20
-4.51959265126877
30
0
41
1
10
5.68955729080628
20
-4.52001688716757
30
0
41
1
10
6.03517351898745
20
-4.52036749975585
30
0
41
1
10
6.30864919097021
20
-4.5204737893049
30
0
41
1
10
6.54249381391236
20
-4.52081255758836
30
0
41
1
10
6.77406677527759
20
-4.52144984282171
30
0
41
1
10
7.07073249898224
20
-4.52179306757233
30
0
41
1
10
7.4999718578471
20
-4.52143497575938
30
0
41
1
10
8.10411637307894
20
-4.5216376063957
30
0
41
1
10
8.6361574220094
20
-4.52105148004438
30
0
41
1
10
8.96645992800094
20
-4.52173279164217
30
0
41
1
10
9.03731287544758
20
-4.52189899507999
30
0
0
SPLINE
5
B1
100
AcDbEntity
8
1
62
256
6
ByLayer
370
18
48
1
60
0
100
AcDbSpline
70
4
71
3
72
17
73
13
40
0
40
0
40
0
40
0
40
0.0339075282620728
40
0.178774967317783
40
0.276257493283449
40
0.328486524631718
40
0.375460010938848
40
0.430927057054301
40
0.530530284077525
40
0.663328083773605
40
0.837016376031197
40
1
40
1
40
1
40
1
41
1
10
9.02142384319527
20
4.52180771277628
30
0
41
1
10
8.9675103931761
20
4.52167967270518
30
0
41
1
10
8.6832388575553
20
4.52107555559985
30
0
41
1
10
8.24382219032464
20
4.52151122579403
30
0
41
1
10
7.77506609891111
20
4.52140048438417
30
0
41
1
10
7.46275454112936
20
4.52154041336382
30
0
41
1
10
7.21703959516236
20
4.52167575773444
30
0
41
1
10
6.89565972217923
20
4.52174508500349
30
0
41
1
10
6.43777387710128
20
4.52042330138704
30
0
41
1
10
5.79184253778556
20
4.52020363450401
30
0
41
1
10
5.04508908243793
20
4.51958168331933
30
0
41
1
10
4.50957252991427
20
4.51906864909787
30
0
41
1
10
4.25032794475644
20
4.51878680679033
30
0
0
SPLINE
5
B2
100
AcDbEntity
8
1
62
256
6
ByLayer
370
18
48
1
60
0
100
AcDbSpline
70
4
71
3
72
16
73
12
40
0
40
0
40
0
40
0
40
0.250000000000001
40
0.250000000000001
40
0.375000000000001
40
0.375000000000001
40
0.500000000000001
40
0.500000000000001
40
0.750000000000001
40
0.750000000000001
40
1
40
1
40
1
40
1
41
1
10
4.25071966974295
20
-3.49948274865991
30
0
41
1
10
4.22517515512783
20
-3.48669396017658
30
0
41
1
10
4.19860642550736
20
-3.47794687854423
30
0
41
1
10
4.15731101025565
20
-3.47434609403965
30
0
41
1
10
4.14365239521169
20
-3.47479935691186
30
0
41
1
10
4.11660357359693
20
-3.47969920291561
30
0
41
1
10
4.10327494693243
20
-3.48422241610231
30
0
41
1
10
4.06638636864596
20
-3.50380348809904
30
0
41
1
10
4.04515746428183
20
-3.52566507526103
30
0
41
1
10
4.01527314633927
20
-3.57933519171439
30
0
41
1
10
4.00646371853188
20
-3.61033276890569
30
0
41
1
10
4.00252512982252
20
-3.64195979804657
30
0
0
SPLINE
5
B3
100
AcDbEntity
8
1
62
256
6
ByLayer
370
18
48
1
60
0
100
AcDbSpline
70
4
71
3
72
92
73
88
40
0
40
0
40
0
40
0
40
0.0274426435448648
40
0.0274426435448648
40
0.0606862671667637
40
0.0606862671667637
40
0.0939298907886627
40
0.0939298907886627
40
0.110551702599612
40
0.110551702599612
40
0.127173514410561
40
0.127173514410561
40
0.14379532622151
40
0.14379532622151
40
0.16041713803246
40
0.16041713803246
40
0.193660761654358
40
0.193660761654358
40
0.210282573465307
40
0.210282573465307
40
0.226904385276256
40
0.226904385276256
40
0.260148008898154
40
0.260148008898154
40
0.293391632520052
40
0.293391632520052
40
0.326635256141949
40
0.326635256141949
40
0.359878879763846
40
0.359878879763846
40
0.376500691574795
40
0.376500691574795
40
0.393122503385744
40
0.393122503385744
40
0.409744315196693
40
0.409744315196693
40
0.426366127007641
40
0.426366127007641
40
0.459609750629538
40
0.459609750629538
40
0.476231562440486
40
0.476231562440486
40
0.492853374251434
40
0.492853374251434
40
0.52609699787333
40
0.52609699787333
40
0.559340621495225
40
0.559340621495225
40
0.592584245117121
40
0.592584245117121
40
0.625827868739016
40
0.625827868739016
40
0.642449680549964
40
0.642449680549964
40
0.659071492360911
40
0.659071492360911
40
0.675693304171858
40
0.675693304171858
40
0.692315115982805
40
0.692315115982805
40
0.7255587396047
40
0.7255587396047
40
0.742180551415647
40
0.742180551415647
40
0.758802363226594
40
0.758802363226594
40
0.775424175037541
40
0.775424175037541
40
0.792045986848488
40
0.792045986848488
40
0.825289610470384
40
0.825289610470384
40
0.85853323409228
40
0.85853323409228
40
0.891776857714175
40
0.891776857714175
40
0.908398669525123
40
0.908398669525123
40
0.92502048133607
40
0.92502048133607
40
0.941642293147018
40
0.941642293147018
40
0.958264104957966
40
0.958264104957966
40
0.99150772857986
40
0.99150772857986
40
1
40
1
40
1
40
1
41
1
10
14.6252686832494
20
3.45568213228094
30
0
41
1
10
14.9092888406269
20
3.57191947787862
30
0
41
1
10
15.1933589925434
20
3.68059997980632
30
0
41
1
10
15.8207487467851
20
3.90563687318797
30
0
41
1
10
16.1632558937827
20
4.01921386535676
30
0
41
1
10
16.8511385578385
20
4.22200787552981
30
0
41
1
10
17.1966342287286
20
4.31181989311909
30
0
41
1
10
17.711944312195
20
4.42861489086962
30
0
41
1
10
17.8833770224047
20
4.46453342516381
30
0
41
1
10
18.2268170467731
20
4.52967813727165
30
0
41
1
10
18.3986426986814
20
4.55902597964209
30
0
41
1
10
18.7423448004344
20
4.61139343062058
30
0
41
1
10
18.9142340979927
20
4.63440796612602
30
0
41
1
10
19.2579071661545
20
4.67408548422259
30
0
41
1
10
19.4295594478485
20
4.69076291727512
30
0
41
1
10
19.9460969139012
20
4.73065313340106
30
0
41
1
10
20.2904441599001
20
4.74385738190938
30
0
41
1
10
20.8056074468418
20
4.74395246418587
30
0
41
1
10
20.9769695824549
20
4.74065838251738
30
0
41
1
10
21.3200139398213
20
4.72741620370655
30
0
41
1
10
21.4918477556413
20
4.71750917453701
30
0
41
1
10
22.0078439104309
20
4.67797303439605
30
0
41
1
10
22.3528855363551
20
4.63839752690106
30
0
41
1
10
23.0395974903279
20
4.53305576400803
30
0
41
1
10
23.3833017149902
20
4.46804613111135
30
0
41
1
10
24.0704046976475
20
4.31328625066681
30
0
41
1
10
24.413124933764
20
4.22288559221698
30
0
41
1
10
25.1022548434679
20
4.01974062065597
30
0
41
1
10
25.446599313904
20
3.90728241919538
30
0
41
1
10
25.961125024323
20
3.72148581527256
30
0
41
1
10
26.1324584524185
20
3.65678264095072
30
0
41
1
10
26.4758347239318
20
3.5230103818927
30
0
41
1
10
26.6476979802596
20
3.45375994501274
30
0
41
1
10
26.9916359152434
20
3.310384047665
30
0
41
1
10
27.163722847001
20
3.23627424836985
30
0
41
1
10
27.507928856446
20
3.08286952063324
30
0
41
1
10
27.6796641246199
20
3.00358191942087
30
0
41
1
10
28.1951576672228
20
2.76116715153807
30
0
41
1
10
28.5389458038882
20
2.59267381370279
30
0
41
1
10
29.0538599819329
20
2.32833799314562
30
0
41
1
10
29.2252125584869
20
2.2380419201593
30
0
41
1
10
29.5685452388604
20
2.05481880564204
30
0
41
1
10
29.7406072455189
20
1.96202998805649
30
0
41
1
10
30.2574989240616
20
1.67943117070931
30
0
41
1
10
30.6013915108624
20
1.48588574476256
30
0
41
1
10
31.287179621021
20
1.09024217782883
30
0
41
1
10
31.6308154638592
20
0.890536539129698
30
0
41
1
10
32.3183298101131
20
0.485388009121607
30
0
41
1
10
32.6622132057198
20
0.278589507119506
30
0
41
1
10
33.3500061128559
20
-0.131122219800488
30
0
41
1
10
33.6936862802622
20
-0.335157180454075
30
0
41
1
10
34.207937136215
20
-0.641550169204407
30
0
41
1
10
34.3793341159316
20
-0.74341407777203
30
0
41
1
10
34.722963945454
20
-0.94515244563803
30
0
41
1
10
34.895030174547
20
-1.04530559959497
30
0
41
1
10
35.2395378842315
20
-1.24439003745093
30
0
41
1
10
35.4117784237881
20
-1.3431753379771
30
0
41
1
10
35.7552562185766
20
-1.53917259973301
30
0
41
1
10
35.9265898953015
20
-1.63646335186769
30
0
41
1
10
36.4414212847824
20
-1.92299555977698
30
0
41
1
10
36.785061121172
20
-2.1080497568133
30
0
41
1
10
37.3002224464284
20
-2.37806709001083
30
0
41
1
10
37.4717406076427
20
-2.46701925250466
30
0
41
1
10
37.8157043727848
20
-2.64084813409423
30
0
41
1
10
37.9879648318712
20
-2.72562971125302
30
0
41
1
10
38.3319291651441
20
-2.89102361729277
30
0
41
1
10
38.5037795708137
20
-2.97166129233818
30
0
41
1
10
38.8470820315766
20
-3.12899038349016
30
0
41
1
10
39.0183878543068
20
-3.20585849064429
30
0
41
1
10
39.5325613395431
20
-3.42938122991697
30
0
41
1
10
39.8764493172205
20
-3.56812770574251
30
0
41
1
10
40.5650449696528
20
-3.8267512395893
30
0
41
1
10
40.9080409979529
20
-3.94646910853081
30
0
41
1
10
41.5948438077884
20
-4.16102456299149
30
0
41
1
10
41.938322722242
20
-4.25674338052985
30
0
41
1
10
42.4528324464468
20
-4.38332883811211
30
0
41
1
10
42.624466103317
20
-4.4224916014474
30
0
41
1
10
42.9686847207425
20
-4.49435176097228
30
0
41
1
10
43.1409746696548
20
-4.52711076205949
30
0
41
1
10
43.4848067315895
20
-4.58621967852022
30
0
41
1
10
43.6565068079157
20
-4.6125950999253
30
0
41
1
10
43.9992195855444
20
-4.65904019937992
30
0
41
1
10
44.1702912224677
20
-4.67906080269114
30
0
41
1
10
44.6845094974402
20
-4.7289986361161
30
0
41
1
10
45.0279453310004
20
-4.74915841405451
30
0
41
1
10
45.4591353467904
20
-4.75795102444133
30
0
41
1
10
45.5468796805329
20
-4.75887023260907
30
0
41
1
10
45.6346509697647
20
-4.75891683219359
30
0
0
SPLINE
5
B4
100
AcDbEntity
8
1
62
256
6
ByLayer
370
18
48
1
60
0
100
AcDbSpline
70
4
71
3
72
62
73
58
40
0
40
0
40
0
40
0
40
0.0624999999999978
40
0.0624999999999978
40
0.124999999999996
40
0.124999999999996
40
0.249999999999991
40
0.249999999999991
40
0.374999999999987
40
0.374999999999987
40
0.499999999999983
40
0.499999999999983
40
0.562499999999981
40
0.562499999999981
40
0.624999999999978
40
0.624999999999978
40
0.656249999999977
40
0.656249999999977
40
0.664062499999977
40
0.664062499999977
40
0.667968749999977
40
0.667968749999977
40
0.671874999999977
40
0.671874999999977
40
0.673828124999977
40
0.673828124999977
40
0.675781249999977
40
0.679687499999977
40
0.687499999999977
40
0.687499999999977
40
0.718749999999981
40
0.718749999999981
40
0.734374999999983
40
0.734374999999983
40
0.749999999999984
40
0.749999999999984
40
0.765624999999986
40
0.765624999999986
40
0.773437499999987
40
0.773437499999987
40
0.781249999999987
40
0.781249999999987
40
0.796874999999988
40
0.796874999999988
40
0.812499999999989
40
0.812499999999989
40
0.82812499999999
40
0.82812499999999
40
0.843749999999991
40
0.843749999999991
40
0.874999999999993
40
0.874999999999993
40
0.906249999999994
40
0.906249999999994
40
0.937499999999996
40
0.937499999999996
40
1
40
1
40
1
40
1
41
1
10
14.4451959616073
20
-3.38099238411937
30
0
41
1
10
14.1266606963456
20
-3.24738307693096
30
0
41
1
10
13.8063760589255
20
-3.10840338084574
30
0
41
1
10
13.1612368526623
20
-2.82283101411204
30
0
41
1
10
12.8358095695825
20
-2.67597667188966
30
0
41
1
10
11.8545353521598
20
-2.23144000595371
30
0
41
1
10
11.1965316427432
20
-1.93109314633139
30
0
41
1
10
9.86130351089315
20
-1.35746910317468
30
0
41
1
10
9.18397220905567
20
-1.08447411231353
30
0
41
1
10
7.8003727671053
20
-0.598789131278693
30
0
41
1
10
7.09411106905728
20
-0.386181162350454
30
0
41
1
10
6.00868291469527
20
-0.130865527105954
30
0
41
1
10
5.64433624800739
20
-0.0567191881107476
30
0
41
1
10
4.91161477576543
20
0.0678101013469927
30
0
41
1
10
4.54290601865671
20
0.118243453442005
30
0
41
1
10
3.98860714504781
20
0.174964386158763
30
0
41
1
10
3.80354533444708
20
0.190734455059157
30
0
41
1
10
3.57183952692944
20
0.206433298145271
30
0
41
1
10
3.52547943080714
20
0.209372294842837
30
0
41
1
10
3.45591068781548
20
0.213477607186235
30
0
41
1
10
3.43279949794894
20
0.215676684855396
30
0
41
1
10
3.38607580695771
20
0.214762706032389
30
0
41
1
10
3.36174318994475
20
0.211465462019618
30
0
41
1
10
3.32897724534826
20
0.200487766567733
30
0
41
1
10
3.3188343056253
20
0.195371377605682
30
0
41
1
10
3.29886103523091
20
0.184553345835269
30
0
41
1
10
3.26895651350139
20
0.168221973978575
30
0
41
1
10
3.19957477825227
20
0.129370389721345
30
0
41
1
10
3.1408101432753
20
0.0947397470633859
30
0
41
1
10
2.9466394984436
20
-0.0239224520422283
30
0
41
1
10
2.79810986468954
20
-0.128127986590044
30
0
41
1
10
2.59174719248983
20
-0.303060000868385
30
0
41
1
10
2.52564877138994
20
-0.364553532888465
30
0
41
1
10
2.40026643521131
20
-0.49558935324012
30
0
41
1
10
2.34082901493872
20
-0.565463064098225
30
0
41
1
10
2.23411500675761
20
-0.711148679697033
30
0
41
1
10
2.18639919994035
20
-0.787340404666452
30
0
41
1
10
2.12520788845279
20
-0.907737790109593
30
0
41
1
10
2.10649871531385
20
-0.949075670339028
30
0
41
1
10
2.07366467685958
20
-1.03213868275174
30
0
41
1
10
2.05943242648968
20
-1.07403871909034
30
0
41
1
10
2.02342273695703
20
-1.20084437547851
30
0
41
1
10
2.00832151272385
20
-1.2868541576089
30
0
41
1
10
1.99687823402652
20
-1.4618516077507
30
0
41
1
10
2.0007826217321
20
-1.54858955914892
30
0
41
1
10
2.02521679008507
20
-1.71747875476609
30
0
41
1
10
2.04599416493599
20
-1.80088213877673
30
0
41
1
10
2.10047305948118
20
-1.96047301007209
30
0
41
1
10
2.1339712090176
20
-2.03668305012647
30
0
41
1
10
2.24902727373151
20
-2.25677326822276
30
0
41
1
10
2.34586689070892
20
-2.39302652106593
30
0
41
1
10
2.55758564623494
20
-2.64154356419638
30
0
41
1
10
2.67315883507774
20
-2.75510222347759
30
0
41
1
10
2.91709415147267
20
-2.96740967602509
30
0
41
1
10
3.04609353276106
20
-3.06642807953159
30
0
41
1
10
3.44267073574468
20
-3.34306006259925
30
0
41
1
10
3.71924035907614
20
-3.50100400616228
30
0
41
1
10
4.00252512935697
20
-3.64195979782508
30
0
0
SPLINE
5
B5
100
AcDbEntity
8
1
62
256
6
ByLayer
370
13
48
1
60
0
100
AcDbSpline
70
4
71
3
72
8
73
4
40
0
40
0
40
0
40
0
40
1
40
1
40
1
40
1
41
1
10
4.00244865906933
20
2.8039077064652
30
0
41
1
10
4.00431417654991
20
2.78995080086003
30
0
41
1
10
4.00724303861898
20
2.77615403227142
30
0
41
1
10
4.01121542509136
20
2.76265940918728
30
0
0
SPLINE
5
B6
100
AcDbEntity
8
1
62
256
6
ByLayer
370
18
48
1
60
0
100
AcDbSpline
70
4
71
3
72
12
73
8
40
0
40
0
40
0
40
0
40
0.250000000000007
40
0.250000000000007
40
0.500000000000014
40
0.500000000000014
40
1
40
1
40
1
40
1
41
1
10
47.3929437052961
20
-4.60333867554578
30
0
41
1
10
47.3979008736642
20
-4.59007573341577
30
0
41
1
10
47.4026020440324
20
-4.57650228323658
30
0
41
1
10
47.4101312968847
20
-4.5522098532457
30
0
41
1
10
47.4129331421017
20
-4.54152124508025
30
0
41
1
10
47.4174223927715
20
-4.51837181618072
30
0
41
1
10
47.4155764112789
20
-4.51432408329424
30
0
41
1
10
47.4113494751448
20
-4.5173824908139
30
0
0
SPLINE
5
B7
100
AcDbEntity
8
1
62
256
6
ByLayer
370
18
48
1
60
0
100
AcDbSpline
70
4
71
3
72
22
73
18
40
0
40
0
40
0
40
0
40
0.124999999999997
40
0.124999999999997
40
0.187499999999995
40
0.187499999999995
40
0.249999999999994
40
0.249999999999994
40
0.499999999999995
40
0.499999999999995
40
0.624999999999996
40
0.624999999999996
40
0.749999999999997
40
0.749999999999997
40
0.874999999999999
40
0.874999999999999
40
1
40
1
40
1
40
1
41
1
10
47.3459263379956
20
-4.54453003646083
30
0
41
1
10
47.2766357517282
20
-4.54445899311892
30
0
41
1
10
47.2108444747341
20
-4.53382747301254
30
0
41
1
10
47.1176824408512
20
-4.50120679267636
30
0
41
1
10
47.0875517618543
20
-4.48754673142628
30
0
41
1
10
47.0292181305322
20
-4.45440897146196
30
0
41
1
10
47.0009840338414
20
-4.43487506072384
30
0
41
1
10
46.8668495632029
20
-4.32375124815201
30
0
41
1
10
46.7800020150827
20
-4.1916637499362
30
0
41
1
10
46.6824804800396
20
-3.92440197859926
30
0
41
1
10
46.6554245618822
20
-3.82274937083892
30
0
41
1
10
46.6146453964537
20
-3.60154827249855
30
0
41
1
10
46.6006322843547
20
-3.48157159541194
30
0
41
1
10
46.5853224474019
20
-3.22291973533251
30
0
41
1
10
46.5840235578961
20
-3.08424773530064
30
0
41
1
10
46.594731365308
20
-2.78733885556557
30
0
41
1
10
46.6066596031553
20
-2.63197211284162
30
0
41
1
10
46.6248396552679
20
-2.47086045574861
30
0
0
SPLINE
5
B8
100
AcDbEntity
8
1
62
256
6
ByLayer
370
18
48
1
60
0
100
AcDbSpline
70
4
71
3
72
18
73
14
40
0
40
0
40
0
40
0
40
0.195407907008568
40
0.195407907008568
40
0.390815814017136
40
0.390815814017136
40
0.586223721025704
40
0.586223721025704
40
0.781631628034272
40
0.781631628034272
40
0.97703953504284
40
0.97703953504284
40
1
40
1
40
1
40
1
41
1
10
9.13439544160363
20
-4.52179668896176
30
0
41
1
10
9.49344126482879
20
-4.5204936137666
30
0
41
1
10
9.85179015952107
20
-4.50521162369995
30
0
41
1
10
10.5673770194871
20
-4.44579360441551
30
0
41
1
10
10.9248057073606
20
-4.40204817289955
30
0
41
1
10
11.6415869451092
20
-4.2899230731793
30
0
41
1
10
12.0008936836514
20
-4.22190154307552
30
0
41
1
10
12.7168364621363
20
-4.0582637909674
30
0
41
1
10
13.0745029950242
20
-3.96349498684387
30
0
41
1
10
13.7900395658368
20
-3.75088347887765
30
0
41
1
10
14.1478104330104
20
-3.63223266866194
30
0
41
1
10
14.5488403571977
20
-3.48853102261182
30
0
41
1
10
14.5909933980841
20
-3.4732734180686
30
0
41
1
10
14.6331339448409
20
-3.45786981542193
30
0
0
SPLINE
5
B9
100
AcDbEntity
8
1
62
256
6
ByLayer
370
18
48
1
60
0
100
AcDbSpline
70
4
71
3
72
30
73
26
40
0
40
0
40
0
40
0
40
0.084408213253706
40
0.084408213253706
40
0.141632699925351
40
0.141632699925351
40
0.198857186596995
40
0.198857186596995
40
0.25608167326864
40
0.25608167326864
40
0.313306159940284
40
0.313306159940284
40
0.42775513328357
40
0.42775513328357
40
0.484979619955213
40
0.484979619955213
40
0.542204106626856
40
0.542204106626856
40
0.656653079970142
40
0.656653079970142
40
0.771102053313428
40
0.771102053313428
40
0.885551026656714
40
0.885551026656714
40
1
40
1
40
1
40
1
41
1
10
34.1237733138275
20
4.53567302919544
30
0
41
1
10
34.3876778220841
20
4.53460120906891
30
0
41
1
10
34.6516102110831
20
4.52634822342841
30
0
41
1
10
35.0945076135922
20
4.49893791356621
30
0
41
1
10
35.2735147311994
20
4.48441659459922
30
0
41
1
10
35.6319751093589
20
4.44918410761829
30
0
41
1
10
35.811496089876
20
4.42840732485905
30
0
41
1
10
36.1699212431382
20
4.37917182778986
30
0
41
1
10
36.3489418931688
20
4.35094339285456
30
0
41
1
10
36.7066449641544
20
4.28841843983466
30
0
41
1
10
36.8853514644637
20
4.25408652856851
30
0
41
1
10
37.4216311803349
20
4.141241546153
30
0
41
1
10
37.7796597067267
20
4.05300181837586
30
0
41
1
10
38.3173307975883
20
3.90365365817391
30
0
41
1
10
38.4966455914023
20
3.85071955733576
30
0
41
1
10
38.8546302196668
20
3.73862203402734
30
0
41
1
10
39.0334773208714
20
3.67953644742894
30
0
41
1
10
39.5700722491243
20
3.49443612870468
30
0
41
1
10
39.9273692931551
20
3.35998003830372
30
0
41
1
10
40.6427427205069
20
3.0722469874321
30
0
41
1
10
41.0018458361189
20
2.91963174303825
30
0
41
1
10
41.7176213615521
20
2.59568870804918
30
0
41
1
10
42.074498463548
20
2.42482556133271
30
0
41
1
10
42.7893971533179
20
2.07097069216079
30
0
41
1
10
43.1468855365756
20
1.88693144643153
30
0
41
1
10
43.5051187070131
20
1.69725384974808
30
0
0
SPLINE
5
BA
100
AcDbEntity
8
1
62
256
6
ByLayer
370
18
48
1
60
0
100
AcDbSpline
70
4
71
3
72
8
73
4
40
0
40
0
40
0
40
0
40
1
40
1
40
1
40
1
41
1
10
9.02050256761243
20
4.52177744157987
30
0
41
1
10
9.05836045758528
20
4.52192792379222
30
0
41
1
10
9.09625492518194
20
4.52193367529452
30
0
41
1
10
9.13418729476103
20
4.52179750280263
30
0
0
SPLINE
5
BB
100
AcDbEntity
8
1
62
256
6
ByLayer
370
18
48
1
60
0
100
AcDbSpline
70
4
71
3
72
18
73
14
40
0
40
0
40
0
40
0
40
0.114395292943956
40
0.114395292943956
40
0.517906027021
40
0.517906027021
40
0.618783710540262
40
0.618783710540262
40
0.719661394059524
40
0.719661394059524
40
0.921416761098046
40
0.921416761098046
40
1
40
1
40
1
40
1
41
1
10
8.85160360171639
20
-0.00568163329595
30
0
41
1
10
9.10607998428907
20
-0.153414178414181
30
0
41
1
10
9.36008515559752
20
-0.300831698624535
30
0
41
1
10
10.5092006334236
20
-0.964566800536602
30
0
41
1
10
11.4014529630258
20
-1.47286179858909
30
0
41
1
10
12.5301301766735
20
-2.06750929311423
30
0
41
1
10
12.7569887878938
20
-2.184686526598
30
0
41
1
10
13.2099894534023
20
-2.41312987404814
30
0
41
1
10
13.4357118387344
20
-2.52419503777023
30
0
41
1
10
14.1111874047782
20
-2.8471574637739
30
0
41
1
10
14.5593391759256
20
-3.04875064297002
30
0
41
1
10
15.1811196551749
20
-3.30722746369256
30
0
41
1
10
15.3553177355274
20
-3.37732275109391
30
0
41
1
10
15.5295141227171
20
-3.44494671996557
30
0
0
SPLINE
5
BC
100
AcDbEntity
8
1
62
256
6
ByLayer
370
13
48
1
60
0
100
AcDbSpline
70
4
71
3
72
16
73
12
40
0
40
0
40
0
40
0
40
0.297085550844839
40
0.297085550844839
40
0.389319364914919
40
0.389319364914919
40
0.481553178985
40
0.481553178985
40
0.66602080712516
40
0.66602080712516
40
1
40
1
40
1
40
1
41
1
10
15.5295141227146
20
-3.44494671996461
30
0
41
1
10
16.2497847115711
20
-3.72455961358315
30
0
41
1
10
16.9700263528769
20
-3.9619210393644
30
0
41
1
10
17.9226286505977
20
-4.20727016912807
30
0
41
1
10
18.1494095485502
20
-4.26067240083401
30
0
41
1
10
18.6023291547462
20
-4.35680681339116
30
0
41
1
10
18.8280596618463
20
-4.39949305987142
30
0
41
1
10
19.5035692006086
20
-4.51127292741012
30
0
41
1
10
19.9516704041259
20
-4.56415441370334
30
0
41
1
10
21.2090554260994
20
-4.65126418475464
30
0
41
1
10
22.0172572361526
20
-4.63593159028346
30
0
41
1
10
22.8327663318593
20
-4.54799997169445
30
0
0
SPLINE
5
BD
100
AcDbEntity
8
1
62
256
6
ByLayer
370
18
48
1
60
0
100
AcDbSpline
70
4
71
3
72
18
73
14
40
0
40
0
40
0
40
0
40
0.250000000000007
40
0.250000000000007
40
0.375000000000007
40
0.375000000000007
40
0.500000000000008
40
0.500000000000008
40
0.750000000000004
40
0.750000000000004
40
0.875000000000002
40
0.875000000000002
40
1
40
1
40
1
40
1
41
1
10
48.3082693561613
20
2.32690667423611
30
0
41
1
10
48.2357666397854
20
2.52131929164389
30
0
41
1
10
48.1631955765654
20
2.71571713872674
30
0
41
1
10
48.0540433772379
20
3.00663681096734
30
0
41
1
10
48.0176260135396
20
3.10353510432768
30
0
41
1
10
47.9446383549887
20
3.29698754132093
30
0
41
1
10
47.9080706788029
20
3.39354757788993
30
0
41
1
10
47.7984033969237
20
3.68330813039196
30
0
41
1
10
47.7251860120343
20
3.87644845339966
30
0
41
1
10
47.6149650660747
20
4.16362679976308
30
0
41
1
10
47.5781920156849
20
4.25916253711702
30
0
41
1
10
47.5045776063532
20
4.44983674820443
30
0
41
1
10
47.4677283904232
20
4.54492952787157
30
0
41
1
10
47.4307233642057
20
4.63911615805878
30
0
0
SPLINE
5
BE
100
AcDbEntity
8
1
62
256
6
ByLayer
370
18
48
1
60
0
100
AcDbSpline
70
4
71
3
72
18
73
14
40
0
40
0
40
0
40
0
40
0.250000000000004
40
0.250000000000004
40
0.375000000000004
40
0.375000000000004
40
0.500000000000003
40
0.500000000000003
40
0.750000000000002
40
0.750000000000002
40
0.875000000000001
40
0.875000000000001
40
1
40
1
40
1
40
1
41
1
10
48.3082693561612
20
-2.3269066742362
30
0
41
1
10
48.2357666397853
20
-2.52131929164398
30
0
41
1
10
48.1631955765654
20
-2.71571713872683
30
0
41
1
10
48.0540433772379
20
-3.00663681096742
30
0
41
1
10
48.0176260135395
20
-3.10353510432773
30
0
41
1
10
47.9446383549887
20
-3.29698754132102
30
0
41
1
10
47.9080706788029
20
-3.39354757788999
30
0
41
1
10
47.7984033969237
20
-3.68330813039199
30
0
41
1
10
47.7251860120343
20
-3.87644845339975
30
0
41
1
10
47.6149650660748
20
-4.16362679976311
30
0
41
1
10
47.578192015685
20
-4.25916253711708
30
0
41
1
10
47.5045776063532
20
-4.44983674820446
30
0
41
1
10
47.4677283904233
20
-4.5449295278716
30
0
41
1
10
47.4307233642056
20
-4.63911615805878
30
0
0
SPLINE
5
BF
100
AcDbEntity
8
1
62
256
6
ByLayer
370
18
48
1
60
0
100
AcDbSpline
70
4
71
3
72
23
73
19
40
0
40
0
40
0
40
0
40
0.109348925941114
40
0.109348925941114
40
0.218697851882228
40
0.328046777823342
40
0.328046777823342
40
0.437395703764456
40
0.437395703764456
40
0.656093555646684
40
0.656093555646684
40
0.765442481587798
40
0.765442481587798
40
0.820116944558354
40
0.820116944558354
40
0.874791407528911
40
0.874791407528911
40
1
40
1
40
1
40
1
41
1
10
4.00244865906913
20
2.80390770646685
30
0
41
1
10
4.00245081290151
20
2.93446392634232
30
0
41
1
10
4.00245249570926
20
3.06046557904602
30
0
41
1
10
4.00245507523803
20
3.2993926550337
30
0
41
1
10
4.00245688256956
20
3.52571860910345
30
0
41
1
10
4.00245759427364
20
3.72742382244522
30
0
41
1
10
4.00245796793132
20
3.91672445829093
30
0
41
1
10
4.0024579852616
20
4.00539448957335
30
0
41
1
10
4.00245783709451
20
4.25063337217543
30
0
41
1
10
4.00245749440097
20
4.38303352526717
30
0
41
1
10
4.00245773093607
20
4.53661795478638
30
0
41
1
10
4.00245793143205
20
4.58025119349532
30
0
41
1
10
4.00245853210441
20
4.63402364814189
30
0
41
1
10
4.00245878302488
20
4.65000952427528
30
0
41
1
10
4.00245939497299
20
4.67770381925311
30
0
41
1
10
4.00245975634209
20
4.68946582436394
30
0
41
1
10
4.00246114540587
20
4.72142340720924
30
0
41
1
10
4.00246243632898
20
4.73302662219126
30
0
41
1
10
4.00246409169489
20
4.73394270587875
30
0
0
SPLINE
5
C0
100
AcDbEntity
8
1
62
256
6
ByLayer
370
13
48
1
60
0
100
AcDbSpline
70
4
71
3
72
21
73
17
40
0
40
0
40
0
40
0
40
0.213789884203798
40
0.213789884203798
40
0.320684826305697
40
0.320684826305697
40
0.427579768407596
40
0.534474710509495
40
0.534474710509495
40
0.641369652611394
40
0.641369652611394
40
0.855159536815192
40
0.855159536815192
40
0.96205447891709
40
0.96205447891709
40
1
40
1
40
1
40
1
41
1
10
4.25027856202377
20
2.55905785588496
30
0
41
1
10
4.25030277160613
20
2.81791826530372
30
0
41
1
10
4.2503142610887
20
3.05535919104273
30
0
41
1
10
4.25032077338912
20
3.3796124641668
30
0
41
1
10
4.25032112826537
20
3.48179094331877
30
0
41
1
10
4.25031970062298
20
3.6717142424655
30
0
41
1
10
4.25031615479273
20
3.8481360420358
30
0
41
1
10
4.25031114542526
20
3.99784998641397
30
0
41
1
10
4.25030669570489
20
4.13392727760959
30
0
41
1
10
4.25030475334628
20
4.1952885378098
30
0
41
1
10
4.25030166304529
20
4.35459033288555
30
0
41
1
10
4.2503032666628
20
4.42956495986064
30
0
41
1
10
4.25031615699004
20
4.49551644518067
30
0
41
1
10
4.25032221871368
20
4.5096997729745
30
0
41
1
10
4.25033307578843
20
4.51779530140192
30
0
41
1
10
4.25033616150691
20
4.51889026832529
30
0
41
1
10
4.25033949236663
20
4.51895982290438
30
0
0
SPLINE
5
C1
100
AcDbEntity
8
1
62
256
6
ByLayer
370
18
48
1
60
0
100
AcDbSpline
70
4
71
3
72
24
73
20
40
0
40
0
40
0
40
0
40
0.125000000000004
40
0.125000000000004
40
0.187500000000004
40
0.187500000000004
40
0.250000000000005
40
0.250000000000005
40
0.375000000000005
40
0.375000000000005
40
0.437500000000006
40
0.437500000000006
40
0.500000000000006
40
0.500000000000006
40
0.750000000000003
40
0.750000000000003
40
0.875000000000002
40
0.875000000000002
40
1
40
1
40
1
40
1
41
1
10
43.5051187070268
20
1.69725384974038
30
0
41
1
10
43.5525263059792
20
1.49198261002121
30
0
41
1
10
43.6178529926013
20
1.28665656535742
30
0
41
1
10
43.7392966328048
20
0.978595766259161
30
0
41
1
10
43.7838909537338
20
0.875521492119702
30
0
41
1
10
43.8798004783621
20
0.671089875919819
30
0
41
1
10
43.9307746720461
20
0.570385684144583
30
0
41
1
10
44.0917984004072
20
0.272328781899318
30
0
41
1
10
44.2098942372396
20
0.0790042874088499
30
0
41
1
10
44.4006205133333
20
-0.204182644121801
30
0
41
1
10
44.4666420782236
20
-0.297644943160805
30
0
41
1
10
44.6012886038467
20
-0.480236757282256
30
0
41
1
10
44.6700716111879
20
-0.569624807651962
30
0
41
1
10
45.0205925313568
20
-1.00793130290268
30
0
41
1
10
45.3218589069202
20
-1.33132644042561
30
0
41
1
10
45.7979589398428
20
-1.78478962053535
30
0
41
1
10
45.960717155894
20
-1.93057925708405
30
0
41
1
10
46.2895792980627
20
-2.20936799480074
30
0
41
1
10
46.4562034813676
20
-2.34283372954238
30
0
41
1
10
46.624839655268
20
-2.47086045574861
30
0
0
SPLINE
5
C2
100
AcDbEntity
8
1
62
256
6
ByLayer
370
18
48
1
60
0
100
AcDbSpline
70
4
71
3
72
16
73
12
40
0
40
0
40
0
40
0
40
0.22109069613596
40
0.22109069613596
40
0.493199563891107
40
0.493199563891107
40
0.629253997768682
40
0.629253997768682
40
0.765308431646258
40
0.765308431646258
40
1
40
1
40
1
40
1
41
1
10
21.5468810298701
20
-4.52903580394914
30
0
41
1
10
21.183045545626
20
-4.52898094688177
30
0
41
1
10
20.8196628882083
20
-4.51472813763797
30
0
41
1
10
20.008279504639
20
-4.45153843450635
30
0
41
1
10
19.5599449198149
20
-4.39528622123473
30
0
41
1
10
18.8842021376353
20
-4.27924359909741
30
0
41
1
10
18.658406165316
20
-4.23527138291476
30
0
41
1
10
18.2053899403932
20
-4.1368867673726
30
0
41
1
10
17.9785462542254
20
-4.0824997517949
30
0
41
1
10
17.3633443945689
20
-3.92179884344787
30
0
41
1
10
16.9757573158255
20
-3.80613102852198
30
0
41
1
10
16.5890297388546
20
-3.67773238541926
30
0
0
SPLINE
5
C3
100
AcDbEntity
8
1
62
256
6
ByLayer
370
13
48
1
60
0
100
AcDbSpline
70
4
71
3
72
24
73
20
40
0
40
0
40
0
40
0
40
0.1347279985081
40
0.1347279985081
40
0.253169303374997
40
0.253169303374997
40
0.312389955808445
40
0.312389955808445
40
0.371610608241894
40
0.371610608241894
40
0.608493217975687
40
0.608493217975687
40
0.726934522842583
40
0.726934522842583
40
0.786155175276032
40
0.786155175276032
40
0.84537582770948
40
0.84537582770948
40
1
40
1
40
1
40
1
41
1
10
16.5890297388749
20
-3.67773238542597
30
0
41
1
10
16.0789888137799
20
-3.50839208851266
30
0
41
1
10
15.5704429070998
20
-3.31690777378833
30
0
41
1
10
14.6133613382637
20
-2.92068854266159
30
0
41
1
10
14.1649463115717
20
-2.72036999325857
30
0
41
1
10
13.4892114633566
20
-2.4002542645606
30
0
41
1
10
13.2634221158649
20
-2.2902965836642
30
0
41
1
10
12.8103377446209
20
-2.0643932062587
30
0
41
1
10
12.5834315494118
20
-1.9486285513575
30
0
41
1
10
11.4543522772972
20
-1.36165026978824
30
0
41
1
10
10.5614415167929
20
-0.861523698175148
30
0
41
1
10
9.21768956729147
20
-0.100742410230055
30
0
41
1
10
8.76918355214681
20
0.154874968532766
30
0
41
1
10
8.09335647948666
20
0.537401218747192
30
0
41
1
10
7.86751694162879
20
0.664670906144295
30
0
41
1
10
7.41434145259709
20
0.918076124187706
30
0
41
1
10
7.18733951763261
20
1.04403794663077
30
0
41
1
10
6.37025796550699
20
1.49211539793387
30
0
41
1
10
5.78200839777759
20
1.80534656625162
30
0
41
1
10
5.19257188225171
20
2.10159937514371
30
0
0
SPLINE
5
C4
100
AcDbEntity
8
1
62
256
6
ByLayer
370
18
48
1
60
0
100
AcDbSpline
70
4
71
3
72
22
73
18
40
0
40
0
40
0
40
0
40
0.166791764978427
40
0.166791764978427
40
0.333583529956854
40
0.333583529956854
40
0.500375294935281
40
0.500375294935281
40
0.583771177424495
40
0.583771177424495
40
0.667167059913708
40
0.667167059913708
40
0.750562942402922
40
0.750562942402922
40
0.833958824892135
40
0.833958824892135
40
1
40
1
40
1
40
1
41
1
10
14.4451659429154
20
-3.38095037929102
30
0
41
1
10
14.7891760105554
20
-3.52566338074635
30
0
41
1
10
15.1333870147829
20
-3.65908877807894
30
0
41
1
10
15.8207487467851
20
-3.90563687318797
30
0
41
1
10
16.1632558937827
20
-4.01921386535676
30
0
41
1
10
16.8511385578385
20
-4.22200787552981
30
0
41
1
10
17.1966342287286
20
-4.31181989311909
30
0
41
1
10
17.711944312195
20
-4.42861489086962
30
0
41
1
10
17.8833770224047
20
-4.46453342516381
30
0
41
1
10
18.2268170467731
20
-4.52967813727165
30
0
41
1
10
18.3986426986814
20
-4.55902597964209
30
0
41
1
10
18.7423448004344
20
-4.61139343062058
30
0
41
1
10
18.9142340979927
20
-4.63440796612602
30
0
41
1
10
19.2579071661545
20
-4.67408548422259
30
0
41
1
10
19.4295594478485
20
-4.69076291727512
30
0
41
1
10
19.9445472459071
20
-4.73053345845921
30
0
41
1
10
20.2873449232739
20
-4.74373826825789
30
0
41
1
10
20.6292496603636
20
-4.74391911593537
30
0
0
SPLINE
5
C5
100
AcDbEntity
8
1
62
256
6
ByLayer
370
18
48
1
60
0
100
AcDbSpline
70
4
71
3
72
30
73
26
40
0
40
0
40
0
40
0
40
0.0732772434495046
40
0.0732772434495046
40
0.205666208670999
40
0.205666208670999
40
0.338055173892494
40
0.338055173892494
40
0.404249656503244
40
0.404249656503244
40
0.470444139113993
40
0.470444139113993
40
0.536638621724743
40
0.536638621724743
40
0.602833104335492
40
0.602833104335492
40
0.735222069556995
40
0.735222069556995
40
0.801416552167746
40
0.801416552167746
40
0.867611034778497
40
0.867611034778497
40
0.933805517389249
40
0.933805517389249
40
1
40
1
40
1
40
1
41
1
10
39.6495356581802
20
3.47390470421848
30
0
41
1
10
39.8397352655955
20
3.55140100721681
30
0
41
1
10
40.0301784235394
20
3.6258654573401
30
0
41
1
10
40.5650449696527
20
3.82675123958927
30
0
41
1
10
40.9080409979529
20
3.94646910853078
30
0
41
1
10
41.5948438077884
20
4.16102456299149
30
0
41
1
10
41.9383227222419
20
4.25674338052985
30
0
41
1
10
42.4528324464467
20
4.38332883811211
30
0
41
1
10
42.6244661033169
20
4.4224916014474
30
0
41
1
10
42.9686847207425
20
4.49435176097228
30
0
41
1
10
43.1409746696548
20
4.52711076205946
30
0
41
1
10
43.4848067315895
20
4.58621967852022
30
0
41
1
10
43.6565068079157
20
4.6125950999253
30
0
41
1
10
43.9992195855443
20
4.65904019937992
30
0
41
1
10
44.1702912224676
20
4.67906080269114
30
0
41
1
10
44.6845094974402
20
4.7289986361161
30
0
41
1
10
45.0279453310004
20
4.74915841405451
30
0
41
1
10
45.5431248394309
20
4.75966369602077
30
0
41
1
10
45.714879398644
20
4.75983296718169
30
0
41
1
10
46.0587390423325
20
4.75346562460112
30
0
41
1
10
46.2306406884269
20
4.74696621977398
30
0
41
1
10
46.574124959494
20
4.72742539128149
30
0
41
1
10
46.7457282153403
20
4.7143848177133
30
0
41
1
10
47.0885205086655
20
4.68171746513479
30
0
41
1
10
47.2595531397383
20
4.66202812768529
30
0
41
1
10
47.4307233641879
20
4.63911615807223
30
0
0
SPLINE
5
C6
100
AcDbEntity
8
1
62
256
6
ByLayer
370
18
48
1
60
0
100
AcDbSpline
70
4
71
3
72
56
73
52
40
0
40
0
40
0
40
0
40
0.0519264411878735
40
0.0519264411878735
40
0.0778896617818109
40
0.0778896617818109
40
0.103852882375748
40
0.103852882375748
40
0.155779323563623
40
0.155779323563623
40
0.18174254415756
40
0.18174254415756
40
0.207705764751498
40
0.207705764751498
40
0.259632205939371
40
0.259632205939371
40
0.285595426533307
40
0.285595426533307
40
0.311558647127244
40
0.311558647127244
40
0.363485088315117
40
0.363485088315117
40
0.415411529502991
40
0.415411529502991
40
0.467337970690864
40
0.467337970690864
40
0.519264411878738
40
0.519264411878738
40
0.545227632472675
40
0.545227632472675
40
0.571190853066611
40
0.571190853066611
40
0.623117294254484
40
0.623117294254484
40
0.726970176630229
40
0.726970176630229
40
0.752933397224164
40
0.752933397224164
40
0.778896617818099
40
0.778896617818099
40
0.830823059005971
40
0.830823059005971
40
0.856786279599908
40
0.856786279599908
40
0.882749500193844
40
0.882749500193844
40
0.934675941381717
40
0.934675941381717
40
0.98660238256959
40
0.98660238256959
40
1
40
1
40
1
40
1
41
1
10
47.348551846135
20
-4.72190045977391
30
0
41
1
10
46.897202994693
20
-4.75575644645653
30
0
41
1
10
46.4465114073159
20
-4.76665740515298
30
0
41
1
10
45.7691570257478
20
-4.74858004167606
30
0
41
1
10
45.5429248310192
20
-4.73678750947627
30
0
41
1
10
45.0913589822202
20
-4.70184514481485
30
0
41
1
10
44.8658961142499
20
-4.67870365984103
30
0
41
1
10
44.1898379505087
20
-4.5925354567301
30
0
41
1
10
43.739556876045
20
-4.5127659232206
30
0
41
1
10
43.0621097650229
20
-4.36076985556934
30
0
41
1
10
42.8358663457691
20
-4.30467254741015
30
0
41
1
10
42.3844823749454
20
-4.18249170677902
30
0
41
1
10
42.159078397819
20
-4.11635418831645
30
0
41
1
10
41.4830891300879
20
-3.903385510893
30
0
41
1
10
41.0327137106193
20
-3.74200355069672
30
0
41
1
10
40.354864202609
20
-3.47334930037727
30
0
41
1
10
40.1287657842235
20
-3.37944110638634
30
0
41
1
10
39.6775234389045
20
-3.18412408114392
30
0
41
1
10
39.4521397753797
20
-3.08262164499519
30
0
41
1
10
38.7760758088236
20
-2.76741253260667
30
0
41
1
10
38.3254395901599
20
-2.54306336052144
30
0
41
1
10
37.4209687712094
20
-2.07035747554707
30
0
41
1
10
36.9701889473153
20
-1.82358668194615
30
0
41
1
10
36.0686817339278
20
-1.3151629294089
30
0
41
1
10
35.61742127807
20
-1.0531931492585
30
0
41
1
10
34.7132684481125
20
-0.520519708305784
30
0
41
1
10
34.2626599341679
20
-0.25136082691418
30
0
41
1
10
33.5864687641865
20
0.152438778306902
30
0
41
1
10
33.3610290648296
20
0.287055234939629
30
0
41
1
10
32.9095704457425
20
0.555490440224105
30
0
41
1
10
32.6831556074346
20
0.689571988816851
30
0
41
1
10
32.0061949307557
20
1.08764306570504
30
0
41
1
10
31.557831791282
20
1.34719401176685
30
0
41
1
10
30.2165722050643
20
2.10084399253418
30
0
41
1
10
29.3275119720368
20
2.56996351617266
30
0
41
1
10
28.2062840474174
20
3.08996862940643
30
0
41
1
10
27.9815148498199
20
3.19060969912448
30
0
41
1
10
27.5305130160892
20
3.38454338001111
30
0
41
1
10
27.3040080110913
20
3.47792977141421
30
0
41
1
10
26.6263779708798
20
3.74431453831343
30
0
41
1
10
26.1759316732038
20
3.90431474306973
30
0
41
1
10
25.499416803488
20
4.11521336801005
30
0
41
1
10
25.2737717008671
20
4.18066611638804
30
0
41
1
10
24.8217707761667
20
4.30147275459117
30
0
41
1
10
24.5954360266429
20
4.35680452208578
30
0
41
1
10
23.9180369593866
20
4.50643080993294
30
0
41
1
10
23.4675764126993
20
4.58471202850697
30
0
41
1
10
22.5652725082592
20
4.69661131301757
30
0
41
1
10
22.1123729687757
20
4.73019223629788
30
0
41
1
10
21.5443962630443
20
4.74343279838311
30
0
41
1
10
21.4279771902963
20
4.74462410949479
30
0
41
1
10
21.311595103828
20
4.74429323963588
30
0
0
SPLINE
5
C7
100
AcDbEntity
8
1
62
256
6
ByLayer
370
18
48
1
60
0
100
AcDbSpline
70
4
71
3
72
8
73
4
40
0
40
0
40
0
40
0
40
1
40
1
40
1
40
1
41
1
10
47.4113494751447
20
-4.5173824908139
30
0
41
1
10
47.38636515527
20
-4.53545994203444
30
0
41
1
10
47.3645391281127
20
-4.54456117653379
30
0
41
1
10
47.3459263379995
20
-4.54453003646083
30
0
0
SPLINE
5
C8
100
AcDbEntity
8
1
62
256
6
ByLayer
370
18
48
1
60
0
100
AcDbSpline
70
4
71
3
72
17
73
13
40
0
40
0
40
0
40
0
40
0.124737993632074
40
0.124737993632074
40
0.270614994693395
40
0.270614994693395
40
0.416491995754716
40
0.562368996816037
40
0.562368996816037
40
0.708245997877358
40
0.708245997877358
40
1
40
1
40
1
40
1
41
1
10
4.0024640911422
20
-4.73394239961141
30
0
41
1
10
4.00246532727476
20
-4.73462828851228
30
0
41
1
10
4.00246676664707
20
-4.72935418690255
30
0
41
1
10
4.0024703667284
20
-4.70494054511661
30
0
41
1
10
4.00247261995844
20
-4.68333257969436
30
0
41
1
10
4.00247762459492
20
-4.62428769757733
30
0
41
1
10
4.00248313607625
20
-4.54947623465304
30
0
41
1
10
4.00248952930491
20
-4.44379923045068
30
0
41
1
10
4.0024962701759
20
-4.32254119741532
30
0
41
1
10
4.00249982980904
20
-4.25380350566181
30
0
41
1
10
4.00251073720835
20
-4.02544375174494
30
0
41
1
10
4.00251820116728
20
-3.84659433359695
30
0
41
1
10
4.00252512982132
20
-3.64195979805325
30
0
0
SPLINE
5
C9
100
AcDbEntity
8
1
62
256
6
ByLayer
370
18
48
1
60
0
100
AcDbSpline
70
4
71
3
72
8
73
4
40
0
40
0
40
0
40
0
40
1
40
1
40
1
40
1
41
1
10
47.3485518461349
20
4.72190045977391
30
0
41
1
10
47.0128372225868
20
4.74708264377125
30
0
41
1
10
46.6773600439289
20
4.75957455515018
30
0
41
1
10
46.3414877931628
20
4.7593486291681
30
0
0
SPLINE
5
CA
100
AcDbEntity
8
1
62
256
6
ByLayer
370
18
48
1
60
0
100
AcDbSpline
70
4
71
3
72
36
73
32
40
0
40
0
40
0
40
0
40
0.0349812519797485
40
0.0349812519797485
40
0.103911162552624
40
0.103911162552624
40
0.172841073125499
40
0.172841073125499
40
0.207306028411937
40
0.207306028411937
40
0.241770983698374
40
0.241770983698374
40
0.310700894271249
40
0.310700894271249
40
0.345165849557686
40
0.345165849557686
40
0.379630804844123
40
0.379630804844123
40
0.448560715416996
40
0.448560715416996
40
0.483025670703434
40
0.483025670703434
40
0.517490625989872
40
0.517490625989872
40
0.586420536562747
40
0.586420536562747
40
0.724280357708498
40
0.724280357708498
40
0.862140178854249
40
0.862140178854249
40
1
40
1
40
1
40
1
41
1
10
23.7253751345532
20
-4.53443036023279
30
0
41
1
10
23.4971144523031
20
-4.57447956377496
30
0
41
1
10
23.2688330036679
20
-4.60893767261896
30
0
41
1
10
22.5899650465134
20
-4.69431753812486
30
0
41
1
10
22.1382629517624
20
-4.72864231196681
30
0
41
1
10
21.238083248858
20
-4.75146420020866
30
0
41
1
10
20.7887120822546
20
-4.74013174453782
30
0
41
1
10
20.1129169741947
20
-4.68903118160327
30
0
41
1
10
19.8870806530284
20
-4.66628400654341
30
0
41
1
10
19.4362184136088
20
-4.60971015084226
30
0
41
1
10
19.211093551685
20
-4.57589030957988
30
0
41
1
10
18.5360321981474
20
-4.45819227944907
30
0
41
1
10
18.0865321030047
20
-4.3579980184528
30
0
41
1
10
17.4102736211061
20
-4.17668702416489
30
0
41
1
10
17.1843906959579
20
-4.11103073402228
30
0
41
1
10
16.7337557399551
20
-3.97024835974105
30
0
41
1
10
16.5087324745473
20
-3.89507749955152
30
0
41
1
10
15.8337951784763
20
-3.65600724321726
30
0
41
1
10
15.3841061659577
20
-3.47846589176757
30
0
41
1
10
14.7074587402698
20
-3.18752713719246
30
0
41
1
10
14.4816767816108
20
-3.0865217808726
30
0
41
1
10
14.0311555413732
20
-2.87775456509314
30
0
41
1
10
13.8061588427624
20
-2.76988354106834
30
0
41
1
10
13.1312433062576
20
-2.43681453104159
30
0
41
1
10
12.6813953682225
20
-2.20217028869382
30
0
41
1
10
11.3270945361907
20
-1.4675870434294
30
0
41
1
10
10.4297218162786
20
-0.942340082785421
30
0
41
1
10
8.62369520457287
20
0.128094086260489
30
0
41
1
10
7.72744484685202
20
0.667750675734254
30
0
41
1
10
5.92094787753143
20
1.70770209663047
30
0
41
1
10
5.02497506749103
20
2.20092490118742
30
0
41
1
10
4.12221488033254
20
2.64581410761929
30
0
0
SPLINE
5
CB
100
AcDbEntity
8
1
62
256
6
ByLayer
370
18
48
1
60
0
100
AcDbSpline
70
4
71
3
72
24
73
20
40
0
40
0
40
0
40
0
40
0.249999999999975
40
0.249999999999975
40
0.499999999999949
40
0.499999999999949
40
0.624999999999947
40
0.624999999999947
40
0.687499999999956
40
0.687499999999956
40
0.749999999999965
40
0.749999999999965
40
0.812499999999974
40
0.812499999999974
40
0.874999999999982
40
0.874999999999982
40
0.937499999999991
40
0.937499999999991
40
1
40
1
40
1
40
1
41
1
10
47.1148250233898
20
1.40495079472456
30
0
41
1
10
47.2499698240649
20
1.43599598700504
30
0
41
1
10
47.3838598168978
20
1.47132301848487
30
0
41
1
10
47.6472680905004
20
1.55738760891461
30
0
41
1
10
47.7760914200764
20
1.6074634423955
30
0
41
1
10
47.9578062973995
20
1.70496902201856
30
0
41
1
10
48.0169707907827
20
1.74165748559602
30
0
41
1
10
48.0990209903491
20
1.80534749622197
30
0
41
1
10
48.1251584715275
20
1.82795806201537
30
0
41
1
10
48.1743056795284
20
1.87677084640575
30
0
41
1
10
48.197420413517
20
1.90316910379428
30
0
41
1
10
48.2381604044237
20
1.95887996179317
30
0
41
1
10
48.255955861055
20
1.98832112584625
30
0
41
1
10
48.2854068294612
20
2.051021197556
30
0
41
1
10
48.2970556347071
20
2.08468013452176
30
0
41
1
10
48.3124012428725
20
2.15249761556228
30
0
41
1
10
48.3163655160709
20
2.18700170258208
30
0
41
1
10
48.3173181595289
20
2.2571469648777
30
0
41
1
10
48.3142253514101
20
2.29255495995716
30
0
41
1
10
48.3082693561617
20
2.32690667423634
30
0
0
SPLINE
5
CC
100
AcDbEntity
8
1
62
256
6
ByLayer
370
18
48
1
60
0
100
AcDbSpline
70
4
71
3
72
18
73
14
40
0
40
0
40
0
40
0
40
0.0095979745381268
40
0.0095979745381268
40
0.222885823398728
40
0.222885823398728
40
0.329529747829028
40
0.329529747829028
40
0.436173672259328
40
0.436173672259328
40
0.86274936998053
40
0.86274936998053
40
1
40
1
40
1
40
1
41
1
10
33.8375854494974
20
0.0024197872125455
30
0
41
1
10
33.8577228187253
20
-0.0093116154194774
30
0
41
1
10
33.8778624010168
20
-0.0210444190356043
30
0
41
1
10
34.3456020238987
20
-0.293532289637767
30
0
41
1
10
34.7943644465224
20
-0.554848366617847
30
0
41
1
10
35.4716883904257
20
-0.943445169906369
30
0
41
1
10
35.6987281494661
20
-1.07264353887925
30
0
41
1
10
36.1508684953259
20
-1.32717436937636
30
0
41
1
10
36.3761758477506
20
-1.4526108708109
30
0
41
1
10
37.5001052217719
20
-2.068763138804
30
0
41
1
10
38.3906621854047
20
-2.52687076088458
30
0
41
1
10
39.5732224258702
20
-3.06163303016487
30
0
41
1
10
39.8615197142584
20
-3.18626744649956
30
0
41
1
10
40.1506763567656
20
-3.30471477426573
30
0
0
SPLINE
5
CD
100
AcDbEntity
8
1
62
256
6
ByLayer
370
13
48
1
60
0
100
AcDbSpline
70
4
71
3
72
20
73
16
40
0
40
0
40
0
40
0
40
0.0665546158308427
40
0.0665546158308427
40
0.159899154247757
40
0.159899154247757
40
0.253243692664671
40
0.253243692664671
40
0.626621846332339
40
0.626621846332339
40
0.719966384749253
40
0.719966384749253
40
0.813310923166168
40
0.813310923166168
40
1
40
1
40
1
40
1
41
1
10
40.150677282634
20
-3.30471515352946
30
0
41
1
10
40.3108705340848
20
-3.37033515852028
30
0
41
1
10
40.4713275367544
20
-3.43405623567017
30
0
41
1
10
40.8576386101451
20
-3.58232168148618
30
0
41
1
10
41.0842936340283
20
-3.66508828600655
30
0
41
1
10
41.5368935864767
20
-3.821317630159
30
0
41
1
10
41.7625175325752
20
-3.89468058897691
30
0
41
1
10
42.8883914408606
20
-4.23692192976742
30
0
41
1
10
43.7818849068029
20
-4.43229276177914
30
0
41
1
10
44.9056312649008
20
-4.56879227502955
30
0
41
1
10
45.1307388213281
20
-4.59069970833434
30
0
41
1
10
45.5820682875354
20
-4.62351677772651
30
0
41
1
10
45.8085914957097
20
-4.63442802213777
30
0
41
1
10
46.4881493078694
20
-4.65016201829218
30
0
41
1
10
46.940271929848
20
-4.63764431363634
30
0
41
1
10
47.3929437052781
20
-4.60333867554715
30
0
0
SPLINE
5
CE
100
AcDbEntity
8
1
62
256
6
ByLayer
370
18
48
1
60
0
100
AcDbSpline
70
4
71
3
72
10
73
6
40
0
40
0
40
0
40
0
40
0.5
40
0.5
40
1
40
1
40
1
40
1
41
1
10
4.00653941584437
20
2.77537622376991
30
0
41
1
10
4.01400446484095
20
2.73851965327935
30
0
41
1
10
4.02749035032673
20
2.7038104065029
30
0
41
1
10
4.06703942625572
20
2.64047085428831
30
0
41
1
10
4.09278785292682
20
2.61262526779208
30
0
41
1
10
4.12416048774014
20
2.59145361191648
30
0
0
SPLINE
5
CF
100
AcDbEntity
8
1
62
256
6
ByLayer
370
18
48
1
60
0
100
AcDbSpline
70
4
71
3
72
12
73
8
40
0
40
0
40
0
40
0
40
0.839973258171339
40
0.839973258171339
40
0.96517486660705
40
0.96517486660705
40
1
40
1
40
1
40
1
41
1
10
46.5401547927593
20
-4.54428796205414
30
0
41
1
10
45.0368544746621
20
-4.54358950573601
30
0
41
1
10
43.5599527830597
20
-4.29887953989535
30
0
41
1
10
41.8283186869839
20
-3.7696856981
30
0
41
1
10
41.6030210337249
20
-3.69622405275669
30
0
41
1
10
41.3139106772416
20
-3.59636098450397
30
0
41
1
10
41.250944923204
20
-3.57427359932962
30
0
41
1
10
41.1879694171272
20
-3.55185198493604
30
0
0
SPLINE
5
D0
100
AcDbEntity
8
1
62
256
6
ByLayer
370
13
48
1
60
0
100
AcDbSpline
70
4
71
3
72
24
73
20
40
0
40
0
40
0
40
0
40
0.0438790108341963
40
0.0438790108341963
40
0.165453186662066
40
0.165453186662066
40
0.408601538317804
40
0.408601538317804
40
0.469388626231739
40
0.469388626231739
40
0.530175714145674
40
0.530175714145674
40
0.651749889973544
40
0.651749889973544
40
0.894898241629281
40
0.894898241629281
40
0.955685329543216
40
0.955685329543216
40
1
40
1
40
1
40
1
41
1
10
41.1879694170588
20
-3.55185198491168
30
0
41
1
10
41.0245384780229
20
-3.49366451293454
30
0
41
1
10
40.8610418608749
20
-3.4332260713345
30
0
41
1
10
40.2469125322497
20
-3.1982214293775
30
0
41
1
10
39.7982570929015
20
-3.01028117681759
30
0
41
1
10
38.4553738847296
20
-2.40791113095329
30
0
41
1
10
37.5641533685643
20
-1.95503071907976
30
0
41
1
10
36.4398287605826
20
-1.34822620184795
30
0
41
1
10
36.2144679276394
20
-1.2247929802553
30
0
41
1
10
35.7622701759163
20
-0.974561500761837
30
0
41
1
10
35.5351771634821
20
-0.847653756577472
30
0
41
1
10
34.8575595434567
20
-0.466113066476595
30
0
41
1
10
34.4085332258068
20
-0.209869471944501
30
0
41
1
10
33.0648752079154
20
0.556130156501553
30
0
41
1
10
32.173670151923
20
1.06313829798429
30
0
41
1
10
31.0499363328474
20
1.66499719442257
30
0
41
1
10
30.8247146736728
20
1.78379486729716
30
0
41
1
10
30.4341136276053
20
1.98582467584316
30
0
41
1
10
30.2688181669635
20
2.07008597336744
30
0
41
1
10
30.1036698622018
20
2.15287587716224
30
0
0
SPLINE
5
D1
100
AcDbEntity
8
1
62
256
6
ByLayer
370
13
48
1
60
0
100
AcDbSpline
70
4
71
3
72
17
73
13
40
0
40
0
40
0
40
0
40
0.0969910154857058
40
0.0969910154857058
40
0.247492512904755
40
0.247492512904755
40
0.397994010323804
40
0.548495507742853
40
0.548495507742853
40
0.698997005161902
40
0.698997005161902
40
1
40
1
40
1
40
1
41
1
10
4.25033950836485
20
-4.51896014905498
30
0
41
1
10
4.25034555684112
20
-4.5190804626173
30
0
41
1
10
4.25035241329954
20
-4.51582111748561
30
0
41
1
10
4.25037202834008
20
-4.49888795915484
30
0
41
1
10
4.25038597850292
20
-4.48037327208229
30
0
41
1
10
4.2504172981084
20
-4.42774119164889
30
0
41
1
10
4.25045212048644
20
-4.35946487415245
30
0
41
1
10
4.25049307758624
20
-4.26012883880699
30
0
41
1
10
4.25053647981261
20
-4.14487063297562
30
0
41
1
10
4.2505591785237
20
-4.07983067569171
30
0
41
1
10
4.25062810194552
20
-3.86522795005016
30
0
41
1
10
4.25067552233392
20
-3.69564229655896
30
0
41
1
10
4.25071966974036
20
-3.49948275214248
30
0
0
SPLINE
5
D2
100
AcDbEntity
8
1
62
256
6
ByLayer
370
18
48
1
60
0
100
AcDbSpline
70
4
71
3
72
16
73
12
40
0
40
0
40
0
40
0
40
0.25
40
0.25
40
0.5
40
0.5
40
0.625
40
0.625
40
0.75
40
0.75
40
1
40
1
40
1
40
1
41
1
10
9.13418729532825
20
-4.52179750280055
30
0
41
1
10
8.71221135084929
20
-4.52331234400734
30
0
41
1
10
8.29527544415271
20
-4.50725618955937
30
0
41
1
10
7.46792406418058
20
-4.43251632807176
30
0
41
1
10
7.05740414297213
20
-4.37493347766991
30
0
41
1
10
6.4449096617538
20
-4.25212362710073
30
0
41
1
10
6.24127006881233
20
-4.20581038234823
30
0
41
1
10
5.83504814844295
20
-4.10095574780729
30
0
41
1
10
5.63204185224822
20
-4.0422183217554
30
0
41
1
10
5.02827655449431
20
-3.84643277064544
30
0
41
1
10
4.63320261262157
20
-3.69097174421765
30
0
41
1
10
4.25071967440792
20
-3.49948275098998
30
0
0
SPLINE
5
D3
100
AcDbEntity
8
1
62
256
6
ByLayer
370
18
48
1
60
0
100
AcDbSpline
70
4
71
3
72
36
73
32
40
0
40
0
40
0
40
0
40
0.124999999999998
40
0.124999999999998
40
0.249999999999996
40
0.249999999999996
40
0.374999999999994
40
0.374999999999994
40
0.499999999999992
40
0.499999999999992
40
0.624999999999989
40
0.624999999999989
40
0.687499999999991
40
0.687499999999991
40
0.718749999999992
40
0.718749999999992
40
0.749999999999993
40
0.749999999999993
40
0.812499999999995
40
0.812499999999995
40
0.843749999999995
40
0.843749999999995
40
0.874999999999996
40
0.874999999999996
40
0.906249999999997
40
0.906249999999997
40
0.937499999999998
40
0.937499999999998
40
0.968749999999999
40
0.968749999999999
40
1
40
1
40
1
40
1
41
1
10
43.5051187070271
20
1.69725384974069
30
0
41
1
10
43.671400618344
20
1.5651179253417
30
0
41
1
10
43.8398897349441
20
1.43889761904691
30
0
41
1
10
44.1809255107364
20
1.20173648468881
30
0
41
1
10
44.3534501510923
20
1.0907484025899
30
0
41
1
10
44.7000772725948
20
0.887674625056206
30
0
41
1
10
44.8743110732372
20
0.795465360563838
30
0
41
1
10
45.2248663875358
20
0.632208055703472
30
0
41
1
10
45.3992755223493
20
0.562104936696954
30
0
41
1
10
45.7440659929653
20
0.448017981249592
30
0
41
1
10
45.9147738989244
20
0.403855351639834
30
0
41
1
10
46.167928558052
20
0.359804584405822
30
0
41
1
10
46.2518302529328
20
0.348809615016648
30
0
41
1
10
46.3768833626749
20
0.338419923049798
30
0
41
1
10
46.4184947473802
20
0.335973918841773
30
0
41
1
10
46.5011566172447
20
0.333225133184186
30
0
41
1
10
46.5422757249971
20
0.332440923720441
30
0
41
1
10
46.6619480664643
20
0.340355225924469
30
0
41
1
10
46.7382977280899
20
0.358118504911772
30
0
41
1
10
46.838424838367
20
0.407856676752601
30
0
41
1
10
46.8695903651302
20
0.428339985513674
30
0
41
1
10
46.9252190446277
20
0.479932991413762
30
0
41
1
10
46.9485362800449
20
0.510479565141594
30
0
41
1
10
46.9861994304745
20
0.58104867840774
30
0
41
1
10
47.0003863714364
20
0.6214651324253
30
0
41
1
10
47.0185112394919
20
0.707608848446199
30
0
41
1
10
47.0227533482478
20
0.754142034626085
30
0
41
1
10
47.0225658443707
20
0.850922403878172
30
0
41
1
10
47.0182004606747
20
0.900497578836905
30
0
41
1
10
47.0024381327121
20
1.00159854897956
30
0
41
1
10
46.9909359818506
20
1.05338054621433
30
0
41
1
10
46.9765758471083
20
1.10535998711828
30
0
0
SPLINE
5
D4
100
AcDbEntity
8
1
62
256
6
ByLayer
370
18
48
1
60
0
100
AcDbSpline
70
4
71
3
72
80
73
76
40
0
40
0
40
0
40
0
40
0.0139985095236287
40
0.0139985095236287
40
0.0492128484692129
40
0.0492128484692129
40
0.0844271874147971
40
0.0844271874147971
40
0.10203435688759
40
0.10203435688759
40
0.119641526360382
40
0.119641526360382
40
0.137248695833175
40
0.137248695833175
40
0.154855865305968
40
0.154855865305968
40
0.190070204251552
40
0.190070204251552
40
0.207677373724344
40
0.207677373724344
40
0.225284543197135
40
0.225284543197135
40
0.260498882142718
40
0.260498882142718
40
0.295713221088302
40
0.295713221088302
40
0.330927560033885
40
0.330927560033885
40
0.366141898979468
40
0.366141898979468
40
0.401356237925051
40
0.401356237925051
40
0.418963407397843
40
0.418963407397843
40
0.436570576870636
40
0.436570576870636
40
0.47178491581622
40
0.47178491581622
40
0.506999254761804
40
0.506999254761804
40
0.524606424234597
40
0.524606424234597
40
0.542213593707389
40
0.542213593707389
40
0.577427932652973
40
0.577427932652973
40
0.595035102125766
40
0.595035102125766
40
0.612642271598558
40
0.612642271598558
40
0.647856610544143
40
0.647856610544143
40
0.683070949489729
40
0.683070949489729
40
0.700678118962521
40
0.700678118962521
40
0.718285288435314
40
0.718285288435314
40
0.735892457908107
40
0.735892457908107
40
0.7534996273809
40
0.7534996273809
40
0.788713966326486
40
0.788713966326486
40
0.823928305272072
40
0.823928305272072
40
0.859142644217657
40
0.859142644217657
40
0.894356983163243
40
0.894356983163243
40
0.929571322108829
40
0.929571322108829
40
0.964785661054414
40
0.964785661054414
40
1
40
1
40
1
40
1
41
1
10
39.6362389137208
20
-3.46648127062375
30
0
41
1
10
39.494030961109
20
-3.51893871347926
30
0
41
1
10
39.3518455832256
20
-3.56973556110955
30
0
41
1
10
38.8518840576903
20
-3.74212320022997
30
0
41
1
10
38.4945361794519
20
-3.8544795025052
30
0
41
1
10
37.7774736554019
20
-4.05356081311572
30
0
41
1
10
37.4184825180955
20
-4.14198640929598
30
0
41
1
10
36.8818709601127
20
-4.25477716061025
30
0
41
1
10
36.7031196762227
20
-4.28907499341358
30
0
41
1
10
36.3454422154164
20
-4.3515139725456
30
0
41
1
10
36.1664928240044
20
-4.37968675558898
30
0
41
1
10
35.8083512435716
20
-4.42879452693984
30
0
41
1
10
35.6291985871997
20
-4.4494895123521
30
0
41
1
10
35.2705873394121
20
-4.48467129718594
30
0
41
1
10
35.0911710080107
20
-4.49918971759621
30
0
41
1
10
34.5537344079224
20
-4.53231365504948
30
0
41
1
10
34.1957626700234
20
-4.53948809638356
30
0
41
1
10
33.6592429336936
20
-4.53136131354839
30
0
41
1
10
33.4804208356615
20
-4.52533131133916
30
0
41
1
10
33.1224395237735
20
-4.50597254398213
30
0
41
1
10
32.9432013332845
20
-4.49247393357405
30
0
41
1
10
32.4047738423599
20
-4.4425203624873
30
0
41
1
10
32.0464572707571
20
-4.39641769478195
30
0
41
1
10
31.3309711507792
20
-4.2750580838964
30
0
41
1
10
30.972986110907
20
-4.20277230132365
30
0
41
1
10
30.2568836634261
20
-4.03202654384009
30
0
41
1
10
29.897807510024
20
-3.93351273078247
30
0
41
1
10
29.1809381250885
20
-3.71415069744793
30
0
41
1
10
28.823404096761
20
-3.59101427742121
30
0
41
1
10
28.1079447868946
20
-3.32716386576118
30
0
41
1
10
27.7496110821938
20
-3.18602003977733
30
0
41
1
10
27.2113671106992
20
-2.95886588031647
30
0
41
1
10
27.0321226277111
20
-2.88087384359483
30
0
41
1
10
26.6741168204153
20
-2.72029483717807
30
0
41
1
10
26.4952282746274
20
-2.63751512012845
30
0
41
1
10
25.9584473928241
20
-2.3838800195114
30
0
41
1
10
25.6008660603282
20
-2.2080898063281
30
0
41
1
10
24.8849184777483
20
-1.84336551432091
30
0
41
1
10
24.5254436930636
20
-1.65510803900926
30
0
41
1
10
23.9884581968664
20
-1.36544276194832
30
0
41
1
10
23.8097021418841
20
-1.26744834898932
30
0
41
1
10
23.4521960013518
20
-1.07002598485121
30
0
41
1
10
23.2734012636121
20
-0.970749215429123
30
0
41
1
10
22.7366596489216
20
-0.67146385008428
30
0
41
1
10
22.3786485599716
20
-0.469105140485965
30
0
41
1
10
21.8407704037382
20
-0.163021428326715
30
0
41
1
10
21.6617002195869
20
-0.0609633752007426
30
0
41
1
10
21.303716917481
20
0.142589914073682
30
0
41
1
10
21.1248389404116
20
0.244069925717383
30
0
41
1
10
20.5885236058161
20
0.548215817598873
30
0
41
1
10
20.2313772593062
20
0.750415644664031
30
0
41
1
10
19.5151199287336
20
1.14842256076298
30
0
41
1
10
19.1560639590964
20
1.345364735999
30
0
41
1
10
18.6195651742858
20
1.63299024579487
30
0
41
1
10
18.4408957717512
20
1.72728582237238
30
0
41
1
10
18.083354056759
20
1.91301420629057
30
0
41
1
10
17.9045276323641
20
2.00453236695111
30
0
41
1
10
17.5469616269995
20
2.18486752360104
30
0
41
1
10
17.3682180314039
20
2.27367468031045
30
0
41
1
10
17.0103334222695
20
2.44729390979205
30
0
41
1
10
16.831106901357
20
2.53245479449871
30
0
41
1
10
16.2932430644323
20
2.78191846412085
30
0
41
1
10
15.9355460391705
20
2.93941065485322
30
0
41
1
10
15.2208263782747
20
3.23677178143578
30
0
41
1
10
14.8633649708378
20
3.37585386537447
30
0
41
1
10
14.1470789084391
20
3.63246777470906
30
0
41
1
10
13.7885111143279
20
3.75137504902307
30
0
41
1
10
13.0727093899005
20
3.96399034450698
30
0
41
1
10
12.7151047119318
20
4.05869668693163
30
0
41
1
10
11.999701822762
20
4.22213672345396
30
0
41
1
10
11.6407931512435
20
4.29006494363438
30
0
41
1
10
10.9240414450784
20
4.4021499885036
30
0
41
1
10
10.5666817509427
20
4.44586614677931
30
0
41
1
10
9.85135098448492
20
4.50523325518571
30
0
41
1
10
9.49319146279356
20
4.52049452036636
30
0
41
1
10
9.13439544160349
20
4.52179668896181
30
0
0
SPLINE
5
D5
100
AcDbEntity
8
1
62
256
6
ByLayer
370
18
48
1
60
0
100
AcDbSpline
70
4
71
3
72
8
73
4
40
0
40
0
40
0
40
0
40
1
40
1
40
1
40
1
41
1
10
47.3485518461349
20
-4.72190045977391
30
0
41
1
10
47.3633646916758
20
-4.68240789083072
30
0
41
1
10
47.3781624244661
20
-4.6428861061957
30
0
41
1
10
47.3929437052931
20
-4.60333867555366
30
0
0
SPLINE
5
D6
100
AcDbEntity
8
1
62
256
6
ByLayer
370
18
48
1
60
0
100
AcDbSpline
70
4
71
3
72
16
73
12
40
0
40
0
40
0
40
0
40
0.25
40
0.25
40
0.5
40
0.5
40
0.625000000000001
40
0.625000000000001
40
0.750000000000001
40
0.750000000000001
40
1
40
1
40
1
40
1
41
1
10
46.9765758471083
20
1.10535998711828
30
0
41
1
10
46.96853450327
20
1.13446727366778
30
0
41
1
10
46.9637253095643
20
1.16425962585413
30
0
41
1
10
46.9625541890295
20
1.22563111539614
30
0
41
1
10
46.9662358054163
20
1.25690433130856
30
0
41
1
10
46.9815954151717
20
1.30203154826845
30
0
41
1
10
46.9884455032092
20
1.31650620921747
30
0
41
1
10
47.0061235456493
20
1.34266193263517
30
0
41
1
10
47.0170961199047
20
1.3546640875833
30
0
41
1
10
47.0538383955633
20
1.38486459599562
30
0
41
1
10
47.0837854196959
20
1.39782043928531
30
0
41
1
10
47.114825023389
20
1.4049507947274
30
0
0
SPLINE
5
D7
100
AcDbEntity
8
1
62
256
6
ByLayer
370
18
48
1
60
0
100
AcDbSpline
70
4
71
3
72
10
73
6
40
0
40
0
40
0
40
0
40
0.5
40
0.5
40
1
40
1
40
1
40
1
41
1
10
4.12221488033242
20
2.64581410761934
30
0
41
1
10
4.09310588373933
20
2.66015931089541
30
0
41
1
10
4.06801688052352
20
2.67908523082491
30
0
41
1
10
4.02839287247855
20
2.72357104339218
30
0
41
1
10
4.01411566820229
20
2.74905947847262
30
0
41
1
10
4.00653941584437
20
2.77537622376792
30
0
0
SPLINE
5
D8
100
AcDbEntity
8
1
62
256
6
ByLayer
370
18
48
1
60
0
100
AcDbSpline
70
4
71
3
72
8
73
4
40
0
40
0
40
0
40
0
40
1
40
1
40
1
40
1
41
1
10
4.00653941584233
20
2.77537622378486
30
0
41
1
10
4.00383049723206
20
2.78478587881281
30
0
41
1
10
4.0024485004902
20
2.7942953333955
30
0
41
1
10
4.0024486590691
20
2.80390770646943
30
0
0
SPLINE
5
D9
100
AcDbEntity
8
1
62
256
6
ByLayer
370
18
48
1
60
0
100
AcDbSpline
70
4
71
3
72
24
73
20
40
0
40
0
40
0
40
0
40
0.0192442353150544
40
0.0192442353150544
40
0.152412394187349
40
0.152412394187349
40
0.285580553059642
40
0.285580553059642
40
0.418748711931937
40
0.418748711931937
40
0.485332791368084
40
0.485332791368084
40
0.551916870804231
40
0.551916870804231
40
0.81825318854882
40
0.81825318854882
40
0.951421347421114
40
0.951421347421114
40
1
40
1
40
1
40
1
41
1
10
11.950135656088
20
-2.22764381600297
30
0
41
1
10
11.9325051018526
20
-2.24350268942888
30
0
41
1
10
11.9148843699539
20
-2.25941828353246
30
0
41
1
10
11.7754012843554
20
-2.38589420677678
30
0
41
1
10
11.6536269555712
20
-2.49931902609765
30
0
41
1
10
11.4119521406708
20
-2.72757944139241
30
0
41
1
10
11.2918519075099
20
-2.84259161498622
30
0
41
1
10
11.0513596883266
20
-3.07250728779792
30
0
41
1
10
10.9309742406091
20
-3.18741775416436
30
0
41
1
10
10.7485407062172
20
-3.35796877903357
30
0
41
1
10
10.6874163258313
20
-3.41451247814919
30
0
41
1
10
10.5642106267354
20
-3.52663661674714
30
0
41
1
10
10.5019558260065
20
-3.58236398069951
30
0
41
1
10
10.1910327637757
20
-3.85443010957925
30
0
41
1
10
9.94144505625778
20
-4.05273621057634
30
0
41
1
10
9.55173671529548
20
-4.30542437681706
30
0
41
1
10
9.4192843767994
20
-4.38221697577231
30
0
41
1
10
9.23375525322683
20
-4.47570708454069
30
0
41
1
10
9.18407713863553
20
-4.49940101206994
30
0
41
1
10
9.13430377095611
20
-4.52183801402671
30
0
0
SPLINE
5
DA
100
AcDbEntity
8
1
62
256
6
ByLayer
370
18
48
1
60
0
100
AcDbSpline
70
2053
71
3
72
62
73
58
40
0
40
0
40
0
40
0
40
0.0312500000000002
40
0.0312500000000002
40
0.0625000000000004
40
0.0625000000000004
40
0.0937500000000006
40
0.0937500000000006
40
0.125000000000001
40
0.125000000000001
40
0.156250000000001
40
0.156250000000001
40
0.187500000000001
40
0.187500000000001
40
0.218750000000001
40
0.218750000000001
40
0.250000000000001
40
0.250000000000001
40
0.281250000000001
40
0.281250000000001
40
0.312500000000001
40
0.312500000000001
40
0.375000000000002
40
0.375000000000002
40
0.437500000000002
40
0.437500000000002
40
0.468750000000002
40
0.468750000000002
40
0.500000000000002
40
0.500000000000002
40
0.531250000000002
40
0.531250000000002
40
0.562500000000002
40
0.562500000000002
40
0.593750000000002
40
0.593750000000002
40
0.625000000000002
40
0.625000000000002
40
0.656250000000002
40
0.656250000000002
40
0.687500000000002
40
0.687500000000002
40
0.718750000000003
40
0.718750000000003
40
0.750000000000003
40
0.750000000000003
40
0.812500000000003
40
0.812500000000003
40
0.843750000000003
40
0.843750000000003
40
0.875000000000003
40
0.875000000000003
40
0.906250000000004
40
0.906250000000004
40
0.937500000000004
40
0.937500000000004
40
1
40
1
40
1
40
1
41
1
10
47.930683772364
20
-2.2947407321009
30
0
41
1
10
47.9533896863406
20
-2.26176141019226
30
0
41
1
10
47.975592308402
20
-2.22650366924941
30
0
41
1
10
48.0189125184601
20
-2.15107616104231
30
0
41
1
10
48.0402598500138
20
-2.11042151646339
30
0
41
1
10
48.0804063127288
20
-2.02579547488574
30
0
41
1
10
48.0991352099575
20
-1.98208525114515
30
0
41
1
10
48.1335218676571
20
-1.89147288786572
30
0
41
1
10
48.1488431457926
20
-1.84529574636946
30
0
41
1
10
48.1742704476471
20
-1.75487173508756
30
0
41
1
10
48.1846906104084
20
-1.70934127907964
30
0
41
1
10
48.199287325253
20
-1.62391811831094
30
0
41
1
10
48.2036149619704
20
-1.58364521139046
30
0
41
1
10
48.206316664116
20
-1.50928727737357
30
0
41
1
10
48.2046882772773
20
-1.47630703023046
30
0
41
1
10
48.1961405822682
20
-1.41780317323259
30
0
41
1
10
48.1892377772193
20
-1.3927839976669
30
0
41
1
10
48.1712496534509
20
-1.35133146226869
30
0
41
1
10
48.1600063886594
20
-1.33461315308901
30
0
41
1
10
48.1343967601502
20
-1.3094914549462
30
0
41
1
10
48.1199910595901
20
-1.3009047877525
30
0
41
1
10
48.0723899695615
20
-1.28602798692356
30
0
41
1
10
48.0359676042495
20
-1.29074858502017
30
0
41
1
10
47.9558853784866
20
-1.32610456860957
30
0
41
1
10
47.9135312053543
20
-1.35613205111309
30
0
41
1
10
47.8470054398391
20
-1.41941561296838
30
0
41
1
10
47.8243057816157
20
-1.44368177255239
30
0
41
1
10
47.779352265822
20
-1.49715750137213
30
0
41
1
10
47.7569062275708
20
-1.52653267579333
30
0
41
1
10
47.7120813726362
20
-1.59105405847879
30
0
41
1
10
47.689451748484
20
-1.62664070779405
30
0
41
1
10
47.6457352503499
20
-1.70227246828469
30
0
41
1
10
47.624666359373
20
-1.74218860407689
30
0
41
1
10
47.5843326150191
20
-1.82682090244674
30
0
41
1
10
47.5651751065803
20
-1.87144736238588
30
0
41
1
10
47.5309407873783
20
-1.96158145965464
30
0
41
1
10
47.5154189181598
20
-2.00833813872563
30
0
41
1
10
47.4898792566356
20
-2.09943838803591
30
0
41
1
10
47.4797335450208
20
-2.14389028926212
30
0
41
1
10
47.4649904221286
20
-2.23047206551129
30
0
41
1
10
47.46074353397
20
-2.27055426678314
30
0
41
1
10
47.4580123200347
20
-2.34467482779769
30
0
41
1
10
47.4596179840077
20
-2.37835099567022
30
0
41
1
10
47.4679911165
20
-2.43688042833915
30
0
41
1
10
47.4748466558335
20
-2.46233283430814
30
0
41
1
10
47.5015869211176
20
-2.52524116302402
30
0
41
1
10
47.5279644082976
20
-2.55055117967888
30
0
41
1
10
47.5751542158185
20
-2.56591413997432
30
0
41
1
10
47.5923922017528
20
-2.56733810880337
30
0
41
1
10
47.6286704727343
20
-2.56316991883281
30
0
41
1
10
47.647710752315
20
-2.55764625487095
30
0
41
1
10
47.6875041970378
20
-2.54006102906129
30
0
41
1
10
47.7084253998463
20
-2.52786443498772
30
0
41
1
10
47.7510454702222
20
-2.49741478160834
30
0
41
1
10
47.7727410081407
20
-2.47921949475972
30
0
41
1
10
47.838987508835
20
-2.4156962190682
30
0
41
1
10
47.8852719444108
20
-2.36069937591816
30
0
41
1
10
47.930683772364
20
-2.2947407321009
30
0
0
SPLINE
5
DB
100
AcDbEntity
8
SK1
62
256
6
ByLayer
370
18
48
1
60
0
100
AcDbSpline
70
4
71
3
72
10
73
6
40
0
40
0
40
0
40
0
40
0.5
40
0.5
40
1
40
1
40
1
40
1
41
1
10
-40
20
0.0773628614313679
30
0
41
1
10
-39.8300550395376
20
0.219825282052881
30
0
41
1
10
-39.6562362217553
20
0.361372990725044
30
0
41
1
10
-39.3053142529543
20
0.643692897097026
30
0
41
1
10
-39.1281046064878
20
0.784439948630961
30
0
41
1
10
-38.95
20
0.924975678332942
30
0
0
SPLINE
5
DC
100
AcDbEntity
8
SK1
62
256
6
ByLayer
370
18
48
1
60
0
100
AcDbSpline
70
4
71
3
72
14
73
10
40
0
40
0
40
0
40
0
40
0.5
40
0.5
40
0.75
40
0.75
40
0.875
40
0.875
40
1
40
1
40
1
40
1
41
1
10
-38.9500000000001
20
0.924975678332856
30
0
41
1
10
-38.9287234691649
20
0.941764198548071
30
0
41
1
10
-38.9083432483059
20
0.964033750170927
30
0
41
1
10
-38.880223151313
20
1.00772221263662
30
0
41
1
10
-38.8713218079587
20
1.02401231123906
30
0
41
1
10
-38.8602667834558
20
1.05150800981352
30
0
41
1
10
-38.8569157654531
20
1.06130376178618
30
0
41
1
10
-38.851744720606
20
1.08244225563405
30
0
41
1
10
-38.8499999999999
20
1.09369630190517
30
0
41
1
10
-38.8499999999999
20
1.10448130852768
30
0
0
SPLINE
5
DD
100
AcDbEntity
8
SK1
62
256
6
ByLayer
370
18
48
1
60
0
100
AcDbSpline
70
4
71
3
72
10
73
6
40
0
40
0
40
0
40
0
40
0.5
40
0.5
40
1
40
1
40
1
40
1
41
1
10
-38.95
20
3.17000614807961
30
0
41
1
10
-39.1281021891728
20
3.02947232579115
30
0
41
1
10
-39.3053148246314
20
2.88872291222779
30
0
41
1
10
-39.6562371270631
20
2.60640272683983
30
0
41
1
10
-39.8300558091376
20
2.46485510665499
30
0
41
1
10
-40
20
2.32239333117803
30
0
0
SPLINE
5
DE
100
AcDbEntity
8
SK1
62
256
6
ByLayer
370
18
48
1
60
0
100
AcDbSpline
70
4
71
3
72
14
73
10
40
0
40
0
40
0
40
0
40
0.124999999999997
40
0.124999999999997
40
0.249999999999995
40
0.249999999999995
40
0.499999999999995
40
0.499999999999995
40
1
40
1
40
1
40
1
41
1
10
-38.85
20
3.1699093406946
30
0
41
1
10
-38.85
20
3.1784322436028
30
0
41
1
10
-38.8517453396944
20
3.18487815315683
30
0
41
1
10
-38.8568901241517
20
3.19423716918593
30
0
41
1
10
-38.860211966304
20
3.19723334123537
30
0
41
1
10
-38.8714485682308
20
3.2033670230966
30
0
41
1
10
-38.8802054040538
20
3.20352485638236
30
0
41
1
10
-38.9082792076556
20
3.19813843691071
30
0
41
1
10
-38.9286347141248
20
3.18686470160026
30
0
41
1
10
-38.95
20
3.17000614807961
30
0
0
LINE
5
76
100
AcDbEntity
8
81
62
256
6
ByLayer
370
18
48
1
60
0
100
AcDbLine
10
49
20
0
30
0
11
54
21
0
31
0
39
0
210
0
220
0
230
1
0
LINE
5
77
100
AcDbEntity
8
1
62
256
6
ByLayer
370
18
48
1
60
0
100
AcDbLine
10
4.002458
20
4.733943
30
0
11
0.88681
21
4.732074
31
0
39
0
210
0
220
0
230
1
0
LINE
5
79
100
AcDbEntity
8
1
62
256
6
ByLayer
370
18
48
1
60
0
100
AcDbLine
10
21.341256
20
4.744346
30
0
11
20.627653
21
4.743918
31
0
39
0
210
0
220
0
230
1
0
LINE
5
7A
100
AcDbEntity
8
1
62
256
6
ByLayer
370
18
48
1
60
0
100
AcDbLine
10
46.341616
20
4.759347
30
0
11
45.633284
21
4.758922
31
0
39
0
210
0
220
0
230
1
0
LINE
5
7B
100
AcDbEntity
8
1
62
256
6
ByLayer
370
18
48
1
60
0
100
AcDbLine
10
45.633284
20
-4.758922
30
0
11
46.341584
21
-4.759347
31
0
39
0
210
0
220
0
230
1
0
LINE
5
7C
100
AcDbEntity
8
1
62
256
6
ByLayer
370
18
48
1
60
0
100
AcDbLine
10
20.627653
20
-4.743918
30
0
11
21.341208
21
-4.744346
31
0
39
0
210
0
220
0
230
1
0
LINE
5
7D
100
AcDbEntity
8
1
62
256
6
ByLayer
370
18
48
1
60
0
100
AcDbLine
10
0.88681
20
-4.732074
30
0
11
4.002458
21
-4.733943
31
0
39
0
210
0
220
0
230
1
0
LINE
5
7E
100
AcDbEntity
8
SK1
62
256
6
ByLayer
370
18
48
1
60
0
100
AcDbLine
10
-38.845299
20
5
30
0
11
-40
21
3
31
0
39
0
210
0
220
0
230
1
0
LINE
5
80
100
AcDbEntity
8
SK1
62
256
6
ByLayer
370
18
48
1
60
0
100
AcDbLine
10
-40
20
-3
30
0
11
-38.845299
21
-5
31
0
39
0
210
0
220
0
230
1
0
LINE
5
81
100
AcDbEntity
8
SK1
62
256
6
ByLayer
370
18
48
1
60
0
100
AcDbLine
10
0
20
5
30
0
11
-38.845299
21
5
31
0
39
0
210
0
220
0
230
1
0
LINE
5
82
100
AcDbEntity
8
SK1
62
256
6
ByLayer
370
18
48
1
60
0
100
AcDbLine
10
-38.845299
20
-5
30
0
11
0
21
-5
31
0
39
0
210
0
220
0
230
1
0
LINE
5
83
100
AcDbEntity
8
4
62
256
6
ByLayer
370
18
48
0.05
60
0
100
AcDbLine
10
49
20
0
30
0
11
0
21
0
31
0
39
0
210
0
220
0
230
1
0
LINE
5
85
100
AcDbEntity
8
SK4
62
256
6
ByLayer
370
18
48
0.05
60
0
100
AcDbLine
10
54
20
0
30
0
11
-45
21
0
31
0
39
0
210
0
220
0
230
1
0
LINE
5
87
100
AcDbEntity
8
80
62
256
6
ByLayer
370
18
48
1
60
0
100
AcDbLine
10
0
20
0
30
0
11
-5
21
0
31
0
39
0
210
0
220
0
230
1
0
LINE
5
88
100
AcDbEntity
8
1
62
256
6
ByLayer
370
18
48
1
60
0
100
AcDbLine
10
0
20
-5
30
0
11
0
21
5
31
0
39
0
210
0
220
0
230
1
0
LINE
5
89
100
AcDbEntity
8
1
62
256
6
ByLayer
370
18
48
1
60
0
100
AcDbLine
10
48.913852
20
0.310324
30
0
11
48.771968
21
0.873087
31
0
39
0
210
0
220
0
230
1
0
LINE
5
8A
100
AcDbEntity
8
1
62
256
6
ByLayer
370
18
48
1
60
0
100
AcDbLine
10
48.913852
20
-0.310324
30
0
11
48.771968
21
-0.873087
31
0
39
0
210
0
220
0
230
1
0
LINE
5
8B
100
AcDbEntity
8
1
62
256
6
ByLayer
370
13
48
1
60
0
100
AcDbLine
10
47.775468
20
0.537758
30
0
11
48.894543
21
-0.126226
31
0
39
0
210
0
220
0
230
1
0
LINE
5
8C
100
AcDbEntity
8
1
62
256
6
ByLayer
370
13
48
1
60
0
100
AcDbLine
10
48.771968
20
0.873087
30
0
11
47.965375
21
0.873087
31
0
39
0
210
0
220
0
230
1
0
LINE
5
8D
100
AcDbEntity
8
1
62
256
6
ByLayer
370
13
48
1
60
0
100
AcDbLine
10
0.443165
20
4.866037
30
0
11
0.443165
21
-4.866037
31
0
39
0
210
0
220
0
230
1
0
LINE
5
8E
100
AcDbEntity
8
1
62
256
6
ByLayer
370
18
48
1
60
0
100
AcDbLine
10
48.990656
20
0.046519
30
0
11
49
21
0
31
0
39
0
210
0
220
0
230
1
0
LINE
5
8F
100
AcDbEntity
8
1
62
256
6
ByLayer
370
13
48
1
60
0
100
AcDbLine
10
0.88681
20
4.732074
30
0
11
0.88681
21
-4.732074
31
0
39
0
210
0
220
0
230
1
0
LINE
5
90
100
AcDbEntity
8
1
62
256
6
ByLayer
370
18
48
1
60
0
100
AcDbLine
10
46.62484
20
-2.47086
30
0
11
48.894543
21
-0.126226
31
0
39
0
210
0
220
0
230
1
0
LINE
5
91
100
AcDbEntity
8
1
62
256
6
ByLayer
370
13
48
1
60
0
100
AcDbLine
10
47.965375
20
0.873087
30
0
11
48.913852
21
0.310324
31
0
39
0
210
0
220
0
230
1
0
LINE
5
92
100
AcDbEntity
8
1
62
256
6
ByLayer
370
18
48
1
60
0
100
AcDbLine
10
49
20
0
30
0
11
47.345926
21
-4.54453
31
0
39
0
210
0
220
0
230
1
0
LINE
5
93
100
AcDbEntity
8
1
62
256
6
ByLayer
370
18
48
1
60
0
100
AcDbLine
10
49
20
0
30
0
11
48.990656
21
-0.046519
31
0
39
0
210
0
220
0
230
1
0
LINE
5
94
100
AcDbEntity
8
SK1
62
256
6
ByLayer
370
18
48
1
60
0
100
AcDbLine
10
-40
20
3
30
0
11
-40
21
2.322393
31
0
39
0
210
0
220
0
230
1
0
LINE
5
95
100
AcDbEntity
8
SK1
62
256
6
ByLayer
370
18
48
1
60
0
100
AcDbLine
10
0
20
-5
30
0
11
0
21
5
31
0
39
0
210
0
220
0
230
1
0
LINE
5
96
100
AcDbEntity
8
SK1
62
256
6
ByLayer
370
18
48
1
60
0
100
AcDbLine
10
-38.845299
20
5
30
0
11
-38.845299
21
-5
31
0
39
0
210
0
220
0
230
1
0
LINE
5
97
100
AcDbEntity
8
SK1
62
256
6
ByLayer
370
13
48
1
60
0
100
AcDbLine
10
-38.95
20
3.170006
30
0
11
-38.95
21
0.924996
31
0
39
0
210
0
220
0
230
1
0
LINE
5
98
100
AcDbEntity
8
SK1
62
256
6
ByLayer
370
18
48
1
60
0
100
AcDbLine
10
-40
20
2.322393
30
0
11
-40
21
0.077384
31
0
39
0
210
0
220
0
230
1
0
LINE
5
99
100
AcDbEntity
8
SK1
62
256
6
ByLayer
370
18
48
1
60
0
100
AcDbLine
10
-40
20
0.077363
30
0
11
-40
21
-3
31
0
39
0
210
0
220
0
230
1
0
LINE
5
9A
100
AcDbEntity
8
SK1
62
256
6
ByLayer
370
18
48
1
60
0
100
AcDbLine
10
-38.85
20
1.104481
30
0
11
-38.85
21
3.169909
31
0
39
0
210
0
220
0
230
1
0
MTEXT
5
DF
100
AcDbEntity
8
SK6
62
256
6
ByLayer
370
13
48
1
60
0
100
AcDbMText
10
6.629169
20
37.142694
30
0
210
0
220
0
230
1
1
\W0.7542;R840-0952-30-A1A1220
40
3.5
41
0
44
1.084337
50
0
71
8
72
5
7
iso_b_vert
0
DIMENSION
5
EC
100
AcDbEntity
8
SK2
62
256
6
ByLayer
370
13
48
1
60
0
100
AcDbDimension
2
DimnDraft3D1
10
47.37
20
-14.973398
30
0
11
22.120059
21
-14.973398
31
0
70
32
71
5
72
1
41
1
210
0
220
0
230
1
3
Standard
100
AcDbAlignedDimension
13
0
23
-1.5875
33
0
14
47.37
24
-6.3475
34
0
50
0
100
AcDbRotatedDimension
1001
ACAD
1000
DSTYLE
1002
{
1070
   279
1070
     0
1070
   172
1070
     1
1070
   173
1070
     1
1070
   340
1005
E0
1070
   271
1070
     2
1070
   272
1070
     2
1070
    77
1070
     1
1070
    73
1070
     0
1070
   171
1070
     3
1070
   274
1070
     4
1070
   177
1070
    35
1070
   176
1070
    35
1070
   178
1070
    35
1070
    48
1040
-0.005
1070
    41
1041
3.5
1070
   147
1041
1.75
1070
    42
1041
1.5875
1070
    44
1041
2.0
1070
   140
1041
3.5
1070
   343
1005
0
1070
   344
1005
0
1002
}
0
DIMENSION
5
F6
100
AcDbEntity
8
SK2
62
256
6
ByLayer
370
13
48
1
60
0
100
AcDbDimension
2
DimnDraft3D2
10
49
20
-33.692985
30
0
11
4.2113
21
-33.692985
31
0
70
32
71
5
72
1
41
1
210
0
220
0
230
1
3
Standard
100
AcDbAlignedDimension
13
-40
23
-6.5875
33
0
14
49
24
-1.5875
34
0
50
0
100
AcDbRotatedDimension
1001
ACAD
1000
DSTYLE
1002
{
1070
   279
1070
     0
1070
   172
1070
     1
1070
   173
1070
     1
1070
   340
1005
E0
1070
   271
1070
     2
1070
   272
1070
     2
1070
    77
1070
     1
1070
    73
1070
     0
1070
   171
1070
     3
1070
   274
1070
     4
1070
   177
1070
    35
1070
   176
1070
    35
1070
   178
1070
    35
1070
    48
1040
-0.005
1070
    41
1041
3.5
1070
   147
1041
1.75
1070
    42
1041
1.5875
1070
    44
1041
2.0
1070
   140
1041
3.5
1070
   343
1005
0
1070
   344
1005
0
1002
}
0
DIMENSION
5
100
100
AcDbEntity
8
SK2
62
256
6
ByLayer
370
13
48
1
60
0
100
AcDbDimension
2
DimnDraft3D3
10
49
20
16.369119
30
0
11
33.905
21
16.369119
31
0
70
32
71
5
72
1
41
1
210
0
220
0
230
1
3
Standard
100
AcDbAlignedDimension
13
18.81
23
6.3475
33
0
14
49
24
1.5875
34
0
50
0
100
AcDbRotatedDimension
1001
ACAD
1000
DSTYLE
1002
{
1070
   279
1070
     0
1070
   172
1070
     1
1070
   173
1070
     1
1070
   340
1005
E0
1070
   271
1070
     2
1070
   272
1070
     2
1070
    77
1070
     1
1070
    73
1070
     0
1070
   171
1070
     3
1070
   274
1070
     4
1070
   177
1070
    35
1070
   176
1070
    35
1070
   178
1070
    35
1070
    48
1040
-0.005
1070
    41
1041
3.5
1070
   147
1041
1.75
1070
    42
1041
1.5875
1070
    44
1041
2.0
1070
   140
1041
3.5
1070
   343
1005
0
1070
   344
1005
0
1002
}
0
DIMENSION
5
10A
100
AcDbEntity
8
SK2
62
256
6
ByLayer
370
13
48
1
60
0
100
AcDbDimension
2
DimnDraft3D4
10
47.37
20
-17.562503
30
0
11
58.981425
21
-17.562503
31
0
70
32
71
5
72
1
41
1
210
0
220
0
230
1
3
Standard
100
AcDbAlignedDimension
13
49
23
-1.5875
33
0
14
47.37
24
-6.3475
34
0
50
0
100
AcDbRotatedDimension
1001
ACAD
1000
DSTYLE
1002
{
1070
   279
1070
     0
1070
   172
1070
     1
1070
   173
1070
     1
1070
   340
1005
E0
1070
   271
1070
     2
1070
   272
1070
     2
1070
    77
1070
     1
1070
    73
1070
     0
1070
   171
1070
     3
1070
   274
1070
     4
1070
   177
1070
    35
1070
   176
1070
    35
1070
   178
1070
    35
1070
    48
1040
-0.005
1070
    41
1041
3.5
1070
   147
1041
1.75
1070
    42
1041
1.5875
1070
    44
1041
2.0
1070
   140
1041
3.5
1070
   343
1005
0
1070
   344
1005
0
1002
}
0
DIMENSION
5
114
100
AcDbEntity
8
SK2
62
256
6
ByLayer
370
13
48
1
60
0
100
AcDbDimension
2
DimnDraft3D5
10
47.37
20
-23.343428
30
0
11
1.130676
21
-23.343428
31
0
70
32
71
5
72
1
41
1
210
0
220
0
230
1
3
Standard
100
AcDbAlignedDimension
13
-40
23
-6.5875
33
0
14
47.37
24
-6.3475
34
0
50
0
100
AcDbRotatedDimension
1001
ACAD
1000
DSTYLE
1002
{
1070
   279
1070
     0
1070
   172
1070
     1
1070
   173
1070
     1
1070
   340
1005
E0
1070
   271
1070
     2
1070
   272
1070
     2
1070
    77
1070
     1
1070
    73
1070
     0
1070
   171
1070
     3
1070
   274
1070
     4
1070
   177
1070
    35
1070
   176
1070
    35
1070
   178
1070
    35
1070
    48
1040
-0.005
1070
    41
1041
3.5
1070
   147
1041
1.75
1070
    42
1041
1.5875
1070
    44
1041
2.0
1070
   140
1041
3.5
1070
   343
1005
0
1070
   344
1005
0
1002
}
0
DIMENSION
5
11F
100
AcDbEntity
8
SK2
62
256
6
ByLayer
370
13
48
1
60
0
100
AcDbDimension
2
DimnDraft3D6
10
-50.625163
20
5
30
0
11
-51.250163
21
23.47418
31
0
70
33
71
5
72
1
41
1
210
0
220
0
230
1
3
Standard
100
AcDbAlignedDimension
13
-41.5875
23
-5
33
0
14
-41.5875
24
5
34
0
1001
ACAD
1000
DSTYLE
1002
{
1070
   279
1070
     0
1070
    74
1070
     0
1070
   173
1070
     1
1070
   340
1005
E0
1070
   271
1070
     3
1070
   272
1070
     2
1070
    77
1070
     1
1070
    73
1070
     0
1070
   171
1070
     3
1070
   274
1070
     4
1070
   177
1070
    35
1070
   176
1070
    35
1070
   178
1070
    35
1070
    48
1040
-0.005
1070
    41
1041
3.5
1070
   147
1041
1.75
1070
    42
1041
1.5875
1070
    44
1041
2.0
1070
   140
1041
3.5
1070
   343
1005
0
1070
   344
1005
0
1002
}
0
DIMENSION
5
12A
100
AcDbEntity
8
2
62
256
6
ByLayer
370
13
48
1
60
0
100
AcDbDimension
2
DimnDraft3D7
10
63.083343
20
4.76
30
0
11
58.458343
21
21.827266
31
0
70
33
71
5
72
1
41
1
210
0
220
0
230
1
3
Standard
100
AcDbAlignedDimension
13
48.9575
23
-4.76
33
0
14
48.9575
24
4.76
34
0
1001
ACAD
1000
DSTYLE
1002
{
1070
   279
1070
     0
1070
    74
1070
     0
1070
   173
1070
     1
1070
   340
1005
E0
1070
   271
1070
     3
1070
   272
1070
     2
1070
    77
1070
     1
1070
    73
1070
     0
1070
   171
1070
     3
1070
   274
1070
     4
1070
   177
1070
    35
1070
   176
1070
    35
1070
   178
1070
    35
1070
    48
1040
-0.005
1070
    41
1041
3.5
1070
   147
1041
1.75
1070
    42
1041
1.5875
1070
    44
1041
2.0
1070
   140
1041
3.5
1070
   343
1005
0
1070
   344
1005
0
1002
}
0
ENDSEC
0
SECTION
2
OBJECTS
0
DICTIONARY
5
195
330
0
100
AcDbDictionary
280
0
281
1
3
ACAD_GROUP
350
196
3
ACAD_MLINESTYLE
350
197
0
DICTIONARY
5
196
330
0
100
AcDbDictionary
280
0
281
1
0
DICTIONARY
5
197
330
0
100
AcDbDictionary
280
0
281
1
3
Standard
350
18
0
MLINESTYLE
5
18
330
197
100
AcDbMlineStyle
2
Standard
70
0
3

62
256
51
90
52
90
71
2
49
-0.5
62
256
6
ByLayer
49
0.5
62
256
6
ByLayer
0
RASTERVARIABLES
5
183
330

100
AcDbRasterVariables
90
0
70
1
71
1
72
1
0
ENDSEC
0
EOF
