0
SECTION
2
HEADER
9
$ACADVER
1
AC1015
9
$DWGCODEPAGE
3
ANSI_1252
9
$HANDSEED
5
1b3
9
$ANGBASE
50
0
9
$ANGDIR
70
0
9
$ATTMODE
70
1
9
$AUNITS
70
0
9
$AUPREC
70
0
9
$CECOLOR
62
256
9
$CELTSCALE
40
1
9
$CELTYPE
6
ByLayer
9
$CELWEIGHT
370
18
9
$CLAYER
8
0
9
$CMLJUST
70
0
9
$CMLSCALE
40
1
9
$CMLSTYLE
2
Standard
9
$DIMSTYLE
2
Standard
9
$TEXTSIZE
40
0.2
9
$TEXTSTYLE
7
Standard
9
$LUNITS
70
2
9
$LUPREC
70
4
9
$EXTNAMES
290
1
9
$INSUNITS
70
4
9
$LTSCALE
40
1
9
$LWDISPLAY
290
1
9
$PDMODE
70
0
9
$PDSIZE
40
0
9
$PLINEGEN
70
0
0
ENDSEC
0
SECTION
2
CLASSES
0
CLASS
1
RASTERVARIABLES
2
AcDbRasterVariables
3
ISM
90
0
280
0
281
0
0
ENDSEC
0
SECTION
2
TABLES
0
TABLE
2
VPORT
5
1a9
100
AcDbSymbolTable
0
VPORT
5
1
100
AcDbSymbolTableRecord
100
AcDbViewportTableRecord
2
*Active
70
0
10
0
20
0
11
1
21
1
12
-1
22
1
13
0
23
0
14
0.5
24
0.5
15
10
25
10
16
0
26
0
36
1
17
0
27
0
37
0
0
ENDTAB
0
TABLE
2
LTYPE
5
1aa
100
AcDbSymbolTable
0
LTYPE
5
14
100
AcDbSymbolTableRecord
100
AcDbLinetypeTableRecord
70
0
2
ByBlock
3

72
65
73
0
40
0
0
LTYPE
5
15
100
AcDbSymbolTableRecord
100
AcDbLinetypeTableRecord
70
0
2
ByLayer
3

72
65
73
0
40
0
0
LTYPE
5
16
100
AcDbSymbolTableRecord
100
AcDbLinetypeTableRecord
70
0
2
CONTINUOUS
3
Solid line
72
65
73
0
40
0
0
LTYPE
5
6A
100
AcDbSymbolTableRecord
100
AcDbLinetypeTableRecord
70
0
2
CENTER
3
____ _ ____ _ ____ _ ____
72
65
73
4
40
47.5
49
22
74
0
49
-8.5
74
0
49
8.5
74
0
49
-8.5
74
0
0
LTYPE
5
6B
100
AcDbSymbolTableRecord
100
AcDbLinetypeTableRecord
70
0
2
DASHED
3
__ __ __ __ __ __ __ __ __
72
65
73
2
40
25.72
49
12.86
74
0
49
-12.86
74
0
0
ENDTAB
0
TABLE
2
LAYER
5
1ab
100
AcDbSymbolTable
0
LAYER
5
10
100
AcDbSymbolTableRecord
100
AcDbLayerTableRecord
2
0
70
0
62
7
6
CONTINUOUS
290
1
370
-3
390
0
0
LAYER
5
6D
100
AcDbSymbolTableRecord
100
AcDbLayerTableRecord
2
81
70
0
62
-3
6
CONTINUOUS
290
1
370
-3
390
0
0
LAYER
5
6F
100
AcDbSymbolTableRecord
100
AcDbLayerTableRecord
2
80
70
0
62
-6
6
CONTINUOUS
290
1
370
-3
390
0
0
LAYER
5
74
100
AcDbSymbolTableRecord
100
AcDbLayerTableRecord
2
2
70
0
62
7
6
CONTINUOUS
290
1
370
-3
390
0
0
LAYER
5
78
100
AcDbSymbolTableRecord
100
AcDbLayerTableRecord
2
1
70
0
62
4
6
CONTINUOUS
290
1
370
-3
390
0
0
LAYER
5
88
100
AcDbSymbolTableRecord
100
AcDbLayerTableRecord
2
4
70
0
62
-2
6
CENTER
290
1
370
-3
390
0
0
LAYER
5
195
100
AcDbSymbolTableRecord
100
AcDbLayerTableRecord
2
SK2
70
0
62
7
6
CONTINUOUS
290
1
370
-3
390
0
0
LAYER
5
196
100
AcDbSymbolTableRecord
100
AcDbLayerTableRecord
2
SK1
70
0
62
4
6
CONTINUOUS
290
1
370
-3
390
0
0
LAYER
5
197
100
AcDbSymbolTableRecord
100
AcDbLayerTableRecord
2
SK4
70
0
62
2
6
CENTER
290
1
370
-3
390
0
0
LAYER
5
198
100
AcDbSymbolTableRecord
100
AcDbLayerTableRecord
2
SK6
70
0
62
5
6
CONTINUOUS
290
1
370
-3
390
0
0
ENDTAB
0
TABLE
2
STYLE
5
1ac
100
AcDbSymbolTable
0
STYLE
5
11
100
AcDbSymbolTableRecord
100
AcDbTextStyleTableRecord
2
Standard
3
txt
70
0
71
0
40
0
41
1
42
0
50
0
0
STYLE
5
F1
100
AcDbSymbolTableRecord
100
AcDbTextStyleTableRecord
2
iso_b_vert
3
simplex.shx
70
0
71
0
40
0
41
1
42
0
50
0
0
STYLE
5
F2
100
AcDbSymbolTableRecord
100
AcDbTextStyleTableRecord
2
DWGDirectTextStyle
3
simplex
70
0
71
0
40
0
41
1
42
0
50
0
0
ENDTAB
0
TABLE
2
DIMSTYLE
5
1ad
100
AcDbSymbolTable
100
AcDbDimStyleTable
0
DIMSTYLE
105
27
100
AcDbSymbolTableRecord
100
AcDbDimStyleTableRecord
2
Standard
70
0
3
<>
41
0.18
42
0.0625
44
0.18
140
0.18
147
0.09
73
0
74
0
77
1
271
2
275
0
278
52
280
0
340
11
0
ENDTAB
0
TABLE
2
VIEW
5
1ae
100
AcDbSymbolTable
0
ENDTAB
0
TABLE
2
UCS
5
1af
100
AcDbSymbolTable
0
ENDTAB
0
TABLE
2
APPID
5
1b0
100
AcDbSymbolTable
0
APPID
5
12
100
AcDbSymbolTableRecord
100
AcDbRegAppTableRecord
2
ACAD
70
0
0
ENDTAB
0
TABLE
2
BLOCK_RECORD
5
1b1
100
AcDbSymbolTable
0
BLOCK_RECORD
5
1F
100
AcDbSymbolTableRecord
100
AcDbBlockTableRecord
2
*Model_Space
340
0
70
0
0
BLOCK_RECORD
5
1B
100
AcDbSymbolTableRecord
100
AcDbBlockTableRecord
2
*Paper_Space
340
0
70
0
0
BLOCK_RECORD
5
23
100
AcDbSymbolTableRecord
100
AcDbBlockTableRecord
2
*Paper_Space0
340
0
70
0
0
BLOCK_RECORD
5
F4
100
AcDbSymbolTableRecord
100
AcDbBlockTableRecord
2
DimnDraft3D1
340
0
70
0
0
BLOCK_RECORD
5
FE
100
AcDbSymbolTableRecord
100
AcDbBlockTableRecord
2
DimnDraft3D2
340
0
70
0
0
BLOCK_RECORD
5
108
100
AcDbSymbolTableRecord
100
AcDbBlockTableRecord
2
DimnDraft3D3
340
0
70
0
0
BLOCK_RECORD
5
112
100
AcDbSymbolTableRecord
100
AcDbBlockTableRecord
2
DimnDraft3D4
340
0
70
0
0
BLOCK_RECORD
5
11C
100
AcDbSymbolTableRecord
100
AcDbBlockTableRecord
2
DimnDraft3D5
340
0
70
0
0
BLOCK_RECORD
5
126
100
AcDbSymbolTableRecord
100
AcDbBlockTableRecord
2
DimnDraft3D6
340
0
70
0
0
BLOCK_RECORD
5
131
100
AcDbSymbolTableRecord
100
AcDbBlockTableRecord
2
DimnDraft3D7
340
0
70
0
0
ENDTAB
0
ENDSEC
0
SECTION
2
BLOCKS
0
BLOCK
5
20
100
AcDbEntity
8
0
100
AcDbBlockBegin
2
*Model_Space
70
0
10
0
20
0
30
0
3
*Model_Space
0
ENDBLK
5
21
100
AcDbEntity
8
0
100
AcDbBlockEnd
0
BLOCK
5
1C
100
AcDbEntity
8
0
100
AcDbBlockBegin
2
*Paper_Space
70
0
10
0
20
0
30
0
3
*Paper_Space
0
ENDBLK
5
1D
100
AcDbEntity
8
0
100
AcDbBlockEnd
0
BLOCK
5
24
100
AcDbEntity
8
0
100
AcDbBlockBegin
2
*Paper_Space0
70
0
10
0
20
0
30
0
3
*Paper_Space0
0
ENDBLK
5
25
100
AcDbEntity
8
0
100
AcDbBlockEnd
0
BLOCK
5
FB
100
AcDbEntity
8
0
100
AcDbBlockBegin
2
DimnDraft3D1
70
0
10
0
20
0
30
0
3
DimnDraft3D1
0
MTEXT
5
F5
100
AcDbEntity
8
SK2
62
256
6
ByLayer
370
13
48
1
60
0
100
AcDbMText
10
40.128875
20
-14.038398
30
0
210
0
220
0
230
1
1
\W0.6791;91,39
40
3.5
41
0
44
1.084337
50
0
71
7
72
5
7
iso_b_vert
0
LINE
5
F6
100
AcDbEntity
8
SK2
62
256
6
ByLayer
370
13
48
1
60
0
100
AcDbLine
10
0
20
-1.5875
30
0
11
0
21
-16.913398
31
0
39
0
210
0
220
0
230
1
0
LINE
5
F7
100
AcDbEntity
8
SK2
62
256
6
ByLayer
370
13
48
1
60
0
100
AcDbLine
10
91.39
20
-6.2875
30
0
11
91.39
21
-16.913398
31
0
39
0
210
0
220
0
230
1
0
LINE
5
F8
100
AcDbEntity
8
SK2
62
256
6
ByLayer
370
13
48
1
60
0
100
AcDbLine
10
0
20
-14.913398
30
0
11
91.39
21
-14.913398
31
0
39
0
210
0
220
0
230
1
0
SOLID
5
F9
100
AcDbEntity
8
SK2
62
256
6
ByLayer
370
13
48
1
60
0
100
AcDbTrace
10
0
20
-14.913398
30
0
11
3.499998
21
-14.452615
31
0
12
3.500002
22
-15.374182
32
0
13
0
23
-14.913398
33
0
39
0
210
0
220
0
230
1
0
SOLID
5
FA
100
AcDbEntity
8
SK2
62
256
6
ByLayer
370
13
48
1
60
0
100
AcDbTrace
10
91.39
20
-14.913398
30
0
11
87.890002
21
-15.374182
31
0
12
87.889998
22
-14.452615
32
0
13
91.39
23
-14.913398
33
0
39
0
210
0
220
0
230
1
0
ENDBLK
5
FC
100
AcDbEntity
8
0
100
AcDbBlockEnd
0
BLOCK
5
105
100
AcDbEntity
8
0
100
AcDbBlockBegin
2
DimnDraft3D2
70
0
10
0
20
0
30
0
3
DimnDraft3D2
0
MTEXT
5
FF
100
AcDbEntity
8
SK2
62
256
6
ByLayer
370
13
48
1
60
0
100
AcDbMText
10
20.912221
20
-32.817985
30
0
210
0
220
0
230
1
1
\W0.6930;133,00
40
3.5
41
0
44
1.084337
50
0
71
7
72
5
7
iso_b_vert
0
LINE
5
100
100
AcDbEntity
8
SK2
62
256
6
ByLayer
370
13
48
1
60
0
100
AcDbLine
10
-40
20
-6.5875
30
0
11
-40
21
-35.692985
31
0
39
0
210
0
220
0
230
1
0
LINE
5
101
100
AcDbEntity
8
SK2
62
256
6
ByLayer
370
13
48
1
60
0
100
AcDbLine
10
93
20
-1.5875
30
0
11
93
21
-35.692985
31
0
39
0
210
0
220
0
230
1
0
LINE
5
102
100
AcDbEntity
8
SK2
62
256
6
ByLayer
370
13
48
1
60
0
100
AcDbLine
10
-40
20
-33.692985
30
0
11
93
21
-33.692985
31
0
39
0
210
0
220
0
230
1
0
SOLID
5
103
100
AcDbEntity
8
SK2
62
256
6
ByLayer
370
13
48
1
60
0
100
AcDbTrace
10
-40
20
-33.692985
30
0
11
-36.500002
21
-33.232202
31
0
12
-36.499998
22
-34.153769
32
0
13
-40
23
-33.692985
33
0
39
0
210
0
220
0
230
1
0
SOLID
5
104
100
AcDbEntity
8
SK2
62
256
6
ByLayer
370
13
48
1
60
0
100
AcDbTrace
10
93
20
-33.692985
30
0
11
89.500002
21
-34.153769
31
0
12
89.499998
22
-33.232202
32
0
13
93
23
-33.692985
33
0
39
0
210
0
220
0
230
1
0
ENDBLK
5
106
100
AcDbEntity
8
0
100
AcDbBlockEnd
0
BLOCK
5
10F
100
AcDbEntity
8
0
100
AcDbBlockBegin
2
DimnDraft3D3
70
0
10
0
20
0
30
0
3
DimnDraft3D3
0
MTEXT
5
109
100
AcDbEntity
8
SK2
62
256
6
ByLayer
370
13
48
1
60
0
100
AcDbMText
10
50.583816
20
17.184119
30
0
210
0
220
0
230
1
1
\W0.7211;76,81
40
3.5
41
0
44
1.084337
50
0
71
7
72
5
7
iso_b_vert
0
LINE
5
10A
100
AcDbEntity
8
SK2
62
256
6
ByLayer
370
13
48
1
60
0
100
AcDbLine
10
16.19
20
6.2875
30
0
11
16.19
21
18.309119
31
0
39
0
210
0
220
0
230
1
0
LINE
5
10B
100
AcDbEntity
8
SK2
62
256
6
ByLayer
370
13
48
1
60
0
100
AcDbLine
10
93
20
1.5875
30
0
11
93
21
18.309119
31
0
39
0
210
0
220
0
230
1
0
LINE
5
10C
100
AcDbEntity
8
SK2
62
256
6
ByLayer
370
13
48
1
60
0
100
AcDbLine
10
16.19
20
16.309119
30
0
11
93
21
16.309119
31
0
39
0
210
0
220
0
230
1
0
SOLID
5
10D
100
AcDbEntity
8
SK2
62
256
6
ByLayer
370
13
48
1
60
0
100
AcDbTrace
10
16.19
20
16.309119
30
0
11
19.689998
21
16.769903
31
0
12
19.690002
22
15.848335
32
0
13
16.19
23
16.309119
33
0
39
0
210
0
220
0
230
1
0
SOLID
5
10E
100
AcDbEntity
8
SK2
62
256
6
ByLayer
370
13
48
1
60
0
100
AcDbTrace
10
93
20
16.309119
30
0
11
89.500002
21
15.848335
31
0
12
89.499998
22
16.769903
32
0
13
93
23
16.309119
33
0
39
0
210
0
220
0
230
1
0
ENDBLK
5
110
100
AcDbEntity
8
0
100
AcDbBlockEnd
0
BLOCK
5
119
100
AcDbEntity
8
0
100
AcDbBlockBegin
2
DimnDraft3D4
70
0
10
0
20
0
30
0
3
DimnDraft3D4
0
MTEXT
5
113
100
AcDbEntity
8
SK2
62
256
6
ByLayer
370
13
48
1
60
0
100
AcDbMText
10
100.715636
20
-16.627503
30
0
210
0
220
0
230
1
1
\W0.6132;1,61
40
3.5
41
0
44
1.084337
50
0
71
7
72
5
7
iso_b_vert
0
LINE
5
114
100
AcDbEntity
8
SK2
62
256
6
ByLayer
370
13
48
1
60
0
100
AcDbLine
10
93
20
-1.5875
30
0
11
93
21
-19.502503
31
0
39
0
210
0
220
0
230
1
0
LINE
5
115
100
AcDbEntity
8
SK2
62
256
6
ByLayer
370
13
48
1
60
0
100
AcDbLine
10
91.39
20
-6.2875
30
0
11
91.39
21
-19.502503
31
0
39
0
210
0
220
0
230
1
0
LINE
5
116
100
AcDbEntity
8
SK2
62
256
6
ByLayer
370
13
48
1
60
0
100
AcDbLine
10
82.64
20
-17.502503
30
0
11
106.122215
21
-17.502503
31
0
39
0
210
0
220
0
230
1
0
SOLID
5
117
100
AcDbEntity
8
SK2
62
256
6
ByLayer
370
13
48
1
60
0
100
AcDbTrace
10
93
20
-17.502503
30
0
11
96.499998
21
-17.041719
31
0
12
96.500002
22
-17.963287
32
0
13
93
23
-17.502503
33
0
39
0
210
0
220
0
230
1
0
SOLID
5
118
100
AcDbEntity
8
SK2
62
256
6
ByLayer
370
13
48
1
60
0
100
AcDbTrace
10
91.39
20
-17.502503
30
0
11
87.890002
21
-17.963287
31
0
12
87.889998
22
-17.041719
32
0
13
91.39
23
-17.502503
33
0
39
0
210
0
220
0
230
1
0
ENDBLK
5
11A
100
AcDbEntity
8
0
100
AcDbBlockEnd
0
BLOCK
5
123
100
AcDbEntity
8
0
100
AcDbBlockBegin
2
DimnDraft3D5
70
0
10
0
20
0
30
0
3
DimnDraft3D5
0
MTEXT
5
11D
100
AcDbEntity
8
SK2
62
256
6
ByLayer
370
13
48
1
60
0
100
AcDbMText
10
18.269097
20
-22.468428
30
0
210
0
220
0
230
1
1
\W0.6501;131,39
40
3.5
41
0
44
1.084337
50
0
71
7
72
5
7
iso_b_vert
0
LINE
5
11E
100
AcDbEntity
8
SK2
62
256
6
ByLayer
370
13
48
1
60
0
100
AcDbLine
10
-40
20
-6.5875
30
0
11
-40
21
-25.343428
31
0
39
0
210
0
220
0
230
1
0
LINE
5
11F
100
AcDbEntity
8
SK2
62
256
6
ByLayer
370
13
48
1
60
0
100
AcDbLine
10
91.39
20
-6.2875
30
0
11
91.39
21
-25.343428
31
0
39
0
210
0
220
0
230
1
0
LINE
5
120
100
AcDbEntity
8
SK2
62
256
6
ByLayer
370
13
48
1
60
0
100
AcDbLine
10
-40
20
-23.343428
30
0
11
91.39
21
-23.343428
31
0
39
0
210
0
220
0
230
1
0
SOLID
5
121
100
AcDbEntity
8
SK2
62
256
6
ByLayer
370
13
48
1
60
0
100
AcDbTrace
10
-40
20
-23.343428
30
0
11
-36.500002
21
-22.882645
31
0
12
-36.499998
22
-23.804212
32
0
13
-40
23
-23.343428
33
0
39
0
210
0
220
0
230
1
0
SOLID
5
122
100
AcDbEntity
8
SK2
62
256
6
ByLayer
370
13
48
1
60
0
100
AcDbTrace
10
91.39
20
-23.343428
30
0
11
87.890002
21
-23.804212
31
0
12
87.889998
22
-22.882645
32
0
13
91.39
23
-23.343428
33
0
39
0
210
0
220
0
230
1
0
ENDBLK
5
124
100
AcDbEntity
8
0
100
AcDbBlockEnd
0
BLOCK
5
12E
100
AcDbEntity
8
0
100
AcDbBlockBegin
2
DimnDraft3D6
70
0
10
0
20
0
30
0
3
DimnDraft3D6
0
MTEXT
5
127
100
AcDbEntity
8
SK2
62
256
6
ByLayer
370
13
48
1
60
0
100
AcDbMText
10
-50.375163
20
24.34918
30
0
210
0
220
0
230
1
1
\W0.6930;10,000
40
3.5
41
0
44
1.084337
50
90
71
7
72
5
7
iso_b_vert
0
MTEXT
5
128
100
AcDbEntity
8
SK2
62
256
6
ByLayer
370
13
48
1
60
0
100
AcDbMText
10
-50.375163
20
19.126524
30
0
210
0
220
0
230
1
1
%%c
40
3.5
41
0
44
1.084337
50
90
71
7
72
5
7
iso_b_vert
0
LINE
5
129
100
AcDbEntity
8
SK2
62
256
6
ByLayer
370
13
48
1
60
0
100
AcDbLine
10
-41.5875
20
-5
30
0
11
-50.625163
21
-5
31
0
39
0
210
0
220
0
230
1
0
LINE
5
12A
100
AcDbEntity
8
SK2
62
256
6
ByLayer
370
13
48
1
60
0
100
AcDbLine
10
-41.5875
20
5
30
0
11
-50.625163
21
5
31
0
39
0
210
0
220
0
230
1
0
LINE
5
12B
100
AcDbEntity
8
SK2
62
256
6
ByLayer
370
13
48
1
60
0
100
AcDbLine
10
-48.625163
20
-5
30
0
11
-48.625163
21
35.862338
31
0
39
0
210
0
220
0
230
1
0
SOLID
5
12C
100
AcDbEntity
8
SK2
62
256
6
ByLayer
370
13
48
1
60
0
100
AcDbTrace
10
-48.625163
20
-5
30
0
11
-49.085946
21
-1.500002
31
0
12
-48.164379
22
-1.499998
32
0
13
-48.625163
23
-5
33
0
39
0
210
0
220
0
230
1
0
SOLID
5
12D
100
AcDbEntity
8
SK2
62
256
6
ByLayer
370
13
48
1
60
0
100
AcDbTrace
10
-48.625163
20
5
30
0
11
-48.164379
21
1.500002
31
0
12
-49.085946
22
1.499998
32
0
13
-48.625163
23
5
33
0
39
0
210
0
220
0
230
1
0
ENDBLK
5
12F
100
AcDbEntity
8
0
100
AcDbBlockEnd
0
BLOCK
5
139
100
AcDbEntity
8
0
100
AcDbBlockBegin
2
DimnDraft3D7
70
0
10
0
20
0
30
0
3
DimnDraft3D7
0
MTEXT
5
132
100
AcDbEntity
8
2
62
256
6
ByLayer
370
13
48
1
60
0
100
AcDbMText
10
103.333343
20
22.642266
30
0
210
0
220
0
230
1
1
\W0.7581;9,400
40
3.5
41
0
44
1.084337
50
90
71
7
72
5
7
iso_b_vert
0
MTEXT
5
133
100
AcDbEntity
8
2
62
256
6
ByLayer
370
13
48
1
60
0
100
AcDbMText
10
103.333343
20
17.41961
30
0
210
0
220
0
230
1
1
%%c
40
3.5
41
0
44
1.084337
50
90
71
7
72
5
7
iso_b_vert
0
LINE
5
134
100
AcDbEntity
8
2
62
256
6
ByLayer
370
13
48
1
60
0
100
AcDbLine
10
92.9775
20
-4.7
30
0
11
107.083343
21
-4.7
31
0
39
0
210
0
220
0
230
1
0
LINE
5
135
100
AcDbEntity
8
2
62
256
6
ByLayer
370
13
48
1
60
0
100
AcDbLine
10
92.9775
20
4.7
30
0
11
107.083343
21
4.7
31
0
39
0
210
0
220
0
230
1
0
LINE
5
136
100
AcDbEntity
8
2
62
256
6
ByLayer
370
13
48
1
60
0
100
AcDbLine
10
105.083343
20
-4.7
30
0
11
105.083343
21
32.783056
31
0
39
0
210
0
220
0
230
1
0
SOLID
5
137
100
AcDbEntity
8
2
62
256
6
ByLayer
370
13
48
1
60
0
100
AcDbTrace
10
105.083343
20
-4.7
30
0
11
104.622559
21
-1.200002
31
0
12
105.544126
22
-1.199998
32
0
13
105.083343
23
-4.7
33
0
39
0
210
0
220
0
230
1
0
SOLID
5
138
100
AcDbEntity
8
2
62
256
6
ByLayer
370
13
48
1
60
0
100
AcDbTrace
10
105.083343
20
4.7
30
0
11
105.544126
21
1.200002
31
0
12
104.622559
22
1.199998
32
0
13
105.083343
23
4.7
33
0
39
0
210
0
220
0
230
1
0
ENDBLK
5
13A
100
AcDbEntity
8
0
100
AcDbBlockEnd
0
ENDSEC
0
SECTION
2
ENTITIES
0
ARC
5
9D
100
AcDbEntity
8
1
62
256
6
ByLayer
370
18
48
1
60
0
100
AcDbCircle
39
0
10
0
20
4.2
30
0
40
0.800000000000001
210
0
220
0
230
1
100
AcDbArc
50
51.130975
51
90
0
ARC
5
9E
100
AcDbEntity
8
1
62
256
6
ByLayer
370
18
48
1
60
0
100
AcDbCircle
39
0
10
0
20
-4.2
30
0
40
0.800000000000001
210
0
220
0
230
1
100
AcDbArc
50
270
51
308.869025
0
ARC
5
9F
100
AcDbEntity
8
1
62
256
6
ByLayer
370
18
48
1
60
0
100
AcDbCircle
39
0
10
-1.004068
20
-5.445732
30
0
40
0.800000000000002
210
0
220
0
230
-1
100
AcDbArc
50
51.130975
51
90.034377
0
ARC
5
A0
100
AcDbEntity
8
1
62
256
6
ByLayer
370
18
48
1
60
0
100
AcDbCircle
39
0
10
-1.004068
20
5.445732
30
0
40
0.800000000000002
210
0
220
0
230
-1
100
AcDbArc
50
269.965623
51
308.869025
0
ELLIPSE
5
A1
100
AcDbEntity
8
1
62
256
6
ByLayer
370
13
48
1
60
0
100
AcDbEllipse
10
92.59675
20
2.263544
30
0
11
2.68511669565228
21
-1.44650921914384
31
0
210
0
220
0
230
-1
40
0.500253
41
1.53379492196
42
1.86098559811814
0
ELLIPSE
5
A2
100
AcDbEntity
8
1
62
256
6
ByLayer
370
13
48
1
60
0
100
AcDbEllipse
10
91.972956
20
0.655583
30
0
11
0.153082081612417
21
0.258003636193774
31
0
210
0
220
0
230
1
40
0.454519
41
0.917105603404797
42
2.31336900500025
0
ELLIPSE
5
A3
100
AcDbEntity
8
1
62
256
6
ByLayer
370
13
48
1
60
0
100
AcDbEllipse
10
11.250139
20
-3.888948
30
0
11
0.0282707700060445
21
0.0959206107323412
31
0
210
0
220
0
230
1
40
0.423877
41
0.605708219713922
42
2.16014230048041
0
ELLIPSE
5
A4
100
AcDbEntity
8
1
62
256
6
ByLayer
370
13
48
1
60
0
100
AcDbEllipse
10
92.406844
20
2.140346
30
0
11
2.61022129200023
21
-1.79721158481827
31
0
210
0
220
0
230
-1
40
0.533762
41
1.44484622735214
42
1.75030530440493
0
ELLIPSE
5
A5
100
AcDbEntity
8
1
62
256
6
ByLayer
370
18
48
1
60
0
100
AcDbEllipse
10
93.000409
20
0.001027
30
0
11
1.7289468688035
21
4.69783540206648
31
0
210
0
220
0
230
-1
40
0.098637
41
2.87910738092116
42
2.97848798363911
0
ELLIPSE
5
A6
100
AcDbEntity
8
1
62
256
6
ByLayer
370
13
48
1
60
0
100
AcDbEllipse
10
11.175482
20
-3.883917
30
0
11
0.0190117807140407
21
-0.0981761284329405
31
0
210
0
220
0
230
1
40
0.607068
41
-2.53282630187076
42
-1.2263427448089
0
ELLIPSE
5
A7
100
AcDbEntity
8
1
62
256
6
ByLayer
370
18
48
1
60
0
100
AcDbEllipse
10
93.000409
20
-0.001027
30
0
11
1.72894683162233
21
-4.69783529438506
31
0
210
0
220
0
230
-1
40
0.098637
41
-2.978487981763
42
-2.87910737789054
0
ELLIPSE
5
A8
100
AcDbEntity
8
1
62
256
6
ByLayer
370
18
48
1
60
0
100
AcDbEllipse
10
92.109159
20
-2.263544
30
0
11
0.726014060362741
21
1.97270062278959
31
0
210
0
220
0
230
-1
40
0.098637
41
0.749112684719628
42
1.54666438269282
0
ELLIPSE
5
A9
100
AcDbEntity
8
1
62
256
6
ByLayer
370
18
48
1
60
0
100
AcDbEllipse
10
93.032803
20
0.02674
30
0
11
0.140634104980487
21
-0.431000092714499
31
0
210
0
220
0
230
-1
40
0.07518
41
1.63985040026964
42
2.31001430904774
0
ELLIPSE
5
AA
100
AcDbEntity
8
1
62
256
6
ByLayer
370
18
48
1
60
0
100
AcDbEllipse
10
93.032803
20
-0.02674
30
0
11
0.140634104957321
21
0.431000092654466
31
0
210
0
220
0
230
-1
40
0.07518
41
-2.31001430904313
42
-1.63985040017434
0
ELLIPSE
5
AB
100
AcDbEntity
8
1
62
256
6
ByLayer
370
18
48
1
60
0
100
AcDbEllipse
10
92.860039
20
0.129247
30
0
11
0.0727819104997706
21
0.301917195679529
31
0
210
0
220
0
230
-1
40
0.478434
41
1.73366170694577
42
2.45976119969507
0
ELLIPSE
5
AC
100
AcDbEntity
8
1
62
256
6
ByLayer
370
18
48
1
60
0
100
AcDbEllipse
10
92.109159
20
2.263544
30
0
11
0.726014060398612
21
-1.97270062286909
31
0
210
0
220
0
230
-1
40
0.098637
41
-1.54666438266222
42
-0.749112684717831
0
POINT
5
6C
100
AcDbEntity
8
81
62
256
6
ByLayer
370
18
48
1
60
0
100
AcDbPoint
10
93
20
0
30
0
39
0
210
0
220
0
230
1
50
360
0
POINT
5
6E
100
AcDbEntity
8
80
62
256
6
ByLayer
370
18
48
1
60
0
100
AcDbPoint
10
0
20
0
30
0
39
0
210
0
220
0
230
1
50
360
0
POINT
5
70
100
AcDbEntity
8
SK2
62
256
6
ByLayer
370
18
48
1
60
1
100
AcDbPoint
10
-40
20
-5
30
0
39
0
210
0
220
0
230
1
50
360
0
POINT
5
72
100
AcDbEntity
8
SK2
62
256
6
ByLayer
370
18
48
1
60
1
100
AcDbPoint
10
-40
20
5
30
0
39
0
210
0
220
0
230
1
50
360
0
POINT
5
73
100
AcDbEntity
8
2
62
256
6
ByLayer
370
18
48
1
60
1
100
AcDbPoint
10
91.39
20
-4.7
30
0
39
0
210
0
220
0
230
1
50
360
0
POINT
5
75
100
AcDbEntity
8
2
62
256
6
ByLayer
370
18
48
1
60
1
100
AcDbPoint
10
91.39
20
4.7
30
0
39
0
210
0
220
0
230
1
50
360
0
SPLINE
5
AD
100
AcDbEntity
8
1
62
256
6
ByLayer
370
18
48
1
60
0
100
AcDbSpline
70
4
71
2
72
6
73
3
40
0
40
0
40
0
40
1
40
1
40
1
41
1
10
77.8572639438437
20
0.0017597803203842
30
0
41
1
10
77.8572515105686
20
0.0017667323928663
30
0
41
1
10
77.8572390772833
20
0.001773850428691
30
0
0
SPLINE
5
AE
100
AcDbEntity
8
1
62
256
6
ByLayer
370
18
48
1
60
0
100
AcDbSpline
70
4
71
3
72
28
73
24
40
0
40
0
40
0
40
0
40
0.0074527418627722
40
0.0626369217534449
40
0.113443905428811
40
0.151372392375637
40
0.179813455672731
40
0.218009722139826
40
0.268880812774149
40
0.341039142939926
40
0.400536341050938
40
0.460358867888138
40
0.527835392091606
40
0.570291640626287
40
0.611510229115151
40
0.651049010309822
40
0.693333337298962
40
0.744280116823632
40
0.802055933269419
40
0.850022070240848
40
0.884309552348481
40
0.944263759131194
40
1
40
1
40
1
40
1
41
1
10
28.2366164399573
20
4.44765410805772
30
0
41
1
10
28.2110398594102
20
4.44760228323591
30
0
41
1
10
27.9958459133201
20
4.44723794067213
30
0
41
1
10
27.5878263107947
20
4.44825481541338
30
0
41
1
10
27.0983730695518
20
4.45042814567665
30
0
41
1
10
26.6879559638753
20
4.44673435253279
30
0
41
1
10
26.3202449139962
20
4.44614289138778
30
0
41
1
10
25.9073755610859
20
4.44596606774266
30
0
41
1
10
25.3404983855574
20
4.44659490575521
30
0
41
1
10
24.6988385994553
20
4.44888622588391
30
0
41
1
10
24.025667859634
20
4.44654170863933
30
0
41
1
10
23.3689650609997
20
4.44640810151287
30
0
41
1
10
22.7721733060837
20
4.44425977909228
30
0
41
1
10
22.2407811074707
20
4.44471127577989
30
0
41
1
10
21.8076085711207
20
4.44513607236746
30
0
41
1
10
21.3750408860717
20
4.4458654062704
30
0
41
1
10
20.9082777624602
20
4.44577306594874
30
0
41
1
10
20.3774167264385
20
4.44349283329169
30
0
41
1
10
19.8265557232168
20
4.44343404212691
30
0
41
1
10
19.3342655567458
20
4.44365179400421
30
0
41
1
10
18.8343500411364
20
4.44386697479928
30
0
41
1
10
18.3071388848897
20
4.44306838605806
30
0
41
1
10
17.9002386166295
20
4.44277471813675
30
0
41
1
10
17.7043337214999
20
4.44267007815657
30
0
0
SPLINE
5
AF
100
AcDbEntity
8
1
62
256
6
ByLayer
370
18
48
1
60
0
100
AcDbSpline
70
4
71
3
72
30
73
26
40
0
40
0
40
0
40
0
40
0.0493331007509399
40
0.0968810078593453
40
0.141042980096085
40
0.175266381114467
40
0.208466047858732
40
0.259039634718691
40
0.303808488009254
40
0.336163738462417
40
0.369426352996831
40
0.407247556733043
40
0.456953710553003
40
0.518299419082275
40
0.568038023678568
40
0.610834214000517
40
0.671069370513501
40
0.726854253546223
40
0.774157446214703
40
0.814757757901879
40
0.849207464568289
40
0.88716221357132
40
0.935474765058632
40
0.988545313183769
40
1
40
1
40
1
40
1
41
1
10
40.498114482447
20
-4.45645197489262
30
0
41
1
10
40.7037468123647
20
-4.45577227855742
30
0
41
1
10
41.1089742583788
20
-4.45504548606178
30
0
41
1
10
41.7147974299031
20
-4.45656101192836
30
0
41
1
10
42.2386801887769
20
-4.45794481441501
30
0
41
1
10
42.7150193210738
20
-4.45745757969303
30
0
41
1
10
43.2161572905782
20
-4.45743405344538
30
0
41
1
10
43.7635753298186
20
-4.45758095791251
30
0
41
1
10
44.306917464811
20
-4.45884352581953
30
0
41
1
10
44.7766843942543
20
-4.45915500597474
30
0
41
1
10
45.2168902762181
20
-4.46023100647508
30
0
41
1
10
45.7309290470714
20
-4.4607235988758
30
0
41
1
10
46.3644873559696
20
-4.45908741192466
30
0
41
1
10
47.0487588979829
20
-4.45815781400754
30
0
41
1
10
47.7036136152691
20
-4.46183108225998
30
0
41
1
10
48.353760229597
20
-4.46282407062608
30
0
41
1
10
49.0296197201958
20
-4.46061367288792
30
0
41
1
10
49.7247012420434
20
-4.45972766381942
30
0
41
1
10
50.3361094398846
20
-4.46241529330368
30
0
41
1
10
50.8570489389859
20
-4.46232303856155
30
0
41
1
10
51.3371922253837
20
-4.46423063041649
30
0
41
1
10
51.853911761927
20
-4.46468733852552
30
0
41
1
10
52.432078810028
20
-4.46287467558261
30
0
41
1
10
52.9191364604729
20
-4.45923276083911
30
0
41
1
10
53.1874995228144
20
-4.46075782864531
30
0
41
1
10
53.2350619749293
20
-4.46107969336353
30
0
0
SPLINE
5
B0
100
AcDbEntity
8
1
62
256
6
ByLayer
370
18
48
1
60
0
100
AcDbSpline
70
4
71
2
72
6
73
3
40
0
40
0
40
0
40
1
40
1
40
1
41
1
10
90.4990500651908
20
-4.48657567548025
30
0
41
1
10
90.9353215501621
20
-4.48158851917236
30
0
41
1
10
91.3716216824018
20
-4.48877403544549
30
0
0
SPLINE
5
B1
100
AcDbEntity
8
1
62
256
6
ByLayer
370
18
48
1
60
0
100
AcDbSpline
70
4
71
3
72
28
73
24
40
0
40
0
40
0
40
0
40
0.0105235584740362
40
0.0687097568061472
40
0.119319984734647
40
0.156578135228799
40
0.18681516299042
40
0.229015870145674
40
0.284778813119739
40
0.356100776510372
40
0.415199763632125
40
0.480561919201261
40
0.553424869525113
40
0.605587545500815
40
0.64909397666141
40
0.68891010941561
40
0.731794958052943
40
0.788937440198973
40
0.847334565319883
40
0.888863811416532
40
0.923305763629839
40
0.965422245638835
40
1
40
1
40
1
40
1
41
1
10
78.2015787304319
20
4.47668108298868
30
0
41
1
10
78.1654823832196
20
4.47657037306632
30
0
41
1
10
77.9296490101195
20
4.47595277309952
30
0
41
1
10
77.5065560733931
20
4.47703190586225
30
0
41
1
10
77.0122305491781
20
4.47847207949042
30
0
41
1
10
76.6008713097191
20
4.47749578541365
30
0
41
1
10
76.2189665007396
20
4.47753501420343
30
0
41
1
10
75.7721499786646
20
4.47661658982761
30
0
41
1
10
75.1820589698389
20
4.47534843155307
30
0
41
1
10
74.5330814789892
20
4.4755396593784
30
0
41
1
10
73.8506317242993
20
4.47643009358319
30
0
41
1
10
73.1628137237992
20
4.47609588858097
30
0
41
1
10
72.4991718828694
20
4.47426029189165
30
0
41
1
10
71.911714648434
20
4.47526092765773
30
0
41
1
10
71.4394487462562
20
4.47528361153203
30
0
41
1
10
70.9995204513839
20
4.47573203525835
30
0
41
1
10
70.5120734200403
20
4.47336876104285
30
0
41
1
10
69.9598649192893
20
4.47300889601914
30
0
41
1
10
69.4123483541633
20
4.4737620844748
30
0
41
1
10
68.944006145021
20
4.47402377556463
30
0
41
1
10
68.5323698156157
20
4.47397449686875
30
0
41
1
10
68.1450201358058
20
4.47306257846154
30
0
41
1
10
67.8776584647987
20
4.47276115985082
30
0
41
1
10
67.7571362882874
20
4.47266538099601
30
0
0
SPLINE
5
B2
100
AcDbEntity
8
1
62
256
6
ByLayer
370
18
48
1
60
0
100
AcDbSpline
70
4
71
3
72
33
73
29
40
0
40
0
40
0
40
0
40
0.0594585170512943
40
0.105058290827487
40
0.137207069695732
40
0.164306555588585
40
0.191161144588855
40
0.217581747031515
40
0.253102713190287
40
0.282606056934453
40
0.324191504169928
40
0.383113724795711
40
0.435147714244536
40
0.477182947954171
40
0.519339353486929
40
0.563324536580641
40
0.610840810277649
40
0.654484086549233
40
0.694082811307413
40
0.739962649451236
40
0.792543657017504
40
0.836502211174572
40
0.861051115144657
40
0.883708026279589
40
0.915402971207741
40
0.955287838137638
40
0.997382786632096
40
1
40
1
40
1
40
1
41
1
10
15.4966851425975
20
-4.44146956734889
30
0
41
1
10
15.7495583765356
20
-4.44164265004204
30
0
41
1
10
16.1963681265385
20
-4.44192636786627
30
0
41
1
10
16.7798883755673
20
-4.44227970322106
30
0
41
1
10
17.2258288625358
20
-4.44247681332459
30
0
41
1
10
17.591671056522
20
-4.44260657944264
30
0
41
1
10
17.9335622056802
20
-4.442686965289
30
0
41
1
10
18.3112356632311
20
-4.44311952130454
30
0
41
1
10
18.700182836636
20
-4.44379255726923
30
0
41
1
10
19.1536181240706
20
-4.4437393569842
30
0
41
1
10
19.7065852256957
20
-4.44349267860051
30
0
41
1
10
20.3554206576017
20
-4.44325191530717
30
0
41
1
10
21.0061223473424
20
-4.44630424074322
30
0
41
1
10
21.5855431310534
20
-4.44544152316837
30
0
41
1
10
22.1307295241366
20
-4.44480844492961
30
0
41
1
10
22.6992307393672
20
-4.44420755194932
30
0
41
1
10
23.274051272624
20
-4.44594938266914
30
0
41
1
10
23.8302174794008
20
-4.44665435950625
30
0
41
1
10
24.3794190151901
20
-4.44764621054696
30
0
41
1
10
24.9666605630814
20
-4.44813221568162
30
0
41
1
10
25.5723314037664
20
-4.44613930567746
30
0
41
1
10
26.087606778324
20
-4.44598363589043
30
0
41
1
10
26.4746851455453
20
-4.44626899446698
30
0
41
1
10
26.811111403045
20
-4.44765969777848
30
0
41
1
10
27.2071033890742
20
-4.45065800928884
30
0
41
1
10
27.6775606311865
20
-4.4475379020958
30
0
41
1
10
28.045683218604
20
-4.44733471933122
30
0
41
1
10
28.2313578377329
20
-4.44763783134968
30
0
41
1
10
28.242219183552
20
-4.44765731318256
30
0
0
SPLINE
5
B3
100
AcDbEntity
8
1
62
256
6
ByLayer
370
18
48
1
60
0
100
AcDbSpline
70
4
71
3
72
11
73
7
40
0
40
0
40
0
40
0
40
0.0049188012766165
40
0.35574743064386
40
0.661723928798339
40
1
40
1
40
1
40
1
41
1
10
29.0326774926502
20
-1.10455216169049
30
0
41
1
10
29.0326785069212
20
-1.10455156382082
30
0
41
1
10
29.0329076272752
20
-1.10457981141312
30
0
41
1
10
29.0545584962855
20
-1.11438064936036
30
0
41
1
10
29.0517045217515
20
-1.11336819525755
30
0
41
1
10
29.0902173411974
20
-1.13534428109909
30
0
41
1
10
29.1159869692965
20
-1.15022554137829
30
0
0
SPLINE
5
B4
100
AcDbEntity
8
1
62
256
6
ByLayer
370
18
48
1
60
0
100
AcDbSpline
70
4
71
3
72
30
73
26
40
0
40
0
40
0
40
0
40
0.0555419835816345
40
0.109126876543199
40
0.155931147925713
40
0.190996402684251
40
0.238731692825548
40
0.297672784825102
40
0.338611210198999
40
0.374771140723465
40
0.412531655576031
40
0.454718004988351
40
0.50201294012814
40
0.551468250827064
40
0.58878644258056
40
0.638770661589954
40
0.699310801972195
40
0.748303616403706
40
0.787807732273187
40
0.816151818442321
40
0.843126824103146
40
0.87580182046512
40
0.917477992698596
40
0.977366155496434
40
1
40
1
40
1
40
1
41
1
10
65.4954459399743
20
-4.47168320056184
30
0
41
1
10
65.7243376337606
20
-4.47099532313024
30
0
41
1
10
66.1751986835389
20
-4.47019450229215
30
0
41
1
10
66.8316864752757
20
-4.4718744605689
30
0
41
1
10
67.3898094251227
20
-4.47248910342361
30
0
41
1
10
67.9351618928349
20
-4.47258104978229
30
0
41
1
10
68.5285261721346
20
-4.47415971110502
30
0
41
1
10
69.1476735796571
20
-4.47396076466848
30
0
41
1
10
69.7179144405085
20
-4.47342468794622
30
0
41
1
10
70.1994519376554
20
-4.47285225620808
30
0
41
1
10
70.6862062265334
20
-4.47443595000433
30
0
41
1
10
71.2196464781001
20
-4.47571573676362
30
0
41
1
10
71.8021159685986
20
-4.47517481977937
30
0
41
1
10
72.3641751198736
20
-4.47477152881672
30
0
41
1
10
72.9375105592501
20
-4.47434649363001
30
0
41
1
10
73.5573130221737
20
-4.4775009572156
30
0
41
1
10
74.2260607839614
20
-4.47563727711741
30
0
41
1
10
74.8508703846442
20
-4.47547183233513
30
0
41
1
10
75.3407112165771
20
-4.47565774081892
30
0
41
1
10
75.7382329173985
20
-4.47651931890388
30
0
41
1
10
76.1071562056056
20
-4.47738369000854
30
0
41
1
10
76.5318351731206
20
-4.47767321545132
30
0
41
1
10
77.0941724857913
20
-4.47822925672338
30
0
41
1
10
77.6150223492519
20
-4.47806519011513
30
0
41
1
10
77.9608985444818
20
-4.47809086330935
30
0
41
1
10
78.0557655174221
20
-4.47809218774074
30
0
0
SPLINE
5
B5
100
AcDbEntity
8
1
62
256
6
ByLayer
370
18
48
1
60
0
100
AcDbSpline
70
4
71
3
72
29
73
25
40
0
40
0
40
0
40
0
40
0.0087212660819352
40
0.0669606961640428
40
0.122602351142175
40
0.167468356093377
40
0.205861689589491
40
0.244774017681112
40
0.289195920431696
40
0.328397790493194
40
0.372341674642396
40
0.421103265821914
40
0.469826654265448
40
0.507521600379685
40
0.539216719495889
40
0.582967794039417
40
0.661210372570315
40
0.723348773846257
40
0.770522686211027
40
0.812161332600557
40
0.857845328512261
40
0.929275705264582
40
0.976524758109976
40
1
40
1
40
1
40
1
41
1
10
53.2435463589661
20
4.4609744390327
30
0
41
1
10
53.2136491233816
20
4.46077938538232
30
0
41
1
10
52.9837814889681
20
4.45945864904459
30
0
41
1
10
52.5421881721672
20
4.46163315517492
30
0
41
1
10
52.0015110483068
20
4.4645904622364
30
0
41
1
10
51.5095108479739
20
4.46457681151722
30
0
41
1
10
51.0803388745386
20
4.46299396315433
30
0
41
1
10
50.6514118196
20
4.46248254450555
30
0
41
1
10
50.219996178571
20
4.4618372475758
30
0
41
1
10
49.77076167717
20
4.46023027115316
30
0
41
1
10
49.3062683780764
20
4.45985518991054
30
0
41
1
10
48.8082442816606
20
4.46165572480532
30
0
41
1
10
48.3322240529995
20
4.46243640266789
30
0
41
1
10
47.916298325279
20
4.46242983532412
30
0
41
1
10
47.5178866122357
20
4.4604935712519
30
0
41
1
10
46.9766974936246
20
4.45831465748475
30
0
41
1
10
46.3282975227553
20
4.45912618739945
30
0
41
1
10
45.6678427051884
20
4.46086186330055
30
0
41
1
10
45.1362908113188
20
4.45997539881233
30
0
41
1
10
44.6626697813942
20
4.45904867175128
30
0
41
1
10
44.1036727003273
20
4.45855245917465
30
0
41
1
10
43.5248540325618
20
4.45727403761094
30
0
41
1
10
43.024319765455
20
4.45751552962531
30
0
41
1
10
42.7753584268829
20
4.4575121712268
30
0
41
1
10
42.6927446402811
20
4.45752993538301
30
0
0
SPLINE
5
B6
100
AcDbEntity
8
1
62
256
6
ByLayer
370
18
48
1
60
0
100
AcDbSpline
70
4
71
3
72
11
73
7
40
0
40
0
40
0
40
0
40
0.0663908885574464
40
0.213602404815926
40
0.416289308894967
40
1
40
1
40
1
40
1
41
1
10
78.9650595085761
20
-1.06916584054173
30
0
41
1
10
78.9649886197469
20
-1.06917235928086
30
0
41
1
10
78.9676635137099
20
-1.07068728534716
30
0
41
1
10
78.9937253578354
20
-1.08456834291758
30
0
41
1
10
79.0886395868542
20
-1.13627054850352
30
0
41
1
10
79.1833038757564
20
-1.18947144558194
30
0
41
1
10
79.2678096859982
20
-1.23758476126622
30
0
0
SPLINE
5
B7
100
AcDbEntity
8
1
62
256
6
ByLayer
370
18
48
1
60
0
100
AcDbSpline
70
4
71
3
72
11
73
7
40
0
40
0
40
0
40
0
40
0.13566951792054
40
0.305058561467101
40
0.571964467565873
40
1
40
1
40
1
40
1
41
1
10
53.9897347073014
20
-1.08301099150941
30
0
41
1
10
53.9899156546791
20
-1.08321007652162
30
0
41
1
10
53.9953571754151
20
-1.08617749137474
30
0
41
1
10
54.0330078283418
20
-1.10593105471415
30
0
41
1
10
54.1032617431142
20
-1.1427328171618
30
0
41
1
10
54.1568360773599
20
-1.17229602447415
30
0
41
1
10
54.1908369995346
20
-1.19143482713557
30
0
0
SPLINE
5
B8
100
AcDbEntity
8
1
62
256
6
ByLayer
370
18
48
1
60
0
100
AcDbSpline
70
4
71
3
72
100
73
96
40
0
40
0
40
0
40
0
40
0.0049644240905079
40
0.0049644240905079
40
0.0233515100155137
40
0.0233515100155137
40
0.0417385959405196
40
0.0417385959405196
40
0.0601256818655254
40
0.0601256818655254
40
0.0785127677905312
40
0.0785127677905312
40
0.115286939640544
40
0.115286939640544
40
0.152061111490556
40
0.152061111490556
40
0.170448197415563
40
0.170448197415563
40
0.18883528334057
40
0.18883528334057
40
0.207222369265577
40
0.207222369265577
40
0.225609455190584
40
0.225609455190584
40
0.243996541115591
40
0.243996541115591
40
0.262383627040597
40
0.262383627040597
40
0.280770712965604
40
0.280770712965604
40
0.299157798890611
40
0.299157798890611
40
0.317544884815618
40
0.317544884815618
40
0.335931970740625
40
0.335931970740625
40
0.354319056665632
40
0.354319056665632
40
0.372706142590639
40
0.372706142590639
40
0.391093228515645
40
0.391093228515645
40
0.409480314440652
40
0.409480314440652
40
0.427867400365659
40
0.427867400365659
40
0.446254486290666
40
0.446254486290666
40
0.464641572215673
40
0.464641572215673
40
0.48302865814068
40
0.48302865814068
40
0.519802829990695
40
0.519802829990695
40
0.538189915915702
40
0.538189915915702
40
0.556577001840708
40
0.556577001840708
40
0.593351173690722
40
0.593351173690722
40
0.611738259615729
40
0.611738259615729
40
0.630125345540736
40
0.630125345540736
40
0.648512431465743
40
0.648512431465743
40
0.666899517390749
40
0.666899517390749
40
0.703673689240764
40
0.703673689240764
40
0.740447861090779
40
0.740447861090779
40
0.758834947015786
40
0.758834947015786
40
0.777222032940793
40
0.777222032940793
40
0.795609118865801
40
0.795609118865801
40
0.813996204790808
40
0.813996204790808
40
0.832383290715816
40
0.832383290715816
40
0.850770376640823
40
0.850770376640823
40
0.887544548490838
40
0.887544548490838
40
0.924318720340852
40
0.924318720340852
40
0.961092892190867
40
0.961092892190867
40
0.979479978115875
40
0.979479978115875
40
0.997867064040882
40
0.997867064040882
40
1
40
1
40
1
40
1
41
1
10
28.2394220114763
20
4.44778826432315
30
0
41
1
10
28.2895711117658
20
4.44697431564077
30
0
41
1
10
28.3397351864745
20
4.4458993559706
30
0
41
1
10
28.5757651728965
20
4.43964009816304
30
0
41
1
10
28.7618254835726
20
4.4311629576049
30
0
41
1
10
29.13430502732
20
4.40759957947043
30
0
41
1
10
29.3206119421597
20
4.39243349492662
30
0
41
1
10
29.6946447470136
20
4.35441037249004
30
0
41
1
10
29.8826759269311
20
4.3314875496836
30
0
41
1
10
30.2578643004035
20
4.27922780227027
30
0
41
1
10
30.4450328295273
20
4.250019319323
30
0
41
1
10
31.0050840771792
20
4.15114927042873
30
0
41
1
10
31.3760372022408
20
4.06918639311644
30
0
41
1
10
32.1173135149329
20
3.88073596772514
30
0
41
1
10
32.4879936471924
20
3.77480939450911
30
0
41
1
10
33.0437518052738
20
3.59983617116907
30
0
41
1
10
33.2289601250154
20
3.53850032319696
30
0
41
1
10
33.5993936897578
20
3.40907933367748
30
0
41
1
10
33.7845215658314
20
3.34106349093565
30
0
41
1
10
34.155744304362
20
3.20042042933207
30
0
41
1
10
34.3417527772013
20
3.12757490431875
30
0
41
1
10
34.7146338375851
20
2.97585422986114
30
0
41
1
10
34.9015202924199
20
2.89707648932813
30
0
41
1
10
35.2761674641004
20
2.73443044461493
30
0
41
1
10
35.4642380399706
20
2.65038586511435
30
0
41
1
10
35.8389379883525
20
2.47842585825307
30
0
41
1
10
36.0256220896256
20
2.39033205048636
30
0
41
1
10
36.3987881960524
20
2.21190929943796
30
0
41
1
10
36.5852026421129
20
2.12154300361937
30
0
41
1
10
36.9573802188629
20
1.93725653425918
30
0
41
1
10
37.143165372529
20
1.8433370166899
30
0
41
1
10
37.5142920959316
20
1.65238371668624
30
0
41
1
10
37.6996262114595
20
1.55536652071956
30
0
41
1
10
38.0699371838039
20
1.35864248651688
30
0
41
1
10
38.254843043023
20
1.2588007494719
30
0
41
1
10
38.6252907795605
20
1.05838223572366
30
0
41
1
10
38.8106986374059
20
0.957652654247056
30
0
41
1
10
39.1817494897741
20
0.75469389758905
30
0
41
1
10
39.3674766811964
20
0.65225928453998
30
0
41
1
10
39.7394157299726
20
0.445932528559297
30
0
41
1
10
39.9256064347611
20
0.342020841158103
30
0
41
1
10
40.2985067202901
20
0.132913071651615
30
0
41
1
10
40.4851641338637
20
0.0276130334658831
30
0
41
1
10
40.8598986210008
20
-0.182367365062845
30
0
41
1
10
41.0480612416576
20
-0.287345174219695
30
0
41
1
10
41.4230556288029
20
-0.49612652381785
30
0
41
1
10
41.610163004219
20
-0.600135100422079
30
0
41
1
10
41.9831268251255
20
-0.806181392088178
30
0
41
1
10
42.1691134821179
20
-0.908461708993116
30
0
41
1
10
42.5402934673028
20
-1.11153883251688
30
0
41
1
10
42.7254445017642
20
-1.21232982709273
30
0
41
1
10
43.2813180595682
20
-1.50971718000684
30
0
41
1
10
43.6518546663141
20
-1.70276805455228
30
0
41
1
10
44.2074251059879
20
-1.98497108756641
30
0
41
1
10
44.3925840820591
20
-2.07755746006455
30
0
41
1
10
44.7629412900184
20
-2.25975256626106
30
0
41
1
10
44.9481022900164
20
-2.34950791765391
30
0
41
1
10
45.5051379790106
20
-2.6121143094289
30
0
41
1
10
45.8782139430149
20
-2.77793726626609
30
0
41
1
10
46.4404761609583
20
-3.0136796668238
30
0
41
1
10
46.6285602476208
20
-3.09034590036197
30
0
41
1
10
47.0030592804674
20
-3.23859596903958
30
0
41
1
10
47.1897215613356
20
-3.31021451021999
30
0
41
1
10
47.5629660907375
20
-3.44821885094905
30
0
41
1
10
47.7493416657074
20
-3.51448929909697
30
0
41
1
10
48.1214217884708
20
-3.63965504499467
30
0
41
1
10
48.3071738310716
20
-3.69873098647483
30
0
41
1
10
48.8637791143709
20
-3.86642569531463
30
0
41
1
10
49.2335012284962
20
-3.965279606705
30
0
41
1
10
49.9747313326502
20
-4.13946802571411
30
0
41
1
10
50.3459679880934
20
-4.21429439079475
30
0
41
1
10
50.9040249942562
20
-4.30461744343827
30
0
41
1
10
51.0901889621087
20
-4.33167467619202
30
0
41
1
10
51.4629533561224
20
-4.37883877471791
30
0
41
1
10
51.6496816582613
20
-4.39842216691278
30
0
41
1
10
52.0247385254838
20
-4.42965687835809
30
0
41
1
10
52.213007865726
20
-4.44136717705714
30
0
41
1
10
52.5878903459231
20
-4.45733708820021
30
0
41
1
10
52.7748933908094
20
-4.46166091805824
30
0
41
1
10
53.1480646065069
20
-4.46330020694455
30
0
41
1
10
53.3342162232392
20
-4.46050814080863
30
0
41
1
10
53.7057888631939
20
-4.4488963048633
30
0
41
1
10
53.891259741835
20
-4.43961224820148
30
0
41
1
10
54.4479059972629
20
-4.39980894167323
30
0
41
1
10
54.8188067524286
20
-4.35946872775881
30
0
41
1
10
55.5604567804118
20
-4.24854478810968
30
0
41
1
10
55.9308103120344
20
-4.17725547233394
30
0
41
1
10
56.6753614685057
20
-4.00957104829024
30
0
41
1
10
57.049118973546
20
-3.91334549881708
30
0
41
1
10
57.6118517894615
20
-3.75029090650409
30
0
41
1
10
57.7998308204094
20
-3.69196424061977
30
0
41
1
10
58.173659800777
20
-3.56897147693601
30
0
41
1
10
58.3600905408591
20
-3.50437926566056
30
0
41
1
10
58.5680036572684
20
-3.4296370385467
30
0
41
1
10
58.5896117908179
20
-3.42183459153856
30
0
41
1
10
58.6112167120061
20
-3.41399886775218
30
0
0
SPLINE
5
B9
100
AcDbEntity
8
1
62
256
6
ByLayer
370
18
48
1
60
0
100
AcDbSpline
70
4
71
3
72
30
73
26
40
0
40
0
40
0
40
0
40
0.0484237892198656
40
0.0484237892198656
40
0.167370815567383
40
0.167370815567383
40
0.286317841914901
40
0.286317841914901
40
0.405264868262419
40
0.405264868262419
40
0.464738381436176
40
0.464738381436176
40
0.524211894609934
40
0.524211894609934
40
0.643158920957448
40
0.643158920957448
40
0.702632434131206
40
0.702632434131206
40
0.762105947304964
40
0.762105947304964
40
0.881052973652478
40
0.881052973652478
40
0.940526486826239
40
0.940526486826239
40
1
40
1
40
1
40
1
41
1
10
78.1851415397762
20
4.4769493442075
30
0
41
1
10
78.3363390446748
20
4.4752226116594
30
0
41
1
10
78.4877230320068
20
4.47114213106536
30
0
41
1
10
79.0121040956819
20
4.44927997955816
30
0
41
1
10
79.3859446285474
20
4.42143719523736
30
0
41
1
10
80.1377180271267
20
4.32982846923369
30
0
41
1
10
80.5109732578479
20
4.26884634162042
30
0
41
1
10
81.2565137249688
20
4.12169476471152
30
0
41
1
10
81.6283146199553
20
4.03557855192867
30
0
41
1
10
82.1845370366917
20
3.88677842781499
30
0
41
1
10
82.3695907152858
20
3.83365787209112
30
0
41
1
10
82.7399390365529
20
3.72124351035922
30
0
41
1
10
82.9253260840641
20
3.66211238401158
30
0
41
1
10
83.4819502171146
20
3.47594945816442
30
0
41
1
10
83.8537180126385
20
3.33994802425812
30
0
41
1
10
84.4125856604249
20
3.11873030563993
30
0
41
1
10
84.5989810158609
20
3.04200594535692
30
0
41
1
10
84.9728063776259
20
2.88381895620867
30
0
41
1
10
85.1604846782911
20
2.80241341777918
30
0
41
1
10
85.7244011503218
20
2.55094344182513
30
0
41
1
10
86.0983282243158
20
2.37526026561076
30
0
41
1
10
86.6565349734571
20
2.10056794695137
30
0
41
1
10
86.8420374574724
20
2.00692628475295
30
0
41
1
10
87.2130068804294
20
1.81735117854444
30
0
41
1
10
87.3984848480754
20
1.72145951440118
30
0
41
1
10
87.5838972115792
20
1.62436993355374
30
0
0
SPLINE
5
BA
100
AcDbEntity
8
1
62
256
6
ByLayer
370
13
48
1
60
0
100
AcDbSpline
70
4
71
3
72
8
73
4
40
0
40
0
40
0
40
0
40
1
40
1
40
1
40
1
41
1
10
11.1238752261203
20
-4.00823859423062
30
0
41
1
10
11.1245128044484
20
-3.98147241677702
30
0
41
1
10
11.125155314915
20
-3.95470389733444
30
0
41
1
10
11.1258027821646
20
-3.92793295664163
30
0
0
SPLINE
5
BB
100
AcDbEntity
8
1
62
256
6
ByLayer
370
18
48
1
60
0
100
AcDbSpline
70
4
71
3
72
24
73
20
40
0
40
0
40
0
40
0
40
0.125000000000005
40
0.125000000000005
40
0.187500000000007
40
0.187500000000007
40
0.25000000000001
40
0.25000000000001
40
0.375000000000015
40
0.375000000000015
40
0.437500000000017
40
0.437500000000017
40
0.50000000000002
40
0.50000000000002
40
0.75000000000001
40
0.75000000000001
40
0.875000000000005
40
0.875000000000005
40
1
40
1
40
1
40
1
41
1
10
87.5838972115786
20
1.62436993355325
30
0
41
1
10
87.6333216098906
20
1.42329089026808
30
0
41
1
10
87.6997888829999
20
1.22263357056659
30
0
41
1
10
87.8216802819111
20
0.92219669160545
30
0
41
1
10
87.8661157582571
20
0.821972528885027
30
0
41
1
10
87.9617651389827
20
0.622419986338485
30
0
41
1
10
88.0124417468174
20
0.52417948101845
30
0
41
1
10
88.1721083208622
20
0.233570377704524
30
0
41
1
10
88.288685118418
20
0.0452873107225287
30
0
41
1
10
88.4762940123503
20
-0.230274771081497
30
0
41
1
10
88.5411781030355
20
-0.321252238615557
30
0
41
1
10
88.6737046022005
20
-0.499417182936554
30
0
41
1
10
88.7413309910816
20
-0.586620923899488
30
0
41
1
10
89.0856400539274
20
-1.01412608564658
30
0
41
1
10
89.3805923114751
20
-1.32924766114175
30
0
41
1
10
89.8455023969195
20
-1.7709448788743
30
0
41
1
10
90.0046280788245
20
-1.91328182276351
30
0
41
1
10
90.3264266447749
20
-2.18578340769327
30
0
41
1
10
90.4894056235643
20
-2.3162336526471
30
0
41
1
10
90.6543033255584
20
-2.44133232405215
30
0
0
SPLINE
5
BC
100
AcDbEntity
8
1
62
256
6
ByLayer
370
13
48
1
60
0
100
AcDbSpline
70
4
71
3
72
8
73
4
40
0
40
0
40
0
40
0
40
1
40
1
40
1
40
1
41
1
10
11.1258027821646
20
-3.92793295664166
30
0
41
1
10
11.1491979861159
20
-3.92323454105164
30
0
41
1
10
11.1745175500466
20
-3.92485412512795
30
0
41
1
10
11.2006256629283
20
-3.9323001908015
30
0
0
SPLINE
5
BD
100
AcDbEntity
8
1
62
256
6
ByLayer
370
13
48
1
60
0
100
AcDbSpline
70
4
71
3
72
10
73
6
40
0
40
0
40
0
40
0
40
0.5
40
0.5
40
1
40
1
40
1
40
1
41
1
10
11.2502313325013
20
-3.80326874773951
30
0
41
1
10
11.2284966775914
20
-3.79950280498249
30
0
41
1
10
11.2071928520435
20
-3.79820126463798
30
0
41
1
10
11.1654523508623
20
-3.80038858038992
30
0
41
1
10
11.1449258365361
20
-3.8039614406041
30
0
41
1
10
11.1258027821646
20
-3.80997795723326
30
0
0
SPLINE
5
BE
100
AcDbEntity
8
1
62
256
6
ByLayer
370
18
48
1
60
0
100
AcDbSpline
70
4
71
3
72
14
73
10
40
0
40
0
40
0
40
0
40
0.25
40
0.25
40
0.5
40
0.5
40
0.75
40
0.75
40
1
40
1
40
1
40
1
41
1
10
90.9969295613579
20
1.09038313414427
30
0
41
1
10
90.9888695673072
20
1.11951260504452
30
0
41
1
10
90.9841183965289
20
1.14931852702571
30
0
41
1
10
90.9831270238187
20
1.21072674899511
30
0
41
1
10
90.9874118660064
20
1.24230343256002
30
0
41
1
10
91.0070100825004
20
1.30272613784234
30
0
41
1
10
91.025230841003
20
1.33024350332465
30
0
41
1
10
91.0741370527894
20
1.37050613905331
30
0
41
1
10
91.1040681080815
20
1.38334520437141
30
0
41
1
10
91.1350825443603
20
1.39036201211314
30
0
0
SPLINE
5
BF
100
AcDbEntity
8
1
62
256
6
ByLayer
370
13
48
1
60
0
100
AcDbSpline
70
4
71
3
72
14
73
10
40
0
40
0
40
0
40
0
40
0.440237719855544
40
0.440237719855544
40
0.880475439711089
40
0.880475439711089
40
0.990534869674975
40
0.990534869674975
40
1
40
1
40
1
40
1
41
1
10
11.2006256629284
20
-3.93230019080153
30
0
41
1
10
12.0433398053883
20
-4.17264329323922
30
0
41
1
10
12.875578495729
20
-4.34382036443387
30
0
41
1
10
14.5405519159251
20
-4.5405481585459
30
0
41
1
10
15.3725176827158
20
-4.56588011629853
30
0
41
1
10
16.4253670484623
20
-4.50212347454055
30
0
41
1
10
16.6366241138547
20
-4.48455344362498
30
0
41
1
10
16.8648965338922
20
-4.46047850701103
30
0
41
1
10
16.8829689305335
20
-4.45853783486095
30
0
41
1
10
16.9010369773585
20
-4.45656307149474
30
0
0
SPLINE
5
C0
100
AcDbEntity
8
1
62
256
6
ByLayer
370
18
48
1
60
0
100
AcDbSpline
70
4
71
3
72
20
73
16
40
0
40
0
40
0
40
0
40
0.144519871657899
40
0.144519871657899
40
0.23692399472885
40
0.23692399472885
40
0.3293281177998
40
0.3293281177998
40
0.514136363941708
40
0.514136363941708
40
0.698944610083614
40
0.698944610083614
40
0.883752856225521
40
0.883752856225521
40
1
40
1
40
1
40
1
41
1
10
52.8689994971774
20
-0.0052458353646614
30
0
41
1
10
53.1973451453966
20
-0.193568208782295
30
0
41
1
10
53.525766378903
20
-0.38194715305201
30
0
41
1
10
54.0653650468553
20
-0.688998615008813
30
0
41
1
10
54.2762601707571
20
-0.808474067619358
30
0
41
1
10
54.6971484008851
20
-1.04493190659622
30
0
41
1
10
54.9073443615208
20
-1.16199119224359
30
0
41
1
10
55.5375837778814
20
-1.50898805016482
30
0
41
1
10
55.957251993617
20
-1.73480416260568
30
0
41
1
10
56.7980516666184
20
-2.17138025221209
30
0
41
1
10
57.2202531778758
20
-2.38212592843587
30
0
41
1
10
58.0580863254209
20
-2.77865882253539
30
0
41
1
10
58.4748168489568
20
-2.96537468227885
30
0
41
1
10
59.1522453972569
20
-3.24831591639878
30
0
41
1
10
59.4135781356973
20
-3.35229783138672
30
0
41
1
10
59.6749401760516
20
-3.45067978677005
30
0
0
SPLINE
5
C1
100
AcDbEntity
8
1
62
256
6
ByLayer
370
13
48
1
60
0
100
AcDbSpline
70
4
71
3
72
18
73
14
40
0
40
0
40
0
40
0
40
0.236704071824026
40
0.236704071824026
40
0.32303034732841
40
0.32303034732841
40
0.409356622832793
40
0.409356622832793
40
0.582009173841565
40
0.582009173841565
40
0.927314275859112
40
0.927314275859112
40
1
40
1
40
1
40
1
41
1
10
59.6749401760171
20
-3.45067978675715
30
0
41
1
10
60.2445983004303
20
-3.66511062033987
30
0
41
1
10
60.8143956249455
20
-3.85293858578569
30
0
41
1
10
61.596052775352
20
-4.06831114636969
30
0
41
1
10
61.8053669479991
20
-4.12185900115551
30
0
41
1
10
62.2252115271664
20
-4.22049822727496
30
0
41
1
10
62.4362009783193
20
-4.26565228032015
30
0
41
1
10
63.066746367491
20
-4.38697092113927
30
0
41
1
10
63.4845756587326
20
-4.44936119528711
30
0
41
1
10
64.7344384136834
20
-4.58111123122401
30
0
41
1
10
65.5627285013052
20
-4.5943397738983
30
0
41
1
10
66.5715832828686
20
-4.51961605243346
30
0
41
1
10
66.7472493900087
20
-4.50332101478261
30
0
41
1
10
66.9232383376738
20
-4.48370617047371
30
0
0
SPLINE
5
C2
100
AcDbEntity
8
1
62
256
6
ByLayer
370
18
48
1
60
0
100
AcDbSpline
70
4
71
3
72
63
73
59
40
0
40
0
40
0
40
0
40
0.0625000000000041
40
0.0625000000000041
40
0.125000000000008
40
0.125000000000008
40
0.250000000000016
40
0.250000000000016
40
0.375000000000025
40
0.375000000000025
40
0.500000000000033
40
0.500000000000033
40
0.625000000000041
40
0.625000000000041
40
0.656250000000043
40
0.656250000000043
40
0.664062500000043
40
0.664062500000043
40
0.667968750000043
40
0.667968750000043
40
0.671875000000043
40
0.671875000000043
40
0.673828125000043
40
0.673828125000043
40
0.675781250000043
40
0.679687500000043
40
0.679687500000043
40
0.687500000000041
40
0.687500000000041
40
0.718750000000038
40
0.718750000000038
40
0.734375000000036
40
0.734375000000036
40
0.750000000000034
40
0.750000000000034
40
0.765625000000032
40
0.765625000000032
40
0.773437500000031
40
0.773437500000031
40
0.78125000000003
40
0.78125000000003
40
0.796875000000028
40
0.796875000000028
40
0.812500000000026
40
0.812500000000026
40
0.828125000000024
40
0.828125000000024
40
0.843750000000022
40
0.843750000000022
40
0.859375000000019
40
0.859375000000019
40
0.875000000000017
40
0.875000000000017
40
0.906250000000013
40
0.906250000000013
40
0.937500000000009
40
0.937500000000009
40
1
40
1
40
1
40
1
41
1
10
21.3555426537818
20
3.09113028094237
30
0
41
1
10
21.0383868062607
20
3.230395365411
30
0
41
1
10
20.7194306573029
20
3.35923395670812
30
0
41
1
10
20.0768995348841
20
3.59670374466589
30
0
41
1
10
19.7526808040715
20
3.70549673874692
30
0
41
1
10
18.7759848039267
20
4.0004875312404
30
0
41
1
10
18.120948919293
20
4.15474313305089
30
0
41
1
10
16.7922334908825
20
4.39028443062159
30
0
41
1
10
16.1184565916397
20
4.47155872833113
30
0
41
1
10
14.7432501985801
20
4.58210256758329
30
0
41
1
10
14.0418288997253
20
4.61166102096377
30
0
41
1
10
12.6060071678505
20
4.64486573325414
30
0
41
1
10
11.8771810379712
20
4.64878110431059
30
0
41
1
10
10.9610308198955
20
4.65060778871677
30
0
41
1
10
10.7775199871001
20
4.65078896865217
30
0
41
1
10
10.5477717493433
20
4.65089648251794
30
0
41
1
10
10.5018041100454
20
4.65091187023299
30
0
41
1
10
10.4328254764738
20
4.65092735597932
30
0
41
1
10
10.4098941412795
20
4.65094118055552
30
0
41
1
10
10.363406656266
20
4.65087418054134
30
0
41
1
10
10.339875065707
20
4.65080439204664
30
0
41
1
10
10.3086399010505
20
4.65056808945272
30
0
41
1
10
10.2989318137795
20
4.65045814496889
30
0
41
1
10
10.2791979185961
20
4.65022879221377
30
0
41
1
10
10.2496486292192
20
4.64985495296503
30
0
41
1
10
10.2202571662276
20
4.64938833381444
30
0
41
1
10
10.1616938512145
20
4.64832170713444
30
0
41
1
10
10.1229019878633
20
4.64743161679417
30
0
41
1
10
9.9313575926987
20
4.64197223661509
30
0
41
1
10
9.78531350070438
20
4.63450158194414
30
0
41
1
10
9.58175918539155
20
4.61497110449588
30
0
41
1
10
9.51652049709867
20
4.60705316177359
30
0
41
1
10
9.39270352332963
20
4.58729946839458
30
0
41
1
10
9.33381826686752
20
4.5753537137237
30
0
41
1
10
9.22819894323885
20
4.54679785118961
30
0
41
1
10
9.1810697832056
20
4.53016395130982
30
0
41
1
10
9.12082430497316
20
4.50053839321677
30
0
41
1
10
9.10243602983849
20
4.48982125580625
30
0
41
1
10
9.07023859051691
20
4.46708591941643
30
0
41
1
10
9.05633027951023
20
4.45503346733383
30
0
41
1
10
9.02131660284121
20
4.41669139651859
30
0
41
1
10
9.00691125529335
20
4.3882223762343
30
0
41
1
10
8.99696975844304
20
4.32466417164582
30
0
41
1
10
9.00162446813061
20
4.29064526522791
30
0
41
1
10
9.0274438698595
20
4.21880624533617
30
0
41
1
10
9.04890752819657
20
4.18055312201071
30
0
41
1
10
9.10439556318602
20
4.10262061775506
30
0
41
1
10
9.13832007752183
20
4.06283794842008
30
0
41
1
10
9.21578016590337
20
3.98174539486968
30
0
41
1
10
9.25941212076313
20
3.94036570208857
30
0
41
1
10
9.35417230282357
20
3.856438854581
30
0
41
1
10
9.40470100353767
20
3.81440764169474
30
0
41
1
10
9.56354485152173
20
3.68791005632556
30
0
41
1
10
9.6790064584124
20
3.6030304759542
30
0
41
1
10
9.92258154868094
20
3.43158659096852
30
0
41
1
10
10.051305088397
20
3.34469615824102
30
0
41
1
10
10.4458932347125
20
3.08472253372381
30
0
41
1
10
10.7209898735799
20
2.91141412021392
30
0
41
1
10
11.0028001984403
20
2.73635984135433
30
0
0
SPLINE
5
C3
100
AcDbEntity
8
1
62
256
6
ByLayer
370
18
48
1
60
0
100
AcDbSpline
70
4
71
3
72
8
73
4
40
0
40
0
40
0
40
0
40
1
40
1
40
1
40
1
41
1
10
91.369653670917
20
4.66215093794159
30
0
41
1
10
91.0329112284245
20
4.6871628308121
30
0
41
1
10
90.6960402357619
20
4.69958444445362
30
0
41
1
10
90.3587010318271
20
4.69934501017664
30
0
0
SPLINE
5
C4
100
AcDbEntity
8
1
62
256
6
ByLayer
370
18
48
1
60
0
100
AcDbSpline
70
4
71
3
72
58
73
54
40
0
40
0
40
0
40
0
40
0.0052255125655796
40
0.0052255125655796
40
0.0281444390885605
40
0.0281444390885605
40
0.0510633656115413
40
0.0510633656115413
40
0.0969012186575043
40
0.0969012186575043
40
0.119820145180485
40
0.119820145180485
40
0.142739071703466
40
0.142739071703466
40
0.188576924749428
40
0.188576924749428
40
0.23441477779539
40
0.23441477779539
40
0.326090483887312
40
0.326090483887312
40
0.417766189979235
40
0.417766189979235
40
0.463604043025197
40
0.463604043025197
40
0.509441896071159
40
0.509441896071159
40
0.532360822594139
40
0.532360822594139
40
0.55527974911712
40
0.55527974911712
40
0.601117602163082
40
0.601117602163082
40
0.624036528686063
40
0.624036528686063
40
0.646955455209043
40
0.646955455209043
40
0.692793308255003
40
0.692793308255003
40
0.715712234777982
40
0.715712234777982
40
0.738631161300962
40
0.738631161300962
40
0.784469014346921
40
0.784469014346921
40
0.830306867392879
40
0.830306867392879
40
0.876144720438838
40
0.876144720438838
40
0.921982573484797
40
0.921982573484797
40
0.967820426530755
40
0.967820426530755
40
1
40
1
40
1
40
1
41
1
10
67.7098478416131
20
-4.4829228076789
30
0
41
1
10
67.6622758925976
20
-4.49104993328555
30
0
41
1
10
67.614699691783
20
-4.49893678769232
30
0
41
1
10
67.3584211588916
20
-4.54011447413819
30
0
41
1
10
67.1495940910285
20
-4.56900211677723
30
0
41
1
10
66.7314020585073
20
-4.61733408454631
30
0
41
1
10
66.5219249372932
20
-4.63677807457955
30
0
41
1
10
65.8948471553781
20
-4.68051387825281
30
0
41
1
10
65.4777595917959
20
-4.69034494004123
30
0
41
1
10
64.8517532254319
20
-4.67610326477239
30
0
41
1
10
64.6430004223512
20
-4.66652287274667
30
0
41
1
10
64.2249743397023
20
-4.63770435376119
30
0
41
1
10
64.0154757658559
20
-4.61843711313938
30
0
41
1
10
63.3880478187251
20
-4.54644830804463
30
0
41
1
10
62.9708589792951
20
-4.47956678597535
30
0
41
1
10
62.1360639751594
20
-4.30948773817408
30
0
41
1
10
61.718042396507
20
-4.20604866680185
30
0
41
1
10
60.4627006127787
20
-3.84452710935872
30
0
41
1
10
59.6298961350333
20
-3.53753873762952
30
0
41
1
10
57.9554040542932
20
-2.81246520507796
30
0
41
1
10
57.122851068705
20
-2.40048199338114
30
0
41
1
10
55.8668747898403
20
-1.72862010284041
30
0
41
1
10
55.449014066743
20
-1.49726157414577
30
0
41
1
10
54.6140188714216
20
-1.0246239041723
30
0
41
1
10
54.1967476364668
20
-0.783010205268994
30
0
41
1
10
53.568883882747
20
-0.416446311096621
30
0
41
1
10
53.3593802793865
20
-0.29362378059173
30
0
41
1
10
52.9413316059441
20
-0.0480344205948029
30
0
41
1
10
52.7325538875577
20
0.0748410029142121
30
0
41
1
10
52.1063368370492
20
0.442644669818236
30
0
41
1
10
51.6889893445517
20
0.686709925397025
30
0
41
1
10
51.061295168449
20
1.04791903038972
30
0
41
1
10
50.8516962439247
20
1.16761089617987
30
0
41
1
10
50.4334695646118
20
1.40386476170457
30
0
41
1
10
50.2246066337935
20
1.52051172407158
30
0
41
1
10
49.598244162467
20
1.86518675606678
30
0
41
1
10
49.1810192536713
20
2.08802440682396
30
0
41
1
10
48.5535958193136
20
2.40854954245501
30
0
41
1
10
48.3439715801166
20
2.51321028451974
30
0
41
1
10
47.925496456037
20
2.71678078725631
30
0
41
1
10
47.716531807696
20
2.81570737927856
30
0
41
1
10
47.089954937837
20
3.10327493111075
30
0
41
1
10
46.6727642409361
20
3.28283495225054
30
0
41
1
10
45.8364803974144
20
3.61387180828004
30
0
41
1
10
45.4171820327801
20
3.76540027700224
30
0
41
1
10
44.581526688587
20
4.03507390119293
30
0
41
1
10
44.164309283927
20
4.15363880688221
30
0
41
1
10
43.3282465432252
20
4.35581338482129
30
0
41
1
10
42.9088579064174
20
4.43947156094816
30
0
41
1
10
42.0728972468375
20
4.56878642140734
30
0
41
1
10
41.6556022304071
20
4.61472077062953
30
0
41
1
10
40.9443556591314
20
4.66027887352823
30
0
41
1
10
40.6502294652495
20
4.66956982437353
30
0
41
1
10
40.3563118606703
20
4.66932638352293
30
0
0
SPLINE
5
C5
100
AcDbEntity
8
1
62
256
6
ByLayer
370
18
48
1
60
0
100
AcDbSpline
70
4
71
3
72
20
73
16
40
0
40
0
40
0
40
0
40
0.0437942569274752
40
0.0437942569274752
40
0.139414831234728
40
0.139414831234728
40
0.235035405541981
40
0.235035405541981
40
0.426276554156486
40
0.426276554156486
40
0.521897128463739
40
0.521897128463739
40
0.617517702770992
40
0.617517702770992
40
1
40
1
40
1
40
1
41
1
10
17.6834321499262
20
-4.45864981725316
30
0
41
1
10
17.5876456431151
20
-4.47473438178588
30
0
41
1
10
17.4918219809058
20
-4.48985465219084
30
0
41
1
10
17.1866012801383
20
-4.5348824888498
30
0
41
1
10
16.9767847789724
20
-4.56113408449221
30
0
41
1
10
16.557892021986
20
-4.60399690756466
30
0
41
1
10
16.3487072748454
20
-4.62063586241072
30
0
41
1
10
15.7214929605233
20
-4.65615421655184
30
0
41
1
10
15.3038953868294
20
-4.66063265675234
30
0
41
1
10
14.6760815743919
20
-4.63834850330235
30
0
41
1
10
14.4663175479543
20
-4.62606782130186
30
0
41
1
10
14.0473075716496
20
-4.59195287520541
30
0
41
1
10
13.8381896081351
20
-4.57014392234797
30
0
41
1
10
12.793753736845
20
-4.43782409204368
30
0
41
1
10
11.9622507999437
20
-4.25727957120364
30
0
41
1
10
11.1238752261204
20
-4.00823859423181
30
0
0
SPLINE
5
C6
100
AcDbEntity
8
1
62
256
6
ByLayer
370
18
48
1
60
0
100
AcDbSpline
70
4
71
3
72
16
73
12
40
0
40
0
40
0
40
0
40
0.25
40
0.25
40
0.375
40
0.375
40
0.5
40
0.5
40
0.75
40
0.75
40
1
40
1
40
1
40
1
41
1
10
11.250291450481
20
2.58472420142016
30
0
41
1
10
11.6294198654319
20
2.34551748986257
30
0
41
1
10
12.0201066457686
20
2.10528075612783
30
0
41
1
10
12.616595257478
20
1.7408604086753
30
0
41
1
10
12.8176317269148
20
1.61853570771015
30
0
41
1
10
13.22117376964
20
1.37378574377027
30
0
41
1
10
13.4233685420453
20
1.25155053481205
30
0
41
1
10
14.0312978114414
20
0.88549565785587
30
0
41
1
10
14.4383276125736
20
0.64222862567749
30
0
41
1
10
15.2578759323577
20
0.161282035833409
30
0
41
1
10
15.6703998554461
20
-0.076371468020568
30
0
41
1
10
16.0874946878183
20
-0.307870341341498
30
0
0
SPLINE
5
C7
100
AcDbEntity
8
1
62
256
6
ByLayer
370
18
48
1
60
0
100
AcDbSpline
70
2053
71
3
72
62
73
58
40
0
40
0
40
0
40
0
40
0.0312500000000017
40
0.0312500000000017
40
0.0625000000000033
40
0.0625000000000033
40
0.093750000000005
40
0.093750000000005
40
0.125000000000007
40
0.125000000000007
40
0.156250000000008
40
0.156250000000008
40
0.18750000000001
40
0.18750000000001
40
0.218750000000011
40
0.218750000000011
40
0.250000000000013
40
0.250000000000013
40
0.281250000000014
40
0.281250000000014
40
0.312500000000016
40
0.312500000000016
40
0.375000000000013
40
0.375000000000013
40
0.437500000000011
40
0.437500000000011
40
0.468750000000009
40
0.468750000000009
40
0.500000000000008
40
0.500000000000008
40
0.531250000000007
40
0.531250000000007
40
0.562500000000005
40
0.562500000000005
40
0.593750000000004
40
0.593750000000004
40
0.625000000000003
40
0.625000000000003
40
0.656250000000001
40
0.656250000000001
40
0.6875
40
0.6875
40
0.718749999999999
40
0.718749999999999
40
0.749999999999997
40
0.749999999999997
40
0.812499999999998
40
0.812499999999998
40
0.843749999999998
40
0.843749999999998
40
0.874999999999999
40
0.874999999999999
40
0.906249999999999
40
0.906249999999999
40
0.937499999999999
40
0.937499999999999
40
1
40
1
40
1
40
1
41
1
10
91.930642175146
20
-2.2948094136744
30
0
41
1
10
91.9533483736211
20
-2.26183482052909
30
0
41
1
10
91.9755515973793
20
-2.22658155836393
30
0
41
1
10
92.018873709996
20
-2.15116257968796
30
0
41
1
10
92.0402222979195
20
-2.11051219799168
30
0
41
1
10
92.0803727877041
20
-2.02589251979862
30
0
41
1
10
92.0991041346911
20
-1.98218496009346
30
0
41
1
10
92.1334967746544
20
-1.89157683194222
30
0
41
1
10
92.1488222033879
20
-1.84539930749773
30
0
41
1
10
92.1742581104972
20
-1.75497384791547
30
0
41
1
10
92.1846831912715
20
-1.70944156474849
30
0
41
1
10
92.1992904185404
20
-1.62400993974737
30
0
41
1
10
92.2036232815615
20
-1.58373339144305
30
0
41
1
10
92.2063354672874
20
-1.50936177496254
30
0
41
1
10
92.2047118685853
20
-1.47637487254326
30
0
41
1
10
92.1961732023341
20
-1.41785767147033
30
0
41
1
10
92.1892742617847
20
-1.39283080475676
30
0
41
1
10
92.1712932379718
20
-1.35136465898026
30
0
41
1
10
92.1600531283225
20
-1.33463960667584
30
0
41
1
10
92.1344489320074
20
-1.30950492245393
30
0
41
1
10
92.1200456710893
20
-1.30091208983617
30
0
41
1
10
92.0724514511702
20
-1.28601692474646
30
0
41
1
10
92.0360322396289
20
-1.29072588974367
30
0
41
1
10
91.9559560832624
20
-1.32605800377732
30
0
41
1
10
91.9136038302927
20
-1.35607398339698
30
0
41
1
10
91.8470803719979
20
-1.41933991443787
30
0
41
1
10
91.8243811406869
20
-1.44360034916824
30
0
41
1
10
91.7794280358755
20
-1.49706507845738
30
0
41
1
10
91.7569819912948
20
-1.52643491523548
30
0
41
1
10
91.7121566591061
20
-1.59094588370979
30
0
41
1
10
91.6895265783187
20
-1.62652732817611
30
0
41
1
10
91.6458078492977
20
-1.70215062506793
30
0
41
1
10
91.6247375710283
20
-1.74206289781017
30
0
41
1
10
91.5844003492166
20
-1.82668809567474
30
0
41
1
10
91.5652402466196
20
-1.87131246079468
30
0
41
1
10
91.5310001564787
20
-1.96144341114888
30
0
41
1
10
91.5154748783468
20
-2.00819917001709
30
0
41
1
10
91.4899269711627
20
-2.09930190454543
30
0
41
1
10
91.4797768668723
20
-2.14375579677409
30
0
41
1
10
91.4650241426376
20
-2.23034324005289
30
0
41
1
10
91.4607719250037
20
-2.2704321681781
30
0
41
1
10
91.4580305374304
20
-2.34456397600965
30
0
41
1
10
91.4596311628762
20
-2.37824780921761
30
0
41
1
10
91.4679949419514
20
-2.43679167053986
30
0
41
1
10
91.4748460715398
20
-2.46225182070876
30
0
41
1
10
91.5015746896432
20
-2.52518318166892
30
0
41
1
10
91.5279459984229
20
-2.55050788816172
30
0
41
1
10
91.5751284297677
20
-2.565890908592
30
0
41
1
10
91.5923641842219
20
-2.56732136932766
30
0
41
1
10
91.6286389096771
20
-2.56316548356557
30
0
41
1
10
91.6476776207533
20
-2.55764764922782
30
0
41
1
10
91.6874682296925
20
-2.54007380183214
30
0
41
1
10
91.7083881531445
20
-2.52788281533935
30
0
41
1
10
91.7510063873304
20
-2.49744376383416
30
0
41
1
10
91.7727011746127
20
-2.47925359435089
30
0
41
1
10
91.8389458786118
20
-2.41574549301805
30
0
41
1
10
91.8852297781959
20
-2.36075859996501
30
0
41
1
10
91.930642175146
20
-2.2948094136744
30
0
0
SPLINE
5
C8
100
AcDbEntity
8
1
62
256
6
ByLayer
370
18
48
1
60
0
100
AcDbSpline
70
4
71
3
72
16
73
12
40
0
40
0
40
0
40
0
40
0.349389233040421
40
0.349389233040421
40
0.614083664135815
40
0.614083664135815
40
0.746430879683508
40
0.746430879683508
40
0.878778095231202
40
0.878778095231202
40
1
40
1
40
1
40
1
41
1
10
65.5945869981715
20
-4.47166117919812
30
0
41
1
10
65.0459910332355
20
-4.4726622131559
30
0
41
1
10
64.4981010700393
20
-4.44175042990432
30
0
41
1
10
63.5314935506635
20
-4.33178279223711
30
0
41
1
10
63.1136942721664
20
-4.26638162735091
30
0
41
1
10
62.4832858841898
20
-4.14126247508028
30
0
41
1
10
62.2723640790926
20
-4.09496918298788
30
0
41
1
10
61.8525850859449
20
-3.99433773860085
30
0
41
1
10
61.6432847109927
20
-3.93993695837173
30
0
41
1
10
61.2430689443504
20
-3.82828649118454
30
0
41
1
10
61.0520620368748
20
-3.77166500074031
30
0
41
1
10
60.8612739263821
20
-3.71192859183816
30
0
0
SPLINE
5
C9
100
AcDbEntity
8
1
62
256
6
ByLayer
370
13
48
1
60
0
100
AcDbSpline
70
4
71
3
72
26
73
22
40
0
40
0
40
0
40
0
40
0.162746606693874
40
0.162746606693874
40
0.268287047160165
40
0.268287047160165
40
0.373827487626457
40
0.373827487626457
40
0.479367928092749
40
0.479367928092749
40
0.532138148325895
40
0.532138148325895
40
0.584908368559041
40
0.584908368559041
40
0.795989249491622
40
0.795989249491622
40
0.901529689957913
40
0.901529689957913
40
0.954299910191058
40
0.954299910191058
40
1
40
1
40
1
40
1
41
1
10
60.8612739264464
20
-3.71192859185837
30
0
41
1
10
60.2188702063991
20
-3.51078979342142
30
0
41
1
10
59.5789470753305
20
-3.27433591755388
30
0
41
1
10
58.5216773144582
20
-2.83454864784181
30
0
41
1
10
58.1049319758035
20
-2.64902190462968
30
0
41
1
10
57.267157088717
20
-2.25602330394878
30
0
41
1
10
56.8450674932715
20
-2.0476948697914
30
0
41
1
10
56.0044514565774
20
-1.61686584598698
30
0
41
1
10
55.5848671012437
20
-1.39437860589038
30
0
41
1
10
54.9547473226091
20
-1.05311833381856
30
0
41
1
10
54.7445871619395
20
-0.938100652548712
30
0
41
1
10
54.3237873325792
20
-0.705962353459398
30
0
41
1
10
54.1129563473239
20
-0.588766230053665
30
0
41
1
10
53.0609444457683
20
-0.0018555801592584
30
0
41
1
10
52.2239537885862
20
0.473321502148394
30
0
41
1
10
50.9595120791798
20
1.16610726855822
30
0
41
1
10
50.5390376377928
20
1.3927207194549
30
0
41
1
10
49.90815989101
20
1.72246520620479
30
0
41
1
10
49.6978239673613
20
1.83070004773927
30
0
41
1
10
49.304968640809
20
2.02907976832878
30
0
41
1
10
49.1223901475278
20
2.11975559183668
30
0
41
1
10
48.9403251028182
20
2.2084225735556
30
0
0
SPLINE
5
CA
100
AcDbEntity
8
1
62
256
6
ByLayer
370
18
48
1
60
0
100
AcDbSpline
70
4
71
3
72
10
73
6
40
0
40
0
40
0
40
0
40
0.418097037246083
40
0.418097037246083
40
1
40
1
40
1
40
1
41
1
10
15.5542756978668
20
-4.4415061420294
30
0
41
1
10
14.9527330407355
20
-4.44086193637108
30
0
41
1
10
14.3548602712379
20
-4.40219802168841
30
0
41
1
10
12.9243946560218
20
-4.22181735217643
30
0
41
1
10
12.0923179255234
20
-4.046019383046
30
0
41
1
10
11.2502313325013
20
-3.80326874773951
30
0
0
SPLINE
5
CB
100
AcDbEntity
8
1
62
256
6
ByLayer
370
18
48
1
60
0
100
AcDbSpline
70
4
71
3
72
18
73
14
40
0
40
0
40
0
40
0
40
0.249999999999994
40
0.249999999999994
40
0.374999999999997
40
0.374999999999997
40
0.5
40
0.5
40
0.750000000000006
40
0.750000000000006
40
0.875000000000003
40
0.875000000000003
40
1
40
1
40
1
40
1
41
1
10
92.321202187206
20
2.28753404546296
30
0
41
1
10
92.2494523679887
20
2.48045264533025
30
0
41
1
10
92.177601584892
20
2.67313047629932
30
0
41
1
10
92.069510304091
20
2.96139578805685
30
0
41
1
10
92.0334251476467
20
3.05735371166389
30
0
41
1
10
91.9610854926447
20
3.24886572817835
30
0
41
1
10
91.9248479552336
20
3.34446026838864
30
0
41
1
10
91.8161728669796
20
3.63133337257648
30
0
41
1
10
91.7437019685009
20
3.82253241233656
30
0
41
1
10
91.6344341472033
20
4.10799202406872
30
0
41
1
10
91.5978638935845
20
4.20279313483422
30
0
41
1
10
91.5244313854613
20
4.39169902088497
30
0
41
1
10
91.487692839524
20
4.4861631819054
30
0
41
1
10
91.4509204340322
20
4.58015029489047
30
0
0
SPLINE
5
CC
100
AcDbEntity
8
1
62
256
6
ByLayer
370
18
48
1
60
0
100
AcDbSpline
70
4
71
3
72
18
73
14
40
0
40
0
40
0
40
0
40
0.250000000000006
40
0.250000000000006
40
0.375000000000003
40
0.375000000000003
40
0.5
40
0.5
40
0.750000000000006
40
0.750000000000006
40
0.875000000000003
40
0.875000000000003
40
1
40
1
40
1
40
1
41
1
10
92.3212021872059
20
-2.28753404546291
30
0
41
1
10
92.2494523679887
20
-2.48045264533019
30
0
41
1
10
92.1776015848921
20
-2.67313047629926
30
0
41
1
10
92.069510304091
20
-2.96139578805679
30
0
41
1
10
92.0334251476467
20
-3.05735371166384
30
0
41
1
10
91.9610854926447
20
-3.24886572817832
30
0
41
1
10
91.9248479552336
20
-3.34446026838862
30
0
41
1
10
91.8161728669796
20
-3.63133337257645
30
0
41
1
10
91.7437019685009
20
-3.82253241233653
30
0
41
1
10
91.6344341472033
20
-4.10799202406872
30
0
41
1
10
91.5978638935844
20
-4.2027931348342
30
0
41
1
10
91.5244313854613
20
-4.39169902088497
30
0
41
1
10
91.487692839524
20
-4.4861631819054
30
0
41
1
10
91.4509204340322
20
-4.58015029489047
30
0
0
SPLINE
5
CD
100
AcDbEntity
8
1
62
256
6
ByLayer
370
18
48
1
60
0
100
AcDbSpline
70
4
71
3
72
8
73
4
40
0
40
0
40
0
40
0
40
1
40
1
40
1
40
1
41
1
10
11.0074602283754
20
-3.92716436082083
30
0
41
1
10
11.0043706540885
20
-3.92053357646941
30
0
41
1
10
11.0027903453189
20
-3.91376178015912
30
0
41
1
10
11.0027903240865
20
-3.90684034199711
30
0
0
SPLINE
5
CE
100
AcDbEntity
8
1
62
256
6
ByLayer
370
18
48
1
60
0
100
AcDbSpline
70
4
71
3
72
92
73
88
40
0
40
0
40
0
40
0
40
0.0285734211202654
40
0.0285734211202654
40
0.0462331058128307
40
0.0462331058128307
40
0.063892790505396
40
0.063892790505396
40
0.0992121598905267
40
0.0992121598905267
40
0.116871844583092
40
0.116871844583092
40
0.134531529275657
40
0.134531529275657
40
0.169850898660788
40
0.169850898660788
40
0.187510583353353
40
0.187510583353353
40
0.205170268045919
40
0.205170268045919
40
0.24048963743105
40
0.24048963743105
40
0.258149322123616
40
0.258149322123616
40
0.275809006816182
40
0.275809006816182
40
0.311128376201313
40
0.311128376201313
40
0.328788060893878
40
0.328788060893878
40
0.346447745586444
40
0.346447745586444
40
0.381767114971575
40
0.381767114971575
40
0.39942679966414
40
0.39942679966414
40
0.417086484356705
40
0.417086484356705
40
0.452405853741836
40
0.452405853741836
40
0.470065538434401
40
0.470065538434401
40
0.487725223126967
40
0.487725223126967
40
0.523044592512097
40
0.523044592512097
40
0.540704277204661
40
0.540704277204661
40
0.558363961897226
40
0.558363961897226
40
0.593683331282356
40
0.593683331282356
40
0.611343015974921
40
0.611343015974921
40
0.629002700667486
40
0.629002700667486
40
0.646662385360052
40
0.646662385360052
40
0.664322070052617
40
0.664322070052617
40
0.681981754745182
40
0.681981754745182
40
0.699641439437748
40
0.699641439437748
40
0.734960808822879
40
0.734960808822879
40
0.752620493515445
40
0.752620493515445
40
0.770280178208012
40
0.770280178208012
40
0.805599547593143
40
0.805599547593143
40
0.82325923228571
40
0.82325923228571
40
0.840918916978276
40
0.840918916978276
40
0.876238286363409
40
0.876238286363409
40
0.893897971055975
40
0.893897971055975
40
0.911557655748542
40
0.911557655748542
40
0.946877025133677
40
0.946877025133677
40
0.982196394518812
40
0.982196394518812
40
1
40
1
40
1
40
1
41
1
10
33.6289103297646
20
3.39880499902827
30
0
41
1
10
33.9240756714006
20
3.51676955072264
30
0
41
1
10
34.2185910135366
20
3.62774424955427
30
0
41
1
10
34.6935613057553
20
3.79636358114541
30
0
41
1
10
34.8747023514993
20
3.85804779173324
30
0
41
1
10
35.2382470416548
20
3.97423307473684
30
0
41
1
10
35.4203706938981
20
4.02903235546015
30
0
41
1
10
35.9674167738563
20
4.1839878861953
30
0
41
1
10
36.333010455199
20
4.27477516565207
30
0
41
1
10
36.8818693979597
20
4.3919616272743
30
0
41
1
10
37.0649105737605
20
4.42779437909346
30
0
41
1
10
37.4331421979146
20
4.49180341981636
30
0
41
1
10
37.6176510274452
20
4.52008053046464
30
0
41
1
10
38.1691308694617
20
4.59378002688268
30
0
41
1
10
38.5352031789778
20
4.62834696583852
30
0
41
1
10
39.081032846391
20
4.65848285284696
30
0
41
1
10
39.2623561639352
20
4.66485207350456
30
0
41
1
10
39.6259107011643
20
4.6701266230879
30
0
41
1
10
39.8078748411135
20
4.66909119473704
30
0
41
1
10
40.3539242356049
20
4.65517384721517
30
0
41
1
10
40.7181696759254
20
4.63156146393604
30
0
41
1
10
41.2639160152856
20
4.57377037575108
30
0
41
1
10
41.4455940017252
20
4.55066471186737
30
0
41
1
10
41.8106666993274
20
4.49756674974444
30
0
41
1
10
41.9938467356649
20
4.46753128621441
30
0
41
1
10
42.5448637750806
20
4.36681775995825
30
0
41
1
10
42.9151694185412
20
4.28527521014286
30
0
41
1
10
43.4645172566647
20
4.14239103085234
30
0
41
1
10
43.6467199408284
20
4.09109298825331
30
0
41
1
10
44.0115569483801
20
3.98314212308955
30
0
41
1
10
44.1939967242867
20
3.92635600815899
30
0
41
1
10
44.7409564422995
20
3.74740851470304
30
0
41
1
10
45.1051269324642
20
3.61672628250273
30
0
41
1
10
45.6497052899507
20
3.40233924771246
30
0
41
1
10
45.830739060943
20
3.32751775561394
30
0
41
1
10
46.1939814770739
20
3.17373585147234
30
0
41
1
10
46.3760887223324
20
3.09468594104442
30
0
41
1
10
46.9233622374618
20
2.8505362168255
30
0
41
1
10
47.2894980962431
20
2.67852116246834
30
0
41
1
10
47.8397417720554
20
2.40464581095742
30
0
41
1
10
48.0234335215389
20
2.31011673802829
30
0
41
1
10
48.3910312544688
20
2.11905339221599
30
0
41
1
10
48.5746811177314
20
2.02258665644803
30
0
41
1
10
49.1247472901803
20
1.72975243658334
30
0
41
1
10
49.49029589868
20
1.52999025438862
30
0
41
1
10
50.0359003677121
20
1.22193253777073
30
0
41
1
10
50.2170812703807
20
1.11744087683695
30
0
41
1
10
50.5799605180617
20
0.908027490628001
30
0
41
1
10
50.7617292121688
20
0.803232942737509
30
0
41
1
10
51.3074766345724
20
0.487702764635316
30
0
41
1
10
51.6719205823959
20
0.275874681146121
30
0
41
1
10
52.2185343276866
20
-0.0458597454233143
30
0
41
1
10
52.4005023631913
20
-0.15418116072766
30
0
41
1
10
52.7656381280746
20
-0.370049101586005
30
0
41
1
10
52.94898328171
20
-0.477272464256629
30
0
41
1
10
53.3168803350776
20
-0.690903923488207
30
0
41
1
10
53.501719987335
20
-0.797456688767539
30
0
41
1
10
53.869782795647
20
-1.00853888663315
30
0
41
1
10
54.0532664670662
20
-1.11321477024407
30
0
41
1
10
54.4189873479503
20
-1.32109286968372
30
0
41
1
10
54.6010244175417
20
-1.42462418219148
30
0
41
1
10
54.9648316983209
20
-1.62851867146182
30
0
41
1
10
55.1469031602283
20
-1.72839875419183
30
0
41
1
10
55.6930689603227
20
-2.02291963818195
30
0
41
1
10
56.0571285667838
20
-2.21245343956585
30
0
41
1
10
56.6021278578624
20
-2.4880187193107
30
0
41
1
10
56.7834546562098
20
-2.57863145104295
30
0
41
1
10
57.1464501744694
20
-2.75579444994031
30
0
41
1
10
57.3285598347898
20
-2.84172536142168
30
0
41
1
10
57.8762073430698
20
-3.09240691470245
30
0
41
1
10
58.2430390651447
20
-3.25012086800444
30
0
41
1
10
58.7949233219855
20
-3.47347940608321
30
0
41
1
10
58.9788812218229
20
-3.54578929573916
30
0
41
1
10
59.3450174607257
20
-3.68407958232729
30
0
41
1
10
59.5280144035693
20
-3.74968530354747
30
0
41
1
10
60.0765572178922
20
-3.9365880196485
30
0
41
1
10
60.4415197511639
20
-4.04819380893736
30
0
41
1
10
60.9868404847122
20
-4.19722049211015
30
0
41
1
10
61.168177449628
20
-4.24386627232209
30
0
41
1
10
61.5304240024262
20
-4.33061340592869
30
0
41
1
10
61.7119073507537
20
-4.37032559385801
30
0
41
1
10
62.2573143734634
20
-4.47884235652057
30
0
41
1
10
62.62198641364
20
-4.53724268201213
30
0
41
1
10
63.3520668864265
20
-4.62636381874933
30
0
41
1
10
63.7167464475443
20
-4.65697788035664
30
0
41
1
10
64.2710283213348
20
-4.67993956257109
30
0
41
1
10
64.4565362406652
20
-4.6838215261775
30
0
41
1
10
64.6416215881541
20
-4.68393556993215
30
0
0
SPLINE
5
CF
100
AcDbEntity
8
1
62
256
6
ByLayer
370
18
48
1
60
0
100
AcDbSpline
70
4
71
3
72
28
73
24
40
0
40
0
40
0
40
0
40
0.0198826990228584
40
0.0198826990228584
40
0.159899456305305
40
0.159899456305305
40
0.229907834946531
40
0.229907834946531
40
0.299916213587756
40
0.299916213587756
40
0.439932970870207
40
0.439932970870207
40
0.509941349511428
40
0.509941349511428
40
0.579949728152649
40
0.579949728152649
40
0.719966485435099
40
0.719966485435099
40
0.789974864076325
40
0.789974864076325
40
0.859983242717551
40
0.859983242717551
40
1
40
1
40
1
40
1
41
1
10
83.6281359412603
20
3.41569733713283
30
0
41
1
10
83.6796363743871
20
3.43675008586445
30
0
41
1
10
83.7311679321617
20
3.45756941573012
30
0
41
1
10
84.1460499107013
20
3.62287118374928
30
0
41
1
10
84.5114225140679
20
3.75555367691848
30
0
41
1
10
85.0612415104662
20
3.93796543492633
30
0
41
1
10
85.2448250124898
20
3.99596481346566
30
0
41
1
10
85.6124876606461
20
4.10629780505718
30
0
41
1
10
85.795618020096
20
4.15856502533177
30
0
41
1
10
86.3445098391549
20
4.30358949322201
30
0
41
1
10
86.7100489077325
20
4.38540654171726
30
0
41
1
10
87.2564011565711
20
4.48772191381471
30
0
41
1
10
87.4382083570306
20
4.51838672885168
30
0
41
1
10
87.8010547587498
20
4.57281492582419
30
0
41
1
10
87.9818425988513
20
4.59664522877975
30
0
41
1
10
88.5253742987397
20
4.6567678545278
30
0
41
1
10
88.8891851576824
20
4.68200905405857
30
0
41
1
10
89.4356171245413
20
4.69829476884112
30
0
41
1
10
89.6178988590265
20
4.70009746927195
30
0
41
1
10
89.9825961087852
20
4.6962643670764
30
0
41
1
10
90.1647865999601
20
4.69058303282085
30
0
41
1
10
90.7134625285048
20
4.6622110087263
30
0
41
1
10
91.0830499457426
20
4.62841259840525
30
0
41
1
10
91.4509204340321
20
4.58015029489047
30
0
0
SPLINE
5
D0
100
AcDbEntity
8
1
62
256
6
ByLayer
370
13
48
1
60
0
100
AcDbSpline
70
4
71
3
72
12
73
8
40
0
40
0
40
0
40
0
40
0.5
40
0.5
40
0.75
40
0.75
40
1
40
1
40
1
40
1
41
1
10
11.0027903240864
20
-3.90684034199933
30
0
41
1
10
11.0081927250031
20
-3.88789350460513
30
0
41
1
10
11.0214247406155
20
-3.86928543864158
30
0
41
1
10
11.0524024306425
20
-3.84421412299358
30
0
41
1
10
11.0648172646996
20
-3.83619237758288
30
0
41
1
10
11.0927607474521
20
-3.82186747207109
30
0
41
1
10
11.1083485112207
20
-3.81546943936448
30
0
41
1
10
11.1258027821646
20
-3.80997795723326
30
0
0
SPLINE
5
D1
100
AcDbEntity
8
1
62
256
6
ByLayer
370
18
48
1
60
0
100
AcDbSpline
70
4
71
3
72
34
73
30
40
0
40
0
40
0
40
0
40
0.249999999999985
40
0.249999999999985
40
0.374999999999984
40
0.374999999999984
40
0.499999999999983
40
0.499999999999983
40
0.624999999999981
40
0.624999999999981
40
0.687499999999975
40
0.687499999999975
40
0.718749999999977
40
0.718749999999977
40
0.74999999999998
40
0.74999999999998
40
0.781249999999982
40
0.781249999999982
40
0.812499999999985
40
0.812499999999985
40
0.843749999999987
40
0.843749999999987
40
0.87499999999999
40
0.87499999999999
40
0.906249999999992
40
0.906249999999992
40
0.937499999999995
40
0.937499999999995
40
1
40
1
40
1
40
1
41
1
10
87.5838972115792
20
1.62436993355374
30
0
41
1
10
87.9116801214437
20
1.3698299477181
30
0
41
1
10
88.2447438735429
20
1.14111978446695
30
0
41
1
10
88.7547258740049
20
0.848856692393412
30
0
41
1
10
88.9268575338556
20
0.759722788258244
30
0
41
1
10
89.2734570863156
20
0.602196996161723
30
0
41
1
10
89.4460887482783
20
0.534584431469881
30
0
41
1
10
89.7898445399212
20
0.424518897232133
30
0
41
1
10
89.9614589757375
20
0.382041388062163
30
0
41
1
10
90.2138355540188
20
0.341105813814948
30
0
41
1
10
90.2973221302242
20
0.331213223410458
30
0
41
1
10
90.4208682422063
20
0.322468119001997
30
0
41
1
10
90.4617956593681
20
0.320564275642738
30
0
41
1
10
90.5430238171233
20
0.318842695307183
30
0
41
1
10
90.5833900395099
20
0.318927754320214
30
0
41
1
10
90.6617562800714
20
0.325785048979725
30
0
41
1
10
90.6997493373664
20
0.331912814861937
30
0
41
1
10
90.7727252551965
20
0.350995613768873
30
0
41
1
10
90.8079000265768
20
0.364077609598155
30
0
41
1
10
90.8728595020042
20
0.398090731960537
30
0
41
1
10
90.9028152266261
20
0.418952923355391
30
0
41
1
10
90.9560094404563
20
0.470938416080969
30
0
41
1
10
90.978590526796
20
0.501859024755333
30
0
41
1
10
91.0128337478556
20
0.57328292273337
30
0
41
1
10
91.025582531068
20
0.613748936641713
30
0
41
1
10
91.0415541491893
20
0.699621653152974
30
0
41
1
10
91.0449963597184
20
0.745238582346559
30
0
41
1
10
91.042808541447
20
0.888956597630738
30
0
41
1
10
91.025128517092
20
0.988469825609741
30
0
41
1
10
90.9969295613579
20
1.09038313414427
30
0
0
SPLINE
5
D2
100
AcDbEntity
8
1
62
256
6
ByLayer
370
18
48
1
60
0
100
AcDbSpline
70
4
71
3
72
14
73
10
40
0
40
0
40
0
40
0
40
0.25
40
0.25
40
0.5
40
0.5
40
0.75
40
0.75
40
1
40
1
40
1
40
1
41
1
10
11.0028001985504
20
2.73635984128583
30
0
41
1
10
11.0069027756886
20
2.73350194465684
30
0
41
1
10
11.0158344865249
20
2.72799805782665
30
0
41
1
10
11.0453641175937
20
2.71028079719739
30
0
41
1
10
11.0661731966069
20
2.697925456798
30
0
41
1
10
11.1155315239891
20
2.66823270399129
30
0
41
1
10
11.1433099036963
20
2.65133407239705
30
0
41
1
10
11.1980940247159
20
2.61751714673488
30
0
41
1
10
11.224787291133
20
2.60081575734003
30
0
41
1
10
11.2502914461848
20
2.58472420413077
30
0
0
SPLINE
5
D3
100
AcDbEntity
8
1
62
256
6
ByLayer
370
18
48
1
60
0
100
AcDbSpline
70
4
71
3
72
12
73
8
40
0
40
0
40
0
40
0
40
0.25
40
0.25
40
0.499999999999999
40
0.499999999999999
40
1
40
1
40
1
40
1
41
1
10
91.4130747813947
20
-4.54606450964596
30
0
41
1
10
91.4180193866121
20
-4.5328224052513
30
0
41
1
10
91.4227060386297
20
-4.51928164259166
30
0
41
1
10
91.4302209331258
20
-4.49503676789141
30
0
41
1
10
91.4330251053372
20
-4.48435828765685
30
0
41
1
10
91.4375460063193
20
-4.46115598331144
30
0
41
1
10
91.4357259574641
20
-4.45705693174489
30
0
41
1
10
91.4315065695163
20
-4.46011055698284
30
0
0
SPLINE
5
D4
100
AcDbEntity
8
1
62
256
6
ByLayer
370
18
48
1
60
0
100
AcDbSpline
70
4
71
3
72
88
73
84
40
0
40
0
40
0
40
0
40
0.0293696330311499
40
0.0293696330311499
40
0.0651193334056536
40
0.0651193334056536
40
0.100869033780157
40
0.100869033780157
40
0.172368434529165
40
0.172368434529165
40
0.208118134903668
40
0.208118134903668
40
0.243867835278172
40
0.243867835278172
40
0.315367236027179
40
0.315367236027179
40
0.351116936401683
40
0.351116936401683
40
0.386866636776187
40
0.386866636776187
40
0.422616337150691
40
0.422616337150691
40
0.440491187337943
40
0.440491187337943
40
0.449428612431569
40
0.449428612431569
40
0.453897324978381
40
0.453897324978381
40
0.454176619512557
40
0.454176619512557
40
0.454455914046733
40
0.454455914046733
40
0.455014503115085
40
0.455014503115085
40
0.456131681251788
40
0.456131681251788
40
0.458366037525195
40
0.458366037525195
40
0.467303462618822
40
0.467303462618822
40
0.476240887712449
40
0.476240887712449
40
0.494115737899703
40
0.494115737899703
40
0.529865438274211
40
0.529865438274211
40
0.601364839023227
40
0.601364839023227
40
0.672864239772243
40
0.672864239772243
40
0.690739089959497
40
0.690739089959497
40
0.708613940146751
40
0.708613940146751
40
0.713082652693565
40
0.713082652693565
40
0.717551365240378
40
0.717551365240378
40
0.718668543377081
40
0.718668543377081
40
0.718947837911257
40
0.718947837911257
40
0.719227132445433
40
0.719227132445433
40
0.719785721513785
40
0.722020077787191
40
0.726488790334005
40
0.726488790334005
40
0.744363640521258
40
0.744363640521258
40
0.780113340895765
40
0.780113340895765
40
0.815863041270271
40
0.815863041270271
40
0.851612741644778
40
0.851612741644778
40
0.887362442019285
40
0.887362442019285
40
0.923112142393791
40
0.923112142393791
40
0.958861842768298
40
0.958861842768298
40
1
40
1
40
1
40
1
41
1
10
21.3555329596553
20
3.09117224288713
30
0
41
1
10
21.2389119511212
20
3.11005410854136
30
0
41
1
10
21.1222143114776
20
3.12571708511996
30
0
41
1
10
20.8631089399974
20
3.15236069560879
30
0
41
1
10
20.7206058035222
20
3.16156579907801
30
0
41
1
10
20.4345086941188
20
3.16745545058211
30
0
41
1
10
20.2912509036635
20
3.1640598782372
30
0
41
1
10
19.8660131452985
20
3.13374091280164
30
0
41
1
10
19.5864450319664
20
3.08657613935245
30
0
41
1
10
19.1679880483277
20
2.97520733953988
30
0
41
1
10
19.0286279843699
20
2.93136324293482
30
0
41
1
10
18.7491060319971
20
2.83071766347797
30
0
41
1
10
18.6088491467919
20
2.77381407220321
30
0
41
1
10
18.1928367976826
20
2.58858717056654
30
0
41
1
10
17.9191755184856
20
2.44496962848098
30
0
41
1
10
17.5074159036711
20
2.20851782496087
30
0
41
1
10
17.3699649557197
20
2.1261806556395
30
0
41
1
10
17.0936668537793
20
1.95581051831454
30
0
41
1
10
16.9545529966996
20
1.86759603462485
30
0
41
1
10
16.6772084328085
20
1.68882739477704
30
0
41
1
10
16.5386242097367
20
1.59806114283299
30
0
41
1
10
16.3302468125432
20
1.4607910227528
30
0
41
1
10
16.2607048806134
20
1.41484634361996
30
0
41
1
10
16.156193364026
20
1.34575811330481
30
0
41
1
10
16.1213246679711
20
1.3227011566305
30
0
41
1
10
16.0690222885005
20
1.28812563299434
30
0
41
1
10
16.0515855072736
20
1.27660027802324
30
0
41
1
10
16.0330565471068
20
1.26435639098921
30
0
41
1
10
16.0313660256132
20
1.26393686831608
30
0
41
1
10
16.0310134783189
20
1.26137698022862
30
0
41
1
10
16.031962153473
20
1.26027902310801
30
0
41
1
10
16.0342177591082
20
1.25727895244756
30
0
41
1
10
16.0360175558858
20
1.25551170317263
30
0
41
1
10
16.0414606729632
20
1.25034938914666
30
0
41
1
10
16.0453144958741
20
1.24713602868886
30
0
41
1
10
16.0569926217888
20
1.2376815969842
30
0
41
1
10
16.0650019315892
20
1.23166708254735
30
0
41
1
10
16.105355345959
20
1.20199246354568
30
0
41
1
10
16.1385931003325
20
1.17953414191845
30
0
41
1
10
16.2051927777534
20
1.1349085765822
30
0
41
1
10
16.2386972086928
20
1.11290224531192
30
0
41
1
10
16.3394857663984
20
1.0473158981292
30
0
41
1
10
16.4070403330783
20
1.00418580288985
30
0
41
1
10
16.6101226929139
20
0.875612700203675
30
0
41
1
10
16.74610552898
20
0.791018120677734
30
0
41
1
10
17.1547374374206
20
0.538911397761495
30
0
41
1
10
17.4278636499603
20
0.372861464596412
30
0
41
1
10
17.9738796304941
20
0.04309374311444
30
0
41
1
10
18.2469897489517
20
-0.120540417028877
30
0
41
1
10
18.5862546645797
20
-0.326011766480633
30
0
41
1
10
18.6540031811184
20
-0.367145957386469
30
0
41
1
10
18.7890560345697
20
-0.449706985638585
30
0
41
1
10
18.8564469671881
20
-0.491046993031233
30
0
41
1
10
18.9395923141888
20
-0.543566931799461
30
0
41
1
10
18.9561580720066
20
-0.55411600743696
30
0
41
1
10
18.9889817138192
20
-0.57544512312208
30
0
41
1
10
19.0054299707242
20
-0.586116519986888
30
0
41
1
10
19.0247658300314
20
-0.600291103732587
30
0
41
1
10
19.0286800222147
20
-0.603141301748394
30
0
41
1
10
19.0327497525984
20
-0.607060001242218
30
0
41
1
10
19.0336022407713
20
-0.607876676193825
30
0
41
1
10
19.034348547021
20
-0.609604739109699
30
0
41
1
10
19.0329842350868
20
-0.609920874846068
30
0
41
1
10
19.0301252597793
20
-0.611021261366147
30
0
41
1
10
19.0205957235868
20
-0.614681041860507
30
0
41
1
10
18.9958236281114
20
-0.624090145138325
30
0
41
1
10
18.9729683559951
20
-0.632538273888628
30
0
41
1
10
18.8968030719348
20
-0.660167881911775
30
0
41
1
10
18.8359789190545
20
-0.68055671729536
30
0
41
1
10
18.6536091570045
20
-0.73643022019192
30
0
41
1
10
18.5324927367876
20
-0.766505294221247
30
0
41
1
10
18.2912062296746
20
-0.811412588692917
30
0
41
1
10
18.170816468978
20
-0.826316820482333
30
0
41
1
10
17.9287456653191
20
-0.840280921470423
30
0
41
1
10
17.8067273156365
20
-0.839310550848978
30
0
41
1
10
17.5606585502808
20
-0.820585073816517
30
0
41
1
10
17.4375812343428
20
-0.802941724012754
30
0
41
1
10
17.1890891045191
20
-0.751320766701184
30
0
41
1
10
17.063670836809
20
-0.71733676628179
30
0
41
1
10
16.8080856800505
20
-0.633373351971471
30
0
41
1
10
16.6770223507377
20
-0.582964423982531
30
0
41
1
10
16.3941798746287
20
-0.461124183420566
30
0
41
1
10
16.2417407654678
20
-0.387714995600021
30
0
41
1
10
16.0874333897886
20
-0.307910382123168
30
0
0
SPLINE
5
D5
100
AcDbEntity
8
1
62
256
6
ByLayer
370
18
48
1
60
0
100
AcDbSpline
70
4
71
3
72
22
73
18
40
0
40
0
40
0
40
0
40
0.125000000000007
40
0.125000000000007
40
0.187500000000008
40
0.187500000000008
40
0.250000000000008
40
0.250000000000008
40
0.500000000000006
40
0.500000000000006
40
0.625000000000004
40
0.625000000000004
40
0.750000000000003
40
0.750000000000003
40
0.875000000000001
40
0.875000000000001
40
1
40
1
40
1
40
1
41
1
10
91.3668843316607
20
-4.48694842210909
30
0
41
1
10
91.2984798107206
20
-4.48689892941667
30
0
41
1
10
91.2335244759359
20
-4.47644060868791
30
0
41
1
10
91.1415404668874
20
-4.44430935509408
30
0
41
1
10
91.1117897589173
20
-4.43085087615631
30
0
41
1
10
91.0541898367168
20
-4.39819565990459
30
0
41
1
10
91.0263064858445
20
-4.37894138158279
30
0
41
1
10
90.8938308015918
20
-4.26938893610691
30
0
41
1
10
90.8080468704248
20
-4.13912740860607
30
0
41
1
10
90.7116871536225
20
-3.87554043990912
30
0
41
1
10
90.6849399109396
20
-3.77526781393542
30
0
41
1
10
90.6446006206306
20
-3.55702069228261
30
0
41
1
10
90.6307263145908
20
-3.43864578982854
30
0
41
1
10
90.6155269819566
20
-3.18345413941813
30
0
41
1
10
90.6141998357083
20
-3.04664050640838
30
0
41
1
10
90.6246712877114
20
-2.75372424828296
30
0
41
1
10
90.6364011031432
20
-2.60034484280914
30
0
41
1
10
90.6543033255583
20
-2.44133232405218
30
0
0
SPLINE
5
D6
100
AcDbEntity
8
1
62
256
6
ByLayer
370
18
48
1
60
0
100
AcDbSpline
70
4
71
3
72
56
73
52
40
0
40
0
40
0
40
0
40
0.0599664124102826
40
0.0599664124102826
40
0.119932824820564
40
0.119932824820564
40
0.179899237230846
40
0.179899237230846
40
0.239865649641128
40
0.239865649641128
40
0.269848855846269
40
0.269848855846269
40
0.29983206205141
40
0.29983206205141
40
0.359798474461691
40
0.359798474461691
40
0.389781680666833
40
0.389781680666833
40
0.419764886871975
40
0.419764886871975
40
0.47973129928226
40
0.47973129928226
40
0.509714505487403
40
0.509714505487403
40
0.539697711692547
40
0.539697711692547
40
0.56968091789769
40
0.56968091789769
40
0.599664124102833
40
0.599664124102833
40
0.629647330307977
40
0.629647330307977
40
0.65963053651312
40
0.65963053651312
40
0.719596948923409
40
0.719596948923409
40
0.749580155128553
40
0.749580155128553
40
0.779563361333697
40
0.779563361333697
40
0.839529773743984
40
0.839529773743984
40
0.869512979949127
40
0.869512979949127
40
0.899496186154271
40
0.899496186154271
40
0.959462598564556
40
0.959462598564556
40
0.989445804769699
40
0.989445804769699
40
1
40
1
40
1
40
1
41
1
10
21.355509325378
20
3.0911760694197
30
0
41
1
10
21.7233257102436
20
2.92825438147884
30
0
41
1
10
22.0907466218569
20
2.75865540447731
30
0
41
1
10
22.8229353533278
20
2.40426270283069
30
0
41
1
10
23.1876071469199
20
2.21929762745552
30
0
41
1
10
23.9136421408742
20
1.83285987837414
30
0
41
1
10
24.2776404116798
20
1.63552739567831
30
0
41
1
10
25.0069070427928
20
1.23191285644691
30
0
41
1
10
25.3719483544039
20
1.02525989640455
30
0
41
1
10
25.9194276433061
20
0.706374452258558
30
0
41
1
10
26.1024148175039
20
0.599471175720083
30
0
41
1
10
26.470050915489
20
0.385684967023735
30
0
41
1
10
26.6548930490349
20
0.278315616141413
30
0
41
1
10
27.2080675753443
20
-0.0434312733853233
30
0
41
1
10
27.5748387346535
20
-0.257421070131358
30
0
41
1
10
28.1212150539922
20
-0.578942192686725
30
0
41
1
10
28.3031328979099
20
-0.685451455243253
30
0
41
1
10
28.6674701679907
20
-0.895608110651693
30
0
41
1
10
28.8496992568308
20
-0.999589791838673
30
0
41
1
10
29.3962381615287
20
-1.30885253251242
30
0
41
1
10
29.7603908580015
20
-1.51148792863694
30
0
41
1
10
30.3054364836682
20
-1.81135744666722
30
0
41
1
10
30.4872131467849
20
-1.91014413062055
30
0
41
1
10
30.8522699676143
20
-2.10328872014625
30
0
41
1
10
31.0353103723614
20
-2.19803739545753
30
0
41
1
10
31.4021828098407
20
-2.38425934549565
30
0
41
1
10
31.5860159864144
20
-2.47573052698141
30
0
41
1
10
31.9543318508952
20
-2.65557169050751
30
0
41
1
10
32.1388995347771
20
-2.7439721367453
30
0
41
1
10
32.5056762407185
20
-2.91641936210888
30
0
41
1
10
32.6884622114108
20
-3.00029134549311
30
0
41
1
10
33.0543191698571
20
-3.16146529116631
30
0
41
1
10
33.2371431678365
20
-3.23912664723528
30
0
41
1
10
33.7849563503444
20
-3.46399217060221
30
0
41
1
10
34.1492873195207
20
-3.60314072644303
30
0
41
1
10
34.6935613057553
20
-3.79636358114541
30
0
41
1
10
34.8747023514993
20
-3.85804779173324
30
0
41
1
10
35.2382470416548
20
-3.97423307473684
30
0
41
1
10
35.4203706938981
20
-4.02903235546012
30
0
41
1
10
35.9674167738563
20
-4.1839878861953
30
0
41
1
10
36.333010455199
20
-4.27477516565207
30
0
41
1
10
36.8818693979597
20
-4.3919616272743
30
0
41
1
10
37.0649105737605
20
-4.42779437909348
30
0
41
1
10
37.4331421979147
20
-4.49180341981636
30
0
41
1
10
37.6176510274452
20
-4.52008053046464
30
0
41
1
10
38.1691308694617
20
-4.59378002688268
30
0
41
1
10
38.5352031789778
20
-4.62834696583852
30
0
41
1
10
39.081032846391
20
-4.65848285284696
30
0
41
1
10
39.2623561639352
20
-4.66485207350456
30
0
41
1
10
39.5081196776585
20
-4.6684176784033
30
0
41
1
10
39.5721290773411
20
-4.6688909367036
30
0
41
1
10
39.6361557632825
20
-4.6689121333514
30
0
0
SPLINE
5
D7
100
AcDbEntity
8
1
62
256
6
ByLayer
370
18
48
1
60
0
100
AcDbSpline
70
4
71
3
72
92
73
88
40
0
40
0
40
0
40
0
40
0.0173228720180895
40
0.0173228720180895
40
0.0349632900058665
40
0.0349632900058665
40
0.0702441259814206
40
0.0702441259814206
40
0.0878845439691976
40
0.0878845439691976
40
0.105524961956975
40
0.105524961956975
40
0.140805797932528
40
0.140805797932528
40
0.17608663390808
40
0.17608663390808
40
0.211367469883634
40
0.211367469883634
40
0.246648305859187
40
0.246648305859187
40
0.28192914183474
40
0.28192914183474
40
0.299569559822516
40
0.299569559822516
40
0.317209977810292
40
0.317209977810292
40
0.334850395798068
40
0.334850395798068
40
0.352490813785844
40
0.352490813785844
40
0.37013123177362
40
0.37013123177362
40
0.387771649761396
40
0.387771649761396
40
0.423052485736949
40
0.423052485736949
40
0.440692903724725
40
0.440692903724725
40
0.458333321712502
40
0.458333321712502
40
0.493614157688055
40
0.493614157688055
40
0.511254575675831
40
0.511254575675831
40
0.528894993663607
40
0.528894993663607
40
0.564175829639159
40
0.564175829639159
40
0.581816247626935
40
0.581816247626935
40
0.599456665614711
40
0.599456665614711
40
0.634737501590263
40
0.634737501590263
40
0.652377919578039
40
0.652377919578039
40
0.670018337565815
40
0.670018337565815
40
0.687658755553591
40
0.687658755553591
40
0.705299173541367
40
0.705299173541367
40
0.722939591529143
40
0.722939591529143
40
0.740580009516919
40
0.740580009516919
40
0.775860845492471
40
0.775860845492471
40
0.793501263480247
40
0.793501263480247
40
0.811141681468023
40
0.811141681468023
40
0.846422517443576
40
0.846422517443576
40
0.864062935431353
40
0.864062935431353
40
0.88170335341913
40
0.88170335341913
40
0.916984189394684
40
0.916984189394684
40
0.934624607382461
40
0.934624607382461
40
0.952265025370238
40
0.952265025370238
40
0.987545861345792
40
0.987545861345792
40
1
40
1
40
1
40
1
41
1
10
58.6208963881553
20
3.40304515814404
30
0
41
1
10
58.8015459027727
20
3.47608168783719
30
0
41
1
10
58.9821766394003
20
3.54703398062088
30
0
41
1
10
59.3450174607257
20
3.68407958232726
30
0
41
1
10
59.5280144035693
20
3.74968530354747
30
0
41
1
10
60.0765572178922
20
3.9365880196485
30
0
41
1
10
60.4415197511639
20
4.04819380893736
30
0
41
1
10
60.9868404847123
20
4.19722049211015
30
0
41
1
10
61.168177449628
20
4.24386627232212
30
0
41
1
10
61.5304240024262
20
4.33061340592869
30
0
41
1
10
61.7119073507538
20
4.37032559385801
30
0
41
1
10
62.2573143734634
20
4.47884235652057
30
0
41
1
10
62.62198641364
20
4.53724268201213
30
0
41
1
10
63.3520668864265
20
4.62636381874935
30
0
41
1
10
63.7167464475443
20
4.65697788035664
30
0
41
1
10
64.4537867316456
20
4.6875105129088
30
0
41
1
10
64.8213079718643
20
4.68776883732559
30
0
41
1
10
65.5517174522466
20
4.65897971618259
30
0
41
1
10
65.9139810468606
20
4.62944940951414
30
0
41
1
10
66.6410707416846
20
4.54254722958808
30
0
41
1
10
67.0050208358498
20
4.48524336147685
30
0
41
1
10
67.5504550221479
20
4.37799064310701
30
0
41
1
10
67.732172491635
20
4.33865783971766
30
0
41
1
10
68.0953956536275
20
4.25258415396854
30
0
41
1
10
68.2773176611298
20
4.20611657975945
30
0
41
1
10
68.6426477548693
20
4.10708438537532
30
0
41
1
10
68.8258683551887
20
4.05438798313119
30
0
41
1
10
69.1932064461745
20
3.94243491872862
30
0
41
1
10
69.3776231320034
20
3.88307625833716
30
0
41
1
10
69.7457852647638
20
3.75796681610379
30
0
41
1
10
69.9291658317831
20
3.69234896185139
30
0
41
1
10
70.2943942176339
20
3.55478945461709
30
0
41
1
10
70.4766010103525
20
3.48323943899999
30
0
41
1
10
71.0236934211258
20
3.26249121847863
30
0
41
1
10
71.3881602859361
20
3.10624013103126
30
0
41
1
10
71.9333407973014
20
2.85701265077071
30
0
41
1
10
72.1148222008867
20
2.77145760764478
30
0
41
1
10
72.4771398740922
20
2.59506876284098
30
0
41
1
10
72.6582096063578
20
2.50454710575156
30
0
41
1
10
73.2033526757758
20
2.22930202227551
30
0
41
1
10
73.5683133125618
20
2.03947654025865
30
0
41
1
10
74.116895832362
20
1.74332200906054
30
0
41
1
10
74.2999559833582
20
1.64270060363916
30
0
41
1
10
74.6663670294041
20
1.43729707467014
30
0
41
1
10
74.8501540967847
20
1.33244945180979
30
0
41
1
10
75.4012247264311
20
1.01886289352078
30
0
41
1
10
75.7676620758866
20
0.808788501478716
30
0
41
1
10
76.3147686800912
20
0.490139936409463
30
0
41
1
10
76.4967214246453
20
0.383350634534594
30
0
41
1
10
76.8596377767322
20
0.168358220113134
30
0
41
1
10
77.0406233168569
20
0.0601948629663127
30
0
41
1
10
77.5850990035354
20
-0.261215561472511
30
0
41
1
10
77.9489749147305
20
-0.473354584957093
30
0
41
1
10
78.4948781175369
20
-0.790522946205527
30
0
41
1
10
78.6768714176035
20
-0.896052940220102
30
0
41
1
10
79.0407823096181
20
-1.10693634539697
30
0
41
1
10
79.2226011160253
20
-1.21245726690091
30
0
41
1
10
79.5881478698822
20
-1.4199181111255
30
0
41
1
10
79.7716146202439
20
-1.52230686268135
30
0
41
1
10
80.1396635627908
20
-1.72486550274326
30
0
41
1
10
80.3242582616683
20
-1.8250244511014
30
0
41
1
10
80.6915506664532
20
-2.02183782924496
30
0
41
1
10
80.8746086678323
20
-2.11868825283312
30
0
41
1
10
81.2393946841151
20
-2.30948105309628
30
0
41
1
10
81.4209896927595
20
-2.40359951045548
30
0
41
1
10
81.966674519563
20
-2.67722177243988
30
0
41
1
10
82.3307249767744
20
-2.84957989801364
30
0
41
1
10
82.8758715096353
20
-3.09524728742454
30
0
41
1
10
83.0574451672113
20
-3.17495622049225
30
0
41
1
10
83.4201689563556
20
-3.33009257725592
30
0
41
1
10
83.6011096967167
20
-3.40575020598709
30
0
41
1
10
84.1460499107013
20
-3.62287118374928
30
0
41
1
10
84.5114225140679
20
-3.75555367691848
30
0
41
1
10
85.0612415104662
20
-3.93796543492633
30
0
41
1
10
85.2448250124899
20
-3.99596481346566
30
0
41
1
10
85.6124876606461
20
-4.10629780505715
30
0
41
1
10
85.795618020096
20
-4.15856502533177
30
0
41
1
10
86.3445098391549
20
-4.30358949322198
30
0
41
1
10
86.7100489077325
20
-4.38540654171726
30
0
41
1
10
87.2564011565713
20
-4.48772191381471
30
0
41
1
10
87.4382083570306
20
-4.51838672885165
30
0
41
1
10
87.8010547587498
20
-4.57281492582419
30
0
41
1
10
87.9818425988514
20
-4.59664522877972
30
0
41
1
10
88.5253742987397
20
-4.6567678545278
30
0
41
1
10
88.8891851576824
20
-4.68200905405857
30
0
41
1
10
89.3820668284941
20
-4.69669876988638
30
0
41
1
10
89.5107291787713
20
-4.69872407677494
30
0
41
1
10
89.6394352527717
20
-4.69890925772464
30
0
0
SPLINE
5
D8
100
AcDbEntity
8
1
62
256
6
ByLayer
370
18
48
1
60
0
100
AcDbSpline
70
4
71
3
72
10
73
6
40
0
40
0
40
0
40
0
40
0.5
40
0.5
40
1
40
1
40
1
40
1
41
1
10
11.1238752261203
20
-4.00823859423178
30
0
41
1
10
11.0949238916748
20
-3.99963854809488
30
0
41
1
10
11.0698829361536
20
-3.98817685302609
30
0
41
1
10
11.0300099598083
20
-3.96050583093609
30
0
41
1
10
11.0154641914195
20
-3.94434231092427
30
0
41
1
10
11.0074602283701
20
-3.92716436081554
30
0
0
SPLINE
5
D9
100
AcDbEntity
8
1
62
256
6
ByLayer
370
18
48
1
60
0
100
AcDbSpline
70
4
71
3
72
82
73
78
40
0
40
0
40
0
40
0
40
0.0169718183954909
40
0.0169718183954909
40
0.035339997874028
40
0.035339997874028
40
0.0537081773525651
40
0.0537081773525651
40
0.0904445363096403
40
0.0904445363096403
40
0.127180895266715
40
0.127180895266715
40
0.145549074745253
40
0.145549074745253
40
0.16391725422379
40
0.16391725422379
40
0.200653613180864
40
0.200653613180864
40
0.237389972137938
40
0.237389972137938
40
0.274126331095012
40
0.274126331095012
40
0.310862690052086
40
0.310862690052086
40
0.329230869530624
40
0.329230869530624
40
0.347599049009161
40
0.347599049009161
40
0.384335407966235
40
0.384335407966235
40
0.402703587444772
40
0.402703587444772
40
0.421071766923309
40
0.421071766923309
40
0.439439946401846
40
0.439439946401846
40
0.457808125880383
40
0.457808125880383
40
0.494544484837459
40
0.494544484837459
40
0.512912664315996
40
0.512912664315996
40
0.531280843794534
40
0.531280843794534
40
0.568017202751609
40
0.568017202751609
40
0.604753561708684
40
0.604753561708684
40
0.641489920665759
40
0.641489920665759
40
0.678226279622835
40
0.678226279622835
40
0.696594459101372
40
0.696594459101372
40
0.71496263857991
40
0.71496263857991
40
0.751698997536985
40
0.751698997536985
40
0.770067177015522
40
0.770067177015522
40
0.788435356494059
40
0.788435356494059
40
0.825171715451135
40
0.825171715451135
40
0.86190807440821
40
0.86190807440821
40
0.880276253886748
40
0.880276253886748
40
0.898644433365285
40
0.898644433365285
40
0.935380792322362
40
0.935380792322362
40
0.972117151279438
40
0.972117151279438
40
0.990485330757977
40
0.990485330757977
40
1
40
1
40
1
40
1
41
1
10
83.6332622562869
20
-3.41769941542068
30
0
41
1
10
83.461562691287
20
-3.48012939777107
30
0
41
1
10
83.2900316098193
20
-3.54006030164788
30
0
41
1
10
82.9331821831092
20
-3.65956398956197
30
0
41
1
10
82.7478728668203
20
-3.71875034778034
30
0
41
1
10
82.3776995882974
20
-3.83127787927026
30
0
41
1
10
82.1927605173067
20
-3.88447354251568
30
0
41
1
10
81.6369123426824
20
-4.03348145566471
30
0
41
1
10
81.2654070764717
20
-4.11972171611092
30
0
41
1
10
80.5205486449649
20
-4.26716877694352
30
0
41
1
10
80.1477484591519
20
-4.32831918107462
30
0
41
1
10
79.5845213212831
20
-4.39737687491919
30
0
41
1
10
79.3966633826199
20
-4.4162942651046
30
0
41
1
10
79.0224702847997
20
-4.44532817066502
30
0
41
1
10
78.8357295608761
20
-4.45651122500243
30
0
41
1
10
78.2765726282445
20
-4.48017988681781
30
0
41
1
10
77.9058792110237
20
-4.48242426207489
30
0
41
1
10
77.1644761014443
20
-4.45663061265373
30
0
41
1
10
76.7938172563279
20
-4.42856824088258
30
0
41
1
10
76.0522627588491
20
-4.34423437718382
30
0
41
1
10
75.6818996121614
20
-4.28660569705042
30
0
41
1
10
74.9375342079109
20
-4.14523801066633
30
0
41
1
10
74.5637340383328
20
-4.06152430575068
30
0
41
1
10
74.0003103493243
20
-3.91494360340516
30
0
41
1
10
73.8124619218498
20
-3.86267348802866
30
0
41
1
10
73.4387418745771
20
-3.75157187934832
30
0
41
1
10
73.2523870312388
20
-3.69244830064588
30
0
41
1
10
72.6937754772463
20
-3.50677551929942
30
0
41
1
10
72.3219726484336
20
-3.37419372996064
30
0
41
1
10
71.7656145049622
20
-3.15844803638271
30
0
41
1
10
71.580389368226
20
-3.0838037379674
30
0
41
1
10
71.2103665899887
20
-2.92891943319486
30
0
41
1
10
71.0253284130466
20
-2.84916196373678
30
0
41
1
10
70.6546901562233
20
-2.68423785991848
30
0
41
1
10
70.4691125642375
20
-2.59938860183641
30
0
41
1
10
70.0976022707003
20
-2.42687521792916
30
0
41
1
10
69.9116584487647
20
-2.3388352322001
30
0
41
1
10
69.3531651527629
20
-2.06845797729076
30
0
41
1
10
68.9805530028577
20
-1.87894888614485
30
0
41
1
10
68.4171099677998
20
-1.5851974142893
30
0
41
1
10
68.2294020532678
20
-1.48585700789391
30
0
41
1
10
67.8550991662926
20
-1.28594467093589
30
0
41
1
10
67.6682744353303
20
-1.18530140573589
30
0
41
1
10
67.109042469936
20
-0.880769558752235
30
0
41
1
10
66.7383324995336
20
-0.673466333888854
30
0
41
1
10
65.9963353510411
20
-0.258997792033142
30
0
41
1
10
65.6254158543571
20
-0.0511362050849584
30
0
41
1
10
64.8833339856371
20
0.365063780365347
30
0
41
1
10
64.5125766898799
20
0.574221859199355
30
0
41
1
10
63.7671373132512
20
0.986177959767844
30
0
41
1
10
63.3926812402893
20
1.18994734365037
30
0
41
1
10
62.8289279904449
20
1.49092953619504
30
0
41
1
10
62.6417613012962
20
1.59006113568728
30
0
41
1
10
62.2686348660653
20
1.784831041899
30
0
41
1
10
62.082445941113
20
1.87993033384438
30
0
41
1
10
61.5241780608432
20
2.16033554281745
30
0
41
1
10
61.1527421934486
20
2.34006886302288
30
0
41
1
10
60.5967778950085
20
2.59846105379515
30
0
41
1
10
60.4117533323907
20
2.68278080780792
30
0
41
1
10
60.0418757703017
20
2.84669065101031
30
0
41
1
10
59.8567827589215
20
2.92577945348117
30
0
41
1
10
59.3007770751437
20
3.15556285302802
30
0
41
1
10
58.9292754223102
20
3.29956718173358
30
0
41
1
10
58.184598999828
20
3.56765789519795
30
0
41
1
10
57.8116989451903
20
3.69208078487745
30
0
41
1
10
57.2477183048116
20
3.85594527758315
30
0
41
1
10
57.0601327018414
20
3.90712075163717
30
0
41
1
10
56.6856274201168
20
4.00396216095754
30
0
41
1
10
56.4987522406623
20
4.04924240315233
30
0
41
1
10
55.9393228586649
20
4.17553837231429
30
0
41
1
10
55.5683818751878
20
4.24715243178835
30
0
41
1
10
54.825736832553
20
4.35863518790873
30
0
41
1
10
54.4544190416628
20
4.39917695566893
30
0
41
1
10
53.8972510833381
20
4.43926491421686
30
0
41
1
10
53.7116254392441
20
4.44864773633418
30
0
41
1
10
53.4294065409602
20
4.45756615462878
30
0
41
1
10
53.3330088489854
20
4.45979984997038
30
0
41
1
10
53.2365079398555
20
4.46114149595471
30
0
0
SPLINE
5
DA
100
AcDbEntity
8
1
62
256
6
ByLayer
370
18
48
1
60
0
100
AcDbSpline
70
4
71
3
72
54
73
50
40
0
40
0
40
0
40
0
40
0.0119213122608245
40
0.0119213122608245
40
0.0437948183169266
40
0.0437948183169266
40
0.10754183042913
40
0.10754183042913
40
0.171288842541334
40
0.171288842541334
40
0.203162348597435
40
0.203162348597435
40
0.235035854653536
40
0.235035854653536
40
0.266909360709637
40
0.266909360709637
40
0.298782866765738
40
0.298782866765738
40
0.36252987887794
40
0.36252987887794
40
0.394403384934042
40
0.394403384934042
40
0.426276890990144
40
0.426276890990144
40
0.490023903102348
40
0.490023903102348
40
0.521897409158451
40
0.521897409158451
40
0.553770915214553
40
0.553770915214553
40
0.585644421270656
40
0.585644421270656
40
0.617517927326759
40
0.617517927326759
40
0.681264939438965
40
0.681264939438965
40
0.713138445495068
40
0.713138445495068
40
0.745011951551171
40
0.745011951551171
40
0.808758963663378
40
0.808758963663378
40
0.840632469719481
40
0.840632469719481
40
0.872505975775585
40
0.872505975775585
40
0.936252987887793
40
0.936252987887793
40
1
40
1
40
1
40
1
41
1
10
33.619875858205
20
-3.4006114529368
30
0
41
1
10
33.5505658385813
20
-3.42568980307738
30
0
41
1
10
33.4812778279767
20
-3.45035561818912
30
0
41
1
10
33.2267091720696
20
-3.53926130683502
30
0
41
1
10
33.041481297963
20
-3.60057467378337
30
0
41
1
10
32.4857615816132
20
-3.77546437011048
30
0
41
1
10
32.1152223235739
20
-3.88130649847534
30
0
41
1
10
31.374486101083
20
-4.06954162976604
30
0
41
1
10
31.0039263564579
20
-4.15137030906615
30
0
41
1
10
30.4447025861683
20
-4.25006927057794
30
0
41
1
10
30.2578473981651
20
-4.27922638524248
30
0
41
1
10
29.8833476286055
20
-4.3313977535301
30
0
41
1
10
29.6953116472782
20
-4.35433828398183
30
0
41
1
10
29.3205793373439
20
-4.39244109548312
30
0
41
1
10
29.1339556234615
20
-4.4076293643962
30
0
41
1
10
28.7608972310938
20
-4.43121397197095
30
0
41
1
10
28.5745746135869
20
-4.43968975686747
30
0
41
1
10
28.0163217641217
20
-4.45443954609038
30
0
41
1
10
27.6450806173745
20
-4.45020151248312
30
0
41
1
10
27.0897295356139
20
-4.41954039909737
30
0
41
1
10
26.9048607074792
20
-4.4046813559435
30
0
41
1
10
26.5345018339674
20
-4.36867529490019
30
0
41
1
10
26.3491273060969
20
-4.34783259507293
30
0
41
1
10
25.7924689041858
20
-4.27532691590841
30
0
41
1
10
25.4206240196249
20
-4.21404731988721
30
0
41
1
10
24.8617653374542
20
-4.10033445670226
30
0
41
1
10
24.6753096715146
20
-4.0586427152804
30
0
41
1
10
24.3007778168673
20
-3.96739283050127
30
0
41
1
10
24.1125629441109
20
-3.91825150205429
30
0
41
1
10
23.7374086733806
20
-3.8146043014435
30
0
41
1
10
23.5502839390879
20
-3.75974896808339
30
0
41
1
10
23.1769218364411
20
-3.64366175830313
30
0
41
1
10
22.990671463333
20
-3.58243185582276
30
0
41
1
10
22.4331592294225
20
-3.39116728624509
30
0
41
1
10
22.0624133765888
20
-3.25337371095972
30
0
41
1
10
21.506035178441
20
-3.03222491002751
30
0
41
1
10
21.3206170641702
20
-2.95611224820047
30
0
41
1
10
20.9497685491556
20
-2.79824525556435
30
0
41
1
10
20.7643123645179
20
-2.71635924811142
30
0
41
1
10
20.2080355929997
20
-2.46368110707951
30
0
41
1
10
19.8364913132646
20
-2.28757516372846
30
0
41
1
10
19.2763572198344
20
-2.01321864577886
30
0
41
1
10
19.0892602116061
20
-1.91990082695136
30
0
41
1
10
18.7141693525495
20
-1.72938888784134
30
0
41
1
10
18.5259722733184
20
-1.63199801867111
30
0
41
1
10
17.9633125713044
20
-1.33530510033754
30
0
41
1
10
17.588752760285
20
-1.13340712076845
30
0
41
1
10
16.8386725446177
20
-0.724699336593659
30
0
41
1
10
16.4632581372896
20
-0.51771286457344
30
0
41
1
10
16.0874104621757
20
-0.307898524391533
30
0
0
SPLINE
5
DB
100
AcDbEntity
8
1
62
256
6
ByLayer
370
18
48
1
60
0
100
AcDbSpline
70
4
71
3
72
58
73
54
40
0
40
0
40
0
40
0
40
0.04816251592548
40
0.04816251592548
40
0.0722437738882212
40
0.0722437738882212
40
0.0963250318509624
40
0.0963250318509624
40
0.144487547776442
40
0.144487547776442
40
0.168568805739183
40
0.168568805739183
40
0.192650063701923
40
0.192650063701923
40
0.240812579627402
40
0.240812579627402
40
0.288975095552882
40
0.288975095552882
40
0.337137611478363
40
0.337137611478363
40
0.385300127403843
40
0.385300127403843
40
0.433462643329323
40
0.433462643329323
40
0.481625159254803
40
0.481625159254803
40
0.529787675180283
40
0.529787675180283
40
0.577950191105763
40
0.577950191105763
40
0.626112707031243
40
0.626112707031243
40
0.650193964993983
40
0.650193964993983
40
0.674275222956723
40
0.674275222956723
40
0.722437738882203
40
0.722437738882203
40
0.746518996844943
40
0.746518996844943
40
0.770600254807683
40
0.770600254807683
40
0.818762770733162
40
0.818762770733162
40
0.842844028695901
40
0.842844028695901
40
0.866925286658641
40
0.866925286658641
40
0.915087802584121
40
0.915087802584121
40
0.963250318509601
40
0.963250318509601
40
1
40
1
40
1
40
1
41
1
10
91.369653670917
20
-4.66215093794162
30
0
41
1
10
90.9522382049906
20
-4.69315490298672
30
0
41
1
10
90.5350623408619
20
-4.70479569601699
30
0
41
1
10
89.9079772971036
20
-4.69311357030602
30
0
41
1
10
89.6986953921397
20
-4.6843440578881
30
0
41
1
10
89.281048809782
20
-4.65718880033535
30
0
41
1
10
89.0724773517067
20
-4.63880127292251
30
0
41
1
10
88.4469725629133
20
-4.56940714250243
30
0
41
1
10
88.0302185358619
20
-4.50418862226189
30
0
41
1
10
87.403578631295
20
-4.3786349275563
30
0
41
1
10
87.1942359359424
20
-4.33211373492873
30
0
41
1
10
86.7763672354096
20
-4.23040365515467
30
0
41
1
10
86.5677049612269
20
-4.17518921962346
30
0
41
1
10
85.9420438891233
20
-3.99690472605437
30
0
41
1
10
85.5253300008656
20
-3.86123070859594
30
0
41
1
10
84.6901226326609
20
-3.55852184497164
30
0
41
1
10
84.2714654828911
20
-3.39142194121931
30
0
41
1
10
83.4369605424355
20
-3.0319514391708
30
0
41
1
10
83.0201836297924
20
-2.83928028792516
30
0
41
1
10
82.1851221733674
20
-2.43128277454369
30
0
41
1
10
81.7663000504101
20
-2.21573509876077
30
0
41
1
10
80.9316323970434
20
-1.7696322354239
30
0
41
1
10
80.5149076654132
20
-1.53874664788708
30
0
41
1
10
79.6799213307199
20
-1.06572002838109
30
0
41
1
10
79.2609484132379
20
-0.823086413621468
30
0
41
1
10
78.4261190997591
20
-0.334068486281751
30
0
41
1
10
78.0093691258411
20
-0.0877566444197271
30
0
41
1
10
77.1745530843927
20
0.403965078798535
30
0
41
1
10
76.7556371140233
20
0.649955519052526
30
0
41
1
10
75.9202973699713
20
1.13333622806425
30
0
41
1
10
75.5034888849009
20
1.37084192166469
30
0
41
1
10
74.8775736012929
20
1.71756637101942
30
0
41
1
10
74.6688066608776
20
1.8315336674732
30
0
41
1
10
74.2506609730178
20
2.05567820954119
30
0
41
1
10
74.0412394443189
20
2.16587430184015
30
0
41
1
10
73.4143250771049
20
2.48856932557786
30
0
41
1
10
72.9973874086921
20
2.69386022480666
30
0
41
1
10
72.3715471783743
20
2.98430538294579
30
0
41
1
10
72.1628191670133
20
3.07814793926454
30
0
41
1
10
71.7448121877369
20
3.25944935896035
30
0
41
1
10
71.5353434229808
20
3.34698649635826
30
0
41
1
10
70.9082032426113
20
3.59842042497846
30
0
41
1
10
70.4912788748043
20
3.75149991720212
30
0
41
1
10
69.8653800889094
20
3.95703042523289
30
0
41
1
10
69.6566665551125
20
4.02153394943861
30
0
41
1
10
69.2387699988639
20
4.14222463642676
30
0
41
1
10
69.0293588198136
20
4.19846705468913
30
0
41
1
10
68.4018999087988
20
4.35377449730714
30
0
41
1
10
67.984858455028
20
4.43944685852017
30
0
41
1
10
67.1503473538444
20
4.5735613015776
30
0
41
1
10
66.7325530914903
20
4.62205304557028
30
0
41
1
10
65.9946729023947
20
4.67357786931856
30
0
41
1
10
65.6760805951797
20
4.68458565039342
30
0
41
1
10
65.3576459424446
20
4.68434038228597
30
0
0
SPLINE
5
DC
100
AcDbEntity
8
1
62
256
6
ByLayer
370
18
48
1
60
0
100
AcDbSpline
70
4
71
3
72
62
73
58
40
0
40
0
40
0
40
0
40
0.0087987274539334
40
0.0087987274539334
40
0.0546346100114867
40
0.0546346100114867
40
0.0775525512902631
40
0.0775525512902631
40
0.10047049256904
40
0.10047049256904
40
0.146306375126592
40
0.146306375126592
40
0.169224316405368
40
0.169224316405368
40
0.192142257684144
40
0.192142257684144
40
0.237978140241695
40
0.237978140241695
40
0.283814022799246
40
0.283814022799246
40
0.329649905356797
40
0.329649905356797
40
0.375485787914347
40
0.375485787914347
40
0.421321670471898
40
0.421321670471898
40
0.467157553029449
40
0.467157553029449
40
0.512993435587
40
0.512993435587
40
0.558829318144551
40
0.558829318144551
40
0.581747259423327
40
0.581747259423327
40
0.604665200702102
40
0.604665200702102
40
0.650501083259654
40
0.650501083259654
40
0.67341902453843
40
0.67341902453843
40
0.696336965817206
40
0.696336965817206
40
0.742172848374758
40
0.742172848374758
40
0.765090789653534
40
0.765090789653534
40
0.78800873093231
40
0.78800873093231
40
0.833844613489862
40
0.833844613489862
40
0.879680496047413
40
0.879680496047413
40
0.925516378604964
40
0.925516378604964
40
0.971352261162515
40
0.971352261162515
40
1
40
1
40
1
40
1
41
1
10
42.7335530208974
20
-4.46449664651902
30
0
41
1
10
42.6531619779921
20
-4.47831601887052
30
0
41
1
10
42.5727943844676
20
-4.49144793615588
30
0
41
1
10
42.0741816662326
20
-4.56863577912347
30
0
41
1
10
41.6568376886798
20
-4.61459640499319
30
0
41
1
10
41.0303689823633
20
-4.65479188201147
30
0
41
1
10
40.8214301316088
20
-4.66339063126279
30
0
41
1
10
40.4029965308325
20
-4.6709169860286
30
0
41
1
10
40.1933157649296
20
-4.66983177152673
30
0
41
1
10
39.5654961234183
20
-4.65207199837775
30
0
41
1
10
39.148055966186
20
-4.62093121590223
30
0
41
1
10
38.5215883759869
20
-4.54579048529331
30
0
41
1
10
38.3126725494511
20
-4.51601994345276
30
0
41
1
10
37.8943416953262
20
-4.44713858514189
30
0
41
1
10
37.6846943841031
20
-4.40797794154309
30
0
41
1
10
37.0565326588467
20
-4.27706934113229
30
0
41
1
10
36.6390696569538
20
-4.17184398634058
30
0
41
1
10
35.803769439714
20
-3.92785086117811
30
0
41
1
10
35.3854920448757
20
-3.78902744967746
30
0
41
1
10
34.5475787803582
20
-3.48060190041366
30
0
41
1
10
34.1298529324526
20
-3.3118318743015
30
0
41
1
10
33.2944844890744
20
-2.9481911236511
30
0
41
1
10
32.8767656594762
20
-2.75340360531655
30
0
41
1
10
32.0384285890055
20
-2.34151947417053
30
0
41
1
10
31.6205443495835
20
-2.12568371840686
30
0
41
1
10
30.7850135889763
20
-1.67838628227602
30
0
41
1
10
30.3672651667561
20
-1.44700479939846
30
0
41
1
10
29.5293382094466
20
-0.972634050939604
30
0
41
1
10
29.1109075638437
20
-0.73082716836808
30
0
41
1
10
28.2752787978824
20
-0.243869001383899
30
0
41
1
10
27.857624415483
20
0.001482331075664
30
0
41
1
10
27.229381246291
20
0.368896130765336
30
0
41
1
10
27.0196583255118
20
0.491275825976402
30
0
41
1
10
26.601195173766
20
0.734294448544887
30
0
41
1
10
26.3922400238758
20
0.855093503780097
30
0
41
1
10
25.7654710137153
20
1.21413315539252
30
0
41
1
10
25.3478174529023
20
1.44912864721908
30
0
41
1
10
24.719757307635
20
1.79197819234915
30
0
41
1
10
24.5099610924128
20
1.90474669399745
30
0
41
1
10
24.0912566093918
20
2.12567322481797
30
0
41
1
10
23.8821913156634
20
2.23393666770753
30
0
41
1
10
23.2552798938272
20
2.55128417537293
30
0
41
1
10
22.8376975933589
20
2.7528985691097
30
0
41
1
10
22.209908293945
20
3.03759025114039
30
0
41
1
10
22.0001659672427
20
3.12961003162326
30
0
41
1
10
21.5812176902951
20
3.30667861500518
30
0
41
1
10
21.3720167079912
20
3.3917225325045
30
0
41
1
10
20.7448525192897
20
3.63599299355758
30
0
41
1
10
20.3273629718395
20
3.78437831329023
30
0
41
1
10
19.4905657115828
20
4.04895754435356
30
0
41
1
10
19.0708160712793
20
4.16517913966453
30
0
41
1
10
18.2342914283576
20
4.36144606512241
30
0
41
1
10
17.8167537580239
20
4.44184388107439
30
0
41
1
10
16.9801521850082
20
4.56541359407089
30
0
41
1
10
16.5603431733114
20
4.6085762418748
30
0
41
1
10
15.8806622456588
20
4.64718714866092
30
0
41
1
10
15.6196137163235
20
4.65452424634563
30
0
41
1
10
15.3585716846563
20
4.65434212865554
30
0
0
SPLINE
5
DD
100
AcDbEntity
8
1
62
256
6
ByLayer
370
18
48
1
60
0
100
AcDbSpline
70
4
71
3
72
8
73
4
40
0
40
0
40
0
40
0
40
1
40
1
40
1
40
1
41
1
10
91.4315065695164
20
-4.46011055698284
30
0
41
1
10
91.4068297976795
20
-4.47796945362933
30
0
41
1
10
91.3852706183344
20
-4.48696779847361
30
0
41
1
10
91.3668843316647
20
-4.48694842210912
30
0
0
SPLINE
5
DE
100
AcDbEntity
8
1
62
256
6
ByLayer
370
18
48
1
60
0
100
AcDbSpline
70
4
71
3
72
18
73
14
40
0
40
0
40
0
40
0
40
0.139772697704936
40
0.139772697704936
40
0.52535239140563
40
0.52535239140563
40
0.718142238255977
40
0.718142238255977
40
0.814537161681149
40
0.814537161681149
40
0.91093208510632
40
0.91093208510632
40
1
40
1
40
1
40
1
41
1
10
27.8505597900426
20
0.0053006509937745
30
0
41
1
10
28.1550607290282
20
-0.168721911892305
30
0
41
1
10
28.4583526446685
20
-0.342116936641077
30
0
41
1
10
29.595689318171
20
-0.988183335846173
30
0
41
1
10
30.4251520125162
20
-1.45075523845418
30
0
41
1
10
31.6761009014942
20
-2.10203905906505
30
0
41
1
10
32.094234142766
20
-2.31201528765587
30
0
41
1
10
32.7250659399666
20
-2.6130136721886
30
0
41
1
10
32.9362993163901
20
-2.71115853176536
30
0
41
1
10
33.3568124131233
20
-2.9007286421932
30
0
41
1
10
33.5664354606035
20
-2.99233903947817
30
0
41
1
10
33.9689269995388
20
-3.16200806730708
30
0
41
1
10
34.1618520151358
20
-3.24059397573041
30
0
41
1
10
34.3545235820901
20
-3.31616322258898
30
0
0
SPLINE
5
DF
100
AcDbEntity
8
1
62
256
6
ByLayer
370
13
48
1
60
0
100
AcDbSpline
70
4
71
3
72
18
73
14
40
0
40
0
40
0
40
0
40
0.255907991291979
40
0.255907991291979
40
0.42229754466388
40
0.42229754466388
40
0.505492321349832
40
0.505492321349832
40
0.588687098035784
40
0.588687098035784
40
0.921466204779604
40
0.921466204779604
40
1
40
1
40
1
40
1
41
1
10
34.3545235819437
20
-3.31616322253157
30
0
41
1
10
34.9959373740566
20
-3.56773722466303
30
0
41
1
10
35.6345422983699
20
-3.78587879867612
30
0
41
1
10
36.6908375312097
20
-4.083404093523
30
0
41
1
10
37.1077622361202
20
-4.18448851945939
30
0
41
1
10
37.7362407412675
20
-4.31010391025248
30
0
41
1
10
37.9462118411599
20
-4.34766534162091
30
0
41
1
10
38.3674339337117
20
-4.41382689438149
30
0
41
1
10
38.578272635558
20
-4.4423410704795
30
0
41
1
10
39.6275319882329
20
-4.5608377800954
30
0
41
1
10
40.4583863232703
20
-4.5801731567467
30
0
41
1
10
41.4861207453108
20
-4.51202248510359
30
0
41
1
10
41.6824380891468
20
-4.49487596954907
30
0
41
1
10
41.8789585151925
20
-4.47361841043212
30
0
0
SPLINE
5
E0
100
AcDbEntity
8
1
62
256
6
ByLayer
370
18
48
1
60
0
100
AcDbSpline
70
4
71
3
72
20
73
16
40
0
40
0
40
0
40
0
40
0.143282813230351
40
0.143282813230351
40
0.226393287818632
40
0.226393287818632
40
0.309503762406912
40
0.309503762406912
40
0.475724711583472
40
0.475724711583472
40
0.808166609936589
40
0.808166609936589
40
0.974387559113148
40
0.974387559113148
40
1
40
1
40
1
40
1
41
1
10
77.8240677711556
20
0.0207207847392397
30
0
41
1
10
78.1825005249569
20
-0.185465086602562
30
0
41
1
10
78.5420497029647
20
-0.392423591649617
30
0
41
1
10
79.1131338755104
20
-0.718529230134891
30
0
41
1
10
79.3239574646766
20
-0.838256470012709
30
0
41
1
10
79.7440806907316
20
-1.07455785498479
30
0
41
1
10
79.9534410310729
20
-1.19129987385867
30
0
41
1
10
80.5798139029588
20
-1.5367493439571
30
0
41
1
10
80.9951638429342
20
-1.76060731948138
30
0
41
1
10
82.2385609307557
20
-2.40676490579526
30
0
41
1
10
83.0640440692575
20
-2.80343431643669
30
0
41
1
10
84.3116343527743
20
-3.3252935325296
30
0
41
1
10
84.7290399787893
20
-3.48706937561926
30
0
41
1
10
85.2140741835264
20
-3.65743848286422
30
0
41
1
10
85.278878243954
20
-3.67983781262322
30
0
41
1
10
85.3436835577734
20
-3.70186974679777
30
0
0
SPLINE
5
E1
100
AcDbEntity
8
1
62
256
6
ByLayer
370
13
48
1
60
0
100
AcDbSpline
70
4
71
3
72
16
73
12
40
0
40
0
40
0
40
0
40
0.0713824743769609
40
0.0713824743769609
40
0.174562199446185
40
0.174562199446185
40
0.587281099723088
40
0.587281099723088
40
0.793640549861544
40
0.793640549861544
40
1
40
1
40
1
40
1
41
1
10
85.3436835567861
20
-3.70186974646208
30
0
41
1
10
85.489166689101
20
-3.75132980777963
30
0
41
1
10
85.6346561381265
20
-3.79893830827709
30
0
41
1
10
85.9892424677817
20
-3.91027938813028
30
0
41
1
10
86.1982542256951
20
-3.97191661730875
30
0
41
1
10
87.2412862105253
20
-4.25879084901942
30
0
41
1
10
88.0693005121993
20
-4.42005309226903
30
0
41
1
10
89.3165148643848
20
-4.5517877217008
30
0
41
1
10
89.7331558874032
20
-4.57739098255354
30
0
41
1
10
90.5707820455696
20
-4.59053781190605
30
0
41
1
10
90.9923938043181
20
-4.57758136810671
30
0
41
1
10
91.4130747813902
20
-4.5460645096463
30
0
0
SPLINE
5
E2
100
AcDbEntity
8
1
62
256
6
ByLayer
370
18
48
1
60
0
100
AcDbSpline
70
4
71
3
72
22
73
18
40
0
40
0
40
0
40
0
40
0.249999999999985
40
0.249999999999985
40
0.49999999999997
40
0.49999999999997
40
0.624999999999962
40
0.624999999999962
40
0.749999999999955
40
0.749999999999955
40
0.812499999999966
40
0.812499999999966
40
0.874999999999977
40
0.874999999999977
40
0.937499999999989
40
0.937499999999989
40
1
40
1
40
1
40
1
41
1
10
91.1350825443603
20
1.39036201211314
30
0
41
1
10
91.2683139689085
20
1.42050472639008
30
0
41
1
10
91.4001703616954
20
1.45493469926947
30
0
41
1
10
91.6587494166499
20
1.53862102416917
30
0
41
1
10
91.7865653014143
20
1.58788778273907
30
0
41
1
10
91.9663142774039
20
1.68307300740244
30
0
41
1
10
92.0245375289054
20
1.7186121398345
30
0
41
1
10
92.1328970819473
20
1.80068664254887
30
0
41
1
10
92.1825095702363
20
1.8465970918426
30
0
41
1
10
92.2452695331986
20
1.92812143760563
30
0
41
1
10
92.2636516494772
20
1.95678482380009
30
0
41
1
10
92.2942918226948
20
2.01753891036267
30
0
41
1
10
92.3066340849406
20
2.05012549293713
30
0
41
1
10
92.3233801331718
20
2.116472635875
30
0
41
1
10
92.3279339189603
20
2.15027578544172
30
0
41
1
10
92.3297592196373
20
2.21909969416811
30
0
41
1
10
92.3269436408024
20
2.25385005609695
30
0
41
1
10
92.3212021872062
20
2.28753404546302
30
0
0
SPLINE
5
E3
100
AcDbEntity
8
1
62
256
6
ByLayer
370
18
48
1
60
0
100
AcDbSpline
70
4
71
3
72
32
73
28
40
0
40
0
40
0
40
0
40
0.0625
40
0.0625
40
0.125
40
0.1875
40
0.1875
40
0.25
40
0.25
40
0.375
40
0.375
40
0.4375
40
0.4375
40
0.46875
40
0.46875
40
0.5
40
0.5
40
0.625
40
0.625
40
0.6875
40
0.6875
40
0.75
40
0.8125
40
0.8125
40
0.875
40
0.875
40
1
40
1
40
1
40
1
41
1
10
11.0027903240865
20
-3.90684034199782
30
0
41
1
10
11.0027900596381
20
-3.82063139095783
30
0
41
1
10
11.0027893344785
20
-3.72725795453155
30
0
41
1
10
11.0027871947888
20
-3.52936320601381
30
0
41
1
10
11.0027843726473
20
-3.32023687161447
30
0
41
1
10
11.0027806255578
20
-3.08917885925249
30
0
41
1
10
11.0027766222057
20
-2.84707936614265
30
0
41
1
10
11.0027744878178
20
-2.72024840682809
30
0
41
1
10
11.0027680291544
20
-2.32420416050138
30
0
41
1
10
11.0027637807344
20
-2.04663125079242
30
0
41
1
10
11.0027585566793
20
-1.61069865151487
30
0
41
1
10
11.0027570038209
20
-1.46209997100505
30
0
41
1
10
11.0027550726535
20
-1.23413029820512
30
0
41
1
10
11.0027544943658
20
-1.15711173396426
30
0
41
1
10
11.0027534984912
20
-1.00301167264962
30
0
41
1
10
11.0027530792609
20
-0.925777205609904
30
0
41
1
10
11.0027514000913
20
-0.538699309070694
30
0
41
1
10
11.0027514021967
20
-0.226166844822359
30
0
41
1
10
11.0027537290108
20
0.246958883336276
30
0
41
1
10
11.0027549004936
20
0.406247824835248
30
0
41
1
10
11.0027579682871
20
0.719996978222667
30
0
41
1
10
11.0027617560371
20
1.02978769221676
30
0
41
1
10
11.0027668460005
20
1.33183970255024
30
0
41
1
10
11.002772499936
20
1.62999108872211
30
0
41
1
10
11.0027756191532
20
1.77754824585708
30
0
41
1
10
11.0027855916999
20
2.21131658978788
30
0
41
1
10
11.0027929125403
20
2.48251899830714
30
0
41
1
10
11.0028001985488
20
2.73635984129166
30
0
0
SPLINE
5
E4
100
AcDbEntity
8
1
62
256
6
ByLayer
370
18
48
1
60
0
100
AcDbSpline
70
4
71
3
72
14
73
10
40
0
40
0
40
0
40
0
40
0.309713793967603
40
0.309713793967603
40
0.783652840868679
40
0.783652840868679
40
0.90213760259395
40
0.90213760259395
40
1
40
1
40
1
40
1
41
1
10
90.5628690094832
20
-4.48659749177693
30
0
41
1
10
90.018777020962
20
-4.48638546566264
30
0
41
1
10
89.4779449751923
20
-4.45461533950188
30
0
41
1
10
88.1113715895128
20
-4.29786291273814
30
0
41
1
10
87.2863886396113
20
-4.13215326125132
30
0
41
1
10
86.2452600953739
20
-3.84207597468932
30
0
41
1
10
86.0365335174317
20
-3.77991675933194
30
0
41
1
10
85.6541908892712
20
-3.65900255490195
30
0
41
1
10
85.4804653460847
20
-3.60141909507658
30
0
41
1
10
85.3068593688076
20
-3.54134877188946
30
0
0
SPLINE
5
E5
100
AcDbEntity
8
1
62
256
6
ByLayer
370
13
48
1
60
0
100
AcDbSpline
70
4
71
3
72
22
73
18
40
0
40
0
40
0
40
0
40
0.0098993438517839
40
0.0098993438517839
40
0.123651712803312
40
0.123651712803312
40
0.351156450706369
40
0.351156450706369
40
0.464908819657896
40
0.464908819657896
40
0.521785004133659
40
0.521785004133659
40
0.578661188609423
40
0.578661188609423
40
0.806165926512479
40
0.806165926512479
40
1
40
1
40
1
40
1
41
1
10
85.3068593688233
20
-3.54134877189492
30
0
41
1
10
85.2702756982122
20
-3.52869026236982
30
0
41
1
10
85.2336973370882
20
-3.51592132028662
30
0
41
1
10
84.7769717852955
20
-3.35509336536163
30
0
41
1
10
84.3595886392602
20
-3.19351301250359
30
0
41
1
10
83.1119308707129
20
-2.6737239607356
30
0
41
1
10
82.2861790683854
20
-2.28044767758837
30
0
41
1
10
81.0425189552865
20
-1.64249013962709
30
0
41
1
10
80.6271229651621
20
-1.42185748649635
30
0
41
1
10
80.0007878184862
20
-1.08199469813539
30
0
41
1
10
79.7914603566893
20
-0.967233115231096
30
0
41
1
10
79.3714294653399
20
-0.735183348542108
30
0
41
1
10
79.1606684199557
20
-0.617764327537543
30
0
41
1
10
78.1125912978084
20
-0.0309613821882522
30
0
41
1
10
77.284012329176
20
0.440373553069122
30
0
41
1
10
75.7503562108477
20
1.28577640262281
30
0
41
1
10
75.0452734489526
20
1.66413924166511
30
0
41
1
10
74.3343550434136
20
2.02077803875832
30
0
0
SPLINE
5
E6
100
AcDbEntity
8
1
62
256
6
ByLayer
370
18
48
1
60
0
100
AcDbSpline
70
4
71
3
72
16
73
12
40
0
40
0
40
0
40
0
40
0.336951935799463
40
0.336951935799463
40
0.460194736073124
40
0.460194736073124
40
0.583437536346783
40
0.583437536346783
40
0.829923136894095
40
0.829923136894095
40
1
40
1
40
1
40
1
41
1
10
40.548710136025
20
-4.45650450320923
30
0
41
1
10
39.9799350539869
20
-4.45565437381779
30
0
41
1
10
39.4101581970087
20
-4.42060824425474
30
0
41
1
10
38.6266256903512
20
-4.32579946944907
30
0
41
1
10
38.4158455272936
20
-4.29571717585534
30
0
41
1
10
37.9947479242797
20
-4.22667543140795
30
0
41
1
10
37.7848217766323
20
-4.18779995049894
30
0
41
1
10
37.1564303163374
20
-4.05860819364764
30
0
41
1
10
36.7394601742089
20
-3.95563759538391
30
0
41
1
10
36.0359742603239
20
-3.75527075675007
30
0
41
1
10
35.7490529514641
20
-3.66608839444925
30
0
41
1
10
35.4620511508417
20
-3.56993921656729
30
0
0
SPLINE
5
E7
100
AcDbEntity
8
1
62
256
6
ByLayer
370
13
48
1
60
0
100
AcDbSpline
70
4
71
3
72
24
73
20
40
0
40
0
40
0
40
0
40
0.143734235531246
40
0.143734235531246
40
0.198594936374001
40
0.198594936374001
40
0.253455637216757
40
0.253455637216757
40
0.363177038902271
40
0.363177038902271
40
0.582619842273303
40
0.582619842273303
40
0.692341243958818
40
0.692341243958818
40
0.747201944801575
40
0.747201944801575
40
0.802062645644331
40
0.802062645644331
40
1
40
1
40
1
40
1
41
1
10
35.4620511510119
20
-3.56993921662433
30
0
41
1
10
34.9171724724496
20
-3.38739807272182
30
0
41
1
10
34.3720036711128
20
-3.17974588883413
30
0
41
1
10
33.6147315831533
20
-2.86200312222789
30
0
41
1
10
33.4051275723605
20
-2.77094779080827
30
0
41
1
10
32.9846841840044
20
-2.58279516886034
30
0
41
1
10
32.7735168295712
20
-2.48552349349532
30
0
41
1
10
32.1428128754424
20
-2.18747130096475
30
0
41
1
10
31.7247043510816
20
-1.97991352609895
30
0
41
1
10
30.4737056665467
20
-1.33725125683407
30
0
41
1
10
29.6439849895458
20
-0.882364977791383
30
0
41
1
10
28.3918103422967
20
-0.185165681390288
30
0
41
1
10
27.9731492553017
20
0.0496866431791148
30
0
41
1
10
27.3412673367482
20
0.402152489935929
30
0
41
1
10
27.1303906415174
20
0.519447786728051
30
0
41
1
10
26.7105122670346
20
0.751661146130061
30
0
41
1
10
26.5011604267477
20
0.866875927029213
30
0
41
1
10
25.5381805865922
20
1.39200121797322
30
0
41
1
10
24.7889697542453
20
1.78671202191319
30
0
41
1
10
24.0378418355202
20
2.15371816446219
30
0
0
SPLINE
5
E8
100
AcDbEntity
8
1
62
256
6
ByLayer
370
13
48
1
60
0
100
AcDbSpline
70
4
71
3
72
8
73
4
40
0
40
0
40
0
40
0
40
1
40
1
40
1
40
1
41
1
10
11.0074602283701
20
-3.92716436082057
30
0
41
1
10
11.0231798722399
20
-3.92779076285038
30
0
41
1
10
11.0635971037052
20
-3.92794105090283
30
0
41
1
10
11.1258027821646
20
-3.92793295664166
30
0
0
SPLINE
5
E9
100
AcDbEntity
8
1
62
256
6
ByLayer
370
13
48
1
60
0
100
AcDbSpline
70
4
71
3
72
30
73
26
40
0
40
0
40
0
40
0
40
0.125
40
0.125
40
0.1875
40
0.1875
40
0.25
40
0.3125
40
0.3125
40
0.375
40
0.375
40
0.5
40
0.5
40
0.5625
40
0.5625
40
0.625
40
0.625
40
0.6875
40
0.6875
40
0.75
40
0.8125
40
0.8125
40
0.875
40
0.875
40
1
40
1
40
1
40
1
41
1
10
11.2502313325013
20
-3.80326874773951
30
0
41
1
10
11.2502276422617
20
-3.64451777702072
30
0
41
1
10
11.2502128925467
20
-3.46048851019052
30
0
41
1
10
11.2501817781695
20
-3.14679028980262
30
0
41
1
10
11.2501699390921
20
-3.03629994282903
30
0
41
1
10
11.2501450236614
20
-2.80693645058596
30
0
41
1
10
11.2501187824972
20
-2.56830603734153
30
0
41
1
10
11.2500923951252
20
-2.3113471009633
30
0
41
1
10
11.2500671188731
20
-2.04503258924748
30
0
41
1
10
11.2500550007714
20
-1.9065781759351
30
0
41
1
10
11.2500227285948
20
-1.48614678541367
30
0
41
1
10
11.2500064421612
20
-1.19675773265774
30
0
41
1
10
11.2499943472178
20
-0.749128959290317
30
0
41
1
10
11.2499923619432
20
-0.597018481837068
30
0
41
1
10
11.2499930694397
20
-0.291251289474502
30
0
41
1
10
11.2499957409656
20
-0.138032072942337
30
0
41
1
10
11.2500058661052
20
0.169076286471324
30
0
41
1
10
11.2500133480213
20
0.323056794855773
30
0
41
1
10
11.2500327263641
20
0.626944646396055
30
0
41
1
10
11.25005654399
20
0.927965542071803
30
0
41
1
10
11.2500884231537
20
1.22329546945667
30
0
41
1
10
11.2501237948056
20
1.51570892694392
30
0
41
1
10
11.2501430404496
20
1.65885868676136
30
0
41
1
10
11.2502034890803
20
2.0753684546421
30
0
41
1
10
11.2502476789352
20
2.33771796413271
30
0
41
1
10
11.2502914461789
20
2.58472420141808
30
0
0
SPLINE
5
EA
100
AcDbEntity
8
1
62
256
6
ByLayer
370
18
48
1
60
0
100
AcDbSpline
70
4
71
3
72
8
73
4
40
0
40
0
40
0
40
0
40
1
40
1
40
1
40
1
41
1
10
91.369653670917
20
-4.66215093794162
30
0
41
1
10
91.3841424540094
20
-4.6234815076829
30
0
41
1
10
91.3986165691027
20
-4.58478492277337
30
0
41
1
10
91.4130747814096
20
-4.5460645096548
30
0
0
SPLINE
5
EB
100
AcDbEntity
8
SK1
62
256
6
ByLayer
370
18
48
1
60
0
100
AcDbSpline
70
4
71
3
72
14
73
10
40
0
40
0
40
0
40
0
40
0.125000000000003
40
0.125000000000003
40
0.250000000000006
40
0.250000000000006
40
0.500000000000007
40
0.500000000000007
40
1
40
1
40
1
40
1
41
1
10
-38.85
20
-0.328979570526116
30
0
41
1
10
-38.85
20
-0.317970658776346
30
0
41
1
10
-38.8517453396944
20
-0.306931698854413
30
0
41
1
10
-38.8568901241517
20
-0.286836159252601
30
0
41
1
10
-38.860211966304
20
-0.277793943950258
30
0
41
1
10
-38.8714485682308
20
-0.252372668533809
30
0
41
1
10
-38.8802054040538
20
-0.23852890454981
30
0
41
1
10
-38.9082792076556
20
-0.201794864406224
30
0
41
1
10
-38.9286347141249
20
-0.184720842703115
30
0
41
1
10
-38.95
20
-0.17345532482247
30
0
0
SPLINE
5
EC
100
AcDbEntity
8
SK1
62
256
6
ByLayer
370
18
48
1
60
0
100
AcDbSpline
70
4
71
3
72
10
73
6
40
0
40
0
40
0
40
0
40
0.5
40
0.5
40
1
40
1
40
1
40
1
41
1
10
-40
20
-1.9965584665095
30
0
41
1
10
-39.830059096535
20
-2.09175492756484
30
0
41
1
10
-39.6562413562588
20
-2.18634190573854
30
0
41
1
10
-39.3053186895881
20
-2.37499907900599
30
0
41
1
10
-39.1281072178693
20
-2.46905252396181
30
0
41
1
10
-38.95
20
-2.56296514742536
30
0
0
SPLINE
5
ED
100
AcDbEntity
8
SK1
62
256
6
ByLayer
370
18
48
1
60
0
100
AcDbSpline
70
4
71
3
72
10
73
6
40
0
40
0
40
0
40
0
40
0.278085708975523
40
0.278085708975523
40
1
40
1
40
1
40
1
41
1
10
-39.2772821256791
20
5.44105949132E-05
30
0
41
1
10
-39.3453438467422
20
-0.0362088346126654
30
0
41
1
10
-39.4131957849267
20
-0.0725058082273904
30
0
41
1
10
-39.6562580797347
20
-0.203176945435359
30
0
41
1
10
-39.8300762630147
20
-0.297764511252183
30
0
41
1
10
-40
20
-0.392951356093391
30
0
0
SPLINE
5
EE
100
AcDbEntity
8
SK1
62
256
6
ByLayer
370
18
48
1
60
0
100
AcDbSpline
70
4
71
3
72
14
73
10
40
0
40
0
40
0
40
0
40
0.500000000000008
40
0.500000000000008
40
0.750000000000009
40
0.750000000000009
40
0.875000000000004
40
0.875000000000004
40
1
40
1
40
1
40
1
41
1
10
-38.9500000000001
20
-2.56296514742547
30
0
41
1
10
-38.9287234691649
20
-2.57418386642428
30
0
41
1
10
-38.9083432483059
20
-2.579581168077
30
0
41
1
10
-38.880223151313
20
-2.57561485766266
30
0
41
1
10
-38.8713218079587
20
-2.57219271584293
30
0
41
1
10
-38.8602667834558
20
-2.56151594636859
30
0
41
1
10
-38.8569157654531
20
-2.55698675514924
30
0
41
1
10
-38.851744720606
20
-2.5446691087196
30
0
41
1
10
-38.8499999999999
20
-2.53686556775767
30
0
41
1
10
-38.8499999999999
20
-2.52732860732087
30
0
0
SPLINE
5
EF
100
AcDbEntity
8
SK1
62
256
6
ByLayer
370
18
48
1
60
0
100
AcDbSpline
70
4
71
3
72
10
73
6
40
0
40
0
40
0
40
0
40
0.5
40
0.5
40
1
40
1
40
1
40
1
41
1
10
-38.95
20
-0.17345532482247
30
0
41
1
10
-39.1280968638541
20
-0.0795481608385558
30
0
41
1
10
-39.3053177912725
20
0.0145102226856579
30
0
41
1
10
-39.6562580797347
20
0.203176945435331
30
0
41
1
10
-39.8300762630147
20
0.297764511252154
30
0
41
1
10
-40
20
0.392951356093391
30
0
0
LINE
5
76
100
AcDbEntity
8
81
62
256
6
ByLayer
370
18
48
1
60
0
100
AcDbLine
10
93
20
0
30
0
11
98
21
0
31
0
39
0
210
0
220
0
230
1
0
LINE
5
77
100
AcDbEntity
8
1
62
256
6
ByLayer
370
18
48
1
60
0
100
AcDbLine
10
15.359908
20
4.654345
30
0
11
1.004548
21
4.645732
31
0
39
0
210
0
220
0
230
1
0
LINE
5
79
100
AcDbEntity
8
1
62
256
6
ByLayer
370
18
48
1
60
0
100
AcDbLine
10
40.360263
20
4.669346
30
0
11
39.63508
21
4.66891
31
0
39
0
210
0
220
0
230
1
0
LINE
5
7A
100
AcDbEntity
8
1
62
256
6
ByLayer
370
18
48
1
60
0
100
AcDbLine
10
65.359501
20
4.684345
30
0
11
64.640957
21
4.683914
31
0
39
0
210
0
220
0
230
1
0
LINE
5
7B
100
AcDbEntity
8
1
62
256
6
ByLayer
370
18
48
1
60
0
100
AcDbLine
10
64.640957
20
-4.683914
30
0
11
65.359746
21
-4.684345
31
0
39
0
210
0
220
0
230
1
0
LINE
5
7C
100
AcDbEntity
8
1
62
256
6
ByLayer
370
18
48
1
60
0
100
AcDbLine
10
39.63508
20
-4.66891
30
0
11
40.359892
21
-4.669345
31
0
39
0
210
0
220
0
230
1
0
LINE
5
7D
100
AcDbEntity
8
1
62
256
6
ByLayer
370
18
48
1
60
0
100
AcDbLine
10
1.004548
20
-4.645732
30
0
11
15.360103
21
-4.654346
31
0
39
0
210
0
220
0
230
1
0
LINE
5
7E
100
AcDbEntity
8
1
62
256
6
ByLayer
370
18
48
1
60
0
100
AcDbLine
10
90.359777
20
4.699345
30
0
11
89.64951
21
4.698919
31
0
39
0
210
0
220
0
230
1
0
LINE
5
7F
100
AcDbEntity
8
1
62
256
6
ByLayer
370
18
48
1
60
0
100
AcDbLine
10
89.64951
20
-4.698919
30
0
11
90.359508
21
-4.699345
31
0
39
0
210
0
220
0
230
1
0
LINE
5
80
100
AcDbEntity
8
SK1
62
256
6
ByLayer
370
18
48
1
60
0
100
AcDbLine
10
-38.845299
20
5
30
0
11
-40
21
3
31
0
39
0
210
0
220
0
230
1
0
LINE
5
82
100
AcDbEntity
8
SK1
62
256
6
ByLayer
370
18
48
1
60
0
100
AcDbLine
10
-40
20
-3
30
0
11
-38.845299
21
-5
31
0
39
0
210
0
220
0
230
1
0
LINE
5
83
100
AcDbEntity
8
SK1
62
256
6
ByLayer
370
18
48
1
60
0
100
AcDbLine
10
0
20
5
30
0
11
-38.845299
21
5
31
0
39
0
210
0
220
0
230
1
0
LINE
5
84
100
AcDbEntity
8
SK1
62
256
6
ByLayer
370
18
48
1
60
0
100
AcDbLine
10
-38.845299
20
-5
30
0
11
0
21
-5
31
0
39
0
210
0
220
0
230
1
0
LINE
5
85
100
AcDbEntity
8
SK4
62
256
6
ByLayer
370
18
48
0.05
60
0
100
AcDbLine
10
98
20
0
30
0
11
-45
21
0
31
0
39
0
210
0
220
0
230
1
0
LINE
5
87
100
AcDbEntity
8
4
62
256
6
ByLayer
370
18
48
0.05
60
0
100
AcDbLine
10
93
20
0
30
0
11
0
21
0
31
0
39
0
210
0
220
0
230
1
0
LINE
5
89
100
AcDbEntity
8
80
62
256
6
ByLayer
370
18
48
1
60
0
100
AcDbLine
10
0
20
0
30
0
11
-5
21
0
31
0
39
0
210
0
220
0
230
1
0
LINE
5
8A
100
AcDbEntity
8
1
62
256
6
ByLayer
370
13
48
1
60
0
100
AcDbLine
10
91.972956
20
0.867715
30
0
11
92.914111
21
0.309296
31
0
39
0
210
0
220
0
230
1
0
LINE
5
8B
100
AcDbEntity
8
1
62
256
6
ByLayer
370
18
48
1
60
0
100
AcDbLine
10
93
20
0
30
0
11
91.366884
21
-4.486948
31
0
39
0
210
0
220
0
230
1
0
LINE
5
8C
100
AcDbEntity
8
1
62
256
6
ByLayer
370
18
48
1
60
0
100
AcDbLine
10
90.654303
20
-2.441332
30
0
11
92.894563
21
-0.127113
31
0
39
0
210
0
220
0
230
1
0
LINE
5
8D
100
AcDbEntity
8
1
62
256
6
ByLayer
370
13
48
1
60
0
100
AcDbLine
10
92.773322
20
0.867715
30
0
11
91.972956
21
0.867715
31
0
39
0
210
0
220
0
230
1
0
LINE
5
8E
100
AcDbEntity
8
1
62
256
6
ByLayer
370
13
48
1
60
0
100
AcDbLine
10
0.502034
20
4.822866
30
0
11
0.502034
21
-4.822866
31
0
39
0
210
0
220
0
230
1
0
LINE
5
8F
100
AcDbEntity
8
1
62
256
6
ByLayer
370
18
48
1
60
0
100
AcDbLine
10
93
20
0
30
0
11
92.990774
21
-0.045931
31
0
39
0
210
0
220
0
230
1
0
LINE
5
90
100
AcDbEntity
8
1
62
256
6
ByLayer
370
13
48
1
60
0
100
AcDbLine
10
1.004548
20
4.645732
30
0
11
1.004548
21
-4.645732
31
0
39
0
210
0
220
0
230
1
0
LINE
5
91
100
AcDbEntity
8
1
62
256
6
ByLayer
370
18
48
1
60
0
100
AcDbLine
10
92.990774
20
0.045931
30
0
11
93
21
0
31
0
39
0
210
0
220
0
230
1
0
LINE
5
92
100
AcDbEntity
8
1
62
256
6
ByLayer
370
18
48
1
60
0
100
AcDbLine
10
0
20
-5
30
0
11
0
21
5
31
0
39
0
210
0
220
0
230
1
0
LINE
5
93
100
AcDbEntity
8
1
62
256
6
ByLayer
370
13
48
1
60
0
100
AcDbLine
10
91.783049
20
0.532385
30
0
11
92.894563
21
-0.127113
31
0
39
0
210
0
220
0
230
1
0
LINE
5
94
100
AcDbEntity
8
1
62
256
6
ByLayer
370
18
48
1
60
0
100
AcDbLine
10
92.914111
20
-0.309296
30
0
11
92.773322
21
-0.867715
31
0
39
0
210
0
220
0
230
1
0
LINE
5
95
100
AcDbEntity
8
1
62
256
6
ByLayer
370
18
48
1
60
0
100
AcDbLine
10
92.914111
20
0.309296
30
0
11
92.773322
21
0.867715
31
0
39
0
210
0
220
0
230
1
0
LINE
5
96
100
AcDbEntity
8
SK1
62
256
6
ByLayer
370
18
48
1
60
0
100
AcDbLine
10
-40
20
3
30
0
11
-40
21
0.392951
31
0
39
0
210
0
220
0
230
1
0
LINE
5
97
100
AcDbEntity
8
SK1
62
256
6
ByLayer
370
18
48
1
60
0
100
AcDbLine
10
-38.845299
20
5
30
0
11
-38.845299
21
-5
31
0
39
0
210
0
220
0
230
1
0
LINE
5
98
100
AcDbEntity
8
SK1
62
256
6
ByLayer
370
13
48
1
60
0
100
AcDbLine
10
-38.95
20
-0.173471
30
0
11
-38.95
21
-2.562965
31
0
39
0
210
0
220
0
230
1
0
LINE
5
99
100
AcDbEntity
8
SK1
62
256
6
ByLayer
370
18
48
1
60
0
100
AcDbLine
10
-38.85
20
-2.527329
30
0
11
-38.85
21
-0.32898
31
0
39
0
210
0
220
0
230
1
0
LINE
5
9A
100
AcDbEntity
8
SK1
62
256
6
ByLayer
370
18
48
1
60
0
100
AcDbLine
10
-40
20
-3
30
0
11
-40
21
-1.996558
31
0
39
0
210
0
220
0
230
1
0
LINE
5
9B
100
AcDbEntity
8
SK1
62
256
6
ByLayer
370
18
48
1
60
0
100
AcDbLine
10
0
20
-5
30
0
11
0
21
5
31
0
39
0
210
0
220
0
230
1
0
LINE
5
9C
100
AcDbEntity
8
SK1
62
256
6
ByLayer
370
18
48
1
60
0
100
AcDbLine
10
-40
20
-0.392951
30
0
11
-40
21
-1.996558
31
0
39
0
210
0
220
0
230
1
0
MTEXT
5
F0
100
AcDbEntity
8
SK6
62
256
6
ByLayer
370
13
48
1
60
0
100
AcDbMText
10
28.629169
20
37.082694
30
0
210
0
220
0
230
1
1
\W0.7598;R840-0940-70-A1A1220
40
3.5
41
0
44
1.084337
50
0
71
8
72
5
7
iso_b_vert
0
DIMENSION
5
FD
100
AcDbEntity
8
SK2
62
256
6
ByLayer
370
13
48
1
60
0
100
AcDbDimension
2
DimnDraft3D1
10
91.39
20
-14.913398
30
0
11
44.140059
21
-14.913398
31
0
70
32
71
5
72
1
41
1
210
0
220
0
230
1
3
Standard
100
AcDbAlignedDimension
13
0
23
-1.5875
33
0
14
91.39
24
-6.2875
34
0
50
0
100
AcDbRotatedDimension
1001
ACAD
1000
DSTYLE
1002
{
1070
   279
1070
     0
1070
   172
1070
     1
1070
   173
1070
     1
1070
   340
1005
F1
1070
   271
1070
     2
1070
   272
1070
     2
1070
    77
1070
     1
1070
    73
1070
     0
1070
   171
1070
     3
1070
   274
1070
     4
1070
   177
1070
    35
1070
   176
1070
    35
1070
   178
1070
    35
1070
    48
1040
-0.005
1070
    41
1041
3.5
1070
   147
1041
1.75
1070
    42
1041
1.5875
1070
    44
1041
2.0
1070
   140
1041
3.5
1070
   343
1005
0
1070
   344
1005
0
1002
}
0
DIMENSION
5
107
100
AcDbEntity
8
SK2
62
256
6
ByLayer
370
13
48
1
60
0
100
AcDbDimension
2
DimnDraft3D2
10
93
20
-33.692985
30
0
11
26.2313
21
-33.692985
31
0
70
32
71
5
72
1
41
1
210
0
220
0
230
1
3
Standard
100
AcDbAlignedDimension
13
-40
23
-6.5875
33
0
14
93
24
-1.5875
34
0
50
0
100
AcDbRotatedDimension
1001
ACAD
1000
DSTYLE
1002
{
1070
   279
1070
     0
1070
   172
1070
     1
1070
   173
1070
     1
1070
   340
1005
F1
1070
   271
1070
     2
1070
   272
1070
     2
1070
    77
1070
     1
1070
    73
1070
     0
1070
   171
1070
     3
1070
   274
1070
     4
1070
   177
1070
    35
1070
   176
1070
    35
1070
   178
1070
    35
1070
    48
1040
-0.005
1070
    41
1041
3.5
1070
   147
1041
1.75
1070
    42
1041
1.5875
1070
    44
1041
2.0
1070
   140
1041
3.5
1070
   343
1005
0
1070
   344
1005
0
1002
}
0
DIMENSION
5
111
100
AcDbEntity
8
SK2
62
256
6
ByLayer
370
13
48
1
60
0
100
AcDbDimension
2
DimnDraft3D3
10
93
20
16.309119
30
0
11
54.595
21
16.309119
31
0
70
32
71
5
72
1
41
1
210
0
220
0
230
1
3
Standard
100
AcDbAlignedDimension
13
16.19
23
6.2875
33
0
14
93
24
1.5875
34
0
50
0
100
AcDbRotatedDimension
1001
ACAD
1000
DSTYLE
1002
{
1070
   279
1070
     0
1070
   172
1070
     1
1070
   173
1070
     1
1070
   340
1005
F1
1070
   271
1070
     2
1070
   272
1070
     2
1070
    77
1070
     1
1070
    73
1070
     0
1070
   171
1070
     3
1070
   274
1070
     4
1070
   177
1070
    35
1070
   176
1070
    35
1070
   178
1070
    35
1070
    48
1040
-0.005
1070
    41
1041
3.5
1070
   147
1041
1.75
1070
    42
1041
1.5875
1070
    44
1041
2.0
1070
   140
1041
3.5
1070
   343
1005
0
1070
   344
1005
0
1002
}
0
DIMENSION
5
11B
100
AcDbEntity
8
SK2
62
256
6
ByLayer
370
13
48
1
60
0
100
AcDbDimension
2
DimnDraft3D4
10
91.39
20
-17.502503
30
0
11
102.981425
21
-17.502503
31
0
70
32
71
5
72
1
41
1
210
0
220
0
230
1
3
Standard
100
AcDbAlignedDimension
13
93
23
-1.5875
33
0
14
91.39
24
-6.2875
34
0
50
0
100
AcDbRotatedDimension
1001
ACAD
1000
DSTYLE
1002
{
1070
   279
1070
     0
1070
   172
1070
     1
1070
   173
1070
     1
1070
   340
1005
F1
1070
   271
1070
     2
1070
   272
1070
     2
1070
    77
1070
     1
1070
    73
1070
     0
1070
   171
1070
     3
1070
   274
1070
     4
1070
   177
1070
    35
1070
   176
1070
    35
1070
   178
1070
    35
1070
    48
1040
-0.005
1070
    41
1041
3.5
1070
   147
1041
1.75
1070
    42
1041
1.5875
1070
    44
1041
2.0
1070
   140
1041
3.5
1070
   343
1005
0
1070
   344
1005
0
1002
}
0
DIMENSION
5
125
100
AcDbEntity
8
SK2
62
256
6
ByLayer
370
13
48
1
60
0
100
AcDbDimension
2
DimnDraft3D5
10
91.39
20
-23.343428
30
0
11
23.150676
21
-23.343428
31
0
70
32
71
5
72
1
41
1
210
0
220
0
230
1
3
Standard
100
AcDbAlignedDimension
13
-40
23
-6.5875
33
0
14
91.39
24
-6.2875
34
0
50
0
100
AcDbRotatedDimension
1001
ACAD
1000
DSTYLE
1002
{
1070
   279
1070
     0
1070
   172
1070
     1
1070
   173
1070
     1
1070
   340
1005
F1
1070
   271
1070
     2
1070
   272
1070
     2
1070
    77
1070
     1
1070
    73
1070
     0
1070
   171
1070
     3
1070
   274
1070
     4
1070
   177
1070
    35
1070
   176
1070
    35
1070
   178
1070
    35
1070
    48
1040
-0.005
1070
    41
1041
3.5
1070
   147
1041
1.75
1070
    42
1041
1.5875
1070
    44
1041
2.0
1070
   140
1041
3.5
1070
   343
1005
0
1070
   344
1005
0
1002
}
0
DIMENSION
5
130
100
AcDbEntity
8
SK2
62
256
6
ByLayer
370
13
48
1
60
0
100
AcDbDimension
2
DimnDraft3D6
10
-50.625163
20
5
30
0
11
-51.250163
21
23.47418
31
0
70
33
71
5
72
1
41
1
210
0
220
0
230
1
3
Standard
100
AcDbAlignedDimension
13
-41.5875
23
-5
33
0
14
-41.5875
24
5
34
0
1001
ACAD
1000
DSTYLE
1002
{
1070
   279
1070
     0
1070
    74
1070
     0
1070
   173
1070
     1
1070
   340
1005
F1
1070
   271
1070
     3
1070
   272
1070
     2
1070
    77
1070
     1
1070
    73
1070
     0
1070
   171
1070
     3
1070
   274
1070
     4
1070
   177
1070
    35
1070
   176
1070
    35
1070
   178
1070
    35
1070
    48
1040
-0.005
1070
    41
1041
3.5
1070
   147
1041
1.75
1070
    42
1041
1.5875
1070
    44
1041
2.0
1070
   140
1041
3.5
1070
   343
1005
0
1070
   344
1005
0
1002
}
0
DIMENSION
5
13B
100
AcDbEntity
8
2
62
256
6
ByLayer
370
13
48
1
60
0
100
AcDbDimension
2
DimnDraft3D7
10
107.083343
20
4.7
30
0
11
102.458343
21
21.767266
31
0
70
33
71
5
72
1
41
1
210
0
220
0
230
1
3
Standard
100
AcDbAlignedDimension
13
92.9775
23
-4.7
33
0
14
92.9775
24
4.7
34
0
1001
ACAD
1000
DSTYLE
1002
{
1070
   279
1070
     0
1070
    74
1070
     0
1070
   173
1070
     1
1070
   340
1005
F1
1070
   271
1070
     3
1070
   272
1070
     2
1070
    77
1070
     1
1070
    73
1070
     0
1070
   171
1070
     3
1070
   274
1070
     4
1070
   177
1070
    35
1070
   176
1070
    35
1070
   178
1070
    35
1070
    48
1040
-0.005
1070
    41
1041
3.5
1070
   147
1041
1.75
1070
    42
1041
1.5875
1070
    44
1041
2.0
1070
   140
1041
3.5
1070
   343
1005
0
1070
   344
1005
0
1002
}
0
ENDSEC
0
SECTION
2
OBJECTS
0
DICTIONARY
5
1a6
330
0
100
AcDbDictionary
280
0
281
1
3
ACAD_GROUP
350
1a7
3
ACAD_MLINESTYLE
350
1a8
0
DICTIONARY
5
1a7
330
0
100
AcDbDictionary
280
0
281
1
0
DICTIONARY
5
1a8
330
0
100
AcDbDictionary
280
0
281
1
3
Standard
350
18
0
MLINESTYLE
5
18
330
1a8
100
AcDbMlineStyle
2
Standard
70
0
3

62
256
51
90
52
90
71
2
49
-0.5
62
256
6
ByLayer
49
0.5
62
256
6
ByLayer
0
RASTERVARIABLES
5
194
330

100
AcDbRasterVariables
90
0
70
1
71
1
72
1
0
ENDSEC
0
EOF
