0
SECTION
2
HEADER
9
$ACADVER
1
AC1015
9
$DWGCODEPAGE
3
ANSI_1252
9
$HANDSEED
5
1b6
9
$ANGBASE
50
0
9
$ANGDIR
70
0
9
$ATTMODE
70
1
9
$AUNITS
70
0
9
$AUPREC
70
0
9
$CECOLOR
62
256
9
$CELTSCALE
40
1
9
$CELTYPE
6
ByLayer
9
$CELWEIGHT
370
18
9
$CLAYER
8
0
9
$CMLJUST
70
0
9
$CMLSCALE
40
1
9
$CMLSTYLE
2
Standard
9
$DIMSTYLE
2
Standard
9
$TEXTSIZE
40
0.2
9
$TEXTSTYLE
7
Standard
9
$LUNITS
70
2
9
$LUPREC
70
4
9
$EXTNAMES
290
1
9
$INSUNITS
70
4
9
$LTSCALE
40
1
9
$LWDISPLAY
290
1
9
$PDMODE
70
0
9
$PDSIZE
40
0
9
$PLINEGEN
70
0
0
ENDSEC
0
SECTION
2
CLASSES
0
CLASS
1
RASTERVARIABLES
2
AcDbRasterVariables
3
ISM
90
0
280
0
281
0
0
ENDSEC
0
SECTION
2
TABLES
0
TABLE
2
VPORT
5
1ac
100
AcDbSymbolTable
0
VPORT
5
1
100
AcDbSymbolTableRecord
100
AcDbViewportTableRecord
2
*Active
70
0
10
0
20
0
11
1
21
1
12
-1
22
1
13
0
23
0
14
0.5
24
0.5
15
10
25
10
16
0
26
0
36
1
17
0
27
0
37
0
0
ENDTAB
0
TABLE
2
LTYPE
5
1ad
100
AcDbSymbolTable
0
LTYPE
5
14
100
AcDbSymbolTableRecord
100
AcDbLinetypeTableRecord
70
0
2
ByBlock
3

72
65
73
0
40
0
0
LTYPE
5
15
100
AcDbSymbolTableRecord
100
AcDbLinetypeTableRecord
70
0
2
ByLayer
3

72
65
73
0
40
0
0
LTYPE
5
16
100
AcDbSymbolTableRecord
100
AcDbLinetypeTableRecord
70
0
2
CONTINUOUS
3
Solid line
72
65
73
0
40
0
0
LTYPE
5
6A
100
AcDbSymbolTableRecord
100
AcDbLinetypeTableRecord
70
0
2
CENTER
3
____ _ ____ _ ____ _ ____
72
65
73
4
40
47.5
49
22
74
0
49
-8.5
74
0
49
8.5
74
0
49
-8.5
74
0
0
LTYPE
5
6B
100
AcDbSymbolTableRecord
100
AcDbLinetypeTableRecord
70
0
2
DASHED
3
__ __ __ __ __ __ __ __ __
72
65
73
2
40
25.72
49
12.86
74
0
49
-12.86
74
0
0
ENDTAB
0
TABLE
2
LAYER
5
1ae
100
AcDbSymbolTable
0
LAYER
5
10
100
AcDbSymbolTableRecord
100
AcDbLayerTableRecord
2
0
70
0
62
7
6
CONTINUOUS
290
1
370
-3
390
0
0
LAYER
5
6D
100
AcDbSymbolTableRecord
100
AcDbLayerTableRecord
2
81
70
0
62
-3
6
CONTINUOUS
290
1
370
-3
390
0
0
LAYER
5
6F
100
AcDbSymbolTableRecord
100
AcDbLayerTableRecord
2
80
70
0
62
-6
6
CONTINUOUS
290
1
370
-3
390
0
0
LAYER
5
74
100
AcDbSymbolTableRecord
100
AcDbLayerTableRecord
2
2
70
0
62
7
6
CONTINUOUS
290
1
370
-3
390
0
0
LAYER
5
78
100
AcDbSymbolTableRecord
100
AcDbLayerTableRecord
2
1
70
0
62
4
6
CONTINUOUS
290
1
370
-3
390
0
0
LAYER
5
88
100
AcDbSymbolTableRecord
100
AcDbLayerTableRecord
2
4
70
0
62
-2
6
CENTER
290
1
370
-3
390
0
0
LAYER
5
198
100
AcDbSymbolTableRecord
100
AcDbLayerTableRecord
2
SK2
70
0
62
7
6
CONTINUOUS
290
1
370
-3
390
0
0
LAYER
5
199
100
AcDbSymbolTableRecord
100
AcDbLayerTableRecord
2
SK1
70
0
62
4
6
CONTINUOUS
290
1
370
-3
390
0
0
LAYER
5
19a
100
AcDbSymbolTableRecord
100
AcDbLayerTableRecord
2
SK4
70
0
62
2
6
CENTER
290
1
370
-3
390
0
0
LAYER
5
19b
100
AcDbSymbolTableRecord
100
AcDbLayerTableRecord
2
SK6
70
0
62
5
6
CONTINUOUS
290
1
370
-3
390
0
0
ENDTAB
0
TABLE
2
STYLE
5
1af
100
AcDbSymbolTable
0
STYLE
5
11
100
AcDbSymbolTableRecord
100
AcDbTextStyleTableRecord
2
Standard
3
txt
70
0
71
0
40
0
41
1
42
0
50
0
0
STYLE
5
F4
100
AcDbSymbolTableRecord
100
AcDbTextStyleTableRecord
2
iso_b_vert
3
simplex.shx
70
0
71
0
40
0
41
1
42
0
50
0
0
STYLE
5
F5
100
AcDbSymbolTableRecord
100
AcDbTextStyleTableRecord
2
DWGDirectTextStyle
3
simplex
70
0
71
0
40
0
41
1
42
0
50
0
0
ENDTAB
0
TABLE
2
DIMSTYLE
5
1b0
100
AcDbSymbolTable
100
AcDbDimStyleTable
0
DIMSTYLE
105
27
100
AcDbSymbolTableRecord
100
AcDbDimStyleTableRecord
2
Standard
70
0
3
<>
41
0.18
42
0.0625
44
0.18
140
0.18
147
0.09
73
0
74
0
77
1
271
2
275
0
278
52
280
0
340
11
0
ENDTAB
0
TABLE
2
VIEW
5
1b1
100
AcDbSymbolTable
0
ENDTAB
0
TABLE
2
UCS
5
1b2
100
AcDbSymbolTable
0
ENDTAB
0
TABLE
2
APPID
5
1b3
100
AcDbSymbolTable
0
APPID
5
12
100
AcDbSymbolTableRecord
100
AcDbRegAppTableRecord
2
ACAD
70
0
0
ENDTAB
0
TABLE
2
BLOCK_RECORD
5
1b4
100
AcDbSymbolTable
0
BLOCK_RECORD
5
1F
100
AcDbSymbolTableRecord
100
AcDbBlockTableRecord
2
*Model_Space
340
0
70
0
0
BLOCK_RECORD
5
1B
100
AcDbSymbolTableRecord
100
AcDbBlockTableRecord
2
*Paper_Space
340
0
70
0
0
BLOCK_RECORD
5
23
100
AcDbSymbolTableRecord
100
AcDbBlockTableRecord
2
*Paper_Space0
340
0
70
0
0
BLOCK_RECORD
5
F7
100
AcDbSymbolTableRecord
100
AcDbBlockTableRecord
2
DimnDraft3D1
340
0
70
0
0
BLOCK_RECORD
5
101
100
AcDbSymbolTableRecord
100
AcDbBlockTableRecord
2
DimnDraft3D2
340
0
70
0
0
BLOCK_RECORD
5
10B
100
AcDbSymbolTableRecord
100
AcDbBlockTableRecord
2
DimnDraft3D3
340
0
70
0
0
BLOCK_RECORD
5
115
100
AcDbSymbolTableRecord
100
AcDbBlockTableRecord
2
DimnDraft3D4
340
0
70
0
0
BLOCK_RECORD
5
11F
100
AcDbSymbolTableRecord
100
AcDbBlockTableRecord
2
DimnDraft3D5
340
0
70
0
0
BLOCK_RECORD
5
129
100
AcDbSymbolTableRecord
100
AcDbBlockTableRecord
2
DimnDraft3D6
340
0
70
0
0
BLOCK_RECORD
5
134
100
AcDbSymbolTableRecord
100
AcDbBlockTableRecord
2
DimnDraft3D7
340
0
70
0
0
ENDTAB
0
ENDSEC
0
SECTION
2
BLOCKS
0
BLOCK
5
20
100
AcDbEntity
8
0
100
AcDbBlockBegin
2
*Model_Space
70
0
10
0
20
0
30
0
3
*Model_Space
0
ENDBLK
5
21
100
AcDbEntity
8
0
100
AcDbBlockEnd
0
BLOCK
5
1C
100
AcDbEntity
8
0
100
AcDbBlockBegin
2
*Paper_Space
70
0
10
0
20
0
30
0
3
*Paper_Space
0
ENDBLK
5
1D
100
AcDbEntity
8
0
100
AcDbBlockEnd
0
BLOCK
5
24
100
AcDbEntity
8
0
100
AcDbBlockBegin
2
*Paper_Space0
70
0
10
0
20
0
30
0
3
*Paper_Space0
0
ENDBLK
5
25
100
AcDbEntity
8
0
100
AcDbBlockEnd
0
BLOCK
5
FE
100
AcDbEntity
8
0
100
AcDbBlockBegin
2
DimnDraft3D1
70
0
10
0
20
0
30
0
3
DimnDraft3D1
0
MTEXT
5
F8
100
AcDbEntity
8
SK2
62
256
6
ByLayer
370
13
48
1
60
0
100
AcDbMText
10
40.402164
20
-13.988398
30
0
210
0
220
0
230
1
1
\W0.6846;91,41
40
3.5
41
0
44
1.084337
50
0
71
7
72
5
7
iso_b_vert
0
LINE
5
F9
100
AcDbEntity
8
SK2
62
256
6
ByLayer
370
13
48
1
60
0
100
AcDbLine
10
0
20
-1.5875
30
0
11
0
21
-16.863398
31
0
39
0
210
0
220
0
230
1
0
LINE
5
FA
100
AcDbEntity
8
SK2
62
256
6
ByLayer
370
13
48
1
60
0
100
AcDbLine
10
91.41
20
-6.2375
30
0
11
91.41
21
-16.863398
31
0
39
0
210
0
220
0
230
1
0
LINE
5
FB
100
AcDbEntity
8
SK2
62
256
6
ByLayer
370
13
48
1
60
0
100
AcDbLine
10
0
20
-14.863398
30
0
11
91.41
21
-14.863398
31
0
39
0
210
0
220
0
230
1
0
SOLID
5
FC
100
AcDbEntity
8
SK2
62
256
6
ByLayer
370
13
48
1
60
0
100
AcDbTrace
10
0
20
-14.863398
30
0
11
3.499998
21
-14.402615
31
0
12
3.500002
22
-15.324182
32
0
13
0
23
-14.863398
33
0
39
0
210
0
220
0
230
1
0
SOLID
5
FD
100
AcDbEntity
8
SK2
62
256
6
ByLayer
370
13
48
1
60
0
100
AcDbTrace
10
91.41
20
-14.863398
30
0
11
87.910002
21
-15.324182
31
0
12
87.909998
22
-14.402615
32
0
13
91.41
23
-14.863398
33
0
39
0
210
0
220
0
230
1
0
ENDBLK
5
FF
100
AcDbEntity
8
0
100
AcDbBlockEnd
0
BLOCK
5
108
100
AcDbEntity
8
0
100
AcDbBlockBegin
2
DimnDraft3D2
70
0
10
0
20
0
30
0
3
DimnDraft3D2
0
MTEXT
5
102
100
AcDbEntity
8
SK2
62
256
6
ByLayer
370
13
48
1
60
0
100
AcDbMText
10
20.932221
20
-32.817985
30
0
210
0
220
0
230
1
1
\W0.6930;133,00
40
3.5
41
0
44
1.084337
50
0
71
7
72
5
7
iso_b_vert
0
LINE
5
103
100
AcDbEntity
8
SK2
62
256
6
ByLayer
370
13
48
1
60
0
100
AcDbLine
10
-40
20
-6.5875
30
0
11
-40
21
-35.692985
31
0
39
0
210
0
220
0
230
1
0
LINE
5
104
100
AcDbEntity
8
SK2
62
256
6
ByLayer
370
13
48
1
60
0
100
AcDbLine
10
93
20
-1.5875
30
0
11
93
21
-35.692985
31
0
39
0
210
0
220
0
230
1
0
LINE
5
105
100
AcDbEntity
8
SK2
62
256
6
ByLayer
370
13
48
1
60
0
100
AcDbLine
10
-40
20
-33.692985
30
0
11
93
21
-33.692985
31
0
39
0
210
0
220
0
230
1
0
SOLID
5
106
100
AcDbEntity
8
SK2
62
256
6
ByLayer
370
13
48
1
60
0
100
AcDbTrace
10
-40
20
-33.692985
30
0
11
-36.500002
21
-33.232202
31
0
12
-36.499998
22
-34.153769
32
0
13
-40
23
-33.692985
33
0
39
0
210
0
220
0
230
1
0
SOLID
5
107
100
AcDbEntity
8
SK2
62
256
6
ByLayer
370
13
48
1
60
0
100
AcDbTrace
10
93
20
-33.692985
30
0
11
89.500002
21
-34.153769
31
0
12
89.499998
22
-33.232202
32
0
13
93
23
-33.692985
33
0
39
0
210
0
220
0
230
1
0
ENDBLK
5
109
100
AcDbEntity
8
0
100
AcDbBlockEnd
0
BLOCK
5
112
100
AcDbEntity
8
0
100
AcDbBlockBegin
2
DimnDraft3D3
70
0
10
0
20
0
30
0
3
DimnDraft3D3
0
MTEXT
5
10C
100
AcDbEntity
8
SK2
62
256
6
ByLayer
370
13
48
1
60
0
100
AcDbMText
10
50.556316
20
17.134119
30
0
210
0
220
0
230
1
1
\W0.7402;75,99
40
3.5
41
0
44
1.084337
50
0
71
7
72
5
7
iso_b_vert
0
LINE
5
10D
100
AcDbEntity
8
SK2
62
256
6
ByLayer
370
13
48
1
60
0
100
AcDbLine
10
17.01
20
6.2375
30
0
11
17.01
21
18.259119
31
0
39
0
210
0
220
0
230
1
0
LINE
5
10E
100
AcDbEntity
8
SK2
62
256
6
ByLayer
370
13
48
1
60
0
100
AcDbLine
10
93
20
1.5875
30
0
11
93
21
18.259119
31
0
39
0
210
0
220
0
230
1
0
LINE
5
10F
100
AcDbEntity
8
SK2
62
256
6
ByLayer
370
13
48
1
60
0
100
AcDbLine
10
17.01
20
16.259119
30
0
11
93
21
16.259119
31
0
39
0
210
0
220
0
230
1
0
SOLID
5
110
100
AcDbEntity
8
SK2
62
256
6
ByLayer
370
13
48
1
60
0
100
AcDbTrace
10
17.01
20
16.259119
30
0
11
20.509998
21
16.719903
31
0
12
20.510002
22
15.798335
32
0
13
17.01
23
16.259119
33
0
39
0
210
0
220
0
230
1
0
SOLID
5
111
100
AcDbEntity
8
SK2
62
256
6
ByLayer
370
13
48
1
60
0
100
AcDbTrace
10
93
20
16.259119
30
0
11
89.500002
21
15.798335
31
0
12
89.499998
22
16.719903
32
0
13
93
23
16.259119
33
0
39
0
210
0
220
0
230
1
0
ENDBLK
5
113
100
AcDbEntity
8
0
100
AcDbBlockEnd
0
BLOCK
5
11C
100
AcDbEntity
8
0
100
AcDbBlockBegin
2
DimnDraft3D4
70
0
10
0
20
0
30
0
3
DimnDraft3D4
0
MTEXT
5
116
100
AcDbEntity
8
SK2
62
256
6
ByLayer
370
13
48
1
60
0
100
AcDbMText
10
100.278136
20
-16.577503
30
0
210
0
220
0
230
1
1
\W0.6463;1,59
40
3.5
41
0
44
1.084337
50
0
71
7
72
5
7
iso_b_vert
0
LINE
5
117
100
AcDbEntity
8
SK2
62
256
6
ByLayer
370
13
48
1
60
0
100
AcDbLine
10
93
20
-1.5875
30
0
11
93
21
-19.452503
31
0
39
0
210
0
220
0
230
1
0
LINE
5
118
100
AcDbEntity
8
SK2
62
256
6
ByLayer
370
13
48
1
60
0
100
AcDbLine
10
91.41
20
-6.2375
30
0
11
91.41
21
-19.452503
31
0
39
0
210
0
220
0
230
1
0
LINE
5
119
100
AcDbEntity
8
SK2
62
256
6
ByLayer
370
13
48
1
60
0
100
AcDbLine
10
82.66
20
-17.452503
30
0
11
106.559715
21
-17.452503
31
0
39
0
210
0
220
0
230
1
0
SOLID
5
11A
100
AcDbEntity
8
SK2
62
256
6
ByLayer
370
13
48
1
60
0
100
AcDbTrace
10
93
20
-17.452503
30
0
11
96.499998
21
-16.991719
31
0
12
96.500002
22
-17.913287
32
0
13
93
23
-17.452503
33
0
39
0
210
0
220
0
230
1
0
SOLID
5
11B
100
AcDbEntity
8
SK2
62
256
6
ByLayer
370
13
48
1
60
0
100
AcDbTrace
10
91.41
20
-17.452503
30
0
11
87.910002
21
-17.913287
31
0
12
87.909998
22
-16.991719
32
0
13
91.41
23
-17.452503
33
0
39
0
210
0
220
0
230
1
0
ENDBLK
5
11D
100
AcDbEntity
8
0
100
AcDbBlockEnd
0
BLOCK
5
126
100
AcDbEntity
8
0
100
AcDbBlockBegin
2
DimnDraft3D5
70
0
10
0
20
0
30
0
3
DimnDraft3D5
0
MTEXT
5
120
100
AcDbEntity
8
SK2
62
256
6
ByLayer
370
13
48
1
60
0
100
AcDbMText
10
18.542387
20
-22.468428
30
0
210
0
220
0
230
1
1
\W0.6530;131,41
40
3.5
41
0
44
1.084337
50
0
71
7
72
5
7
iso_b_vert
0
LINE
5
121
100
AcDbEntity
8
SK2
62
256
6
ByLayer
370
13
48
1
60
0
100
AcDbLine
10
-40
20
-6.5875
30
0
11
-40
21
-25.343428
31
0
39
0
210
0
220
0
230
1
0
LINE
5
122
100
AcDbEntity
8
SK2
62
256
6
ByLayer
370
13
48
1
60
0
100
AcDbLine
10
91.41
20
-6.2375
30
0
11
91.41
21
-25.343428
31
0
39
0
210
0
220
0
230
1
0
LINE
5
123
100
AcDbEntity
8
SK2
62
256
6
ByLayer
370
13
48
1
60
0
100
AcDbLine
10
-40
20
-23.343428
30
0
11
91.41
21
-23.343428
31
0
39
0
210
0
220
0
230
1
0
SOLID
5
124
100
AcDbEntity
8
SK2
62
256
6
ByLayer
370
13
48
1
60
0
100
AcDbTrace
10
-40
20
-23.343428
30
0
11
-36.500002
21
-22.882645
31
0
12
-36.499998
22
-23.804212
32
0
13
-40
23
-23.343428
33
0
39
0
210
0
220
0
230
1
0
SOLID
5
125
100
AcDbEntity
8
SK2
62
256
6
ByLayer
370
13
48
1
60
0
100
AcDbTrace
10
91.41
20
-23.343428
30
0
11
87.910002
21
-23.804212
31
0
12
87.909998
22
-22.882645
32
0
13
91.41
23
-23.343428
33
0
39
0
210
0
220
0
230
1
0
ENDBLK
5
127
100
AcDbEntity
8
0
100
AcDbBlockEnd
0
BLOCK
5
131
100
AcDbEntity
8
0
100
AcDbBlockBegin
2
DimnDraft3D6
70
0
10
0
20
0
30
0
3
DimnDraft3D6
0
MTEXT
5
12A
100
AcDbEntity
8
SK2
62
256
6
ByLayer
370
13
48
1
60
0
100
AcDbMText
10
-50.375163
20
24.34918
30
0
210
0
220
0
230
1
1
\W0.6930;10,000
40
3.5
41
0
44
1.084337
50
90
71
7
72
5
7
iso_b_vert
0
MTEXT
5
12B
100
AcDbEntity
8
SK2
62
256
6
ByLayer
370
13
48
1
60
0
100
AcDbMText
10
-50.375163
20
19.126524
30
0
210
0
220
0
230
1
1
%%c
40
3.5
41
0
44
1.084337
50
90
71
7
72
5
7
iso_b_vert
0
LINE
5
12C
100
AcDbEntity
8
SK2
62
256
6
ByLayer
370
13
48
1
60
0
100
AcDbLine
10
-41.5875
20
-5
30
0
11
-50.625163
21
-5
31
0
39
0
210
0
220
0
230
1
0
LINE
5
12D
100
AcDbEntity
8
SK2
62
256
6
ByLayer
370
13
48
1
60
0
100
AcDbLine
10
-41.5875
20
5
30
0
11
-50.625163
21
5
31
0
39
0
210
0
220
0
230
1
0
LINE
5
12E
100
AcDbEntity
8
SK2
62
256
6
ByLayer
370
13
48
1
60
0
100
AcDbLine
10
-48.625163
20
-5
30
0
11
-48.625163
21
35.862338
31
0
39
0
210
0
220
0
230
1
0
SOLID
5
12F
100
AcDbEntity
8
SK2
62
256
6
ByLayer
370
13
48
1
60
0
100
AcDbTrace
10
-48.625163
20
-5
30
0
11
-49.085946
21
-1.500002
31
0
12
-48.164379
22
-1.499998
32
0
13
-48.625163
23
-5
33
0
39
0
210
0
220
0
230
1
0
SOLID
5
130
100
AcDbEntity
8
SK2
62
256
6
ByLayer
370
13
48
1
60
0
100
AcDbTrace
10
-48.625163
20
5
30
0
11
-48.164379
21
1.500002
31
0
12
-49.085946
22
1.499998
32
0
13
-48.625163
23
5
33
0
39
0
210
0
220
0
230
1
0
ENDBLK
5
132
100
AcDbEntity
8
0
100
AcDbBlockEnd
0
BLOCK
5
13C
100
AcDbEntity
8
0
100
AcDbBlockBegin
2
DimnDraft3D7
70
0
10
0
20
0
30
0
3
DimnDraft3D7
0
MTEXT
5
135
100
AcDbEntity
8
2
62
256
6
ByLayer
370
13
48
1
60
0
100
AcDbMText
10
103.333343
20
22.592266
30
0
210
0
220
0
230
1
1
\W0.7317;9,300
40
3.5
41
0
44
1.084337
50
90
71
7
72
5
7
iso_b_vert
0
MTEXT
5
136
100
AcDbEntity
8
2
62
256
6
ByLayer
370
13
48
1
60
0
100
AcDbMText
10
103.333343
20
17.36961
30
0
210
0
220
0
230
1
1
%%c
40
3.5
41
0
44
1.084337
50
90
71
7
72
5
7
iso_b_vert
0
LINE
5
137
100
AcDbEntity
8
2
62
256
6
ByLayer
370
13
48
1
60
0
100
AcDbLine
10
92.9975
20
-4.65
30
0
11
107.083343
21
-4.65
31
0
39
0
210
0
220
0
230
1
0
LINE
5
138
100
AcDbEntity
8
2
62
256
6
ByLayer
370
13
48
1
60
0
100
AcDbLine
10
92.9975
20
4.65
30
0
11
107.083343
21
4.65
31
0
39
0
210
0
220
0
230
1
0
LINE
5
139
100
AcDbEntity
8
2
62
256
6
ByLayer
370
13
48
1
60
0
100
AcDbLine
10
105.083343
20
-4.65
30
0
11
105.083343
21
32.364635
31
0
39
0
210
0
220
0
230
1
0
SOLID
5
13A
100
AcDbEntity
8
2
62
256
6
ByLayer
370
13
48
1
60
0
100
AcDbTrace
10
105.083343
20
-4.65
30
0
11
104.622559
21
-1.150002
31
0
12
105.544126
22
-1.149998
32
0
13
105.083343
23
-4.65
33
0
39
0
210
0
220
0
230
1
0
SOLID
5
13B
100
AcDbEntity
8
2
62
256
6
ByLayer
370
13
48
1
60
0
100
AcDbTrace
10
105.083343
20
4.65
30
0
11
105.544126
21
1.150002
31
0
12
104.622559
22
1.149998
32
0
13
105.083343
23
4.65
33
0
39
0
210
0
220
0
230
1
0
ENDBLK
5
13D
100
AcDbEntity
8
0
100
AcDbBlockEnd
0
ENDSEC
0
SECTION
2
ENTITIES
0
ARC
5
9D
100
AcDbEntity
8
1
62
256
6
ByLayer
370
18
48
1
60
0
100
AcDbCircle
39
0
10
0
20
4.2
30
0
40
0.799999999999995
210
0
220
0
230
1
100
AcDbArc
50
48.361201
51
90
0
ARC
5
9E
100
AcDbEntity
8
1
62
256
6
ByLayer
370
18
48
1
60
0
100
AcDbCircle
39
0
10
0
20
-4.2
30
0
40
0.799999999999995
210
0
220
0
230
1
100
AcDbArc
50
270
51
311.638799
0
ARC
5
9F
100
AcDbEntity
8
1
62
256
6
ByLayer
370
18
48
1
60
0
100
AcDbCircle
39
0
10
-1.063092
20
5.395757
30
0
40
0.8
210
0
220
0
230
-1
100
AcDbArc
50
269.965623
51
311.638799
0
ARC
5
A0
100
AcDbEntity
8
1
62
256
6
ByLayer
370
18
48
1
60
0
100
AcDbCircle
39
0
10
-1.063092
20
-5.395757
30
0
40
0.8
210
0
220
0
230
-1
100
AcDbArc
50
48.361201
51
90.034377
0
ELLIPSE
5
A1
100
AcDbEntity
8
1
62
256
6
ByLayer
370
13
48
1
60
0
100
AcDbEllipse
10
11.250139
20
-3.842956
30
0
11
0.028085605253176
21
0.0959749903754242
31
0
210
0
220
0
230
1
40
0.419949
41
0.606708517279447
42
2.16087838762546
0
ELLIPSE
5
A2
100
AcDbEntity
8
1
62
256
6
ByLayer
370
18
48
1
60
0
100
AcDbEllipse
10
92.860057
20
0.128507
30
0
11
0.0727819104890916
21
0.301917195733768
31
0
210
0
220
0
230
-1
40
0.478434
41
1.73280895284877
42
2.45976119974436
0
ELLIPSE
5
A3
100
AcDbEntity
8
1
62
256
6
ByLayer
370
13
48
1
60
0
100
AcDbEllipse
10
91.978044
20
0.651834
30
0
11
0.153082081612417
21
0.258003636193774
31
0
210
0
220
0
230
1
40
0.454519
41
0.917105603404797
42
2.31336900500031
0
ELLIPSE
5
A4
100
AcDbEntity
8
1
62
256
6
ByLayer
370
18
48
1
60
0
100
AcDbEllipse
10
93.033019
20
-0.025883
30
0
11
0.140634104860278
21
0.431000092401747
31
0
210
0
220
0
230
-1
40
0.07518
41
-2.31001430899952
42
-1.64070315402249
0
ELLIPSE
5
A5
100
AcDbEntity
8
1
62
256
6
ByLayer
370
18
48
1
60
0
100
AcDbEllipse
10
93.000405
20
0.001016
30
0
11
1.71055371128959
21
4.64785813926569
31
0
210
0
220
0
230
-1
40
0.098637
41
2.87864778443234
42
2.97816791682901
0
ELLIPSE
5
A6
100
AcDbEntity
8
1
62
256
6
ByLayer
370
18
48
1
60
0
100
AcDbEllipse
10
93.000405
20
-0.001015
30
0
11
1.71055362344516
21
-4.64785788399533
31
0
210
0
220
0
230
-1
40
0.098637
41
-2.97816791233607
42
-2.87864777716457
0
ELLIPSE
5
A7
100
AcDbEntity
8
1
62
256
6
ByLayer
370
18
48
1
60
0
100
AcDbEllipse
10
92.11717
20
-2.244946
30
0
11
0.718290506538084
21
1.95171444597027
31
0
210
0
220
0
230
-1
40
0.098637
41
0.749112684714143
42
1.53467704025408
0
ELLIPSE
5
A8
100
AcDbEntity
8
1
62
256
6
ByLayer
370
13
48
1
60
0
100
AcDbEllipse
10
92.406172
20
2.121748
30
0
11
2.58611634660946
21
-1.78061464440673
31
0
210
0
220
0
230
-1
40
0.533762
41
1.44484622740491
42
1.7477984612393
0
ELLIPSE
5
A9
100
AcDbEntity
8
1
62
256
6
ByLayer
370
18
48
1
60
0
100
AcDbEllipse
10
93.033019
20
0.025883
30
0
11
0.140634104947835
21
-0.431000092627315
31
0
210
0
220
0
230
-1
40
0.07518
41
1.64070315441305
42
2.31001430908241
0
ELLIPSE
5
AA
100
AcDbEntity
8
1
62
256
6
ByLayer
370
18
48
1
60
0
100
AcDbEllipse
10
92.11717
20
2.244946
30
0
11
0.718290506572589
21
-1.95171444604856
31
0
210
0
220
0
230
-1
40
0.098637
41
-1.5346770402296
42
-0.749112684720285
0
ELLIPSE
5
AB
100
AcDbEntity
8
1
62
256
6
ByLayer
370
13
48
1
60
0
100
AcDbEllipse
10
11.176079
20
-3.837951
30
0
11
0.018677584895095
21
-0.098240255610857
31
0
210
0
220
0
230
1
40
0.603365
41
-2.53119446005842
42
-1.22090582538539
0
ELLIPSE
5
AC
100
AcDbEntity
8
1
62
256
6
ByLayer
370
13
48
1
60
0
100
AcDbEllipse
10
92.596078
20
2.244946
30
0
11
2.66088480936462
21
-1.43007208058428
31
0
210
0
220
0
230
-1
40
0.499862
41
1.53458373970869
42
1.86007343379732
0
POINT
5
6C
100
AcDbEntity
8
81
62
256
6
ByLayer
370
18
48
1
60
0
100
AcDbPoint
10
93
20
0
30
0
39
0
210
0
220
0
230
1
50
360
0
POINT
5
6E
100
AcDbEntity
8
80
62
256
6
ByLayer
370
18
48
1
60
0
100
AcDbPoint
10
0
20
0
30
0
39
0
210
0
220
0
230
1
50
360
0
POINT
5
70
100
AcDbEntity
8
SK2
62
256
6
ByLayer
370
18
48
1
60
1
100
AcDbPoint
10
-40
20
-5
30
0
39
0
210
0
220
0
230
1
50
360
0
POINT
5
72
100
AcDbEntity
8
SK2
62
256
6
ByLayer
370
18
48
1
60
1
100
AcDbPoint
10
-40
20
5
30
0
39
0
210
0
220
0
230
1
50
360
0
POINT
5
73
100
AcDbEntity
8
2
62
256
6
ByLayer
370
18
48
1
60
1
100
AcDbPoint
10
91.41
20
-4.65
30
0
39
0
210
0
220
0
230
1
50
360
0
POINT
5
75
100
AcDbEntity
8
2
62
256
6
ByLayer
370
18
48
1
60
1
100
AcDbPoint
10
91.41
20
4.65
30
0
39
0
210
0
220
0
230
1
50
360
0
SPLINE
5
AD
100
AcDbEntity
8
1
62
256
6
ByLayer
370
18
48
1
60
0
100
AcDbSpline
70
4
71
1
72
4
73
2
40
0
40
0
40
1
40
1
41
1
10
27.8705035686227
20
0.002430599130264
30
0
41
1
10
27.8704938576438
20
0.0024344152790547
30
0
0
SPLINE
5
AE
100
AcDbEntity
8
1
62
256
6
ByLayer
370
18
48
1
60
0
100
AcDbSpline
70
4
71
3
72
11
73
7
40
0
40
0
40
0
40
0
40
0.147614436126437
40
0.262549701680079
40
0.440066419036108
40
1
40
1
40
1
40
1
41
1
10
79.0238380219301
20
-1.08363924452758
30
0
41
1
10
79.023638679731
20
-1.08365942317806
30
0
41
1
10
79.0297353799585
20
-1.08695030012223
30
0
41
1
10
79.0578036605314
20
-1.101934285711
30
0
41
1
10
79.1528920568783
20
-1.15320213132713
30
0
41
1
10
79.2439216241772
20
-1.20391748712675
30
0
41
1
10
79.3270472556336
20
-1.2508082664545
30
0
0
SPLINE
5
AF
100
AcDbEntity
8
1
62
256
6
ByLayer
370
18
48
1
60
0
100
AcDbSpline
70
4
71
1
72
4
73
2
40
0
40
0
40
1
40
1
41
1
10
52.8747587237459
20
-8.818061872E-07
30
0
41
1
10
52.87474888575
20
6.6649458006E-06
30
0
0
SPLINE
5
B0
100
AcDbEntity
8
1
62
256
6
ByLayer
370
18
48
1
60
0
100
AcDbSpline
70
4
71
1
72
4
73
2
40
0
40
0
40
1
40
1
41
1
10
52.8747488837826
20
-6.6664653957E-06
30
0
41
1
10
52.8747587237576
20
8.818151684E-07
30
0
0
SPLINE
5
B1
100
AcDbEntity
8
1
62
256
6
ByLayer
370
18
48
1
60
0
100
AcDbSpline
70
4
71
3
72
11
73
7
40
0
40
0
40
0
40
0
40
0.0453854308206433
40
0.392127956581574
40
0.678192426257528
40
1
40
1
40
1
40
1
41
1
10
29.0772636128575
20
-1.11173992391014
30
0
41
1
10
29.0773222898043
20
-1.11177493603952
30
0
41
1
10
29.0793219669178
20
-1.11275521825812
30
0
41
1
10
29.1078375630895
20
-1.12589650195457
30
0
41
1
10
29.1196605772697
20
-1.13247502832772
30
0
41
1
10
29.1558937237807
20
-1.15289266276454
30
0
41
1
10
29.1789926808436
20
-1.16614071855273
30
0
0
SPLINE
5
B2
100
AcDbEntity
8
1
62
256
6
ByLayer
370
18
48
1
60
0
100
AcDbSpline
70
4
71
2
72
6
73
3
40
0
40
0
40
0
40
1
40
1
40
1
41
1
10
77.8723959684322
20
0.0016810549513764
30
0
41
1
10
77.8723838833673
20
0.0016877672960049
30
0
41
1
10
77.8723717982934
20
0.0016946386272991
30
0
0
SPLINE
5
B3
100
AcDbEntity
8
1
62
256
6
ByLayer
370
18
48
1
60
0
100
AcDbSpline
70
4
71
3
72
33
73
29
40
0
40
0
40
0
40
0
40
0.0586644127929659
40
0.104015936484879
40
0.13643713042023
40
0.163785329678877
40
0.190583419052514
40
0.21668622118782
40
0.252052614086257
40
0.281841922705345
40
0.323393524039716
40
0.382040407245769
40
0.434057100775154
40
0.476201529430746
40
0.518382780292185
40
0.562381653892111
40
0.61000250710887
40
0.653849424128723
40
0.693553967046972
40
0.739515305570944
40
0.792289767316188
40
0.836556192607771
40
0.86128804557064
40
0.884010493037621
40
0.915807148611315
40
0.955788013577889
40
0.99760857400421
40
1
40
1
40
1
40
1
41
1
10
15.5133555336742
20
-4.39346436016066
30
0
41
1
10
15.7622963389521
20
-4.39363724786173
30
0
41
1
10
16.203695416692
20
-4.39392190001433
30
0
41
1
10
16.7826930596663
20
-4.39425975539532
30
0
41
1
10
17.2288175256399
20
-4.39447040518081
30
0
41
1
10
17.5957985034345
20
-4.39460465793744
30
0
41
1
10
17.9364162887844
20
-4.3946849678573
30
0
41
1
10
18.3110322763083
20
-4.39511022718787
30
0
41
1
10
18.6983493997163
20
-4.39578043631198
30
0
41
1
10
19.1512218286791
20
-4.39575873273557
30
0
41
1
10
19.7028990990801
20
-4.39552808793425
30
0
41
1
10
20.3489487320723
20
-4.39528033424807
30
0
41
1
10
20.9974689225821
20
-4.39814962099734
30
0
41
1
10
21.5761346479693
20
-4.39793749952301
30
0
41
1
10
22.120772661735
20
-4.39723854149816
30
0
41
1
10
22.6886543806269
20
-4.39667090508325
30
0
41
1
10
23.2636031527196
20
-4.39783591189484
30
0
41
1
10
23.8203268904055
20
-4.39865339226216
30
0
41
1
10
24.3700034613488
20
-4.39963703998072
30
0
41
1
10
24.9575935191044
20
-4.40019110986418
30
0
41
1
10
25.5644366725059
20
-4.39815150037956
30
0
41
1
10
26.0814930638316
20
-4.39798053474954
30
0
41
1
10
26.4701385580651
20
-4.39832727433776
30
0
41
1
10
26.8073050600548
20
-4.39980326507489
30
0
41
1
10
27.2035893365533
20
-4.40281799169188
30
0
41
1
10
27.6725301095693
20
-4.39940825441079
30
0
41
1
10
28.0384330964635
20
-4.39922942128695
30
0
41
1
10
28.2214021932089
20
-4.3995668074418
30
0
41
1
10
28.2312925994661
20
-4.39958665300588
30
0
0
SPLINE
5
B4
100
AcDbEntity
8
1
62
256
6
ByLayer
370
18
48
1
60
0
100
AcDbSpline
70
4
71
3
72
30
73
26
40
0
40
0
40
0
40
0
40
0.0555489416221056
40
0.109286563961024
40
0.156239150702533
40
0.191435723253026
40
0.239255042169595
40
0.297983186598417
40
0.339204704629092
40
0.37565622608387
40
0.413278366788343
40
0.454904531281404
40
0.50246524831633
40
0.552715285647297
40
0.590303257176392
40
0.640016668851497
40
0.699826194924546
40
0.749073854471775
40
0.789239043189342
40
0.817273641720266
40
0.843379237686264
40
0.876123540127597
40
0.918740668405062
40
0.978442485835779
40
1
40
1
40
1
40
1
41
1
10
65.5122922588506
20
-4.42368132596673
30
0
41
1
10
65.7408056585321
20
-4.42300296204553
30
0
41
1
10
66.191507151231
20
-4.42221189743034
30
0
41
1
10
66.8477955306069
20
-4.42388360202986
30
0
41
1
10
67.4068128288143
20
-4.42448667589071
30
0
41
1
10
67.9524718345226
20
-4.4245859269775
30
0
41
1
10
68.5446183157808
20
-4.4261477275673
30
0
41
1
10
69.163086229155
20
-4.42594418489915
30
0
41
1
10
69.7336341879502
20
-4.42542122348468
30
0
41
1
10
70.215975388951
20
-4.42485888589783
30
0
41
1
10
70.6999951156572
20
-4.4264321540455
30
0
41
1
10
71.2304936509531
20
-4.42770179850143
30
0
41
1
10
71.8138210942279
20
-4.42715783614059
30
0
41
1
10
72.3802535639842
20
-4.42675189637751
30
0
41
1
10
72.9556936367947
20
-4.42635253612448
30
0
41
1
10
73.5711209230681
20
-4.42948856060502
30
0
41
1
10
74.2353275819381
20
-4.42764240742335
30
0
41
1
10
74.8595869597448
20
-4.42746574993794
30
0
41
1
10
75.3509271643237
20
-4.42764405081721
30
0
41
1
10
75.7454371232528
20
-4.42847947031103
30
0
41
1
10
76.1089456238369
20
-4.42933698882698
30
0
41
1
10
76.5332616398286
20
-4.4296674477589
30
0
41
1
10
77.0977344093735
20
-4.43015377461282
30
0
41
1
10
77.6161949504579
20
-4.43004920252938
30
0
41
1
10
77.9560151197
20
-4.43005000851289
30
0
41
1
10
78.0461673162441
20
-4.43004448761448
30
0
0
SPLINE
5
B5
100
AcDbEntity
8
1
62
256
6
ByLayer
370
18
48
1
60
0
100
AcDbSpline
70
4
71
3
72
27
73
23
40
0
40
0
40
0
40
0
40
0.015465368738682
40
0.0792410911241225
40
0.133024023066061
40
0.169056598967679
40
0.210385622364403
40
0.269121504214673
40
0.341719872160878
40
0.401530792563137
40
0.461865863256902
40
0.529770392438147
40
0.572405210031806
40
0.613788980768345
40
0.653525326947646
40
0.696088965321717
40
0.747195883870008
40
0.804932024632058
40
0.852920591475377
40
0.887513546942976
40
0.947738613469922
40
1
40
1
40
1
40
1
41
1
10
28.2133984336592
20
4.39961756607485
30
0
41
1
10
28.1605501311255
20
4.39947644664457
30
0
41
1
10
27.8894143828274
20
4.39887084793131
30
0
41
1
10
27.4176565114144
20
4.40232556242299
30
0
41
1
10
26.8966204822007
20
4.40067907357306
30
0
41
1
10
26.4358751210246
20
4.39803170912373
30
0
41
1
10
25.961283955663
20
4.39800955558891
30
0
41
1
10
25.3574742904611
20
4.39851313151752
30
0
41
1
10
24.689598423195
20
4.40088884860444
30
0
41
1
10
24.0159613159891
20
4.39861805012285
30
0
41
1
10
23.3587689471607
20
4.39816093720265
30
0
41
1
10
22.7615945421853
20
4.39670539332255
30
0
41
1
10
22.2306511067116
20
4.39711387663112
30
0
41
1
10
21.7981506191589
20
4.39764359756421
30
0
41
1
10
21.3658988238938
20
4.39813777418337
30
0
41
1
10
20.8996734276171
20
4.39764462782614
30
0
41
1
10
20.3705566750709
20
4.39550889404001
30
0
41
1
10
19.822456677882
20
4.39546805928762
30
0
41
1
10
19.3320733319285
20
4.3956784064147
30
0
41
1
10
18.8330205386651
20
4.39586464793828
30
0
41
1
10
18.3190647448512
20
4.39507386241311
30
0
41
1
10
17.9257682856106
20
4.39478733279583
30
0
41
1
10
17.7431541433832
20
4.3946864397013
30
0
0
SPLINE
5
B6
100
AcDbEntity
8
1
62
256
6
ByLayer
370
18
48
1
60
0
100
AcDbSpline
70
4
71
3
72
31
73
27
40
0
40
0
40
0
40
0
40
0.0487379272106888
40
0.096134571410901
40
0.140434745011494
40
0.174748721738775
40
0.208152557312376
40
0.258976241435007
40
0.303721065696076
40
0.330822847262021
40
0.357725028163755
40
0.387141677819151
40
0.421989812286456
40
0.466328085891656
40
0.518322275555442
40
0.568298898415504
40
0.611091862363148
40
0.670924681145531
40
0.726733617135773
40
0.774598067162085
40
0.815523933159762
40
0.850035207008587
40
0.888063638694061
40
0.936505264263127
40
0.989212577699929
40
1
40
1
40
1
40
1
41
1
10
40.5149406145941
20
-4.4084872577049
30
0
41
1
10
40.7175508299093
20
-4.407797036907
30
0
41
1
10
41.1186622154
20
-4.40704660118178
30
0
41
1
10
41.7208378876161
20
-4.40858306816145
30
0
41
1
10
42.243950711924
20
-4.40995456960169
30
0
41
1
10
42.7212381047676
20
-4.40936291994007
30
0
41
1
10
43.2237627287096
20
-4.40928795841916
30
0
41
1
10
43.7719724373208
20
-4.40938068747352
30
0
41
1
10
44.292939240762
20
-4.41086681441399
30
0
41
1
10
44.7123859935689
20
-4.41109378654608
30
0
41
1
10
45.0667298584114
20
-4.41175129846965
30
0
41
1
10
45.4539777339019
20
-4.41263482137046
30
0
41
1
10
45.915283957503
20
-4.41224910938658
30
0
41
1
10
46.4724998441019
20
-4.41097144083955
30
0
41
1
10
47.0939703223997
20
-4.41038070918788
30
0
41
1
10
47.7088695240754
20
-4.41380383436461
30
0
41
1
10
48.357081353469
20
-4.41480109077943
30
0
41
1
10
49.0300493948311
20
-4.41266592942435
30
0
41
1
10
49.7246008114217
20
-4.41171132279692
30
0
41
1
10
50.3387261603624
20
-4.41439478489011
30
0
41
1
10
50.8627196412473
20
-4.41431221142287
30
0
41
1
10
51.3439051005086
20
-4.4162050344996
30
0
41
1
10
51.8608770244968
20
-4.41669425060687
30
0
41
1
10
52.4367721794113
20
-4.41481849319345
30
0
41
1
10
52.9197104895765
20
-4.41107940046666
30
0
41
1
10
53.18269239148
20
-4.41262189272427
30
0
41
1
10
53.2272909085103
20
-4.41293133548689
30
0
0
SPLINE
5
B7
100
AcDbEntity
8
1
62
256
6
ByLayer
370
18
48
1
60
0
100
AcDbSpline
70
4
71
2
72
6
73
3
40
0
40
0
40
0
40
1
40
1
40
1
41
1
10
90.5815853551443
20
-4.43859728031492
30
0
41
1
10
90.9853429151036
20
-4.43412072887992
30
0
41
1
10
91.3891308937696
20
-4.44076381579757
30
0
0
SPLINE
5
B8
100
AcDbEntity
8
1
62
256
6
ByLayer
370
18
48
1
60
0
100
AcDbSpline
70
4
71
3
72
11
73
7
40
0
40
0
40
0
40
0
40
0.158274936533307
40
0.329718824774555
40
0.590093899337775
40
1
40
1
40
1
40
1
41
1
10
54.0324481168662
20
-1.0892699686168
30
0
41
1
10
54.0322934732334
20
-1.08932359273794
30
0
41
1
10
54.0389069658455
20
-1.09284520835499
30
0
41
1
10
54.0866331312637
20
-1.11756722803017
30
0
41
1
10
54.1713923020606
20
-1.16202694439176
30
0
41
1
10
54.2391112473854
20
-1.19904561308672
30
0
41
1
10
54.2827420074829
20
-1.22330831851522
30
0
0
SPLINE
5
B9
100
AcDbEntity
8
1
62
256
6
ByLayer
370
18
48
1
60
0
100
AcDbSpline
70
4
71
3
72
29
73
25
40
0
40
0
40
0
40
0
40
0.0080919615970263
40
0.0662290654449464
40
0.122444810785415
40
0.167762052324892
40
0.206520237590125
40
0.245891592120861
40
0.291140555805443
40
0.331119323267526
40
0.375538780605731
40
0.424448100928234
40
0.473222164688047
40
0.511148184162658
40
0.54321589990969
40
0.587532054244788
40
0.666738302358702
40
0.729438897830321
40
0.776855380669556
40
0.818735988050533
40
0.864678779746331
40
0.93679174718507
40
0.984720175640849
40
1
40
1
40
1
40
1
41
1
10
53.2359732541407
20
4.41283025222793
30
0
41
1
10
53.2085732102585
20
4.41264722023999
30
0
41
1
10
52.9839776288906
20
4.41131617992153
30
0
41
1
10
52.5464506652333
20
4.41353124552299
30
0
41
1
10
52.008414177695
20
4.41659710503941
30
0
41
1
10
51.5163170580411
20
4.41655934126825
30
0
41
1
10
51.0867858753326
20
4.4149768285989
30
0
41
1
10
50.6562584565505
20
4.41447148109108
30
0
41
1
10
50.2218115577339
20
4.41381109977644
30
0
41
1
10
49.7696646581127
20
4.41221182539007
30
0
41
1
10
49.3047743760274
20
4.41190052133956
30
0
41
1
10
48.8092100636397
20
4.41366850278411
30
0
41
1
10
48.3362895450346
20
4.41442072436405
30
0
41
1
10
47.922099120546
20
4.4144057047786
30
0
41
1
10
47.5234596104784
20
4.41247500151098
30
0
41
1
10
46.9808667729485
20
4.41034145853803
30
0
41
1
10
46.3314371804731
20
4.41114482512577
30
0
41
1
10
45.6711942904859
20
4.41283911082124
30
0
41
1
10
45.141125994859
20
4.41196516880061
30
0
41
1
10
44.6694871491083
20
4.41098979061144
30
0
41
1
10
44.111762300041
20
4.41073800266486
30
0
41
1
10
43.5328830762849
20
4.40899801922063
30
0
41
1
10
43.0610136394218
20
4.40937293293166
30
0
41
1
10
42.8406477240636
20
4.40941277536243
30
0
41
1
10
42.7873841524837
20
4.40942491977054
30
0
0
SPLINE
5
BA
100
AcDbEntity
8
1
62
256
6
ByLayer
370
18
48
1
60
0
100
AcDbSpline
70
4
71
3
72
27
73
23
40
0
40
0
40
0
40
0
40
0.0093974192807778
40
0.0664986859020604
40
0.117118463991116
40
0.154389335531207
40
0.184693218166346
40
0.227054470308783
40
0.282955838118412
40
0.354210742202092
40
0.413320385669992
40
0.47969307340206
40
0.552666309247432
40
0.611396904794652
40
0.660173542602362
40
0.707080139282336
40
0.766616343641509
40
0.836477341943402
40
0.886299579557353
40
0.920869178629643
40
0.963145545911219
40
1
40
1
40
1
40
1
41
1
10
78.1978167628631
20
4.42850445155597
30
0
41
1
10
78.1656339837238
20
4.4283987785231
30
0
41
1
10
77.9377109512068
20
4.42775242419734
30
0
41
1
10
77.5211501652651
20
4.42882575761237
30
0
41
1
10
77.0305851185781
20
4.43047580379033
30
0
41
1
10
76.6185958260987
20
4.42951358403829
30
0
41
1
10
76.235280915868
20
4.42951885278697
30
0
41
1
10
75.7866875545926
20
4.42859186271744
30
0
41
1
10
75.1951013672893
20
4.42734505718027
30
0
41
1
10
74.5450939507132
20
4.42752644729018
30
0
41
1
10
73.8585284503395
20
4.42847076008448
30
0
41
1
10
73.1659712074065
20
4.42795631817791
30
0
41
1
10
72.4747339739125
20
4.42628122442332
30
0
41
1
10
71.8449043519772
20
4.42726465649793
30
0
41
1
10
71.3060390924218
20
4.42746276117742
30
0
41
1
10
70.7643591856566
20
4.42705452844967
30
0
41
1
10
70.1491323152617
20
4.42441613811206
30
0
41
1
10
69.5236827767044
20
4.42574569286845
30
0
41
1
10
68.9854097873093
20
4.42600108057621
30
0
41
1
10
68.5433575249404
20
4.42596309780646
30
0
41
1
10
68.1466130785437
20
4.42502602859818
30
0
41
1
10
67.8704391369907
20
4.42473531867384
30
0
41
1
10
67.7418363084842
20
4.42464113269833
30
0
0
SPLINE
5
BB
100
AcDbEntity
8
1
62
256
6
ByLayer
370
13
48
1
60
0
100
AcDbSpline
70
4
71
3
72
10
73
6
40
0
40
0
40
0
40
0
40
0.5
40
0.5
40
1
40
1
40
1
40
1
41
1
10
11.2502315712679
20
-3.75738496089355
30
0
41
1
10
11.2286835571688
20
-3.75367874722784
30
0
41
1
10
11.2075597537047
20
-3.75239251916651
30
0
41
1
10
11.1661648516727
20
-3.75452027229781
30
0
41
1
10
11.1457978226454
20
-3.75801595793229
30
0
41
1
10
11.1267978407353
20
-3.76391007317298
30
0
0
SPLINE
5
BC
100
AcDbEntity
8
1
62
256
6
ByLayer
370
18
48
1
60
0
100
AcDbSpline
70
4
71
3
72
10
73
6
40
0
40
0
40
0
40
0
40
0.5
40
0.5
40
1
40
1
40
1
40
1
41
1
10
11.1248887600025
20
-3.96102793746425
30
0
41
1
10
11.0961787614681
20
-3.95256583463328
30
0
41
1
10
11.0712824041066
20
-3.94129741012276
30
0
41
1
10
11.0313532617308
20
-3.91403220047073
30
0
41
1
10
11.0166408988445
20
-3.89810733154368
30
0
41
1
10
11.0082973662366
20
-3.88113102964871
30
0
0
SPLINE
5
BD
100
AcDbEntity
8
1
62
256
6
ByLayer
370
18
48
1
60
0
100
AcDbSpline
70
4
71
3
72
14
73
10
40
0
40
0
40
0
40
0
40
0.25
40
0.25
40
0.5
40
0.5
40
0.75
40
0.75
40
1
40
1
40
1
40
1
41
1
10
11.0031135520971
20
2.69761318136321
30
0
41
1
10
11.0074110608209
20
2.69483518073662
30
0
41
1
10
11.0164817828819
20
2.68947153688461
30
0
41
1
10
11.0461199128838
20
2.67216889771936
30
0
41
1
10
11.0668631234205
20
2.6601089743086
30
0
41
1
10
11.1160339249099
20
2.6310184707695
30
0
41
1
10
11.1436954059501
20
2.61441743901605
30
0
41
1
10
11.1982575709766
20
2.58111976523514
30
0
41
1
10
11.2248874736286
20
2.56461356582221
30
0
41
1
10
11.2503075841924
20
2.54870095083254
30
0
0
SPLINE
5
BE
100
AcDbEntity
8
1
62
256
6
ByLayer
370
13
48
1
60
0
100
AcDbSpline
70
4
71
3
72
30
73
26
40
0
40
0
40
0
40
0
40
0.125
40
0.125
40
0.1875
40
0.1875
40
0.25
40
0.3125
40
0.3125
40
0.375
40
0.375
40
0.5
40
0.5
40
0.5625
40
0.5625
40
0.625
40
0.625
40
0.6875
40
0.6875
40
0.75
40
0.8125
40
0.8125
40
0.875
40
0.875
40
1
40
1
40
1
40
1
41
1
10
11.2502315712679
20
-3.75738496089355
30
0
41
1
10
11.2502296429439
20
-3.60022033799777
30
0
41
1
10
11.250216948879
20
-3.41822012771158
30
0
41
1
10
11.2501891025009
20
-3.10822969688704
30
0
41
1
10
11.2501783766371
20
-2.99905899012324
30
0
41
1
10
11.2501556632019
20
-2.77250463941758
30
0
41
1
10
11.2501316083213
20
-2.53685499835959
30
0
41
1
10
11.2501072952542
20
-2.28322054124558
30
0
41
1
10
11.250083997712
20
-2.0204097149277
30
0
41
1
10
11.25007282109
20
-1.88377283075735
30
0
41
1
10
11.2500431092695
20
-1.4688216019199
30
0
41
1
10
11.2500282080011
20
-1.18328608778461
30
0
41
1
10
11.2500175782504
20
-0.741750064107038
30
0
41
1
10
11.2500159796956
20
-0.591761506870483
30
0
41
1
10
11.2500172347219
20
-0.290063390409586
30
0
41
1
10
11.250020068314
20
-0.138899780918535
30
0
41
1
10
11.2500302940655
20
0.164054820415288
30
0
41
1
10
11.2500377166627
20
0.3160174175745
30
0
41
1
10
11.2500567756602
20
0.615951297709415
30
0
41
1
10
11.2500800711854
20
0.913051489442921
30
0
41
1
10
11.25011106436
20
1.20452955703479
30
0
41
1
10
11.2501453916008
20
1.4931283720822
30
0
41
1
10
11.2501640499183
20
1.63447716877965
30
0
41
1
10
11.2502225880259
20
2.04569789163469
30
0
41
1
10
11.2502653095506
20
2.30474640688468
30
0
41
1
10
11.250307584192
20
2.5487009483623
30
0
0
SPLINE
5
BF
100
AcDbEntity
8
1
62
256
6
ByLayer
370
18
48
1
60
0
100
AcDbSpline
70
4
71
3
72
12
73
8
40
0
40
0
40
0
40
0
40
0.25
40
0.25
40
0.5
40
0.5
40
1
40
1
40
1
40
1
41
1
10
91.4298462436909
20
-4.4983400514389
30
0
41
1
10
91.4347803549712
20
-4.48511548803333
30
0
41
1
10
91.4394549438551
20
-4.47160203718715
30
0
41
1
10
91.4469580387359
20
-4.44739646692312
30
0
41
1
10
91.4497640237774
20
-4.43672697356266
30
0
41
1
10
91.4543115557133
20
-4.41347973459796
30
0
41
1
10
91.4525131189366
20
-4.4093381742733
30
0
41
1
10
91.4483001028002
20
-4.4123876120585
30
0
0
SPLINE
5
C0
100
AcDbEntity
8
1
62
256
6
ByLayer
370
18
48
1
60
0
100
AcDbSpline
70
4
71
3
72
22
73
18
40
0
40
0
40
0
40
0
40
0.249999999999961
40
0.249999999999961
40
0.499999999999922
40
0.499999999999922
40
0.624999999999925
40
0.624999999999925
40
0.749999999999928
40
0.749999999999928
40
0.812499999999946
40
0.812499999999946
40
0.874999999999964
40
0.874999999999964
40
0.937499999999982
40
0.937499999999982
40
1
40
1
40
1
40
1
41
1
10
91.1518979246653
20
1.37807547197036
30
0
41
1
10
91.2824181985924
20
1.40755841670514
30
0
41
1
10
91.4115726118978
20
1.44117725502525
30
0
41
1
10
91.6653181622981
20
1.52269770490759
30
0
41
1
10
91.7906129495481
20
1.57055936099167
30
0
41
1
10
91.9671490504388
20
1.66211738383626
30
0
41
1
10
92.0242709212905
20
1.6960600767863
30
0
41
1
10
92.1322084758244
20
1.77493583438437
30
0
41
1
10
92.1819627490121
20
1.81895483181995
30
0
41
1
10
92.2459108428517
20
1.8967918053055
30
0
41
1
10
92.2649155235094
20
1.92418713218683
30
0
41
1
10
92.2972874755361
20
1.98235725410808
30
0
41
1
10
92.3107851639717
20
2.01360197570204
30
0
41
1
10
92.3302448484831
20
2.07781968691546
30
0
41
1
10
92.3362681359092
20
2.1106124270012
30
0
41
1
10
92.3411331841968
20
2.17754014666613
30
0
41
1
10
92.3398752743905
20
2.21184956135801
30
0
41
1
10
92.3354939431144
20
2.2452705166329
30
0
0
SPLINE
5
C1
100
AcDbEntity
8
1
62
256
6
ByLayer
370
18
48
1
60
0
100
AcDbSpline
70
4
71
3
72
42
73
38
40
0
40
0
40
0
40
0
40
0.124999999999993
40
0.124999999999993
40
0.249999999999985
40
0.249999999999985
40
0.312499999999981
40
0.312499999999981
40
0.374999999999978
40
0.374999999999978
40
0.499999999999982
40
0.499999999999982
40
0.624999999999987
40
0.624999999999987
40
0.687499999999989
40
0.687499999999989
40
0.71874999999999
40
0.71874999999999
40
0.749999999999991
40
0.749999999999991
40
0.781249999999992
40
0.781249999999992
40
0.812499999999993
40
0.812499999999993
40
0.843749999999995
40
0.843749999999995
40
0.859374999999995
40
0.859374999999995
40
0.874999999999996
40
0.874999999999996
40
0.906249999999997
40
0.906249999999997
40
0.937499999999998
40
0.937499999999998
40
0.968749999999999
40
0.968749999999999
40
1
40
1
40
1
40
1
41
1
10
87.6511771037671
20
1.56385787257318
30
0
41
1
10
87.8146444138254
20
1.43956122811926
30
0
41
1
10
87.9797917374088
20
1.32115382982261
30
0
41
1
10
88.3141811637826
20
1.09869318118493
30
0
41
1
10
88.4826818439201
20
0.995069185953952
30
0
41
1
10
88.7366969796583
20
0.853095419618086
30
0
41
1
10
88.8216269608314
20
0.808001318426363
30
0
41
1
10
88.9920344217051
20
0.722541470742613
30
0
41
1
10
89.0776676048001
20
0.682087807605967
30
0
41
1
10
89.3331186548958
20
0.569431596004989
30
0
41
1
10
89.5020959266967
20
0.505465087093796
30
0
41
1
10
89.8371320176688
20
0.402093016597917
30
0
41
1
10
90.0031927593665
20
0.362671275524377
30
0
41
1
10
90.2497530736172
20
0.324837211989973
30
0
41
1
10
90.3315181259052
20
0.31577493729128
30
0
41
1
10
90.4534648686194
20
0.308079578536791
30
0
41
1
10
90.493860564722
20
0.306504929085719
30
0
41
1
10
90.574011208632
20
0.305397187847092
30
0
41
1
10
90.61379303378
20
0.305859112864965
30
0
41
1
10
90.6910195620883
20
0.313387160680946
30
0
41
1
10
90.7285051548897
20
0.319855164232592
30
0
41
1
10
90.8004167722879
20
0.339611752247208
30
0
41
1
10
90.8348708241342
20
0.352982399799942
30
0
41
1
10
90.8982568894149
20
0.387270478005291
30
0
41
1
10
90.9274489417173
20
0.408190350662153
30
0
41
1
10
90.9661506763368
20
0.447249223502411
30
0
41
1
10
90.9783110665895
20
0.461667537221359
30
0
41
1
10
90.9998178470879
20
0.492985589617206
30
0
41
1
10
91.0091614883846
20
0.509898294688185
30
0
41
1
10
91.0340695624385
20
0.56341353618393
30
0
41
1
10
91.0463553175393
20
0.603449022000859
30
0
41
1
10
91.0616789016708
20
0.689126268483449
30
0
41
1
10
91.0647608476887
20
0.734349678041184
30
0
41
1
10
91.0627485127894
20
0.829053966493376
30
0
41
1
10
91.057608379497
20
0.878119729142725
30
0
41
1
10
91.0409331593626
20
0.976526000763783
30
0
41
1
10
91.0293770759998
20
1.02627953515832
30
0
41
1
10
91.0152356937334
20
1.07647518751551
30
0
0
SPLINE
5
C2
100
AcDbEntity
8
1
62
256
6
ByLayer
370
18
48
1
60
0
100
AcDbSpline
70
4
71
3
72
54
73
50
40
0
40
0
40
0
40
0
40
0.0599773022945304
40
0.0599773022945304
40
0.119954604589061
40
0.119954604589061
40
0.179931906883591
40
0.179931906883591
40
0.239909209178122
40
0.239909209178122
40
0.269897860325387
40
0.269897860325387
40
0.299886511472652
40
0.299886511472652
40
0.359863813767181
40
0.359863813767181
40
0.389852464914446
40
0.389852464914446
40
0.419841116061711
40
0.419841116061711
40
0.479818418356242
40
0.479818418356242
40
0.509807069503507
40
0.509807069503507
40
0.539795720650772
40
0.539795720650772
40
0.599773022945301
40
0.599773022945301
40
0.629761674092565
40
0.629761674092565
40
0.659750325239829
40
0.659750325239829
40
0.719727627534358
40
0.719727627534358
40
0.749716278681623
40
0.749716278681623
40
0.779704929828887
40
0.779704929828887
40
0.839682232123416
40
0.839682232123416
40
0.869670883270679
40
0.869670883270679
40
0.899659534417943
40
0.899659534417943
40
0.95963683671247
40
0.95963683671247
40
0.989625487859734
40
0.989625487859734
40
1
40
1
40
1
40
1
41
1
10
21.3710774694501
20
3.05657642626792
30
0
41
1
10
21.7370375160311
20
2.89614487695084
30
0
41
1
10
22.1026069547499
20
2.7292003972091
30
0
41
1
10
22.8311413345714
20
2.3804507977413
30
0
41
1
10
23.1940283301884
20
2.19850231839703
30
0
41
1
10
23.9164555281322
20
1.8182949158502
30
0
41
1
10
24.2785550018091
20
1.62409616066731
30
0
41
1
10
25.0040461099081
20
1.22711774108038
30
0
41
1
10
25.367182271017
20
1.02391883794283
30
0
41
1
10
25.9117604156013
20
0.710402808326961
30
0
41
1
10
26.0936805890186
20
0.605163372415717
30
0
41
1
10
26.4592089077385
20
0.394865761818465
30
0
41
1
10
26.6428366717422
20
0.289351478722551
30
0
41
1
10
27.1938718181092
20
-0.0276660938223756
30
0
41
1
10
27.5602932360541
20
-0.239019749341168
30
0
41
1
10
28.1076007467701
20
-0.557602346785302
30
0
41
1
10
28.2899975538037
20
-0.663448000980736
30
0
41
1
10
28.6558857257203
20
-0.872441800748987
30
0
41
1
10
28.8391547351149
20
-0.975974163372825
30
0
41
1
10
29.3895827368295
20
-1.28429134739517
30
0
41
1
10
29.7572682859337
20
-1.48675100956291
30
0
41
1
10
30.3049099760037
20
-1.78497982342125
30
0
41
1
10
30.4872508897839
20
-1.88311997894638
30
0
41
1
10
30.8529263223708
20
-2.0746913147413
30
0
41
1
10
31.0360156194169
20
-2.16852057266812
30
0
41
1
10
31.5856717907489
20
-2.44475919772097
30
0
41
1
10
31.9533236323534
20
-2.62227186437255
30
0
41
1
10
32.5017788195879
20
-2.87768038579566
30
0
41
1
10
32.6842204857058
20
-2.96070387926361
30
0
41
1
10
33.0499784212369
20
-3.12044767888267
30
0
41
1
10
33.2330322685566
20
-3.1975363253168
30
0
41
1
10
33.7823403700567
20
-3.42104788713107
30
0
41
1
10
34.1487469105007
20
-3.55976849014448
30
0
41
1
10
34.6977085115179
20
-3.75289138061055
30
0
41
1
10
34.8805404446031
20
-3.81456582356728
30
0
41
1
10
35.2466406714515
20
-3.9304365152525
30
0
41
1
10
35.4297925598921
20
-3.98498445909803
30
0
41
1
10
35.9791635591312
20
-4.13900548647368
30
0
41
1
10
36.3453083130579
20
-4.2289206982588
30
0
41
1
10
36.8934002943065
20
-4.34473497946817
30
0
41
1
10
37.0759309064946
20
-4.38009084045453
30
0
41
1
10
37.4426397843521
20
-4.44320484693574
30
0
41
1
10
37.6260441905771
20
-4.47105912113662
30
0
41
1
10
38.175894889082
20
-4.54393223969385
30
0
41
1
10
38.5420431714779
20
-4.57834411509666
30
0
41
1
10
39.0896549579403
20
-4.60844070222169
30
0
41
1
10
39.2718781190095
20
-4.61482552995827
30
0
41
1
10
39.5181397624962
20
-4.61839254016382
30
0
41
1
10
39.5815107572778
20
-4.6188688938434
30
0
41
1
10
39.6449300239007
20
-4.61890682658543
30
0
0
SPLINE
5
C3
100
AcDbEntity
8
1
62
256
6
ByLayer
370
18
48
1
60
0
100
AcDbSpline
70
4
71
3
72
90
73
86
40
0
40
0
40
0
40
0
40
0.0001763542694392
40
0.0001763542694392
40
0.0178111726838196
40
0.0178111726838196
40
0.0354459910981999
40
0.0354459910981999
40
0.0707156279269606
40
0.0707156279269606
40
0.0883504463413408
40
0.0883504463413408
40
0.105985264755721
40
0.105985264755721
40
0.141254901584483
40
0.141254901584483
40
0.158889719998863
40
0.158889719998863
40
0.176524538413243
40
0.176524538413243
40
0.211794175242005
40
0.211794175242005
40
0.247063812070766
40
0.247063812070766
40
0.282333448899528
40
0.282333448899528
40
0.31760308572829
40
0.31760308572829
40
0.352872722557052
40
0.352872722557052
40
0.370507540971432
40
0.370507540971432
40
0.388142359385812
40
0.388142359385812
40
0.423411996214572
40
0.423411996214572
40
0.441046814628952
40
0.441046814628952
40
0.458681633043331
40
0.458681633043331
40
0.493951269872092
40
0.493951269872092
40
0.511586088286472
40
0.511586088286472
40
0.529220906700853
40
0.529220906700853
40
0.564490543529613
40
0.564490543529613
40
0.582125361943994
40
0.582125361943994
40
0.599760180358374
40
0.599760180358374
40
0.635029817187133
40
0.635029817187133
40
0.652664635601513
40
0.652664635601513
40
0.670299454015893
40
0.670299454015893
40
0.705569090844652
40
0.705569090844652
40
0.72320390925903
40
0.72320390925903
40
0.740838727673409
40
0.740838727673409
40
0.776108364502167
40
0.776108364502167
40
0.793743182916546
40
0.793743182916546
40
0.811378001330926
40
0.811378001330926
40
0.846647638159683
40
0.846647638159683
40
0.864282456574063
40
0.864282456574063
40
0.881917274988442
40
0.881917274988442
40
0.9171869118172
40
0.9171869118172
40
0.93482173023158
40
0.93482173023158
40
0.952456548645959
40
0.952456548645959
40
0.987726185474718
40
0.987726185474718
40
1
40
1
40
1
40
1
41
1
10
58.6042923155992
20
3.35495565161545
30
0
41
1
10
58.6061001937522
20
3.35568135069684
30
0
41
1
10
58.6079080510552
20
3.35640682124341
30
0
41
1
10
58.7904932861382
20
3.4296537724544
30
0
41
1
10
58.970936539164
20
3.50001284341431
30
0
41
1
10
59.3319159284973
20
3.63539303256766
30
0
41
1
10
59.512917259681
20
3.69990579005093
30
0
41
1
10
60.0572200671457
20
3.88434554252527
30
0
41
1
10
60.4216564979843
20
3.99541252093405
30
0
41
1
10
60.9696886658256
20
4.14464129909604
30
0
41
1
10
61.1527810508288
20
4.19159491807244
30
0
41
1
10
61.5181969443839
20
4.27880249023522
30
0
41
1
10
61.7010054263752
20
4.3187013222794
30
0
41
1
10
62.2498464481256
20
4.42758157962169
30
0
41
1
10
62.6159781291024
20
4.4860418556836
30
0
41
1
10
63.1644431801665
20
4.55299387376084
30
0
41
1
10
63.34707759782
20
4.5718463598096
30
0
41
1
10
63.7122884654757
20
4.60230772319113
30
0
41
1
10
63.8955248496475
20
4.61379253809065
30
0
41
1
10
64.4451358778695
20
4.63709005754745
30
0
41
1
10
64.8114520427725
20
4.63799571019092
30
0
41
1
10
65.5424425414919
20
4.61068573815717
30
0
41
1
10
65.9062847211305
20
4.58197992257985
30
0
41
1
10
66.6392117645025
20
4.49624990298867
30
0
41
1
10
67.0064990099592
20
4.43935762451079
30
0
41
1
10
67.7377620331561
20
4.29754453403064
30
0
41
1
10
68.1013652471041
20
4.21168163870217
30
0
41
1
10
68.8329992318209
20
4.0158080416123
30
0
41
1
10
69.2011538882897
20
3.90513964091048
30
0
41
1
10
69.7488671683226
20
3.72123273842791
30
0
41
1
10
69.9308114825006
20
3.6568979200739
30
0
41
1
10
70.2933767702601
20
3.52201859037683
30
0
41
1
10
70.474380462455
20
3.45189423309586
30
0
41
1
10
71.0180123720592
20
3.23540040888403
30
0
41
1
10
71.3804491997226
20
3.08204480322095
30
0
41
1
10
71.9230233487267
20
2.83720720314219
30
0
41
1
10
72.1037081088872
20
2.75312165215143
30
0
41
1
10
72.4645818844968
20
2.57967269239634
30
0
41
1
10
72.6450057009228
20
2.49062621915169
30
0
41
1
10
73.1883711031093
20
2.21975625631273
30
0
41
1
10
73.5523853384555
20
2.03280306829779
30
0
41
1
10
74.0999360355294
20
1.74084278325813
30
0
41
1
10
74.2827882737239
20
1.64156458095934
30
0
41
1
10
74.6486156372698
20
1.43892580915002
30
0
41
1
10
74.8310194575392
20
1.33610075278213
30
0
41
1
10
75.3794325755488
20
1.02767333611948
30
0
41
1
10
75.7454988827161
20
0.82025735052207
30
0
41
1
10
76.2940418263227
20
0.504388720223744
30
0
41
1
10
76.4768075234151
20
0.398322318437806
30
0
41
1
10
76.8420216189419
20
0.184336469216333
30
0
41
1
10
77.0246439999901
20
0.0763565240327182
30
0
41
1
10
77.5739448715087
20
-0.244437695681171
30
0
41
1
10
77.9402842328752
20
-0.455751321565145
30
0
41
1
10
78.4887386793248
20
-0.771143468083551
30
0
41
1
10
78.6713925507514
20
-0.875987406071914
30
0
41
1
10
79.0362149768001
20
-1.08533997944528
30
0
41
1
10
79.2183322780738
20
-1.1899279198488
30
0
41
1
10
79.7669907781439
20
-1.4980876176997
30
0
41
1
10
80.1345474102016
20
-1.69785660104182
30
0
41
1
10
80.6833204017684
20
-1.98913867073443
30
0
41
1
10
80.866003991019
20
-2.08490470379005
30
0
41
1
10
81.2307305513154
20
-2.27395784013854
30
0
41
1
10
81.4126624198469
20
-2.36739205205504
30
0
41
1
10
81.9604653573494
20
-2.63950822669455
30
0
41
1
10
82.3280149990259
20
-2.8119470476324
30
0
41
1
10
82.8775022722059
20
-3.05730049178953
30
0
41
1
10
83.0603441848032
20
-3.13682983356836
30
0
41
1
10
83.4252266622794
20
-3.2914949665948
30
0
41
1
10
83.607106548089
20
-3.3667959234088
30
0
41
1
10
84.1544377649319
20
-3.58258233341238
30
0
41
1
10
84.5206944882617
20
-3.71419892036224
30
0
41
1
10
85.0707412293872
20
-3.89490619212691
30
0
41
1
10
85.2540292016191
20
-3.95225200268772
30
0
41
1
10
85.619366482637
20
-4.06090852161401
30
0
41
1
10
85.8013589780383
20
-4.11239602390148
30
0
41
1
10
86.348657456889
20
-4.25562731322557
30
0
41
1
10
86.7145950429897
20
-4.33694635999592
30
0
41
1
10
87.2636756921518
20
-4.43895590898686
30
0
41
1
10
87.4467672306251
20
-4.46959795414628
30
0
41
1
10
87.8128217499125
20
-4.5240381031594
30
0
41
1
10
87.9950606300226
20
-4.54781457653712
30
0
41
1
10
88.5426898849678
20
-4.60761648149219
30
0
41
1
10
88.9085510779705
20
-4.63256015392972
30
0
41
1
10
89.4014521197954
20
-4.64683082116304
30
0
41
1
10
89.52868334705
20
-4.64876145621326
30
0
41
1
10
89.655872454884
20
-4.64891152024344
30
0
0
SPLINE
5
C4
100
AcDbEntity
8
1
62
256
6
ByLayer
370
18
48
1
60
0
100
AcDbSpline
70
4
71
3
72
18
73
14
40
0
40
0
40
0
40
0
40
0.145174465237308
40
0.145174465237308
40
0.550689559503702
40
0.550689559503702
40
0.753447106636902
40
0.753447106636902
40
0.854825880203502
40
0.854825880203502
40
0.956204653770102
40
0.956204653770102
40
1
40
1
40
1
40
1
41
1
10
27.8867332783319
20
-0.0067463232590796
30
0
41
1
10
28.1866634068677
20
-0.176378925353731
30
0
41
1
10
28.4855551118335
20
-0.345399141608198
30
0
41
1
10
29.6171280822336
20
-0.98124548814684
30
0
41
1
10
30.4458363622058
20
-1.43850269767893
30
0
41
1
10
31.6965713908413
20
-2.08261028650057
30
0
41
1
10
32.1147811890898
20
-2.29033685456992
30
0
41
1
10
32.7459244821167
20
-2.58816848715392
30
0
41
1
10
32.9567405562184
20
-2.68503375715778
30
0
41
1
10
33.3763210258468
20
-2.87210401478836
30
0
41
1
10
33.585522229192
20
-2.9625274519102
30
0
41
1
10
33.8845448892934
20
-3.08719499798835
30
0
41
1
10
33.9746786540623
20
-3.12418259506924
30
0
41
1
10
34.0647503379135
20
-3.16053633602834
30
0
0
SPLINE
5
C5
100
AcDbEntity
8
1
62
256
6
ByLayer
370
13
48
1
60
0
100
AcDbSpline
70
4
71
3
72
16
73
12
40
0
40
0
40
0
40
0
40
0.284032125349847
40
0.284032125349847
40
0.443242832963354
40
0.443242832963354
40
0.602453540576861
40
0.602453540576861
40
0.92087495580388
40
0.92087495580388
40
1
40
1
40
1
40
1
41
1
10
34.0647503379021
20
-3.16053633602374
30
0
41
1
10
34.8086811340428
20
-3.46079349008224
30
0
41
1
10
35.5483769962565
20
-3.71781128980629
30
0
41
1
10
36.7063778903763
20
-4.04050077596659
30
0
41
1
10
37.1231736037051
20
-4.14048054075408
30
0
41
1
10
37.9610410370369
20
-4.30617131888462
30
0
41
1
10
38.383480764527
20
-4.37207614828279
30
0
41
1
10
39.6404372468081
20
-4.51259990833631
30
0
41
1
10
40.4703253284484
20
-4.53191566544169
30
0
41
1
10
41.5075724189303
20
-4.46414041359856
30
0
41
1
10
41.7141370303368
20
-4.44612905198457
30
0
41
1
10
41.9209506105783
20
-4.423617527342
30
0
0
SPLINE
5
C6
100
AcDbEntity
8
1
62
256
6
ByLayer
370
18
48
1
60
0
100
AcDbSpline
70
4
71
3
72
16
73
12
40
0
40
0
40
0
40
0
40
0.165550846935324
40
0.165550846935324
40
0.357160254677621
40
0.357160254677621
40
0.548769662419918
40
0.548769662419918
40
0.931988477904509
40
0.931988477904509
40
1
40
1
40
1
40
1
41
1
10
77.8121836184482
20
0.0358316201884179
30
0
41
1
10
78.1724400493029
20
-0.169218726518352
30
0
41
1
10
78.5338779267226
20
-0.37511865562908
30
0
41
1
10
79.3178565283281
20
-0.818256246371959
30
0
41
1
10
79.7363571385999
20
-1.0519389120615
30
0
41
1
10
80.5697873838553
20
-1.50715731490627
30
0
41
1
10
80.9849505580109
20
-1.72884126441358
30
0
41
1
10
82.2297175349547
20
-2.36988182195864
30
0
41
1
10
83.0586864131926
20
-2.76502543676841
30
0
41
1
10
84.0452292900256
20
-3.17405608120853
30
0
41
1
10
84.1943728259124
20
-3.23426495096868
30
0
41
1
10
84.3435856791941
20
-3.29277395481066
30
0
0
SPLINE
5
C7
100
AcDbEntity
8
1
62
256
6
ByLayer
370
13
48
1
60
0
100
AcDbSpline
70
4
71
3
72
20
73
16
40
0
40
0
40
0
40
0
40
0.0256952915393545
40
0.0256952915393545
40
0.114268446853959
40
0.114268446853959
40
0.291414757483167
40
0.291414757483167
40
0.468561068112376
40
0.468561068112376
40
0.645707378741584
40
0.645707378741584
40
0.822853689370793
40
0.822853689370793
40
1
40
1
40
1
40
1
41
1
10
84.3435856798845
20
-3.2927739550814
30
0
41
1
10
84.4045621116875
20
-3.31668389449911
30
0
41
1
10
84.4655501193641
20
-3.34030995952935
30
0
41
1
10
84.7367041009766
20
-3.4440358079936
30
0
41
1
10
84.9465637855076
20
-3.52081338873541
30
0
41
1
10
85.5757195773939
20
-3.73978138289124
30
0
41
1
10
85.9946185945818
20
-3.87058687668608
30
0
41
1
10
86.8337848490343
20
-4.09938300380051
30
0
41
1
10
87.2551223700287
20
-4.19747365109441
30
0
41
1
10
88.0926209335797
20
-4.35689870859454
30
0
41
1
10
88.509676886231
20
-4.41851771036625
30
0
41
1
10
89.3427777918209
20
-4.5049844675151
30
0
41
1
10
89.7588849703834
20
-4.52988258365036
30
0
41
1
10
90.5926659115212
20
-4.54231341584301
30
0
41
1
10
91.0103679155785
20
-4.52950222638026
30
0
41
1
10
91.4298462436915
20
-4.49834005143887
30
0
0
SPLINE
5
C8
100
AcDbEntity
8
1
62
256
6
ByLayer
370
13
48
1
60
0
100
AcDbSpline
70
4
71
3
72
8
73
4
40
0
40
0
40
0
40
0
40
1
40
1
40
1
40
1
41
1
10
11.1267978407353
20
-3.88221338772959
30
0
41
1
10
11.1500377265097
20
-3.87762701486116
30
0
41
1
10
11.1751285238105
20
-3.87922909222686
30
0
41
1
10
11.2010222254411
20
-3.88655933595959
30
0
0
SPLINE
5
C9
100
AcDbEntity
8
1
62
256
6
ByLayer
370
18
48
1
60
0
100
AcDbSpline
70
4
71
3
72
8
73
4
40
0
40
0
40
0
40
0
40
1
40
1
40
1
40
1
41
1
10
91.3872316336224
20
-4.6123648433022
30
0
41
1
10
91.401451241444
20
-4.57438117023978
30
0
41
1
10
91.415656500819
20
-4.53637185568098
30
0
41
1
10
91.429846243691
20
-4.49834005143887
30
0
0
SPLINE
5
CA
100
AcDbEntity
8
1
62
256
6
ByLayer
370
18
48
1
60
0
100
AcDbSpline
70
4
71
3
72
96
73
92
40
0
40
0
40
0
40
0
40
0.0048582682257148
40
0.0048582682257148
40
0.0232609200966808
40
0.0232609200966808
40
0.0416635719676468
40
0.0416635719676468
40
0.0600662238386127
40
0.0600662238386127
40
0.0784688757095787
40
0.0784688757095787
40
0.0968715275805447
40
0.0968715275805447
40
0.115274179451511
40
0.115274179451511
40
0.152079483193443
40
0.152079483193443
40
0.170482135064408
40
0.170482135064408
40
0.188884786935373
40
0.188884786935373
40
0.207287438806339
40
0.207287438806339
40
0.225690090677304
40
0.225690090677304
40
0.24409274254827
40
0.24409274254827
40
0.262495394419235
40
0.262495394419235
40
0.280898046290201
40
0.280898046290201
40
0.299300698161166
40
0.299300698161166
40
0.336106001903097
40
0.336106001903097
40
0.354508653774062
40
0.354508653774062
40
0.372911305645028
40
0.372911305645028
40
0.391313957515993
40
0.391313957515993
40
0.409716609386959
40
0.409716609386959
40
0.428119261257924
40
0.428119261257924
40
0.44652191312889
40
0.44652191312889
40
0.483327216870821
40
0.483327216870821
40
0.501729868741787
40
0.501729868741787
40
0.520132520612753
40
0.520132520612753
40
0.538535172483719
40
0.538535172483719
40
0.556937824354685
40
0.556937824354685
40
0.575340476225651
40
0.575340476225651
40
0.593743128096617
40
0.593743128096617
40
0.63054843183855
40
0.63054843183855
40
0.648951083709516
40
0.648951083709516
40
0.667353735580482
40
0.667353735580482
40
0.704159039322412
40
0.704159039322412
40
0.740964343064343
40
0.740964343064343
40
0.777769646806274
40
0.777769646806274
40
0.814574950548204
40
0.814574950548204
40
0.832977602419169
40
0.832977602419169
40
0.851380254290134
40
0.851380254290134
40
0.888185558032064
40
0.888185558032064
40
0.924990861773993
40
0.924990861773993
40
0.943393513644958
40
0.943393513644958
40
0.961796165515922
40
0.961796165515922
40
0.998601469257851
40
0.998601469257851
40
1
40
1
40
1
40
1
41
1
10
28.2154607908024
20
4.39993847575718
30
0
41
1
10
28.2646848089564
20
4.3991767368407
30
0
41
1
10
28.3139066751105
20
4.39816791944514
30
0
41
1
10
28.5495668224302
20
4.39218334772588
30
0
41
1
10
28.7359801167244
20
4.38390796397667
30
0
41
1
10
29.108744198785
20
4.36079845047647
30
0
41
1
10
29.2949943561029
20
4.34591442344265
30
0
41
1
10
29.6684017862665
20
4.30867349888254
30
0
41
1
10
29.8554175927399
20
4.28625806515061
30
0
41
1
10
30.2288218174169
20
4.23507249628497
30
0
41
1
10
30.415385920339
20
4.20643455387565
30
0
41
1
10
30.7882325343527
20
4.14174666246171
30
0
41
1
10
30.9745111419247
20
4.10549152569305
30
0
41
1
10
31.3469090286438
20
4.02553788021871
30
0
41
1
10
31.5329471027111
20
3.98184543908027
30
0
41
1
10
32.0922664742538
20
3.84163392655762
30
0
41
1
10
32.4668764018487
20
3.73584279782219
30
0
41
1
10
33.0267735356048
20
3.56149184503741
30
0
41
1
10
33.2131719948533
20
3.50042804474799
30
0
41
1
10
33.5855800394194
20
3.37167029822413
30
0
41
1
10
33.7715311376027
20
3.30407141502823
30
0
41
1
10
34.1440652667572
20
3.16443704451785
30
0
41
1
10
34.3305469661765
20
3.09218460321665
30
0
41
1
10
34.7039446755021
20
2.94186889912757
30
0
41
1
10
34.8911135552364
20
2.86379269192611
30
0
41
1
10
35.2647672251221
20
2.70322927556663
30
0
41
1
10
35.4510608053659
20
2.62080714315616
30
0
41
1
10
35.8226795040394
20
2.45199324354996
30
0
41
1
10
36.0079512156052
20
2.36551046958914
30
0
41
1
10
36.3785050991574
20
2.19033235118866
30
0
41
1
10
36.5636844545832
20
2.10156535855194
30
0
41
1
10
36.9336266502423
20
1.92049301346861
30
0
41
1
10
37.1184107397832
20
1.82816703078495
30
0
41
1
10
37.6724021389292
20
1.54633674287348
30
0
41
1
10
38.0408016025665
20
1.35135951272369
30
0
41
1
10
38.5949566582784
20
1.05493239999223
30
0
41
1
10
38.7799376405117
20
0.955546115181448
30
0
41
1
10
39.1502710063691
20
0.755265956346449
30
0
41
1
10
39.3357352042018
20
0.6541474530664
30
0
41
1
10
39.7073529031139
20
0.450259896348968
30
0
41
1
10
39.8934741513459
20
0.347500219402036
30
0
41
1
10
40.2664242690059
20
0.140579097325855
30
0
41
1
10
40.4533898455114
20
0.0362629029303889
30
0
41
1
10
40.8270588749604
20
-0.17080015767209
30
0
41
1
10
41.0138556935981
20
-0.273889522951038
30
0
41
1
10
41.3872517751411
20
-0.479553842502923
30
0
41
1
10
41.573841434488
20
-0.582209620112621
30
0
41
1
10
42.1333647449875
20
-0.888242522496142
30
0
41
1
10
42.5056457893989
20
-1.09105020310497
30
0
41
1
10
43.0664176501911
20
-1.38791035313906
30
0
41
1
10
43.2537741480002
20
-1.48569814735876
30
0
41
1
10
43.6278234905486
20
-1.67858734951471
30
0
41
1
10
43.8146955604121
20
-1.77383735908523
30
0
41
1
10
44.1880625369617
20
-1.96178501140926
30
0
41
1
10
44.3745431508198
20
-2.0539856619817
30
0
41
1
10
44.7472555227651
20
-2.23546093267527
30
0
41
1
10
44.9335086907635
20
-2.32470641369588
30
0
41
1
10
45.306769086094
20
-2.49867141169543
30
0
41
1
10
45.4936492224983
20
-2.58341540462217
30
0
41
1
10
45.8679704595444
20
-2.74809165268587
30
0
41
1
10
46.0553564745611
20
-2.82801323314445
30
0
41
1
10
46.6162272714687
20
-3.06058254959476
30
0
41
1
10
46.9886990496852
20
-3.20683130560767
30
0
41
1
10
47.5485037496514
20
-3.41137624787228
30
0
41
1
10
47.7352104693549
20
-3.47706769818771
30
0
41
1
10
48.1089255172819
20
-3.60145756197807
30
0
41
1
10
48.2959542722056
20
-3.66028596728143
30
0
41
1
10
48.8576054576081
20
-3.82757475422105
30
0
41
1
10
49.2307877843949
20
-3.92602829181104
30
0
41
1
10
49.9776648350265
20
-4.09875381704435
30
0
41
1
10
50.3512099302104
20
-4.17277379032845
30
0
41
1
10
51.0987622750516
20
-4.29141515982573
30
0
41
1
10
51.4727796466809
20
-4.3384883922721
30
0
41
1
10
52.2200410523931
20
-4.39873222247306
30
0
41
1
10
52.5934458517044
20
-4.41350104087448
30
0
41
1
10
53.1533845615625
20
-4.41511339497546
30
0
41
1
10
53.3399937396876
20
-4.41206724818784
30
0
41
1
10
53.7131626381493
20
-4.39992967150221
30
0
41
1
10
53.9000734707533
20
-4.39039647052215
30
0
41
1
10
54.4615032614088
20
-4.3497042164903
30
0
41
1
10
54.835109371291
20
-4.30873402884294
30
0
41
1
10
55.581182564121
20
-4.19653293371144
30
0
41
1
10
55.9533645334065
20
-4.12468693682436
30
0
41
1
10
56.5140358064879
20
-3.99846553145895
30
0
41
1
10
56.7013499919626
20
-3.95321162855808
30
0
41
1
10
57.0756118918002
20
-3.85677156755983
30
0
41
1
10
57.2625330732072
20
-3.80596902792431
30
0
41
1
10
57.8225020578412
20
-3.64393668614446
30
0
41
1
10
58.1944931100534
20
-3.52068767906638
30
0
41
1
10
58.5819783867539
20
-3.38222999645788
30
0
41
1
10
58.5961649522933
20
-3.37714593227261
30
0
41
1
10
58.6103532669353
20
-3.37204640972129
30
0
0
SPLINE
5
CB
100
AcDbEntity
8
1
62
256
6
ByLayer
370
18
48
1
60
0
100
AcDbSpline
70
4
71
3
72
34
73
30
40
0
40
0
40
0
40
0
40
0.0540377794720618
40
0.0540377794720618
40
0.113160418255059
40
0.113160418255059
40
0.172283057038054
40
0.172283057038054
40
0.231405695821051
40
0.231405695821051
40
0.290528334604048
40
0.290528334604048
40
0.40877361217004
40
0.40877361217004
40
0.467896250953037
40
0.467896250953037
40
0.527018889736033
40
0.527018889736033
40
0.645264167302025
40
0.645264167302025
40
0.70438680608502
40
0.70438680608502
40
0.763509444868015
40
0.763509444868015
40
0.881754722434004
40
0.881754722434004
40
0.940877361217002
40
0.940877361217002
40
1
40
1
40
1
40
1
41
1
10
78.1956970437536
20
4.42865253334529
30
0
41
1
10
78.3662284516975
20
4.42639499594503
30
0
41
1
10
78.5369759894186
20
4.42117344756221
30
0
41
1
10
78.8940168204493
20
4.40448981550068
30
0
41
1
10
79.0804302885387
20
4.39260742002807
30
0
41
1
10
79.4529678733894
20
4.36212754394509
30
0
41
1
10
79.6390794966468
20
4.34246907705946
30
0
41
1
10
80.0111344208189
20
4.29548647366826
30
0
41
1
10
80.1969864042449
20
4.26823207359382
30
0
41
1
10
80.5694843708666
20
4.20692309996409
30
0
41
1
10
80.7560662255632
20
4.17286081683841
30
0
41
1
10
81.3166194202338
20
4.06079842537227
30
0
41
1
10
81.6896246464797
20
3.97356265157333
30
0
41
1
10
82.247751678754
20
3.82288384514044
30
0
41
1
10
82.4335219583393
20
3.76914316257151
30
0
41
1
10
82.805704933219
20
3.65583211132673
30
0
41
1
10
82.9920255067566
20
3.59623792456281
30
0
41
1
10
83.5515515570577
20
3.40858265109861
30
0
41
1
10
83.9257143112316
20
3.27132164818084
30
0
41
1
10
84.4843138603466
20
3.04980652885806
30
0
41
1
10
84.6701841840398
20
2.97325339369397
30
0
41
1
10
85.0423942819354
20
2.8163621728763
30
0
41
1
10
85.2286228874613
20
2.73584796732672
30
0
41
1
10
85.7875820119667
20
2.4873989351762
30
0
41
1
10
86.161215415254
20
2.31252940894973
30
0
41
1
10
86.7205412565988
20
2.03826820789382
30
0
41
1
10
86.9065546841716
20
1.94488770595555
30
0
41
1
10
87.2788613482988
20
1.75615551480004
30
0
41
1
10
87.4650306901466
20
1.66062799523883
30
0
41
1
10
87.6511771037672
20
1.56385787257309
30
0
0
SPLINE
5
CC
100
AcDbEntity
8
1
62
256
6
ByLayer
370
18
48
1
60
0
100
AcDbSpline
70
4
71
3
72
60
73
56
40
0
40
0
40
0
40
0
40
0.0624999999999997
40
0.0624999999999997
40
0.124999999999999
40
0.124999999999999
40
0.249999999999998
40
0.249999999999998
40
0.374999999999996
40
0.374999999999996
40
0.499999999999994
40
0.499999999999994
40
0.562499999999993
40
0.562499999999993
40
0.624999999999991
40
0.624999999999991
40
0.65624999999999
40
0.65624999999999
40
0.671874999999989
40
0.671874999999989
40
0.675781249999989
40
0.675781249999989
40
0.679687499999989
40
0.679687499999989
40
0.683593749999989
40
0.683593749999989
40
0.687499999999988
40
0.687499999999988
40
0.71874999999999
40
0.71874999999999
40
0.73437499999999
40
0.73437499999999
40
0.749999999999991
40
0.749999999999991
40
0.765624999999991
40
0.765624999999991
40
0.781249999999992
40
0.781249999999992
40
0.796874999999993
40
0.796874999999993
40
0.804687499999993
40
0.804687499999993
40
0.812499999999993
40
0.812499999999993
40
0.828124999999994
40
0.828124999999994
40
0.843749999999994
40
0.843749999999994
40
0.874999999999996
40
0.874999999999996
40
0.906249999999997
40
0.906249999999997
40
0.937499999999998
40
0.937499999999998
40
1
40
1
40
1
40
1
41
1
10
21.371101129045
20
3.05653838655954
30
0
41
1
10
21.0570800555421
20
3.19300259434331
30
0
41
1
10
20.7412863229082
20
3.31929753895992
30
0
41
1
10
20.1052139707781
20
3.55223547517673
30
0
41
1
10
19.7843291405465
20
3.65903031379838
30
0
41
1
10
18.8175906376821
20
3.94903886122182
30
0
41
1
10
18.1693983110787
20
4.10125565172305
30
0
41
1
10
16.8554785848316
20
4.33483457158289
30
0
41
1
10
16.1896604806673
20
4.41617518571175
30
0
41
1
10
14.8319802643211
20
4.52783351005854
30
0
41
1
10
14.1401209866695
20
4.55841320231116
30
0
41
1
10
13.0789817666162
20
4.58466194909877
30
0
41
1
10
12.7217661875799
20
4.59013435756796
30
0
41
1
10
12.0047109786228
20
4.59728970339813
30
0
41
1
10
11.6440054955989
20
4.59899751913977
30
0
41
1
10
11.1012638589131
20
4.60036831919416
30
0
41
1
10
10.9199901318512
20
4.60062089940013
30
0
41
1
10
10.6477517398091
20
4.60083203019803
30
0
41
1
10
10.5569600244844
20
4.60087397748592
30
0
41
1
10
10.4434127166669
20
4.60090163320066
30
0
41
1
10
10.4207485862507
20
4.60091700237757
30
0
41
1
10
10.3751580962037
20
4.60088641766021
30
0
41
1
10
10.3521407657628
20
4.600839831755
30
0
41
1
10
10.3084598449958
20
4.60060639534959
30
0
41
1
10
10.2884021591648
20
4.600374688659
30
0
41
1
10
10.248008466929
20
4.59985416966168
30
0
41
1
10
10.2278924243436
20
4.59955117677117
30
0
41
1
10
10.0476059637706
20
4.59640972357465
30
0
41
1
10
9.89282954974442
20
4.59076234292826
30
0
41
1
10
9.676247784738
20
4.57468817582199
30
0
41
1
10
9.60653536578158
20
4.56804350334511
30
0
41
1
10
9.47334453780758
20
4.55120091530372
30
0
41
1
10
9.40945138740003
20
4.5409222904091
30
0
41
1
10
9.29199438970136
20
4.51573302003882
30
0
41
1
10
9.23864670737009
20
4.50091129359984
30
0
41
1
10
9.14518535053224
20
4.46533402799423
30
0
41
1
10
9.10487210412532
20
4.4442869530568
30
0
41
1
10
9.04357110486185
20
4.39644067760406
30
0
41
1
10
9.02208259419234
20
4.36956109542061
30
0
41
1
10
9.00450269237456
20
4.32412861667615
30
0
41
1
10
9.00109644380441
20
4.30801170140671
30
0
41
1
10
8.99935076473986
20
4.27470096666292
30
0
41
1
10
9.00095995321513
20
4.25749553919203
30
0
41
1
10
9.01266836990274
20
4.2042700202623
30
0
41
1
10
9.02980270311014
20
4.16637586466052
30
0
41
1
10
9.07921639090753
20
4.08767557519741
30
0
41
1
10
9.11100133733822
20
4.04743514025509
30
0
41
1
10
9.22255023324277
20
3.92423977512797
30
0
41
1
10
9.31929052418144
20
3.83810429693506
30
0
41
1
10
9.53246977196977
20
3.66623270531585
30
0
41
1
10
9.64964969844743
20
3.57975769179453
30
0
41
1
10
9.89772349482934
20
3.40506588816629
30
0
41
1
10
10.0292369948987
20
3.31653777609364
30
0
41
1
10
10.4324728269502
20
3.05199013926006
30
0
41
1
10
10.7142295883389
20
2.87570328318739
30
0
41
1
10
11.0031135515663
20
2.69761318169054
30
0
0
SPLINE
5
CD
100
AcDbEntity
8
1
62
256
6
ByLayer
370
18
48
1
60
0
100
AcDbSpline
70
4
71
3
72
16
73
12
40
0
40
0
40
0
40
0
40
0.350077533522863
40
0.350077533522863
40
0.614491730355417
40
0.614491730355417
40
0.746698828771697
40
0.746698828771697
40
0.878905927187977
40
0.878905927187977
40
1
40
1
40
1
40
1
41
1
10
65.5709754421792
20
-4.42367582317783
30
0
41
1
10
65.0214978296252
20
-4.42311384878573
30
0
41
1
10
64.4724888697198
20
-4.39087986427512
30
0
41
1
10
63.5048155987361
20
-4.27909720239853
30
0
41
1
10
63.08716132451
20
-4.21321891015538
30
0
41
1
10
62.4568314250173
20
-4.08767475114618
30
0
41
1
10
62.2464481486467
20
-4.04140277850016
30
0
41
1
10
61.827593392339
20
-3.94095333978129
30
0
41
1
10
61.6187191052785
20
-3.88671365819687
30
0
41
1
10
61.2192592917802
20
-3.77548585002882
30
0
41
1
10
61.0285890565578
20
-3.71911562044301
30
0
41
1
10
60.8381153520016
20
-3.65967791498267
30
0
0
SPLINE
5
CE
100
AcDbEntity
8
1
62
256
6
ByLayer
370
13
48
1
60
0
100
AcDbSpline
70
4
71
3
72
26
73
22
40
0
40
0
40
0
40
0
40
0.162677780436345
40
0.162677780436345
40
0.26817371849593
40
0.26817371849593
40
0.373669656555515
40
0.373669656555515
40
0.479165594615101
40
0.479165594615101
40
0.531913563644893
40
0.531913563644893
40
0.584661532674686
40
0.584661532674686
40
0.795653408793856
40
0.795653408793856
40
0.901149346853441
40
0.901149346853441
40
0.953897315883232
40
0.953897315883232
40
1
40
1
40
1
40
1
41
1
10
60.8381153519612
20
-3.65967791497002
30
0
41
1
10
60.1967737506552
20
-3.45954596874151
30
0
41
1
10
59.5576602719962
20
-3.22463719812961
30
0
41
1
10
58.5014368208556
20
-2.78816587315984
30
0
41
1
10
58.085024965121
20
-2.60414169934398
30
0
41
1
10
57.2478333761215
20
-2.21449485179193
30
0
41
1
10
56.8262033998656
20
-2.00808778849719
30
0
41
1
10
55.9867735047561
20
-1.58166177813379
30
0
41
1
10
55.5677104327431
20
-1.36152114986365
30
0
41
1
10
54.9383161792064
20
-1.02394345685064
30
0
41
1
10
54.7283898738285
20
-0.910178195292133
30
0
41
1
10
54.3080390210183
20
-0.680603361755317
30
0
41
1
10
54.0974815037412
20
-0.564751551247497
30
0
41
1
10
53.0469385898388
20
0.0152551546441089
30
0
41
1
10
52.2109247811152
20
0.484674394954737
30
0
41
1
10
50.9479362023661
20
1.16867453820095
30
0
41
1
10
50.5280590395705
20
1.39230169896078
30
0
41
1
10
49.8979432404489
20
1.71766750965671
30
0
41
1
10
49.6878581981434
20
1.82445224841251
30
0
41
1
10
49.2937895927413
20
2.02098802792202
30
0
41
1
10
49.1097669846186
20
2.11122676900993
30
0
41
1
10
48.9262754611416
20
2.19942983785336
30
0
0
SPLINE
5
CF
100
AcDbEntity
8
1
62
256
6
ByLayer
370
18
48
1
60
0
100
AcDbSpline
70
4
71
3
72
14
73
10
40
0
40
0
40
0
40
0
40
0.420118878736595
40
0.420118878736595
40
0.565089159052448
40
0.565089159052448
40
0.710059439368299
40
0.710059439368299
40
1
40
1
40
1
40
1
41
1
10
15.5905100929881
20
-4.39351068883235
30
0
41
1
10
14.9876363261651
20
-4.39368177124243
30
0
41
1
10
14.3834363562389
20
-4.35607362899842
30
0
41
1
10
13.5636907491369
20
-4.2538523212439
30
0
41
1
10
13.3527242100826
20
-4.22303216185051
30
0
41
1
10
12.9319195672743
20
-4.15277450370925
30
0
41
1
10
12.7217662996147
20
-4.11330711708555
30
0
41
1
10
12.0914326950223
20
-3.98221255803961
30
0
41
1
10
11.6713386733524
20
-3.87788579092876
30
0
41
1
10
11.2502315712679
20
-3.75738496089355
30
0
0
SPLINE
5
D0
100
AcDbEntity
8
1
62
256
6
ByLayer
370
18
48
1
60
0
100
AcDbSpline
70
4
71
3
72
82
73
78
40
0
40
0
40
0
40
0
40
0.0291303378277157
40
0.0291303378277157
40
0.0648650355940479
40
0.0648650355940479
40
0.10059973336038
40
0.10059973336038
40
0.172069128893044
40
0.172069128893044
40
0.243538524425708
40
0.243538524425708
40
0.315007919958372
40
0.315007919958372
40
0.386477315491037
40
0.386477315491037
40
0.422212013257369
40
0.422212013257369
40
0.440079362140535
40
0.440079362140535
40
0.449013036582118
40
0.449013036582118
40
0.453479873802909
40
0.455713292413305
40
0.456830001718503
40
0.456830001718503
40
0.457109179044802
40
0.457109179044802
40
0.457388356371102
40
0.457388356371102
40
0.457946711023701
40
0.457946711023701
40
0.462413548244493
40
0.462413548244493
40
0.466880385465284
40
0.466880385465284
40
0.475814059906868
40
0.475814059906868
40
0.493681408790035
40
0.493681408790035
40
0.52941610655637
40
0.52941610655637
40
0.600885502089038
40
0.600885502089038
40
0.672354897621707
40
0.672354897621707
40
0.708089595388041
40
0.708089595388041
40
0.717023269829625
40
0.717023269829625
40
0.721490107050417
40
0.721490107050417
40
0.722606816355615
40
0.722606816355615
40
0.722885993681914
40
0.722885993681914
40
0.723165171008213
40
0.723165171008213
40
0.723723525660812
40
0.725956944271208
40
0.743824293154375
40
0.743824293154375
40
0.77955899092071
40
0.77955899092071
40
0.815293688687044
40
0.815293688687044
40
0.851028386453379
40
0.851028386453379
40
0.886763084219713
40
0.886763084219713
40
0.958232479752382
40
0.958232479752382
40
0.97609982863555
40
0.97609982863555
40
0.993967177518717
40
0.993967177518717
40
1
40
1
40
1
40
1
41
1
10
21.3710955812003
20
3.05657358263852
30
0
41
1
10
21.255819217076
20
3.0746726715808
30
0
41
1
10
21.1405387923485
20
3.08969383053673
30
0
41
1
10
20.8836756295468
20
3.11543103332181
30
0
41
1
10
20.742039595001
20
3.12438405840524
30
0
41
1
10
20.4580125943292
20
3.13033322039527
30
0
41
1
10
20.3150418018822
20
3.12727584188886
30
0
41
1
10
19.8884620329991
20
3.09835462038194
30
0
41
1
10
19.6087360822065
20
3.0528762525681
30
0
41
1
10
19.0523860702223
20
2.91001458761306
30
0
41
1
10
18.7753869972502
20
2.81255864928838
30
0
41
1
10
18.2175553079763
20
2.5718095866454
30
0
41
1
10
17.9433651060341
20
2.43171653250201
30
0
41
1
10
17.395542127084
20
2.12460955409915
30
0
41
1
10
17.1219352663797
20
1.95758481145154
30
0
41
1
10
16.7063989209927
20
1.69467238711496
30
0
41
1
10
16.5675305631148
20
1.6052672682234
30
0
41
1
10
16.3592101773681
20
1.47018663688183
30
0
41
1
10
16.2896942867108
20
1.42494969047846
30
0
41
1
10
16.1854090739471
20
1.35700495785633
30
0
41
1
10
16.1506397420534
20
1.33433806558659
30
0
41
1
10
16.0984655005084
20
1.30032332109275
30
0
41
1
10
16.0723750336014
20
1.28331345939864
30
0
41
1
10
16.0419316567227
20
1.26346931757109
30
0
41
1
10
16.0288834776105
20
1.25496524240893
30
0
41
1
10
16.0234465735286
20
1.2514219718168
30
0
41
1
10
16.0218243381511
20
1.25105223577336
30
0
41
1
10
16.0211145852775
20
1.24858618517754
30
0
41
1
10
16.0221232077243
20
1.24742877781
30
0
41
1
10
16.0243551509039
20
1.24444440863198
30
0
41
1
10
16.0261548743065
20
1.24269465987609
30
0
41
1
10
16.0424558973393
20
1.22735936554795
30
0
41
1
10
16.059025979671
20
1.21609113179787
30
0
41
1
10
16.0914954251405
20
1.19300788377302
30
0
41
1
10
16.1079333198158
20
1.18173661245041
30
0
41
1
10
16.1574495614559
20
1.14825024403484
30
0
41
1
10
16.1907584247692
20
1.12637735937534
30
0
41
1
10
16.2910007283605
20
1.06126064408997
30
0
41
1
10
16.3582847709594
20
1.01856317884315
30
0
41
1
10
16.5605796848517
20
0.891333160795512
30
0
41
1
10
16.6960912720853
20
0.807736241074167
30
0
41
1
10
17.1033102875232
20
0.558647741127032
30
0
41
1
10
17.375640528558
20
0.394762265824283
30
0
41
1
10
17.9200139626856
20
0.0691281774299455
30
0
41
1
10
18.1923813084621
20
-0.0923217212057921
30
0
41
1
10
18.5986453779897
20
-0.335434116891719
30
0
41
1
10
18.7339296447178
20
-0.416346601275023
30
0
41
1
10
18.9008026883862
20
-0.519135121294454
30
0
41
1
10
18.9340786335122
20
-0.539763891995307
30
0
41
1
10
18.9832604231539
20
-0.571325379588046
30
0
41
1
10
18.999661787128
20
-0.581866512180738
30
0
41
1
10
19.019109788008
20
-0.595784838204793
30
0
41
1
10
19.0229711050014
20
-0.598584437712816
30
0
41
1
10
19.0273191891914
20
-0.602330921993314
30
0
41
1
10
19.02816573873
20
-0.603092168962746
30
0
41
1
10
19.029669881048
20
-0.604712661565912
30
0
41
1
10
19.0306840136149
20
-0.605934795333184
30
0
41
1
10
19.0277475750778
20
-0.607037866776921
30
0
41
1
10
19.0179597610024
20
-0.610706287393896
30
0
41
1
10
18.9455407599752
20
-0.637538549700167
30
0
41
1
10
18.8751713858342
20
-0.661426327205135
30
0
41
1
10
18.6877196742169
20
-0.719641545690536
30
0
41
1
10
18.5628455639335
20
-0.751154221709299
30
0
41
1
10
18.3145784099534
20
-0.798302882263471
30
0
41
1
10
18.1908649069065
20
-0.814056674709207
30
0
41
1
10
17.9424457902075
20
-0.829313819114645
30
0
41
1
10
17.8177456410958
20
-0.828815562404486
30
0
41
1
10
17.5651030274679
20
-0.810670329980582
30
0
41
1
10
17.4370600976768
20
-0.792877978932637
30
0
41
1
10
17.0528645105376
20
-0.714678342052736
30
0
41
1
10
16.7938020633553
20
-0.629208425141144
30
0
41
1
10
16.4554075115668
20
-0.485721593369817
30
0
41
1
10
16.386770182592
20
-0.455090742033008
30
0
41
1
10
16.2492988463105
20
-0.391069637209227
30
0
41
1
10
16.1804479777899
20
-0.357685965914442
30
0
41
1
10
16.0880945692884
20
-0.311431062129685
30
0
41
1
10
16.0647606843981
20
-0.299619650136861
30
0
41
1
10
16.0414027059749
20
-0.287678374483164
30
0
0
SPLINE
5
D1
100
AcDbEntity
8
1
62
256
6
ByLayer
370
18
48
1
60
0
100
AcDbSpline
70
4
71
3
72
28
73
24
40
0
40
0
40
0
40
0
40
0.0625000000000001
40
0.0625000000000001
40
0.125
40
0.125
40
0.25
40
0.25
40
0.375
40
0.375
40
0.437500000000001
40
0.437500000000001
40
0.500000000000001
40
0.500000000000001
40
0.625000000000001
40
0.625000000000001
40
0.687500000000001
40
0.687500000000001
40
0.750000000000001
40
0.750000000000001
40
0.875
40
0.875
40
1
40
1
40
1
40
1
41
1
10
11.0030998598421
20
-3.85965675784968
30
0
41
1
10
11.0030997514793
20
-3.77434615076328
30
0
41
1
10
11.0030991717808
20
-3.68199591574287
30
0
41
1
10
11.0030972998554
20
-3.48631115770974
30
0
41
1
10
11.0030960114011
20
-3.38296012659345
30
0
41
1
10
11.0030914264154
20
-3.05678080897439
30
0
41
1
10
11.0030874059724
20
-2.81764672129415
30
0
41
1
10
11.0030791302991
20
-2.29622573495036
30
0
41
1
10
11.0030750232408
20
-2.02227285885181
30
0
41
1
10
11.0030699961035
20
-1.59223425485666
30
0
41
1
10
11.0030685062627
20
-1.44567821929658
30
0
41
1
10
11.0030660551412
20
-1.14597110254573
30
0
41
1
10
11.0030651004889
20
-0.993025563323215
30
0
41
1
10
11.0030632626868
20
-0.534694813571122
30
0
41
1
10
11.0030633826334
20
-0.226416709876673
30
0
41
1
10
11.0030658945572
20
0.240098059337186
30
0
41
1
10
11.0030671293802
20
0.39717665604195
30
0
41
1
10
11.003070329687
20
0.706888526564512
30
0
41
1
10
11.0030722913005
20
0.859768962772705
30
0
41
1
10
11.0030791557257
20
1.31262533317795
30
0
41
1
10
11.0030850618711
20
1.60735060303878
30
0
41
1
10
11.0030986626982
20
2.17887270485051
30
0
41
1
10
11.003106131869
20
2.44681791573936
30
0
41
1
10
11.0031135520956
20
2.69761318136884
30
0
0
SPLINE
5
D2
100
AcDbEntity
8
1
62
256
6
ByLayer
370
18
48
1
60
0
100
AcDbSpline
70
4
71
3
72
8
73
4
40
0
40
0
40
0
40
0
40
1
40
1
40
1
40
1
41
1
10
91.4483001028003
20
-4.4123876120585
30
0
41
1
10
91.4238810034705
20
-4.4300624848257
30
0
41
1
10
91.4025478712534
20
-4.43896743481994
30
0
41
1
10
91.3843551115668
20
-4.43894784882781
30
0
0
SPLINE
5
D3
100
AcDbEntity
8
1
62
256
6
ByLayer
370
18
48
1
60
0
100
AcDbSpline
70
4
71
3
72
8
73
4
40
0
40
0
40
0
40
0
40
1
40
1
40
1
40
1
41
1
10
91.3872316336225
20
4.6123648433022
30
0
41
1
10
91.0495876725104
20
4.63723750795458
30
0
41
1
10
90.7118281088368
20
4.64958723266193
30
0
41
1
10
90.3735931769521
20
4.64934384953469
30
0
0
SPLINE
5
D4
100
AcDbEntity
8
1
62
256
6
ByLayer
370
18
48
1
60
0
100
AcDbSpline
70
4
71
3
72
58
73
54
40
0
40
0
40
0
40
0
40
0.0071389378215039
40
0.0071389378215039
40
0.0529014286871437
40
0.0529014286871437
40
0.144426410418423
40
0.144426410418423
40
0.235951392149701
40
0.235951392149701
40
0.281713883015341
40
0.281713883015341
40
0.327476373880981
40
0.327476373880981
40
0.350357619313802
40
0.350357619313802
40
0.373238864746622
40
0.373238864746622
40
0.419001355612265
40
0.419001355612265
40
0.441882601045086
40
0.441882601045086
40
0.464763846477907
40
0.464763846477907
40
0.510526337343549
40
0.510526337343549
40
0.556288828209192
40
0.556288828209192
40
0.602051319074834
40
0.602051319074834
40
0.647813809940476
40
0.647813809940476
40
0.693576300806119
40
0.693576300806119
40
0.739338791671761
40
0.739338791671761
40
0.785101282537404
40
0.785101282537404
40
0.807982527970225
40
0.807982527970225
40
0.830863773403047
40
0.830863773403047
40
0.876626264268691
40
0.876626264268691
40
0.899507509701514
40
0.899507509701514
40
0.922388755134336
40
0.922388755134336
40
0.96815124599998
40
0.96815124599998
40
0.991032491432802
40
0.991032491432802
40
1
40
1
40
1
40
1
41
1
10
67.7761552614962
20
-4.42632758356771
30
0
41
1
10
67.711056409296
20
-4.43756411284349
30
0
41
1
10
67.6459557303889
20
-4.44835546351305
30
0
41
1
10
67.1634879446864
20
-4.52500167296188
30
0
41
1
10
66.7452650695114
20
-4.57295387390371
30
0
41
1
10
65.4899060593915
20
-4.659464909825
30
0
41
1
10
64.6575186398087
20
-4.64039013340548
30
0
41
1
10
62.9824745619139
20
-4.45007830385671
30
0
41
1
10
62.1502741288117
20
-4.28008554422087
30
0
41
1
10
60.8943710984829
20
-3.92212929714978
30
0
41
1
10
60.47644104241
20
-3.78626259328982
30
0
41
1
10
59.6413550222228
20
-3.48508715024752
30
0
41
1
10
59.2240463462145
20
-3.31949358706092
30
0
41
1
10
58.5965128704136
20
-3.05060253293584
30
0
41
1
10
58.3870135598792
20
-2.95762207750676
30
0
41
1
10
57.9688793524917
20
-2.76623632822802
30
0
41
1
10
57.7600160405444
20
-2.66773303499991
30
0
41
1
10
57.1335644681968
20
-2.36450548504354
30
0
41
1
10
56.7163183880971
20
-2.15176752010066
30
0
41
1
10
56.0889933914779
20
-1.81972618840248
30
0
41
1
10
55.8794074427049
20
-1.70685200881829
30
0
41
1
10
55.4610286007118
20
-1.47831503945454
30
0
41
1
10
55.2520871201242
20
-1.36257698630231
30
0
41
1
10
54.6255698048773
20
-1.01169431390932
30
0
41
1
10
54.208405237113
20
-0.772703079328892
30
0
41
1
10
53.3721023446078
20
-0.289640128960599
30
0
41
1
10
52.9529166314579
20
-0.0452675092633967
30
0
41
1
10
52.1174682448302
20
0.440172148575641
30
0
41
1
10
51.7001862039506
20
0.681573489325558
30
0
41
1
10
50.864056111159
20
1.1575392459817
30
0
41
1
10
50.4447638069397
20
1.39262324488413
30
0
41
1
10
49.6089746633986
20
1.84753394224015
30
0
41
1
10
49.1917602508908
20
2.06791673983358
30
0
41
1
10
48.3559237805729
20
2.49022515447041
30
0
41
1
10
47.9365389214706
20
2.69260070846133
30
0
41
1
10
47.1003052025538
20
3.07211651370599
30
0
41
1
10
46.6830644237878
20
3.24966144095458
30
0
41
1
10
46.0563338038002
20
3.49494018367466
30
0
41
1
10
45.847292844101
20
3.5732120788241
30
0
41
1
10
45.4286107054007
20
3.72236497359387
30
0
41
1
10
45.2189882734472
20
3.79323550752184
30
0
41
1
10
44.5915176786438
20
3.99338176102077
30
0
41
1
10
44.1741897730747
20
4.11055925668967
30
0
41
1
10
43.5476045119927
20
4.26029298354732
30
0
41
1
10
43.3386358599533
20
4.30586122945815
30
0
41
1
10
42.9201543294071
20
4.38806276077264
30
0
41
1
10
42.7104550109944
20
4.42471683320221
30
0
41
1
10
42.0825651188367
20
4.52055534462698
30
0
41
1
10
41.6650648858139
20
4.56582629807363
30
0
41
1
10
41.038568712208
20
4.60527916215779
30
0
41
1
10
40.829652383955
20
4.6136787419473
30
0
41
1
10
40.5385199835893
20
4.61871402777871
30
0
41
1
10
40.4564753728944
20
4.61939589671215
30
0
41
1
10
40.3743992680413
20
4.61934179848541
30
0
0
SPLINE
5
D5
100
AcDbEntity
8
1
62
256
6
ByLayer
370
18
48
1
60
0
100
AcDbSpline
70
4
71
3
72
18
73
14
40
0
40
0
40
0
40
0
40
0.0583804697199927
40
0.0583804697199927
40
0.152542422747994
40
0.152542422747994
40
0.246704375775994
40
0.246704375775994
40
0.435028281831996
40
0.435028281831996
40
0.623352187887997
40
0.623352187887997
40
1
40
1
40
1
40
1
41
1
10
17.7910843632728
20
-4.39507908579799
30
0
41
1
10
17.6615113530726
20
-4.417438356166
30
0
41
1
10
17.5319396416438
20
-4.43804798205653
30
0
41
1
10
17.1932707586497
20
-4.48726567410012
30
0
41
1
10
16.9841069484994
20
-4.51303810535106
30
0
41
1
10
16.5652308258559
20
-4.55520536831054
30
0
41
1
10
16.3553465485057
20
-4.57160321109137
30
0
41
1
10
15.7270282381137
20
-4.60639924539302
30
0
41
1
10
15.3093271585001
20
-4.61049840994261
30
0
41
1
10
14.4733512667091
20
-4.58059017795165
30
0
41
1
10
14.054541380345
20
-4.54653595888584
30
0
41
1
10
12.7967029448521
20
-4.38807742384719
30
0
41
1
10
11.9635181653799
20
-4.20820901122426
30
0
41
1
10
11.1248887600027
20
-3.96102793746428
30
0
0
SPLINE
5
D6
100
AcDbEntity
8
1
62
256
6
ByLayer
370
13
48
1
60
0
100
AcDbSpline
70
4
71
3
72
8
73
4
40
0
40
0
40
0
40
0
40
1
40
1
40
1
40
1
41
1
10
11.0082973662367
20
-3.88113102964837
30
0
41
1
10
11.0246781666298
20
-3.88187777226773
30
0
41
1
10
11.0651392216107
20
-3.88214556184914
30
0
41
1
10
11.1267978407353
20
-3.88221338772959
30
0
0
SPLINE
5
D7
100
AcDbEntity
8
1
62
256
6
ByLayer
370
18
48
1
60
0
100
AcDbSpline
70
4
71
3
72
22
73
18
40
0
40
0
40
0
40
0
40
0.124999999999992
40
0.124999999999992
40
0.187499999999991
40
0.187499999999991
40
0.24999999999999
40
0.24999999999999
40
0.499999999999991
40
0.499999999999991
40
0.624999999999993
40
0.624999999999993
40
0.749999999999996
40
0.749999999999996
40
0.874999999999998
40
0.874999999999998
40
1
40
1
40
1
40
1
41
1
10
91.3843551115704
20
-4.43894784882781
30
0
41
1
10
91.3167021384606
20
-4.43889796322853
30
0
41
1
10
91.2524594071967
20
-4.42855626674856
30
0
41
1
10
91.1614825713851
20
-4.39678544043073
30
0
41
1
10
91.132057271494
20
-4.3834781021757
30
0
41
1
10
91.0750865868522
20
-4.35119000660293
30
0
41
1
10
91.0475075274935
20
-4.3321524347997
30
0
41
1
10
90.9164743667071
20
-4.22383318716564
30
0
41
1
10
90.8316147791508
20
-4.09503825254205
30
0
41
1
10
90.7362744367117
20
-3.83441851227269
30
0
41
1
10
90.7098057047771
20
-3.73527488384551
30
0
41
1
10
90.6698746757949
20
-3.51948177289853
30
0
41
1
10
90.6561333473303
20
-3.40243685751034
30
0
41
1
10
90.6410581646354
20
-3.15011041885589
30
0
41
1
10
90.6397222166615
20
-3.01483197299106
30
0
41
1
10
90.6500274103441
20
-2.72520124797992
30
0
41
1
10
90.6616019555635
20
-2.57352822570755
30
0
41
1
10
90.6792799764896
20
-2.41628829335875
30
0
0
SPLINE
5
D8
100
AcDbEntity
8
1
62
256
6
ByLayer
370
18
48
1
60
0
100
AcDbSpline
70
4
71
3
72
94
73
90
40
0
40
0
40
0
40
0
40
0.0286784356962741
40
0.0286784356962741
40
0.0463375402845734
40
0.0463375402845734
40
0.0639966448728727
40
0.0639966448728727
40
0.0993148540494702
40
0.0993148540494702
40
0.11697395863777
40
0.11697395863777
40
0.134633063226069
40
0.134633063226069
40
0.169951272402667
40
0.169951272402667
40
0.187610376990967
40
0.187610376990967
40
0.205269481579266
40
0.205269481579266
40
0.240587690755866
40
0.240587690755866
40
0.258246795344165
40
0.258246795344165
40
0.275905899932465
40
0.275905899932465
40
0.293565004520765
40
0.293565004520765
40
0.311224109109065
40
0.311224109109065
40
0.328883213697365
40
0.328883213697365
40
0.346542318285665
40
0.346542318285665
40
0.381860527462264
40
0.381860527462264
40
0.399519632050564
40
0.399519632050564
40
0.417178736638864
40
0.417178736638864
40
0.452496945815463
40
0.452496945815463
40
0.470156050403763
40
0.470156050403763
40
0.487815154992063
40
0.487815154992063
40
0.523133364168662
40
0.523133364168662
40
0.540792468756962
40
0.540792468756962
40
0.558451573345262
40
0.558451573345262
40
0.593769782521861
40
0.593769782521861
40
0.611428887110161
40
0.611428887110161
40
0.629087991698461
40
0.629087991698461
40
0.66440620087506
40
0.66440620087506
40
0.68206530546336
40
0.68206530546336
40
0.699724410051659
40
0.699724410051659
40
0.735042619228258
40
0.735042619228258
40
0.752701723816557
40
0.752701723816557
40
0.770360828404856
40
0.770360828404856
40
0.805679037581455
40
0.805679037581455
40
0.823338142169754
40
0.823338142169754
40
0.840997246758053
40
0.840997246758053
40
0.876315455934651
40
0.876315455934651
40
0.89397456052295
40
0.89397456052295
40
0.911633665111248
40
0.911633665111248
40
0.946951874287846
40
0.946951874287846
40
0.964610978876144
40
0.964610978876144
40
0.982270083464443
40
0.982270083464443
40
1
40
1
40
1
40
1
41
1
10
33.6226903837941
20
3.35499124334251
30
0
41
1
10
33.92009292172
20
3.47285399690162
30
0
41
1
10
34.2175495813255
20
3.58397304404565
30
0
41
1
10
34.6977085115179
20
3.75289138061058
30
0
41
1
10
34.8805404446031
20
3.81456582356731
30
0
41
1
10
35.2466406714515
20
3.93043651525252
30
0
41
1
10
35.4297925598922
20
3.98498445909803
30
0
41
1
10
35.9791635591312
20
4.13900548647368
30
0
41
1
10
36.3453083130579
20
4.22892069825883
30
0
41
1
10
36.8934002943065
20
4.3447349794682
30
0
41
1
10
37.0759309064946
20
4.38009084045453
30
0
41
1
10
37.4426397843522
20
4.44320484693574
30
0
41
1
10
37.6260441905772
20
4.47105912113662
30
0
41
1
10
38.175894889082
20
4.54393223969385
30
0
41
1
10
38.5420431714779
20
4.57834411509666
30
0
41
1
10
39.0896549579403
20
4.60844070222169
30
0
41
1
10
39.2718781190096
20
4.61482552995827
30
0
41
1
10
39.6378085325833
20
4.62012589870943
30
0
41
1
10
39.8213967181066
20
4.61909566672534
30
0
41
1
10
40.3721255508195
20
4.60511234938676
30
0
41
1
10
40.7385565188354
20
4.58139150829652
30
0
41
1
10
41.2861304592972
20
4.52364171009935
30
0
41
1
10
41.4682078866241
20
4.50059654400476
30
0
41
1
10
41.8336536859399
20
4.44777288593636
30
0
41
1
10
42.0167816645597
20
4.41793892374767
30
0
41
1
10
42.3835470231599
20
4.35137880143336
30
0
41
1
10
42.5674411271188
20
4.31459553153576
30
0
41
1
10
42.9338345939927
20
4.23435755868161
30
0
41
1
10
43.1164328260871
20
4.19089617516985
30
0
41
1
10
43.480278758077
20
4.09712780643139
30
0
41
1
10
43.6613751079681
20
4.0466623637775
30
0
41
1
10
44.0240845422633
20
3.94048985621791
30
0
41
1
10
44.2055024728999
20
3.88464720628329
30
0
41
1
10
44.7495043378473
20
3.70865788818403
30
0
41
1
10
45.1118603043265
20
3.58013112908691
30
0
41
1
10
45.6539668152942
20
3.36920584921913
30
0
41
1
10
45.8342248346072
20
3.2955809044137
30
0
41
1
10
46.1959736882769
20
3.14425468425949
30
0
41
1
10
46.3773604892529
20
3.06645953587776
30
0
41
1
10
46.9225617890766
20
2.82615268198666
30
0
41
1
10
47.2874370086677
20
2.65680914408799
30
0
41
1
10
47.8359786493416
20
2.38705470424512
30
0
41
1
10
48.0188821551996
20
2.29407451114386
30
0
41
1
10
48.3845526783924
20
2.10621739838322
30
0
41
1
10
48.5675771312137
20
2.01122510051064
30
0
41
1
10
49.1166879683873
20
1.72234857661539
30
0
41
1
10
49.4828411524695
20
1.52463848595613
30
0
41
1
10
50.0311726995314
20
1.21859542000109
30
0
41
1
10
50.2135654465614
20
1.11458801226144
30
0
41
1
10
50.5794865667154
20
0.905750537717523
30
0
41
1
10
50.7629645061991
20
0.801138301759011
30
0
41
1
10
51.3127029940338
20
0.486783445594796
30
0
41
1
10
51.6789439684032
20
0.276209792338221
30
0
41
1
10
52.2269018808491
20
-0.042936002562044
30
0
41
1
10
52.4090940088309
20
-0.150259698644902
30
0
41
1
10
52.7742750096528
20
-0.363820519783928
30
0
41
1
10
52.957435841889
20
-0.469757811139147
30
0
41
1
10
53.5080460976976
20
-0.786044437228924
30
0
41
1
10
53.8747363102658
20
-0.993738747788996
30
0
41
1
10
54.4227647497684
20
-1.30204561242846
30
0
41
1
10
54.6049217082163
20
-1.40461732800821
30
0
41
1
10
54.9696758851185
20
-1.6068884717136
30
0
41
1
10
55.152546570257
20
-1.70615111301379
30
0
41
1
10
55.7020482380761
20
-1.99935262476512
30
0
41
1
10
56.0700946067689
20
-2.18892393509415
30
0
41
1
10
56.6168276335384
20
-2.4624823686363
30
0
41
1
10
56.7982493845796
20
-2.55224140159322
30
0
41
1
10
57.1606241405839
20
-2.7270933469766
30
0
41
1
10
57.3419379640843
20
-2.81168065802891
30
0
41
1
10
57.8857689701594
20
-3.05790864296344
30
0
41
1
10
58.2481610899949
20
-3.21208864517013
30
0
41
1
10
58.7904932861383
20
-3.42965377245443
30
0
41
1
10
58.970936539164
20
-3.50001284341434
30
0
41
1
10
59.3319159284974
20
-3.63539303256769
30
0
41
1
10
59.5129172596811
20
-3.69990579005099
30
0
41
1
10
60.0572200671459
20
-3.8843455425253
30
0
41
1
10
60.4216564979843
20
-3.99541252093411
30
0
41
1
10
60.9696886658257
20
-4.14464129909609
30
0
41
1
10
61.1527810508289
20
-4.1915949180725
30
0
41
1
10
61.518196944384
20
-4.27880249023525
30
0
41
1
10
61.7010054263753
20
-4.31870132227942
30
0
41
1
10
62.2498464481257
20
-4.42758157962172
30
0
41
1
10
62.6159781291025
20
-4.48604185568362
30
0
41
1
10
63.1644431801666
20
-4.55299387376087
30
0
41
1
10
63.34707759782
20
-4.5718463598096
30
0
41
1
10
63.7122884654758
20
-4.60230772319113
30
0
41
1
10
63.8955248496476
20
-4.61379253809068
30
0
41
1
10
64.2626668375176
20
-4.62935535827913
30
0
41
1
10
64.4465821693081
20
-4.63346644836051
30
0
41
1
10
64.6303822033373
20
-4.63389992041661
30
0
0
SPLINE
5
D9
100
AcDbEntity
8
1
62
256
6
ByLayer
370
18
48
1
60
0
100
AcDbSpline
70
4
71
3
72
28
73
24
40
0
40
0
40
0
40
0
40
0.0224834988341326
40
0.0224834988341326
40
0.162128713286393
40
0.162128713286393
40
0.231951320512527
40
0.231951320512527
40
0.301773927738661
40
0.301773927738661
40
0.441419142190929
40
0.441419142190929
40
0.511241749417063
40
0.511241749417063
40
0.581064356643197
40
0.581064356643197
40
0.720709571095465
40
0.720709571095465
40
0.790532178321599
40
0.790532178321599
40
0.860354785547733
40
0.860354785547733
40
1
40
1
40
1
40
1
41
1
10
83.6134426083314
20
3.36823537531063
30
0
41
1
10
83.6721117484724
20
3.39205164379479
30
0
41
1
10
83.7308017848697
20
3.41556301408093
30
0
41
1
10
84.1544377649319
20
3.58258233341238
30
0
41
1
10
84.5206944882619
20
3.71419892036229
30
0
41
1
10
85.0707412293874
20
3.89490619212694
30
0
41
1
10
85.2540292016191
20
3.95225200268774
30
0
41
1
10
85.6193664826371
20
4.06090852161407
30
0
41
1
10
85.8013589780384
20
4.11239602390151
30
0
41
1
10
86.3486574568891
20
4.2556273132256
30
0
41
1
10
86.7145950429897
20
4.33694635999595
30
0
41
1
10
87.2636756921519
20
4.43895590898688
30
0
41
1
10
87.4467672306253
20
4.46959795414628
30
0
41
1
10
87.8128217499125
20
4.52403810315943
30
0
41
1
10
87.9950606300226
20
4.54781457653712
30
0
41
1
10
88.5426898849679
20
4.60761648149219
30
0
41
1
10
88.9085510779705
20
4.63256015392972
30
0
41
1
10
89.4570316860008
20
4.6484399828953
30
0
41
1
10
89.6398253691293
20
4.65011346756242
30
0
41
1
10
90.0051918715694
20
4.64606014575403
30
0
41
1
10
90.1876636899121
20
4.64027297887233
30
0
41
1
10
90.7361925008831
20
4.61184668658757
30
0
41
1
10
91.1022926768423
20
4.57849164707511
30
0
41
1
10
91.4678077213279
20
4.53094518857324
30
0
0
SPLINE
5
DA
100
AcDbEntity
8
1
62
256
6
ByLayer
370
18
48
1
60
0
100
AcDbSpline
70
4
71
3
72
14
73
10
40
0
40
0
40
0
40
0
40
0.25
40
0.25
40
0.5
40
0.5
40
0.75
40
0.75
40
1
40
1
40
1
40
1
41
1
10
91.0152356937334
20
1.07647518751551
30
0
41
1
10
91.0070078943113
20
1.10568023633439
30
0
41
1
10
91.0020634746767
20
1.1355715973614
30
0
41
1
10
91.0005620516412
20
1.19716821324795
30
0
41
1
10
91.0042996079707
20
1.22903630826039
30
0
41
1
10
91.023503157914
20
1.28959840372349
30
0
41
1
10
91.0416077599392
20
1.3174287560258
30
0
41
1
10
91.0906975445656
20
1.3581417883604
30
0
41
1
10
91.120746648202
20
1.37103877694511
30
0
41
1
10
91.1518979246648
20
1.37807547197133
30
0
0
SPLINE
5
DB
100
AcDbEntity
8
1
62
256
6
ByLayer
370
18
48
1
60
0
100
AcDbSpline
70
4
71
3
72
22
73
18
40
0
40
0
40
0
40
0
40
0.125000000000001
40
0.125000000000001
40
0.250000000000003
40
0.250000000000003
40
0.375000000000004
40
0.375000000000004
40
0.437500000000005
40
0.437500000000005
40
0.500000000000005
40
0.500000000000005
40
0.750000000000008
40
0.750000000000008
40
0.875000000000004
40
0.875000000000004
40
1
40
1
40
1
40
1
41
1
10
87.6511771037665
20
1.56385787257278
30
0
41
1
10
87.7022539500056
20
1.36598755826506
30
0
41
1
10
87.769710428571
20
1.1689086067301
30
0
41
1
10
87.9329302330337
20
0.776118315870121
30
0
41
1
10
88.029698083965
20
0.57903488672261
30
0
41
1
10
88.240923240627
20
0.200041205293417
30
0
41
1
10
88.3559030799043
20
0.0164527586749728
30
0
41
1
10
88.5399851376718
20
-0.251605460875027
30
0
41
1
10
88.6032950052366
20
-0.339728755599964
30
0
41
1
10
88.7335363834853
20
-0.513690995873503
30
0
41
1
10
88.80067532485
20
-0.599779796172129
30
0
41
1
10
89.1420717881209
20
-1.02126671906623
30
0
41
1
10
89.4323607040629
20
-1.32966210287813
30
0
41
1
10
89.8868734750524
20
-1.76026221009772
30
0
41
1
10
90.0415852681149
20
-1.8984170758618
30
0
41
1
10
90.3567878502549
20
-2.16503639438955
30
0
41
1
10
90.5173585074343
20
-2.29348778520742
30
0
41
1
10
90.6792799764887
20
-2.41628829335775
30
0
0
SPLINE
5
DC
100
AcDbEntity
8
1
62
256
6
ByLayer
370
18
48
1
60
0
100
AcDbSpline
70
4
71
3
72
90
73
86
40
0
40
0
40
0
40
0
40
0.0146158439988091
40
0.0146158439988091
40
0.0330156660478516
40
0.0330156660478516
40
0.0514154880968941
40
0.0514154880968941
40
0.0882151321949781
40
0.0882151321949781
40
0.10661495424402
40
0.10661495424402
40
0.125014776293062
40
0.125014776293062
40
0.143414598342104
40
0.143414598342104
40
0.161814420391146
40
0.161814420391146
40
0.180214242440188
40
0.180214242440188
40
0.19861406448923
40
0.19861406448923
40
0.235413708587313
40
0.235413708587313
40
0.253813530636354
40
0.253813530636354
40
0.272213352685396
40
0.272213352685396
40
0.309012996783479
40
0.309012996783479
40
0.32741281883252
40
0.32741281883252
40
0.345812640881562
40
0.345812640881562
40
0.382612284979645
40
0.382612284979645
40
0.401012107028687
40
0.401012107028687
40
0.419411929077729
40
0.419411929077729
40
0.437811751126771
40
0.437811751126771
40
0.456211573175813
40
0.456211573175813
40
0.474611395224855
40
0.474611395224855
40
0.493011217273897
40
0.493011217273897
40
0.511411039322939
40
0.511411039322939
40
0.529810861371981
40
0.529810861371981
40
0.566610505470065
40
0.566610505470065
40
0.603410149568149
40
0.603410149568149
40
0.621809971617191
40
0.621809971617191
40
0.640209793666233
40
0.640209793666233
40
0.677009437764316
40
0.677009437764316
40
0.695409259813357
40
0.695409259813357
40
0.713809081862399
40
0.713809081862399
40
0.750608725960482
40
0.750608725960482
40
0.769008548009523
40
0.769008548009523
40
0.787408370058565
40
0.787408370058565
40
0.824208014156648
40
0.824208014156648
40
0.861007658254731
40
0.861007658254731
40
0.897807302352814
40
0.897807302352814
40
0.934606946450897
40
0.934606946450897
40
0.97140659054898
40
0.97140659054898
40
0.989806412598022
40
0.989806412598022
40
1
40
1
40
1
40
1
41
1
10
83.6135785409831
20
-3.38249854766681
30
0
41
1
10
83.4649216790773
20
-3.43594881339556
30
0
41
1
10
83.3161974337279
20
-3.48760389332506
30
0
41
1
10
82.9803440409984
20
-3.60003782352007
30
0
41
1
10
82.7934162629595
20
-3.65970195400803
30
0
41
1
10
82.4201397635457
20
-3.77307965595648
30
0
41
1
10
82.233871233712
20
-3.82680056482943
30
0
41
1
10
81.6743907896181
20
-3.97731628912624
30
0
41
1
10
81.3007822057102
20
-4.06433527741981
30
0
41
1
10
80.7393859776621
20
-4.17599759011492
30
0
41
1
10
80.5519595782307
20
-4.210015692242
30
0
41
1
10
80.1781879449521
20
-4.27109661817062
30
0
41
1
10
79.9917451785416
20
-4.29818678954152
30
0
41
1
10
79.6186168265903
20
-4.34477279260321
30
0
41
1
10
79.4320334214372
20
-4.36410949920352
30
0
41
1
10
79.0586976259881
20
-4.39408356427757
30
0
41
1
10
78.87194324981
20
-4.4057700632994
30
0
41
1
10
78.4982863490141
20
-4.42270085679436
30
0
41
1
10
78.3113727547313
20
-4.42785755784132
30
0
41
1
10
77.9375034160872
20
-4.43098820976195
30
0
41
1
10
77.7505522012309
20
-4.42891841232148
30
0
41
1
10
77.1912299373782
20
-4.41142589822141
30
0
41
1
10
76.8197162592401
20
-4.38459709627054
30
0
41
1
10
76.2640469121367
20
-4.32368884311791
30
0
41
1
10
76.0790941234491
20
-4.29980113193295
30
0
41
1
10
75.7098380952849
20
-4.24470429136431
30
0
41
1
10
75.5254992604877
20
-4.21359155205548
30
0
41
1
10
74.9718453775157
20
-4.1111436131838
30
0
41
1
10
74.6023004308173
20
-4.03039461485318
30
0
41
1
10
74.0472251332879
20
-3.88968913239381
30
0
41
1
10
73.8620572769547
20
-3.83952357083157
30
0
41
1
10
73.4915305478802
20
-3.73230225648874
30
0
41
1
10
73.3061105913924
20
-3.67490364471396
30
0
41
1
10
72.7477839668923
20
-3.49310315200196
30
0
41
1
10
72.3726992919675
20
-3.36206240544368
30
0
41
1
10
71.8121252885441
20
-3.14896446420431
30
0
41
1
10
71.6254917893363
20
-3.07527191804027
30
0
41
1
10
71.2527912558039
20
-2.92226647560193
30
0
41
1
10
71.0666529954154
20
-2.84319470465715
30
0
41
1
10
70.6938172488929
20
-2.67989645838566
30
0
41
1
10
70.5071813188784
20
-2.59573274201062
30
0
41
1
10
70.1335550901814
20
-2.42478119982002
30
0
41
1
10
69.9465763758444
20
-2.33756981194921
30
0
41
1
10
69.5722460360718
20
-2.15905018963713
30
0
41
1
10
69.3852839701369
20
-2.06795994501252
30
0
41
1
10
69.0122602983255
20
-1.88188788623367
30
0
41
1
10
68.8260240796801
20
-1.78706169660359
30
0
41
1
10
68.4532378001631
20
-1.59511186212879
30
0
41
1
10
68.2667730086785
20
-1.49766398187401
30
0
41
1
10
67.8935982923322
20
-1.30082668254369
30
0
41
1
10
67.7069148829037
20
-1.20154645562599
30
0
41
1
10
67.1465517243496
20
-0.900385589707582
30
0
41
1
10
66.7727224250969
20
-0.694011364144785
30
0
41
1
10
66.0263234280982
20
-0.281438931077872
30
0
41
1
10
65.6532465058608
20
-0.0746474349296307
30
0
41
1
10
65.0935354847594
20
0.23576805836575
30
0
41
1
10
64.9069592086771
20
0.339303054919157
30
0
41
1
10
64.5337941851407
20
0.546499765062464
30
0
41
1
10
64.3468499946933
20
0.649865445719882
30
0
41
1
10
63.7859518656278
20
0.957016411704274
30
0
41
1
10
63.412385974999
20
1.15831871479369
30
0
41
1
10
62.8526688731981
20
1.45419428711151
30
0
41
1
10
62.6662139099739
20
1.55182791252227
30
0
41
1
10
62.293485433041
20
1.74469948729899
30
0
41
1
10
62.1069456550484
20
1.8394011567388
30
0
41
1
10
61.5462066295453
20
2.11892722967636
30
0
41
1
10
61.171422398657
20
2.29879222059057
30
0
41
1
10
60.6112718362039
20
2.55685331383359
30
0
41
1
10
60.4247796188951
20
2.64097171008908
30
0
41
1
10
60.0521564072209
20
2.80478038691626
30
0
41
1
10
59.8657526662868
20
2.8839151968921
30
0
41
1
10
59.3056796811879
20
3.11368828623716
30
0
41
1
10
58.9307127019159
20
3.25781879506025
30
0
41
1
10
58.1829516420954
20
3.52460593168152
30
0
41
1
10
57.810749978988
20
3.64763091077543
30
0
41
1
10
57.0645478660146
20
3.86295503368396
30
0
41
1
10
56.6908166156799
20
3.95889676209845
30
0
41
1
10
55.9422801101232
20
4.1269466433254
30
0
41
1
10
55.5694207774325
20
4.19862150110703
30
0
41
1
10
54.8232569105863
20
4.31018650110843
30
0
41
1
10
54.4499937604602
20
4.35082239950273
30
0
41
1
10
53.8896175008479
20
4.3910060779445
30
0
41
1
10
53.7027096296432
20
4.40038662579562
30
0
41
1
10
53.4123293951396
20
4.40964430114914
30
0
41
1
10
53.3088879625963
20
4.41200908030001
30
0
41
1
10
53.2055330250346
20
4.41334825368418
30
0
0
SPLINE
5
DD
100
AcDbEntity
8
1
62
256
6
ByLayer
370
18
48
1
60
0
100
AcDbSpline
70
4
71
3
72
54
73
50
40
0
40
0
40
0
40
0
40
0.0126763419032489
40
0.0126763419032489
40
0.0445254921644346
40
0.0445254921644346
40
0.108223792686808
40
0.108223792686808
40
0.140072942947994
40
0.140072942947994
40
0.17192209320918
40
0.17192209320918
40
0.203771243470365
40
0.203771243470365
40
0.235620393731551
40
0.235620393731551
40
0.267469543992737
40
0.267469543992737
40
0.299318694253922
40
0.299318694253922
40
0.363016994776293
40
0.363016994776293
40
0.394866145037477
40
0.394866145037477
40
0.426715295298662
40
0.426715295298662
40
0.490413595821032
40
0.490413595821032
40
0.522262746082216
40
0.522262746082216
40
0.554111896343402
40
0.554111896343402
40
0.585961046604586
40
0.585961046604586
40
0.617810196865771
40
0.617810196865771
40
0.681508497388143
40
0.681508497388143
40
0.713357647649328
40
0.713357647649328
40
0.745206797910514
40
0.745206797910514
40
0.808905098432886
40
0.808905098432886
40
0.872603398955257
40
0.872603398955257
40
0.936301699477629
40
0.936301699477629
40
1
40
1
40
1
40
1
41
1
10
33.6007246319336
20
-3.36519230229234
30
0
41
1
10
33.5265369552554
20
-3.39173275485942
30
0
41
1
10
33.4523580755687
20
-3.41781453948516
30
0
41
1
10
33.1917130836781
20
-3.50758839510709
30
0
41
1
10
33.0051814081778
20
-3.56842827695078
30
0
41
1
10
32.445165685676
20
-3.74213880592421
30
0
41
1
10
32.0711100855189
20
-3.84740314135107
30
0
41
1
10
31.5101445424786
20
-3.98730738843915
30
0
41
1
10
31.3236412453172
20
-4.03082629048285
30
0
41
1
10
30.9505134792233
20
-4.11031141459335
30
0
41
1
10
30.7639807836769
20
-4.14626006150988
30
0
41
1
10
30.3908592252989
20
-4.21034124010274
30
0
41
1
10
30.2042683580638
20
-4.2387011745636
30
0
41
1
10
29.8309954901957
20
-4.28930599826327
30
0
41
1
10
29.644310261934
20
-4.31137402124759
30
0
41
1
10
29.2709367511582
20
-4.34797483800062
30
0
41
1
10
29.0840832474838
20
-4.36260638487232
30
0
41
1
10
28.7102816231311
20
-4.38518170790815
30
0
41
1
10
28.5234469257356
20
-4.39315887875739
30
0
41
1
10
27.9631846906132
20
-4.4063787478762
30
0
41
1
10
27.5899728485699
20
-4.40129726694803
30
0
41
1
10
27.0306065377764
20
-4.36887727355165
30
0
41
1
10
26.8441758415167
20
-4.3532581479885
30
0
41
1
10
26.4704133540113
20
-4.31632346548429
30
0
41
1
10
26.2830918427615
20
-4.29488552900418
30
0
41
1
10
25.7219264180572
20
-4.22075836171479
30
0
41
1
10
25.3483581797606
20
-4.1585673862634
30
0
41
1
10
24.7891480209421
20
-4.04376148050238
30
0
41
1
10
24.6028723269542
20
-4.0017164906007
30
0
41
1
10
24.2295799406021
20
-3.91028923997945
30
0
41
1
10
24.0426695999091
20
-3.86158360134246
30
0
41
1
10
23.6683121143964
20
-3.7579670516788
30
0
41
1
10
23.480981678861
20
-3.70294699979766
30
0
41
1
10
23.1077931358502
20
-3.58713254266868
30
0
41
1
10
22.9216760247882
20
-3.52629725322487
30
0
41
1
10
22.3648116429802
20
-3.33567868064102
30
0
41
1
10
21.9946398697448
20
-3.1987828291081
30
0
41
1
10
21.439612287107
20
-2.97907123172848
30
0
41
1
10
21.2547098202579
20
-2.90343807316586
30
0
41
1
10
20.885051555923
20
-2.7466213605023
30
0
41
1
10
20.700282733563
20
-2.66547801679306
30
0
41
1
10
20.1462716356194
20
-2.4154626423728
30
0
41
1
10
19.7763811772486
20
-2.24167823623489
30
0
41
1
10
19.0335851565382
20
-1.88074100640489
30
0
41
1
10
18.6608620301539
20
-1.69311487902883
30
0
41
1
10
17.9124247146089
20
-1.30203951960695
30
0
41
1
10
17.5386208523752
20
-1.10256858112319
30
0
41
1
10
16.7905372545654
20
-0.699023380198213
30
0
41
1
10
16.4162533257068
20
-0.494753293892416
30
0
41
1
10
16.041688840313
20
-0.287824648770766
30
0
0
SPLINE
5
DE
100
AcDbEntity
8
1
62
256
6
ByLayer
370
13
48
1
60
0
100
AcDbSpline
70
4
71
3
72
16
73
12
40
0
40
0
40
0
40
0
40
0.220117657835126
40
0.220117657835126
40
0.330176486752688
40
0.330176486752688
40
0.440235315670249
40
0.440235315670249
40
0.880470631340496
40
0.880470631340496
40
1
40
1
40
1
40
1
41
1
10
11.2010222254411
20
-3.88655933595959
30
0
41
1
10
11.622487571372
20
-4.00587189136934
30
0
41
1
10
12.0428801408755
20
-4.10845050271158
30
0
41
1
10
12.6736240325143
20
-4.23613842454716
30
0
41
1
10
12.88390655432
20
-4.27433893659989
30
0
41
1
10
13.3049777366035
20
-4.34177916114311
30
0
41
1
10
13.5160919309636
20
-4.3710472429934
30
0
41
1
10
14.5682038692786
20
-4.49379745522532
30
0
41
1
10
15.3995390575959
20
-4.51696007684225
30
0
41
1
10
16.4570211274634
20
-4.45350237505605
30
0
41
1
10
16.6828047936917
20
-4.43453265525534
30
0
41
1
10
16.9087728604955
20
-4.41020028819463
30
0
0
SPLINE
5
DF
100
AcDbEntity
8
1
62
256
6
ByLayer
370
18
48
1
60
0
100
AcDbSpline
70
4
71
3
72
20
73
16
40
0
40
0
40
0
40
0
40
0.146168444617041
40
0.146168444617041
40
0.23673139534974
40
0.23673139534974
40
0.327294346082442
40
0.327294346082442
40
0.508420247547839
40
0.508420247547839
40
0.689546149013238
40
0.689546149013238
40
0.870672050478635
40
0.870672050478635
40
1
40
1
40
1
40
1
41
1
10
52.83866089336
20
0.0205525128984902
30
0
41
1
10
53.1771948152867
20
-0.171565608993291
30
0
41
1
10
53.5157757394306
20
-0.363796512853668
30
0
41
1
10
54.0653458937732
20
-0.673300916366685
30
0
41
1
10
54.2760458964272
20
-0.791446690601759
30
0
41
1
10
54.6966066463758
20
-1.02532909702043
30
0
41
1
10
54.9066330745708
20
-1.14112220544874
30
0
41
1
10
55.5363451534773
20
-1.48438044139695
30
0
41
1
10
55.955635375566
20
-1.70778688527508
30
0
41
1
10
56.7955708142084
20
-2.13976223301864
30
0
41
1
10
57.2174568373346
20
-2.34841932042025
30
0
41
1
10
58.0548922519178
20
-2.74119954341077
30
0
41
1
10
58.4713935391784
20
-2.92618448856288
30
0
41
1
10
59.1836778820544
20
-3.22120791126173
30
0
41
1
10
59.4800537002789
20
-3.33740052279995
30
0
41
1
10
59.7764766519905
20
-3.44641197898775
30
0
0
SPLINE
5
E0
100
AcDbEntity
8
1
62
256
6
ByLayer
370
13
48
1
60
0
100
AcDbSpline
70
4
71
3
72
18
73
14
40
0
40
0
40
0
40
0
40
0.224508382493787
40
0.224508382493787
40
0.311799320201511
40
0.311799320201511
40
0.399090257909237
40
0.399090257909237
40
0.573672133324682
40
0.573672133324682
40
0.922835884155574
40
0.922835884155574
40
1
40
1
40
1
40
1
41
1
10
59.7764766516552
20
-3.44641197886443
30
0
41
1
10
60.3103440517156
20
-3.64274516547715
30
0
41
1
10
60.844364339537
20
-3.81578470610259
30
0
41
1
10
61.5894145544836
20
-4.0199091877297
30
0
41
1
10
61.7983955785189
20
-4.07310152928216
30
0
41
1
10
62.2175115782021
20
-4.17114965023967
30
0
41
1
10
62.4280923375579
20
-4.21607388874341
30
0
41
1
10
63.0586837186147
20
-4.33711286140195
30
0
41
1
10
63.4764646252061
20
-4.39949965261218
30
0
41
1
10
64.7258828210686
20
-4.53186203852059
30
0
41
1
10
65.5534821768592
20
-4.54633165659425
30
0
41
1
10
66.5695385519739
20
-4.47370620406696
30
0
41
1
10
66.7536696540575
20
-4.45697230817382
30
0
41
1
10
66.9381302361137
20
-4.43663196656613
30
0
0
SPLINE
5
E1
100
AcDbEntity
8
1
62
256
6
ByLayer
370
18
48
1
60
0
100
AcDbSpline
70
4
71
3
72
52
73
48
40
0
40
0
40
0
40
0
40
0.0481671282284576
40
0.0481671282284576
40
0.0722506923426852
40
0.0722506923426852
40
0.0963342564569128
40
0.0963342564569128
40
0.14450138468537
40
0.14450138468537
40
0.168584948799598
40
0.168584948799598
40
0.192668512913826
40
0.192668512913826
40
0.240835641142281
40
0.240835641142281
40
0.289002769370736
40
0.289002769370736
40
0.337169897599192
40
0.337169897599192
40
0.385337025827647
40
0.385337025827647
40
0.433504154056102
40
0.433504154056102
40
0.481671282284558
40
0.481671282284558
40
0.529838410513013
40
0.529838410513013
40
0.55392197462724
40
0.55392197462724
40
0.578005538741467
40
0.578005538741467
40
0.626172666969922
40
0.626172666969922
40
0.65025623108415
40
0.65025623108415
40
0.674339795198378
40
0.674339795198378
40
0.722506923426834
40
0.722506923426834
40
0.770674051655291
40
0.770674051655291
40
0.867008308112204
40
0.867008308112204
40
0.963342564569117
40
0.963342564569117
40
1
40
1
40
1
40
1
41
1
10
91.3872316336224
20
-4.61236484330223
30
0
41
1
10
90.9697294384259
20
-4.64312029368421
30
0
41
1
10
90.552466905802
20
-4.65471087767196
30
0
41
1
10
89.9252737441687
20
-4.64325245421887
30
0
41
1
10
89.7159546491366
20
-4.63460765384627
30
0
41
1
10
89.2982265470375
20
-4.60779990251322
30
0
41
1
10
89.0896132466759
20
-4.58963538882318
30
0
41
1
10
88.4639897069266
20
-4.52105698828441
30
0
41
1
10
88.0471684916979
20
-4.45657621911809
30
0
41
1
10
87.4204719016271
20
-4.33242461062341
30
0
41
1
10
87.2111020295999
20
-4.28641834752139
30
0
41
1
10
86.7931168952558
20
-4.1858102143207
30
0
41
1
10
86.5844012861476
20
-4.13119122912099
30
0
41
1
10
85.9586014498345
20
-3.95482670716299
30
0
41
1
10
85.5418238994299
20
-3.82061040282736
30
0
41
1
10
84.7065880561636
20
-3.52117838580955
30
0
41
1
10
84.2877938182347
20
-3.35583594055748
30
0
41
1
10
83.4530572150601
20
-3.00014280739424
30
0
41
1
10
83.0362138621081
20
-2.80950986448937
30
0
41
1
10
82.2011589738971
20
-2.40588864176237
30
0
41
1
10
81.7822378782748
20
-2.19259995162761
30
0
41
1
10
80.9472775021139
20
-1.75111185924433
30
0
41
1
10
80.5304735553053
20
-1.52264922104149
30
0
41
1
10
79.695510201186
20
-1.05468594885011
30
0
41
1
10
79.2765201681171
20
-0.814621902981031
30
0
41
1
10
78.4413192573793
20
-0.330603460486572
30
0
41
1
10
78.0244712166661
20
-0.0868638740844005
30
0
41
1
10
77.3983792412905
20
0.277984664847736
30
0
41
1
10
77.1895515138933
20
0.399484800441087
30
0
41
1
10
76.7713396018588
20
0.641744114985073
30
0
41
1
10
76.5619136969395
20
0.762539138729181
30
0
41
1
10
75.9350653077054
20
1.12140749073618
30
0
41
1
10
75.5181360495509
20
1.35644595885103
30
0
41
1
10
74.8922293097106
20
1.69945989586762
30
0
41
1
10
74.683497280041
20
1.81218932478879
30
0
41
1
10
74.2654922779902
20
2.0338638387602
30
0
41
1
10
74.0560109638324
20
2.14291513326776
30
0
41
1
10
73.4286748416083
20
2.46237308904117
30
0
41
1
10
73.0115859629047
20
2.6655347192326
30
0
41
1
10
72.1771165868455
20
3.04863549419386
30
0
41
1
10
71.7590274411354
20
3.22854609537302
30
0
41
1
10
70.5037177502884
20
3.72640132573281
30
0
41
1
10
69.6716248715737
20
4.00013955522414
30
0
41
1
10
67.9967566014935
20
4.4101513249395
30
0
41
1
10
67.1648091344204
20
4.54398903322286
30
0
41
1
10
66.0091275889175
20
4.62370359108985
30
0
41
1
10
65.6909233436656
20
4.63456710262292
30
0
41
1
10
65.3730796247788
20
4.63434035969485
30
0
0
SPLINE
5
E2
100
AcDbEntity
8
1
62
256
6
ByLayer
370
18
48
1
60
0
100
AcDbSpline
70
4
71
3
72
58
73
54
40
0
40
0
40
0
40
0
40
0.0088517449883556
40
0.0088517449883556
40
0.0547064296229149
40
0.0547064296229149
40
0.100561114257474
40
0.100561114257474
40
0.146415798892033
40
0.146415798892033
40
0.192270483526593
40
0.192270483526593
40
0.215197825843873
40
0.215197825843873
40
0.238125168161153
40
0.238125168161153
40
0.283979852795714
40
0.283979852795714
40
0.306907195112995
40
0.306907195112995
40
0.329834537430276
40
0.329834537430276
40
0.375689222064837
40
0.375689222064837
40
0.421543906699399
40
0.421543906699399
40
0.46739859133396
40
0.46739859133396
40
0.513253275968522
40
0.513253275968522
40
0.559107960603083
40
0.559107960603083
40
0.604962645237645
40
0.604962645237645
40
0.650817329872206
40
0.650817329872206
40
0.673744672189488
40
0.673744672189488
40
0.696672014506769
40
0.696672014506769
40
0.742526699141331
40
0.742526699141331
40
0.765454041458611
40
0.765454041458611
40
0.788381383775892
40
0.788381383775892
40
0.834236068410453
40
0.834236068410453
40
0.880090753045015
40
0.880090753045015
40
0.971800122314136
40
0.971800122314136
40
1
40
1
40
1
40
1
41
1
10
42.7448783687896
20
-4.41737392523811
30
0
41
1
10
42.6640588520158
20
-4.43109308585775
30
0
41
1
10
42.5832012793691
20
-4.44413376906317
30
0
41
1
10
42.0832015403439
20
-4.52049183320523
30
0
41
1
10
41.6654771522289
20
-4.56578619454103
30
0
41
1
10
40.8302552004149
20
-4.61841158780547
30
0
41
1
10
40.4125889651896
20
-4.6257079416942
30
0
41
1
10
39.5745708639635
20
-4.60191484526192
30
0
41
1
10
39.1563128897417
20
-4.57083927653736
30
0
41
1
10
38.3209507834792
20
-4.47130404063907
30
0
41
1
10
37.9033223844477
20
-4.40289875081672
30
0
41
1
10
37.2751037372568
20
-4.27312698085308
30
0
41
1
10
37.0654172105365
20
-4.22530564843117
30
0
41
1
10
36.6470142504679
20
-4.12118441673607
30
0
41
1
10
36.4380904694985
20
-4.06482204040978
30
0
41
1
10
35.8114434144919
20
-3.88344699347206
30
0
41
1
10
35.3938645595749
20
-3.74614951541878
30
0
41
1
10
34.765997412591
20
-3.51728916464288
30
0
41
1
10
34.556256036246
20
-3.43710296590092
30
0
41
1
10
34.1375701754385
20
-3.27009859677901
30
0
41
1
10
33.9284940959873
20
-3.18322911256953
30
0
41
1
10
33.3016648472343
20
-2.91305569523851
30
0
41
1
10
32.8842065465976
20
-2.72031239823704
30
0
41
1
10
32.047365939653
20
-2.31334118005643
30
0
41
1
10
31.6278406662217
20
-2.09889730185526
30
0
41
1
10
30.7917215585219
20
-1.65588301833705
30
0
41
1
10
30.3741612434831
20
-1.42698929198383
30
0
41
1
10
29.5376250807103
20
-0.958352194675513
30
0
41
1
10
29.1179671660036
20
-0.718396274233356
30
0
41
1
10
28.2815154597702
20
-0.236206954053301
30
0
41
1
10
27.8639547101043
20
0.0064377862541676
30
0
41
1
10
27.0276738747617
20
0.490513793875635
30
0
41
1
10
26.6080151786482
20
0.732234917672372
30
0
41
1
10
25.7712583222885
20
1.20618707064369
30
0
41
1
10
25.3536517366276
20
1.438612460949
30
0
41
1
10
24.7264436274819
20
1.77720569338348
30
0
41
1
10
24.5172455336494
20
1.88840323415073
30
0
41
1
10
24.0983010621665
20
2.10698111106237
30
0
41
1
10
23.8885597776771
20
2.21436830402183
30
0
41
1
10
23.2607165792576
20
2.52856888359329
30
0
41
1
10
22.8430218028127
20
2.72782312023338
30
0
41
1
10
22.2159358062735
20
3.00884432799418
30
0
41
1
10
22.0068061023932
20
3.09952647808203
30
0
41
1
10
21.5880231713069
20
3.27446392794829
30
0
41
1
10
21.3781816063537
20
3.35879374972256
30
0
41
1
10
20.7499428795192
20
3.6006038672007
30
0
41
1
10
20.3322501905337
20
3.74716529118788
30
0
41
1
10
19.4962495475939
20
4.00815404320187
30
0
41
1
10
19.0773157705154
20
4.12269737925226
30
0
41
1
10
17.8198981528447
20
4.41374590969892
30
0
41
1
10
16.9862601852023
20
4.53656881694184
30
0
41
1
10
15.8895429855307
20
4.59742822275766
30
0
41
1
10
15.6321314899209
20
4.60448662013053
30
0
41
1
10
15.3749076840472
20
4.60432695192915
30
0
0
SPLINE
5
E3
100
AcDbEntity
8
1
62
256
6
ByLayer
370
13
48
1
60
0
100
AcDbSpline
70
4
71
3
72
8
73
4
40
0
40
0
40
0
40
0
40
1
40
1
40
1
40
1
41
1
10
11.1248887600026
20
-3.96102793746309
30
0
41
1
10
11.1255203384803
20
-3.9347587557248
30
0
41
1
10
11.1261566914831
20
-3.90848726452927
30
0
41
1
10
11.1267978407353
20
-3.88221338772959
30
0
0
SPLINE
5
E4
100
AcDbEntity
8
1
62
256
6
ByLayer
370
13
48
1
60
0
100
AcDbSpline
70
4
71
3
72
8
73
4
40
0
40
0
40
0
40
0
40
1
40
1
40
1
40
1
41
1
10
11.0030998598419
20
-3.85965675785133
30
0
41
1
10
11.0144336559665
20
-3.8221204721155
30
0
41
1
10
11.0570781409634
20
-3.78553830139546
30
0
41
1
10
11.1267978407353
20
-3.76391007317298
30
0
0
SPLINE
5
E5
100
AcDbEntity
8
1
62
256
6
ByLayer
370
18
48
1
60
0
100
AcDbSpline
70
2053
71
3
72
62
73
58
40
0
40
0
40
0
40
0
40
0.031249999999998
40
0.031249999999998
40
0.062499999999996
40
0.062499999999996
40
0.093749999999994
40
0.093749999999994
40
0.124999999999992
40
0.124999999999992
40
0.15624999999999
40
0.15624999999999
40
0.187499999999988
40
0.187499999999988
40
0.218749999999985
40
0.218749999999985
40
0.249999999999983
40
0.249999999999983
40
0.281249999999981
40
0.281249999999981
40
0.312499999999979
40
0.312499999999979
40
0.374999999999981
40
0.374999999999981
40
0.437499999999983
40
0.437499999999983
40
0.468749999999984
40
0.468749999999984
40
0.499999999999985
40
0.499999999999985
40
0.531249999999985
40
0.531249999999985
40
0.562499999999986
40
0.562499999999986
40
0.593749999999987
40
0.593749999999987
40
0.624999999999988
40
0.624999999999988
40
0.656249999999989
40
0.656249999999989
40
0.68749999999999
40
0.68749999999999
40
0.718749999999991
40
0.718749999999991
40
0.749999999999991
40
0.749999999999991
40
0.812499999999994
40
0.812499999999994
40
0.843749999999995
40
0.843749999999995
40
0.874999999999996
40
0.874999999999996
40
0.906249999999997
40
0.906249999999997
40
0.937499999999998
40
0.937499999999998
40
1
40
1
40
1
40
1
41
1
10
91.930642175146
20
-2.29480941367439
30
0
41
1
10
91.9533483736211
20
-2.26183482052909
30
0
41
1
10
91.9755515973793
20
-2.22658155836396
30
0
41
1
10
92.018873709996
20
-2.15116257968799
30
0
41
1
10
92.0402222979196
20
-2.11051219799171
30
0
41
1
10
92.0803727877041
20
-2.02589251979865
30
0
41
1
10
92.0991041346909
20
-1.98218496009349
30
0
41
1
10
92.1334967746545
20
-1.89157683194225
30
0
41
1
10
92.1488222033879
20
-1.84539930749776
30
0
41
1
10
92.1742581104972
20
-1.75497384791547
30
0
41
1
10
92.1846831912717
20
-1.70944156474852
30
0
41
1
10
92.1992904185406
20
-1.62400993974737
30
0
41
1
10
92.2036232815615
20
-1.58373339144305
30
0
41
1
10
92.2063354672874
20
-1.50936177496254
30
0
41
1
10
92.2047118685852
20
-1.47637487254326
30
0
41
1
10
92.196173202334
20
-1.41785767147036
30
0
41
1
10
92.1892742617847
20
-1.39283080475678
30
0
41
1
10
92.1712932379718
20
-1.35136465898026
30
0
41
1
10
92.1600531283224
20
-1.33463960667584
30
0
41
1
10
92.1344489320074
20
-1.30950492245395
30
0
41
1
10
92.1200456710893
20
-1.3009120898362
30
0
41
1
10
92.0724514511702
20
-1.28601692474646
30
0
41
1
10
92.0360322396289
20
-1.2907258897437
30
0
41
1
10
91.9559560832623
20
-1.32605800377732
30
0
41
1
10
91.9136038302927
20
-1.35607398339698
30
0
41
1
10
91.8470803719979
20
-1.41933991443787
30
0
41
1
10
91.8243811406869
20
-1.44360034916821
30
0
41
1
10
91.7794280358755
20
-1.49706507845735
30
0
41
1
10
91.7569819912949
20
-1.52643491523551
30
0
41
1
10
91.7121566591063
20
-1.59094588370982
30
0
41
1
10
91.6895265783188
20
-1.62652732817611
30
0
41
1
10
91.6458078492977
20
-1.70215062506793
30
0
41
1
10
91.6247375710286
20
-1.7420628978102
30
0
41
1
10
91.5844003492168
20
-1.82668809567474
30
0
41
1
10
91.5652402466195
20
-1.87131246079465
30
0
41
1
10
91.5310001564786
20
-1.96144341114888
30
0
41
1
10
91.5154748783471
20
-2.00819917001712
30
0
41
1
10
91.4899269711627
20
-2.09930190454546
30
0
41
1
10
91.4797768668722
20
-2.14375579677412
30
0
41
1
10
91.4650241426375
20
-2.23034324005292
30
0
41
1
10
91.4607719250037
20
-2.27043216817813
30
0
41
1
10
91.4580305374304
20
-2.34456397600968
30
0
41
1
10
91.4596311628762
20
-2.37824780921764
30
0
41
1
10
91.4679949419514
20
-2.43679167053989
30
0
41
1
10
91.4748460715398
20
-2.46225182070876
30
0
41
1
10
91.5015746896431
20
-2.52518318166892
30
0
41
1
10
91.5279459984229
20
-2.55050788816172
30
0
41
1
10
91.5751284297676
20
-2.56589090859202
30
0
41
1
10
91.592364184222
20
-2.56732136932769
30
0
41
1
10
91.6286389096772
20
-2.5631654835656
30
0
41
1
10
91.6476776207531
20
-2.55764764922782
30
0
41
1
10
91.6874682296924
20
-2.54007380183214
30
0
41
1
10
91.7083881531445
20
-2.52788281533938
30
0
41
1
10
91.7510063873306
20
-2.49744376383418
30
0
41
1
10
91.7727011746128
20
-2.47925359435095
30
0
41
1
10
91.8389458786118
20
-2.41574549301811
30
0
41
1
10
91.8852297781958
20
-2.36075859996501
30
0
41
1
10
91.930642175146
20
-2.29480941367439
30
0
0
SPLINE
5
E6
100
AcDbEntity
8
1
62
256
6
ByLayer
370
18
48
1
60
0
100
AcDbSpline
70
4
71
3
72
8
73
4
40
0
40
0
40
0
40
0
40
1
40
1
40
1
40
1
41
1
10
11.0082973662397
20
-3.88113102964846
30
0
41
1
10
11.0048613657782
20
-3.87413991642623
30
0
41
1
10
11.0030998691512
20
-3.86698549666082
30
0
41
1
10
11.003099859842
20
-3.85965675785002
30
0
0
SPLINE
5
E7
100
AcDbEntity
8
1
62
256
6
ByLayer
370
18
48
1
60
0
100
AcDbSpline
70
4
71
3
72
18
73
14
40
0
40
0
40
0
40
0
40
0.250000000000014
40
0.250000000000014
40
0.375000000000016
40
0.375000000000016
40
0.500000000000017
40
0.500000000000017
40
0.750000000000009
40
0.750000000000009
40
0.875000000000004
40
0.875000000000004
40
1
40
1
40
1
40
1
41
1
10
92.3354939431143
20
-2.24527051663259
30
0
41
1
10
92.2639449987837
20
-2.43774985215145
30
0
41
1
10
92.1922852583723
20
-2.63002098299492
30
0
41
1
10
92.0844564373434
20
-2.91777279168301
30
0
41
1
10
92.0484534348689
20
-3.01357470953425
30
0
41
1
10
91.9762659688457
20
-3.2048300420287
30
0
41
1
10
91.9400729350687
20
-3.30026699720787
30
0
41
1
10
91.8315374133619
20
-3.58666155914685
30
0
41
1
10
91.759157392616
20
-3.77755337227745
30
0
41
1
10
91.6502498677943
20
-4.06198343189175
30
0
41
1
10
91.6138654628659
20
-4.15634517727625
30
0
41
1
10
91.5408803262723
20
-4.34388456892236
30
0
41
1
10
91.5043764317927
20
-4.43759226906457
30
0
41
1
10
91.4678077213397
20
-4.53094518857174
30
0
0
SPLINE
5
E8
100
AcDbEntity
8
1
62
256
6
ByLayer
370
18
48
1
60
0
100
AcDbSpline
70
4
71
3
72
18
73
14
40
0
40
0
40
0
40
0
40
0.250000000000009
40
0.250000000000009
40
0.375000000000007
40
0.375000000000007
40
0.500000000000006
40
0.500000000000006
40
0.750000000000003
40
0.750000000000003
40
0.875000000000002
40
0.875000000000002
40
1
40
1
40
1
40
1
41
1
10
92.3354939431143
20
2.24527051663262
30
0
41
1
10
92.2639449987838
20
2.43774985215145
30
0
41
1
10
92.1922852583725
20
2.63002098299495
30
0
41
1
10
92.0844564373434
20
2.91777279168303
30
0
41
1
10
92.048453434869
20
3.01357470953425
30
0
41
1
10
91.9762659688456
20
3.2048300420287
30
0
41
1
10
91.9400729350687
20
3.3002669972079
30
0
41
1
10
91.8315374133618
20
3.58666155914688
30
0
41
1
10
91.7591573926161
20
3.77755337227748
30
0
41
1
10
91.6502498677944
20
4.06198343189175
30
0
41
1
10
91.6138654628658
20
4.15634517727625
30
0
41
1
10
91.5408803262721
20
4.34388456892233
30
0
41
1
10
91.5043764317925
20
4.43759226906457
30
0
41
1
10
91.4678077213396
20
4.53094518857174
30
0
0
SPLINE
5
E9
100
AcDbEntity
8
1
62
256
6
ByLayer
370
18
48
1
60
0
100
AcDbSpline
70
4
71
3
72
16
73
12
40
0
40
0
40
0
40
0
40
0.250000000000002
40
0.250000000000002
40
0.375000000000002
40
0.375000000000002
40
0.500000000000002
40
0.500000000000002
40
0.750000000000001
40
0.750000000000001
40
1
40
1
40
1
40
1
41
1
10
11.2503075881352
20
2.54870094836437
30
0
41
1
10
11.6260026602263
20
2.31352136409444
30
0
41
1
10
12.012975968888
20
2.07755258550509
30
0
41
1
10
12.603687128213
20
1.71994502504123
30
0
41
1
10
12.8027235974485
20
1.59998245879871
30
0
41
1
10
13.2024285172336
20
1.35993526281007
30
0
41
1
10
13.4027042632867
20
1.24008794665295
30
0
41
1
10
14.004864961973
20
0.881286269976897
30
0
41
1
10
14.408038132889
20
0.642978657118448
30
0
41
1
10
15.2196994773411
20
0.171954049223217
30
0
41
1
10
15.6281956842626
20
-0.0607357776480626
30
0
41
1
10
16.0410385637186
20
-0.28746540096472
30
0
0
SPLINE
5
EA
100
AcDbEntity
8
1
62
256
6
ByLayer
370
18
48
1
60
0
100
AcDbSpline
70
4
71
3
72
14
73
10
40
0
40
0
40
0
40
0
40
0.322870897147036
40
0.322870897147036
40
0.569908158202058
40
0.569908158202058
40
0.816945419257081
40
0.816945419257081
40
1
40
1
40
1
40
1
41
1
10
90.5786952888168
20
-4.43859140773941
30
0
41
1
10
90.0332284172691
20
-4.43834461568781
30
0
41
1
10
89.4895682046628
20
-4.40672230062916
30
0
41
1
10
88.5287152711409
20
-4.29707249877856
30
0
41
1
10
88.1117248181367
20
-4.2316323431734
30
0
41
1
10
87.2744461850376
20
-4.06566729904631
30
0
41
1
10
86.8534138706933
20
-3.96487460366058
30
0
41
1
10
86.1233988231777
20
-3.76205360320682
30
0
41
1
10
85.8130364717456
20
-3.667033877248
30
0
41
1
10
85.5025379698895
20
-3.56383904449154
30
0
0
SPLINE
5
EB
100
AcDbEntity
8
1
62
256
6
ByLayer
370
13
48
1
60
0
100
AcDbSpline
70
4
71
3
72
22
73
18
40
0
40
0
40
0
40
0
40
0.0286758325055246
40
0.0286758325055246
40
0.0840345568205966
40
0.0840345568205966
40
0.139393281135669
40
0.139393281135669
40
0.360828178395954
40
0.360828178395954
40
0.471545627026098
40
0.471545627026098
40
0.582263075656242
40
0.582263075656242
40
0.80369797291653
40
0.80369797291653
40
1
40
1
40
1
40
1
41
1
10
85.502537969888
20
-3.56383904449092
30
0
41
1
10
85.3940100854672
20
-3.52776957293065
30
0
41
1
10
85.2854655675844
20
-3.49070135068308
30
0
41
1
10
84.967266820005
20
-3.37921117715609
30
0
41
1
10
84.7575059263536
20
-3.3021289094282
30
0
41
1
10
84.3373586180339
20
-3.14101531419865
30
0
41
1
10
84.1272308844743
20
-3.05707114781313
30
0
41
1
10
83.0807265966154
20
-2.62367377760967
30
0
41
1
10
82.2519774414138
20
-2.23141769690434
30
0
41
1
10
81.0074228134155
20
-1.59799324626817
30
0
41
1
10
80.5923248147545
20
-1.37937399028709
30
0
41
1
10
79.7590777479613
20
-0.931329571704765
30
0
41
1
10
79.3404841083455
20
-0.701680202581002
30
0
41
1
10
78.0798392920607
20
-0.0029485352523011
30
0
41
1
10
77.249457501999
20
0.464159839767177
30
0
41
1
10
75.6843589512081
20
1.31648750636123
30
0
41
1
10
74.9495858430137
20
1.70517056216261
30
0
41
1
10
74.2084725374528
20
2.06950767460478
30
0
0
SPLINE
5
EC
100
AcDbEntity
8
1
62
256
6
ByLayer
370
18
48
1
60
0
100
AcDbSpline
70
4
71
3
72
14
73
10
40
0
40
0
40
0
40
0
40
0.337178586136726
40
0.337178586136726
40
0.582394966288922
40
0.582394966288922
40
0.827611346441118
40
0.827611346441118
40
1
40
1
40
1
40
1
41
1
10
40.5600351867885
20
-4.40852830843457
30
0
41
1
10
39.98873985042
20
-4.407467904539
30
0
41
1
10
39.4165808475859
20
-4.37228115071301
30
0
41
1
10
38.4218047368426
20
-4.25235748161381
30
0
41
1
10
37.9997034661283
20
-4.18332015810356
30
0
41
1
10
37.1623242802936
20
-4.01241633794612
30
0
41
1
10
36.7456610956292
20
-3.91034582437837
30
0
41
1
10
36.0374479457631
20
-3.71037401960075
30
0
41
1
10
35.745455989085
20
-3.62028555392055
30
0
41
1
10
35.45342808141
20
-3.5230944995846
30
0
0
SPLINE
5
ED
100
AcDbEntity
8
1
62
256
6
ByLayer
370
13
48
1
60
0
100
AcDbSpline
70
4
71
3
72
24
73
20
40
0
40
0
40
0
40
0
40
0.144142576366554
40
0.144142576366554
40
0.199710530693593
40
0.199710530693593
40
0.255278485020631
40
0.255278485020631
40
0.366414393674712
40
0.366414393674712
40
0.588686210982874
40
0.588686210982874
40
0.699822119636957
40
0.699822119636957
40
0.755390073963998
40
0.755390073963998
40
0.81095802829104
40
0.81095802829104
40
1
40
1
40
1
40
1
41
1
10
35.4534280817383
20
-3.52309449969383
30
0
41
1
10
34.9146585447491
20
-3.34378431061594
30
0
41
1
10
34.3757666396408
20
-3.14029870232903
30
0
41
1
10
33.6255082107831
20
-2.82867399775461
30
0
41
1
10
33.4163797467938
20
-2.73875007047835
30
0
41
1
10
32.996970511807
20
-2.55299238914446
30
0
41
1
10
32.786262581072
20
-2.45694731491668
30
0
41
1
10
32.1555454276369
20
-2.16200861563937
30
0
41
1
10
31.7375434544289
20
-1.95668408470394
30
0
41
1
10
30.4872704196507
20
-1.32118899154301
30
0
41
1
10
29.6585943135976
20
-0.871667475422441
30
0
41
1
10
28.4090049347151
20
-0.183512585693052
30
0
41
1
10
27.9913890535881
20
0.0481866635723236
30
0
41
1
10
27.361488713852
20
0.395949151945018
30
0
41
1
10
27.1505788684276
20
0.512065654387357
30
0
41
1
10
26.7304804172254
20
0.741838118713389
30
0
41
1
10
26.5210325709571
20
0.855780539535004
30
0
41
1
10
25.6010056467794
20
1.35198976851279
30
0
41
1
10
24.8948448953422
20
1.72086795849154
30
0
41
1
10
24.1879033072428
20
2.06570126812454
30
0
0
SPLINE
5
EE
100
AcDbEntity
8
SK1
62
256
6
ByLayer
370
18
48
1
60
0
100
AcDbSpline
70
4
71
3
72
10
73
6
40
0
40
0
40
0
40
0
40
0.278085708972892
40
0.278085708972892
40
1
40
1
40
1
40
1
41
1
10
-39.2772821256818
20
5.44105934921E-05
30
0
41
1
10
-39.345343846744
20
-0.0362088346136034
30
0
41
1
10
-39.4131957849276
20
-0.0725058082278736
30
0
41
1
10
-39.6562580797347
20
-0.203176945435359
30
0
41
1
10
-39.8300762630147
20
-0.297764511252183
30
0
41
1
10
-40
20
-0.392951356093391
30
0
0
SPLINE
5
EF
100
AcDbEntity
8
SK1
62
256
6
ByLayer
370
18
48
1
60
0
100
AcDbSpline
70
4
71
3
72
10
73
6
40
0
40
0
40
0
40
0
40
0.5
40
0.5
40
1
40
1
40
1
40
1
41
1
10
-38.95
20
-0.17345532482247
30
0
41
1
10
-39.1280968638541
20
-0.0795481608385558
30
0
41
1
10
-39.3053177912725
20
0.0145102226856579
30
0
41
1
10
-39.6562580797347
20
0.203176945435331
30
0
41
1
10
-39.8300762630147
20
0.297764511252154
30
0
41
1
10
-40
20
0.392951356093391
30
0
0
SPLINE
5
F0
100
AcDbEntity
8
SK1
62
256
6
ByLayer
370
18
48
1
60
0
100
AcDbSpline
70
4
71
3
72
14
73
10
40
0
40
0
40
0
40
0
40
0.500000000000008
40
0.500000000000008
40
0.750000000000009
40
0.750000000000009
40
0.875000000000004
40
0.875000000000004
40
1
40
1
40
1
40
1
41
1
10
-38.9500000000001
20
-2.56296514742547
30
0
41
1
10
-38.9287234691649
20
-2.57418386642428
30
0
41
1
10
-38.9083432483059
20
-2.579581168077
30
0
41
1
10
-38.880223151313
20
-2.57561485766266
30
0
41
1
10
-38.8713218079587
20
-2.57219271584293
30
0
41
1
10
-38.8602667834558
20
-2.56151594636859
30
0
41
1
10
-38.8569157654531
20
-2.55698675514924
30
0
41
1
10
-38.851744720606
20
-2.5446691087196
30
0
41
1
10
-38.8499999999999
20
-2.53686556775767
30
0
41
1
10
-38.8499999999999
20
-2.52732860732087
30
0
0
SPLINE
5
F1
100
AcDbEntity
8
SK1
62
256
6
ByLayer
370
18
48
1
60
0
100
AcDbSpline
70
4
71
3
72
10
73
6
40
0
40
0
40
0
40
0
40
0.5
40
0.5
40
1
40
1
40
1
40
1
41
1
10
-40
20
-1.9965584665095
30
0
41
1
10
-39.830059096535
20
-2.09175492756484
30
0
41
1
10
-39.6562413562588
20
-2.18634190573854
30
0
41
1
10
-39.3053186895881
20
-2.37499907900599
30
0
41
1
10
-39.1281072178693
20
-2.46905252396181
30
0
41
1
10
-38.95
20
-2.56296514742536
30
0
0
SPLINE
5
F2
100
AcDbEntity
8
SK1
62
256
6
ByLayer
370
18
48
1
60
0
100
AcDbSpline
70
4
71
3
72
14
73
10
40
0
40
0
40
0
40
0
40
0.125000000000003
40
0.125000000000003
40
0.250000000000006
40
0.250000000000006
40
0.500000000000007
40
0.500000000000007
40
1
40
1
40
1
40
1
41
1
10
-38.85
20
-0.328979570526116
30
0
41
1
10
-38.85
20
-0.317970658776346
30
0
41
1
10
-38.8517453396944
20
-0.306931698854413
30
0
41
1
10
-38.8568901241517
20
-0.286836159252601
30
0
41
1
10
-38.860211966304
20
-0.277793943950258
30
0
41
1
10
-38.8714485682308
20
-0.252372668533809
30
0
41
1
10
-38.8802054040538
20
-0.238528904549838
30
0
41
1
10
-38.9082792076556
20
-0.201794864406224
30
0
41
1
10
-38.9286347141249
20
-0.184720842703115
30
0
41
1
10
-38.95
20
-0.17345532482247
30
0
0
LINE
5
76
100
AcDbEntity
8
81
62
256
6
ByLayer
370
18
48
1
60
0
100
AcDbLine
10
93
20
0
30
0
11
98
21
0
31
0
39
0
210
0
220
0
230
1
0
LINE
5
77
100
AcDbEntity
8
1
62
256
6
ByLayer
370
18
48
1
60
0
100
AcDbLine
10
15.374828
20
4.604344
30
0
11
1.063572
21
4.595757
31
0
39
0
210
0
220
0
230
1
0
LINE
5
79
100
AcDbEntity
8
1
62
256
6
ByLayer
370
18
48
1
60
0
100
AcDbLine
10
40.374696
20
4.619344
30
0
11
39.646829
21
4.618907
31
0
39
0
210
0
220
0
230
1
0
LINE
5
7A
100
AcDbEntity
8
1
62
256
6
ByLayer
370
18
48
1
60
0
100
AcDbLine
10
65.374637
20
4.634344
30
0
11
64.655247
21
4.633912
31
0
39
0
210
0
220
0
230
1
0
LINE
5
7B
100
AcDbEntity
8
1
62
256
6
ByLayer
370
18
48
1
60
0
100
AcDbLine
10
90.374811
20
4.649344
30
0
11
89.660383
21
4.648916
31
0
39
0
210
0
220
0
230
1
0
LINE
5
7C
100
AcDbEntity
8
1
62
256
6
ByLayer
370
18
48
1
60
0
100
AcDbLine
10
89.660383
20
-4.648916
30
0
11
90.374542
21
-4.649344
31
0
39
0
210
0
220
0
230
1
0
LINE
5
7D
100
AcDbEntity
8
1
62
256
6
ByLayer
370
18
48
1
60
0
100
AcDbLine
10
64.655247
20
-4.633912
30
0
11
65.374532
21
-4.634344
31
0
39
0
210
0
220
0
230
1
0
LINE
5
7E
100
AcDbEntity
8
1
62
256
6
ByLayer
370
18
48
1
60
0
100
AcDbLine
10
39.646829
20
-4.618907
30
0
11
40.374664
21
-4.619344
31
0
39
0
210
0
220
0
230
1
0
LINE
5
7F
100
AcDbEntity
8
1
62
256
6
ByLayer
370
18
48
1
60
0
100
AcDbLine
10
1.063572
20
-4.595757
30
0
11
15.374712
21
-4.604344
31
0
39
0
210
0
220
0
230
1
0
LINE
5
80
100
AcDbEntity
8
SK1
62
256
6
ByLayer
370
18
48
1
60
0
100
AcDbLine
10
-38.845299
20
5
30
0
11
-40
21
3
31
0
39
0
210
0
220
0
230
1
0
LINE
5
82
100
AcDbEntity
8
SK1
62
256
6
ByLayer
370
18
48
1
60
0
100
AcDbLine
10
-40
20
-3
30
0
11
-38.845299
21
-5
31
0
39
0
210
0
220
0
230
1
0
LINE
5
83
100
AcDbEntity
8
SK1
62
256
6
ByLayer
370
18
48
1
60
0
100
AcDbLine
10
0
20
5
30
0
11
-38.845299
21
5
31
0
39
0
210
0
220
0
230
1
0
LINE
5
84
100
AcDbEntity
8
SK1
62
256
6
ByLayer
370
18
48
1
60
0
100
AcDbLine
10
-38.845299
20
-5
30
0
11
0
21
-5
31
0
39
0
210
0
220
0
230
1
0
LINE
5
85
100
AcDbEntity
8
SK4
62
256
6
ByLayer
370
18
48
0.05
60
0
100
AcDbLine
10
98
20
0
30
0
11
-45
21
0
31
0
39
0
210
0
220
0
230
1
0
LINE
5
87
100
AcDbEntity
8
4
62
256
6
ByLayer
370
18
48
0.05
60
0
100
AcDbLine
10
93
20
0
30
0
11
0
21
0
31
0
39
0
210
0
220
0
230
1
0
LINE
5
89
100
AcDbEntity
8
80
62
256
6
ByLayer
370
18
48
1
60
0
100
AcDbLine
10
0
20
0
30
0
11
-5
21
0
31
0
39
0
210
0
220
0
230
1
0
LINE
5
8A
100
AcDbEntity
8
1
62
256
6
ByLayer
370
18
48
1
60
0
100
AcDbLine
10
92.914327
20
-0.308439
30
0
11
92.774267
21
-0.863966
31
0
39
0
210
0
220
0
230
1
0
LINE
5
8B
100
AcDbEntity
8
1
62
256
6
ByLayer
370
18
48
1
60
0
100
AcDbLine
10
90.67928
20
-2.416288
30
0
11
92.894581
21
-0.127852
31
0
39
0
210
0
220
0
230
1
0
LINE
5
8C
100
AcDbEntity
8
1
62
256
6
ByLayer
370
18
48
1
60
0
100
AcDbLine
10
93
20
0
30
0
11
92.990873
21
-0.045441
31
0
39
0
210
0
220
0
230
1
0
LINE
5
8D
100
AcDbEntity
8
1
62
256
6
ByLayer
370
13
48
1
60
0
100
AcDbLine
10
91.788138
20
0.528637
30
0
11
92.894581
21
-0.127852
31
0
39
0
210
0
220
0
230
1
0
LINE
5
8E
100
AcDbEntity
8
1
62
256
6
ByLayer
370
13
48
1
60
0
100
AcDbLine
10
92.774267
20
0.863966
30
0
11
91.978044
21
0.863966
31
0
39
0
210
0
220
0
230
1
0
LINE
5
8F
100
AcDbEntity
8
1
62
256
6
ByLayer
370
18
48
1
60
0
100
AcDbLine
10
0
20
-5
30
0
11
0
21
5
31
0
39
0
210
0
220
0
230
1
0
LINE
5
90
100
AcDbEntity
8
1
62
256
6
ByLayer
370
13
48
1
60
0
100
AcDbLine
10
91.978044
20
0.863966
30
0
11
92.914327
21
0.308439
31
0
39
0
210
0
220
0
230
1
0
LINE
5
91
100
AcDbEntity
8
1
62
256
6
ByLayer
370
18
48
1
60
0
100
AcDbLine
10
92.914327
20
0.308439
30
0
11
92.774267
21
0.863966
31
0
39
0
210
0
220
0
230
1
0
LINE
5
92
100
AcDbEntity
8
1
62
256
6
ByLayer
370
13
48
1
60
0
100
AcDbLine
10
0.531546
20
4.797879
30
0
11
0.531546
21
-4.797879
31
0
39
0
210
0
220
0
230
1
0
LINE
5
93
100
AcDbEntity
8
1
62
256
6
ByLayer
370
18
48
1
60
0
100
AcDbLine
10
93
20
0
30
0
11
91.384355
21
-4.438948
31
0
39
0
210
0
220
0
230
1
0
LINE
5
94
100
AcDbEntity
8
1
62
256
6
ByLayer
370
13
48
1
60
0
100
AcDbLine
10
1.063572
20
4.595757
30
0
11
1.063572
21
-4.595757
31
0
39
0
210
0
220
0
230
1
0
LINE
5
95
100
AcDbEntity
8
1
62
256
6
ByLayer
370
18
48
1
60
0
100
AcDbLine
10
92.990873
20
0.045441
30
0
11
93
21
0
31
0
39
0
210
0
220
0
230
1
0
LINE
5
96
100
AcDbEntity
8
SK1
62
256
6
ByLayer
370
18
48
1
60
0
100
AcDbLine
10
0
20
-5
30
0
11
0
21
5
31
0
39
0
210
0
220
0
230
1
0
LINE
5
97
100
AcDbEntity
8
SK1
62
256
6
ByLayer
370
18
48
1
60
0
100
AcDbLine
10
-40
20
-3
30
0
11
-40
21
-1.996558
31
0
39
0
210
0
220
0
230
1
0
LINE
5
98
100
AcDbEntity
8
SK1
62
256
6
ByLayer
370
13
48
1
60
0
100
AcDbLine
10
-38.95
20
-0.173471
30
0
11
-38.95
21
-2.562965
31
0
39
0
210
0
220
0
230
1
0
LINE
5
99
100
AcDbEntity
8
SK1
62
256
6
ByLayer
370
18
48
1
60
0
100
AcDbLine
10
-38.85
20
-2.527329
30
0
11
-38.85
21
-0.32898
31
0
39
0
210
0
220
0
230
1
0
LINE
5
9A
100
AcDbEntity
8
SK1
62
256
6
ByLayer
370
18
48
1
60
0
100
AcDbLine
10
-40
20
3
30
0
11
-40
21
0.392951
31
0
39
0
210
0
220
0
230
1
0
LINE
5
9B
100
AcDbEntity
8
SK1
62
256
6
ByLayer
370
18
48
1
60
0
100
AcDbLine
10
-40
20
-0.392951
30
0
11
-40
21
-1.996558
31
0
39
0
210
0
220
0
230
1
0
LINE
5
9C
100
AcDbEntity
8
SK1
62
256
6
ByLayer
370
18
48
1
60
0
100
AcDbLine
10
-38.845299
20
5
30
0
11
-38.845299
21
-5
31
0
39
0
210
0
220
0
230
1
0
MTEXT
5
F3
100
AcDbEntity
8
SK6
62
256
6
ByLayer
370
13
48
1
60
0
100
AcDbMText
10
28.629169
20
37.032694
30
0
210
0
220
0
230
1
1
\W0.7542;R840-0930-70-A1A1220
40
3.5
41
0
44
1.084337
50
0
71
8
72
5
7
iso_b_vert
0
DIMENSION
5
100
100
AcDbEntity
8
SK2
62
256
6
ByLayer
370
13
48
1
60
0
100
AcDbDimension
2
DimnDraft3D1
10
91.41
20
-14.863398
30
0
11
44.160059
21
-14.863398
31
0
70
32
71
5
72
1
41
1
210
0
220
0
230
1
3
Standard
100
AcDbAlignedDimension
13
0
23
-1.5875
33
0
14
91.41
24
-6.2375
34
0
50
0
100
AcDbRotatedDimension
1001
ACAD
1000
DSTYLE
1002
{
1070
   279
1070
     0
1070
   172
1070
     1
1070
   173
1070
     1
1070
   340
1005
F4
1070
   271
1070
     2
1070
   272
1070
     2
1070
    77
1070
     1
1070
    73
1070
     0
1070
   171
1070
     3
1070
   274
1070
     4
1070
   177
1070
    35
1070
   176
1070
    35
1070
   178
1070
    35
1070
    48
1040
-0.005
1070
    41
1041
3.5
1070
   147
1041
1.75
1070
    42
1041
1.5875
1070
    44
1041
2.0
1070
   140
1041
3.5
1070
   343
1005
0
1070
   344
1005
0
1002
}
0
DIMENSION
5
10A
100
AcDbEntity
8
SK2
62
256
6
ByLayer
370
13
48
1
60
0
100
AcDbDimension
2
DimnDraft3D2
10
93
20
-33.692985
30
0
11
26.2513
21
-33.692985
31
0
70
32
71
5
72
1
41
1
210
0
220
0
230
1
3
Standard
100
AcDbAlignedDimension
13
-40
23
-6.5875
33
0
14
93
24
-1.5875
34
0
50
0
100
AcDbRotatedDimension
1001
ACAD
1000
DSTYLE
1002
{
1070
   279
1070
     0
1070
   172
1070
     1
1070
   173
1070
     1
1070
   340
1005
F4
1070
   271
1070
     2
1070
   272
1070
     2
1070
    77
1070
     1
1070
    73
1070
     0
1070
   171
1070
     3
1070
   274
1070
     4
1070
   177
1070
    35
1070
   176
1070
    35
1070
   178
1070
    35
1070
    48
1040
-0.005
1070
    41
1041
3.5
1070
   147
1041
1.75
1070
    42
1041
1.5875
1070
    44
1041
2.0
1070
   140
1041
3.5
1070
   343
1005
0
1070
   344
1005
0
1002
}
0
DIMENSION
5
114
100
AcDbEntity
8
SK2
62
256
6
ByLayer
370
13
48
1
60
0
100
AcDbDimension
2
DimnDraft3D3
10
93
20
16.259119
30
0
11
55.005
21
16.259119
31
0
70
32
71
5
72
1
41
1
210
0
220
0
230
1
3
Standard
100
AcDbAlignedDimension
13
17.01
23
6.2375
33
0
14
93
24
1.5875
34
0
50
0
100
AcDbRotatedDimension
1001
ACAD
1000
DSTYLE
1002
{
1070
   279
1070
     0
1070
   172
1070
     1
1070
   173
1070
     1
1070
   340
1005
F4
1070
   271
1070
     2
1070
   272
1070
     2
1070
    77
1070
     1
1070
    73
1070
     0
1070
   171
1070
     3
1070
   274
1070
     4
1070
   177
1070
    35
1070
   176
1070
    35
1070
   178
1070
    35
1070
    48
1040
-0.005
1070
    41
1041
3.5
1070
   147
1041
1.75
1070
    42
1041
1.5875
1070
    44
1041
2.0
1070
   140
1041
3.5
1070
   343
1005
0
1070
   344
1005
0
1002
}
0
DIMENSION
5
11E
100
AcDbEntity
8
SK2
62
256
6
ByLayer
370
13
48
1
60
0
100
AcDbDimension
2
DimnDraft3D4
10
91.41
20
-17.452503
30
0
11
102.981425
21
-17.452503
31
0
70
32
71
5
72
1
41
1
210
0
220
0
230
1
3
Standard
100
AcDbAlignedDimension
13
93
23
-1.5875
33
0
14
91.41
24
-6.2375
34
0
50
0
100
AcDbRotatedDimension
1001
ACAD
1000
DSTYLE
1002
{
1070
   279
1070
     0
1070
   172
1070
     1
1070
   173
1070
     1
1070
   340
1005
F4
1070
   271
1070
     2
1070
   272
1070
     2
1070
    77
1070
     1
1070
    73
1070
     0
1070
   171
1070
     3
1070
   274
1070
     4
1070
   177
1070
    35
1070
   176
1070
    35
1070
   178
1070
    35
1070
    48
1040
-0.005
1070
    41
1041
3.5
1070
   147
1041
1.75
1070
    42
1041
1.5875
1070
    44
1041
2.0
1070
   140
1041
3.5
1070
   343
1005
0
1070
   344
1005
0
1002
}
0
DIMENSION
5
128
100
AcDbEntity
8
SK2
62
256
6
ByLayer
370
13
48
1
60
0
100
AcDbDimension
2
DimnDraft3D5
10
91.41
20
-23.343428
30
0
11
23.170676
21
-23.343428
31
0
70
32
71
5
72
1
41
1
210
0
220
0
230
1
3
Standard
100
AcDbAlignedDimension
13
-40
23
-6.5875
33
0
14
91.41
24
-6.2375
34
0
50
0
100
AcDbRotatedDimension
1001
ACAD
1000
DSTYLE
1002
{
1070
   279
1070
     0
1070
   172
1070
     1
1070
   173
1070
     1
1070
   340
1005
F4
1070
   271
1070
     2
1070
   272
1070
     2
1070
    77
1070
     1
1070
    73
1070
     0
1070
   171
1070
     3
1070
   274
1070
     4
1070
   177
1070
    35
1070
   176
1070
    35
1070
   178
1070
    35
1070
    48
1040
-0.005
1070
    41
1041
3.5
1070
   147
1041
1.75
1070
    42
1041
1.5875
1070
    44
1041
2.0
1070
   140
1041
3.5
1070
   343
1005
0
1070
   344
1005
0
1002
}
0
DIMENSION
5
133
100
AcDbEntity
8
SK2
62
256
6
ByLayer
370
13
48
1
60
0
100
AcDbDimension
2
DimnDraft3D6
10
-50.625163
20
5
30
0
11
-51.250163
21
23.47418
31
0
70
33
71
5
72
1
41
1
210
0
220
0
230
1
3
Standard
100
AcDbAlignedDimension
13
-41.5875
23
-5
33
0
14
-41.5875
24
5
34
0
1001
ACAD
1000
DSTYLE
1002
{
1070
   279
1070
     0
1070
    74
1070
     0
1070
   173
1070
     1
1070
   340
1005
F4
1070
   271
1070
     3
1070
   272
1070
     2
1070
    77
1070
     1
1070
    73
1070
     0
1070
   171
1070
     3
1070
   274
1070
     4
1070
   177
1070
    35
1070
   176
1070
    35
1070
   178
1070
    35
1070
    48
1040
-0.005
1070
    41
1041
3.5
1070
   147
1041
1.75
1070
    42
1041
1.5875
1070
    44
1041
2.0
1070
   140
1041
3.5
1070
   343
1005
0
1070
   344
1005
0
1002
}
0
DIMENSION
5
13E
100
AcDbEntity
8
2
62
256
6
ByLayer
370
13
48
1
60
0
100
AcDbDimension
2
DimnDraft3D7
10
107.083343
20
4.65
30
0
11
102.458343
21
21.717266
31
0
70
33
71
5
72
1
41
1
210
0
220
0
230
1
3
Standard
100
AcDbAlignedDimension
13
92.9975
23
-4.65
33
0
14
92.9975
24
4.65
34
0
1001
ACAD
1000
DSTYLE
1002
{
1070
   279
1070
     0
1070
    74
1070
     0
1070
   173
1070
     1
1070
   340
1005
F4
1070
   271
1070
     3
1070
   272
1070
     2
1070
    77
1070
     1
1070
    73
1070
     0
1070
   171
1070
     3
1070
   274
1070
     4
1070
   177
1070
    35
1070
   176
1070
    35
1070
   178
1070
    35
1070
    48
1040
-0.005
1070
    41
1041
3.5
1070
   147
1041
1.75
1070
    42
1041
1.5875
1070
    44
1041
2.0
1070
   140
1041
3.5
1070
   343
1005
0
1070
   344
1005
0
1002
}
0
ENDSEC
0
SECTION
2
OBJECTS
0
DICTIONARY
5
1a9
330
0
100
AcDbDictionary
280
0
281
1
3
ACAD_GROUP
350
1aa
3
ACAD_MLINESTYLE
350
1ab
0
DICTIONARY
5
1aa
330
0
100
AcDbDictionary
280
0
281
1
0
DICTIONARY
5
1ab
330
0
100
AcDbDictionary
280
0
281
1
3
Standard
350
18
0
MLINESTYLE
5
18
330
1ab
100
AcDbMlineStyle
2
Standard
70
0
3

62
256
51
90
52
90
71
2
49
-0.5
62
256
6
ByLayer
49
0.5
62
256
6
ByLayer
0
RASTERVARIABLES
5
197
330

100
AcDbRasterVariables
90
0
70
1
71
1
72
1
0
ENDSEC
0
EOF
