0
SECTION
2
HEADER
9
$ACADVER
1
AC1015
9
$DWGCODEPAGE
3
ANSI_1252
9
$HANDSEED
5
1aa
9
$ANGBASE
50
0
9
$ANGDIR
70
0
9
$ATTMODE
70
1
9
$AUNITS
70
0
9
$AUPREC
70
0
9
$CECOLOR
62
256
9
$CELTSCALE
40
1
9
$CELTYPE
6
ByLayer
9
$CELWEIGHT
370
18
9
$CLAYER
8
0
9
$CMLJUST
70
0
9
$CMLSCALE
40
1
9
$CMLSTYLE
2
Standard
9
$DIMSTYLE
2
Standard
9
$TEXTSIZE
40
0.2
9
$TEXTSTYLE
7
Standard
9
$LUNITS
70
2
9
$LUPREC
70
4
9
$EXTNAMES
290
1
9
$INSUNITS
70
4
9
$LTSCALE
40
1
9
$LWDISPLAY
290
1
9
$PDMODE
70
0
9
$PDSIZE
40
0
9
$PLINEGEN
70
0
0
ENDSEC
0
SECTION
2
CLASSES
0
CLASS
1
RASTERVARIABLES
2
AcDbRasterVariables
3
ISM
90
0
280
0
281
0
0
ENDSEC
0
SECTION
2
TABLES
0
TABLE
2
VPORT
5
1a0
100
AcDbSymbolTable
0
VPORT
5
1
100
AcDbSymbolTableRecord
100
AcDbViewportTableRecord
2
*Active
70
0
10
0
20
0
11
1
21
1
12
-1
22
1
13
0
23
0
14
0.5
24
0.5
15
10
25
10
16
0
26
0
36
1
17
0
27
0
37
0
0
ENDTAB
0
TABLE
2
LTYPE
5
1a1
100
AcDbSymbolTable
0
LTYPE
5
14
100
AcDbSymbolTableRecord
100
AcDbLinetypeTableRecord
70
0
2
ByBlock
3

72
65
73
0
40
0
0
LTYPE
5
15
100
AcDbSymbolTableRecord
100
AcDbLinetypeTableRecord
70
0
2
ByLayer
3

72
65
73
0
40
0
0
LTYPE
5
16
100
AcDbSymbolTableRecord
100
AcDbLinetypeTableRecord
70
0
2
CONTINUOUS
3
Solid line
72
65
73
0
40
0
0
LTYPE
5
6A
100
AcDbSymbolTableRecord
100
AcDbLinetypeTableRecord
70
0
2
CENTER
3
____ _ ____ _ ____ _ ____
72
65
73
4
40
47.5
49
22
74
0
49
-8.5
74
0
49
8.5
74
0
49
-8.5
74
0
0
LTYPE
5
6B
100
AcDbSymbolTableRecord
100
AcDbLinetypeTableRecord
70
0
2
DASHED
3
__ __ __ __ __ __ __ __ __
72
65
73
2
40
25.72
49
12.86
74
0
49
-12.86
74
0
0
ENDTAB
0
TABLE
2
LAYER
5
1a2
100
AcDbSymbolTable
0
LAYER
5
10
100
AcDbSymbolTableRecord
100
AcDbLayerTableRecord
2
0
70
0
62
7
6
CONTINUOUS
290
1
370
-3
390
0
0
LAYER
5
6D
100
AcDbSymbolTableRecord
100
AcDbLayerTableRecord
2
81
70
0
62
-3
6
CONTINUOUS
290
1
370
-3
390
0
0
LAYER
5
6F
100
AcDbSymbolTableRecord
100
AcDbLayerTableRecord
2
80
70
0
62
-6
6
CONTINUOUS
290
1
370
-3
390
0
0
LAYER
5
74
100
AcDbSymbolTableRecord
100
AcDbLayerTableRecord
2
2
70
0
62
7
6
CONTINUOUS
290
1
370
-3
390
0
0
LAYER
5
78
100
AcDbSymbolTableRecord
100
AcDbLayerTableRecord
2
1
70
0
62
4
6
CONTINUOUS
290
1
370
-3
390
0
0
LAYER
5
88
100
AcDbSymbolTableRecord
100
AcDbLayerTableRecord
2
4
70
0
62
-2
6
CENTER
290
1
370
-3
390
0
0
LAYER
5
18c
100
AcDbSymbolTableRecord
100
AcDbLayerTableRecord
2
SK2
70
0
62
7
6
CONTINUOUS
290
1
370
-3
390
0
0
LAYER
5
18d
100
AcDbSymbolTableRecord
100
AcDbLayerTableRecord
2
SK1
70
0
62
4
6
CONTINUOUS
290
1
370
-3
390
0
0
LAYER
5
18e
100
AcDbSymbolTableRecord
100
AcDbLayerTableRecord
2
SK4
70
0
62
2
6
CENTER
290
1
370
-3
390
0
0
LAYER
5
18f
100
AcDbSymbolTableRecord
100
AcDbLayerTableRecord
2
SK6
70
0
62
5
6
CONTINUOUS
290
1
370
-3
390
0
0
ENDTAB
0
TABLE
2
STYLE
5
1a3
100
AcDbSymbolTable
0
STYLE
5
11
100
AcDbSymbolTableRecord
100
AcDbTextStyleTableRecord
2
Standard
3
txt
70
0
71
0
40
0
41
1
42
0
50
0
0
STYLE
5
E8
100
AcDbSymbolTableRecord
100
AcDbTextStyleTableRecord
2
iso_b_vert
3
simplex.shx
70
0
71
0
40
0
41
1
42
0
50
0
0
STYLE
5
E9
100
AcDbSymbolTableRecord
100
AcDbTextStyleTableRecord
2
DWGDirectTextStyle
3
simplex
70
0
71
0
40
0
41
1
42
0
50
0
0
ENDTAB
0
TABLE
2
DIMSTYLE
5
1a4
100
AcDbSymbolTable
100
AcDbDimStyleTable
0
DIMSTYLE
105
27
100
AcDbSymbolTableRecord
100
AcDbDimStyleTableRecord
2
Standard
70
0
3
<>
41
0.18
42
0.0625
44
0.18
140
0.18
147
0.09
73
0
74
0
77
1
271
2
275
0
278
52
280
0
340
11
0
ENDTAB
0
TABLE
2
VIEW
5
1a5
100
AcDbSymbolTable
0
ENDTAB
0
TABLE
2
UCS
5
1a6
100
AcDbSymbolTable
0
ENDTAB
0
TABLE
2
APPID
5
1a7
100
AcDbSymbolTable
0
APPID
5
12
100
AcDbSymbolTableRecord
100
AcDbRegAppTableRecord
2
ACAD
70
0
0
ENDTAB
0
TABLE
2
BLOCK_RECORD
5
1a8
100
AcDbSymbolTable
0
BLOCK_RECORD
5
1F
100
AcDbSymbolTableRecord
100
AcDbBlockTableRecord
2
*Model_Space
340
0
70
0
0
BLOCK_RECORD
5
1B
100
AcDbSymbolTableRecord
100
AcDbBlockTableRecord
2
*Paper_Space
340
0
70
0
0
BLOCK_RECORD
5
23
100
AcDbSymbolTableRecord
100
AcDbBlockTableRecord
2
*Paper_Space0
340
0
70
0
0
BLOCK_RECORD
5
EB
100
AcDbSymbolTableRecord
100
AcDbBlockTableRecord
2
DimnDraft3D1
340
0
70
0
0
BLOCK_RECORD
5
F5
100
AcDbSymbolTableRecord
100
AcDbBlockTableRecord
2
DimnDraft3D2
340
0
70
0
0
BLOCK_RECORD
5
FF
100
AcDbSymbolTableRecord
100
AcDbBlockTableRecord
2
DimnDraft3D3
340
0
70
0
0
BLOCK_RECORD
5
109
100
AcDbSymbolTableRecord
100
AcDbBlockTableRecord
2
DimnDraft3D4
340
0
70
0
0
BLOCK_RECORD
5
113
100
AcDbSymbolTableRecord
100
AcDbBlockTableRecord
2
DimnDraft3D5
340
0
70
0
0
BLOCK_RECORD
5
11D
100
AcDbSymbolTableRecord
100
AcDbBlockTableRecord
2
DimnDraft3D6
340
0
70
0
0
BLOCK_RECORD
5
128
100
AcDbSymbolTableRecord
100
AcDbBlockTableRecord
2
DimnDraft3D7
340
0
70
0
0
ENDTAB
0
ENDSEC
0
SECTION
2
BLOCKS
0
BLOCK
5
20
100
AcDbEntity
8
0
100
AcDbBlockBegin
2
*Model_Space
70
0
10
0
20
0
30
0
3
*Model_Space
0
ENDBLK
5
21
100
AcDbEntity
8
0
100
AcDbBlockEnd
0
BLOCK
5
1C
100
AcDbEntity
8
0
100
AcDbBlockBegin
2
*Paper_Space
70
0
10
0
20
0
30
0
3
*Paper_Space
0
ENDBLK
5
1D
100
AcDbEntity
8
0
100
AcDbBlockEnd
0
BLOCK
5
24
100
AcDbEntity
8
0
100
AcDbBlockBegin
2
*Paper_Space0
70
0
10
0
20
0
30
0
3
*Paper_Space0
0
ENDBLK
5
25
100
AcDbEntity
8
0
100
AcDbBlockEnd
0
BLOCK
5
F2
100
AcDbEntity
8
0
100
AcDbBlockBegin
2
DimnDraft3D1
70
0
10
0
20
0
30
0
3
DimnDraft3D1
0
MTEXT
5
EC
100
AcDbEntity
8
SK2
62
256
6
ByLayer
370
13
48
1
60
0
100
AcDbMText
10
25.402164
20
-13.988398
30
0
210
0
220
0
230
1
1
\W0.6846;61,41
40
3.5
41
0
44
1.084337
50
0
71
7
72
5
7
iso_b_vert
0
LINE
5
ED
100
AcDbEntity
8
SK2
62
256
6
ByLayer
370
13
48
1
60
0
100
AcDbLine
10
0
20
-1.5875
30
0
11
0
21
-16.863398
31
0
39
0
210
0
220
0
230
1
0
LINE
5
EE
100
AcDbEntity
8
SK2
62
256
6
ByLayer
370
13
48
1
60
0
100
AcDbLine
10
61.41
20
-6.2375
30
0
11
61.41
21
-16.863398
31
0
39
0
210
0
220
0
230
1
0
LINE
5
EF
100
AcDbEntity
8
SK2
62
256
6
ByLayer
370
13
48
1
60
0
100
AcDbLine
10
0
20
-14.863398
30
0
11
61.41
21
-14.863398
31
0
39
0
210
0
220
0
230
1
0
SOLID
5
F0
100
AcDbEntity
8
SK2
62
256
6
ByLayer
370
13
48
1
60
0
100
AcDbTrace
10
0
20
-14.863398
30
0
11
3.499998
21
-14.402615
31
0
12
3.500002
22
-15.324182
32
0
13
0
23
-14.863398
33
0
39
0
210
0
220
0
230
1
0
SOLID
5
F1
100
AcDbEntity
8
SK2
62
256
6
ByLayer
370
13
48
1
60
0
100
AcDbTrace
10
61.41
20
-14.863398
30
0
11
57.910002
21
-15.324182
31
0
12
57.909998
22
-14.402615
32
0
13
61.41
23
-14.863398
33
0
39
0
210
0
220
0
230
1
0
ENDBLK
5
F3
100
AcDbEntity
8
0
100
AcDbBlockEnd
0
BLOCK
5
FC
100
AcDbEntity
8
0
100
AcDbBlockBegin
2
DimnDraft3D2
70
0
10
0
20
0
30
0
3
DimnDraft3D2
0
MTEXT
5
F6
100
AcDbEntity
8
SK2
62
256
6
ByLayer
370
13
48
1
60
0
100
AcDbMText
10
5.932221
20
-32.817985
30
0
210
0
220
0
230
1
1
\W0.6930;103,00
40
3.5
41
0
44
1.084337
50
0
71
7
72
5
7
iso_b_vert
0
LINE
5
F7
100
AcDbEntity
8
SK2
62
256
6
ByLayer
370
13
48
1
60
0
100
AcDbLine
10
-40
20
-6.5875
30
0
11
-40
21
-35.692985
31
0
39
0
210
0
220
0
230
1
0
LINE
5
F8
100
AcDbEntity
8
SK2
62
256
6
ByLayer
370
13
48
1
60
0
100
AcDbLine
10
63
20
-1.5875
30
0
11
63
21
-35.692985
31
0
39
0
210
0
220
0
230
1
0
LINE
5
F9
100
AcDbEntity
8
SK2
62
256
6
ByLayer
370
13
48
1
60
0
100
AcDbLine
10
-40
20
-33.692985
30
0
11
63
21
-33.692985
31
0
39
0
210
0
220
0
230
1
0
SOLID
5
FA
100
AcDbEntity
8
SK2
62
256
6
ByLayer
370
13
48
1
60
0
100
AcDbTrace
10
-40
20
-33.692985
30
0
11
-36.500002
21
-33.232202
31
0
12
-36.499998
22
-34.153769
32
0
13
-40
23
-33.692985
33
0
39
0
210
0
220
0
230
1
0
SOLID
5
FB
100
AcDbEntity
8
SK2
62
256
6
ByLayer
370
13
48
1
60
0
100
AcDbTrace
10
63
20
-33.692985
30
0
11
59.500002
21
-34.153769
31
0
12
59.499998
22
-33.232202
32
0
13
63
23
-33.692985
33
0
39
0
210
0
220
0
230
1
0
ENDBLK
5
FD
100
AcDbEntity
8
0
100
AcDbBlockEnd
0
BLOCK
5
106
100
AcDbEntity
8
0
100
AcDbBlockBegin
2
DimnDraft3D3
70
0
10
0
20
0
30
0
3
DimnDraft3D3
0
MTEXT
5
100
100
AcDbEntity
8
SK2
62
256
6
ByLayer
370
13
48
1
60
0
100
AcDbMText
10
34.322105
20
17.134119
30
0
210
0
220
0
230
1
1
\W0.7669;48,09
40
3.5
41
0
44
1.084337
50
0
71
7
72
5
7
iso_b_vert
0
LINE
5
101
100
AcDbEntity
8
SK2
62
256
6
ByLayer
370
13
48
1
60
0
100
AcDbLine
10
14.91
20
6.2375
30
0
11
14.91
21
18.259119
31
0
39
0
210
0
220
0
230
1
0
LINE
5
102
100
AcDbEntity
8
SK2
62
256
6
ByLayer
370
13
48
1
60
0
100
AcDbLine
10
63
20
1.5875
30
0
11
63
21
18.259119
31
0
39
0
210
0
220
0
230
1
0
LINE
5
103
100
AcDbEntity
8
SK2
62
256
6
ByLayer
370
13
48
1
60
0
100
AcDbLine
10
14.91
20
16.259119
30
0
11
63
21
16.259119
31
0
39
0
210
0
220
0
230
1
0
SOLID
5
104
100
AcDbEntity
8
SK2
62
256
6
ByLayer
370
13
48
1
60
0
100
AcDbTrace
10
14.91
20
16.259119
30
0
11
18.409998
21
16.719903
31
0
12
18.410002
22
15.798335
32
0
13
14.91
23
16.259119
33
0
39
0
210
0
220
0
230
1
0
SOLID
5
105
100
AcDbEntity
8
SK2
62
256
6
ByLayer
370
13
48
1
60
0
100
AcDbTrace
10
63
20
16.259119
30
0
11
59.500002
21
15.798335
31
0
12
59.499998
22
16.719903
32
0
13
63
23
16.259119
33
0
39
0
210
0
220
0
230
1
0
ENDBLK
5
107
100
AcDbEntity
8
0
100
AcDbBlockEnd
0
BLOCK
5
110
100
AcDbEntity
8
0
100
AcDbBlockBegin
2
DimnDraft3D4
70
0
10
0
20
0
30
0
3
DimnDraft3D4
0
MTEXT
5
10A
100
AcDbEntity
8
SK2
62
256
6
ByLayer
370
13
48
1
60
0
100
AcDbMText
10
70.278136
20
-16.577503
30
0
210
0
220
0
230
1
1
\W0.6463;1,59
40
3.5
41
0
44
1.084337
50
0
71
7
72
5
7
iso_b_vert
0
LINE
5
10B
100
AcDbEntity
8
SK2
62
256
6
ByLayer
370
13
48
1
60
0
100
AcDbLine
10
63
20
-1.5875
30
0
11
63
21
-19.452503
31
0
39
0
210
0
220
0
230
1
0
LINE
5
10C
100
AcDbEntity
8
SK2
62
256
6
ByLayer
370
13
48
1
60
0
100
AcDbLine
10
61.41
20
-6.2375
30
0
11
61.41
21
-19.452503
31
0
39
0
210
0
220
0
230
1
0
LINE
5
10D
100
AcDbEntity
8
SK2
62
256
6
ByLayer
370
13
48
1
60
0
100
AcDbLine
10
52.66
20
-17.452503
30
0
11
76.559715
21
-17.452503
31
0
39
0
210
0
220
0
230
1
0
SOLID
5
10E
100
AcDbEntity
8
SK2
62
256
6
ByLayer
370
13
48
1
60
0
100
AcDbTrace
10
63
20
-17.452503
30
0
11
66.499998
21
-16.991719
31
0
12
66.500002
22
-17.913287
32
0
13
63
23
-17.452503
33
0
39
0
210
0
220
0
230
1
0
SOLID
5
10F
100
AcDbEntity
8
SK2
62
256
6
ByLayer
370
13
48
1
60
0
100
AcDbTrace
10
61.41
20
-17.452503
30
0
11
57.910002
21
-17.913287
31
0
12
57.909998
22
-16.991719
32
0
13
61.41
23
-17.452503
33
0
39
0
210
0
220
0
230
1
0
ENDBLK
5
111
100
AcDbEntity
8
0
100
AcDbBlockEnd
0
BLOCK
5
11A
100
AcDbEntity
8
0
100
AcDbBlockBegin
2
DimnDraft3D5
70
0
10
0
20
0
30
0
3
DimnDraft3D5
0
MTEXT
5
114
100
AcDbEntity
8
SK2
62
256
6
ByLayer
370
13
48
1
60
0
100
AcDbMText
10
3.542387
20
-22.468428
30
0
210
0
220
0
230
1
1
\W0.6530;101,41
40
3.5
41
0
44
1.084337
50
0
71
7
72
5
7
iso_b_vert
0
LINE
5
115
100
AcDbEntity
8
SK2
62
256
6
ByLayer
370
13
48
1
60
0
100
AcDbLine
10
-40
20
-6.5875
30
0
11
-40
21
-25.343428
31
0
39
0
210
0
220
0
230
1
0
LINE
5
116
100
AcDbEntity
8
SK2
62
256
6
ByLayer
370
13
48
1
60
0
100
AcDbLine
10
61.41
20
-6.2375
30
0
11
61.41
21
-25.343428
31
0
39
0
210
0
220
0
230
1
0
LINE
5
117
100
AcDbEntity
8
SK2
62
256
6
ByLayer
370
13
48
1
60
0
100
AcDbLine
10
-40
20
-23.343428
30
0
11
61.41
21
-23.343428
31
0
39
0
210
0
220
0
230
1
0
SOLID
5
118
100
AcDbEntity
8
SK2
62
256
6
ByLayer
370
13
48
1
60
0
100
AcDbTrace
10
-40
20
-23.343428
30
0
11
-36.500002
21
-22.882645
31
0
12
-36.499998
22
-23.804212
32
0
13
-40
23
-23.343428
33
0
39
0
210
0
220
0
230
1
0
SOLID
5
119
100
AcDbEntity
8
SK2
62
256
6
ByLayer
370
13
48
1
60
0
100
AcDbTrace
10
61.41
20
-23.343428
30
0
11
57.910002
21
-23.804212
31
0
12
57.909998
22
-22.882645
32
0
13
61.41
23
-23.343428
33
0
39
0
210
0
220
0
230
1
0
ENDBLK
5
11B
100
AcDbEntity
8
0
100
AcDbBlockEnd
0
BLOCK
5
125
100
AcDbEntity
8
0
100
AcDbBlockBegin
2
DimnDraft3D6
70
0
10
0
20
0
30
0
3
DimnDraft3D6
0
MTEXT
5
11E
100
AcDbEntity
8
SK2
62
256
6
ByLayer
370
13
48
1
60
0
100
AcDbMText
10
-50.375163
20
24.34918
30
0
210
0
220
0
230
1
1
\W0.6930;10,000
40
3.5
41
0
44
1.084337
50
90
71
7
72
5
7
iso_b_vert
0
MTEXT
5
11F
100
AcDbEntity
8
SK2
62
256
6
ByLayer
370
13
48
1
60
0
100
AcDbMText
10
-50.375163
20
19.126524
30
0
210
0
220
0
230
1
1
%%c
40
3.5
41
0
44
1.084337
50
90
71
7
72
5
7
iso_b_vert
0
LINE
5
120
100
AcDbEntity
8
SK2
62
256
6
ByLayer
370
13
48
1
60
0
100
AcDbLine
10
-41.5875
20
-5
30
0
11
-50.625163
21
-5
31
0
39
0
210
0
220
0
230
1
0
LINE
5
121
100
AcDbEntity
8
SK2
62
256
6
ByLayer
370
13
48
1
60
0
100
AcDbLine
10
-41.5875
20
5
30
0
11
-50.625163
21
5
31
0
39
0
210
0
220
0
230
1
0
LINE
5
122
100
AcDbEntity
8
SK2
62
256
6
ByLayer
370
13
48
1
60
0
100
AcDbLine
10
-48.625163
20
-5
30
0
11
-48.625163
21
35.862338
31
0
39
0
210
0
220
0
230
1
0
SOLID
5
123
100
AcDbEntity
8
SK2
62
256
6
ByLayer
370
13
48
1
60
0
100
AcDbTrace
10
-48.625163
20
-5
30
0
11
-49.085946
21
-1.500002
31
0
12
-48.164379
22
-1.499998
32
0
13
-48.625163
23
-5
33
0
39
0
210
0
220
0
230
1
0
SOLID
5
124
100
AcDbEntity
8
SK2
62
256
6
ByLayer
370
13
48
1
60
0
100
AcDbTrace
10
-48.625163
20
5
30
0
11
-48.164379
21
1.500002
31
0
12
-49.085946
22
1.499998
32
0
13
-48.625163
23
5
33
0
39
0
210
0
220
0
230
1
0
ENDBLK
5
126
100
AcDbEntity
8
0
100
AcDbBlockEnd
0
BLOCK
5
130
100
AcDbEntity
8
0
100
AcDbBlockBegin
2
DimnDraft3D7
70
0
10
0
20
0
30
0
3
DimnDraft3D7
0
MTEXT
5
129
100
AcDbEntity
8
2
62
256
6
ByLayer
370
13
48
1
60
0
100
AcDbMText
10
73.333343
20
22.592266
30
0
210
0
220
0
230
1
1
\W0.7317;9,300
40
3.5
41
0
44
1.084337
50
90
71
7
72
5
7
iso_b_vert
0
MTEXT
5
12A
100
AcDbEntity
8
2
62
256
6
ByLayer
370
13
48
1
60
0
100
AcDbMText
10
73.333343
20
17.36961
30
0
210
0
220
0
230
1
1
%%c
40
3.5
41
0
44
1.084337
50
90
71
7
72
5
7
iso_b_vert
0
LINE
5
12B
100
AcDbEntity
8
2
62
256
6
ByLayer
370
13
48
1
60
0
100
AcDbLine
10
62.9975
20
-4.65
30
0
11
77.083343
21
-4.65
31
0
39
0
210
0
220
0
230
1
0
LINE
5
12C
100
AcDbEntity
8
2
62
256
6
ByLayer
370
13
48
1
60
0
100
AcDbLine
10
62.9975
20
4.65
30
0
11
77.083343
21
4.65
31
0
39
0
210
0
220
0
230
1
0
LINE
5
12D
100
AcDbEntity
8
2
62
256
6
ByLayer
370
13
48
1
60
0
100
AcDbLine
10
75.083343
20
-4.65
30
0
11
75.083343
21
32.364635
31
0
39
0
210
0
220
0
230
1
0
SOLID
5
12E
100
AcDbEntity
8
2
62
256
6
ByLayer
370
13
48
1
60
0
100
AcDbTrace
10
75.083343
20
-4.65
30
0
11
74.622559
21
-1.150002
31
0
12
75.544126
22
-1.149998
32
0
13
75.083343
23
-4.65
33
0
39
0
210
0
220
0
230
1
0
SOLID
5
12F
100
AcDbEntity
8
2
62
256
6
ByLayer
370
13
48
1
60
0
100
AcDbTrace
10
75.083343
20
4.65
30
0
11
75.544126
21
1.150002
31
0
12
74.622559
22
1.149998
32
0
13
75.083343
23
4.65
33
0
39
0
210
0
220
0
230
1
0
ENDBLK
5
131
100
AcDbEntity
8
0
100
AcDbBlockEnd
0
ENDSEC
0
SECTION
2
ENTITIES
0
ARC
5
9D
100
AcDbEntity
8
1
62
256
6
ByLayer
370
18
48
1
60
0
100
AcDbCircle
39
0
10
0
20
4.2
30
0
40
0.799999999999999
210
0
220
0
230
1
100
AcDbArc
50
49.340106
51
90
0
ARC
5
9E
100
AcDbEntity
8
1
62
256
6
ByLayer
370
18
48
1
60
0
100
AcDbCircle
39
0
10
0
20
-4.2
30
0
40
0.799999999999999
210
0
220
0
230
1
100
AcDbArc
50
270
51
310.659894
0
ARC
5
9F
100
AcDbEntity
8
1
62
256
6
ByLayer
370
18
48
1
60
0
100
AcDbCircle
39
0
10
-1.042508
20
-5.413745
30
0
40
0.800000000000004
210
0
220
0
230
-1
100
AcDbArc
50
49.340106
51
90.034377
0
ARC
5
A0
100
AcDbEntity
8
1
62
256
6
ByLayer
370
18
48
1
60
0
100
AcDbCircle
39
0
10
-1.042508
20
5.413745
30
0
40
0.800000000000004
210
0
220
0
230
-1
100
AcDbArc
50
269.965623
51
310.659894
0
ELLIPSE
5
A1
100
AcDbEntity
8
1
62
256
6
ByLayer
370
18
48
1
60
0
100
AcDbEllipse
10
63.000405
20
0.001016
30
0
11
1.71055367915776
21
4.64785804568736
31
0
210
0
220
0
230
-1
40
0.098637
41
2.87868764975932
42
2.97817501324832
0
ELLIPSE
5
A2
100
AcDbEntity
8
1
62
256
6
ByLayer
370
18
48
1
60
0
100
AcDbEllipse
10
63.033019
20
0.025883
30
0
11
0.140634104982639
21
-0.431000092718901
31
0
210
0
220
0
230
-1
40
0.07518
41
1.6407031545407
42
2.31001430907695
0
ELLIPSE
5
A3
100
AcDbEntity
8
1
62
256
6
ByLayer
370
13
48
1
60
0
100
AcDbEllipse
10
62.597933
20
2.243846
30
0
11
2.66088480992459
21
-1.43007208077977
31
0
210
0
220
0
230
-1
40
0.499862
41
1.53458373977716
42
1.86104026317578
0
ELLIPSE
5
A4
100
AcDbEntity
8
1
62
256
6
ByLayer
370
18
48
1
60
0
100
AcDbEllipse
10
62.117447
20
-2.243846
30
0
11
0.718290506536341
21
1.95171444596783
31
0
210
0
220
0
230
-1
40
0.098637
41
0.749112684720372
42
1.53873232803784
0
ELLIPSE
5
A5
100
AcDbEntity
8
1
62
256
6
ByLayer
370
13
48
1
60
0
100
AcDbEllipse
10
61.979899
20
0.650734
30
0
11
0.153082081612419
21
0.258003636193773
31
0
210
0
220
0
230
1
40
0.454519
41
0.917105603404855
42
2.31336900500034
0
ELLIPSE
5
A6
100
AcDbEntity
8
1
62
256
6
ByLayer
370
18
48
1
60
0
100
AcDbEllipse
10
63.000405
20
-0.001016
30
0
11
1.71055369349525
21
-4.64785808734902
31
0
210
0
220
0
230
-1
40
0.098637
41
-2.97817501398107
42
-2.87868765094497
0
ELLIPSE
5
A7
100
AcDbEntity
8
1
62
256
6
ByLayer
370
13
48
1
60
0
100
AcDbEllipse
10
4.250206
20
-3.154327
30
0
11
0.0375486289813792
21
0.0926827948522202
31
0
210
0
220
0
230
1
40
0.344263
41
0.863648012184811
42
2.41821748324867
0
ELLIPSE
5
A8
100
AcDbEntity
8
1
62
256
6
ByLayer
370
13
48
1
60
0
100
AcDbEllipse
10
62.408026
20
2.120648
30
0
11
2.58611634667843
21
-1.78061464446029
31
0
210
0
220
0
230
-1
40
0.533762
41
1.44484622740545
42
1.74822549432876
0
ELLIPSE
5
A9
100
AcDbEntity
8
1
62
256
6
ByLayer
370
13
48
1
60
0
100
AcDbEllipse
10
4.175843
20
-3.138011
30
0
11
0.000725820176282576
21
0.0999973658906659
31
0
210
0
220
0
230
1
40
0.623099
41
0.927990467777184
42
2.23689883435694
0
ELLIPSE
5
AA
100
AcDbEntity
8
1
62
256
6
ByLayer
370
18
48
1
60
0
100
AcDbEllipse
10
62.860057
20
0.128507
30
0
11
0.0727819104908959
21
0.301917195724971
31
0
210
0
220
0
230
-1
40
0.478434
41
1.73280895282458
42
2.45976119973683
0
ELLIPSE
5
AB
100
AcDbEntity
8
1
62
256
6
ByLayer
370
18
48
1
60
0
100
AcDbEllipse
10
62.117447
20
2.243846
30
0
11
0.718290506571742
21
-1.95171444604627
31
0
210
0
220
0
230
-1
40
0.098637
41
-1.53873232800711
42
-0.749112684717831
0
ELLIPSE
5
AC
100
AcDbEntity
8
1
62
256
6
ByLayer
370
18
48
1
60
0
100
AcDbEllipse
10
63.033019
20
-0.025883
30
0
11
0.140634104932365
21
0.431000092588227
31
0
210
0
220
0
230
-1
40
0.07518
41
-2.31001430905102
42
-1.64070315433499
0
POINT
5
6C
100
AcDbEntity
8
81
62
256
6
ByLayer
370
18
48
1
60
0
100
AcDbPoint
10
63
20
0
30
0
39
0
210
0
220
0
230
1
50
360
0
POINT
5
6E
100
AcDbEntity
8
80
62
256
6
ByLayer
370
18
48
1
60
0
100
AcDbPoint
10
0
20
0
30
0
39
0
210
0
220
0
230
1
50
360
0
POINT
5
70
100
AcDbEntity
8
SK2
62
256
6
ByLayer
370
18
48
1
60
1
100
AcDbPoint
10
-40
20
-5
30
0
39
0
210
0
220
0
230
1
50
360
0
POINT
5
72
100
AcDbEntity
8
SK2
62
256
6
ByLayer
370
18
48
1
60
1
100
AcDbPoint
10
-40
20
5
30
0
39
0
210
0
220
0
230
1
50
360
0
POINT
5
73
100
AcDbEntity
8
2
62
256
6
ByLayer
370
18
48
1
60
1
100
AcDbPoint
10
61.41
20
-4.65
30
0
39
0
210
0
220
0
230
1
50
360
0
POINT
5
75
100
AcDbEntity
8
2
62
256
6
ByLayer
370
18
48
1
60
1
100
AcDbPoint
10
61.41
20
4.65
30
0
39
0
210
0
220
0
230
1
50
360
0
SPLINE
5
AD
100
AcDbEntity
8
1
62
256
6
ByLayer
370
18
48
1
60
0
100
AcDbSpline
70
4
71
3
72
26
73
22
40
0
40
0
40
0
40
0
40
0.0271604543293116
40
0.0826511090334733
40
0.133127716417592
40
0.172766046785915
40
0.217009121655657
40
0.271937525015058
40
0.318901168224592
40
0.368958602813973
40
0.434862693996435
40
0.493875194674106
40
0.543307447929388
40
0.598949887831067
40
0.666932544634342
40
0.724037889377858
40
0.777665247723669
40
0.840814486587756
40
0.919244611003967
40
0.995358437725987
40
1
40
1
40
1
40
1
41
1
10
48.3110590605033
20
4.42761753427248
30
0
41
1
10
48.2151613971844
20
4.42697481162577
30
0
41
1
10
47.9239618843761
20
4.42555470235004
30
0
41
1
10
47.4582064499164
20
4.4299327467979
30
0
41
1
10
46.9526051052957
20
4.42996640730877
30
0
41
1
10
46.4742883236383
20
4.43060961293963
30
0
41
1
10
45.9824097860167
20
4.43059868936814
30
0
41
1
10
45.4638051788638
20
4.4286892181797
30
0
41
1
10
44.9247936008124
20
4.4289399078757
30
0
41
1
10
44.346782919685
20
4.42946352795423
30
0
41
1
10
43.7260475321019
20
4.42758968109754
30
0
41
1
10
43.1075251038336
20
4.42816056379769
30
0
41
1
10
42.5254055835057
20
4.42843649655859
30
0
41
1
10
41.9114631774629
20
4.42679518493526
30
0
41
1
10
41.2703073003652
20
4.42733438138774
30
0
41
1
10
40.6362926131114
20
4.42692705597548
30
0
41
1
10
40.0194259018406
20
4.42600365258272
30
0
41
1
10
39.3269058985948
20
4.42683141164662
30
0
41
1
10
38.5546604723524
20
4.42513611545854
30
0
41
1
10
37.9898178507929
20
4.42535723018815
30
0
41
1
10
37.7034140432188
20
4.42523588389167
30
0
41
1
10
37.6869529313958
20
4.42522814764448
30
0
0
SPLINE
5
AE
100
AcDbEntity
8
1
62
256
6
ByLayer
370
18
48
1
60
0
100
AcDbSpline
70
4
71
3
72
32
73
28
40
0
40
0
40
0
40
0
40
0.0536430801522743
40
0.0992017243185846
40
0.131780823775421
40
0.157524541635179
40
0.181819050973943
40
0.204688291460388
40
0.255905072052119
40
0.3092830822141
40
0.365073077475214
40
0.413618682568251
40
0.4575066332389
40
0.508384366640132
40
0.562141888217139
40
0.604313879230615
40
0.648123598788585
40
0.701553920640945
40
0.744690353836167
40
0.779315857139369
40
0.822126162530946
40
0.861872546531505
40
0.878178281857938
40
0.894482422946253
40
0.920252713218801
40
0.956492361900194
40
1
40
1
40
1
40
1
41
1
10
10.5725040472412
20
-4.40865973586023
30
0
41
1
10
10.7945301338036
20
-4.40887338130884
30
0
41
1
10
11.2051350659583
20
-4.40922731855164
30
0
41
1
10
11.7505118754124
20
-4.40956361670195
30
0
41
1
10
12.1805965880485
20
-4.40981024957816
30
0
41
1
10
12.5221564012476
20
-4.41019464280456
30
0
41
1
10
12.8239436411401
20
-4.41059409021014
30
0
41
1
10
13.2311802197655
20
-4.41099667601279
30
0
41
1
10
13.7587994043654
20
-4.41097653929569
30
0
41
1
10
14.4226869178206
20
-4.41207213804785
30
0
41
1
10
15.0755152949661
20
-4.41245918218647
30
0
41
1
10
15.689072310241
20
-4.41189019479302
30
0
41
1
10
16.2822910311852
20
-4.41369994031314
30
0
41
1
10
16.8970843842474
20
-4.41355163074525
30
0
41
1
10
17.5047779377865
20
-4.41313452714007
30
0
41
1
10
18.0832081258835
20
-4.41564633305939
30
0
41
1
10
18.6602877780507
20
-4.41460633052705
30
0
41
1
10
19.2413598636785
20
-4.41413313806709
30
0
41
1
10
19.7844118525575
20
-4.41627538598553
30
0
41
1
10
20.283508680466
20
-4.41616292569606
30
0
41
1
10
20.7685629171667
20
-4.41557453534762
30
0
41
1
10
21.1777881878885
20
-4.4159927673202
30
0
41
1
10
21.4772644090565
20
-4.41693535447445
30
0
41
1
10
21.7188537786228
20
-4.41741635318201
30
0
41
1
10
22.0430153210818
20
-4.41718290114858
30
0
41
1
10
22.4797978105832
20
-4.41664477484662
30
0
41
1
10
22.8098873092344
20
-4.4170930354461
30
0
41
1
10
22.989971745105
20
-4.41749234858406
30
0
0
SPLINE
5
AF
100
AcDbEntity
8
1
62
256
6
ByLayer
370
18
48
1
60
0
100
AcDbSpline
70
4
71
3
72
11
73
7
40
0
40
0
40
0
40
0
40
0.0948116888248162
40
0.361568379743309
40
0.645487026109669
40
1
40
1
40
1
40
1
41
1
10
49.0495537874915
20
-1.09608896468052
30
0
41
1
10
49.04948810178
20
-1.09611775601405
30
0
41
1
10
49.056724106719
20
-1.09992698802219
30
0
41
1
10
49.1219184266726
20
-1.13389429871214
30
0
41
1
10
49.2079160493841
20
-1.18006638820594
30
0
41
1
10
49.2432554612965
20
-1.19974897472818
30
0
41
1
10
49.2570548741496
20
-1.20781549507799
30
0
0
SPLINE
5
B0
100
AcDbEntity
8
1
62
256
6
ByLayer
370
18
48
1
60
0
100
AcDbSpline
70
4
71
3
72
30
73
26
40
0
40
0
40
0
40
0
40
0.0681980871677069
40
0.118120902413594
40
0.151936906283415
40
0.181292646541252
40
0.207962057942926
40
0.258336432860957
40
0.311737537892936
40
0.365859507782626
40
0.411820762821382
40
0.460762821408071
40
0.519027265616693
40
0.566715543574991
40
0.603276420458333
40
0.644815919246862
40
0.694771690046675
40
0.737568400799018
40
0.773431651644918
40
0.818667399715434
40
0.863988884286836
40
0.89855436901596
40
0.93735531426537
40
0.973129853465681
40
1
40
1
40
1
40
1
41
1
10
35.5105825082749
20
-4.4235963868984
30
0
41
1
10
35.7928123362092
20
-4.42379323572993
30
0
41
1
10
36.2816090785833
20
-4.42417266142081
30
0
41
1
10
36.9107145357262
20
-4.4243923018318
30
0
41
1
10
37.3783929783091
20
-4.42504318105659
30
0
41
1
10
37.750114641552
20
-4.42528457482425
30
0
41
1
10
38.1905798623847
20
-4.42535524570286
30
0
41
1
10
38.7305147124148
20
-4.42556258282906
30
0
41
1
10
39.3841088503631
20
-4.42676811758389
30
0
41
1
10
40.0194240627923
20
-4.42600248731964
30
0
41
1
10
40.6362931027727
20
-4.42692745801412
30
0
41
1
10
41.2703071337551
20
-4.42733384350024
30
0
41
1
10
41.9114632244439
20
-4.42679702886511
30
0
41
1
10
42.5013767562997
20
-4.42836736831075
30
0
41
1
10
43.0220599522098
20
-4.42824548872667
30
0
41
1
10
43.5521272749203
20
-4.42763268939333
30
0
41
1
10
44.1080059660911
20
-4.42883243048956
30
0
41
1
10
44.6403917555197
20
-4.42929225011835
30
0
41
1
10
45.1532380410103
20
-4.42869761824176
30
0
41
1
10
45.6765403806482
20
-4.42926303816506
30
0
41
1
10
46.194420749606
20
-4.43093499425419
30
0
41
1
10
46.6857706096209
20
-4.43022596355485
30
0
41
1
10
47.137073081818
20
-4.43003498419014
30
0
41
1
10
47.5438555229519
20
-4.4289824347299
30
0
41
1
10
47.8009514127382
20
-4.42709910853847
30
0
41
1
10
47.9113927949659
20
-4.42671192754725
30
0
0
SPLINE
5
B1
100
AcDbEntity
8
1
62
256
6
ByLayer
370
18
48
1
60
0
100
AcDbSpline
70
4
71
3
72
8
73
4
40
0
40
0
40
0
40
0
40
1
40
1
40
1
40
1
41
1
10
48.0818771084213
20
-4.4265310827806
30
0
41
1
10
48.1583733160245
20
-4.42665979781702
30
0
41
1
10
48.2348438661435
20
-4.42706435558233
30
0
41
1
10
48.3114672325925
20
-4.42761913985242
30
0
0
SPLINE
5
B2
100
AcDbEntity
8
1
62
256
6
ByLayer
370
18
48
1
60
0
100
AcDbSpline
70
4
71
3
72
32
73
28
40
0
40
0
40
0
40
0
40
0.0160487257496355
40
0.0757531296771392
40
0.120800695969506
40
0.157431913540436
40
0.187118182370378
40
0.227630624579978
40
0.280031605338814
40
0.329369985965973
40
0.370016437108042
40
0.417820086296886
40
0.475235570704495
40
0.521365935214121
40
0.562949506075212
40
0.606968203993241
40
0.651882819763118
40
0.682743366003789
40
0.707843406182969
40
0.746762352846822
40
0.794584184122874
40
0.833874986668887
40
0.872898791612227
40
0.923448509996613
40
0.977861298464506
40
0.999853457656665
40
1
40
1
40
1
40
1
41
1
10
23.118853326391
20
4.41717693026888
30
0
41
1
10
23.0632920860451
20
4.41703817244883
30
0
41
1
10
22.801032854534
20
4.41649444665919
30
0
41
1
10
22.3780328208835
20
4.41578792577269
30
0
41
1
10
21.8928057261921
20
4.41770583565628
30
0
41
1
10
21.5074067745733
20
4.41696632176939
30
0
41
1
10
21.1353037494182
20
4.41581146314994
30
0
41
1
10
20.710283577456
20
4.41564671492733
30
0
41
1
10
20.2151037050254
20
4.41631503443094
30
0
41
1
10
19.7197171553617
20
4.41597918365068
30
0
41
1
10
19.2415157934948
20
4.41420584306886
30
0
41
1
10
18.7337613796739
20
4.41427818293079
30
0
41
1
10
18.2080288070966
20
4.41577241705559
30
0
41
1
10
17.703157923147
20
4.41388297206109
30
0
41
1
10
17.2450634744601
20
4.41327570213869
30
0
41
1
10
16.7910924403837
20
4.41355292038253
30
0
41
1
10
16.3744863748049
20
4.41373645331285
30
0
41
1
10
16.0236526364315
20
4.4127530845337
30
0
41
1
10
15.693655907092
20
4.41218104119162
30
0
41
1
10
15.3049194108986
20
4.41217617758701
30
0
41
1
10
14.8671077041784
20
4.41231422171808
30
0
41
1
10
14.4279950563338
20
4.4119187626593
30
0
41
1
10
13.9810443490454
20
4.41120129405419
30
0
41
1
10
13.4799463222766
20
4.41106581758959
30
0
41
1
10
13.0384873196728
20
4.41084277135738
30
0
41
1
10
12.7722153219239
20
4.41052295645537
30
0
41
1
10
12.6952760863989
20
4.4104192939661
30
0
41
1
10
12.6947668066688
20
4.41041860731193
30
0
0
SPLINE
5
B3
100
AcDbEntity
8
1
62
256
6
ByLayer
370
18
48
1
60
0
100
AcDbSpline
70
4
71
2
72
6
73
3
40
0
40
0
40
0
40
1
40
1
40
1
41
1
10
60.5794546829599
20
-4.43862613155849
30
0
41
1
10
60.9815293182715
20
-4.43666801364475
30
0
41
1
10
61.3833625117102
20
-4.44044522784478
30
0
0
SPLINE
5
B4
100
AcDbEntity
8
1
62
256
6
ByLayer
370
18
48
1
60
0
100
AcDbSpline
70
4
71
3
72
12
73
8
40
0
40
0
40
0
40
0
40
0.0215169543632242
40
0.120391160550996
40
0.258374154579716
40
0.648868007477474
40
1
40
1
40
1
40
1
41
1
10
24.0587511019527
20
-1.09935242661308
30
0
41
1
10
24.0586410300145
20
-1.09930195462962
30
0
41
1
10
24.0584348420194
20
-1.09923141914055
30
0
41
1
10
24.063795721615
20
-1.10207842381377
30
0
41
1
10
24.0940557686038
20
-1.11825700257219
30
0
41
1
10
24.1525610373054
20
-1.15038224001748
30
0
41
1
10
24.2110827228385
20
-1.18339211786684
30
0
41
1
10
24.2416115138595
20
-1.20075471376438
30
0
0
SPLINE
5
B5
100
AcDbEntity
8
1
62
256
6
ByLayer
370
18
48
1
60
0
100
AcDbSpline
70
4
71
3
72
16
73
12
40
0
40
0
40
0
40
0
40
0.25000000000002
40
0.25000000000002
40
0.375000000000031
40
0.375000000000031
40
0.500000000000041
40
0.500000000000041
40
0.750000000000021
40
0.750000000000021
40
1
40
1
40
1
40
1
41
1
10
4.25138340439827
20
3.36588317621593
30
0
41
1
10
4.22604040202887
20
3.37842224472396
30
0
41
1
10
4.19965902713028
20
3.39244357031924
30
0
41
1
10
4.15869947844263
20
3.41627834418168
30
0
41
1
10
4.14515090943905
20
3.42450315745515
30
0
41
1
10
4.11831558563506
20
3.44164183015528
30
0
41
1
10
4.10508503968495
20
3.45053844756666
30
0
41
1
10
4.06842159071456
20
3.47675091179085
30
0
41
1
10
4.04725443346237
20
3.49421424445819
30
0
41
1
10
4.01694548398066
20
3.5247534312976
30
0
41
1
10
4.00774375633711
20
3.53767291876179
30
0
41
1
10
4.00330222524488
20
3.54822156960051
30
0
0
SPLINE
5
B6
100
AcDbEntity
8
1
62
256
6
ByLayer
370
13
48
1
60
0
100
AcDbSpline
70
4
71
3
72
18
73
14
40
0
40
0
40
0
40
0
40
0.232315360617064
40
0.232315360617064
40
0.464630721234127
40
0.464630721234127
40
0.580788401542658
40
0.580788401542658
40
0.696946081851189
40
0.696946081851189
40
0.929261442468249
40
0.929261442468249
40
1
40
1
40
1
40
1
41
1
10
4.20094046746877
20
-3.21524367191083
30
0
41
1
10
4.80186688374386
20
-3.45393645995691
30
0
41
1
10
5.39857900122689
20
-3.66278749138417
30
0
41
1
10
6.59033099796562
20
-4.01610419057343
30
0
41
1
10
7.18540568086161
20
-4.1605528662283
30
0
41
1
10
8.0824733018022
20
-4.32358797512532
30
0
41
1
10
8.38228935834337
20
-4.36902040433549
30
0
41
1
10
8.98406618396598
20
-4.44127346947758
30
0
41
1
10
9.28360219689
20
-4.46780298322244
30
0
41
1
10
10.179425611608
20
-4.51880969915735
30
0
41
1
10
10.7728926919425
20
-4.51477252991668
30
0
41
1
10
11.5467891299029
20
-4.46067381995485
30
0
41
1
10
11.7274118339301
20
-4.44458074706623
30
0
41
1
10
11.908124431718
20
-4.42505495995638
30
0
0
SPLINE
5
B7
100
AcDbEntity
8
1
62
256
6
ByLayer
370
18
48
1
60
0
100
AcDbSpline
70
4
71
3
72
18
73
14
40
0
40
0
40
0
40
0
40
0.153473858289666
40
0.153473858289666
40
0.218892978182321
40
0.218892978182321
40
0.284312098074975
40
0.284312098074975
40
0.41515033786029
40
0.41515033786029
40
0.938503297001549
40
0.938503297001549
40
1
40
1
40
1
40
1
41
1
10
47.8649373489002
20
0.0055997454557826
30
0
41
1
10
48.2137917170871
20
-0.19294645241834
30
0
41
1
10
48.5636096250034
20
-0.392051892551251
30
0
41
1
10
49.0648100907772
20
-0.675262164723421
30
0
41
1
10
49.2151498010735
20
-0.759883103691436
30
0
41
1
10
49.5152791578282
20
-0.927798574341267
30
0
41
1
10
49.6650213815885
20
-1.01109679144872
30
0
41
1
10
50.1134106840459
20
-1.25883063894204
30
0
41
1
10
50.4112931008298
20
-1.42099797033458
30
0
41
1
10
51.897343779607
20
-2.21402140137502
30
0
41
1
10
53.0755101320808
20
-2.79121251618778
30
0
41
1
10
54.4132395183315
20
-3.32053395063105
30
0
41
1
10
54.5542988209663
20
-3.37481169789939
30
0
41
1
10
54.6953701922732
20
-3.42749210763978
30
0
0
SPLINE
5
B8
100
AcDbEntity
8
1
62
256
6
ByLayer
370
13
48
1
60
0
100
AcDbSpline
70
4
71
3
72
18
73
14
40
0
40
0
40
0
40
0
40
0.0703825498188645
40
0.0703825498188645
40
0.203185042701881
40
0.203185042701881
40
0.46879002846792
40
0.46879002846792
40
0.734395014233957
40
0.734395014233957
40
0.867197507116979
40
0.867197507116979
40
1
40
1
40
1
40
1
41
1
10
54.6953701930884
20
-3.4274921079442
30
0
41
1
10
54.8544373493648
20
-3.48689269993017
30
0
41
1
10
55.0135198497869
20
-3.54426243206785
30
0
41
1
10
55.4712185559734
20
-3.70311967982252
30
0
41
1
10
55.7692232149524
20
-3.79893360456114
30
0
41
1
10
56.6611726151525
20
-4.06133506627961
30
0
41
1
10
57.2529699385944
20
-4.20297110273046
30
0
41
1
10
58.4382099490082
20
-4.41478691902398
30
0
41
1
10
59.0317897244279
20
-4.48502096621871
30
0
41
1
10
59.9287747975231
20
-4.53345679405751
30
0
41
1
10
60.2294671083578
20
-4.54007474130492
30
0
41
1
10
60.8298369625419
20
-4.5337598834721
30
0
41
1
10
61.1297746164028
20
-4.52064248558207
30
0
41
1
10
61.4298434897154
20
-4.49834313865881
30
0
0
SPLINE
5
B9
100
AcDbEntity
8
1
62
256
6
ByLayer
370
18
48
1
60
0
100
AcDbSpline
70
4
71
3
72
16
73
12
40
0
40
0
40
0
40
0
40
0.0048201497776766
40
0.0048201497776766
40
0.190211312149822
40
0.190211312149822
40
0.560993636894118
40
0.560993636894118
40
0.931775961638414
40
0.931775961638414
40
1
40
1
40
1
40
1
41
1
10
60.5721168149734
20
-4.43861548031725
30
0
41
1
10
60.5643177410856
20
-4.4386085404947
30
0
41
1
10
60.5565185084467
20
-4.43859517970702
30
0
41
1
10
60.2487409916611
20
-4.43781453718492
30
0
41
1
10
59.9483712828753
20
-4.4274984305076
30
0
41
1
10
59.0521976954687
20
-4.36878372671131
30
0
41
1
10
58.4589631304352
20
-4.29270299114751
30
0
41
1
10
57.2741722891213
20
-4.07139986446572
30
0
41
1
10
56.6825200644919
20
-3.92608404920773
30
0
41
1
10
55.9786960083667
20
-3.71597954739778
30
0
41
1
10
55.8692265694431
20
-3.68223759422619
30
0
41
1
10
55.7596435100664
20
-3.64742246544157
30
0
0
SPLINE
5
BA
100
AcDbEntity
8
1
62
256
6
ByLayer
370
13
48
1
60
0
100
AcDbSpline
70
4
71
3
72
26
73
22
40
0
40
0
40
0
40
0
40
0.0478425479298894
40
0.0478425479298894
40
0.123542840536396
40
0.123542840536396
40
0.426344010962419
40
0.426344010962419
40
0.502044303568925
40
0.502044303568925
40
0.57774459617543
40
0.57774459617543
40
0.729145181388442
40
0.729145181388442
40
0.880545766601454
40
0.880545766601454
40
0.956246059207959
40
0.956246059207959
40
0.994096205511213
40
0.994096205511213
40
1
40
1
40
1
40
1
41
1
10
55.759643510073
20
-3.64742246544367
30
0
41
1
10
55.5714469122763
20
-3.58763139165558
30
0
41
1
10
55.3829151999864
20
-3.52467507171818
30
0
41
1
10
54.8949156656074
20
-3.35415783660355
30
0
41
1
10
54.5941130368732
20
-3.24168694615091
30
0
41
1
10
53.0991478468575
20
-2.64968701064908
30
0
41
1
10
51.9211725346232
20
-2.07723540593554
30
0
41
1
10
50.435660320262
20
-1.29549966917466
30
0
41
1
10
50.1379010449721
20
-1.13585227695867
30
0
41
1
10
49.5403149179569
20
-0.811187530649761
30
0
41
1
10
49.2395439449499
20
-0.645736992180332
30
0
41
1
10
48.3416049667578
20
-0.148169825735096
30
0
41
1
10
47.7474282857909
20
0.184388131102509
30
0
41
1
10
46.5618709601785
20
0.840372990899766
30
0
41
1
10
45.9699996928314
20
1.16285451707128
30
0
41
1
10
45.0792282863981
20
1.63058351476843
30
0
41
1
10
44.7817272176956
20
1.78368076330719
30
0
41
1
10
44.333865677957
20
2.00776168666397
30
0
41
1
10
44.184305984649
20
2.08151966643018
30
0
41
1
10
44.0110706066937
20
2.16564314177521
30
0
41
1
10
43.9876843621264
20
2.17697302993241
30
0
41
1
10
43.9642903820867
20
2.18827966709853
30
0
0
SPLINE
5
BB
100
AcDbEntity
8
1
62
256
6
ByLayer
370
18
48
1
60
0
100
AcDbSpline
70
4
71
3
72
16
73
12
40
0
40
0
40
0
40
0
40
0.17472776238619
40
0.17472776238619
40
0.338180493087537
40
0.338180493087537
40
0.501633223788882
40
0.501633223788882
40
0.828538685191575
40
0.828538685191575
40
1
40
1
40
1
40
1
41
1
10
10.5820080277308
20
-4.4086864118816
30
0
41
1
10
10.2645263111961
20
-4.40857450871081
30
0
41
1
10
9.94652975166599
20
-4.39792390456617
30
0
41
1
10
9.32905336636466
20
-4.35677863279105
30
0
41
1
10
9.02970033601571
20
-4.32759430886534
30
0
41
1
10
8.42839434214352
20
-4.25055855118947
30
0
41
1
10
8.12882833809016
20
-4.20300989551973
30
0
41
1
10
7.23238385243667
20
-4.03443013383145
30
0
41
1
10
6.63766340186459
20
-3.887406392933
30
0
41
1
10
5.7299217510801
20
-3.61590836812954
30
0
41
1
10
5.41740649159831
20
-3.51394852904605
30
0
41
1
10
5.10420735735832
20
-3.40379769226894
30
0
0
SPLINE
5
BC
100
AcDbEntity
8
1
62
256
6
ByLayer
370
13
48
1
60
0
100
AcDbSpline
70
4
71
3
72
8
73
4
40
0
40
0
40
0
40
0
40
1
40
1
40
1
40
1
41
1
10
5.10420735549215
20
-3.40379769161265
30
0
41
1
10
4.8202659189987
20
-3.30393666578223
30
0
41
1
10
4.53576240912275
20
-3.19734349825845
30
0
41
1
10
4.2503437162421
20
-3.08428711133982
30
0
0
SPLINE
5
BD
100
AcDbEntity
8
1
62
256
6
ByLayer
370
18
48
1
60
0
100
AcDbSpline
70
4
71
3
72
22
73
18
40
0
40
0
40
0
40
0
40
0.25
40
0.25
40
0.500000000000001
40
0.500000000000001
40
0.625000000000001
40
0.625000000000001
40
0.750000000000001
40
0.750000000000001
40
0.812500000000001
40
0.812500000000001
40
0.875000000000001
40
0.875000000000001
40
0.9375
40
0.9375
40
1
40
1
40
1
40
1
41
1
10
61.1514843892254
20
1.37866763767786
30
0
41
1
10
61.281664646935
20
1.4084852014629
30
0
41
1
10
61.4108196427873
20
1.44252765836489
30
0
41
1
10
61.6647622498976
20
1.52478092294928
30
0
41
1
10
61.7884322329664
20
1.57224281993544
30
0
41
1
10
61.9638559039189
20
1.66340271117949
30
0
41
1
10
62.0206273158183
20
1.69716364678007
30
0
41
1
10
62.128466607317
20
1.77618341538766
30
0
41
1
10
62.179293404902
20
1.82145426464353
30
0
41
1
10
62.2430743220477
20
1.8999044409334
30
0
41
1
10
62.2623719179336
20
1.92807058222729
30
0
41
1
10
62.2946477847269
20
1.98683485475948
30
0
41
1
10
62.3078408824025
20
2.01765718075546
30
0
41
1
10
62.3274633970057
20
2.08264019392035
30
0
41
1
10
62.3336795911071
20
2.11653351663958
30
0
41
1
10
62.3385833014984
20
2.18395286179649
30
0
41
1
10
62.3373916319147
20
2.21810696182436
30
0
41
1
10
62.3328867705256
20
2.25209021102651
30
0
0
SPLINE
5
BE
100
AcDbEntity
8
1
62
256
6
ByLayer
370
18
48
1
60
0
100
AcDbSpline
70
4
71
3
72
12
73
8
40
0
40
0
40
0
40
0
40
0.25
40
0.25
40
0.5
40
0.5
40
1
40
1
40
1
40
1
41
1
10
61.4298434897066
20
-4.49834313865949
30
0
41
1
10
61.4347782277385
20
-4.48511748779742
30
0
41
1
10
61.439453513798
20
-4.47160240654853
30
0
41
1
10
61.4469572528559
20
-4.44739456255348
30
0
41
1
10
61.4497631038246
20
-4.43672457717827
30
0
41
1
10
61.4543090623866
20
-4.41347996882533
30
0
41
1
10
61.4525094774955
20
-4.40934056635777
30
0
41
1
10
61.448296125824
20
-4.41239010865633
30
0
0
SPLINE
5
BF
100
AcDbEntity
8
1
62
256
6
ByLayer
370
18
48
1
60
0
100
AcDbSpline
70
4
71
3
72
22
73
18
40
0
40
0
40
0
40
0
40
0.125000000000001
40
0.125000000000001
40
0.187500000000001
40
0.187500000000001
40
0.250000000000002
40
0.250000000000002
40
0.500000000000001
40
0.500000000000001
40
0.625000000000001
40
0.625000000000001
40
0.750000000000001
40
0.750000000000001
40
0.875
40
0.875
40
1
40
1
40
1
40
1
41
1
10
61.3843533134156
20
-4.43895278921747
30
0
41
1
10
61.3166995958788
20
-4.43890850452445
30
0
41
1
10
61.2524547970064
20
-4.42857536691324
30
0
41
1
10
61.1614758712551
20
-4.39681268995042
30
0
41
1
10
61.1320500299307
20
-4.38350732625611
30
0
41
1
10
61.075078913439
20
-4.35122064396873
30
0
41
1
10
61.0475010865447
20
-4.33218318201605
30
0
41
1
10
60.9164776557732
20
-4.22386008972424
30
0
41
1
10
60.8316328940924
20
-4.09504133092281
30
0
41
1
10
60.736320891912
20
-3.83436355950357
30
0
41
1
10
60.7098643559706
20
-3.73520199791503
30
0
41
1
10
60.6699565409954
20
-3.51938643973233
30
0
41
1
10
60.6562250578951
20
-3.40233014828942
30
0
41
1
10
60.6411651407079
20
-3.149981996751
30
0
41
1
10
60.6398346191003
20
-3.01469320583067
30
0
41
1
10
60.6501453311568
20
-2.72504391561071
30
0
41
1
10
60.6617169535259
20
-2.57340124125028
30
0
41
1
10
60.6793884296201
20
-2.41617625977992
30
0
0
SPLINE
5
C0
100
AcDbEntity
8
1
62
256
6
ByLayer
370
18
48
1
60
0
100
AcDbSpline
70
4
71
3
72
16
73
12
40
0
40
0
40
0
40
0
40
0.154653370982861
40
0.154653370982861
40
0.290911757261336
40
0.290911757261336
40
0.42717014353981
40
0.42717014353981
40
0.972203688653719
40
0.972203688653719
40
1
40
1
40
1
40
1
41
1
10
22.8654732604032
20
0.0052910296146251
30
0
41
1
10
23.2021942891553
20
-0.185738951506437
30
0
41
1
10
23.5392036833859
20
-0.376969961777405
30
0
41
1
10
24.174866726133
20
-0.734930879020169
30
0
41
1
10
24.4733467106806
20
-0.901811371609085
30
0
41
1
10
25.0727371259083
20
-1.23232688226813
30
0
41
1
10
25.3740405288128
20
-1.39629290387566
30
0
41
1
10
26.8705785420503
20
-2.19439880938089
30
0
41
1
10
28.050180714992
20
-2.76992513082405
30
0
41
1
10
29.3010403774685
20
-3.26544591161951
30
0
41
1
10
29.3617650322082
20
-3.2892204576589
30
0
41
1
10
29.4225213975611
20
-3.31271854748187
30
0
0
SPLINE
5
C1
100
AcDbEntity
8
1
62
256
6
ByLayer
370
13
48
1
60
0
100
AcDbSpline
70
4
71
3
72
18
73
14
40
0
40
0
40
0
40
0
40
0.09413442638514
40
0.09413442638514
40
0.212393320446329
40
0.212393320446329
40
0.330652214507519
40
0.330652214507519
40
0.448911108568709
40
0.448911108568709
40
0.921946684813476
40
0.921946684813476
40
1
40
1
40
1
40
1
41
1
10
29.4225213973711
20
-3.31271854740839
30
0
41
1
10
29.6595946324195
20
-3.40440882775283
30
0
41
1
10
29.8971506884374
20
-3.49188982784389
30
0
41
1
10
30.4348299837496
20
-3.67895898160719
30
0
41
1
10
30.7358954019309
20
-3.77611071156818
30
0
41
1
10
31.3365340619075
20
-3.95335782533809
30
0
41
1
10
31.6365121611395
20
-4.03359775159282
30
0
41
1
10
32.2366877908343
20
-4.17669755730699
30
0
41
1
10
32.5371902010198
20
-4.23960375822256
30
0
41
1
10
34.0396587185925
20
-4.5080681390516
30
0
41
1
10
35.2199043395819
20
-4.57189869995125
30
0
41
1
10
36.6032165167642
20
-4.47100498358475
30
0
41
1
10
36.7993326051746
20
-4.45262120776755
30
0
41
1
10
36.99577235748
20
-4.43014999008707
30
0
0
SPLINE
5
C2
100
AcDbEntity
8
1
62
256
6
ByLayer
370
18
48
1
60
0
100
AcDbSpline
70
4
71
3
72
12
73
8
40
0
40
0
40
0
40
0
40
0.525825791684681
40
0.525825791684681
40
0.87256194279961
40
0.87256194279961
40
1
40
1
40
1
40
1
41
1
10
35.5789893882595
20
-4.42363352964773
30
0
41
1
10
34.6802919805763
20
-4.42317565690172
30
0
41
1
10
33.7815839002927
20
-4.33809454451406
30
0
41
1
10
32.2701920324599
20
-4.05698901584444
30
0
41
1
10
31.6708878791171
20
-3.90994105080898
30
0
41
1
10
30.8501167998977
20
-3.66482938398056
30
0
41
1
10
30.6291557584881
20
-3.59451591723789
30
0
41
1
10
30.4087441283381
20
-3.52036484389808
30
0
0
SPLINE
5
C3
100
AcDbEntity
8
1
62
256
6
ByLayer
370
13
48
1
60
0
100
AcDbSpline
70
4
71
3
72
26
73
22
40
0
40
0
40
0
40
0
40
0.0208016904162429
40
0.0208016904162429
40
0.0993197233726631
40
0.0993197233726631
40
0.413391855198337
40
0.413391855198337
40
0.491909888154756
40
0.491909888154756
40
0.570427921111175
40
0.570427921111175
40
0.727463987024014
40
0.727463987024014
40
0.884500052936852
40
0.884500052936852
40
0.923759069415061
40
0.923759069415061
40
0.96301808589327
40
0.96301808589327
40
1
40
1
40
1
40
1
41
1
10
30.4087450760127
20
-3.52036516271565
30
0
41
1
10
30.3293060860419
20
-3.49364023240486
30
0
41
1
10
30.2499384626567
20
-3.46641680921667
30
0
41
1
10
29.8715366994418
20
-3.33418994060054
30
0
41
1
10
29.5735236716847
20
-3.22273299180429
30
0
41
1
10
28.0866300573545
20
-2.63428256718484
30
0
41
1
10
26.9071363355733
20
-2.06399665100452
30
0
41
1
10
25.4114662485424
20
-1.27801008398748
30
0
41
1
10
25.110406137572
20
-1.11681084300494
30
0
41
1
10
24.5114773883043
20
-0.792271516272564
30
0
41
1
10
24.2131909634879
20
-0.628563322083465
30
0
41
1
10
23.320484853483
20
-0.135651847862135
30
0
41
1
10
22.7280418300458
20
0.195010711541698
30
0
41
1
10
21.5420375555437
20
0.848499380832919
30
0
41
1
10
20.9483408467436
20
1.17108769338046
30
0
41
1
10
20.2011294510851
20
1.5613855726813
30
0
41
1
10
20.0514293436017
20
1.63879214244415
30
0
41
1
10
19.7513880182055
20
1.79207277148086
30
0
41
1
10
19.6009459216999
20
1.86799449952503
30
0
41
1
10
19.3097947650715
20
2.01292286485386
30
0
41
1
10
19.1688400504554
20
2.08217099320873
30
0
41
1
10
19.0281078048089
20
2.15029718161296
30
0
0
SPLINE
5
C4
100
AcDbEntity
8
1
62
256
6
ByLayer
370
18
48
1
60
0
100
AcDbSpline
70
2053
71
3
72
62
73
58
40
0
40
0
40
0
40
0
40
0.0312499999999986
40
0.0312499999999986
40
0.0624999999999972
40
0.0624999999999972
40
0.0937499999999958
40
0.0937499999999958
40
0.124999999999994
40
0.124999999999994
40
0.156249999999993
40
0.156249999999993
40
0.187499999999992
40
0.187499999999992
40
0.21874999999999
40
0.21874999999999
40
0.249999999999989
40
0.249999999999989
40
0.281249999999988
40
0.281249999999988
40
0.312499999999986
40
0.312499999999986
40
0.374999999999983
40
0.374999999999983
40
0.43749999999998
40
0.43749999999998
40
0.468749999999981
40
0.468749999999981
40
0.499999999999981
40
0.499999999999981
40
0.531249999999982
40
0.531249999999982
40
0.562499999999982
40
0.562499999999982
40
0.593749999999983
40
0.593749999999983
40
0.624999999999983
40
0.624999999999983
40
0.656249999999984
40
0.656249999999984
40
0.687499999999984
40
0.687499999999984
40
0.718749999999984
40
0.718749999999984
40
0.749999999999985
40
0.749999999999985
40
0.812499999999985
40
0.812499999999985
40
0.843749999999987
40
0.843749999999987
40
0.874999999999989
40
0.874999999999989
40
0.906249999999991
40
0.906249999999991
40
0.937499999999992
40
0.937499999999992
40
1
40
1
40
1
40
1
41
1
10
61.9306276105184
20
-2.29483103784538
30
0
41
1
10
61.953333008061
20
-2.26185709623422
30
0
41
1
10
61.9755353485315
20
-2.22660431326017
30
0
41
1
10
62.0188555861857
20
-2.15118623466015
30
0
41
1
10
62.0402031975236
20
-2.110536198077
30
0
41
1
10
62.0803513418027
20
-2.02591838038626
30
0
41
1
10
62.0990815441608
20
-1.98221190466771
30
0
41
1
10
62.133472125501
20
-1.89160646872347
30
0
41
1
10
62.148796642044
20
-1.84543061995015
30
0
41
1
10
62.1742314775219
20
-1.75500833218197
30
0
41
1
10
62.1846563552375
20
-1.70947776622353
30
0
41
1
10
62.1992642595629
20
-1.62404811401714
30
0
41
1
10
62.2035978916832
20
-1.58377272086767
30
0
41
1
10
62.2063125977994
20
-1.50940009988761
30
0
41
1
10
62.2046905719864
20
-1.47641226600894
30
0
41
1
10
62.1961556359041
20
-1.41789239880734
30
0
41
1
10
62.1892585865508
20
-1.39286285960603
30
0
41
1
10
62.1712816005232
20
-1.35139184115741
30
0
41
1
10
62.1600435288958
20
-1.33466390897246
30
0
41
1
10
62.1344429969757
20
-1.30952326647659
30
0
41
1
10
62.1200415727452
20
-1.30092752995438
30
0
41
1
10
62.072452981275
20
-1.28602359580754
30
0
41
1
10
62.0360358527598
20
-1.2907270700432
30
0
41
1
10
61.9559656843883
20
-1.32604859949257
30
0
41
1
10
61.9136143827395
20
-1.35606095142512
30
0
41
1
10
61.847094413657
20
-1.41932018635973
30
0
41
1
10
61.8243957091269
20
-1.44357904146992
30
0
41
1
10
61.7794439667599
20
-1.49704052639632
30
0
41
1
10
61.7569987092743
20
-1.52640868527948
30
0
41
1
10
61.7121751802976
20
-1.5909159478806
30
0
41
1
10
61.6895461322467
20
-1.62649527422027
30
0
41
1
10
61.6458285072164
20
-1.70211608228394
30
0
41
1
10
61.6247589460834
20
-1.74202693673112
30
0
41
1
10
61.5844234630072
20
-1.82664870650697
30
0
41
1
10
61.5652639338125
20
-1.87127209046511
30
0
41
1
10
61.5310254811134
20
-1.96140003420265
30
0
41
1
10
61.5155011511583
20
-2.00815392228287
30
0
41
1
10
61.4899547243891
20
-2.09925378231188
30
0
41
1
10
61.4798053988388
20
-2.14370589828013
30
0
41
1
10
61.4650537696933
20
-2.23028929982988
30
0
41
1
10
61.4608016788379
20
-2.27037732020565
30
0
41
1
10
61.4580598272096
20
-2.34450695765611
30
0
41
1
10
61.4596597596849
20
-2.37819058407592
30
0
41
1
10
61.4680212850698
20
-2.43673533441893
30
0
41
1
10
61.4748708288184
20
-2.46219681751529
30
0
41
1
10
61.5015940539392
20
-2.52513480925151
30
0
41
1
10
61.5279607820046
20
-2.55046708736046
30
0
41
1
10
61.5751364373012
20
-2.56586284964081
30
0
41
1
10
61.5923698536109
20
-2.56729789490654
30
0
41
1
10
61.6286410263551
20
-2.56315082685603
30
0
41
1
10
61.647677951953
20
-2.55763724109829
30
0
41
1
10
61.687464978911
20
-2.54007156212688
30
0
41
1
10
61.7083831447802
20
-2.52788455834462
30
0
41
1
10
61.75099948797
20
-2.49745153766079
30
0
41
1
10
61.7726932602073
20
-2.47926399592964
30
0
41
1
10
61.8389346604738
20
-2.41576299180744
30
0
41
1
10
61.885216815433
20
-2.36077892106772
30
0
41
1
10
61.9306276105183
20
-2.29483103784538
30
0
0
SPLINE
5
C5
100
AcDbEntity
8
1
62
256
6
ByLayer
370
13
48
1
60
0
100
AcDbSpline
70
4
71
3
72
8
73
4
40
0
40
0
40
0
40
0
40
1
40
1
40
1
40
1
41
1
10
4.0083516906146
20
-3.15432629758234
30
0
41
1
10
4.02473460916616
20
-3.17277180341105
30
0
41
1
10
4.06502218953457
20
-3.18931291040843
30
0
41
1
10
4.12640566346761
20
-3.19944645447959
30
0
0
SPLINE
5
C6
100
AcDbEntity
8
1
62
256
6
ByLayer
370
18
48
1
60
0
100
AcDbSpline
70
4
71
3
72
58
73
54
40
0
40
0
40
0
40
0
40
0.0624999999999991
40
0.0624999999999991
40
0.124999999999998
40
0.124999999999998
40
0.249999999999996
40
0.249999999999996
40
0.374999999999995
40
0.374999999999995
40
0.499999999999993
40
0.499999999999993
40
0.562499999999992
40
0.562499999999992
40
0.624999999999991
40
0.624999999999991
40
0.656249999999991
40
0.656249999999991
40
0.67187499999999
40
0.67187499999999
40
0.67578124999999
40
0.67578124999999
40
0.67968749999999
40
0.67968749999999
40
0.687499999999991
40
0.687499999999991
40
0.718749999999992
40
0.718749999999992
40
0.734374999999992
40
0.734374999999992
40
0.749999999999992
40
0.749999999999992
40
0.765624999999993
40
0.765624999999993
40
0.781249999999993
40
0.781249999999993
40
0.796874999999993
40
0.796874999999993
40
0.804687499999994
40
0.804687499999994
40
0.812499999999994
40
0.812499999999994
40
0.828124999999994
40
0.828124999999994
40
0.843749999999995
40
0.843749999999995
40
0.874999999999996
40
0.874999999999996
40
0.906249999999997
40
0.906249999999997
40
0.937499999999998
40
0.937499999999998
40
1
40
1
40
1
40
1
41
1
10
14.440012424728
20
3.81003529366649
30
0
41
1
10
14.1233922172925
20
3.91436320268124
30
0
41
1
10
13.805002690475
20
4.0072925863424
30
0
41
1
10
13.1637324494447
20
4.17179072682538
30
0
41
1
10
12.8402724857945
20
4.24343903033107
30
0
41
1
10
11.8653883230774
20
4.42730380223702
30
0
41
1
10
11.2117990987272
20
4.50788765046175
30
0
41
1
10
9.88684245934704
20
4.60447476997655
30
0
41
1
10
9.21537953588111
20
4.62051724114505
30
0
41
1
10
7.84588653930345
20
4.61562191670501
30
0
41
1
10
7.14785915942707
20
4.59497313369664
30
0
41
1
10
6.07696351277087
20
4.55932818318337
30
0
41
1
10
5.71654983047523
20
4.54668220729721
30
0
41
1
10
4.99297924515039
20
4.52327351002867
30
0
41
1
10
4.62898124472642
20
4.5124906363616
30
0
41
1
10
4.08129657395051
20
4.49958564130512
30
0
41
1
10
3.89836544091634
20
4.49581944501972
30
0
41
1
10
3.62365842140935
20
4.49114175451876
30
0
41
1
10
3.53204075639351
20
4.48974396755023
30
0
41
1
10
3.41745710163408
20
4.48821182429512
30
0
41
1
10
3.39430193491603
20
4.48792904663972
30
0
41
1
10
3.348728641572
20
4.48910023324791
30
0
41
1
10
3.32586411389443
20
4.49034977435554
30
0
41
1
10
3.26514140965736
20
4.49769300978053
30
0
41
1
10
3.22511827420823
20
4.50262728344805
30
0
41
1
10
3.02631317702901
20
4.52696836238238
30
0
41
1
10
2.87300243517072
20
4.54587421883025
30
0
41
1
10
2.65863114586995
20
4.57100533748945
30
0
41
1
10
2.58967142750427
20
4.5788491479679
30
0
41
1
10
2.4580490773383
20
4.59287134655159
30
0
41
1
10
2.39496711867426
20
4.59908634199496
30
0
41
1
10
2.27980227220132
20
4.60869692440909
30
0
41
1
10
2.22759941657267
20
4.61211853980049
30
0
41
1
10
2.13648251668127
20
4.61507845884077
30
0
41
1
10
2.0975574414083
20
4.61454665249764
30
0
41
1
10
2.03901590300671
20
4.60843192052579
30
0
41
1
10
2.01882533424916
20
4.6028920674415
30
0
41
1
10
2.00310697473617
20
4.59020210766039
30
0
41
1
10
2.00032408925182
20
4.58520469706784
30
0
41
1
10
1.99973004116367
20
4.57394679431027
30
0
41
1
10
2.00186486461394
20
4.56766997105535
30
0
41
1
10
2.01502429774894
20
4.54695163989388
30
0
41
1
10
2.03301089984117
20
4.53046661125083
30
0
41
1
10
2.08359148718716
20
4.49345642410591
30
0
41
1
10
2.11578980916164
20
4.47313705835182
30
0
41
1
10
2.2282693885482
20
4.40753576616197
30
0
41
1
10
2.32515704662814
20
4.35720230953302
30
0
41
1
10
2.53811613732623
20
4.25076436343798
30
0
41
1
10
2.6550153603603
20
4.19424046759565
30
0
41
1
10
2.90237414716563
20
4.07570094319047
30
0
41
1
10
3.03341963367549
20
4.01344052264119
30
0
41
1
10
3.43506041776547
20
3.82230485936316
30
0
41
1
10
3.71563803073923
20
3.68827358500491
30
0
41
1
10
4.00330222513375
20
3.54822156966046
30
0
0
SPLINE
5
C7
100
AcDbEntity
8
1
62
256
6
ByLayer
370
18
48
1
60
0
100
AcDbSpline
70
4
71
3
72
76
73
72
40
0
40
0
40
0
40
0
40
0.0355573207185252
40
0.0355573207185252
40
0.0743041498575236
40
0.0743041498575236
40
0.113050978996522
40
0.113050978996522
40
0.190544637274518
40
0.190544637274518
40
0.268038295552515
40
0.268038295552515
40
0.345531953830511
40
0.345531953830511
40
0.423025612108508
40
0.423025612108508
40
0.461772441247506
40
0.461772441247506
40
0.481145855817005
40
0.481145855817005
40
0.490832563101754
40
0.490832563101754
40
0.495675916744129
40
0.498097593565317
40
0.49930843197591
40
0.49930843197591
40
0.499611141578559
40
0.499611141578559
40
0.499913851181207
40
0.499913851181207
40
0.500519270386504
40
0.500519270386504
40
0.50536262402888
40
0.50536262402888
40
0.510205977671255
40
0.510205977671255
40
0.519892684956006
40
0.519892684956006
40
0.539266099525509
40
0.539266099525509
40
0.578012928664514
40
0.578012928664514
40
0.655506586942523
40
0.655506586942523
40
0.733000245220533
40
0.733000245220533
40
0.771747074359538
40
0.771747074359538
40
0.781433781644289
40
0.781433781644289
40
0.786277135286665
40
0.786277135286665
40
0.787487973697259
40
0.787487973697259
40
0.787790683299907
40
0.787790683299907
40
0.788093392902556
40
0.788093392902556
40
0.788698812107853
40
0.791120488929041
40
0.810493903498543
40
0.810493903498543
40
0.849240732637547
40
0.849240732637547
40
0.887987561776551
40
0.887987561776551
40
0.926734390915555
40
0.926734390915555
40
0.965481220054559
40
0.965481220054559
40
1
40
1
40
1
40
1
41
1
10
14.4400066452428
20
3.81006525150369
30
0
41
1
10
14.3102355169107
20
3.81261529969544
30
0
41
1
10
14.1804704900182
20
3.81120674428598
30
0
41
1
10
13.9091027734124
20
3.79890022823253
30
0
41
1
10
13.7674667388666
20
3.7871538602528
30
0
41
1
10
13.4834397381948
20
3.75166914489108
30
0
41
1
10
13.3404689457477
20
3.72779338058493
30
0
41
1
10
12.9138891768646
20
3.63740487832635
30
0
41
1
10
12.6341632260723
20
3.55246646215937
30
0
41
1
10
12.0778132140879
20
3.33638226121002
30
0
41
1
10
11.8008141411154
20
3.2051411776448
30
0
41
1
10
11.2429824518415
20
2.90553840714827
30
0
41
1
10
10.9687922498999
20
2.74109840446187
30
0
41
1
10
10.4209692709498
20
2.39650804512516
30
0
41
1
10
10.1473624102448
20
2.21633274050004
30
0
41
1
10
9.73182606485776
20
1.94275164098616
30
0
41
1
10
9.59295770698003
20
1.85131836144331
30
0
41
1
10
9.38463732123327
20
1.71551245990378
30
0
41
1
10
9.3151214305758
20
1.67041880556331
30
0
41
1
10
9.21083621781207
20
1.60326451904811
30
0
41
1
10
9.17606688591849
20
1.58095697247421
30
0
41
1
10
9.12389264437346
20
1.54762470150942
30
0
41
1
10
9.09780217746714
20
1.53099192072628
30
0
41
1
10
9.06735880058631
20
1.51165028409938
30
0
41
1
10
9.05431062147582
20
1.50337496279641
30
0
41
1
10
9.04887371739389
20
1.49992886593938
30
0
41
1
10
9.04725148201581
20
1.49953472470096
30
0
41
1
10
9.04654172914289
20
1.49723763864941
30
0
41
1
10
9.04755035158948
20
1.49620353682894
30
0
41
1
10
9.04978229476924
20
1.49352504332202
30
0
41
1
10
9.05158201817176
20
1.49197076985828
30
0
41
1
10
9.06788304120465
20
1.47836627564706
30
0
41
1
10
9.08445312353632
20
1.46852253638181
30
0
41
1
10
9.11692256900582
20
1.44831294203448
30
0
41
1
10
9.13336046368116
20
1.4384661025712
30
0
41
1
10
9.18287670532129
20
1.40924019192954
30
0
41
1
10
9.21618556863456
20
1.3901902617659
30
0
41
1
10
9.31642787222594
20
1.33353782574696
30
0
41
1
10
9.38371191482486
20
1.29647478941996
30
0
41
1
10
9.5860068287171
20
1.18619208081663
30
0
41
1
10
9.72151841595075
20
1.11394823563438
30
0
41
1
10
10.1287374313887
20
0.899195468580956
30
0
41
1
10
10.4010676724236
20
0.758597477477423
30
0
41
1
10
10.9454411065513
20
0.480809913419819
30
0
41
1
10
11.2178084523278
20
0.343779857173161
30
0
41
1
10
11.6240725218554
20
0.13878889751112
30
0
41
1
10
11.7593567885836
20
0.0707404588333702
30
0
41
1
10
11.9262298322521
20
-0.0149953282099204
30
0
41
1
10
11.959505777378
20
-0.0321697928385163
30
0
41
1
10
12.0086875670198
20
-0.0582639981485897
30
0
41
1
10
12.0250889309938
20
-0.0669738789425764
30
0
41
1
10
12.0445369318739
20
-0.0782607074407338
30
0
41
1
10
12.0483982488673
20
-0.0805260115138822
30
0
41
1
10
12.0527463330573
20
-0.0834794831352497
30
0
41
1
10
12.0535928825956
20
-0.0840760806126184
30
0
41
1
10
12.0550970249134
20
-0.0853177746788276
30
0
41
1
10
12.0561111574791
20
-0.0862428021299877
30
0
41
1
10
12.053174718942
20
-0.0867120830773729
30
0
41
1
10
12.0433869048669
20
-0.0882670931763982
30
0
41
1
10
11.9709679038392
20
-0.0994315025628794
30
0
41
1
10
11.9005985296986
20
-0.107883100302104
30
0
41
1
10
11.7131468180813
20
-0.124596842510584
30
0
41
1
10
11.5882727077982
20
-0.127946113196856
30
0
41
1
10
11.3400055538182
20
-0.118834995882423
30
0
41
1
10
11.2162920507703
20
-0.106420061405515
30
0
41
1
10
10.9678729340712
20
-0.0657708250823816
30
0
41
1
10
10.8431727849596
20
-0.0375334307538822
30
0
41
1
10
10.5905301713317
20
0.0350327415550851
30
0
41
1
10
10.4624872415409
20
0.0795069812315887
30
0
41
1
10
10.2203313083992
20
0.176463807831567
30
0
41
1
10
10.1056588017069
20
0.227700366414069
30
0
41
1
10
9.98963372699473
20
0.283927208591308
30
0
0
SPLINE
5
C8
100
AcDbEntity
8
1
62
256
6
ByLayer
370
18
48
1
60
0
100
AcDbSpline
70
4
71
3
72
18
73
14
40
0
40
0
40
0
40
0
40
0.249999999999995
40
0.249999999999995
40
0.374999999999995
40
0.374999999999995
40
0.499999999999995
40
0.499999999999995
40
0.749999999999995
40
0.749999999999995
40
0.874999999999997
40
0.874999999999997
40
1
40
1
40
1
40
1
41
1
10
62.3328867705256
20
2.25209021102651
30
0
41
1
10
62.2615290650083
20
2.44379947379056
30
0
41
1
10
62.1900933984809
20
2.63538558048899
30
0
41
1
10
62.0825803561627
20
2.92219676632749
30
0
41
1
10
62.046684994673
20
3.01770937592883
30
0
41
1
10
61.9747157739172
20
3.20845261977234
30
0
41
1
10
61.9386459420431
20
3.3036891071925
30
0
41
1
10
61.8304734087993
20
3.58931579982305
30
0
41
1
10
61.7583279338023
20
3.77958436508968
30
0
41
1
10
61.6496496783517
20
4.06273283737016
30
0
41
1
10
61.613320594855
20
4.15661093259345
30
0
41
1
10
61.5406456643063
20
4.34428497560035
30
0
41
1
10
61.5042739975378
20
4.43795439750468
30
0
41
1
10
61.4677723473213
20
4.53098685385524
30
0
0
SPLINE
5
C9
100
AcDbEntity
8
1
62
256
6
ByLayer
370
13
48
1
60
0
100
AcDbSpline
70
4
71
3
72
31
73
27
40
0
40
0
40
0
40
0
40
0.125
40
0.125
40
0.1875
40
0.1875
40
0.25
40
0.3125
40
0.3125
40
0.375
40
0.375
40
0.5
40
0.5
40
0.5625
40
0.5625
40
0.625
40
0.625
40
0.6875
40
0.6875
40
0.75
40
0.75
40
0.875
40
0.875
40
0.9375
40
0.9375
40
1
40
1
40
1
40
1
41
1
10
4.25034371624241
20
-3.08428711133993
30
0
41
1
10
4.2504187102511
20
-2.86722231912626
30
0
41
1
10
4.25048403032054
20
-2.63088487576252
30
0
41
1
10
4.25057305345339
20
-2.24767818361912
30
0
41
1
10
4.25060109882338
20
-2.11557491244111
30
0
41
1
10
4.25065410189626
20
-1.84677845200551
30
0
41
1
10
4.25070427855746
20
-1.57227951266501
30
0
41
1
10
4.2507506529908
20
-1.28650681265785
30
0
41
1
10
4.25079593215685
20
-0.994984253822111
30
0
41
1
10
4.25081812075487
20
-0.84564245129323
30
0
41
1
10
4.25088272869698
20
-0.398487558004575
30
0
41
1
10
4.250923685928
20
-0.099124920416358
30
0
41
1
10
4.2509851689295
20
0.351789485706547
30
0
41
1
10
4.25100572481679
20
0.50296220149761
30
0
41
1
10
4.2510467309894
20
0.803273385044832
30
0
41
1
10
4.25106709622548
20
0.951785641978887
30
0
41
1
10
4.25110764511672
20
1.24553452940282
30
0
41
1
10
4.25112784489653
20
1.39088226542563
30
0
41
1
10
4.25116763151956
20
1.67592852935272
30
0
41
1
10
4.25118710879832
20
1.81485356741791
30
0
41
1
10
4.25124363086212
20
2.21926730753629
30
0
41
1
10
4.2512789944563
20
2.47337780315809
30
0
41
1
10
4.25132521521075
20
2.83088687872146
30
0
41
1
10
4.25133945361125
20
2.94614110484105
30
0
41
1
10
4.25136427715114
20
3.16438717447806
30
0
41
1
10
4.25137493848345
20
3.26793917310204
30
0
41
1
10
4.25138340439634
20
3.36588317619996
30
0
0
SPLINE
5
CA
100
AcDbEntity
8
1
62
256
6
ByLayer
370
13
48
1
60
0
100
AcDbSpline
70
4
71
3
72
10
73
6
40
0
40
0
40
0
40
0
40
0.5
40
0.5
40
1
40
1
40
1
40
1
41
1
10
4.12640566346761
20
-3.07770624826478
30
0
41
1
10
4.14547042085911
20
-3.07469201309499
30
0
41
1
10
4.16591929735063
20
-3.07377956063038
30
0
41
1
10
4.2074891909823
20
-3.07603034171723
30
0
41
1
10
4.22870316599679
20
-3.07913494397266
30
0
41
1
10
4.25034371624247
20
-3.08428711133993
30
0
0
SPLINE
5
CB
100
AcDbEntity
8
1
62
256
6
ByLayer
370
18
48
1
60
0
100
AcDbSpline
70
4
71
3
72
14
73
10
40
0
40
0
40
0
40
0
40
0.25
40
0.25
40
0.5
40
0.5
40
0.75
40
0.75
40
1
40
1
40
1
40
1
41
1
10
61.0160745503934
20
1.07622731816912
30
0
41
1
10
61.0077632692433
20
1.10549181054384
30
0
41
1
10
61.0026966453217
20
1.13545020226522
30
0
41
1
10
61.0006879090773
20
1.19718270601061
30
0
41
1
10
61.0037133163685
20
1.22932118809351
30
0
41
1
10
61.023068406339
20
1.28989108437238
30
0
41
1
10
61.0412142865097
20
1.31771991698659
30
0
41
1
10
61.0902840900588
20
1.35852417011611
30
0
41
1
10
61.1203247680633
20
1.37153058012561
30
0
41
1
10
61.1514843892251
20
1.37866763767838
30
0
0
SPLINE
5
CC
100
AcDbEntity
8
1
62
256
6
ByLayer
370
18
48
1
60
0
100
AcDbSpline
70
4
71
3
72
32
73
28
40
0
40
0
40
0
40
0
40
0.250000000000008
40
0.250000000000008
40
0.375000000000009
40
0.375000000000009
40
0.50000000000001
40
0.50000000000001
40
0.62500000000001
40
0.62500000000001
40
0.687500000000011
40
0.687500000000011
40
0.718750000000011
40
0.718750000000011
40
0.750000000000012
40
0.750000000000012
40
0.812500000000012
40
0.812500000000012
40
0.84375000000001
40
0.84375000000001
40
0.875000000000008
40
0.875000000000008
40
0.906250000000006
40
0.906250000000006
40
0.937500000000004
40
0.937500000000004
40
1
40
1
40
1
40
1
41
1
10
57.6509681252315
20
1.56520234616596
30
0
41
1
10
57.9756638914927
20
1.31831648002876
30
0
41
1
10
58.3051003628934
20
1.09620347135947
30
0
41
1
10
58.8088329448487
20
0.813083755089679
30
0
41
1
10
58.97870005202
20
0.726878995353616
30
0
41
1
10
59.3206297167922
20
0.574703620221584
30
0
41
1
10
59.4908664385711
20
0.509547843822077
30
0
41
1
10
59.8297013434657
20
0.403837442180844
30
0
41
1
10
59.9989250130137
20
0.363285056443914
30
0
41
1
10
60.2463376819608
20
0.324779923053512
30
0
41
1
10
60.3279058306172
20
0.315585866644426
30
0
41
1
10
60.4488123808718
20
0.307625554292258
30
0
41
1
10
60.4888743566135
20
0.305940936567254
30
0
41
1
10
60.5685019412571
20
0.304573677042185
30
0
41
1
10
60.6081131816088
20
0.304706991796081
30
0
41
1
10
60.7243262438864
20
0.315676731137103
30
0
41
1
10
60.7986464647599
20
0.334354850518281
30
0
41
1
10
60.894748253291
20
0.385456617340083
30
0
41
1
10
60.9244014022698
20
0.406314741542246
30
0
41
1
10
60.9771168631606
20
0.45861772462726
30
0
41
1
10
60.9991792490788
20
0.489652894174497
30
0
41
1
10
61.0336936296787
20
0.560520362437074
30
0
41
1
10
61.0465117040836
20
0.600811114054039
30
0
41
1
10
61.0624169398587
20
0.686284486503354
30
0
41
1
10
61.0657233919253
20
0.731853726094442
30
0
41
1
10
61.0630239056311
20
0.875190071985088
30
0
41
1
10
61.044945555549
20
0.974570871350863
30
0
41
1
10
61.0160745503934
20
1.07622731816912
30
0
0
SPLINE
5
CD
100
AcDbEntity
8
1
62
256
6
ByLayer
370
18
48
1
60
0
100
AcDbSpline
70
4
71
3
72
58
73
54
40
0
40
0
40
0
40
0
40
0.0387777306346694
40
0.0387777306346694
40
0.0775554612693388
40
0.0775554612693388
40
0.116333191904008
40
0.116333191904008
40
0.155110922538678
40
0.155110922538678
40
0.193888653173347
40
0.193888653173347
40
0.232666383808016
40
0.232666383808016
40
0.271444114442686
40
0.271444114442686
40
0.310221845077355
40
0.310221845077355
40
0.348999575712025
40
0.348999575712025
40
0.387777306346694
40
0.387777306346694
40
0.426555036981363
40
0.426555036981363
40
0.465332767616033
40
0.465332767616033
40
0.504110498250702
40
0.504110498250702
40
0.542888228885372
40
0.542888228885372
40
0.581665959520041
40
0.581665959520041
40
0.62044369015471
40
0.62044369015471
40
0.65922142078938
40
0.65922142078938
40
0.697999151424049
40
0.697999151424049
40
0.736776882058719
40
0.736776882058719
40
0.77555461269339
40
0.77555461269339
40
0.81433234332806
40
0.81433234332806
40
0.85311007396273
40
0.85311007396273
40
0.8918878045974
40
0.8918878045974
40
0.93066553523207
40
0.93066553523207
40
0.969443265866741
40
0.969443265866741
40
1
40
1
40
1
40
1
41
1
10
9.02846323095989
20
0.822974508008315
30
0
41
1
10
9.28241961468268
20
0.684552288067891
30
0
41
1
10
9.53612269738252
20
0.545562087859906
30
0
41
1
10
10.042952292197
20
0.26630442997029
30
0
41
1
10
10.2960760697385
20
0.126034096760492
30
0
41
1
10
10.8022133225463
20
-0.15491136273414
30
0
41
1
10
11.0551313322973
20
-0.295759680509292
30
0
41
1
10
11.5622983591701
20
-0.575266589450479
30
0
41
1
10
11.8166530553571
20
-0.714454151623585
30
0
41
1
10
12.3241269065646
20
-0.990241657856785
30
0
41
1
10
12.577251612093
20
-1.12727429120503
30
0
41
1
10
13.0833259531255
20
-1.3970092133294
30
0
41
1
10
13.3365709413412
20
-1.52918429514497
30
0
41
1
10
13.8433099738406
20
-1.78892029871372
30
0
41
1
10
14.0967992230724
20
-1.91654574653623
30
0
41
1
10
14.6041203422419
20
-2.16709974178423
30
0
41
1
10
14.8578224210743
20
-2.28910677424079
30
0
41
1
10
15.3647219539181
20
-2.52413105127073
30
0
41
1
10
15.6180066759622
20
-2.6377051518347
30
0
41
1
10
16.1242460544294
20
-2.85787487110969
30
0
41
1
10
16.3770227943418
20
-2.96450453392646
30
0
41
1
10
16.8836232299347
20
-3.16680157478757
30
0
41
1
10
17.1377706400333
20
-3.26297622305617
30
0
41
1
10
17.645512878791
20
-3.44594716794705
30
0
41
1
10
17.8989148263997
20
-3.53316599778353
30
0
41
1
10
18.4049056433286
20
-3.69522238991291
30
0
41
1
10
18.6578683951238
20
-3.76987399629843
30
0
41
1
10
19.1644340727823
20
-3.90813570760949
30
0
41
1
10
19.4178779595137
20
-3.97192916712345
30
0
41
1
10
19.9251044191507
20
-4.08827843252632
30
0
41
1
10
20.1788000747175
20
-4.13983978437042
30
0
41
1
10
20.6855747262379
20
-4.22933277424593
30
0
41
1
10
20.9388841316852
20
-4.26755681281884
30
0
41
1
10
21.4452155399927
20
-4.33247063750466
30
0
41
1
10
21.6981816994392
20
-4.35874053128282
30
0
41
1
10
22.2043605500483
20
-4.39617091009194
30
0
41
1
10
22.458120175267
20
-4.40800879578481
30
0
41
1
10
22.9660106175701
20
-4.4193236991035
30
0
41
1
10
23.2195470050274
20
-4.41939870025908
30
0
41
1
10
23.7257636455531
20
-4.40379304758963
30
0
41
1
10
23.9784371263889
20
-4.38828041945391
30
0
41
1
10
24.4847294144103
20
-4.3453064481499
30
0
41
1
10
24.7381066210772
20
-4.31791306692318
30
0
41
1
10
25.2452094888413
20
-4.25080895722186
30
0
41
1
10
25.4991436497877
20
-4.20946738700749
30
0
41
1
10
26.005692716955
20
-4.11380116416532
30
0
41
1
10
26.2589691354731
20
-4.06000854088472
30
0
41
1
10
26.765350100466
20
-3.94181723179793
30
0
41
1
10
27.0184113723005
20
-3.87705394942552
30
0
41
1
10
27.5246085849366
20
-3.7333011923821
30
0
41
1
10
27.7778028856268
20
-3.65516890214309
30
0
41
1
10
28.2318578311857
20
-3.50728270185306
30
0
41
1
10
28.4317740405041
20
-3.43936307869976
30
0
41
1
10
28.6314360566963
20
-3.3678691336969
30
0
0
SPLINE
5
CE
100
AcDbEntity
8
1
62
256
6
ByLayer
370
18
48
1
60
0
100
AcDbSpline
70
4
71
3
72
30
73
26
40
0
40
0
40
0
40
0
40
0.0244726808282156
40
0.0244726808282156
40
0.105766624092531
40
0.105766624092531
40
0.187060567356846
40
0.187060567356846
40
0.349648453885477
40
0.349648453885477
40
0.430942397149792
40
0.430942397149792
40
0.512236340414107
40
0.512236340414107
40
0.593530283678423
40
0.593530283678423
40
0.674824226942738
40
0.674824226942738
40
0.756118170207053
40
0.756118170207053
40
0.837412113471369
40
0.837412113471369
40
0.918706056735684
40
0.918706056735684
40
1
40
1
40
1
40
1
41
1
10
48.3135842406195
20
4.42761939256857
30
0
41
1
10
48.3897124388068
20
4.42598951949782
30
0
41
1
10
48.4658606085495
20
4.42375319674846
30
0
41
1
10
48.7950981325257
20
4.41159467736011
30
0
41
1
10
49.0483286465968
20
4.39618850526765
30
0
41
1
10
49.5550632581627
20
4.35314637780195
30
0
41
1
10
49.808459317768
20
4.32418828291378
30
0
41
1
10
50.5675888973823
20
4.21648662911946
30
0
41
1
10
51.0731964721185
20
4.1180360839839
30
0
41
1
10
51.8316485562154
20
3.9344246296088
30
0
41
1
10
52.0851163525215
20
3.86744342032011
30
0
41
1
10
52.5922212120545
20
3.72304428834764
30
0
41
1
10
52.8453515172656
20
3.64554040554867
30
0
41
1
10
53.3508230781903
20
3.47854948760704
30
0
41
1
10
53.6030883273412
20
3.38889805958695
30
0
41
1
10
54.1085882506677
20
3.20032792185219
30
0
41
1
10
54.3616141977674
20
3.10128483286431
30
0
41
1
10
54.8682054332396
20
2.89353054414065
30
0
41
1
10
55.121787476665
20
2.78460560925126
30
0
41
1
10
55.6275350970197
20
2.55893206350044
30
0
41
1
10
55.880401039896
20
2.44268056310511
30
0
41
1
10
56.3860818992922
20
2.20347181997508
30
0
41
1
10
56.638865573258
20
2.08040199545761
30
0
41
1
10
57.1444843165262
20
1.82722707249067
30
0
41
1
10
57.3974641372956
20
1.69709973990308
30
0
41
1
10
57.6509681252315
20
1.56520234616593
30
0
0
SPLINE
5
CF
100
AcDbEntity
8
1
62
256
6
ByLayer
370
18
48
1
60
0
100
AcDbSpline
70
4
71
3
72
8
73
4
40
0
40
0
40
0
40
0
40
1
40
1
40
1
40
1
41
1
10
61.3872264474899
20
-4.61236902907513
30
0
41
1
10
61.4014468777277
20
-4.57438505861683
30
0
41
1
10
61.4156529497852
20
-4.53637537574463
30
0
41
1
10
61.4298434897237
20
-4.49834313866231
30
0
0
SPLINE
5
D0
100
AcDbEntity
8
1
62
256
6
ByLayer
370
18
48
1
60
0
100
AcDbSpline
70
4
71
3
72
92
73
88
40
0
40
0
40
0
40
0
40
0.0165715760100917
40
0.0165715760100917
40
0.0402446809262945
40
0.0402446809262945
40
0.0639177858424974
40
0.0639177858424974
40
0.0875908907587003
40
0.0875908907587003
40
0.111263995674903
40
0.111263995674903
40
0.134937100591106
40
0.134937100591106
40
0.158610205507309
40
0.158610205507309
40
0.182283310423512
40
0.182283310423512
40
0.205956415339715
40
0.205956415339715
40
0.229629520255918
40
0.229629520255918
40
0.25330262517212
40
0.25330262517212
40
0.276975730088323
40
0.276975730088323
40
0.300648835004526
40
0.300648835004526
40
0.324321939920729
40
0.324321939920729
40
0.347995044836932
40
0.347995044836932
40
0.371668149753135
40
0.371668149753135
40
0.395341254669338
40
0.395341254669338
40
0.419014359585541
40
0.419014359585541
40
0.442687464501743
40
0.442687464501743
40
0.466360569417946
40
0.466360569417946
40
0.490033674334149
40
0.490033674334149
40
0.513706779250352
40
0.513706779250352
40
0.537379884166555
40
0.537379884166555
40
0.561052989082758
40
0.561052989082758
40
0.584726093998961
40
0.584726093998961
40
0.608399198915164
40
0.608399198915164
40
0.632072303831366
40
0.632072303831366
40
0.655745408747569
40
0.655745408747569
40
0.679418513663772
40
0.679418513663772
40
0.703091618579975
40
0.703091618579975
40
0.726764723496178
40
0.726764723496178
40
0.750437828412381
40
0.750437828412381
40
0.774110933328584
40
0.774110933328584
40
0.797784038244787
40
0.797784038244787
40
0.82145714316099
40
0.82145714316099
40
0.845130248077192
40
0.845130248077192
40
0.868803352993395
40
0.868803352993395
40
0.892476457909598
40
0.892476457909598
40
0.916149562825801
40
0.916149562825801
40
0.939822667742004
40
0.939822667742004
40
0.963495772658207
40
0.963495772658207
40
0.98716887757441
40
0.98716887757441
40
1
40
1
40
1
40
1
41
1
10
28.6318092722246
20
3.36546689859625
30
0
41
1
10
28.8033211508688
20
3.43382598240771
30
0
41
1
10
28.9746860443541
20
3.49993197905681
30
0
41
1
10
29.3902861763272
20
3.65526579877755
30
0
41
1
10
29.6347279090583
20
3.74165764067146
30
0
41
1
10
30.125417201199
20
3.90266317276337
30
0
41
1
10
30.3715551129517
20
3.97773962022538
30
0
41
1
10
30.8621767398809
20
4.11654183990436
30
0
41
1
10
31.106528733222
20
4.18058156034067
30
0
41
1
10
31.5955433652672
20
4.29611724474324
30
0
41
1
10
31.8405383465503
20
4.34745478185025
30
0
41
1
10
32.3307762585618
20
4.43793304580532
30
0
41
1
10
32.5760637317373
20
4.47704315018891
30
0
41
1
10
33.0665321311756
20
4.54289248222665
30
0
41
1
10
33.3113459738806
20
4.5693756571238
30
0
41
1
10
33.8014830965053
20
4.60886247408206
30
0
41
1
10
34.0465557864854
20
4.62206119947103
30
0
41
1
10
34.5362807222349
20
4.63546952597716
30
0
41
1
10
34.7806419611936
20
4.63564629200184
30
0
41
1
10
35.2700564601209
20
4.62266618750596
30
0
41
1
10
35.5159761960315
20
4.60958880572701
30
0
41
1
10
36.0070488293774
20
4.57050805398262
30
0
41
1
10
36.2522133776417
20
4.5445297234499
30
0
41
1
10
36.7413552091584
20
4.47942465657314
30
0
41
1
10
36.9853816916439
20
4.44023480891084
30
0
41
1
10
37.4751323200849
20
4.35003058497435
30
0
41
1
10
37.7204130356652
20
4.29885468714403
30
0
41
1
10
38.2113539982645
20
4.1840277018398
30
0
41
1
10
38.456643348665
20
4.12018970110108
30
0
41
1
10
38.9458362777563
20
3.9809699037109
30
0
41
1
10
39.1907552275108
20
3.90616249379693
30
0
41
1
10
39.6806170880986
20
3.74587395210361
30
0
41
1
10
39.9255735855412
20
3.66040160140088
30
0
41
1
10
40.4151116872811
20
3.47817223710058
30
0
41
1
10
40.6598139374381
20
3.38113030634455
30
0
41
1
10
41.1506970557686
20
3.17940079531522
30
0
41
1
10
41.3960064334844
20
3.07442609729094
30
0
41
1
10
41.8859238790616
20
2.85578663454731
30
0
41
1
10
42.1303652231931
20
2.74188200980271
30
0
41
1
10
42.618924260747
20
2.50571664011807
30
0
41
1
10
42.863853677454
20
2.38462909955624
30
0
41
1
10
43.3546233881773
20
2.13601424815835
30
0
41
1
10
43.6005869414403
20
2.00834761160567
30
0
41
1
10
44.0904855863396
20
1.74701740162672
30
0
41
1
10
44.3344808530733
20
1.61281951856284
30
0
41
1
10
44.8238333018267
20
1.34265497018879
30
0
41
1
10
45.0687888193104
20
1.20606193031799
30
0
41
1
10
45.5587919822762
20
0.92909941926095
30
0
41
1
10
45.8037343872205
20
0.788547095707202
30
0
41
1
10
46.2938180565537
20
0.50371499922764
30
0
41
1
10
46.5388772026155
20
0.361436525543127
30
0
41
1
10
47.0289230117131
20
0.0771459106153713
30
0
41
1
10
47.2738322828741
20
-0.0650309877671305
30
0
41
1
10
47.7630098971268
20
-0.350158054823822
30
0
41
1
10
48.0069599573388
20
-0.493653543865605
30
0
41
1
10
48.4968939311034
20
-0.776814419512448
30
0
41
1
10
48.7428516709371
20
-0.917201838267204
30
0
41
1
10
49.2335065785578
20
-1.19490065818675
30
0
41
1
10
49.478288106562
20
-1.33237562209325
30
0
41
1
10
49.9667203086231
20
-1.60455900797669
30
0
41
1
10
50.2111892613176
20
-1.73792511758828
30
0
41
1
10
50.7010219537011
20
-1.9986822719423
30
0
41
1
10
50.9462254626736
20
-2.12633394292254
30
0
41
1
10
51.4368034094714
20
-2.3767399296843
30
0
41
1
10
51.6814062834869
20
-2.49980266957772
30
0
41
1
10
52.1708829286426
20
-2.73614249144239
30
0
41
1
10
52.4157947812852
20
-2.84988702607444
30
0
41
1
10
52.9054167622722
20
-3.06939820954773
30
0
41
1
10
53.1501235648341
20
-3.17516510547549
30
0
41
1
10
53.6390414928734
20
-3.3788651146368
30
0
41
1
10
53.8842798115034
20
-3.47599330359157
30
0
41
1
10
54.3750504397894
20
-3.65906637412982
30
0
41
1
10
54.6201868765136
20
-3.74525462253615
30
0
41
1
10
55.1095498996107
20
-3.90737447817247
30
0
41
1
10
55.3533813626423
20
-3.98361628567113
30
0
41
1
10
55.8423122616719
20
-4.12368448906176
30
0
41
1
10
56.0873777112458
20
-4.18762014657841
30
0
41
1
10
56.5780960712743
20
-4.30385643282847
30
0
41
1
10
56.8237608130842
20
-4.35610996619658
30
0
41
1
10
57.3127835025663
20
-4.44840086282761
30
0
41
1
10
57.5570345871356
20
-4.4881485674203
30
0
41
1
10
58.0464670071578
20
-4.55445604173241
30
0
41
1
10
58.2913393930682
20
-4.58118637649966
30
0
41
1
10
58.7809791639008
20
-4.62185548787193
30
0
41
1
10
59.0255645565834
20
-4.6358139562995
30
0
41
1
10
59.4033875580473
20
-4.64694944883794
30
0
41
1
10
59.5361610991452
20
-4.64890261033597
30
0
41
1
10
59.6688529458008
20
-4.64892542936801
30
0
0
SPLINE
5
D1
100
AcDbEntity
8
1
62
256
6
ByLayer
370
18
48
1
60
0
100
AcDbSpline
70
4
71
3
72
10
73
6
40
0
40
0
40
0
40
0
40
0.5
40
0.5
40
1
40
1
40
1
40
1
41
1
10
4.12449290040411
20
-3.26372305540815
30
0
41
1
10
4.09591152696925
20
-3.25197946706268
30
0
41
1
10
4.07113209313729
20
-3.23641402918688
30
0
41
1
10
4.03135854419375
20
-3.19902081208846
30
0
41
1
10
4.01669591046755
20
-3.17731358818858
30
0
41
1
10
4.00835169061506
20
-3.15432629757748
30
0
0
SPLINE
5
D2
100
AcDbEntity
8
1
62
256
6
ByLayer
370
13
48
1
60
0
100
AcDbSpline
70
4
71
3
72
8
73
4
40
0
40
0
40
0
40
0
40
1
40
1
40
1
40
1
41
1
10
4.00312015118294
20
-3.1251315219854
30
0
41
1
10
4.01446182056895
20
-3.10698083185227
30
0
41
1
10
4.05694407875228
20
-3.08868847831724
30
0
41
1
10
4.12640566346761
20
-3.07770624826478
30
0
0
SPLINE
5
D3
100
AcDbEntity
8
1
62
256
6
ByLayer
370
18
48
1
60
0
100
AcDbSpline
70
4
71
3
72
20
73
16
40
0
40
0
40
0
40
0
40
0.125000000000001
40
0.125000000000001
40
0.250000000000002
40
0.250000000000002
40
0.375000000000004
40
0.375000000000004
40
0.500000000000005
40
0.500000000000005
40
0.750000000000002
40
0.750000000000002
40
0.875000000000001
40
0.875000000000001
40
1
40
1
40
1
40
1
41
1
10
57.650968125231
20
1.56520234616556
30
0
41
1
10
57.7018325949769
20
1.3676342968715
30
0
41
1
10
57.7689961702039
20
1.17082474446193
30
0
41
1
10
57.9315324494635
20
0.778518382622082
30
0
41
1
10
58.0278308668485
20
0.581741810258023
30
0
41
1
10
58.2389505450506
20
0.202363790333806
30
0
41
1
10
58.3542493862145
20
0.018228411314027
30
0
41
1
10
58.6010785828913
20
-0.340786383974347
30
0
41
1
10
58.7329784926172
20
-0.515965558714981
30
0
41
1
10
59.1403812995104
20
-1.01795572882659
30
0
41
1
10
59.4303200135006
20
-1.32613442623227
30
0
41
1
10
59.885968346204
20
-1.75845012412626
30
0
41
1
10
60.0417846213487
20
-1.89780368285568
30
0
41
1
10
60.3576899860908
20
-2.16527971202291
30
0
41
1
10
60.5176263217408
20
-2.29334061709898
30
0
41
1
10
60.6793884296202
20
-2.41617625977992
30
0
0
SPLINE
5
D4
100
AcDbEntity
8
1
62
256
6
ByLayer
370
18
48
1
60
0
100
AcDbSpline
70
4
71
3
72
8
73
4
40
0
40
0
40
0
40
0
40
1
40
1
40
1
40
1
41
1
10
4.00835169062134
20
-3.15432629758999
30
0
41
1
10
4.00489278092834
20
-3.14479743045985
30
0
41
1
10
4.00311959278216
20
-3.1350699851927
30
0
41
1
10
4.00312015118306
20
-3.12513152198443
30
0
0
SPLINE
5
D5
100
AcDbEntity
8
1
62
256
6
ByLayer
370
13
48
1
60
0
100
AcDbSpline
70
4
71
3
72
8
73
4
40
0
40
0
40
0
40
0
40
1
40
1
40
1
40
1
41
1
10
4.12640566346761
20
-3.19944645447959
30
0
41
1
10
4.14972819877815
20
-3.19947738920931
30
0
41
1
10
4.17493621325309
20
-3.20491457375223
30
0
41
1
10
4.20094046746874
20
-3.21524367191083
30
0
0
SPLINE
5
D6
100
AcDbEntity
8
1
62
256
6
ByLayer
370
13
48
1
60
0
100
AcDbSpline
70
4
71
3
72
8
73
4
40
0
40
0
40
0
40
0
40
1
40
1
40
1
40
1
41
1
10
4.12449290040416
20
-3.26372305540716
30
0
41
1
10
4.12512566504097
20
-3.24230079792395
30
0
41
1
10
4.1257632452361
20
-3.22087530044041
30
0
41
1
10
4.12640566346758
20
-3.19944645447956
30
0
0
SPLINE
5
D7
100
AcDbEntity
8
1
62
256
6
ByLayer
370
18
48
1
60
0
100
AcDbSpline
70
4
71
3
72
56
73
52
40
0
40
0
40
0
40
0
40
0.072721669165268
40
0.072721669165268
40
0.109082503747902
40
0.109082503747902
40
0.145443338330537
40
0.145443338330537
40
0.181804172913171
40
0.181804172913171
40
0.218165007495805
40
0.218165007495805
40
0.25452584207844
40
0.25452584207844
40
0.290886676661074
40
0.290886676661074
40
0.363608345826344
40
0.363608345826344
40
0.399969180408978
40
0.399969180408978
40
0.436330014991613
40
0.436330014991613
40
0.472690849574248
40
0.472690849574248
40
0.509051684156883
40
0.509051684156883
40
0.545412518739517
40
0.545412518739517
40
0.581773353322152
40
0.581773353322152
40
0.618134187904787
40
0.618134187904787
40
0.654495022487422
40
0.654495022487422
40
0.727216691652691
40
0.727216691652691
40
0.763577526235326
40
0.763577526235326
40
0.79993836081796
40
0.79993836081796
40
0.836299195400595
40
0.836299195400595
40
0.87266002998323
40
0.87266002998323
40
0.909020864565865
40
0.909020864565865
40
0.9453816991485
40
0.9453816991485
40
0.981742533731134
40
0.981742533731134
40
1
40
1
40
1
40
1
41
1
10
14.4399875194708
20
3.81006562730315
30
0
41
1
10
14.9303388881834
20
3.64770735059378
30
0
41
1
10
15.4213771004938
20
3.46680354812665
30
0
41
1
10
16.1559020863962
20
3.16505059181105
30
0
41
1
10
16.4001168532646
20
3.05891417881534
30
0
41
1
10
16.8905688289812
20
2.8397004860831
30
0
41
1
10
17.1367822513608
20
2.72611901620661
30
0
41
1
10
17.6279463850799
20
2.49162286415844
30
0
41
1
10
17.8729745383507
20
2.37057555757704
30
0
41
1
10
18.361901500386
20
2.12074100979422
30
0
41
1
10
18.6066249134063
20
1.99319758662628
30
0
41
1
10
19.0969534825971
20
1.73355465367911
30
0
41
1
10
19.3424022388224
20
1.60121642199144
30
0
41
1
10
19.8334630781419
20
1.33075678776004
30
0
41
1
10
20.0783444435707
20
1.19219338929099
30
0
41
1
10
20.8133677351682
20
0.775978653222126
30
0
41
1
10
21.3038993103772
20
0.495704250531077
30
0
41
1
10
22.037978729081
20
0.0667607745000396
30
0
41
1
10
22.2834596035385
20
-0.0764611278728466
30
0
41
1
10
22.7747720861177
20
-0.360758531709138
30
0
41
1
10
23.020171559384
20
-0.50210796990936
30
0
41
1
10
23.5100433203066
20
-0.783925724934591
30
0
41
1
10
23.7541232329505
20
-0.925049811073194
30
0
41
1
10
24.2435805641731
20
-1.20259705409305
30
0
41
1
10
24.4888897728708
20
-1.33915329140967
30
0
41
1
10
24.9800683338476
20
-1.60885276659317
30
0
41
1
10
25.2259944966497
20
-1.74197122674676
30
0
41
1
10
25.7155253340295
20
-2.00392495113294
30
0
41
1
10
25.960064676759
20
-2.13192562261233
30
0
41
1
10
26.4500128352574
20
-2.38008864167315
30
0
41
1
10
26.695129499305
20
-2.50071398261255
30
0
41
1
10
27.1852291302114
20
-2.73562544975863
30
0
41
1
10
27.4299416235002
20
-2.85046971409386
30
0
41
1
10
28.1660432733178
20
-3.18090420227841
30
0
41
1
10
28.6568815150702
20
-3.38115003540364
30
0
41
1
10
29.3902861763274
20
-3.65526579877769
30
0
41
1
10
29.6347279090585
20
-3.74165764067155
30
0
41
1
10
30.1254172011992
20
-3.90266317276345
30
0
41
1
10
30.3715551129519
20
-3.97773962022546
30
0
41
1
10
30.8621767398811
20
-4.11654183990441
30
0
41
1
10
31.1065287332222
20
-4.18058156034076
30
0
41
1
10
31.5955433652674
20
-4.2961172447433
30
0
41
1
10
31.8405383465504
20
-4.34745478185027
30
0
41
1
10
32.330776258562
20
-4.43793304580538
30
0
41
1
10
32.5760637317375
20
-4.47704315018893
30
0
41
1
10
33.0665321311758
20
-4.54289248222668
30
0
41
1
10
33.3113459738808
20
-4.56937565712383
30
0
41
1
10
33.8014830965055
20
-4.60886247408206
30
0
41
1
10
34.0465557864856
20
-4.62206119947106
30
0
41
1
10
34.4143683543525
20
-4.6321316505406
30
0
41
1
10
34.5371920827559
20
-4.63385222811971
30
0
41
1
10
34.6599966966944
20
-4.63390944531452
30
0
0
SPLINE
5
D8
100
AcDbEntity
8
1
62
256
6
ByLayer
370
18
48
1
60
0
100
AcDbSpline
70
4
71
3
72
28
73
24
40
0
40
0
40
0
40
0
40
0.0616610550032061
40
0.0616610550032061
40
0.155494949502885
40
0.155494949502885
40
0.249328844002565
40
0.249328844002565
40
0.343162738502244
40
0.343162738502244
40
0.436996633001923
40
0.436996633001923
40
0.530830527501603
40
0.530830527501603
40
0.624664422001283
40
0.624664422001283
40
0.718498316500962
40
0.718498316500962
40
0.812332211000641
40
0.812332211000641
40
0.906166105500321
40
0.906166105500321
40
1
40
1
40
1
40
1
41
1
10
53.6462849319348
20
3.38007873251149
30
0
41
1
10
53.8072285614647
20
3.44481246956917
30
0
41
1
10
53.9684151057791
20
3.50737844723289
30
0
41
1
10
54.37505043979
20
3.65906637412999
30
0
41
1
10
54.6201868765141
20
3.74525462253632
30
0
41
1
10
55.1095498996112
20
3.90737447817264
30
0
41
1
10
55.3533813626429
20
3.9836162856713
30
0
41
1
10
55.8423122616724
20
4.12368448906193
30
0
41
1
10
56.0873777112463
20
4.18762014657858
30
0
41
1
10
56.5780960712748
20
4.30385643282861
30
0
41
1
10
56.8237608130847
20
4.3561099661967
30
0
41
1
10
57.3127835025668
20
4.4484008628277
30
0
41
1
10
57.5570345871362
20
4.48814856742038
30
0
41
1
10
58.0464670071584
20
4.55445604173246
30
0
41
1
10
58.2913393930687
20
4.58118637649972
30
0
41
1
10
58.7809791639014
20
4.62185548787198
30
0
41
1
10
59.025564556584
20
4.63581395629953
30
0
41
1
10
59.5156033386496
20
4.65025675935834
30
0
41
1
10
59.7605203756529
20
4.65080328598606
30
0
41
1
10
60.2495013121943
20
4.63893077340813
30
0
41
1
10
60.4936059098875
20
4.62650823644816
30
0
41
1
10
60.9805816519578
20
4.58843716658936
30
0
41
1
10
61.2237970752278
20
4.56280288010598
30
0
41
1
10
61.46777234731
20
4.53098685385663
30
0
0
SPLINE
5
D9
100
AcDbEntity
8
1
62
256
6
ByLayer
370
18
48
1
60
0
100
AcDbSpline
70
4
71
3
72
54
73
50
40
0
40
0
40
0
40
0
40
0.0343784381372933
40
0.0343784381372933
40
0.0687568762745865
40
0.0687568762745865
40
0.137513752549173
40
0.137513752549173
40
0.171892190686466
40
0.171892190686466
40
0.20627062882376
40
0.20627062882376
40
0.275027505098345
40
0.275027505098345
40
0.34378438137293
40
0.34378438137293
40
0.360973600441576
40
0.360973600441576
40
0.378162819510221
40
0.378162819510221
40
0.412541257647513
40
0.412541257647513
40
0.481298133922096
40
0.481298133922096
40
0.550055010196679
40
0.550055010196679
40
0.567244229265325
40
0.567244229265325
40
0.584433448333971
40
0.584433448333971
40
0.618811886471265
40
0.618811886471265
40
0.68756876274585
40
0.68756876274585
40
0.756325639020435
40
0.756325639020435
40
0.773514858089081
40
0.773514858089081
40
0.790704077157728
40
0.790704077157728
40
0.82508251529502
40
0.82508251529502
40
0.962596267844189
40
0.962596267844189
40
0.979785486912835
40
0.979785486912835
40
0.996974705981482
40
0.996974705981482
40
1
40
1
40
1
40
1
41
1
10
61.38722644749
20
-4.61236902907513
30
0
41
1
10
61.087438608024
20
-4.63446561663679
30
0
41
1
10
60.7878547337122
20
-4.64665247939629
30
0
41
1
10
60.1882690601037
20
-4.65124323594421
30
0
41
1
10
59.8879649146343
20
-4.64362657650852
30
0
41
1
10
58.9872478741339
20
-4.59112160908046
30
0
41
1
10
58.3892751460962
20
-4.51682790168755
30
0
41
1
10
57.4905258759931
20
-4.34872676074721
30
0
41
1
10
57.1899822520465
20
-4.28309901715414
30
0
41
1
10
56.5903321870686
20
-4.13422953646489
30
0
41
1
10
56.2917915532072
20
-4.05118434551008
30
0
41
1
10
55.3986335914752
20
-3.77790607055596
30
0
41
1
10
54.8064971577771
20
-3.56350640254737
30
0
41
1
10
53.6212638932337
20
-3.07928348776474
30
0
41
1
10
53.0281181644818
20
-2.80955756016664
30
0
41
1
10
52.2817392650106
20
-2.44283488067253
30
0
41
1
10
52.1321986735342
20
-2.36803582767902
30
0
41
1
10
51.8324418511104
20
-2.21571491258442
30
0
41
1
10
51.6820427283376
20
-2.13808718368776
30
0
41
1
10
51.2323113332301
20
-1.90272871807775
30
0
41
1
10
50.9337642422838
20
-1.74219158750139
30
0
41
1
10
50.0405080270548
20
-1.25217594311957
30
0
41
1
10
49.4482509178749
20
-0.914185970946221
30
0
41
1
10
48.2633116807753
20
-0.227512823978429
30
0
41
1
10
47.6700932306678
20
0.120233901675135
30
0
41
1
10
46.9236599099436
20
0.553581297976052
30
0
41
1
10
46.7741028366738
20
0.640140128269792
30
0
41
1
10
46.4743127711049
20
0.812800947544304
30
0
41
1
10
46.3238734998291
20
0.899025723476029
30
0
41
1
10
45.873935669451
20
1.15526796770169
30
0
41
1
10
45.5752891665828
20
1.32322979868738
30
0
41
1
10
44.6821023013019
20
1.81674672427738
30
0
41
1
10
44.0896480850605
20
2.13083611356168
30
0
41
1
10
42.9044951584864
20
2.71983494999483
30
0
41
1
10
42.3111948012398
20
2.99385088022868
30
0
41
1
10
41.5647857802393
20
3.30481579574388
30
0
41
1
10
41.4152397421968
20
3.36539565046564
30
0
41
1
10
41.1154833072363
20
3.48313000319303
30
0
41
1
10
40.9650467471407
20
3.5403678227739
30
0
41
1
10
40.5149730760132
20
3.70579697859543
30
0
41
1
10
40.2162081568785
20
3.80787454649683
30
0
41
1
10
38.7268241098377
20
4.27614633157171
30
0
41
1
10
37.5487351371825
20
4.51513763636942
30
0
41
1
10
36.2049788779797
20
4.61044645452688
30
0
41
1
10
36.0554198951439
20
4.61862573552261
30
0
41
1
10
35.7556585325266
20
4.63008452065549
30
0
41
1
10
35.6052173564328
20
4.63336252003626
30
0
41
1
10
35.4287208233953
20
4.63429533018967
30
0
41
1
10
35.4023167379828
20
4.63435831968008
30
0
41
1
10
35.3759226371758
20
4.63434486580388
30
0
0
SPLINE
5
DA
100
AcDbEntity
8
1
62
256
6
ByLayer
370
18
48
1
60
0
100
AcDbSpline
70
4
71
3
72
20
73
16
40
0
40
0
40
0
40
0
40
0.0682260300389077
40
0.0682260300389077
40
0.171756471145696
40
0.171756471145696
40
0.378817353359273
40
0.378817353359273
40
0.482347794466061
40
0.482347794466061
40
0.585878235572849
40
0.585878235572849
40
0.792939117786425
40
0.792939117786425
40
1
40
1
40
1
40
1
41
1
10
12.7992631197253
20
-4.40792587772316
30
0
41
1
10
12.6016725098814
20
-4.44222717151649
30
0
41
1
10
12.4041138630973
20
-4.47245709687928
30
0
41
1
10
11.9065149264054
20
-4.5381275491774
30
0
41
1
10
11.6060777776329
20
-4.56816924766378
30
0
41
1
10
10.703904809491
20
-4.62874705502534
30
0
41
1
10
10.1049797441289
20
-4.62959680455697
30
0
41
1
10
9.2046890243617
20
-4.57209372628068
30
0
41
1
10
8.90380840189147
20
-4.54305815830145
30
0
41
1
10
8.30281483262635
20
-4.46571594212941
30
0
41
1
10
8.00351641295268
20
-4.41755506431142
30
0
41
1
10
7.10766800899225
20
-4.24586321940225
30
0
41
1
10
6.5132460510338
20
-4.09506674470194
30
0
41
1
10
5.32222652327127
20
-3.72744023097442
30
0
41
1
10
4.72560033351584
20
-3.51070762603905
30
0
41
1
10
4.12449290040433
20
-3.26372305540824
30
0
0
SPLINE
5
DB
100
AcDbEntity
8
1
62
256
6
ByLayer
370
18
48
1
60
0
100
AcDbSpline
70
4
71
3
72
34
73
30
40
0
40
0
40
0
40
0
40
0.0115236877101197
40
0.0115236877101197
40
0.322971760790819
40
0.322971760790819
40
0.478695797331169
40
0.478695797331169
40
0.634419833871518
40
0.634419833871518
40
0.712281852141692
40
0.712281852141692
40
0.751212861276778
40
0.751212861276778
40
0.76094561356055
40
0.76094561356055
40
0.770678365844321
40
0.770678365844321
40
0.790143870411867
40
0.790143870411867
40
0.868005888682051
40
0.868005888682051
40
0.906936897817144
40
0.906936897817144
40
0.945867906952237
40
0.945867906952237
40
0.98479891608733
40
0.98479891608733
40
1
40
1
40
1
40
1
41
1
10
8.60658627895546
20
-4.61826463453349
30
0
41
1
10
8.58128657221295
20
-4.61822539417111
30
0
41
1
10
8.5559688976744
20
-4.61816014328377
30
0
41
1
10
7.84588653928728
20
-4.61562191670467
30
0
41
1
10
7.14785915940899
20
-4.5949731336961
30
0
41
1
10
6.07696351274979
20
-4.55932818318266
30
0
41
1
10
5.71654983045329
20
-4.54668220729647
30
0
41
1
10
4.99297924512661
20
-4.52327351002796
30
0
41
1
10
4.62898124470169
20
-4.51249063636089
30
0
41
1
10
4.08129657392442
20
-4.49958564130455
30
0
41
1
10
3.89836544088976
20
-4.49581944501921
30
0
41
1
10
3.62365842138217
20
-4.49114175451834
30
0
41
1
10
3.53204075636609
20
-4.4897439675498
30
0
41
1
10
3.41745710160637
20
-4.48821182429475
30
0
41
1
10
3.39430193488795
20
-4.48792904663989
30
0
41
1
10
3.34872864154471
20
-4.48910023324922
30
0
41
1
10
3.32586411386711
20
-4.49034977435753
30
0
41
1
10
3.26514140963798
20
-4.49769300978554
30
0
41
1
10
3.2251182741843
20
-4.50262728345095
30
0
41
1
10
3.02631317700661
20
-4.52696836238511
30
0
41
1
10
2.87300243514994
20
-4.54587421883281
30
0
41
1
10
2.65863114585167
20
-4.57100533749156
30
0
41
1
10
2.58967142748688
20
-4.57884914796986
30
0
41
1
10
2.45804907732267
20
-4.59287134655318
30
0
41
1
10
2.39496711865962
20
-4.59908634199635
30
0
41
1
10
2.2798022721887
20
-4.60869692441
30
0
41
1
10
2.22759941656113
20
-4.61211853980114
30
0
41
1
10
2.1642521181916
20
-4.61417636743559
30
0
41
1
10
2.14747459843511
20
-4.61444752040256
30
0
41
1
10
2.13188824372577
20
-4.61438137202171
30
0
0
SPLINE
5
DC
100
AcDbEntity
8
1
62
256
6
ByLayer
370
18
48
1
60
0
100
AcDbSpline
70
4
71
3
72
18
73
14
40
0
40
0
40
0
40
0
40
0.250000000000002
40
0.250000000000002
40
0.375000000000002
40
0.375000000000002
40
0.500000000000002
40
0.500000000000002
40
0.625000000000001
40
0.625000000000001
40
0.750000000000001
40
0.750000000000001
40
1
40
1
40
1
40
1
41
1
10
9.02823229446713
20
0.82310374411739
30
0
41
1
10
8.61617703655207
20
1.04660649821716
30
0
41
1
10
8.20859511706243
20
1.27161392939169
30
0
41
1
10
7.60169001615381
20
1.60501406066396
30
0
41
1
10
7.40013470198397
20
1.7154643290867
30
0
41
1
10
6.99811282010833
20
1.93493386479119
30
0
41
1
10
6.79766757412506
20
2.04386912236384
30
0
41
1
10
6.39778739400538
20
2.25941885491306
30
0
41
1
10
6.19834726766612
20
2.3660505689646
30
0
41
1
10
5.80045388304302
20
2.5766009086847
30
0
41
1
10
5.60162878443094
20
2.68071057303371
30
0
41
1
10
5.01163236057516
20
2.98604276965301
30
0
41
1
10
4.62558936246066
20
3.18073565202127
30
0
41
1
10
4.25138340542986
20
3.36588317570852
30
0
0
SPLINE
5
DD
100
AcDbEntity
8
1
62
256
6
ByLayer
370
18
48
1
60
0
100
AcDbSpline
70
4
71
3
72
10
73
6
40
0
40
0
40
0
40
0
40
0.882625660903828
40
0.882625660903828
40
1
40
1
40
1
40
1
41
1
10
61.3872264474899
20
4.61236902907513
30
0
41
1
10
61.0877546839096
20
4.63444231949941
30
0
41
1
10
60.7883400723081
20
4.64663754963078
30
0
41
1
10
60.4487067217043
20
4.6492506629229
30
0
41
1
10
60.4088296627547
20
4.64938179160399
30
0
41
1
10
60.368943267084
20
4.64933756450654
30
0
0
SPLINE
5
DE
100
AcDbEntity
8
1
62
256
6
ByLayer
370
18
48
1
60
0
100
AcDbSpline
70
4
71
3
72
50
73
46
40
0
40
0
40
0
40
0
40
0.0497417383454048
40
0.0497417383454048
40
0.115233873537395
40
0.115233873537395
40
0.147979941133391
40
0.147979941133391
40
0.180726008729386
40
0.180726008729386
40
0.246218143921377
40
0.246218143921377
40
0.278964211517373
40
0.278964211517373
40
0.311710279113368
40
0.311710279113368
40
0.344456346709364
40
0.344456346709364
40
0.37720241430536
40
0.37720241430536
40
0.44269454949735
40
0.44269454949735
40
0.508186684689341
40
0.508186684689341
40
0.540932752285336
40
0.540932752285336
40
0.557305786083334
40
0.557305786083334
40
0.573678819881333
40
0.573678819881333
40
0.70466309026532
40
0.70466309026532
40
0.737409157861316
40
0.737409157861316
40
0.770155225457313
40
0.770155225457313
40
0.835647360649307
40
0.835647360649307
40
0.9011394958413
40
0.9011394958413
40
0.933885563437297
40
0.933885563437297
40
0.966631631033294
40
0.966631631033294
40
1
40
1
40
1
40
1
41
1
10
37.6980630605453
20
-4.43955319664198
30
0
41
1
10
37.2453655599311
20
-4.51519808522099
30
0
41
1
10
36.7947805637451
20
-4.56892442080635
30
0
41
1
10
35.7520395324811
20
-4.64215500340072
30
0
41
1
10
35.1602035528015
20
-4.6454323578194
30
0
41
1
10
34.2681674138051
20
-4.59217267782853
30
0
41
1
10
33.9701053797021
20
-4.56472054782458
30
0
41
1
10
33.3715486065724
20
-4.49032735804718
30
0
41
1
10
33.0706076217583
20
-4.44325488197828
30
0
41
1
10
32.170943098402
20
-4.27439847101684
30
0
41
1
10
31.5729500801689
20
-4.12482969127396
30
0
41
1
10
30.6729203148423
20
-3.84914614573168
30
0
41
1
10
30.3721579407559
20
-3.74861917309215
30
0
41
1
10
29.7723585600929
20
-3.53264430399017
30
0
41
1
10
29.4729428917128
20
-3.41699988921863
30
0
41
1
10
28.8739132754866
20
-3.17177731178651
30
0
41
1
10
28.5743001774156
20
-3.04220723256879
30
0
41
1
10
27.974097873976
20
-2.77006314953198
30
0
41
1
10
27.6733794385687
20
-2.62748651505032
30
0
41
1
10
26.7766251157716
20
-2.18662405948297
30
0
41
1
10
26.1830038879244
20
-1.87420801646095
30
0
41
1
10
24.9973756436687
20
-1.22380224422605
30
0
41
1
10
24.4050278314425
20
-0.886372336623339
30
0
41
1
10
23.5120446575909
20
-0.370525291837822
30
0
41
1
10
23.2136002540981
20
-0.197026815685717
30
0
41
1
10
22.7640327884467
20
0.0643244693453937
30
0
41
1
10
22.6136272752283
20
0.151770735428414
30
0
41
1
10
22.3134583307891
20
0.326037031855663
30
0
41
1
10
22.1637125396767
20
0.412846956550368
30
0
41
1
10
20.8184996440148
20
1.19032640158659
30
0
41
1
10
19.6402066646722
20
1.85375155776373
30
0
41
1
10
18.1518875044576
20
2.58766212710492
30
0
41
1
10
17.8535028659268
20
2.72975387906783
30
0
41
1
10
17.2542136985188
20
3.00281066798547
30
0
41
1
10
16.9530727784944
20
3.13379153282858
30
0
41
1
10
16.0557258758867
20
3.50318086348741
30
0
41
1
10
15.4621563481842
20
3.72018626320082
30
0
41
1
10
14.2761239511211
20
4.08826788539076
30
0
41
1
10
13.6838978686048
20
4.23958172084852
30
0
41
1
10
12.7908506771247
20
4.41243372174981
30
0
41
1
10
12.4924543206657
20
4.46108090552252
30
0
41
1
10
11.8932964094866
20
4.53957644593066
30
0
41
1
10
11.5922100617443
20
4.56938096398608
30
0
41
1
10
10.9864508659146
20
4.60947646948296
30
0
41
1
10
10.6811343396553
20
4.61951212932203
30
0
41
1
10
10.3757318349009
20
4.61934652527776
30
0
0
SPLINE
5
DF
100
AcDbEntity
8
1
62
256
6
ByLayer
370
18
48
1
60
0
100
AcDbSpline
70
4
71
3
72
8
73
4
40
0
40
0
40
0
40
0
40
1
40
1
40
1
40
1
41
1
10
61.4482961258228
20
-4.41239010865715
30
0
41
1
10
61.4238781630653
20
-4.43006335695853
30
0
41
1
10
61.4025458145685
20
-4.43896895088068
30
0
41
1
10
61.384353313412
20
-4.43895278921747
30
0
0
SPLINE
5
E0
100
AcDbEntity
8
1
62
256
6
ByLayer
370
18
48
1
60
0
100
AcDbSpline
70
4
71
3
72
18
73
14
40
0
40
0
40
0
40
0
40
0.249999999999993
40
0.249999999999993
40
0.374999999999993
40
0.374999999999993
40
0.499999999999993
40
0.499999999999993
40
0.749999999999993
40
0.749999999999993
40
0.874999999999997
40
0.874999999999997
40
1
40
1
40
1
40
1
41
1
10
62.3328867705257
20
-2.25209021102648
30
0
41
1
10
62.2615290650084
20
-2.44379947379053
30
0
41
1
10
62.1900933984809
20
-2.63538558048896
30
0
41
1
10
62.0825803561627
20
-2.92219676632746
30
0
41
1
10
62.0466849946729
20
-3.0177093759288
30
0
41
1
10
61.9747157739171
20
-3.20845261977232
30
0
41
1
10
61.938645942043
20
-3.30368910719247
30
0
41
1
10
61.8304734087992
20
-3.58931579982305
30
0
41
1
10
61.7583279338022
20
-3.77958436508968
30
0
41
1
10
61.6496496783517
20
-4.06273283737016
30
0
41
1
10
61.613320594855
20
-4.15661093259345
30
0
41
1
10
61.5406456643063
20
-4.34428497560035
30
0
41
1
10
61.5042739975378
20
-4.43795439750468
30
0
41
1
10
61.4677723473213
20
-4.53098685385524
30
0
0
SPLINE
5
E1
100
AcDbEntity
8
1
62
256
6
ByLayer
370
18
48
1
60
0
100
AcDbSpline
70
4
71
3
72
28
73
24
40
0
40
0
40
0
40
0
40
0.0625
40
0.0625
40
0.125
40
0.125
40
0.25
40
0.25
40
0.375
40
0.375
40
0.4375
40
0.4375
40
0.5
40
0.5
40
0.625
40
0.625
40
0.6875
40
0.6875
40
0.75
40
0.75
40
0.875
40
0.875
40
1
40
1
40
1
40
1
41
1
10
4.00312015118306
20
-3.12513152198352
30
0
41
1
10
4.00312664584402
20
-3.00953905661862
30
0
41
1
10
4.00313279095357
20
-2.88810138887646
30
0
41
1
10
4.00314433565649
20
-2.63752625562563
30
0
41
1
10
4.00314974440909
20
-2.50832785700604
30
0
41
1
10
4.00316512630496
20
-2.10928310145147
30
0
41
1
10
4.00317427034506
20
-1.82770043759047
30
0
41
1
10
4.00319141924899
20
-1.23454142910259
30
0
41
1
10
4.00319916661661
20
-0.932396261057136
30
0
41
1
10
4.00321039216971
20
-0.471146573014494
30
0
41
1
10
4.0032140644218
20
-0.316047542294399
30
0
41
1
10
4.00322137430158
20
-0.0030775229118092
30
0
41
1
10
4.00322500615957
20
0.154551095630495
30
0
41
1
10
4.00323572638527
20
0.620876470473945
30
0
41
1
10
4.00324273919446
20
0.926644301018342
30
0
41
1
10
4.00325327494124
20
1.37760182580595
30
0
41
1
10
4.00325680539493
20
1.52745365644111
30
0
41
1
10
4.00326372032248
20
1.81895931696874
30
0
41
1
10
4.00326711036737
20
1.96087099433942
30
0
41
1
10
4.00327701639071
20
2.37535838597253
30
0
41
1
10
4.00328329712218
20
2.63718752397915
30
0
41
1
10
4.00329438794881
20
3.12818637536731
30
0
41
1
10
4.00329901744027
20
3.34973131871251
30
0
41
1
10
4.00330222524173
20
3.54822156961455
30
0
0
SPLINE
5
E2
100
AcDbEntity
8
1
62
256
6
ByLayer
370
18
48
1
60
0
100
AcDbSpline
70
4
71
3
72
86
73
82
40
0
40
0
40
0
40
0
40
0.01774901883343
40
0.01774901883343
40
0.042640718596941
40
0.042640718596941
40
0.0675324183604521
40
0.0675324183604521
40
0.0924241181239631
40
0.0924241181239631
40
0.117315817887474
40
0.117315817887474
40
0.142207517650985
40
0.142207517650985
40
0.167099217414496
40
0.167099217414496
40
0.191990917178007
40
0.191990917178007
40
0.216882616941518
40
0.216882616941518
40
0.241774316705029
40
0.241774316705029
40
0.26666601646854
40
0.26666601646854
40
0.291557716232052
40
0.291557716232052
40
0.316449415995563
40
0.316449415995563
40
0.341341115759074
40
0.341341115759074
40
0.366232815522585
40
0.366232815522585
40
0.391124515286096
40
0.391124515286096
40
0.416016215049607
40
0.416016215049607
40
0.440907914813118
40
0.440907914813118
40
0.465799614576629
40
0.465799614576629
40
0.49069131434014
40
0.49069131434014
40
0.515583014103651
40
0.515583014103651
40
0.540474713867162
40
0.540474713867162
40
0.565366413630673
40
0.565366413630673
40
0.590258113394184
40
0.590258113394184
40
0.615149813157695
40
0.615149813157695
40
0.640041512921206
40
0.640041512921206
40
0.664933212684718
40
0.664933212684718
40
0.689824912448229
40
0.689824912448229
40
0.71471661221174
40
0.71471661221174
40
0.764500011738762
40
0.764500011738762
40
0.789391711502272
40
0.789391711502272
40
0.814283411265783
40
0.814283411265783
40
0.839175111029293
40
0.839175111029293
40
0.864066810792804
40
0.864066810792804
40
0.888958510556314
40
0.888958510556314
40
0.913850210319825
40
0.913850210319825
40
0.938741910083335
40
0.938741910083335
40
0.963633609846846
40
0.963633609846846
40
0.988525309610356
40
0.988525309610356
40
1
40
1
40
1
40
1
41
1
10
53.6347979128145
20
-3.37588249518444
30
0
41
1
10
53.4540317561334
20
-3.4413379988838
30
0
41
1
10
53.2731955606842
20
-3.50425851923907
30
0
41
1
10
52.8390447586084
20
-3.64753250034491
30
0
41
1
10
52.585793493498
20
-3.72495915716237
30
0
41
1
10
52.079459642783
20
-3.86896757381362
30
0
41
1
10
51.8264841863404
20
-3.93575600993799
30
0
41
1
10
51.3206114979067
20
-4.05805723604121
30
0
41
1
10
51.0673306483135
20
-4.11325302115222
30
0
41
1
10
50.5597302735359
20
-4.21110477763938
30
0
41
1
10
50.3058372079946
20
-4.25377886250487
30
0
41
1
10
49.7995583284101
20
-4.32528942336742
30
0
41
1
10
49.5470114900177
20
-4.35396478598781
30
0
41
1
10
49.0411567309419
20
-4.39665908478912
30
0
41
1
10
48.7879948886226
20
-4.41197900964892
30
0
41
1
10
48.2812785083202
20
-4.43044405727204
30
0
41
1
10
48.0275482574477
20
-4.43328437861385
30
0
41
1
10
47.5208334701703
20
-4.42397094877421
30
0
41
1
10
47.267659804594
20
-4.41233102459353
30
0
41
1
10
46.7614176517013
20
-4.37707309079872
30
0
41
1
10
46.5083651494781
20
-4.35327806197787
30
0
41
1
10
46.0025944284971
20
-4.29111150443939
30
0
41
1
10
45.7496988428078
20
-4.25233041139171
30
0
41
1
10
45.2424984420142
20
-4.16356797590123
30
0
41
1
10
44.9884703815354
20
-4.11345115663028
30
0
41
1
10
44.4817981183229
20
-4.00075929608229
30
0
41
1
10
44.2290989345658
20
-3.93761313632191
30
0
41
1
10
43.7234487700882
20
-3.79934020269906
30
0
41
1
10
43.4703980021847
20
-3.72509366185744
30
0
41
1
10
42.9637757928914
20
-3.56577764264958
30
0
41
1
10
42.7099313200869
20
-3.48049260871005
30
0
41
1
10
42.2029654929467
20
-3.29768836171451
30
0
41
1
10
41.9499119207605
20
-3.20109326755985
30
0
41
1
10
41.4436076589
20
-3.00030099690417
30
0
41
1
10
41.190498493985
20
-2.89570783366017
30
0
41
1
10
40.6843553306006
20
-2.67694716383286
30
0
41
1
10
40.431511717569
20
-2.56214490342811
30
0
41
1
10
39.9246290296626
20
-2.32676843029472
30
0
41
1
10
39.6705493787766
20
-2.20576770433235
30
0
41
1
10
39.1636895855996
20
-1.95752209519858
30
0
41
1
10
38.910657738596
20
-1.83002990756802
30
0
41
1
10
38.4051537068564
20
-1.56906600548766
30
0
41
1
10
38.1522836511676
20
-1.4366861125649
30
0
41
1
10
37.6458289855315
20
-1.16801933863988
30
0
41
1
10
37.3921310799222
20
-1.03161375101251
30
0
41
1
10
36.8846169145326
20
-0.754962395441652
30
0
41
1
10
36.631623921188
20
-0.61499174763108
30
0
41
1
10
36.1253513592036
20
-0.335069910236996
30
0
41
1
10
35.872241850071
20
-0.194783769110387
30
0
41
1
10
35.3659243099197
20
0.0862011000671714
30
0
41
1
10
35.1128055313478
20
0.227070096123157
30
0
41
1
10
34.6061938171985
20
0.508603077882327
30
0
41
1
10
34.3521567298448
20
0.648782136994868
30
0
41
1
10
33.8451825370719
20
0.925604050646854
30
0
41
1
10
33.591961782056
20
1.06232049380893
30
0
41
1
10
33.0860694605105
20
1.33300570056934
30
0
41
1
10
32.8334114294634
20
1.46718771816376
30
0
41
1
10
32.3270930400533
20
1.72975852980855
30
0
41
1
10
32.0735163594467
20
1.85829048113877
30
0
41
1
10
31.311648901089
20
2.23513105125414
30
0
41
1
10
30.8062218512445
20
2.4762987103606
30
0
41
1
10
30.046533621732
20
2.80918775888
30
0
41
1
10
29.7931380599625
20
2.91582772281194
30
0
41
1
10
29.286323202286
20
3.12198504875249
30
0
41
1
10
29.0324416585101
20
3.22122556678224
30
0
41
1
10
28.5254210997111
20
3.40752493169924
30
0
41
1
10
28.2721651312564
20
3.49430979280316
30
0
41
1
10
27.7658857665982
20
3.65888709251183
30
0
41
1
10
27.5131501492322
20
3.7367443156925
30
0
41
1
10
27.0069839319427
20
3.88010134650815
30
0
41
1
10
26.7534563251476
20
3.9447711977987
30
0
41
1
10
26.2454025979074
20
4.06298796837046
30
0
41
1
10
25.9917229768106
20
4.1166591880619
30
0
41
1
10
25.4854895497775
20
4.2118140543831
30
0
41
1
10
25.2325694753333
20
4.25269473870785
30
0
41
1
10
24.7261655267598
20
4.31926944383682
30
0
41
1
10
24.472747328798
20
4.34652065344071
30
0
41
1
10
23.9656252238751
20
4.38916084392466
30
0
41
1
10
23.7118322330711
20
4.40451100285614
30
0
41
1
10
23.3415599450192
20
4.41549210766971
30
0
41
1
10
23.2247691840659
20
4.41729079668411
30
0
41
1
10
23.1080045691362
20
4.41764900857782
30
0
0
SPLINE
5
E3
100
AcDbEntity
8
SK1
62
256
6
ByLayer
370
18
48
1
60
0
100
AcDbSpline
70
4
71
3
72
14
73
10
40
0
40
0
40
0
40
0
40
0.124999999999999
40
0.124999999999999
40
0.249999999999999
40
0.249999999999999
40
0.499999999999998
40
0.499999999999998
40
1
40
1
40
1
40
1
41
1
10
-38.85
20
-3.193920275605
30
0
41
1
10
-38.85
20
-3.18544127473382
30
0
41
1
10
-38.8517453396944
20
-3.17513574002706
30
0
41
1
10
-38.8568901241517
20
-3.15433583170903
30
0
41
1
10
-38.860211966304
20
-3.143933394725
30
0
41
1
10
-38.8714485682308
20
-3.11272189012067
30
0
41
1
10
-38.8802054040538
20
-3.09299233283099
30
0
41
1
10
-38.9082792076556
20
-3.03565583134161
30
0
41
1
10
-38.9286347141248
20
-3.00147527323227
30
0
41
1
10
-38.95
20
-2.97083419590743
30
0
0
SPLINE
5
E4
100
AcDbEntity
8
SK1
62
256
6
ByLayer
370
18
48
1
60
0
100
AcDbSpline
70
4
71
3
72
10
73
6
40
0
40
0
40
0
40
0
40
0.5
40
0.5
40
1
40
1
40
1
40
1
41
1
10
-38.95
20
-2.97083419590743
30
0
41
1
10
-39.1281002653425
20
-2.71541126200279
30
0
41
1
10
-39.3053068773951
20
-2.45960247160588
30
0
41
1
10
-39.6562276857791
20
-1.9464769555814
30
0
41
1
10
-39.8300482945171
20
-1.68920617609254
30
0
41
1
10
-40
20
-1.43026490374493
30
0
0
SPLINE
5
E5
100
AcDbEntity
8
SK1
62
256
6
ByLayer
370
18
48
1
60
0
100
AcDbSpline
70
4
71
3
72
10
73
6
40
0
40
0
40
0
40
0
40
0.5
40
0.5
40
1
40
1
40
1
40
1
41
1
10
-39.9999999999999
20
-2.931385398483
30
0
41
1
10
-39.8301257758578
20
-3.19020861895862
30
0
41
1
10
-39.6563253118241
20
-3.44745352007104
30
0
41
1
10
-39.3053898261476
20
-3.96060285482889
30
0
41
1
10
-39.1281394681189
20
-4.21647553398239
30
0
41
1
10
-38.95
20
-4.47195469064528
30
0
0
SPLINE
5
E6
100
AcDbEntity
8
SK1
62
256
6
ByLayer
370
18
48
1
60
0
100
AcDbSpline
70
4
71
3
72
14
73
10
40
0
40
0
40
0
40
0
40
0.499999999999999
40
0.499999999999999
40
0.749999999999999
40
0.749999999999999
40
0.874999999999999
40
0.874999999999999
40
1
40
1
40
1
40
1
41
1
10
-38.9500000000001
20
-4.47195469064539
30
0
41
1
10
-38.9287234691649
20
-4.50246847971121
30
0
41
1
10
-38.9083432483059
20
-4.52933514092354
30
0
41
1
10
-38.880223151313
20
-4.5611569147546
30
0
41
1
10
-38.8713218079587
20
-4.57023385888934
30
0
41
1
10
-38.8602667834558
20
-4.57852251005613
30
0
41
1
10
-38.8569157654531
20
-4.58043450661219
30
0
41
1
10
-38.851744720606
20
-4.58090995270948
30
0
41
1
10
-38.8499999999999
20
-4.5793755962481
30
0
41
1
10
-38.8499999999999
20
-4.57495113076396
30
0
0
LINE
5
76
100
AcDbEntity
8
81
62
256
6
ByLayer
370
18
48
1
60
0
100
AcDbLine
10
63
20
0
30
0
11
68
21
0
31
0
39
0
210
0
220
0
230
1
0
LINE
5
77
100
AcDbEntity
8
1
62
256
6
ByLayer
370
18
48
1
60
0
100
AcDbLine
10
2.138808
20
4.614403
30
0
11
1.042988
21
4.613745
31
0
39
0
210
0
220
0
230
1
0
LINE
5
79
100
AcDbEntity
8
1
62
256
6
ByLayer
370
18
48
1
60
0
100
AcDbLine
10
35.374959
20
4.634344
30
0
11
34.657386
21
4.633914
31
0
39
0
210
0
220
0
230
1
0
LINE
5
7A
100
AcDbEntity
8
1
62
256
6
ByLayer
370
18
48
1
60
0
100
AcDbLine
10
60.374895
20
4.649344
30
0
11
59.664081
21
4.648918
31
0
39
0
210
0
220
0
230
1
0
LINE
5
7B
100
AcDbEntity
8
1
62
256
6
ByLayer
370
18
48
1
60
0
100
AcDbLine
10
59.664081
20
-4.648918
30
0
11
60.374703
21
-4.649344
31
0
39
0
210
0
220
0
230
1
0
LINE
5
7C
100
AcDbEntity
8
1
62
256
6
ByLayer
370
18
48
1
60
0
100
AcDbLine
10
34.657386
20
-4.633914
30
0
11
35.374695
21
-4.634344
31
0
39
0
210
0
220
0
230
1
0
LINE
5
7D
100
AcDbEntity
8
1
62
256
6
ByLayer
370
18
48
1
60
0
100
AcDbLine
10
1.042988
20
-4.613745
30
0
11
2.138808
21
-4.614403
31
0
39
0
210
0
220
0
230
1
0
LINE
5
7E
100
AcDbEntity
8
SK1
62
256
6
ByLayer
370
18
48
1
60
0
100
AcDbLine
10
-38.845299
20
5
30
0
11
-40
21
3
31
0
39
0
210
0
220
0
230
1
0
LINE
5
80
100
AcDbEntity
8
SK1
62
256
6
ByLayer
370
18
48
1
60
0
100
AcDbLine
10
-40
20
-3
30
0
11
-38.845299
21
-5
31
0
39
0
210
0
220
0
230
1
0
LINE
5
81
100
AcDbEntity
8
SK1
62
256
6
ByLayer
370
18
48
1
60
0
100
AcDbLine
10
0
20
5
30
0
11
-38.845299
21
5
31
0
39
0
210
0
220
0
230
1
0
LINE
5
82
100
AcDbEntity
8
SK1
62
256
6
ByLayer
370
18
48
1
60
0
100
AcDbLine
10
-38.845299
20
-5
30
0
11
0
21
-5
31
0
39
0
210
0
220
0
230
1
0
LINE
5
83
100
AcDbEntity
8
1
62
256
6
ByLayer
370
18
48
1
60
0
100
AcDbLine
10
10.375089
20
4.619344
30
0
11
8.593499
21
4.618275
31
0
39
0
210
0
220
0
230
1
0
LINE
5
84
100
AcDbEntity
8
1
62
256
6
ByLayer
370
18
48
1
60
0
100
AcDbLine
10
8.593499
20
-4.618275
30
0
11
10.374518
21
-4.619344
31
0
39
0
210
0
220
0
230
1
0
LINE
5
85
100
AcDbEntity
8
SK4
62
256
6
ByLayer
370
18
48
0.05
60
0
100
AcDbLine
10
68
20
0
30
0
11
-45
21
0
31
0
39
0
210
0
220
0
230
1
0
LINE
5
87
100
AcDbEntity
8
4
62
256
6
ByLayer
370
18
48
0.05
60
0
100
AcDbLine
10
63
20
0
30
0
11
0
21
0
31
0
39
0
210
0
220
0
230
1
0
LINE
5
89
100
AcDbEntity
8
80
62
256
6
ByLayer
370
18
48
1
60
0
100
AcDbLine
10
0
20
0
30
0
11
-5
21
0
31
0
39
0
210
0
220
0
230
1
0
LINE
5
8A
100
AcDbEntity
8
1
62
256
6
ByLayer
370
18
48
1
60
0
100
AcDbLine
10
62.914327
20
0.308439
30
0
11
62.774545
21
0.862866
31
0
39
0
210
0
220
0
230
1
0
LINE
5
8B
100
AcDbEntity
8
1
62
256
6
ByLayer
370
13
48
1
60
0
100
AcDbLine
10
0.521254
20
4.806872
30
0
11
0.521254
21
-4.806872
31
0
39
0
210
0
220
0
230
1
0
LINE
5
8C
100
AcDbEntity
8
1
62
256
6
ByLayer
370
18
48
1
60
0
100
AcDbLine
10
0
20
-5
30
0
11
0
21
5
31
0
39
0
210
0
220
0
230
1
0
LINE
5
8D
100
AcDbEntity
8
1
62
256
6
ByLayer
370
13
48
1
60
0
100
AcDbLine
10
61.789992
20
0.527537
30
0
11
62.894581
21
-0.127852
31
0
39
0
210
0
220
0
230
1
0
LINE
5
8E
100
AcDbEntity
8
1
62
256
6
ByLayer
370
18
48
1
60
0
100
AcDbLine
10
62.990873
20
0.045441
30
0
11
63
21
0
31
0
39
0
210
0
220
0
230
1
0
LINE
5
8F
100
AcDbEntity
8
1
62
256
6
ByLayer
370
18
48
1
60
0
100
AcDbLine
10
62.914327
20
-0.308439
30
0
11
62.774545
21
-0.862866
31
0
39
0
210
0
220
0
230
1
0
LINE
5
90
100
AcDbEntity
8
1
62
256
6
ByLayer
370
18
48
1
60
0
100
AcDbLine
10
60.679388
20
-2.416176
30
0
11
62.894581
21
-0.127852
31
0
39
0
210
0
220
0
230
1
0
LINE
5
91
100
AcDbEntity
8
1
62
256
6
ByLayer
370
13
48
1
60
0
100
AcDbLine
10
1.042988
20
4.613745
30
0
11
1.042988
21
-4.613745
31
0
39
0
210
0
220
0
230
1
0
LINE
5
92
100
AcDbEntity
8
1
62
256
6
ByLayer
370
18
48
1
60
0
100
AcDbLine
10
63
20
0
30
0
11
61.384353
21
-4.438953
31
0
39
0
210
0
220
0
230
1
0
LINE
5
93
100
AcDbEntity
8
1
62
256
6
ByLayer
370
13
48
1
60
0
100
AcDbLine
10
61.979899
20
0.862866
30
0
11
62.914327
21
0.308439
31
0
39
0
210
0
220
0
230
1
0
LINE
5
94
100
AcDbEntity
8
1
62
256
6
ByLayer
370
13
48
1
60
0
100
AcDbLine
10
62.774545
20
0.862866
30
0
11
61.979899
21
0.862866
31
0
39
0
210
0
220
0
230
1
0
LINE
5
95
100
AcDbEntity
8
1
62
256
6
ByLayer
370
18
48
1
60
0
100
AcDbLine
10
63
20
0
30
0
11
62.990873
21
-0.045441
31
0
39
0
210
0
220
0
230
1
0
LINE
5
96
100
AcDbEntity
8
SK1
62
256
6
ByLayer
370
18
48
1
60
0
100
AcDbLine
10
-38.845299
20
5
30
0
11
-38.845299
21
-5
31
0
39
0
210
0
220
0
230
1
0
LINE
5
97
100
AcDbEntity
8
SK1
62
256
6
ByLayer
370
18
48
1
60
0
100
AcDbLine
10
0
20
-5
30
0
11
0
21
5
31
0
39
0
210
0
220
0
230
1
0
LINE
5
98
100
AcDbEntity
8
SK1
62
256
6
ByLayer
370
18
48
1
60
0
100
AcDbLine
10
-40
20
-3
30
0
11
-40
21
-2.931385
31
0
39
0
210
0
220
0
230
1
0
LINE
5
99
100
AcDbEntity
8
SK1
62
256
6
ByLayer
370
18
48
1
60
0
100
AcDbLine
10
-40
20
-1.430228
30
0
11
-40
21
-2.931385
31
0
39
0
210
0
220
0
230
1
0
LINE
5
9A
100
AcDbEntity
8
SK1
62
256
6
ByLayer
370
18
48
1
60
0
100
AcDbLine
10
-40
20
3
30
0
11
-40
21
-1.430265
31
0
39
0
210
0
220
0
230
1
0
LINE
5
9B
100
AcDbEntity
8
SK1
62
256
6
ByLayer
370
18
48
1
60
0
100
AcDbLine
10
-38.85
20
-4.574951
30
0
11
-38.85
21
-3.19392
31
0
39
0
210
0
220
0
230
1
0
LINE
5
9C
100
AcDbEntity
8
SK1
62
256
6
ByLayer
370
13
48
1
60
0
100
AcDbLine
10
-38.95
20
-2.970721
30
0
11
-38.95
21
-4.471955
31
0
39
0
210
0
220
0
230
1
0
MTEXT
5
E7
100
AcDbEntity
8
SK6
62
256
6
ByLayer
370
13
48
1
60
0
100
AcDbMText
10
13.629169
20
37.032694
30
0
210
0
220
0
230
1
1
\W0.7542;R840-0930-50-A1A1220
40
3.5
41
0
44
1.084337
50
0
71
8
72
5
7
iso_b_vert
0
DIMENSION
5
F4
100
AcDbEntity
8
SK2
62
256
6
ByLayer
370
13
48
1
60
0
100
AcDbDimension
2
DimnDraft3D1
10
61.41
20
-14.863398
30
0
11
29.160059
21
-14.863398
31
0
70
32
71
5
72
1
41
1
210
0
220
0
230
1
3
Standard
100
AcDbAlignedDimension
13
0
23
-1.5875
33
0
14
61.41
24
-6.2375
34
0
50
0
100
AcDbRotatedDimension
1001
ACAD
1000
DSTYLE
1002
{
1070
   279
1070
     0
1070
   172
1070
     1
1070
   173
1070
     1
1070
   340
1005
E8
1070
   271
1070
     2
1070
   272
1070
     2
1070
    77
1070
     1
1070
    73
1070
     0
1070
   171
1070
     3
1070
   274
1070
     4
1070
   177
1070
    35
1070
   176
1070
    35
1070
   178
1070
    35
1070
    48
1040
-0.005
1070
    41
1041
3.5
1070
   147
1041
1.75
1070
    42
1041
1.5875
1070
    44
1041
2.0
1070
   140
1041
3.5
1070
   343
1005
0
1070
   344
1005
0
1002
}
0
DIMENSION
5
FE
100
AcDbEntity
8
SK2
62
256
6
ByLayer
370
13
48
1
60
0
100
AcDbDimension
2
DimnDraft3D2
10
63
20
-33.692985
30
0
11
11.2513
21
-33.692985
31
0
70
32
71
5
72
1
41
1
210
0
220
0
230
1
3
Standard
100
AcDbAlignedDimension
13
-40
23
-6.5875
33
0
14
63
24
-1.5875
34
0
50
0
100
AcDbRotatedDimension
1001
ACAD
1000
DSTYLE
1002
{
1070
   279
1070
     0
1070
   172
1070
     1
1070
   173
1070
     1
1070
   340
1005
E8
1070
   271
1070
     2
1070
   272
1070
     2
1070
    77
1070
     1
1070
    73
1070
     0
1070
   171
1070
     3
1070
   274
1070
     4
1070
   177
1070
    35
1070
   176
1070
    35
1070
   178
1070
    35
1070
    48
1040
-0.005
1070
    41
1041
3.5
1070
   147
1041
1.75
1070
    42
1041
1.5875
1070
    44
1041
2.0
1070
   140
1041
3.5
1070
   343
1005
0
1070
   344
1005
0
1002
}
0
DIMENSION
5
108
100
AcDbEntity
8
SK2
62
256
6
ByLayer
370
13
48
1
60
0
100
AcDbDimension
2
DimnDraft3D3
10
63
20
16.259119
30
0
11
38.955
21
16.259119
31
0
70
32
71
5
72
1
41
1
210
0
220
0
230
1
3
Standard
100
AcDbAlignedDimension
13
14.91
23
6.2375
33
0
14
63
24
1.5875
34
0
50
0
100
AcDbRotatedDimension
1001
ACAD
1000
DSTYLE
1002
{
1070
   279
1070
     0
1070
   172
1070
     1
1070
   173
1070
     1
1070
   340
1005
E8
1070
   271
1070
     2
1070
   272
1070
     2
1070
    77
1070
     1
1070
    73
1070
     0
1070
   171
1070
     3
1070
   274
1070
     4
1070
   177
1070
    35
1070
   176
1070
    35
1070
   178
1070
    35
1070
    48
1040
-0.005
1070
    41
1041
3.5
1070
   147
1041
1.75
1070
    42
1041
1.5875
1070
    44
1041
2.0
1070
   140
1041
3.5
1070
   343
1005
0
1070
   344
1005
0
1002
}
0
DIMENSION
5
112
100
AcDbEntity
8
SK2
62
256
6
ByLayer
370
13
48
1
60
0
100
AcDbDimension
2
DimnDraft3D4
10
61.41
20
-17.452503
30
0
11
72.981425
21
-17.452503
31
0
70
32
71
5
72
1
41
1
210
0
220
0
230
1
3
Standard
100
AcDbAlignedDimension
13
63
23
-1.5875
33
0
14
61.41
24
-6.2375
34
0
50
0
100
AcDbRotatedDimension
1001
ACAD
1000
DSTYLE
1002
{
1070
   279
1070
     0
1070
   172
1070
     1
1070
   173
1070
     1
1070
   340
1005
E8
1070
   271
1070
     2
1070
   272
1070
     2
1070
    77
1070
     1
1070
    73
1070
     0
1070
   171
1070
     3
1070
   274
1070
     4
1070
   177
1070
    35
1070
   176
1070
    35
1070
   178
1070
    35
1070
    48
1040
-0.005
1070
    41
1041
3.5
1070
   147
1041
1.75
1070
    42
1041
1.5875
1070
    44
1041
2.0
1070
   140
1041
3.5
1070
   343
1005
0
1070
   344
1005
0
1002
}
0
DIMENSION
5
11C
100
AcDbEntity
8
SK2
62
256
6
ByLayer
370
13
48
1
60
0
100
AcDbDimension
2
DimnDraft3D5
10
61.41
20
-23.343428
30
0
11
8.170676
21
-23.343428
31
0
70
32
71
5
72
1
41
1
210
0
220
0
230
1
3
Standard
100
AcDbAlignedDimension
13
-40
23
-6.5875
33
0
14
61.41
24
-6.2375
34
0
50
0
100
AcDbRotatedDimension
1001
ACAD
1000
DSTYLE
1002
{
1070
   279
1070
     0
1070
   172
1070
     1
1070
   173
1070
     1
1070
   340
1005
E8
1070
   271
1070
     2
1070
   272
1070
     2
1070
    77
1070
     1
1070
    73
1070
     0
1070
   171
1070
     3
1070
   274
1070
     4
1070
   177
1070
    35
1070
   176
1070
    35
1070
   178
1070
    35
1070
    48
1040
-0.005
1070
    41
1041
3.5
1070
   147
1041
1.75
1070
    42
1041
1.5875
1070
    44
1041
2.0
1070
   140
1041
3.5
1070
   343
1005
0
1070
   344
1005
0
1002
}
0
DIMENSION
5
127
100
AcDbEntity
8
SK2
62
256
6
ByLayer
370
13
48
1
60
0
100
AcDbDimension
2
DimnDraft3D6
10
-50.625163
20
5
30
0
11
-51.250163
21
23.47418
31
0
70
33
71
5
72
1
41
1
210
0
220
0
230
1
3
Standard
100
AcDbAlignedDimension
13
-41.5875
23
-5
33
0
14
-41.5875
24
5
34
0
1001
ACAD
1000
DSTYLE
1002
{
1070
   279
1070
     0
1070
    74
1070
     0
1070
   173
1070
     1
1070
   340
1005
E8
1070
   271
1070
     3
1070
   272
1070
     2
1070
    77
1070
     1
1070
    73
1070
     0
1070
   171
1070
     3
1070
   274
1070
     4
1070
   177
1070
    35
1070
   176
1070
    35
1070
   178
1070
    35
1070
    48
1040
-0.005
1070
    41
1041
3.5
1070
   147
1041
1.75
1070
    42
1041
1.5875
1070
    44
1041
2.0
1070
   140
1041
3.5
1070
   343
1005
0
1070
   344
1005
0
1002
}
0
DIMENSION
5
132
100
AcDbEntity
8
2
62
256
6
ByLayer
370
13
48
1
60
0
100
AcDbDimension
2
DimnDraft3D7
10
77.083343
20
4.65
30
0
11
72.458343
21
21.717266
31
0
70
33
71
5
72
1
41
1
210
0
220
0
230
1
3
Standard
100
AcDbAlignedDimension
13
62.9975
23
-4.65
33
0
14
62.9975
24
4.65
34
0
1001
ACAD
1000
DSTYLE
1002
{
1070
   279
1070
     0
1070
    74
1070
     0
1070
   173
1070
     1
1070
   340
1005
E8
1070
   271
1070
     3
1070
   272
1070
     2
1070
    77
1070
     1
1070
    73
1070
     0
1070
   171
1070
     3
1070
   274
1070
     4
1070
   177
1070
    35
1070
   176
1070
    35
1070
   178
1070
    35
1070
    48
1040
-0.005
1070
    41
1041
3.5
1070
   147
1041
1.75
1070
    42
1041
1.5875
1070
    44
1041
2.0
1070
   140
1041
3.5
1070
   343
1005
0
1070
   344
1005
0
1002
}
0
ENDSEC
0
SECTION
2
OBJECTS
0
DICTIONARY
5
19d
330
0
100
AcDbDictionary
280
0
281
1
3
ACAD_GROUP
350
19e
3
ACAD_MLINESTYLE
350
19f
0
DICTIONARY
5
19e
330
0
100
AcDbDictionary
280
0
281
1
0
DICTIONARY
5
19f
330
0
100
AcDbDictionary
280
0
281
1
3
Standard
350
18
0
MLINESTYLE
5
18
330
19f
100
AcDbMlineStyle
2
Standard
70
0
3

62
256
51
90
52
90
71
2
49
-0.5
62
256
6
ByLayer
49
0.5
62
256
6
ByLayer
0
RASTERVARIABLES
5
18b
330

100
AcDbRasterVariables
90
0
70
1
71
1
72
1
0
ENDSEC
0
EOF
