0
SECTION
2
HEADER
9
$ACADVER
1
AC1015
9
$DWGCODEPAGE
3
ANSI_1252
9
$HANDSEED
5
1b5
9
$ANGBASE
50
0
9
$ANGDIR
70
0
9
$ATTMODE
70
1
9
$AUNITS
70
0
9
$AUPREC
70
0
9
$CECOLOR
62
256
9
$CELTSCALE
40
1
9
$CELTYPE
6
ByLayer
9
$CELWEIGHT
370
18
9
$CLAYER
8
0
9
$CMLJUST
70
0
9
$CMLSCALE
40
1
9
$CMLSTYLE
2
Standard
9
$DIMSTYLE
2
Standard
9
$TEXTSIZE
40
0.2
9
$TEXTSTYLE
7
Standard
9
$LUNITS
70
2
9
$LUPREC
70
4
9
$EXTNAMES
290
1
9
$INSUNITS
70
4
9
$LTSCALE
40
1
9
$LWDISPLAY
290
1
9
$PDMODE
70
0
9
$PDSIZE
40
0
9
$PLINEGEN
70
0
0
ENDSEC
0
SECTION
2
CLASSES
0
CLASS
1
RASTERVARIABLES
2
AcDbRasterVariables
3
ISM
90
0
280
0
281
0
0
ENDSEC
0
SECTION
2
TABLES
0
TABLE
2
VPORT
5
1ab
100
AcDbSymbolTable
0
VPORT
5
1
100
AcDbSymbolTableRecord
100
AcDbViewportTableRecord
2
*Active
70
0
10
0
20
0
11
1
21
1
12
-1
22
1
13
0
23
0
14
0.5
24
0.5
15
10
25
10
16
0
26
0
36
1
17
0
27
0
37
0
0
ENDTAB
0
TABLE
2
LTYPE
5
1ac
100
AcDbSymbolTable
0
LTYPE
5
14
100
AcDbSymbolTableRecord
100
AcDbLinetypeTableRecord
70
0
2
ByBlock
3

72
65
73
0
40
0
0
LTYPE
5
15
100
AcDbSymbolTableRecord
100
AcDbLinetypeTableRecord
70
0
2
ByLayer
3

72
65
73
0
40
0
0
LTYPE
5
16
100
AcDbSymbolTableRecord
100
AcDbLinetypeTableRecord
70
0
2
CONTINUOUS
3
Solid line
72
65
73
0
40
0
0
LTYPE
5
6A
100
AcDbSymbolTableRecord
100
AcDbLinetypeTableRecord
70
0
2
CENTER
3
____ _ ____ _ ____ _ ____
72
65
73
4
40
47.5
49
22
74
0
49
-8.5
74
0
49
8.5
74
0
49
-8.5
74
0
0
LTYPE
5
6B
100
AcDbSymbolTableRecord
100
AcDbLinetypeTableRecord
70
0
2
DASHED
3
__ __ __ __ __ __ __ __ __
72
65
73
2
40
25.72
49
12.86
74
0
49
-12.86
74
0
0
ENDTAB
0
TABLE
2
LAYER
5
1ad
100
AcDbSymbolTable
0
LAYER
5
10
100
AcDbSymbolTableRecord
100
AcDbLayerTableRecord
2
0
70
0
62
7
6
CONTINUOUS
290
1
370
-3
390
0
0
LAYER
5
6D
100
AcDbSymbolTableRecord
100
AcDbLayerTableRecord
2
81
70
0
62
-3
6
CONTINUOUS
290
1
370
-3
390
0
0
LAYER
5
6F
100
AcDbSymbolTableRecord
100
AcDbLayerTableRecord
2
80
70
0
62
-6
6
CONTINUOUS
290
1
370
-3
390
0
0
LAYER
5
74
100
AcDbSymbolTableRecord
100
AcDbLayerTableRecord
2
2
70
0
62
7
6
CONTINUOUS
290
1
370
-3
390
0
0
LAYER
5
78
100
AcDbSymbolTableRecord
100
AcDbLayerTableRecord
2
1
70
0
62
4
6
CONTINUOUS
290
1
370
-3
390
0
0
LAYER
5
88
100
AcDbSymbolTableRecord
100
AcDbLayerTableRecord
2
4
70
0
62
-2
6
CENTER
290
1
370
-3
390
0
0
LAYER
5
197
100
AcDbSymbolTableRecord
100
AcDbLayerTableRecord
2
SK2
70
0
62
7
6
CONTINUOUS
290
1
370
-3
390
0
0
LAYER
5
198
100
AcDbSymbolTableRecord
100
AcDbLayerTableRecord
2
SK1
70
0
62
4
6
CONTINUOUS
290
1
370
-3
390
0
0
LAYER
5
199
100
AcDbSymbolTableRecord
100
AcDbLayerTableRecord
2
SK4
70
0
62
2
6
CENTER
290
1
370
-3
390
0
0
LAYER
5
19a
100
AcDbSymbolTableRecord
100
AcDbLayerTableRecord
2
SK6
70
0
62
5
6
CONTINUOUS
290
1
370
-3
390
0
0
ENDTAB
0
TABLE
2
STYLE
5
1ae
100
AcDbSymbolTable
0
STYLE
5
11
100
AcDbSymbolTableRecord
100
AcDbTextStyleTableRecord
2
Standard
3
txt
70
0
71
0
40
0
41
1
42
0
50
0
0
STYLE
5
F3
100
AcDbSymbolTableRecord
100
AcDbTextStyleTableRecord
2
iso_b_vert
3
simplex.shx
70
0
71
0
40
0
41
1
42
0
50
0
0
STYLE
5
F4
100
AcDbSymbolTableRecord
100
AcDbTextStyleTableRecord
2
DWGDirectTextStyle
3
simplex
70
0
71
0
40
0
41
1
42
0
50
0
0
ENDTAB
0
TABLE
2
DIMSTYLE
5
1af
100
AcDbSymbolTable
100
AcDbDimStyleTable
0
DIMSTYLE
105
27
100
AcDbSymbolTableRecord
100
AcDbDimStyleTableRecord
2
Standard
70
0
3
<>
41
0.18
42
0.0625
44
0.18
140
0.18
147
0.09
73
0
74
0
77
1
271
2
275
0
278
52
280
0
340
11
0
ENDTAB
0
TABLE
2
VIEW
5
1b0
100
AcDbSymbolTable
0
ENDTAB
0
TABLE
2
UCS
5
1b1
100
AcDbSymbolTable
0
ENDTAB
0
TABLE
2
APPID
5
1b2
100
AcDbSymbolTable
0
APPID
5
12
100
AcDbSymbolTableRecord
100
AcDbRegAppTableRecord
2
ACAD
70
0
0
ENDTAB
0
TABLE
2
BLOCK_RECORD
5
1b3
100
AcDbSymbolTable
0
BLOCK_RECORD
5
1F
100
AcDbSymbolTableRecord
100
AcDbBlockTableRecord
2
*Model_Space
340
0
70
0
0
BLOCK_RECORD
5
1B
100
AcDbSymbolTableRecord
100
AcDbBlockTableRecord
2
*Paper_Space
340
0
70
0
0
BLOCK_RECORD
5
23
100
AcDbSymbolTableRecord
100
AcDbBlockTableRecord
2
*Paper_Space0
340
0
70
0
0
BLOCK_RECORD
5
F6
100
AcDbSymbolTableRecord
100
AcDbBlockTableRecord
2
DimnDraft3D1
340
0
70
0
0
BLOCK_RECORD
5
100
100
AcDbSymbolTableRecord
100
AcDbBlockTableRecord
2
DimnDraft3D2
340
0
70
0
0
BLOCK_RECORD
5
10A
100
AcDbSymbolTableRecord
100
AcDbBlockTableRecord
2
DimnDraft3D3
340
0
70
0
0
BLOCK_RECORD
5
114
100
AcDbSymbolTableRecord
100
AcDbBlockTableRecord
2
DimnDraft3D4
340
0
70
0
0
BLOCK_RECORD
5
11E
100
AcDbSymbolTableRecord
100
AcDbBlockTableRecord
2
DimnDraft3D5
340
0
70
0
0
BLOCK_RECORD
5
128
100
AcDbSymbolTableRecord
100
AcDbBlockTableRecord
2
DimnDraft3D6
340
0
70
0
0
BLOCK_RECORD
5
133
100
AcDbSymbolTableRecord
100
AcDbBlockTableRecord
2
DimnDraft3D7
340
0
70
0
0
ENDTAB
0
ENDSEC
0
SECTION
2
BLOCKS
0
BLOCK
5
20
100
AcDbEntity
8
0
100
AcDbBlockBegin
2
*Model_Space
70
0
10
0
20
0
30
0
3
*Model_Space
0
ENDBLK
5
21
100
AcDbEntity
8
0
100
AcDbBlockEnd
0
BLOCK
5
1C
100
AcDbEntity
8
0
100
AcDbBlockBegin
2
*Paper_Space
70
0
10
0
20
0
30
0
3
*Paper_Space
0
ENDBLK
5
1D
100
AcDbEntity
8
0
100
AcDbBlockEnd
0
BLOCK
5
24
100
AcDbEntity
8
0
100
AcDbBlockBegin
2
*Paper_Space0
70
0
10
0
20
0
30
0
3
*Paper_Space0
0
ENDBLK
5
25
100
AcDbEntity
8
0
100
AcDbBlockEnd
0
BLOCK
5
FD
100
AcDbEntity
8
0
100
AcDbBlockBegin
2
DimnDraft3D1
70
0
10
0
20
0
30
0
3
DimnDraft3D1
0
MTEXT
5
F7
100
AcDbEntity
8
SK2
62
256
6
ByLayer
370
13
48
1
60
0
100
AcDbMText
10
24.984664
20
-13.938398
30
0
210
0
220
0
230
1
1
\W0.6977;61,43
40
3.5
41
0
44
1.084337
50
0
71
7
72
5
7
iso_b_vert
0
LINE
5
F8
100
AcDbEntity
8
SK2
62
256
6
ByLayer
370
13
48
1
60
0
100
AcDbLine
10
0
20
-1.5875
30
0
11
0
21
-16.813398
31
0
39
0
210
0
220
0
230
1
0
LINE
5
F9
100
AcDbEntity
8
SK2
62
256
6
ByLayer
370
13
48
1
60
0
100
AcDbLine
10
61.43
20
-6.1875
30
0
11
61.43
21
-16.813398
31
0
39
0
210
0
220
0
230
1
0
LINE
5
FA
100
AcDbEntity
8
SK2
62
256
6
ByLayer
370
13
48
1
60
0
100
AcDbLine
10
0
20
-14.813398
30
0
11
61.43
21
-14.813398
31
0
39
0
210
0
220
0
230
1
0
SOLID
5
FB
100
AcDbEntity
8
SK2
62
256
6
ByLayer
370
13
48
1
60
0
100
AcDbTrace
10
0
20
-14.813398
30
0
11
3.499998
21
-14.352615
31
0
12
3.500002
22
-15.274182
32
0
13
0
23
-14.813398
33
0
39
0
210
0
220
0
230
1
0
SOLID
5
FC
100
AcDbEntity
8
SK2
62
256
6
ByLayer
370
13
48
1
60
0
100
AcDbTrace
10
61.43
20
-14.813398
30
0
11
57.930002
21
-15.274182
31
0
12
57.929998
22
-14.352615
32
0
13
61.43
23
-14.813398
33
0
39
0
210
0
220
0
230
1
0
ENDBLK
5
FE
100
AcDbEntity
8
0
100
AcDbBlockEnd
0
BLOCK
5
107
100
AcDbEntity
8
0
100
AcDbBlockBegin
2
DimnDraft3D2
70
0
10
0
20
0
30
0
3
DimnDraft3D2
0
MTEXT
5
101
100
AcDbEntity
8
SK2
62
256
6
ByLayer
370
13
48
1
60
0
100
AcDbMText
10
5.952221
20
-32.817985
30
0
210
0
220
0
230
1
1
\W0.6930;103,00
40
3.5
41
0
44
1.084337
50
0
71
7
72
5
7
iso_b_vert
0
LINE
5
102
100
AcDbEntity
8
SK2
62
256
6
ByLayer
370
13
48
1
60
0
100
AcDbLine
10
-40
20
-6.5875
30
0
11
-40
21
-35.692985
31
0
39
0
210
0
220
0
230
1
0
LINE
5
103
100
AcDbEntity
8
SK2
62
256
6
ByLayer
370
13
48
1
60
0
100
AcDbLine
10
63
20
-1.5875
30
0
11
63
21
-35.692985
31
0
39
0
210
0
220
0
230
1
0
LINE
5
104
100
AcDbEntity
8
SK2
62
256
6
ByLayer
370
13
48
1
60
0
100
AcDbLine
10
-40
20
-33.692985
30
0
11
63
21
-33.692985
31
0
39
0
210
0
220
0
230
1
0
SOLID
5
105
100
AcDbEntity
8
SK2
62
256
6
ByLayer
370
13
48
1
60
0
100
AcDbTrace
10
-40
20
-33.692985
30
0
11
-36.500002
21
-33.232202
31
0
12
-36.499998
22
-34.153769
32
0
13
-40
23
-33.692985
33
0
39
0
210
0
220
0
230
1
0
SOLID
5
106
100
AcDbEntity
8
SK2
62
256
6
ByLayer
370
13
48
1
60
0
100
AcDbTrace
10
63
20
-33.692985
30
0
11
59.500002
21
-34.153769
31
0
12
59.499998
22
-33.232202
32
0
13
63
23
-33.692985
33
0
39
0
210
0
220
0
230
1
0
ENDBLK
5
108
100
AcDbEntity
8
0
100
AcDbBlockEnd
0
BLOCK
5
111
100
AcDbEntity
8
0
100
AcDbBlockBegin
2
DimnDraft3D3
70
0
10
0
20
0
30
0
3
DimnDraft3D3
0
MTEXT
5
10B
100
AcDbEntity
8
SK2
62
256
6
ByLayer
370
13
48
1
60
0
100
AcDbMText
10
34.582105
20
17.084119
30
0
210
0
220
0
230
1
1
\W0.7581;47,57
40
3.5
41
0
44
1.084337
50
0
71
7
72
5
7
iso_b_vert
0
LINE
5
10C
100
AcDbEntity
8
SK2
62
256
6
ByLayer
370
13
48
1
60
0
100
AcDbLine
10
15.43
20
6.1875
30
0
11
15.43
21
18.209119
31
0
39
0
210
0
220
0
230
1
0
LINE
5
10D
100
AcDbEntity
8
SK2
62
256
6
ByLayer
370
13
48
1
60
0
100
AcDbLine
10
63
20
1.5875
30
0
11
63
21
18.209119
31
0
39
0
210
0
220
0
230
1
0
LINE
5
10E
100
AcDbEntity
8
SK2
62
256
6
ByLayer
370
13
48
1
60
0
100
AcDbLine
10
15.43
20
16.209119
30
0
11
63
21
16.209119
31
0
39
0
210
0
220
0
230
1
0
SOLID
5
10F
100
AcDbEntity
8
SK2
62
256
6
ByLayer
370
13
48
1
60
0
100
AcDbTrace
10
15.43
20
16.209119
30
0
11
18.929998
21
16.669903
31
0
12
18.930002
22
15.748335
32
0
13
15.43
23
16.209119
33
0
39
0
210
0
220
0
230
1
0
SOLID
5
110
100
AcDbEntity
8
SK2
62
256
6
ByLayer
370
13
48
1
60
0
100
AcDbTrace
10
63
20
16.209119
30
0
11
59.500002
21
15.748335
31
0
12
59.499998
22
16.669903
32
0
13
63
23
16.209119
33
0
39
0
210
0
220
0
230
1
0
ENDBLK
5
112
100
AcDbEntity
8
0
100
AcDbBlockEnd
0
BLOCK
5
11B
100
AcDbEntity
8
0
100
AcDbBlockBegin
2
DimnDraft3D4
70
0
10
0
20
0
30
0
3
DimnDraft3D4
0
MTEXT
5
115
100
AcDbEntity
8
SK2
62
256
6
ByLayer
370
13
48
1
60
0
100
AcDbMText
10
70.278136
20
-16.527503
30
0
210
0
220
0
230
1
1
\W0.6367;1,57
40
3.5
41
0
44
1.084337
50
0
71
7
72
5
7
iso_b_vert
0
LINE
5
116
100
AcDbEntity
8
SK2
62
256
6
ByLayer
370
13
48
1
60
0
100
AcDbLine
10
63
20
-1.5875
30
0
11
63
21
-19.402503
31
0
39
0
210
0
220
0
230
1
0
LINE
5
117
100
AcDbEntity
8
SK2
62
256
6
ByLayer
370
13
48
1
60
0
100
AcDbLine
10
61.43
20
-6.1875
30
0
11
61.43
21
-19.402503
31
0
39
0
210
0
220
0
230
1
0
LINE
5
118
100
AcDbEntity
8
SK2
62
256
6
ByLayer
370
13
48
1
60
0
100
AcDbLine
10
52.68
20
-17.402503
30
0
11
76.559715
21
-17.402503
31
0
39
0
210
0
220
0
230
1
0
SOLID
5
119
100
AcDbEntity
8
SK2
62
256
6
ByLayer
370
13
48
1
60
0
100
AcDbTrace
10
63
20
-17.402503
30
0
11
66.499998
21
-16.941719
31
0
12
66.500002
22
-17.863287
32
0
13
63
23
-17.402503
33
0
39
0
210
0
220
0
230
1
0
SOLID
5
11A
100
AcDbEntity
8
SK2
62
256
6
ByLayer
370
13
48
1
60
0
100
AcDbTrace
10
61.43
20
-17.402503
30
0
11
57.930002
21
-17.863287
31
0
12
57.929998
22
-16.941719
32
0
13
61.43
23
-17.402503
33
0
39
0
210
0
220
0
230
1
0
ENDBLK
5
11C
100
AcDbEntity
8
0
100
AcDbBlockEnd
0
BLOCK
5
125
100
AcDbEntity
8
0
100
AcDbBlockBegin
2
DimnDraft3D5
70
0
10
0
20
0
30
0
3
DimnDraft3D5
0
MTEXT
5
11F
100
AcDbEntity
8
SK2
62
256
6
ByLayer
370
13
48
1
60
0
100
AcDbMText
10
3.124887
20
-22.468428
30
0
210
0
220
0
230
1
1
\W0.6654;101,43
40
3.5
41
0
44
1.084337
50
0
71
7
72
5
7
iso_b_vert
0
LINE
5
120
100
AcDbEntity
8
SK2
62
256
6
ByLayer
370
13
48
1
60
0
100
AcDbLine
10
-40
20
-6.5875
30
0
11
-40
21
-25.343428
31
0
39
0
210
0
220
0
230
1
0
LINE
5
121
100
AcDbEntity
8
SK2
62
256
6
ByLayer
370
13
48
1
60
0
100
AcDbLine
10
61.43
20
-6.1875
30
0
11
61.43
21
-25.343428
31
0
39
0
210
0
220
0
230
1
0
LINE
5
122
100
AcDbEntity
8
SK2
62
256
6
ByLayer
370
13
48
1
60
0
100
AcDbLine
10
-40
20
-23.343428
30
0
11
61.43
21
-23.343428
31
0
39
0
210
0
220
0
230
1
0
SOLID
5
123
100
AcDbEntity
8
SK2
62
256
6
ByLayer
370
13
48
1
60
0
100
AcDbTrace
10
-40
20
-23.343428
30
0
11
-36.500002
21
-22.882645
31
0
12
-36.499998
22
-23.804212
32
0
13
-40
23
-23.343428
33
0
39
0
210
0
220
0
230
1
0
SOLID
5
124
100
AcDbEntity
8
SK2
62
256
6
ByLayer
370
13
48
1
60
0
100
AcDbTrace
10
61.43
20
-23.343428
30
0
11
57.930002
21
-23.804212
31
0
12
57.929998
22
-22.882645
32
0
13
61.43
23
-23.343428
33
0
39
0
210
0
220
0
230
1
0
ENDBLK
5
126
100
AcDbEntity
8
0
100
AcDbBlockEnd
0
BLOCK
5
130
100
AcDbEntity
8
0
100
AcDbBlockBegin
2
DimnDraft3D6
70
0
10
0
20
0
30
0
3
DimnDraft3D6
0
MTEXT
5
129
100
AcDbEntity
8
SK2
62
256
6
ByLayer
370
13
48
1
60
0
100
AcDbMText
10
-50.375163
20
24.34918
30
0
210
0
220
0
230
1
1
\W0.6930;10,000
40
3.5
41
0
44
1.084337
50
90
71
7
72
5
7
iso_b_vert
0
MTEXT
5
12A
100
AcDbEntity
8
SK2
62
256
6
ByLayer
370
13
48
1
60
0
100
AcDbMText
10
-50.375163
20
19.126524
30
0
210
0
220
0
230
1
1
%%c
40
3.5
41
0
44
1.084337
50
90
71
7
72
5
7
iso_b_vert
0
LINE
5
12B
100
AcDbEntity
8
SK2
62
256
6
ByLayer
370
13
48
1
60
0
100
AcDbLine
10
-41.5875
20
-5
30
0
11
-50.625163
21
-5
31
0
39
0
210
0
220
0
230
1
0
LINE
5
12C
100
AcDbEntity
8
SK2
62
256
6
ByLayer
370
13
48
1
60
0
100
AcDbLine
10
-41.5875
20
5
30
0
11
-50.625163
21
5
31
0
39
0
210
0
220
0
230
1
0
LINE
5
12D
100
AcDbEntity
8
SK2
62
256
6
ByLayer
370
13
48
1
60
0
100
AcDbLine
10
-48.625163
20
-5
30
0
11
-48.625163
21
35.862338
31
0
39
0
210
0
220
0
230
1
0
SOLID
5
12E
100
AcDbEntity
8
SK2
62
256
6
ByLayer
370
13
48
1
60
0
100
AcDbTrace
10
-48.625163
20
-5
30
0
11
-49.085946
21
-1.500002
31
0
12
-48.164379
22
-1.499998
32
0
13
-48.625163
23
-5
33
0
39
0
210
0
220
0
230
1
0
SOLID
5
12F
100
AcDbEntity
8
SK2
62
256
6
ByLayer
370
13
48
1
60
0
100
AcDbTrace
10
-48.625163
20
5
30
0
11
-48.164379
21
1.500002
31
0
12
-49.085946
22
1.499998
32
0
13
-48.625163
23
5
33
0
39
0
210
0
220
0
230
1
0
ENDBLK
5
131
100
AcDbEntity
8
0
100
AcDbBlockEnd
0
BLOCK
5
13B
100
AcDbEntity
8
0
100
AcDbBlockBegin
2
DimnDraft3D7
70
0
10
0
20
0
30
0
3
DimnDraft3D7
0
MTEXT
5
134
100
AcDbEntity
8
2
62
256
6
ByLayer
370
13
48
1
60
0
100
AcDbMText
10
73.333343
20
22.542266
30
0
210
0
220
0
230
1
1
\W0.7317;9,200
40
3.5
41
0
44
1.084337
50
90
71
7
72
5
7
iso_b_vert
0
MTEXT
5
135
100
AcDbEntity
8
2
62
256
6
ByLayer
370
13
48
1
60
0
100
AcDbMText
10
73.333343
20
17.31961
30
0
210
0
220
0
230
1
1
%%c
40
3.5
41
0
44
1.084337
50
90
71
7
72
5
7
iso_b_vert
0
LINE
5
136
100
AcDbEntity
8
2
62
256
6
ByLayer
370
13
48
1
60
0
100
AcDbLine
10
63.0175
20
-4.6
30
0
11
77.083343
21
-4.6
31
0
39
0
210
0
220
0
230
1
0
LINE
5
137
100
AcDbEntity
8
2
62
256
6
ByLayer
370
13
48
1
60
0
100
AcDbLine
10
63.0175
20
4.6
30
0
11
77.083343
21
4.6
31
0
39
0
210
0
220
0
230
1
0
LINE
5
138
100
AcDbEntity
8
2
62
256
6
ByLayer
370
13
48
1
60
0
100
AcDbLine
10
75.083343
20
-4.6
30
0
11
75.083343
21
32.314635
31
0
39
0
210
0
220
0
230
1
0
SOLID
5
139
100
AcDbEntity
8
2
62
256
6
ByLayer
370
13
48
1
60
0
100
AcDbTrace
10
75.083343
20
-4.6
30
0
11
74.622559
21
-1.100002
31
0
12
75.544126
22
-1.099998
32
0
13
75.083343
23
-4.6
33
0
39
0
210
0
220
0
230
1
0
SOLID
5
13A
100
AcDbEntity
8
2
62
256
6
ByLayer
370
13
48
1
60
0
100
AcDbTrace
10
75.083343
20
4.6
30
0
11
75.544126
21
1.100002
31
0
12
74.622559
22
1.099998
32
0
13
75.083343
23
4.6
33
0
39
0
210
0
220
0
230
1
0
ENDBLK
5
13C
100
AcDbEntity
8
0
100
AcDbBlockEnd
0
ENDSEC
0
SECTION
2
ENTITIES
0
ARC
5
A1
100
AcDbEntity
8
1
62
256
6
ByLayer
370
18
48
1
60
0
100
AcDbCircle
39
0
10
0
20
4.2
30
0
40
0.800000000000002
210
0
220
0
230
1
100
AcDbArc
50
46.665119
51
90
0
ARC
5
A2
100
AcDbEntity
8
1
62
256
6
ByLayer
370
18
48
1
60
0
100
AcDbCircle
39
0
10
-1.098018
20
-5.363768
30
0
40
0.799999999999997
210
0
220
0
230
-1
100
AcDbArc
50
46.665119
51
90.034377
0
ARC
5
A3
100
AcDbEntity
8
1
62
256
6
ByLayer
370
18
48
1
60
0
100
AcDbCircle
39
0
10
0
20
-4.2
30
0
40
0.800000000000002
210
0
220
0
230
1
100
AcDbArc
50
270
51
313.334881
0
ARC
5
A4
100
AcDbEntity
8
1
62
256
6
ByLayer
370
18
48
1
60
0
100
AcDbCircle
39
0
10
-1.098018
20
5.363768
30
0
40
0.799999999999997
210
0
220
0
230
-1
100
AcDbArc
50
269.965623
51
313.334881
0
ELLIPSE
5
A5
100
AcDbEntity
8
1
62
256
6
ByLayer
370
13
48
1
60
0
100
AcDbEllipse
10
62.599427
20
2.223963
30
0
11
2.6366505549602
21
-1.41363833842238
31
0
210
0
220
0
230
-1
40
0.499463
41
1.53538643614916
42
1.86149401992228
0
ELLIPSE
5
A6
100
AcDbEntity
8
1
62
256
6
ByLayer
370
18
48
1
60
0
100
AcDbEllipse
10
63.033235
20
-0.025025
30
0
11
0.140634104942637
21
0.431000092614853
31
0
210
0
220
0
230
-1
40
0.07518
41
-2.31001430905452
42
-1.6415567799368
0
ELLIPSE
5
A7
100
AcDbEntity
8
1
62
256
6
ByLayer
370
13
48
1
60
0
100
AcDbEllipse
10
4.176445
20
-3.097953
30
0
11
0.00086656396007161
21
0.0999962452640253
31
0
210
0
220
0
230
1
40
0.618942
41
0.928439786504786
42
2.24115356424393
0
ELLIPSE
5
A8
100
AcDbEntity
8
1
62
256
6
ByLayer
370
18
48
1
60
0
100
AcDbEllipse
10
63.0004
20
-0.001005
30
0
11
1.69216056325669
21
-4.59788090292947
31
0
210
0
220
0
230
-1
40
0.098637
41
-2.97785619321802
42
-2.8782171456148
0
ELLIPSE
5
A9
100
AcDbEntity
8
1
62
256
6
ByLayer
370
18
48
1
60
0
100
AcDbEllipse
10
63.033235
20
0.025025
30
0
11
0.140634104941922
21
-0.431000092614053
31
0
210
0
220
0
230
-1
40
0.07518
41
1.641556779923
42
2.31001430903835
0
ELLIPSE
5
AA
100
AcDbEntity
8
1
62
256
6
ByLayer
370
18
48
1
60
0
100
AcDbEllipse
10
62.125782
20
2.223963
30
0
11
0.710566952742692
21
-1.93072826921867
31
0
210
0
220
0
230
-1
40
0.098637
41
-1.53837934466001
42
-0.749112684719729
0
ELLIPSE
5
AB
100
AcDbEntity
8
1
62
256
6
ByLayer
370
18
48
1
60
0
100
AcDbEllipse
10
63.0004
20
0.001005
30
0
11
1.69216055351028
21
4.59788087461623
31
0
210
0
220
0
230
-1
40
0.098637
41
2.8782171447985
42
2.97785619271316
0
ELLIPSE
5
AC
100
AcDbEntity
8
1
62
256
6
ByLayer
370
18
48
1
60
0
100
AcDbEllipse
10
62.860074
20
0.127768
30
0
11
0.0727819104935171
21
0.301917195710839
31
0
210
0
220
0
230
-1
40
0.478434
41
1.73195532722737
42
2.45976119972695
0
ELLIPSE
5
AD
100
AcDbEntity
8
1
62
256
6
ByLayer
370
13
48
1
60
0
100
AcDbEllipse
10
61.987153
20
0.6457
30
0
11
0.153082081612417
21
0.258003636193774
31
0
210
0
220
0
230
1
40
0.454519
41
0.917105603404794
42
2.31336900500031
0
ELLIPSE
5
AE
100
AcDbEntity
8
1
62
256
6
ByLayer
370
13
48
1
60
0
100
AcDbEllipse
10
4.250207
20
-3.11403
30
0
11
0.0372707189203111
21
0.0927949002432955
31
0
210
0
220
0
230
1
40
0.340734
41
0.864439581493042
42
2.41873964111087
0
ELLIPSE
5
AF
100
AcDbEntity
8
1
62
256
6
ByLayer
370
18
48
1
60
0
100
AcDbEllipse
10
62.125782
20
-2.223963
30
0
11
0.710566952720103
21
1.93072826916859
31
0
210
0
220
0
230
-1
40
0.098637
41
0.749112684720846
42
1.53837934467947
0
ELLIPSE
5
B0
100
AcDbEntity
8
1
62
256
6
ByLayer
370
13
48
1
60
0
100
AcDbEllipse
10
62.40952
20
2.100765
30
0
11
2.5620114008651
21
-1.76401770381817
31
0
210
0
220
0
230
-1
40
0.533762
41
1.44484622740979
42
1.7467656538758
0
ELLIPSE
5
B1
100
AcDbEntity
8
SK1
62
256
6
ByLayer
370
18
48
1
60
0
100
AcDbEllipse
10
80.226886
20
0
30
0
11
143.181243273234
21
-2.82588485056146
31
0
210
0
220
0
230
-1
40
0.028809
41
2.29163479857755
42
2.47697289974424
0
ELLIPSE
5
B2
100
AcDbEntity
8
SK1
62
256
6
ByLayer
370
18
48
1
60
0
100
AcDbEllipse
10
-29.337425
20
0
30
0
11
4.00831715927445
21
-4.53527403456321
31
0
210
0
220
0
230
-1
40
0.525174
41
2.07715842522777
42
3.13371528103045
0
ELLIPSE
5
B3
100
AcDbEntity
8
SK1
62
256
6
ByLayer
370
18
48
1
60
0
100
AcDbEllipse
10
80.226886
20
0
30
0
11
143.181243273118
21
-2.82588485065356
31
0
210
0
220
0
230
-1
40
0.028809
41
-2.4781100560122
42
-2.2927719548454
0
ELLIPSE
5
B4
100
AcDbEntity
8
SK1
62
256
6
ByLayer
370
18
48
1
60
0
100
AcDbEllipse
10
-17.361844
20
0
30
0
11
4.86348596605291
21
4.29839390146109
31
0
210
0
220
0
230
-1
40
0.525174
41
-0.32553336417543
42
1.19465606325455
0
POINT
5
6C
100
AcDbEntity
8
81
62
256
6
ByLayer
370
18
48
1
60
0
100
AcDbPoint
10
63
20
0
30
0
39
0
210
0
220
0
230
1
50
360
0
POINT
5
6E
100
AcDbEntity
8
80
62
256
6
ByLayer
370
18
48
1
60
0
100
AcDbPoint
10
0
20
0
30
0
39
0
210
0
220
0
230
1
50
360
0
POINT
5
70
100
AcDbEntity
8
SK2
62
256
6
ByLayer
370
18
48
1
60
1
100
AcDbPoint
10
-40
20
-5
30
0
39
0
210
0
220
0
230
1
50
360
0
POINT
5
72
100
AcDbEntity
8
SK2
62
256
6
ByLayer
370
18
48
1
60
1
100
AcDbPoint
10
-40
20
5
30
0
39
0
210
0
220
0
230
1
50
360
0
POINT
5
73
100
AcDbEntity
8
2
62
256
6
ByLayer
370
18
48
1
60
1
100
AcDbPoint
10
61.43
20
-4.6
30
0
39
0
210
0
220
0
230
1
50
360
0
POINT
5
75
100
AcDbEntity
8
2
62
256
6
ByLayer
370
18
48
1
60
1
100
AcDbPoint
10
61.43
20
4.6
30
0
39
0
210
0
220
0
230
1
50
360
0
SPLINE
5
B5
100
AcDbEntity
8
1
62
256
6
ByLayer
370
18
48
1
60
0
100
AcDbSpline
70
4
71
3
72
12
73
8
40
0
40
0
40
0
40
0
40
0.0833252116494478
40
0.17914471415284
40
0.332923852784733
40
0.615748947015519
40
1
40
1
40
1
40
1
41
1
10
49.0997853925494
20
-1.10565096763691
30
0
41
1
10
49.0996595553921
20
-1.10564776626376
30
0
41
1
10
49.1030840573295
20
-1.10745956507668
30
0
41
1
10
49.1255040024927
20
-1.11894571299297
30
0
41
1
10
49.1728249972965
20
-1.14360603188172
30
0
41
1
10
49.2402538574433
20
-1.17879890878237
30
0
41
1
10
49.3022324148788
20
-1.21271593274932
30
0
41
1
10
49.3389289000341
20
-1.23314513406965
30
0
0
SPLINE
5
B6
100
AcDbEntity
8
1
62
256
6
ByLayer
370
18
48
1
60
0
100
AcDbSpline
70
4
71
3
72
31
73
27
40
0
40
0
40
0
40
0
40
0.0150401536384375
40
0.0742021732846621
40
0.119281489204531
40
0.156021957558101
40
0.185792649410516
40
0.226427896422923
40
0.278996114568017
40
0.32863584204565
40
0.369512403785204
40
0.417339788367357
40
0.475079646117189
40
0.521776143093955
40
0.563306467357246
40
0.607168708740021
40
0.652758180694675
40
0.68442858288544
40
0.709311876270092
40
0.747714817723928
40
0.795780697602436
40
0.83564135343453
40
0.874623620002938
40
0.924762836514801
40
0.979480426543566
40
1
40
1
40
1
40
1
41
1
10
48.1103544435535
20
4.38219269081912
30
0
41
1
10
48.0584501491948
20
4.38218555266539
30
0
41
1
10
47.8023611730375
20
4.38215864633489
30
0
41
1
10
47.3853597945426
20
4.38089317089413
30
0
41
1
10
46.903194968348
20
4.38218945780449
30
0
41
1
10
46.5179480627202
20
4.38234341833208
30
0
41
1
10
46.1456406184817
20
4.38261765827974
30
0
41
1
10
45.720310854858
20
4.3814032114922
30
0
41
1
10
45.2242695102106
20
4.3805739840862
30
0
41
1
10
44.7276401515796
20
4.38117406445417
30
0
41
1
10
44.2486757082776
20
4.38093949682721
30
0
41
1
10
43.7401296177052
20
4.37949538111857
30
0
41
1
10
43.2124606995213
20
4.37999702506318
30
0
41
1
10
42.7058965202141
20
4.38040064191881
30
0
41
1
10
42.2476559421352
20
4.3795850843145
30
0
41
1
10
41.7931578311026
20
4.37888385698017
30
0
41
1
10
41.3729332785889
20
4.37911200729195
30
0
41
1
10
41.0185417600518
20
4.37919285062048
30
0
41
1
10
40.6890700078876
20
4.37897683227388
30
0
41
1
10
40.302934886617
20
4.3780424821054
30
0
41
1
10
39.8651373748684
20
4.37826394944565
30
0
41
1
10
39.4243972236764
20
4.37832621478765
30
0
41
1
10
38.9780319940987
20
4.37818935125944
30
0
41
1
10
38.4787168546232
20
4.3771523518221
30
0
41
1
10
38.0437640029144
20
4.37736105172533
30
0
41
1
10
37.7826971947815
20
4.37723970047617
30
0
41
1
10
37.7115335296078
20
4.37719559596334
30
0
0
SPLINE
5
B7
100
AcDbEntity
8
1
62
256
6
ByLayer
370
18
48
1
60
0
100
AcDbSpline
70
4
71
3
72
31
73
27
40
0
40
0
40
0
40
0
40
0.0638872162486406
40
0.114138430856865
40
0.148211418230098
40
0.177983342833862
40
0.204993356779855
40
0.256235265522467
40
0.311012318588034
40
0.365822898904956
40
0.414695256796534
40
0.45843802006861
40
0.509264611320917
40
0.563223831683161
40
0.604950352643693
40
0.648768978470644
40
0.701920365834966
40
0.745196730044235
40
0.780019332455786
40
0.822246284992775
40
0.861753814605538
40
0.878333909548294
40
0.895031175057067
40
0.921025860273133
40
0.957291917275295
40
1
40
1
40
1
40
1
41
1
10
35.5909600587387
20
-4.37561933505614
30
0
41
1
10
35.854744364167
20
-4.37579747897567
30
0
41
1
10
36.3259772401982
20
-4.37615465901968
30
0
41
1
10
36.9382903899211
20
-4.37638449663234
30
0
41
1
10
37.4089899428102
20
-4.37703163750083
30
0
41
1
10
37.7840817954028
20
-4.37726497759885
30
0
41
1
10
38.2302470814769
20
-4.37730934704342
30
0
41
1
10
38.7796279003002
20
-4.37761828152733
30
0
41
1
10
39.4438432340623
20
-4.37874663949572
30
0
41
1
10
40.0982602763494
20
-4.37787128064644
30
0
41
1
10
40.70711835714
20
-4.37908129009045
30
0
41
1
10
41.2995210274107
20
-4.37921598892487
30
0
41
1
10
41.9129312119876
20
-4.37876456147262
30
0
41
1
10
42.5180148261045
20
-4.38037712783535
30
0
41
1
10
43.0941564123859
20
-4.38014700094473
30
0
41
1
10
43.6669601533025
20
-4.37954851093795
30
0
41
1
10
44.2461647021037
20
-4.38118405885055
30
0
41
1
10
44.7882183692669
20
-4.38106853258958
30
0
41
1
10
45.2851556166141
20
-4.38062702124617
30
0
41
1
10
45.766519585336
20
-4.38154409257479
30
0
41
1
10
46.1725479450946
20
-4.38263931230514
30
0
41
1
10
46.4731153204422
20
-4.38248400816414
30
0
41
1
10
46.7178587082584
20
-4.38223091689161
30
0
41
1
10
47.0439405790898
20
-4.38182430277848
30
0
41
1
10
47.4774598243069
20
-4.38216693472657
30
0
41
1
10
47.8036041439529
20
-4.38245287706539
30
0
41
1
10
47.9799763762038
20
-4.38269072523355
30
0
0
SPLINE
5
B8
100
AcDbEntity
8
1
62
256
6
ByLayer
370
18
48
1
60
0
100
AcDbSpline
70
4
71
3
72
30
73
26
40
0
40
0
40
0
40
0
40
0.0154601291119392
40
0.0750024542825453
40
0.120397667094437
40
0.157397930980026
40
0.187389011531707
40
0.228257020725488
40
0.281142581947526
40
0.331001541705785
40
0.372064369015915
40
0.420312526574751
40
0.478303715390275
40
0.524920207500838
40
0.566916072190121
40
0.619736303237951
40
0.668797087658159
40
0.699220915679566
40
0.73801329004401
40
0.793537818462003
40
0.840730115100118
40
0.880150320165096
40
0.931250583817551
40
0.986122860414039
40
1
40
1
40
1
40
1
41
1
10
23.1075906297672
20
4.36909912262655
30
0
41
1
10
23.054577034907
20
4.36895750224707
30
0
41
1
10
22.7973798532304
20
4.36838337237577
30
0
41
1
10
22.379471582648
20
4.36771676931275
30
0
41
1
10
21.8969878799698
20
4.36967861572049
30
0
41
1
10
21.511717277447
20
4.36894248282158
30
0
41
1
10
21.1393942008471
20
4.36779114936783
30
0
41
1
10
20.7143096200853
20
4.36763077089165
30
0
41
1
10
20.2189291068745
20
4.3682821452754
30
0
41
1
10
19.7231442557372
20
4.36794870797033
30
0
41
1
10
19.2445230607941
20
4.36619195170752
30
0
41
1
10
18.7364293554019
20
4.36626146122484
30
0
41
1
10
18.2102802093975
20
4.36772047776802
30
0
41
1
10
17.7049145347233
20
4.36585247930071
30
0
41
1
10
17.217552688504
20
4.3651657069743
30
0
41
1
10
16.721653955262
20
4.36563934262426
30
0
41
1
10
16.2657283572605
20
4.36559189214501
30
0
41
1
10
15.8580785969538
20
4.36447868163239
30
0
41
1
10
15.4282643346406
20
4.36419027111791
30
0
41
1
10
14.9412909044771
20
4.36424968067541
30
0
41
1
10
14.4508904506799
20
4.36387685701524
30
0
41
1
10
13.9775554211027
20
4.36313386564154
30
0
41
1
10
13.4761820459998
20
4.36292570964656
30
0
41
1
10
13.063205025043
20
4.36260109415295
30
0
41
1
10
12.8262532286899
20
4.36237827011581
30
0
41
1
10
12.7784369583441
20
4.36233262027883
30
0
0
SPLINE
5
B9
100
AcDbEntity
8
1
62
256
6
ByLayer
370
18
48
1
60
0
100
AcDbSpline
70
4
71
3
72
31
73
27
40
0
40
0
40
0
40
0
40
0.0637195951094692
40
0.113591949446342
40
0.147608420434093
40
0.177422250062518
40
0.204807613892065
40
0.255811277722059
40
0.309509840363067
40
0.365149254481514
40
0.413719032320453
40
0.457710790071115
40
0.508566244240482
40
0.562233184963485
40
0.604623668341533
40
0.648499182760119
40
0.701624822557932
40
0.745066861079472
40
0.779943067213985
40
0.822375286190895
40
0.861968505541826
40
0.878466615059544
40
0.895070043501216
40
0.920955202076097
40
0.957093370436038
40
1
40
1
40
1
40
1
41
1
10
10.5809504388347
20
-4.36064949204649
30
0
41
1
10
10.8441824118856
20
-4.36089768911898
30
0
41
1
10
11.313406009679
20
-4.36130489554944
30
0
41
1
10
11.9235106061679
20
-4.36165589357512
30
0
41
1
10
12.392843424157
20
-4.3620048375671
30
0
41
1
10
12.7695926178935
20
-4.36230837948938
30
0
41
1
10
13.2167256764107
20
-4.36277467254197
30
0
41
1
10
13.7624852040706
20
-4.36290806556167
30
0
41
1
10
14.4250159124785
20
-4.36399560584636
30
0
41
1
10
15.0774757914489
20
-4.36438225250882
30
0
41
1
10
15.6898423782513
20
-4.36406455885253
30
0
41
1
10
16.2824365353561
20
-4.3657789508697
30
0
41
1
10
16.8960930088265
20
-4.3654670343262
30
0
41
1
10
17.5031357983001
20
-4.36509631118273
30
0
41
1
10
18.0813315335113
20
-4.36758693627303
30
0
41
1
10
18.6572946293041
20
-4.3666014471587
30
0
41
1
10
19.2376028848188
20
-4.36611503034047
30
0
41
1
10
19.780723273234
20
-4.36821938457675
30
0
41
1
10
20.2796635001362
20
-4.36814638929542
30
0
41
1
10
20.7626916131422
20
-4.36756906832176
30
0
41
1
10
21.1697838575788
20
-4.36794242920666
30
0
41
1
10
21.4701331422344
20
-4.36887773202614
30
0
41
1
10
21.7138171228062
20
-4.36938926419998
30
0
41
1
10
22.0386882558844
20
-4.36917938538849
30
0
41
1
10
22.4722608091371
20
-4.36864443836274
30
0
41
1
10
22.7988603415591
20
-4.36905924850197
30
0
41
1
10
22.9761420292967
20
-4.36942715422964
30
0
0
SPLINE
5
BA
100
AcDbEntity
8
1
62
256
6
ByLayer
370
18
48
1
60
0
100
AcDbSpline
70
4
71
2
72
6
73
3
40
0
40
0
40
0
40
1
40
1
40
1
41
1
10
60.5966387282064
20
-4.39062274103142
30
0
41
1
10
60.9988850395363
20
-4.38868547666883
30
0
41
1
10
61.4008997980235
20
-4.39243354912333
30
0
0
SPLINE
5
BB
100
AcDbEntity
8
1
62
256
6
ByLayer
370
18
48
1
60
0
100
AcDbSpline
70
4
71
3
72
12
73
8
40
0
40
0
40
0
40
0
40
0.0224050765673567
40
0.124105350020296
40
0.263895212254665
40
0.653970437600968
40
1
40
1
40
1
40
1
41
1
10
24.1217281419788
20
-1.11536176723033
30
0
41
1
10
24.1216368367818
20
-1.11532280482763
30
0
41
1
10
24.1215486715735
20
-1.11532049794124
30
0
41
1
10
24.1273707652093
20
-1.11838070855981
30
0
41
1
10
24.1563450953387
20
-1.13372620587197
30
0
41
1
10
24.2121240925092
20
-1.1640253157918
30
0
41
1
10
24.2678598331798
20
-1.19506609811165
30
0
41
1
10
24.2967333915825
20
-1.21126915185275
30
0
0
SPLINE
5
BC
100
AcDbEntity
8
1
62
256
6
ByLayer
370
18
48
1
60
0
100
AcDbSpline
70
4
71
3
72
16
73
12
40
0
40
0
40
0
40
0
40
0.585036655546043
40
0.585036655546043
40
0.778312572306524
40
0.778312572306524
40
0.874950530686768
40
0.874950530686768
40
0.971588489067011
40
0.971588489067011
40
1
40
1
40
1
40
1
41
1
10
60.5937672745104
20
-4.39060599288939
30
0
41
1
10
59.6927381692705
20
-4.39011232176372
30
0
41
1
10
58.7981919290581
20
-4.30492353652326
30
0
41
1
10
57.6019726792184
20
-4.08513314869489
30
0
41
1
10
57.304388749182
20
-4.02178798173463
30
0
41
1
10
56.8565123950603
20
-3.91390922023081
30
0
41
1
10
56.7069694018791
20
-3.87580875972446
30
0
41
1
10
56.407269063586
20
-3.79537463757597
30
0
41
1
10
56.2569477778786
20
-3.752986971637
30
0
41
1
10
56.0630507957134
20
-3.69575744687631
30
0
41
1
10
56.0190237933444
20
-3.68259224268036
30
0
41
1
10
55.9750221865142
20
-3.66926650545204
30
0
0
SPLINE
5
BD
100
AcDbEntity
8
1
62
256
6
ByLayer
370
13
48
1
60
0
100
AcDbSpline
70
4
71
3
72
24
73
20
40
0
40
0
40
0
40
0
40
0.140901842963681
40
0.140901842963681
40
0.292981523216058
40
0.292981523216058
40
0.445061203468434
40
0.445061203468434
40
0.597140883720811
40
0.597140883720811
40
0.749220563973188
40
0.749220563973188
40
0.901300244225565
40
0.901300244225565
40
0.939320164288658
40
0.939320164288658
40
0.977340084351751
40
0.977340084351751
40
1
40
1
40
1
40
1
41
1
10
55.9750221864969
20
-3.66926650544681
30
0
41
1
10
55.4203614469979
20
-3.5012893837482
30
0
41
1
10
54.8697360017838
20
-3.30780392248224
30
0
41
1
10
53.7272909616995
20
-2.86076845793849
30
0
41
1
10
53.1356108057615
20
-2.60368829128581
30
0
41
1
10
51.9487867233083
20
-2.04837576709886
30
0
41
1
10
51.3531257684034
20
-1.75033329985536
30
0
41
1
10
50.1517592709493
20
-1.12504965559529
30
0
41
1
10
49.5563061987289
20
-0.803200794210653
30
0
41
1
10
48.3695515690943
20
-0.152775648720478
30
0
41
1
10
47.777746400421
20
0.174863179131535
30
0
41
1
10
46.5914744719419
20
0.824243682589014
30
0
41
1
10
45.9965210600754
20
1.14508172583825
30
0
41
1
10
45.2468802799048
20
1.53450221723563
30
0
41
1
10
45.0965606846755
20
1.61181606764563
30
0
41
1
10
44.7969262599805
20
1.76404465105833
30
0
41
1
10
44.6474000445449
20
1.83908293964649
30
0
41
1
10
44.4091315116258
20
1.956992033163
30
0
41
1
10
44.3202371770787
20
2.00060828125399
30
0
41
1
10
44.2314186266198
20
2.04380318413578
30
0
0
SPLINE
5
BE
100
AcDbEntity
8
1
62
256
6
ByLayer
370
18
48
1
60
0
100
AcDbSpline
70
4
71
3
72
18
73
14
40
0
40
0
40
0
40
0
40
0.182107400114766
40
0.182107400114766
40
0.34994919752092
40
0.34994919752092
40
0.433870096223997
40
0.433870096223997
40
0.517790994927073
40
0.517790994927073
40
0.853474589739382
40
0.853474589739382
40
1
40
1
40
1
40
1
41
1
10
10.5993390932322
20
-4.36066971547152
30
0
41
1
10
10.2772029983368
20
-4.36057446675767
30
0
41
1
10
9.95465020358304
20
-4.34975811851103
30
0
41
1
10
9.33294551048428
20
-4.30822441252627
30
0
41
1
10
9.03394754452989
20
-4.27912997920495
30
0
41
1
10
8.58365397305289
20
-4.22170428556063
30
0
41
1
10
8.43315493249071
20
-4.20024145175572
30
0
41
1
10
8.13302015727803
20
-4.15298150955914
30
0
41
1
10
7.98319691033646
20
-4.12716381010077
30
0
41
1
10
7.23500102537355
20
-3.98735368020962
30
0
41
1
10
6.6394900924318
20
-3.84118490028826
30
0
41
1
10
5.78327555279566
20
-3.58711822321979
30
0
41
1
10
5.52299335887591
20
-3.50406410178439
30
0
41
1
10
5.26233168200204
20
-3.41537087321956
30
0
0
SPLINE
5
BF
100
AcDbEntity
8
1
62
256
6
ByLayer
370
13
48
1
60
0
100
AcDbSpline
70
4
71
3
72
8
73
4
40
0
40
0
40
0
40
0
40
1
40
1
40
1
40
1
41
1
10
5.26233168142994
20
-3.41537087302487
30
0
41
1
10
4.92582834413082
20
-3.30087161955367
30
0
41
1
10
4.58869257072746
20
-3.17697438152544
30
0
41
1
10
4.25034541420902
20
-3.04413868346165
30
0
0
SPLINE
5
C0
100
AcDbEntity
8
1
62
256
6
ByLayer
370
13
48
1
60
0
100
AcDbSpline
70
4
71
3
72
8
73
4
40
0
40
0
40
0
40
0
40
1
40
1
40
1
40
1
41
1
10
4.1274081782054
20
-3.15965661620208
30
0
41
1
10
4.15057418359339
20
-3.15971908274861
30
0
41
1
10
4.17555216921221
20
-3.16506406055169
30
0
41
1
10
4.20134081667362
20
-3.17521747375093
30
0
0
SPLINE
5
C1
100
AcDbEntity
8
1
62
256
6
ByLayer
370
18
48
1
60
0
100
AcDbSpline
70
4
71
3
72
16
73
12
40
0
40
0
40
0
40
0
40
0.213304391174428
40
0.213304391174428
40
0.380861789753157
40
0.380861789753157
40
0.548419188331885
40
0.548419188331885
40
0.883533985489343
40
0.883533985489343
40
1
40
1
40
1
40
1
41
1
10
35.8188108515821
20
-4.37402131812451
30
0
41
1
10
35.440644311674
20
-4.37967193704225
30
0
41
1
10
35.0616086265735
20
-4.37052069927523
30
0
41
1
10
34.3817285614276
20
-4.32730863564743
30
0
41
1
10
34.081021201559
20
-4.29891433099311
30
0
41
1
10
33.4803443786804
20
-4.22396175535982
30
0
41
1
10
33.1801420500457
20
-4.17742099547169
30
0
41
1
10
32.2786816196947
20
-4.01111375310265
30
0
41
1
10
31.6794395167539
20
-3.86535814630034
30
0
41
1
10
30.8704732982666
20
-3.6260018832474
30
0
41
1
10
30.6615033194136
20
-3.56034621406357
30
0
41
1
10
30.4529749831902
20
-3.49126709827104
30
0
0
SPLINE
5
C2
100
AcDbEntity
8
1
62
256
6
ByLayer
370
13
48
1
60
0
100
AcDbSpline
70
4
71
3
72
26
73
22
40
0
40
0
40
0
40
0
40
0.0241712773675441
40
0.0241712773675441
40
0.103442497604241
40
0.103442497604241
40
0.420527378551025
40
0.420527378551025
40
0.49979859878772
40
0.49979859878772
40
0.579069819024415
40
0.579069819024415
40
0.737612259497805
40
0.737612259497805
40
0.896154699971196
40
0.896154699971196
40
0.935790310089544
40
0.935790310089544
40
0.975425920207892
40
0.975425920207892
40
1
40
1
40
1
40
1
41
1
10
30.4529749830121
20
-3.49126709821212
30
0
41
1
10
30.3614976421509
20
-3.46096342852206
30
0
41
1
10
30.2701052913024
20
-3.43000094840193
30
0
41
1
10
29.8796290848153
20
-3.29485646618292
30
0
41
1
10
29.5815232050776
20
-3.18444281666629
30
0
41
1
10
28.0941738325934
20
-2.60156860658913
30
0
41
1
10
26.9143341667975
20
-2.03687938295121
30
0
41
1
10
25.4188171215874
20
-1.2592054838756
30
0
41
1
10
25.1177593390761
20
-1.09970568580914
30
0
41
1
10
24.5184368355904
20
-0.778401174880969
30
0
41
1
10
24.2199680167583
20
-0.616342169895233
30
0
41
1
10
23.3267790074314
20
-0.128463003384496
30
0
41
1
10
22.7341007842857
20
0.198729219113545
30
0
41
1
10
21.5479031280825
20
0.84510883808889
30
0
41
1
10
20.9542483067208
20
1.16405669807503
30
0
41
1
10
20.2073425100464
20
1.54976493391126
30
0
41
1
10
20.057716374199
20
1.62625188366135
30
0
41
1
10
19.7578508714414
20
1.77769195323339
30
0
41
1
10
19.6073917354848
20
1.85275217972992
30
0
41
1
10
19.364252471915
20
1.97238588917614
30
0
41
1
10
19.2713209148036
20
2.01771746112507
30
0
41
1
10
19.178496893971
20
2.06257499200404
30
0
0
SPLINE
5
C3
100
AcDbEntity
8
1
62
256
6
ByLayer
370
18
48
1
60
0
100
AcDbSpline
70
4
71
3
72
48
73
44
40
0
40
0
40
0
40
0
40
0.0343854968374284
40
0.0343854968374284
40
0.0687709936748568
40
0.0687709936748568
40
0.137541987349715
40
0.137541987349715
40
0.171927484187144
40
0.171927484187144
40
0.206312981024573
40
0.206312981024573
40
0.275083974699432
40
0.275083974699432
40
0.343854968374291
40
0.343854968374291
40
0.361047716793006
40
0.361047716793006
40
0.37824046521172
40
0.37824046521172
40
0.412625962049148
40
0.412625962049148
40
0.481396955724004
40
0.481396955724004
40
0.550167949398859
40
0.550167949398859
40
0.584553446236287
40
0.584553446236287
40
0.618938943073714
40
0.618938943073714
40
0.687709936748568
40
0.687709936748568
40
0.756480930423423
40
0.756480930423423
40
0.79086642726085
40
0.79086642726085
40
0.825251924098276
40
0.825251924098276
40
0.96279391144798
40
0.96279391144798
40
0.997179408285407
40
0.997179408285407
40
1
40
1
40
1
40
1
41
1
10
61.4047986970593
20
-4.56258721734392
30
0
41
1
10
61.104744717095
20
-4.58451873907993
30
0
41
1
10
60.8048929398005
20
-4.59662991161508
30
0
41
1
10
60.2047787285076
20
-4.60124710512278
30
0
41
1
10
59.9042193763828
20
-4.59373321323093
30
0
41
1
10
59.0027242907949
20
-4.54180387530147
30
0
41
1
10
58.4042213990526
20
-4.46824495560639
30
0
41
1
10
57.5047349648302
20
-4.30177500434621
30
0
41
1
10
57.2039984226633
20
-4.23679225669338
30
0
41
1
10
56.6037039570604
20
-4.08930962877582
30
0
41
1
10
56.3048441960419
20
-4.00703366022179
30
0
41
1
10
55.4107588220799
20
-3.73628441179662
30
0
41
1
10
54.818043233244
20
-3.52386477237246
30
0
41
1
10
53.6318262895363
20
-3.04420831374364
30
0
41
1
10
53.0382817811625
20
-2.77706155363373
30
0
41
1
10
52.2915768529408
20
-2.41397453814068
30
0
41
1
10
52.1419794128277
20
-2.33992411692651
30
0
41
1
10
51.8421301699266
20
-2.18914088451788
30
0
41
1
10
51.6916464794191
20
-2.11227953715883
30
0
41
1
10
51.2412573776403
20
-1.87903440107894
30
0
41
1
10
50.942297356656
20
-1.71995249026287
30
0
41
1
10
50.04789532511
20
-1.23444209798154
30
0
41
1
10
49.4550022852576
20
-0.899632586882888
30
0
41
1
10
48.2691086227826
20
-0.21971889328438
30
0
41
1
10
47.6755876776097
20
0.124466853491924
30
0
41
1
10
46.7797471377558
20
0.638881185888806
30
0
41
1
10
46.4795625787633
20
0.810147220260632
30
0
41
1
10
45.8785244185677
20
1.14865789822412
30
0
41
1
10
45.5793691572891
20
1.31504002935901
30
0
41
1
10
44.6847925751813
20
1.8037549248875
30
0
41
1
10
44.0916243415046
20
2.11459647289445
30
0
41
1
10
42.9055302042622
20
2.69709155024731
30
0
41
1
10
42.3120138088322
20
2.96785973928175
30
0
41
1
10
41.4164634058934
20
3.33629110746989
30
0
41
1
10
41.1167260784157
20
3.45274978665051
30
0
41
1
10
40.5152488006755
20
3.67096337197447
30
0
41
1
10
40.2158655491998
20
3.77188116182236
30
0
41
1
10
38.7237500837056
20
4.23449744904315
30
0
41
1
10
37.5446066173203
20
4.46936859093722
30
0
41
1
10
36.0521899562746
20
4.57206980324256
30
0
41
1
10
35.7527881249325
20
4.58306610900746
30
0
41
1
10
35.4272771006967
20
4.58433661433753
30
0
41
1
10
35.4026076843157
20
4.5843667367964
30
0
41
1
10
35.3779458185448
20
4.58433081214073
30
0
0
SPLINE
5
C4
100
AcDbEntity
8
1
62
256
6
ByLayer
370
18
48
1
60
0
100
AcDbSpline
70
4
71
3
72
18
73
14
40
0
40
0
40
0
40
0
40
0.167187490463904
40
0.167187490463904
40
0.375390617847928
40
0.375390617847928
40
0.47949218153994
40
0.47949218153994
40
0.583593745231951
40
0.583593745231951
40
0.791796872615975
40
0.791796872615975
40
1
40
1
40
1
40
1
41
1
10
12.7321313931456
20
-4.37419514917335
30
0
41
1
10
12.2524970372829
20
-4.45384269705062
30
0
41
1
10
11.775181879927
20
-4.50924015931048
30
0
41
1
10
10.7044294690208
20
-4.57864137817663
30
0
41
1
10
10.1112027799834
20
-4.57913448590387
30
0
41
1
10
9.21677719047727
20
-4.52230441427966
30
0
41
1
10
8.91789992196817
20
-4.49376440131184
30
0
41
1
10
8.31777741718963
20
-4.41734651571198
30
0
41
1
10
8.01615356843945
20
-4.3693475576965
30
0
41
1
10
7.11612130032509
20
-4.19848323515998
30
0
41
1
10
6.51944316210367
20
-4.04840328660885
30
0
41
1
10
5.32500117728409
20
-3.68293841956088
30
0
41
1
10
4.72720627933381
20
-3.46765081712581
30
0
41
1
10
4.12551429763468
20
-3.22267110522361
30
0
0
SPLINE
5
C5
100
AcDbEntity
8
1
62
256
6
ByLayer
370
18
48
1
60
0
100
AcDbSpline
70
4
71
3
72
60
73
56
40
0
40
0
40
0
40
0
40
0.0624999999999892
40
0.0624999999999892
40
0.124999999999978
40
0.124999999999978
40
0.249999999999958
40
0.249999999999958
40
0.374999999999937
40
0.374999999999937
40
0.499999999999917
40
0.499999999999917
40
0.562499999999907
40
0.562499999999907
40
0.624999999999897
40
0.624999999999897
40
0.656249999999891
40
0.656249999999891
40
0.671874999999889
40
0.671874999999889
40
0.675781249999889
40
0.675781249999889
40
0.677734374999889
40
0.677734374999889
40
0.67968749999989
40
0.67968749999989
40
0.687499999999893
40
0.687499999999893
40
0.718749999999903
40
0.718749999999903
40
0.734374999999909
40
0.734374999999909
40
0.749999999999914
40
0.749999999999914
40
0.76562499999992
40
0.76562499999992
40
0.781249999999925
40
0.781249999999925
40
0.796874999999931
40
0.796874999999931
40
0.804687499999934
40
0.804687499999934
40
0.812499999999936
40
0.812499999999936
40
0.828124999999942
40
0.828124999999942
40
0.843749999999947
40
0.843749999999947
40
0.874999999999958
40
0.874999999999958
40
0.906249999999968
40
0.906249999999968
40
0.937499999999979
40
0.937499999999979
40
1
40
1
40
1
40
1
41
1
10
14.4551446947929
20
3.76798534700868
30
0
41
1
10
14.1372777103929
20
3.87164366037479
30
0
41
1
10
13.8176199199451
20
3.96389230737961
30
0
41
1
10
13.173804640677
20
4.12707186578646
30
0
41
1
10
12.8490581355821
20
4.1980819432878
30
0
41
1
10
11.8704793672307
20
4.38015692608127
30
0
41
1
10
11.2144487451255
20
4.45976654576856
30
0
41
1
10
9.88492557153802
20
4.55497952239364
30
0
41
1
10
9.21133967617453
20
4.57062127868397
30
0
41
1
10
7.83816409116417
20
4.56543676047426
30
0
41
1
10
7.13857734753429
20
4.54489814941047
30
0
41
1
10
6.06589588317271
20
4.50962858620142
30
0
41
1
10
5.70476923851302
20
4.49713393895163
30
0
41
1
10
4.97996570562577
20
4.47405541661766
30
0
41
1
10
4.61537797918635
20
4.46345018680003
30
0
41
1
10
4.06712977119687
20
4.45080775983902
30
0
41
1
10
3.88410424261295
20
4.44712885436866
30
0
41
1
10
3.60914165268741
20
4.44257340828676
30
0
41
1
10
3.51741471309367
20
4.44121493836326
30
0
41
1
10
3.4026714621366
20
4.43973028220657
30
0
41
1
10
3.37976910592462
20
4.43966176279412
30
0
41
1
10
3.34567957799942
20
4.44085168176483
30
0
41
1
10
3.33433949887302
20
4.4414401124877
30
0
41
1
10
3.31273575681709
20
4.44307528015514
30
0
41
1
10
3.30257353026903
20
4.44423426986094
30
0
41
1
10
3.2524097724031
20
4.45032364863232
30
0
41
1
10
3.2125494870009
20
4.45517588797858
30
0
41
1
10
3.01511302413547
20
4.47922574043648
30
0
41
1
10
2.86214333461606
20
4.49795857794879
30
0
41
1
10
2.64889809918452
20
4.52269819994618
30
0
41
1
10
2.58041888129654
20
4.53038912860424
30
0
41
1
10
2.44997849805534
20
4.54406291727466
30
0
41
1
10
2.38762634651818
20
4.55008154420295
30
0
41
1
10
2.27347748937817
20
4.5593209206645
30
0
41
1
10
2.22186818115472
20
4.56253839903729
30
0
41
1
10
2.1320757604129
20
4.56506930365438
30
0
41
1
10
2.09376647173207
20
4.56431411092231
30
0
41
1
10
2.0364997055145
20
4.55773166070844
30
0
41
1
10
2.01701665408928
20
4.55195143650323
30
0
41
1
10
2.00237250642545
20
4.53892272055307
30
0
41
1
10
1.99994938843142
20
4.53381467474094
30
0
41
1
10
2.00005031876771
20
4.52234560930742
30
0
41
1
10
2.00252281543425
20
4.5159696165108
30
0
41
1
10
2.01665377981084
20
4.49497673530882
30
0
41
1
10
2.0352417363257
20
4.47833520124035
30
0
41
1
10
2.08681133498646
20
4.44111915815063
30
0
41
1
10
2.1194130069847
20
4.42073618446904
30
0
41
1
10
2.23286488976686
20
4.35505252103621
30
0
41
1
10
2.33006545251436
20
4.30482043400522
30
0
41
1
10
2.54320112121488
20
4.19880563718391
30
0
41
1
10
2.65998422938128
20
4.14259675902349
30
0
41
1
10
2.90684488483615
20
4.02485655185291
30
0
41
1
10
3.03750972845
20
3.96308074312847
30
0
41
1
10
3.43784650148501
20
3.77355257547501
30
0
41
1
10
3.71727140010688
20
3.64083383264938
30
0
41
1
10
4.00364298957834
20
3.50230813171177
30
0
0
SPLINE
5
C6
100
AcDbEntity
8
1
62
256
6
ByLayer
370
18
48
1
60
0
100
AcDbSpline
70
4
71
3
72
22
73
18
40
0
40
0
40
0
40
0
40
0.125
40
0.125
40
0.1875
40
0.1875
40
0.25
40
0.25
40
0.5
40
0.5
40
0.625
40
0.625
40
0.75
40
0.75
40
0.875
40
0.875
40
1
40
1
40
1
40
1
41
1
10
61.4018243066064
20
-4.39095162990955
30
0
41
1
10
61.3349228461921
20
-4.3909061750698
30
0
41
1
10
61.2713915340548
20
-4.38068836270128
30
0
41
1
10
61.1814212381724
20
-4.34928377134841
30
0
41
1
10
61.152321313302
20
-4.33612869965589
30
0
41
1
10
61.0959804849689
20
-4.30420734012819
30
0
41
1
10
61.0687075784187
20
-4.28538568666303
30
0
41
1
10
60.9391299050189
20
-4.1782913978021
30
0
41
1
10
60.855212020134
20
-4.05093566750986
30
0
41
1
10
60.7609231431819
20
-3.79321962188251
30
0
41
1
10
60.7347465140116
20
-3.69518555828344
30
0
41
1
10
60.6952496365766
20
-3.48182224933322
30
0
41
1
10
60.6816523240552
20
-3.36609515343142
30
0
41
1
10
60.6667186894945
20
-3.11661075582265
30
0
41
1
10
60.6653803054249
20
-2.98285648640225
30
0
41
1
10
60.6755263949706
20
-2.69649149682081
30
0
41
1
10
60.6869432562993
20
-2.54655707531108
30
0
41
1
10
60.7043907765328
20
-2.39110597888185
30
0
0
SPLINE
5
C7
100
AcDbEntity
8
1
62
256
6
ByLayer
370
18
48
1
60
0
100
AcDbSpline
70
4
71
3
72
18
73
14
40
0
40
0
40
0
40
0
40
0.25
40
0.25
40
0.374999999999997
40
0.374999999999997
40
0.499999999999994
40
0.499999999999994
40
0.749999999999995
40
0.749999999999995
40
0.874999999999997
40
0.874999999999997
40
1
40
1
40
1
40
1
41
1
10
62.3391534496539
20
2.23143646639374
30
0
41
1
10
62.2686820861609
20
2.42078928141848
30
0
41
1
10
62.1981414089808
20
2.6100335342158
30
0
41
1
10
62.0919702050572
20
2.89333577045753
30
0
41
1
10
62.0565217344134
20
2.98767889838791
30
0
41
1
10
61.9854482064139
20
3.1760885761646
30
0
41
1
10
61.949816138388
20
3.27014152515875
30
0
41
1
10
61.8429586133267
20
3.55220291008553
30
0
41
1
10
61.7716890241226
20
3.74008616327805
30
0
41
1
10
61.6643380756298
20
4.01965714482458
30
0
41
1
10
61.6284486789719
20
4.11231374565998
30
0
41
1
10
61.5566496429327
20
4.29752477839494
30
0
41
1
10
61.520716627589
20
4.38996122729628
30
0
41
1
10
61.4846611242602
20
4.48177945567485
30
0
0
SPLINE
5
C8
100
AcDbEntity
8
1
62
256
6
ByLayer
370
18
48
1
60
0
100
AcDbSpline
70
4
71
3
72
14
73
10
40
0
40
0
40
0
40
0
40
0.25
40
0.25
40
0.5
40
0.5
40
0.75
40
0.75
40
1
40
1
40
1
40
1
41
1
10
4.25139983061933
20
3.32271511975179
30
0
41
1
10
4.22614276394677
20
3.33512605305387
30
0
41
1
10
4.19984055951875
20
3.34899357735964
30
0
41
1
10
4.14544125612809
20
3.38034794461441
30
0
41
1
10
4.11781952558553
20
3.39766206624219
30
0
41
1
10
4.06912376833191
20
3.43202722816665
30
0
41
1
10
4.04802378741334
20
3.44916289072032
30
0
41
1
10
4.0176137701913
20
3.47918719577734
30
0
41
1
10
4.00827628168321
20
3.49190197979891
30
0
41
1
10
4.00364298959826
20
3.50230813169713
30
0
0
SPLINE
5
C9
100
AcDbEntity
8
1
62
256
6
ByLayer
370
13
48
1
60
0
100
AcDbSpline
70
4
71
3
72
8
73
4
40
0
40
0
40
0
40
0
40
1
40
1
40
1
40
1
41
1
10
4.00923995042246
20
-3.11502155423656
30
0
41
1
10
4.02626361418618
20
-3.13331615761652
30
0
41
1
10
4.06657793163964
20
-3.1496505195658
30
0
41
1
10
4.1274081782054
20
-3.15965661620208
30
0
0
SPLINE
5
CA
100
AcDbEntity
8
1
62
256
6
ByLayer
370
18
48
1
60
0
100
AcDbSpline
70
4
71
3
72
12
73
8
40
0
40
0
40
0
40
0
40
0.250000000000007
40
0.250000000000007
40
0.500000000000013
40
0.500000000000013
40
1
40
1
40
1
40
1
41
1
10
61.4466110579634
20
-4.45062158019155
30
0
41
1
10
61.4515353321802
20
-4.43741343237949
30
0
41
1
10
61.4561985936
20
-4.42392557985752
30
0
41
1
10
61.4636905615502
20
-4.39975677369628
30
0
41
1
10
61.4664979926221
20
-4.38909641790849
30
0
41
1
10
61.4710704874251
20
-4.36580670560565
30
0
41
1
10
61.4692924914211
20
-4.36162499421593
30
0
41
1
10
61.4650855261038
20
-4.36467022390903
30
0
0
SPLINE
5
CB
100
AcDbEntity
8
1
62
256
6
ByLayer
370
13
48
1
60
0
100
AcDbSpline
70
4
71
3
72
12
73
8
40
0
40
0
40
0
40
0
40
0.499999999999999
40
0.499999999999999
40
0.75
40
0.75
40
1
40
1
40
1
40
1
41
1
10
4.00344833970286
20
-3.08429418430015
30
0
41
1
10
4.00938671438502
20
-3.0753367108984
30
0
41
1
10
4.0229070212811
20
-3.06646547638249
30
0
41
1
10
4.05409485615002
20
-3.05434939812363
30
0
41
1
10
4.06655668665101
20
-3.05044415557944
30
0
41
1
10
4.09449740174995
20
-3.04345020683854
30
0
41
1
10
4.11004377011662
20
-3.04031316804432
30
0
41
1
10
4.1274081782054
20
-3.03761704291386
30
0
0
SPLINE
5
CC
100
AcDbEntity
8
1
62
256
6
ByLayer
370
18
48
1
60
0
100
AcDbSpline
70
4
71
3
72
10
73
6
40
0
40
0
40
0
40
0
40
0.880294869648707
40
0.880294869648707
40
1
40
1
40
1
40
1
41
1
10
61.4047986970593
20
4.56258721734395
30
0
41
1
10
61.1049862434522
20
4.58450108545455
30
0
41
1
10
60.8052314443345
20
4.59662094143198
30
0
41
1
10
60.4643187382845
20
4.59925110327214
30
0
41
1
10
60.4234964660291
20
4.5993839264859
30
0
41
1
10
60.3826646122879
20
4.59933496911353
30
0
0
SPLINE
5
CD
100
AcDbEntity
8
1
62
256
6
ByLayer
370
18
48
1
60
0
100
AcDbSpline
70
4
71
3
72
46
73
42
40
0
40
0
40
0
40
0
40
0.0494499906237698
40
0.0494499906237698
40
0.114989448643489
40
0.114989448643489
40
0.147759177653349
40
0.147759177653349
40
0.164144042158279
40
0.164144042158279
40
0.180528906663208
40
0.180528906663208
40
0.311607822702651
40
0.311607822702651
40
0.344377551712513
40
0.344377551712513
40
0.360762416217443
40
0.360762416217443
40
0.377147280722373
40
0.377147280722373
40
0.442686738742093
40
0.442686738742093
40
0.508226196761814
40
0.508226196761814
40
0.540995925771674
40
0.540995925771674
40
0.557380790276605
40
0.557380790276605
40
0.573765654781536
40
0.573765654781536
40
0.704844570820981
40
0.704844570820981
40
0.737614299830842
40
0.737614299830842
40
0.770384028840703
40
0.770384028840703
40
0.835923486860425
40
0.835923486860425
40
0.967002402899868
40
0.967002402899868
40
1
40
1
40
1
40
1
41
1
10
37.6805837531647
20
-4.39700605991726
30
0
41
1
10
37.229883859402
20
-4.47048411396753
30
0
41
1
10
36.7814374937974
20
-4.52242360480534
30
0
41
1
10
35.7401831951252
20
-4.59280442291532
30
0
41
1
10
35.1478428169509
20
-4.59484262308172
30
0
41
1
10
34.2556466209582
20
-4.54037572869299
30
0
41
1
10
33.9576289621735
20
-4.51263069587375
30
0
41
1
10
33.508943346157
20
-4.45659652654047
30
0
41
1
10
33.3591069663116
20
-4.43551536808226
30
0
41
1
10
33.0587742568744
20
-4.38853506360772
30
0
41
1
10
32.9082307781073
20
-4.36261804802444
30
0
41
1
10
31.5582733457032
20
-4.10943209597866
30
0
41
1
10
30.3782656028969
20
-3.74061202184333
30
0
41
1
10
28.8914600990809
20
-3.13854961747427
30
0
41
1
10
28.5934713161113
20
-3.01114079916019
30
0
41
1
10
28.1449847383111
20
-2.81008889816454
30
0
41
1
10
27.9952273435137
20
-2.74142975810128
30
0
41
1
10
27.695058932947
20
-2.60097098788691
30
0
41
1
10
27.5444579365854
20
-2.52907475553963
30
0
41
1
10
26.7938942796765
20
-2.1642068537559
30
0
41
1
10
26.1984678883449
20
-1.85420573360057
30
0
41
1
10
25.0108437409122
20
-1.20972912429315
30
0
41
1
10
24.4183153922569
20
-0.875805257480152
30
0
41
1
10
23.5263724782895
20
-0.366118995048083
30
0
41
1
10
23.2284968397756
20
-0.19481909610721
30
0
41
1
10
22.7801328005922
20
0.063014683269131
30
0
41
1
10
22.6304243055239
20
0.149114994047863
30
0
41
1
10
22.3303826484715
20
0.321426001941461
30
0
41
1
10
22.1798128591132
20
0.407771848260381
30
0
41
1
10
20.8276196568764
20
1.18084077938764
30
0
41
1
10
19.6468144403855
20
1.83813904074051
30
0
41
1
10
18.1602543730327
20
2.56285079312519
30
0
41
1
10
17.8624696486444
20
2.70303228714647
30
0
41
1
10
17.2649093959796
20
2.9722037265287
30
0
41
1
10
16.9647066475815
20
3.10134505281491
30
0
41
1
10
16.0623672986842
20
3.46866178864278
30
0
41
1
10
15.4663834356145
20
3.68370565700104
30
0
41
1
10
13.683260426401
20
4.22970057174996
30
0
41
1
10
12.501721842797
20
4.4622135730211
30
0
41
1
10
10.9944209631564
20
4.55982924048584
30
0
41
1
10
10.6926915575759
20
4.56948734075448
30
0
41
1
10
10.3919037689532
20
4.56935685032013
30
0
0
SPLINE
5
CE
100
AcDbEntity
8
1
62
256
6
ByLayer
370
18
48
1
60
0
100
AcDbSpline
70
4
71
3
72
18
73
14
40
0
40
0
40
0
40
0
40
0.249999999999994
40
0.249999999999994
40
0.374999999999994
40
0.374999999999994
40
0.499999999999994
40
0.499999999999994
40
0.749999999999999
40
0.749999999999999
40
0.875
40
0.875
40
1
40
1
40
1
40
1
41
1
10
62.3391534496539
20
-2.23143646639372
30
0
41
1
10
62.2686820861608
20
-2.42078928141845
30
0
41
1
10
62.1981414089807
20
-2.61003353421577
30
0
41
1
10
62.0919702050572
20
-2.8933357704575
30
0
41
1
10
62.0565217344134
20
-2.98767889838791
30
0
41
1
10
61.9854482064138
20
-3.17608857616457
30
0
41
1
10
61.949816138388
20
-3.27014152515875
30
0
41
1
10
61.8429586133267
20
-3.55220291008553
30
0
41
1
10
61.7716890241226
20
-3.74008616327805
30
0
41
1
10
61.6643380756298
20
-4.01965714482455
30
0
41
1
10
61.6284486789719
20
-4.11231374565998
30
0
41
1
10
61.5566496429326
20
-4.29752477839494
30
0
41
1
10
61.5207166275889
20
-4.38996122729628
30
0
41
1
10
61.4846611242602
20
-4.48177945567485
30
0
0
SPLINE
5
CF
100
AcDbEntity
8
1
62
256
6
ByLayer
370
13
48
1
60
0
100
AcDbSpline
70
4
71
3
72
10
73
6
40
0
40
0
40
0
40
0
40
0.5
40
0.5
40
1
40
1
40
1
40
1
41
1
10
4.1274081782054
20
-3.03761704291386
30
0
41
1
10
4.14634875277676
20
-3.03467619063528
30
0
41
1
10
4.16663687911989
20
-3.0337941645065
30
0
41
1
10
4.20785937258171
20
-3.03602229725351
30
0
41
1
10
4.22889242293798
20
-3.03907624960826
30
0
41
1
10
4.25034541420894
20
-3.04413868346162
30
0
0
SPLINE
5
D0
100
AcDbEntity
8
1
62
256
6
ByLayer
370
18
48
1
60
0
100
AcDbSpline
70
4
71
3
72
22
73
18
40
0
40
0
40
0
40
0
40
0.125
40
0.125
40
0.1875
40
0.1875
40
0.25
40
0.25
40
0.375
40
0.375
40
0.5
40
0.5
40
0.75
40
0.75
40
0.875
40
0.875
40
1
40
1
40
1
40
1
41
1
10
57.7187102085567
20
1.50488873414304
30
0
41
1
10
57.7711356746223
20
1.31056936883115
30
0
41
1
10
57.839206719023
20
1.11735241439359
30
0
41
1
10
57.9615557082864
20
0.828953294144412
30
0
41
1
10
58.005736449525
20
0.733059664248259
30
0
41
1
10
58.100600769475
20
0.541730604120318
30
0
41
1
10
58.1508390169993
20
0.447230102495752
30
0
41
1
10
58.3079696791587
20
0.168974219770178
30
0
41
1
10
58.4217083809579
20
-0.0105462718287015
30
0
41
1
10
58.6639382930919
20
-0.359762956497747
30
0
41
1
10
58.7926954918651
20
-0.529768986369476
30
0
41
1
10
59.1967858587801
20
-1.02485689543329
30
0
41
1
10
59.4822458202938
20
-1.32662869062088
30
0
41
1
10
59.9280203456394
20
-1.74832659875386
30
0
41
1
10
60.0796073665139
20
-1.88361860631934
30
0
41
1
10
60.388230667587
20
-2.14460854154294
30
0
41
1
10
60.5455700846243
20
-2.27053736080074
30
0
41
1
10
60.7043907765306
20
-2.39110597887978
30
0
0
SPLINE
5
D1
100
AcDbEntity
8
1
62
256
6
ByLayer
370
18
48
1
60
0
100
AcDbSpline
70
4
71
3
72
8
73
4
40
0
40
0
40
0
40
0
40
1
40
1
40
1
40
1
41
1
10
61.4650855261038
20
-4.36467022390903
30
0
41
1
10
61.4409280387717
20
-4.38215672360326
30
0
41
1
10
61.4198229237256
20
-4.39096846679428
30
0
41
1
10
61.4018243066103
20
-4.39095162990955
30
0
0
SPLINE
5
D2
100
AcDbEntity
8
1
62
256
6
ByLayer
370
18
48
1
60
0
100
AcDbSpline
70
4
71
3
72
58
73
54
40
0
40
0
40
0
40
0
40
0.0387701674549478
40
0.0387701674549478
40
0.0775403349098957
40
0.0775403349098957
40
0.116310502364843
40
0.116310502364843
40
0.155080669819791
40
0.155080669819791
40
0.193850837274739
40
0.193850837274739
40
0.232621004729687
40
0.232621004729687
40
0.271391172184635
40
0.271391172184635
40
0.310161339639583
40
0.310161339639583
40
0.348931507094531
40
0.348931507094531
40
0.387701674549478
40
0.387701674549478
40
0.426471842004426
40
0.426471842004426
40
0.465242009459374
40
0.465242009459374
40
0.504012176914322
40
0.504012176914322
40
0.54278234436927
40
0.54278234436927
40
0.581552511824218
40
0.581552511824218
40
0.620322679279165
40
0.620322679279165
40
0.659092846734113
40
0.659092846734113
40
0.697863014189061
40
0.697863014189061
40
0.736633181644009
40
0.736633181644009
40
0.775403349098957
40
0.775403349098957
40
0.814173516553905
40
0.814173516553905
40
0.852943684008852
40
0.852943684008852
40
0.8917138514638
40
0.8917138514638
40
0.930484018918748
40
0.930484018918748
40
0.969254186373696
40
0.969254186373696
40
1
40
1
40
1
40
1
41
1
10
8.98168099521814
20
0.830536037918137
30
0
41
1
10
9.23619000999412
20
0.693403449318311
30
0
41
1
10
9.49045181684522
20
0.555697556374753
30
0
41
1
10
9.99839980451989
20
0.278972129280021
30
0
41
1
10
10.2520844972774
20
0.139951543307774
30
0
41
1
10
10.7593311585451
20
-0.138544900209809
30
0
41
1
10
11.0128036874074
20
-0.278183618124871
30
0
41
1
10
11.5210520932244
20
-0.555318465374057
30
0
41
1
10
11.7759464194169
20
-0.693361894130192
30
0
41
1
10
12.2845815213272
20
-0.966875988120023
30
0
41
1
10
12.5382739133087
20
-1.10266277220512
30
0
41
1
10
13.0455124909216
20
-1.37026616034007
30
0
41
1
10
13.2993148088093
20
-1.50156158921044
30
0
41
1
10
13.8071278211619
20
-1.75937036261422
30
0
41
1
10
14.0611446122046
20
-1.88598294605953
30
0
41
1
10
14.5694776327837
20
-2.13464365528813
30
0
41
1
10
14.8238566030274
20
-2.25582644452902
30
0
41
1
10
15.3319639097028
20
-2.48920955958647
30
0
41
1
10
15.5858266034413
20
-2.60200237332819
30
0
41
1
10
16.0931796075014
20
-2.82056224328147
30
0
41
1
10
16.3464858442151
20
-2.92648003643492
30
0
41
1
10
16.8541592284909
20
-3.12726946672979
30
0
41
1
10
17.1087320535537
20
-3.22270353813869
30
0
41
1
10
17.6177412055212
20
-3.40441788941712
30
0
41
1
10
17.8717463488469
20
-3.4910361627648
30
0
41
1
10
18.3789041980506
20
-3.65216140379178
30
0
41
1
10
18.6324608976651
20
-3.72626034904531
30
0
41
1
10
19.1400976924674
20
-3.86352861160202
30
0
41
1
10
19.394045151336
20
-3.92681110822352
30
0
41
1
10
19.9021969548775
20
-4.0423812777409
30
0
41
1
10
20.1565403054924
20
-4.0936995483504
30
0
41
1
10
20.664662523872
20
-4.18260623569373
30
0
41
1
10
20.9185904806086
20
-4.22056314099612
30
0
41
1
10
21.4260880932045
20
-4.28496954576218
30
0
41
1
10
21.6795760789599
20
-4.31114782696218
30
0
41
1
10
22.1867954255293
20
-4.34834623137587
30
0
41
1
10
22.4409069612988
20
-4.36006609715983
30
0
41
1
10
22.9500730682084
20
-4.37124464063103
30
0
41
1
10
23.2043229634122
20
-4.37127835156406
30
0
41
1
10
23.7117475523798
20
-4.35586340521664
30
0
41
1
10
23.9650204878429
20
-4.3404334984973
30
0
41
1
10
24.4724166534126
20
-4.29770056593384
30
0
41
1
10
24.7262862810945
20
-4.27041819407853
30
0
41
1
10
25.2342632285072
20
-4.20376487277568
30
0
41
1
10
25.4886881578872
20
-4.16273781625688
30
0
41
1
10
25.996733239725
20
-4.06765333860088
30
0
41
1
10
26.2507158646755
20
-4.01418060932946
30
0
41
1
10
26.7583564379432
20
-3.89666965802269
30
0
41
1
10
27.0119851225103
20
-3.83234283765515
30
0
41
1
10
27.519187093032
20
-3.68950959797868
30
0
41
1
10
27.7729138584455
20
-3.61195004856594
30
0
41
1
10
28.2290339437189
20
-3.46471701205232
30
0
41
1
10
28.4308957035384
20
-3.39673011701794
30
0
41
1
10
28.6324163486678
20
-3.3251625603894
30
0
0
SPLINE
5
D3
100
AcDbEntity
8
1
62
256
6
ByLayer
370
18
48
1
60
0
100
AcDbSpline
70
4
71
3
72
30
73
26
40
0
40
0
40
0
40
0
40
0.0495078854506516
40
0.0495078854506516
40
0.128715561663096
40
0.128715561663096
40
0.20792323787554
40
0.20792323787554
40
0.366338590300432
40
0.366338590300432
40
0.445546266512878
40
0.445546266512878
40
0.524753942725324
40
0.524753942725324
40
0.60396161893777
40
0.60396161893777
40
0.683169295150216
40
0.683169295150216
40
0.762376971362662
40
0.762376971362662
40
0.841584647575108
40
0.841584647575108
40
0.920792323787554
40
0.920792323787554
40
1
40
1
40
1
40
1
41
1
10
48.1112314239172
20
4.3823175309883
30
0
41
1
10
48.2696897737407
20
4.38104784098124
30
0
41
1
10
48.4281688733655
20
4.37706039157257
30
0
41
1
10
48.840334947577
20
4.36034004860261
30
0
41
1
10
49.0940182505971
20
4.34414478944373
30
0
41
1
10
49.6014620245558
20
4.29929468567249
30
0
41
1
10
49.8555825833606
20
4.26938069506133
30
0
41
1
10
50.6176461705979
20
4.1591518144906
30
0
41
1
10
51.1244394220682
20
4.05910824432914
30
0
41
1
10
51.8846428473703
20
3.87390484678542
30
0
41
1
10
52.1385044779215
20
3.80667201191164
30
0
41
1
10
52.6469236178436
20
3.66144704968272
30
0
41
1
10
52.9011497337812
20
3.58335683282499
30
0
41
1
10
53.4080874386963
20
3.41536579542304
30
0
41
1
10
53.6611418909676
20
3.32549012876262
30
0
41
1
10
54.1679605052012
20
3.13670051075658
30
0
41
1
10
54.4214872835524
20
3.03759633844589
30
0
41
1
10
54.9288247930118
20
2.8298340516032
30
0
41
1
10
55.1828082417791
20
2.72076168431534
30
0
41
1
10
55.6905087543017
20
2.49530422390652
30
0
41
1
10
55.9442684597403
20
2.37931379354015
30
0
41
1
10
56.4513696250095
20
2.14054944397097
30
0
41
1
10
56.7047216495342
20
2.0177209928703
30
0
41
1
10
57.2112443255312
20
1.76522560941234
30
0
41
1
10
57.4646795378713
20
1.63605119752398
30
0
41
1
10
57.718710208557
20
1.50488873414338
30
0
0
SPLINE
5
D4
100
AcDbEntity
8
1
62
256
6
ByLayer
370
18
48
1
60
0
100
AcDbSpline
70
4
71
3
72
36
73
32
40
0
40
0
40
0
40
0
40
0.0100856728199949
40
0.0100856728199949
40
0.321610248447795
40
0.321610248447795
40
0.477372536261696
40
0.477372536261696
40
0.633134824075596
40
0.633134824075596
40
0.711015967982544
40
0.711015967982544
40
0.749956539936019
40
0.749956539936019
40
0.75969168292439
40
0.75969168292439
40
0.764559254418577
40
0.764559254418577
40
0.769426825912763
40
0.769426825912763
40
0.788897111889511
40
0.788897111889511
40
0.866778255796501
40
0.866778255796501
40
0.905718827749996
40
0.905718827749996
40
0.94465939970349
40
0.94465939970349
40
0.983599971656985
40
0.983599971656985
40
1
40
1
40
1
40
1
41
1
10
8.59139640848863
20
-4.56822299224621
30
0
41
1
10
8.56919510036488
20
-4.56817775737525
30
0
41
1
10
8.54698030601287
20
-4.56811294450591
30
0
41
1
10
7.83816409116429
20
-4.56543676047428
30
0
41
1
10
7.13857734753446
20
-4.54489814941047
30
0
41
1
10
6.06589588317291
20
-4.50962858620142
30
0
41
1
10
5.70476923851319
20
-4.49713393895166
30
0
41
1
10
4.97996570562594
20
-4.47405541661769
30
0
41
1
10
4.61537797918658
20
-4.46345018680003
30
0
41
1
10
4.06712977119716
20
-4.45080775983902
30
0
41
1
10
3.88410424261318
20
-4.44712885436866
30
0
41
1
10
3.60914165268764
20
-4.44257340828676
30
0
41
1
10
3.5174147130939
20
-4.44121493836326
30
0
41
1
10
3.40267146213682
20
-4.4397302822066
30
0
41
1
10
3.37976910592488
20
-4.43966176279409
30
0
41
1
10
3.34567957799965
20
-4.4408516817648
30
0
41
1
10
3.33433949887325
20
-4.44144011248767
30
0
41
1
10
3.31273575681723
20
-4.44307528015511
30
0
41
1
10
3.30257353026917
20
-4.44423426986091
30
0
41
1
10
3.2524097724033
20
-4.45032364863229
30
0
41
1
10
3.21254948700104
20
-4.45517588797856
30
0
41
1
10
3.01511302413564
20
-4.47922574043645
30
0
41
1
10
2.86214333461618
20
-4.49795857794877
30
0
41
1
10
2.64889809918486
20
-4.52269819994612
30
0
41
1
10
2.58041888129702
20
-4.53038912860418
30
0
41
1
10
2.4499784980562
20
-4.54406291727454
30
0
41
1
10
2.38762634651943
20
-4.55008154420284
30
0
41
1
10
2.27347748937865
20
-4.55932092066445
30
0
41
1
10
2.22186818115514
20
-4.56253839903724
30
0
41
1
10
2.15806369374477
20
-4.56433680329505
30
0
41
1
10
2.14032375078566
20
-4.56451134981964
30
0
41
1
10
2.12398289230555
20
-4.56428899093467
30
0
0
SPLINE
5
D5
100
AcDbEntity
8
1
62
256
6
ByLayer
370
18
48
1
60
0
100
AcDbSpline
70
4
71
3
72
22
73
18
40
0
40
0
40
0
40
0
40
0.250000000000025
40
0.250000000000025
40
0.50000000000005
40
0.50000000000005
40
0.625000000000051
40
0.625000000000051
40
0.687500000000041
40
0.687500000000041
40
0.750000000000031
40
0.750000000000031
40
0.812500000000022
40
0.812500000000022
40
0.875000000000012
40
0.875000000000012
40
1
40
1
40
1
40
1
41
1
10
61.167271473383
20
1.36748315245228
30
0
41
1
10
61.2966467997281
20
1.3971436042674
30
0
41
1
10
61.4247810027721
20
1.43090038022038
30
0
41
1
10
61.6769391748471
20
1.51245574739568
30
0
41
1
10
61.8001622253893
20
1.55959410082337
30
0
41
1
10
61.9753734319224
20
1.65071089018844
30
0
41
1
10
62.0325617230791
20
1.68487204430244
30
0
41
1
10
62.1123157627216
20
1.74359865354768
30
0
41
1
10
62.1378990414868
20
1.76442813098245
30
0
41
1
10
62.1864732393925
20
1.80936009411482
30
0
41
1
10
62.2095078955442
20
1.8335691121043
30
0
41
1
10
62.2508821759397
20
1.88471173887248
30
0
41
1
10
62.2693932877247
20
1.91177936691636
30
0
41
1
10
62.3011263984869
20
1.96958433947543
30
0
41
1
10
62.3144443797484
20
2.00077551209205
30
0
41
1
10
62.3432660850598
20
2.09651130680288
30
0
41
1
10
62.3478401655196
20
2.16509107626891
30
0
41
1
10
62.3391534496555
20
2.23143646639349
30
0
0
SPLINE
5
D6
100
AcDbEntity
8
1
62
256
6
ByLayer
370
18
48
1
60
0
100
AcDbSpline
70
4
71
3
72
34
73
30
40
0
40
0
40
0
40
0
40
0.250000000000013
40
0.250000000000013
40
0.500000000000026
40
0.500000000000026
40
0.625000000000029
40
0.625000000000029
40
0.687500000000034
40
0.687500000000034
40
0.718750000000033
40
0.718750000000033
40
0.73437500000003
40
0.73437500000003
40
0.750000000000027
40
0.750000000000027
40
0.81250000000002
40
0.81250000000002
40
0.843750000000017
40
0.843750000000017
40
0.875000000000014
40
0.875000000000014
40
0.90625000000001
40
0.90625000000001
40
0.937500000000007
40
0.937500000000007
40
0.968750000000003
40
0.968750000000003
40
1
40
1
40
1
40
1
41
1
10
57.7187102085572
20
1.50488873414335
30
0
41
1
10
58.0429991600287
20
1.26330691118605
30
0
41
1
10
58.374274461143
20
1.04487775738519
30
0
41
1
10
59.0452020849786
20
0.677668744609093
30
0
41
1
10
59.3783822679242
20
0.531723967543797
30
0
41
1
10
59.8739222328573
20
0.382569583948651
30
0
41
1
10
60.038390468643
20
0.34458909287855
30
0
41
1
10
60.2838209033467
20
0.308593797069364
30
0
41
1
10
60.3648924292588
20
0.300200689920416
30
0
41
1
10
60.4846265776528
20
0.293399831873046
30
0
41
1
10
60.5242619343921
20
0.292091461957142
30
0
41
1
10
60.58328950972
20
0.291606442994521
30
0
41
1
10
60.602972567164
20
0.291419769180749
30
0
41
1
10
60.6418212840208
20
0.292843240738847
30
0
41
1
10
60.6610454820278
20
0.294250093393089
30
0
41
1
10
60.756191616397
20
0.304669832809196
30
0
41
1
10
60.8278148422331
20
0.323582349576498
30
0
41
1
10
60.9227476848202
20
0.376449159949658
30
0
41
1
10
60.9515521227619
20
0.397820120272314
30
0
41
1
10
61.0017464670391
20
0.450349477312329
30
0
41
1
10
61.0231299747575
20
0.48222597080013
30
0
41
1
10
61.0560267350932
20
0.553190431348952
30
0
41
1
10
61.0678957263292
20
0.59234351441458
30
0
41
1
10
61.082773035869
20
0.677752424263105
30
0
41
1
10
61.0855574616485
20
0.723192023481204
30
0
41
1
10
61.0829912727155
20
0.816951677013321
30
0
41
1
10
61.0775819690717
20
0.865990349630437
30
0
41
1
10
61.0602568647758
20
0.964222419029142
30
0
41
1
10
61.0484008053101
20
1.01360205483238
30
0
41
1
10
61.0339832198192
20
1.06319312622057
30
0
0
SPLINE
5
D7
100
AcDbEntity
8
1
62
256
6
ByLayer
370
18
48
1
60
0
100
AcDbSpline
70
4
71
3
72
8
73
4
40
0
40
0
40
0
40
0
40
1
40
1
40
1
40
1
41
1
10
4.00923995043053
20
-3.11502155424515
30
0
41
1
10
4.00541382919988
20
-3.10501352032134
30
0
41
1
10
4.00344770036111
20
-3.0947763134449
30
0
41
1
10
4.00344833970541
20
-3.08429418429765
30
0
0
SPLINE
5
D8
100
AcDbEntity
8
1
62
256
6
ByLayer
370
18
48
1
60
0
100
AcDbSpline
70
4
71
3
72
86
73
82
40
0
40
0
40
0
40
0
40
0.0166873593301778
40
0.0166873593301778
40
0.0403600345136937
40
0.0403600345136937
40
0.0640327096972096
40
0.0640327096972096
40
0.0877053848807255
40
0.0877053848807255
40
0.111378060064241
40
0.111378060064241
40
0.135050735247757
40
0.135050735247757
40
0.158723410431273
40
0.158723410431273
40
0.182396085614789
40
0.182396085614789
40
0.206068760798305
40
0.206068760798305
40
0.253414111165338
40
0.253414111165338
40
0.277086786348854
40
0.277086786348854
40
0.300759461532369
40
0.300759461532369
40
0.324432136715885
40
0.324432136715885
40
0.348104811899401
40
0.348104811899401
40
0.371777487082917
40
0.371777487082917
40
0.395450162266433
40
0.395450162266433
40
0.419122837449949
40
0.419122837449949
40
0.442795512633465
40
0.442795512633465
40
0.466468187816981
40
0.466468187816981
40
0.490140863000497
40
0.490140863000497
40
0.513813538184013
40
0.513813538184013
40
0.537486213367529
40
0.537486213367529
40
0.561158888551044
40
0.561158888551044
40
0.58483156373456
40
0.58483156373456
40
0.608504238918076
40
0.608504238918076
40
0.632176914101592
40
0.632176914101592
40
0.679522264468623
40
0.679522264468623
40
0.726867614835654
40
0.726867614835654
40
0.750540290019169
40
0.750540290019169
40
0.774212965202684
40
0.774212965202684
40
0.7978856403862
40
0.7978856403862
40
0.821558315569715
40
0.821558315569715
40
0.845230990753231
40
0.845230990753231
40
0.868903665936746
40
0.868903665936746
40
0.892576341120261
40
0.892576341120261
40
0.916249016303777
40
0.916249016303777
40
0.939921691487292
40
0.939921691487292
40
0.963594366670808
40
0.963594366670808
40
0.987267041854323
40
0.987267041854323
40
1
40
1
40
1
40
1
41
1
10
28.642921587361
20
3.32847486143925
30
0
41
1
10
28.8156903124734
20
3.39660995723136
30
0
41
1
10
28.9882912621286
20
3.46248092652991
30
0
41
1
10
29.4050326637686
20
3.61654893135829
30
0
41
1
10
29.6494376670738
20
3.70192944472046
30
0
41
1
10
30.1399021028009
20
3.86105411707149
30
0
41
1
10
30.3859286548269
20
3.93526476815123
30
0
41
1
10
30.8767881137797
20
4.0725975368841
30
0
41
1
10
31.1212009687091
20
4.13595901728937
30
0
41
1
10
31.6103232969417
20
4.2501762371657
30
0
41
1
10
31.8553029000619
20
4.30091836386248
30
0
41
1
10
32.3453952242196
20
4.39033103426189
30
0
41
1
10
32.5905507958528
20
4.42897216853294
30
0
41
1
10
33.0806289392602
20
4.49402582201668
30
0
41
1
10
33.3257880654721
20
4.52022651558946
30
0
41
1
10
33.8161500686357
20
4.55924061842353
30
0
41
1
10
34.0612705813923
20
4.57226677780289
30
0
41
1
10
34.5509646065857
20
4.58546760023705
30
0
41
1
10
34.7952312959583
20
4.5856063969652
30
0
41
1
10
35.5290376689859
20
4.56627058089836
30
0
41
1
10
36.0221063207693
20
4.52756131282678
30
0
41
1
10
36.7559764749783
20
4.43081634857461
30
0
41
1
10
37.0000419004085
20
4.39202342357586
30
0
41
1
10
37.4896877425358
20
4.30277222761549
30
0
41
1
10
37.7348361043885
20
4.25215228040778
30
0
41
1
10
38.2253537155174
20
4.13860826713901
30
0
41
1
10
38.4707389188033
20
4.07537745974071
30
0
41
1
10
38.9603008162377
20
3.93754219077965
30
0
41
1
10
39.2053344315685
20
3.86351119292553
30
0
41
1
10
39.6952380471008
20
3.70490005468122
30
0
41
1
10
39.9401332630986
20
3.62033921239791
30
0
41
1
10
40.4293769753764
20
3.44008048393681
30
0
41
1
10
40.6736771446262
20
3.344254721852
30
0
41
1
10
41.164590841807
20
3.14471331636923
30
0
41
1
10
41.410307293503
20
3.04069491600273
30
0
41
1
10
41.90044324813
20
2.8242595300878
30
0
41
1
10
42.1448831516381
20
2.71147878202606
30
0
41
1
10
42.6333917217139
20
2.47788499073346
30
0
41
1
10
42.8782315490044
20
2.35820303294278
30
0
41
1
10
43.3685837569353
20
2.11247847017995
30
0
41
1
10
43.6143770245178
20
1.98626282881727
30
0
41
1
10
44.1047011862102
20
1.72741888308408
30
0
41
1
10
44.3488659178713
20
1.59458588464872
30
0
41
1
10
44.8383763310434
20
1.32731778763426
30
0
41
1
10
45.0833030226691
20
1.19221676755421
30
0
41
1
10
45.5730466361319
20
0.918343526755791
30
0
41
1
10
45.8177319516128
20
0.779341658541398
30
0
41
1
10
46.3072101829404
20
0.497929856839704
30
0
41
1
10
46.5528891498644
20
0.356935654279567
30
0
41
1
10
47.0433033869698
20
0.075527614052362
30
0
41
1
10
47.2882903291556
20
-0.0651739430645364
30
0
41
1
10
47.7774066444566
20
-0.347295260131005
30
0
41
1
10
48.0212599243388
20
-0.489189925752385
30
0
41
1
10
48.7556091615974
20
-0.908859274847885
30
0
41
1
10
49.2481080028889
20
-1.18407286081839
30
0
41
1
10
50.2254156187103
20
-1.72285121402857
30
0
41
1
10
50.7153120881036
20
-1.9802214091348
30
0
41
1
10
51.4501610924178
20
-2.35138765219
30
0
41
1
10
51.6950233846733
20
-2.4732849594929
30
0
41
1
10
52.1850701436452
20
-2.70721601852083
30
0
41
1
10
52.4301282179639
20
-2.81977530630229
30
0
41
1
10
52.9197989694111
20
-3.03693478835751
30
0
41
1
10
53.1643838234564
20
-3.14156601627514
30
0
41
1
10
53.652888251757
20
-3.34293163175906
30
0
41
1
10
53.8975867086691
20
-3.43869034063914
30
0
41
1
10
54.388470616656
20
-3.61979315169845
30
0
41
1
10
54.6341414519324
20
-3.7052407160424
30
0
41
1
10
55.1238052401388
20
-3.86574275833678
30
0
41
1
10
55.3676675222791
20
-3.94119130046161
30
0
41
1
10
55.8565492336155
20
-4.07961279466295
30
0
41
1
10
56.1014333990399
20
-4.14278632176286
30
0
41
1
10
56.5915157311807
20
-4.25761142619925
30
0
41
1
10
56.8370042260686
20
-4.30930153694788
30
0
41
1
10
57.3266112733047
20
-4.40073212135746
30
0
41
1
10
57.5710888726327
20
-4.44001455691452
30
0
41
1
10
58.0604920088863
20
-4.50555889185287
30
0
41
1
10
58.3051582778189
20
-4.53196455058901
30
0
41
1
10
58.7940052826634
20
-4.57213562039979
30
0
41
1
10
59.0377978252379
20
-4.58591179467453
30
0
41
1
10
59.4139010227816
20
-4.59690432568155
30
0
41
1
10
59.5457715527024
20
-4.59885350273814
30
0
41
1
10
59.677741215898
20
-4.59891770583772
30
0
0
SPLINE
5
D9
100
AcDbEntity
8
1
62
256
6
ByLayer
370
18
48
1
60
0
100
AcDbSpline
70
4
71
3
72
18
73
14
40
0
40
0
40
0
40
0
40
0.129878160297924
40
0.129878160297924
40
0.245325346096725
40
0.245325346096725
40
0.360772531895526
40
0.360772531895526
40
0.822561275090722
40
0.822561275090722
40
0.938008460889525
40
0.938008460889525
40
1
40
1
40
1
40
1
41
1
10
22.8813176934071
20
0.0047762649003005
30
0
41
1
10
23.2152018375673
20
-0.182628521899034
30
0
41
1
10
23.5494130333051
20
-0.37025242720361
30
0
41
1
10
24.1824612733527
20
-0.722990181670042
30
0
41
1
10
24.4811347025627
20
-0.888229808970067
30
0
41
1
10
25.0809441162158
20
-1.21552678157696
30
0
41
1
10
25.3822390172948
20
-1.37778801456179
30
0
41
1
10
26.8786375715327
20
-2.1675786943224
30
0
41
1
10
28.058606718327
20
-2.73750690224654
30
0
41
1
10
29.546800349644
20
-3.32125505243218
30
0
41
1
10
29.8450966235774
20
-3.43157816091554
30
0
41
1
10
30.3053718543043
20
-3.59017007857332
30
0
41
1
10
30.4666601923606
20
-3.6435767712502
30
0
41
1
10
30.6280567868927
20
-3.69475081551619
30
0
0
SPLINE
5
DA
100
AcDbEntity
8
1
62
256
6
ByLayer
370
13
48
1
60
0
100
AcDbSpline
70
4
71
3
72
18
73
14
40
0
40
0
40
0
40
0
40
0.0649681430069013
40
0.0649681430069013
40
0.345589171356436
40
0.345589171356436
40
0.485899685531204
40
0.485899685531204
40
0.626210199705971
40
0.626210199705971
40
0.906831228055512
40
0.906831228055512
40
1
40
1
40
1
40
1
41
1
10
30.6280567866513
20
-3.69475081543962
30
0
41
1
10
30.7672299619392
20
-3.73887847658253
30
0
41
1
10
30.9064836335837
20
-3.78134600551675
30
0
41
1
10
31.6463760478608
20
-3.9976231240143
30
0
41
1
10
32.2460962844336
20
-4.14022841207822
30
0
41
1
10
33.1482986511252
20
-4.30004085632126
30
0
41
1
10
33.4487324912521
20
-4.34414523717203
30
0
41
1
10
34.049902327555
20
-4.41368883153743
30
0
41
1
10
34.3508347566383
20
-4.43910194396327
30
0
41
1
10
35.2486461801085
20
-4.4865032615555
30
0
41
1
10
35.8427484674304
20
-4.48004596359829
30
0
41
1
10
36.6329227636765
20
-4.42227635497713
30
0
41
1
10
36.8297794291778
20
-4.40380614109088
30
0
41
1
10
37.0266672461064
20
-4.38130815886353
30
0
0
SPLINE
5
DB
100
AcDbEntity
8
1
62
256
6
ByLayer
370
18
48
1
60
0
100
AcDbSpline
70
4
71
3
72
10
73
6
40
0
40
0
40
0
40
0
40
0.5
40
0.5
40
1
40
1
40
1
40
1
41
1
10
4.12551429763448
20
-3.22267110522353
30
0
41
1
10
4.09717696087887
20
-3.21113351987154
30
0
41
1
10
4.07254773336842
20
-3.19585452462906
30
0
41
1
10
4.0327313607732
20
-3.15906277736758
30
0
41
1
10
4.01791386728442
20
-3.13771002879889
30
0
41
1
10
4.00923995042308
20
-3.11502155423037
30
0
0
SPLINE
5
DC
100
AcDbEntity
8
1
62
256
6
ByLayer
370
13
48
1
60
0
100
AcDbSpline
70
4
71
3
72
31
73
27
40
0
40
0
40
0
40
0
40
0.125
40
0.125
40
0.1875
40
0.1875
40
0.25
40
0.3125
40
0.3125
40
0.375
40
0.375
40
0.5
40
0.5
40
0.5625
40
0.5625
40
0.625
40
0.625
40
0.6875
40
0.6875
40
0.75
40
0.75
40
0.875
40
0.875
40
0.9375
40
0.9375
40
1
40
1
40
1
40
1
41
1
10
4.25034541420894
20
-3.04413868346162
30
0
41
1
10
4.25042180321145
20
-2.82957190510766
30
0
41
1
10
4.25048873687908
20
-2.59609294145613
30
0
41
1
10
4.25058030690997
20
-2.21771439031261
30
0
41
1
10
4.25060922558592
20
-2.08727801887059
30
0
41
1
10
4.25066395016356
20
-1.82193041862016
30
0
41
1
10
4.25071583482699
20
-1.55099972294789
30
0
41
1
10
4.25076382336795
20
-1.2690343736804
30
0
41
1
10
4.2508106432071
20
-0.981443178141831
30
0
41
1
10
4.25083357227365
20
-0.834108843201932
30
0
41
1
10
4.25090022422751
20
-0.392888244005576
30
0
41
1
10
4.25094229641377
20
-0.0975629417006303
30
0
41
1
10
4.25100499635766
20
0.347173018516401
30
0
41
1
10
4.25102587746619
20
0.496218097265796
30
0
41
1
10
4.2510674038239
20
0.792529108640679
30
0
41
1
10
4.25108794600729
20
0.939051772508662
30
0
41
1
10
4.25112868671073
20
1.22884491877974
30
0
41
1
10
4.25114890595202
20
1.37226046807047
30
0
41
1
10
4.25118858046454
20
1.65351293130061
30
0
41
1
10
4.25120795697291
20
1.79080061572759
30
0
41
1
10
4.25126393978877
20
2.19012285688024
30
0
41
1
10
4.25129867973976
20
2.44097217145543
30
0
41
1
10
4.25134374167618
20
2.79386946548311
30
0
41
1
10
4.2513575742384
20
2.90777391491213
30
0
41
1
10
4.25138156338929
20
3.12351871430278
30
0
41
1
10
4.25139179164412
20
3.22588336887759
30
0
41
1
10
4.25139983061933
20
3.32271511973818
30
0
0
SPLINE
5
DD
100
AcDbEntity
8
1
62
256
6
ByLayer
370
18
48
1
60
0
100
AcDbSpline
70
4
71
3
72
8
73
4
40
0
40
0
40
0
40
0
40
1
40
1
40
1
40
1
41
1
10
61.4047986970593
20
-4.56258721734395
30
0
41
1
10
61.4187505556217
20
-4.5252885987986
30
0
41
1
10
61.4326883791713
20
-4.4879657230249
30
0
41
1
10
61.4466110579852
20
-4.45062158018993
30
0
0
SPLINE
5
DE
100
AcDbEntity
8
1
62
256
6
ByLayer
370
18
48
1
60
0
100
AcDbSpline
70
2053
71
3
72
62
73
58
40
0
40
0
40
0
40
0
40
0.0312499999999993
40
0.0312499999999993
40
0.0624999999999985
40
0.0624999999999985
40
0.0937499999999978
40
0.0937499999999978
40
0.124999999999997
40
0.124999999999997
40
0.156249999999996
40
0.156249999999996
40
0.187499999999996
40
0.187499999999996
40
0.218749999999995
40
0.218749999999995
40
0.249999999999994
40
0.249999999999994
40
0.281249999999993
40
0.281249999999993
40
0.312499999999993
40
0.312499999999993
40
0.374999999999991
40
0.374999999999991
40
0.43749999999999
40
0.43749999999999
40
0.468749999999991
40
0.468749999999991
40
0.499999999999993
40
0.499999999999993
40
0.531249999999994
40
0.531249999999994
40
0.562499999999995
40
0.562499999999995
40
0.593749999999996
40
0.593749999999996
40
0.624999999999998
40
0.624999999999998
40
0.656249999999999
40
0.656249999999999
40
0.6875
40
0.6875
40
0.718750000000001
40
0.718750000000001
40
0.750000000000003
40
0.750000000000003
40
0.812500000000005
40
0.812500000000005
40
0.843750000000005
40
0.843750000000005
40
0.875000000000005
40
0.875000000000005
40
0.906250000000005
40
0.906250000000005
40
0.937500000000004
40
0.937500000000004
40
1
40
1
40
1
40
1
41
1
10
61.7398299022261
20
-1.55116121839047
30
0
41
1
10
61.717078154329
20
-1.58343644638526
30
0
41
1
10
61.6947859319292
20
-1.61804828372308
30
0
41
1
10
61.651196548288
20
-1.69233164497285
30
0
41
1
10
61.6296667356625
20
-1.73248407641213
30
0
41
1
10
61.5890641001163
20
-1.81632286016713
30
0
41
1
10
61.5700653767416
20
-1.85974467025187
30
0
41
1
10
61.5350421630253
20
-1.95001878410923
30
0
41
1
10
61.5193614146986
20
-1.99614248710264
30
0
41
1
10
61.4931326230533
20
-2.08673859266756
30
0
41
1
10
61.4822612510242
20
-2.13248770046033
30
0
41
1
10
61.4666916252176
20
-2.21862764426294
30
0
41
1
10
61.4618368928066
20
-2.2594157396058
30
0
41
1
10
61.4580207219474
20
-2.33507766255889
30
0
41
1
10
61.4590782219981
20
-2.36884259854708
30
0
41
1
10
61.46648202562
20
-2.42912115031797
30
0
41
1
10
61.4728244807453
20
-2.45513338281046
30
0
41
1
10
61.4897604771267
20
-2.49860588793521
30
0
41
1
10
61.500509133134
20
-2.51638174251332
30
0
41
1
10
61.5252380664017
20
-2.54354813524228
30
0
41
1
10
61.5392492001511
20
-2.55312676592715
30
0
41
1
10
61.5858123280758
20
-2.57084671686269
30
0
41
1
10
61.6217540140404
20
-2.56776433789989
30
0
41
1
10
61.7011962693186
20
-2.53512478887228
30
0
41
1
10
61.7433246404912
20
-2.5061889915888
30
0
41
1
10
61.8097482745108
20
-2.44423563848716
30
0
41
1
10
61.8323677344927
20
-2.42044620936107
30
0
41
1
10
61.8772710521341
20
-2.3678234722868
30
0
41
1
10
61.8997335857435
20
-2.33883572102701
30
0
41
1
10
61.9446823447357
20
-2.27502946010276
30
0
41
1
10
61.9673986856747
20
-2.23979886231754
30
0
41
1
10
62.0112218395867
20
-2.16515531361563
30
0
41
1
10
62.0324255045433
20
-2.12568133856411
30
0
41
1
10
62.0732110004476
20
-2.04180267349753
30
0
41
1
10
62.0926378562208
20
-1.99759927640696
30
0
41
1
10
62.1276596706837
20
-1.90795277609351
30
0
41
1
10
62.1436927001751
20
-1.86130117837072
30
0
41
1
10
62.1704077206973
20
-1.77003030231648
30
0
41
1
10
62.1812127433657
20
-1.72531440160722
30
0
41
1
10
62.1973454089534
20
-1.63785583410279
30
0
41
1
10
62.2023096198094
20
-1.59698021892828
30
0
41
1
10
62.2063340951373
20
-1.52144566248001
30
0
41
1
10
62.2053188393101
20
-1.48689707527186
30
0
41
1
10
62.1979510358235
20
-1.42682772230589
30
0
41
1
10
62.1915246480458
20
-1.40062348759804
30
0
41
1
10
62.1658628464859
20
-1.33562513699377
30
0
41
1
10
62.1399890531652
20
-1.3091411989426
30
0
41
1
10
62.0934286986925
20
-1.29200656764468
30
0
41
1
10
62.076383368056
20
-1.28998746838633
30
0
41
1
10
62.0405017011415
20
-1.29292149400203
30
0
41
1
10
62.0216368198766
20
-1.29780662129073
30
0
41
1
10
61.9821536442073
20
-1.314062868035
30
0
41
1
10
61.9613764742661
20
-1.32556231834164
30
0
41
1
10
61.9190707655288
20
-1.3545285624831
30
0
41
1
10
61.8974998260516
20
-1.37196740171612
30
0
41
1
10
61.8315235058353
20
-1.43321644016757
30
0
41
1
10
61.7853333980202
20
-1.48661076240089
30
0
41
1
10
61.7398299022261
20
-1.55116121839047
30
0
0
SPLINE
5
DF
100
AcDbEntity
8
1
62
256
6
ByLayer
370
18
48
1
60
0
100
AcDbSpline
70
4
71
3
72
18
73
14
40
0
40
0
40
0
40
0
40
0.250000000000002
40
0.250000000000002
40
0.375000000000002
40
0.375000000000002
40
0.500000000000002
40
0.500000000000002
40
0.625000000000001
40
0.625000000000001
40
0.750000000000001
40
0.750000000000001
40
1
40
1
40
1
40
1
41
1
10
8.98175354158576
20
0.830569768138616
30
0
41
1
10
8.57408586680617
20
1.04912742327039
30
0
41
1
10
8.17061571041341
20
1.26918657337538
30
0
41
1
10
7.56963825419308
20
1.59541635366946
30
0
41
1
10
7.37001020892626
20
1.70355358002405
30
0
41
1
10
6.97178822634197
20
1.9185054449483
30
0
41
1
10
6.77321502446114
20
2.02523313166
30
0
41
1
10
6.377029843911
20
2.23651444951005
30
0
41
1
10
6.17941312829626
20
2.34108402155437
30
0
41
1
10
5.78512117463242
20
2.54767394392388
30
0
41
1
10
5.58826175021028
20
2.64978527361873
30
0
41
1
10
5.00434949955223
20
2.94928097336728
30
0
41
1
10
4.62214562150376
20
3.14053635202319
30
0
41
1
10
4.25139983172031
20
3.32271511921078
30
0
0
SPLINE
5
E0
100
AcDbEntity
8
1
62
256
6
ByLayer
370
18
48
1
60
0
100
AcDbSpline
70
4
71
3
72
14
73
10
40
0
40
0
40
0
40
0
40
0.25
40
0.25
40
0.5
40
0.5
40
0.75
40
0.75
40
1
40
1
40
1
40
1
41
1
10
61.0339832198193
20
1.06319312622057
30
0
41
1
10
61.0254440630742
20
1.09256461370077
30
0
41
1
10
61.0200919528069
20
1.12264268440916
30
0
41
1
10
61.0173852280286
20
1.18462831562869
30
0
41
1
10
61.019854772631
20
1.21695383188597
30
0
41
1
10
61.0388363347241
20
1.27801051001703
30
0
41
1
10
61.0567593424806
20
1.30597435931151
30
0
41
1
10
61.1059249659496
20
1.34725245128834
30
0
41
1
10
61.13601452682
20
1.36031721762041
30
0
41
1
10
61.167271473383
20
1.36748315245214
30
0
0
SPLINE
5
E1
100
AcDbEntity
8
1
62
256
6
ByLayer
370
18
48
1
60
0
100
AcDbSpline
70
4
71
3
72
56
73
52
40
0
40
0
40
0
40
0
40
0.0727295984036257
40
0.0727295984036257
40
0.109094397605439
40
0.109094397605439
40
0.145459196807251
40
0.145459196807251
40
0.181823996009064
40
0.181823996009064
40
0.218188795210877
40
0.218188795210877
40
0.25455359441269
40
0.25455359441269
40
0.290918393614503
40
0.290918393614503
40
0.363647992018129
40
0.363647992018129
40
0.400012791219942
40
0.400012791219942
40
0.436377590421755
40
0.436377590421755
40
0.472742389623568
40
0.472742389623568
40
0.509107188825381
40
0.509107188825381
40
0.545471988027194
40
0.545471988027194
40
0.581836787229007
40
0.581836787229007
40
0.618201586430819
40
0.618201586430819
40
0.654566385632632
40
0.654566385632632
40
0.727295984036256
40
0.727295984036256
40
0.763660783238069
40
0.763660783238069
40
0.800025582439881
40
0.800025582439881
40
0.836390381641693
40
0.836390381641693
40
0.872755180843505
40
0.872755180843505
40
0.909119980045317
40
0.909119980045317
40
0.945484779247129
40
0.945484779247129
40
0.981849578448941
40
0.981849578448941
40
1
40
1
40
1
40
1
41
1
10
14.455122610327
20
3.7680143508872
30
0
41
1
10
14.945466636229
20
3.60733212060796
30
0
41
1
10
15.4364904729107
20
3.42834112870176
30
0
41
1
10
16.1709862557419
20
3.12977377655972
30
0
41
1
10
16.4151941095956
20
3.02475317636046
30
0
41
1
10
16.905602006503
20
2.80788237833755
30
0
41
1
10
17.1517870855215
20
2.69552294305001
30
0
41
1
10
17.6429771541788
20
2.4635100269337
30
0
41
1
10
17.888011520792
20
2.34374127128677
30
0
41
1
10
18.3769472548351
20
2.09655359882822
30
0
41
1
10
18.6216678324161
20
1.97038477105468
30
0
41
1
10
19.1119464660254
20
1.71355370332969
30
0
41
1
10
19.3573537314215
20
1.5826586979002
30
0
41
1
10
19.8482972647108
20
1.31515390746969
30
0
41
1
10
20.0932660589998
20
1.1780174090342
30
0
41
1
10
20.8283850874761
20
0.766253481894466
30
0
41
1
10
21.3188856868356
20
0.489013217594788
30
0
41
1
10
22.0528182768448
20
0.0647532643509976
30
0
41
1
10
22.298166349057
20
-0.0768158379817407
30
0
41
1
10
22.7896139597079
20
-0.358097705939684
30
0
41
1
10
23.035056380585
20
-0.497936607980421
30
0
41
1
10
23.5249651128868
20
-0.776736440282434
30
0
41
1
10
23.7690439429368
20
-0.916351279979665
30
0
41
1
10
24.2584619800188
20
-1.19082170000635
30
0
41
1
10
24.5037110255334
20
-1.32585003107545
30
0
41
1
10
24.994699941369
20
-1.59250718936835
30
0
41
1
10
25.240663064404
20
-1.7242106758234
30
0
41
1
10
25.7303279038312
20
-1.98341270969442
30
0
41
1
10
25.9749299504738
20
-2.11000607623649
30
0
41
1
10
26.4648928461506
20
-2.35543902055028
30
0
41
1
10
26.7099765502286
20
-2.47472283905827
30
0
41
1
10
27.1999296853571
20
-2.70700723148599
30
0
41
1
10
27.4444146557467
20
-2.820518903731
30
0
41
1
10
28.1804934966148
20
-3.14725071294527
30
0
41
1
10
28.6717292395709
20
-3.34544892772198
30
0
41
1
10
29.4050326637687
20
-3.61654893135838
30
0
41
1
10
29.649437667074
20
-3.70192944472055
30
0
41
1
10
30.1399021028011
20
-3.86105411707155
30
0
41
1
10
30.3859286548271
20
-3.93526476815128
30
0
41
1
10
30.8767881137799
20
-4.07259753688416
30
0
41
1
10
31.1212009687093
20
-4.13595901728942
30
0
41
1
10
31.6103232969419
20
-4.25017623716576
30
0
41
1
10
31.8553029000621
20
-4.30091836386251
30
0
41
1
10
32.3453952242197
20
-4.39033103426192
30
0
41
1
10
32.590550795853
20
-4.42897216853297
30
0
41
1
10
33.0806289392604
20
-4.49402582201671
30
0
41
1
10
33.3257880654723
20
-4.52022651558949
30
0
41
1
10
33.8161500686359
20
-4.55924061842356
30
0
41
1
10
34.0612705813925
20
-4.57226677780292
30
0
41
1
10
34.4283257895986
20
-4.58216159043644
30
0
41
1
10
34.5503894142709
20
-4.58384626537261
30
0
41
1
10
34.6724223348755
20
-4.58390598766567
30
0
0
SPLINE
5
E2
100
AcDbEntity
8
1
62
256
6
ByLayer
370
18
48
1
60
0
100
AcDbSpline
70
4
71
3
72
28
73
24
40
0
40
0
40
0
40
0
40
0.063849252796897
40
0.063849252796897
40
0.157464327517207
40
0.157464327517207
40
0.251079402237518
40
0.251079402237518
40
0.344694476957828
40
0.344694476957828
40
0.438309551678139
40
0.438309551678139
40
0.531924626398449
40
0.531924626398449
40
0.625539701118759
40
0.625539701118759
40
0.71915477583907
40
0.71915477583907
40
0.81276985055938
40
0.81276985055938
40
0.90638492527969
40
0.90638492527969
40
1
40
1
40
1
40
1
41
1
10
53.641768025025
20
3.33678549392243
30
0
41
1
10
53.8085719184487
20
3.40330000427849
30
0
41
1
10
53.9756273609569
20
3.46748203919813
30
0
41
1
10
54.3884706166565
20
3.61979315169862
30
0
41
1
10
54.6341414519327
20
3.70524071604257
30
0
41
1
10
55.1238052401393
20
3.86574275833692
30
0
41
1
10
55.3676675222796
20
3.94119130046178
30
0
41
1
10
55.856549233616
20
4.07961279466309
30
0
41
1
10
56.1014333990405
20
4.14278632176297
30
0
41
1
10
56.5915157311812
20
4.25761142619936
30
0
41
1
10
56.8370042260691
20
4.30930153694797
30
0
41
1
10
57.3266112733052
20
4.40073212135755
30
0
41
1
10
57.5710888726332
20
4.4400145569146
30
0
41
1
10
58.0604920088868
20
4.50555889185293
30
0
41
1
10
58.3051582778194
20
4.53196455058907
30
0
41
1
10
58.7940052826639
20
4.57213562039982
30
0
41
1
10
59.0377978252384
20
4.58591179467453
30
0
41
1
10
59.5269182177022
20
4.60020752817385
30
0
41
1
10
59.7726105152521
20
4.60080365104778
30
0
41
1
10
60.2633238858415
20
4.58902752940958
30
0
41
1
10
60.5081696539009
20
4.57667854243823
30
0
41
1
10
60.9963731436888
20
4.53881606323208
30
0
41
1
10
61.2402282571656
20
4.5133644615747
30
0
41
1
10
61.484661124248
20
4.48177945567633
30
0
0
SPLINE
5
E3
100
AcDbEntity
8
1
62
256
6
ByLayer
370
13
48
1
60
0
100
AcDbSpline
70
4
71
3
72
8
73
4
40
0
40
0
40
0
40
0
40
1
40
1
40
1
40
1
41
1
10
4.12551429763448
20
-3.22267110522253
30
0
41
1
10
4.12614092626208
20
-3.20166949900187
30
0
41
1
10
4.12677221322923
20
-3.18066470398861
30
0
41
1
10
4.12740817820537
20
-3.15965661620208
30
0
0
SPLINE
5
E4
100
AcDbEntity
8
1
62
256
6
ByLayer
370
18
48
1
60
0
100
AcDbSpline
70
4
71
3
72
78
73
74
40
0
40
0
40
0
40
0
40
0.0358810112580462
40
0.0358810112580462
40
0.074644023076783
40
0.074644023076783
40
0.11340703489552
40
0.11340703489552
40
0.190933058532993
40
0.190933058532993
40
0.268459082170467
40
0.268459082170467
40
0.307222093989204
40
0.307222093989204
40
0.345985105807941
40
0.345985105807941
40
0.423511129445414
40
0.423511129445414
40
0.462274141264151
40
0.462274141264151
40
0.481655647173519
40
0.481655647173519
40
0.491346400128204
40
0.491346400128204
40
0.496191776605546
40
0.497403120724881
40
0.497705956754715
40
0.497705956754715
40
0.497857374769632
40
0.497857374769632
40
0.498008792784549
40
0.498008792784549
40
0.498614464844217
40
0.498614464844217
40
0.501037153082888
40
0.501037153082888
40
0.510727906037573
40
0.510727906037573
40
0.520418658992258
40
0.520418658992258
40
0.539800164901628
40
0.539800164901628
40
0.578563176720368
40
0.578563176720368
40
0.656089200357849
40
0.656089200357849
40
0.733615223995329
40
0.733615223995329
40
0.772378235814069
40
0.772378235814069
40
0.782068988768754
40
0.782068988768754
40
0.784491677007426
40
0.784491677007426
40
0.784794513037259
40
0.784794513037259
40
0.785097349067093
40
0.785097349067093
40
0.785703021126761
40
0.786914365246097
40
0.79175974172344
40
0.79175974172344
40
0.81114124763281
40
0.81114124763281
40
0.849904259451552
40
0.849904259451552
40
0.888667271270294
40
0.888667271270294
40
0.927430283089035
40
0.927430283089035
40
0.966193294907777
40
0.966193294907777
40
1
40
1
40
1
40
1
41
1
10
14.4551402112468
20
3.76801406391894
30
0
41
1
10
14.3229689202944
20
3.77016918376276
30
0
41
1
10
14.1908020291711
20
3.76832686189573
30
0
41
1
10
13.9156486433404
20
3.75508741032215
30
0
41
1
10
13.7726304695326
20
3.74292705087402
30
0
41
1
10
13.4858440141357
20
3.7067394709008
30
0
41
1
10
13.3414678990294
20
3.68256981272637
30
0
41
1
10
12.9108451652807
20
3.5915733358448
30
0
41
1
10
12.628965250878
20
3.5066707618133
30
0
41
1
10
12.0695999442539
20
3.29214932930182
30
0
41
1
10
11.79206502889
20
3.162615344747
30
0
41
1
10
11.3731239605627
20
2.94131054279649
30
0
41
1
10
11.2324350869101
20
2.86272016242648
30
0
41
1
10
10.9521319877074
20
2.69968484814245
30
0
41
1
10
10.8129440112413
20
2.61553574391254
30
0
41
1
10
10.3966421970663
20
2.35774951706796
30
0
41
1
10
10.1207498068674
20
2.17884083476025
30
0
41
1
10
9.70383491041278
20
1.90859571003372
30
0
41
1
10
9.56436115394843
20
1.818180449035
30
0
41
1
10
9.3537767332005
20
1.68303334883319
30
0
41
1
10
9.28358285697522
20
1.63821087212025
30
0
41
1
10
9.17821979057558
20
1.57142896558776
30
0
41
1
10
9.14309017082041
20
1.54924576445865
30
0
41
1
10
9.09038797422656
20
1.51610945585051
30
0
41
1
10
9.06842584444576
20
1.50233071150455
30
0
41
1
10
9.04536311017324
20
1.48790321450622
30
0
41
1
10
9.0398718201323
20
1.48447051666531
30
0
41
1
10
9.0382244243203
20
1.48344085372133
30
0
41
1
10
9.03750411094205
20
1.48318006958883
30
0
41
1
10
9.03707055149616
20
1.48204953774606
30
0
41
1
10
9.03735058045467
20
1.48145500748461
30
0
41
1
10
9.03878306812183
20
1.47891906082808
30
0
41
1
10
9.04065806715292
20
1.47737701224096
30
0
41
1
10
9.0496231344537
20
1.46963919768638
30
0
41
1
10
9.05767054067792
20
1.46438229307535
30
0
41
1
10
9.09768565706972
20
1.43804772895837
30
0
41
1
10
9.13111464037272
20
1.41880737344434
30
0
41
1
10
9.1979103347885
20
1.38037152340416
30
0
41
1
10
9.23153331658463
20
1.3614906339088
30
0
41
1
10
9.33268301134626
20
1.30530254854671
30
0
41
1
10
9.40050591204243
20
1.26846582931674
30
0
41
1
10
9.60439257839465
20
1.1588311808699
30
0
41
1
10
9.74091071652936
20
1.08695324692218
30
0
41
1
10
10.151124032647
20
0.873284005934238
30
0
41
1
10
10.4253553865205
20
0.733334433089851
30
0
41
1
10
10.9736110068927
20
0.456923768596653
30
0
41
1
10
11.2478356467307
20
0.320485069365049
30
0
41
1
10
11.6567480858102
20
0.116358039581968
30
0
41
1
10
11.7930777555197
20
0.0486439888417749
30
0
41
1
10
11.9604878752418
20
-0.0370432621175496
30
0
41
1
10
11.9940429477607
20
-0.0541492094703813
30
0
41
1
10
12.034181479524
20
-0.0762712161753996
30
0
41
1
10
12.0424932519269
20
-0.0806342073720714
30
0
41
1
10
12.0500612315338
20
-0.0860600540903818
30
0
41
1
10
12.0509180770019
20
-0.0866800532431
30
0
41
1
10
12.0519029507807
20
-0.0879426773146861
30
0
41
1
10
12.050704354323
20
-0.0881159341692808
30
0
41
1
10
12.0477542674856
20
-0.0885678663531451
30
0
41
1
10
12.0418542409388
20
-0.0894662254914351
30
0
41
1
10
12.0202222849932
20
-0.0926996297314702
30
0
41
1
10
12.0005625430024
20
-0.0954550881281477
30
0
41
1
10
11.9219360838297
20
-0.105885741596808
30
0
41
1
10
11.8591117642922
20
-0.112333946223174
30
0
41
1
10
11.670683378005
20
-0.125903270680084
30
0
41
1
10
11.5453877022477
20
-0.127205337154152
30
0
41
1
10
11.2955738427604
20
-0.114211016766518
30
0
41
1
10
11.1708130866683
20
-0.0999344793594901
30
0
41
1
10
10.919728471646
20
-0.0556444597543475
30
0
41
1
10
10.7930176372141
20
-0.0255075285004409
30
0
41
1
10
10.5375142164411
20
0.0502820103908448
30
0
41
1
10
10.4096292590206
20
0.0956185232514883
30
0
41
1
10
10.1679136175994
20
0.193415698238198
30
0
41
1
10
10.0543732207143
20
0.244227162151987
30
0
41
1
10
9.93915278605274
20
0.299871972547294
30
0
0
SPLINE
5
E5
100
AcDbEntity
8
1
62
256
6
ByLayer
370
18
48
1
60
0
100
AcDbSpline
70
4
71
3
72
28
73
24
40
0
40
0
40
0
40
0
40
0.0624999999999999
40
0.0624999999999999
40
0.125
40
0.125
40
0.25
40
0.25
40
0.375
40
0.375
40
0.4375
40
0.4375
40
0.5
40
0.5
40
0.625
40
0.625
40
0.6875
40
0.6875
40
0.75
40
0.75
40
0.875
40
0.875
40
1
40
1
40
1
40
1
41
1
10
4.00344833970541
20
-3.08429418428673
30
0
41
1
10
4.00345530674863
20
-2.97006872067141
30
0
41
1
10
4.00346191709568
20
-2.85010594575667
30
0
41
1
10
4.00347436828267
20
-2.60258005801717
30
0
41
1
10
4.00348021696675
20
-2.47499115887942
30
0
41
1
10
4.00349688321339
20
-2.08102825904862
30
0
41
1
10
4.00350683031431
20
-1.80340211727716
30
0
41
1
10
4.00352553217647
20
-1.21793903420155
30
0
41
1
10
4.00353399006866
20
-0.919829884625159
30
0
41
1
10
4.00354620047477
20
-0.464917430562252
30
0
41
1
10
4.00355018736337
20
-0.311978401110679
30
0
41
1
10
4.00355810050343
20
-0.0034289243416481
30
0
41
1
10
4.00356202515511
20
0.152134003126434
30
0
41
1
10
4.00357356711984
20
0.612248145875611
30
0
41
1
10
4.0035810613866
20
0.91385375019135
30
0
41
1
10
4.0035922283225
20
1.35855372910322
30
0
41
1
10
4.00359595515963
20
1.50632124052925
30
0
41
1
10
4.00360323550834
20
1.79413599526089
30
0
41
1
10
4.00360679003526
20
1.93423623218345
30
0
41
1
10
4.00361713724632
20
2.3434037114653
30
0
41
1
10
4.00362363428138
20
2.60145298575228
30
0
41
1
10
4.00363505266589
20
3.08686399826883
30
0
41
1
10
4.0036397700805
20
3.30597371486317
30
0
41
1
10
4.00364298959542
20
3.50230813170938
30
0
0
SPLINE
5
E6
100
AcDbEntity
8
1
62
256
6
ByLayer
370
18
48
1
60
0
100
AcDbSpline
70
4
71
3
72
82
73
78
40
0
40
0
40
0
40
0
40
0.0161065749379288
40
0.0161065749379288
40
0.041040523435118
40
0.041040523435118
40
0.0659744719323072
40
0.0659744719323072
40
0.115842368926685
40
0.115842368926685
40
0.140776317423875
40
0.140776317423875
40
0.165710265921065
40
0.165710265921065
40
0.190644214418255
40
0.190644214418255
40
0.215578162915444
40
0.215578162915444
40
0.240512111412634
40
0.240512111412634
40
0.265446059909824
40
0.265446059909824
40
0.290380008407013
40
0.290380008407013
40
0.315313956904203
40
0.315313956904203
40
0.365181853898582
40
0.365181853898582
40
0.390115802395772
40
0.390115802395772
40
0.415049750892962
40
0.415049750892962
40
0.439983699390152
40
0.439983699390152
40
0.464917647887341
40
0.464917647887341
40
0.489851596384531
40
0.489851596384531
40
0.514785544881721
40
0.514785544881721
40
0.53971949337891
40
0.53971949337891
40
0.5646534418761
40
0.5646534418761
40
0.58958739037329
40
0.58958739037329
40
0.61452133887048
40
0.61452133887048
40
0.639455287367669
40
0.639455287367669
40
0.664389235864859
40
0.664389235864859
40
0.689323184362049
40
0.689323184362049
40
0.714257132859238
40
0.714257132859238
40
0.764125029853618
40
0.764125029853618
40
0.789058978350808
40
0.789058978350808
40
0.813992926847998
40
0.813992926847998
40
0.838926875345188
40
0.838926875345188
40
0.863860823842379
40
0.863860823842379
40
0.888794772339569
40
0.888794772339569
40
0.913728720836759
40
0.913728720836759
40
0.938662669333949
40
0.938662669333949
40
0.96359661783114
40
0.96359661783114
40
0.98853056632833
40
0.98853056632833
40
1
40
1
40
1
40
1
41
1
10
53.6435306817348
20
-3.33030088976807
30
0
41
1
10
53.4798785006245
20
-3.38910385846694
30
0
41
1
10
53.3163221665452
20
-3.44579550946466
30
0
41
1
10
52.8992918719355
20
-3.58394096048815
30
0
41
1
10
52.645566872932
20
-3.66185297116141
30
0
41
1
10
52.137270980592
20
-3.80700587392403
30
0
41
1
10
51.8829999090706
20
-3.87433118076791
30
0
41
1
10
51.1223922847748
20
-4.05955454854538
30
0
41
1
10
50.6155440288645
20
-4.15952401558073
30
0
41
1
10
49.8537686886503
20
-4.26960880564394
30
0
41
1
10
49.5997074868442
20
-4.29948251170833
30
0
41
1
10
49.0922175355044
20
-4.34427096190194
30
0
41
1
10
48.8384902292831
20
-4.36044607655219
30
0
41
1
10
48.3310956604918
20
-4.38096693238464
30
0
41
1
10
48.0775139367308
20
-4.38496684140375
30
0
41
1
10
47.570304668239
20
-4.37819426908692
30
0
41
1
10
47.3159839902013
20
-4.36772011297683
30
0
41
1
10
46.8077111790178
20
-4.33484293521281
30
0
41
1
10
46.5538169038562
20
-4.31228920357324
30
0
41
1
10
46.0466629713329
20
-4.25290686541769
30
0
41
1
10
45.7934948119724
20
-4.21552261161557
30
0
41
1
10
45.286080623529
20
-4.12952286224578
30
0
41
1
10
45.0318976765558
20
-4.08086367269888
30
0
41
1
10
44.5232616511556
20
-3.97092164955501
30
0
41
1
10
44.2696017873818
20
-3.90934999059746
30
0
41
1
10
43.5092782372989
20
-3.70604423182843
30
0
41
1
10
43.0018608175376
20
-3.55084162243608
30
0
41
1
10
42.2397238643388
20
-3.28160125976703
30
0
41
1
10
41.9857881327082
20
-3.18617721361298
30
0
41
1
10
41.4781210739811
20
-2.98815270509056
30
0
41
1
10
41.2243479216695
20
-2.8850028643821
30
0
41
1
10
40.7169037582121
20
-2.66930741117116
30
0
41
1
10
40.4634186970152
20
-2.55612110834002
30
0
41
1
10
39.955598088875
20
-2.32355297003696
30
0
41
1
10
39.7010529685857
20
-2.20402030692202
30
0
41
1
10
39.1930515029391
20
-1.95869880012009
30
0
41
1
10
38.9393298785063
20
-1.83278296402321
30
0
41
1
10
38.4324839629248
20
-1.57466715413142
30
0
41
1
10
38.1790445745398
20
-1.44345694005168
30
0
41
1
10
37.6712400096836
20
-1.1773427904723
30
0
41
1
10
37.4166498408654
20
-1.04211598333069
30
0
41
1
10
36.9084915108395
20
-0.768611114713821
30
0
41
1
10
36.6550881282117
20
-0.630080549936565
30
0
41
1
10
36.1479201665215
20
-0.352676156120083
30
0
41
1
10
35.894236420178
20
-0.213593629527224
30
0
41
1
10
35.3864858370071
20
0.065076826138295
30
0
41
1
10
35.1323118288823
20
0.204789606633881
30
0
41
1
10
34.6241662696342
20
0.484243969053523
30
0
41
1
10
34.3703384700354
20
0.623025130243377
30
0
41
1
10
33.8627485289989
20
0.897455784002915
30
0
41
1
10
33.6089994914814
20
1.03311104189026
30
0
41
1
10
33.1015796955056
20
1.30172463034629
30
0
41
1
10
32.8480784605055
20
1.43513259047063
30
0
41
1
10
32.3396963200653
20
1.69642060149613
30
0
41
1
10
32.0853886473016
20
1.82415021590734
30
0
41
1
10
31.3238310748376
20
2.19732847472588
30
0
41
1
10
30.817714602272
20
2.43678145250254
30
0
41
1
10
30.0553088186913
20
2.76811199947184
30
0
41
1
10
29.8006190621791
20
2.87437775447475
30
0
41
1
10
29.2928217119786
20
3.0790692217445
30
0
41
1
10
29.0393917494122
20
3.17745914941375
30
0
41
1
10
28.5319857337138
20
3.36254280561869
30
0
41
1
10
28.2781207319743
20
3.44891214665614
30
0
41
1
10
27.7700107344723
20
3.61284656962215
30
0
41
1
10
27.5157140873438
20
3.69055164780465
30
0
41
1
10
27.0078049705808
20
3.83345502328155
30
0
41
1
10
26.7540431627768
20
3.89772832661919
30
0
41
1
10
26.2464741709081
20
4.01510126045744
30
0
41
1
10
25.9926902866091
20
4.06846841668872
30
0
41
1
10
25.4854087137634
20
4.1632923311677
30
0
41
1
10
25.2314487802772
20
4.20418975756988
30
0
41
1
10
24.7227211425074
20
4.27082969397995
30
0
41
1
10
24.4685598254865
20
4.29809071237028
30
0
41
1
10
23.9607487408399
20
4.34072688710435
30
0
41
1
10
23.7073525827304
20
4.35608770789247
30
0
41
1
10
23.3368972578561
20
4.36720797792671
30
0
41
1
10
23.2201003888853
20
4.3690780597714
30
0
41
1
10
23.1032240039756
20
4.36952565692536
30
0
0
SPLINE
5
E7
100
AcDbEntity
8
1
62
256
6
ByLayer
370
13
48
1
60
0
100
AcDbSpline
70
4
71
3
72
20
73
16
40
0
40
0
40
0
40
0
40
0.232018473030734
40
0.232018473030734
40
0.464036946061468
40
0.464036946061468
40
0.52204156431915
40
0.52204156431915
40
0.580046182576832
40
0.580046182576832
40
0.696055419092196
40
0.696055419092196
40
0.928073892122922
40
0.928073892122922
40
1
40
1
40
1
40
1
41
1
10
4.20134081667362
20
-3.17521747375093
30
0
41
1
10
4.80246051906727
20
-3.41188815334928
30
0
41
1
10
5.39960692871006
20
-3.61915445017985
30
0
41
1
10
6.59260944303713
20
-3.97003333850549
30
0
41
1
10
7.18850099065526
20
-4.11362893776817
30
0
41
1
10
7.93725919282886
20
-4.24881264639347
30
0
41
1
10
8.08720077895964
20
-4.27363677979
30
0
41
1
10
8.38758563098432
20
-4.31877371852082
30
0
41
1
10
8.53821970207963
20
-4.33910565707478
30
0
41
1
10
8.98885113018159
20
-4.39294137661531
30
0
41
1
10
9.28802538165041
20
-4.41937992060309
30
0
41
1
10
10.1830441938082
20
-4.47048410724284
30
0
41
1
10
10.7763074562202
20
-4.46695585662732
30
0
41
1
10
11.5537316315403
20
-4.41389519611994
30
0
41
1
10
11.7377216588823
20
-4.39778715093718
30
0
41
1
10
11.9218344174385
20
-4.37814868707872
30
0
0
SPLINE
5
E8
100
AcDbEntity
8
1
62
256
6
ByLayer
370
18
48
1
60
0
100
AcDbSpline
70
4
71
3
72
16
73
12
40
0
40
0
40
0
40
0
40
0.147266359504093
40
0.147266359504093
40
0.39921893454932
40
0.39921893454932
40
0.651171509594546
40
0.651171509594546
40
0.903124084639773
40
0.903124084639773
40
1
40
1
40
1
40
1
41
1
10
47.8991689928113
20
-0.00526671055934
30
0
41
1
10
48.2456202347053
20
-0.200354832347017
30
0
41
1
10
48.5920432253114
20
-0.395415643387537
30
0
41
1
10
49.5326744651771
20
-0.921219953032335
30
0
41
1
10
50.1285831017278
20
-1.24882628941211
30
0
41
1
10
51.3312072002382
20
-1.88361815826218
30
0
41
1
10
51.9267852143761
20
-2.18494708763106
30
0
41
1
10
53.1139133833434
20
-2.74477024271667
30
0
41
1
10
53.7057655527335
20
-3.00284761727164
30
0
41
1
10
54.5271683521385
20
-3.32394747641189
30
0
41
1
10
54.7555087497404
20
-3.40924859286884
30
0
41
1
10
54.9842811301195
20
-3.49038711965392
30
0
0
SPLINE
5
E9
100
AcDbEntity
8
1
62
256
6
ByLayer
370
13
48
1
60
0
100
AcDbSpline
70
4
71
3
72
18
73
14
40
0
40
0
40
0
40
0
40
0.170239110810975
40
0.170239110810975
40
0.239385851576728
40
0.239385851576728
40
0.308532592342479
40
0.308532592342479
40
0.446826073873984
40
0.446826073873984
40
0.723413036936992
40
0.723413036936992
40
1
40
1
40
1
40
1
41
1
10
54.9842811301706
20
-3.49038711967205
30
0
41
1
10
55.3504945119368
20
-3.62027174226495
30
0
41
1
10
55.7178148428495
20
-3.73948979358099
30
0
41
1
10
56.2370981915962
20
-3.89046783671597
30
0
41
1
10
56.3875395578364
20
-3.93214929532124
30
0
41
1
10
56.6873720902765
20
-4.01099898494562
30
0
41
1
10
56.8369712124475
20
-4.04823271171176
30
0
41
1
10
57.2849932347717
20
-4.15329743817602
30
0
41
1
10
57.582640441568
20
-4.21448162125614
30
0
41
1
10
58.4739419201503
20
-4.37093653958303
30
0
41
1
10
59.0660543414807
20
-4.43917896986073
30
0
41
1
10
60.2527752230313
20
-4.50137162601806
30
0
41
1
10
60.8475251772151
20
-4.49476562380377
30
0
41
1
10
61.4466110579851
20
-4.45062158018996
30
0
0
SPLINE
5
EA
100
AcDbEntity
8
SK1
62
256
6
ByLayer
370
18
48
1
60
0
100
AcDbSpline
70
4
71
3
72
10
73
6
40
0
40
0
40
0
40
0
40
0.5
40
0.5
40
1
40
1
40
1
40
1
41
1
10
-38.95
20
-2.97083419590743
30
0
41
1
10
-39.1281002653425
20
-2.71541126200279
30
0
41
1
10
-39.3053068773951
20
-2.45960247160588
30
0
41
1
10
-39.6562276857791
20
-1.9464769555814
30
0
41
1
10
-39.8300482945171
20
-1.68920617609254
30
0
41
1
10
-40
20
-1.43026490374493
30
0
0
SPLINE
5
EB
100
AcDbEntity
8
SK1
62
256
6
ByLayer
370
18
48
1
60
0
100
AcDbSpline
70
4
71
3
72
14
73
10
40
0
40
0
40
0
40
0
40
0.5
40
0.5
40
0.75
40
0.75
40
0.875
40
0.875
40
1
40
1
40
1
40
1
41
1
10
-38.9500000000001
20
-4.47195469064539
30
0
41
1
10
-38.9287234691649
20
-4.50246847971121
30
0
41
1
10
-38.9083432483059
20
-4.52933514092354
30
0
41
1
10
-38.880223151313
20
-4.5611569147546
30
0
41
1
10
-38.8713218079587
20
-4.57023385888934
30
0
41
1
10
-38.8602667834558
20
-4.57852251005613
30
0
41
1
10
-38.8569157654531
20
-4.58043450661219
30
0
41
1
10
-38.851744720606
20
-4.58090995270948
30
0
41
1
10
-38.8499999999999
20
-4.5793755962481
30
0
41
1
10
-38.8499999999999
20
-4.57495113076396
30
0
0
SPLINE
5
EC
100
AcDbEntity
8
SK1
62
256
6
ByLayer
370
18
48
1
60
0
100
AcDbSpline
70
4
71
3
72
14
73
10
40
0
40
0
40
0
40
0
40
0.25
40
0.25
40
0.5
40
0.5
40
0.75
40
0.75
40
1
40
1
40
1
40
1
41
1
10
-13.4757361404172
20
4.88950486134547
30
0
41
1
10
-13.5261165975723
20
4.90376073534188
30
0
41
1
10
-13.5820550105882
20
4.91548091984319
30
0
41
1
10
-13.7068358595671
20
4.93483625959249
30
0
41
1
10
-13.7765661763097
20
4.94249917533585
30
0
41
1
10
-13.9236219836565
20
4.95392849343909
30
0
41
1
10
-14.0016396683479
20
4.95785257100459
30
0
41
1
10
-14.1671228399343
20
4.96279233758577
30
0
41
1
10
-14.2509910131883
20
4.96372255791863
30
0
41
1
10
-14.3360135685353
20
4.96324398997837
30
0
0
SPLINE
5
ED
100
AcDbEntity
8
SK1
62
256
6
ByLayer
370
18
48
1
60
0
100
AcDbSpline
70
4
71
3
72
10
73
6
40
0
40
0
40
0
40
0
40
0.5
40
0.5
40
1
40
1
40
1
40
1
41
1
10
-39.9999999999999
20
-2.931385398483
30
0
41
1
10
-39.8301257758578
20
-3.19020861895862
30
0
41
1
10
-39.6563253118241
20
-3.44745352007104
30
0
41
1
10
-39.3053898261476
20
-3.96060285482889
30
0
41
1
10
-39.1281394681189
20
-4.21647553398239
30
0
41
1
10
-38.95
20
-4.47195469064528
30
0
0
SPLINE
5
EE
100
AcDbEntity
8
SK1
62
256
6
ByLayer
370
18
48
1
60
0
100
AcDbSpline
70
4
71
3
72
18
73
14
40
0
40
0
40
0
40
0
40
0.249999999999999
40
0.249999999999999
40
0.499999999999998
40
0.499999999999998
40
0.624999999999999
40
0.624999999999999
40
0.749999999999999
40
0.749999999999999
40
0.875
40
0.875
40
1
40
1
40
1
40
1
41
1
10
-33.3643795499458
20
0.35869535912397
30
0
41
1
10
-33.324131060926
20
0.273286667650751
30
0
41
1
10
-33.2780819433201
20
0.191583190072606
30
0
41
1
10
-33.1705899960984
20
0.0381050561776135
30
0
41
1
10
-33.1081954976225
20
-0.0345130886720142
30
0
41
1
10
-33.0029229156112
20
-0.12826711715428
30
0
41
1
10
-32.9658751168769
20
-0.157085403174307
30
0
41
1
10
-32.8872739578722
20
-0.209128778063899
30
0
41
1
10
-32.845433159134
20
-0.232426184279035
30
0
41
1
10
-32.7595417585925
20
-0.271060112154117
30
0
41
1
10
-32.7152232078404
20
-0.286631233129839
30
0
41
1
10
-32.6235911664282
20
-0.309614416847154
30
0
41
1
10
-32.5762212859739
20
-0.316951080650114
30
0
41
1
10
-32.5286345040458
20
-0.31964187251728
30
0
0
SPLINE
5
EF
100
AcDbEntity
8
SK1
62
256
6
ByLayer
370
18
48
1
60
0
100
AcDbSpline
70
4
71
3
72
14
73
10
40
0
40
0
40
0
40
0
40
0.25
40
0.25
40
0.5
40
0.5
40
0.75
40
0.75
40
1
40
1
40
1
40
1
41
1
10
-32.5286345040458
20
4.76672674202479
30
0
41
1
10
-32.6239033163762
20
4.7650971804463
30
0
41
1
10
-32.7146307629521
20
4.7581590232877
30
0
41
1
10
-32.8880764575988
20
4.7336724673236
30
0
41
1
10
-32.966411748493
20
4.71664088741247
30
0
41
1
10
-33.1081691141436
20
4.67329198373656
30
0
41
1
10
-33.1696373812933
20
4.6475346631438
30
0
41
1
10
-33.2773794551564
20
4.58868076342335
30
0
41
1
10
-33.3240781814694
20
4.55526103055647
30
0
41
1
10
-33.3643795499476
20
4.51855112910221
30
0
0
SPLINE
5
F0
100
AcDbEntity
8
SK1
62
256
6
ByLayer
370
18
48
1
60
0
100
AcDbSpline
70
4
71
3
72
16
73
12
40
0
40
0
40
0
40
0
40
0.25
40
0.25
40
0.375000000000001
40
0.375000000000001
40
0.500000000000001
40
0.500000000000001
40
0.75
40
0.75
40
1
40
1
40
1
40
1
41
1
10
-14.3360135685353
20
-1.23367723919
30
0
41
1
10
-14.2510493872195
20
-1.23750647123666
30
0
41
1
10
-14.1676548474018
20
-1.22976954153742
30
0
41
1
10
-14.0447948287781
20
-1.20166068608964
30
0
41
1
10
-14.003962644329
20
-1.18938434792969
30
0
41
1
10
-13.9252581667303
20
-1.15997175509506
30
0
41
1
10
-13.8871736929698
20
-1.14282389908178
30
0
41
1
10
-13.7764868166361
20
-1.08445778169957
30
0
41
1
10
-13.7068582487893
20
-1.03567269510666
30
0
41
1
10
-13.5820441018451
20
-0.925538039533194
30
0
41
1
10
-13.5261070970744
20
-0.863971457563281
30
0
41
1
10
-13.4757361404172
20
-0.796667725333123
30
0
0
SPLINE
5
F1
100
AcDbEntity
8
SK1
62
256
6
ByLayer
370
18
48
1
60
0
100
AcDbSpline
70
4
71
3
72
14
73
10
40
0
40
0
40
0
40
0
40
0.124999999999998
40
0.124999999999998
40
0.249999999999995
40
0.249999999999995
40
0.499999999999995
40
0.499999999999995
40
1
40
1
40
1
40
1
41
1
10
-38.85
20
-3.193920275605
30
0
41
1
10
-38.85
20
-3.18544127473382
30
0
41
1
10
-38.8517453396944
20
-3.17513574002706
30
0
41
1
10
-38.8568901241517
20
-3.15433583170903
30
0
41
1
10
-38.860211966304
20
-3.143933394725
30
0
41
1
10
-38.8714485682308
20
-3.11272189012067
30
0
41
1
10
-38.8802054040538
20
-3.09299233283099
30
0
41
1
10
-38.9082792076556
20
-3.03565583134161
30
0
41
1
10
-38.9286347141248
20
-3.00147527323227
30
0
41
1
10
-38.95
20
-2.97083419590743
30
0
0
LINE
5
76
100
AcDbEntity
8
81
62
256
6
ByLayer
370
18
48
1
60
0
100
AcDbLine
10
63
20
0
30
0
11
68
21
0
31
0
39
0
210
0
220
0
230
1
0
LINE
5
77
100
AcDbEntity
8
1
62
256
6
ByLayer
370
18
48
1
60
0
100
AcDbLine
10
2.145054
20
4.564396
30
0
11
1.098498
21
4.563768
31
0
39
0
210
0
220
0
230
1
0
LINE
5
79
100
AcDbEntity
8
1
62
256
6
ByLayer
370
18
48
1
60
0
100
AcDbLine
10
35.389815
20
4.584343
30
0
11
34.670833
21
4.583912
31
0
39
0
210
0
220
0
230
1
0
LINE
5
7A
100
AcDbEntity
8
1
62
256
6
ByLayer
370
18
48
1
60
0
100
AcDbLine
10
60.38993
20
4.599343
30
0
11
59.677286
21
4.598916
31
0
39
0
210
0
220
0
230
1
0
LINE
5
7B
100
AcDbEntity
8
1
62
256
6
ByLayer
370
18
48
1
60
0
100
AcDbLine
10
59.677286
20
-4.598916
30
0
11
60.389737
21
-4.599343
31
0
39
0
210
0
220
0
230
1
0
LINE
5
7C
100
AcDbEntity
8
1
62
256
6
ByLayer
370
18
48
1
60
0
100
AcDbLine
10
34.670833
20
-4.583912
30
0
11
35.389963
21
-4.584343
31
0
39
0
210
0
220
0
230
1
0
LINE
5
7D
100
AcDbEntity
8
1
62
256
6
ByLayer
370
18
48
1
60
0
100
AcDbLine
10
1.098498
20
-4.563768
30
0
11
2.145054
21
-4.564396
31
0
39
0
210
0
220
0
230
1
0
LINE
5
7E
100
AcDbEntity
8
SK1
62
256
6
ByLayer
370
18
48
1
60
0
100
AcDbLine
10
0
20
5
30
0
11
-38.845299
21
5
31
0
39
0
210
0
220
0
230
1
0
LINE
5
80
100
AcDbEntity
8
SK1
62
256
6
ByLayer
370
18
48
1
60
0
100
AcDbLine
10
-38.845299
20
-5
30
0
11
0
21
-5
31
0
39
0
210
0
220
0
230
1
0
LINE
5
81
100
AcDbEntity
8
SK1
62
256
6
ByLayer
370
18
48
1
60
0
100
AcDbLine
10
-38.845299
20
5
30
0
11
-40
21
3
31
0
39
0
210
0
220
0
230
1
0
LINE
5
82
100
AcDbEntity
8
SK1
62
256
6
ByLayer
370
18
48
1
60
0
100
AcDbLine
10
-40
20
-3
30
0
11
-38.845299
21
-5
31
0
39
0
210
0
220
0
230
1
0
LINE
5
83
100
AcDbEntity
8
1
62
256
6
ByLayer
370
18
48
1
60
0
100
AcDbLine
10
10.389556
20
4.569343
30
0
11
8.595603
21
4.568267
31
0
39
0
210
0
220
0
230
1
0
LINE
5
84
100
AcDbEntity
8
1
62
256
6
ByLayer
370
18
48
1
60
0
100
AcDbLine
10
8.595603
20
-4.568267
30
0
11
10.389849
21
-4.569343
31
0
39
0
210
0
220
0
230
1
0
LINE
5
85
100
AcDbEntity
8
SK4
62
256
6
ByLayer
370
18
48
0.05
60
0
100
AcDbLine
10
68
20
0
30
0
11
-45
21
0
31
0
39
0
210
0
220
0
230
1
0
LINE
5
87
100
AcDbEntity
8
4
62
256
6
ByLayer
370
18
48
0.05
60
0
100
AcDbLine
10
63
20
0
30
0
11
0
21
0
31
0
39
0
210
0
220
0
230
1
0
LINE
5
89
100
AcDbEntity
8
80
62
256
6
ByLayer
370
18
48
1
60
0
100
AcDbLine
10
0
20
0
30
0
11
-5
21
0
31
0
39
0
210
0
220
0
230
1
0
LINE
5
8A
100
AcDbEntity
8
1
62
256
6
ByLayer
370
13
48
1
60
0
100
AcDbLine
10
1.098498
20
4.563768
30
0
11
1.098498
21
-4.563768
31
0
39
0
210
0
220
0
230
1
0
LINE
5
8B
100
AcDbEntity
8
1
62
256
6
ByLayer
370
18
48
1
60
0
100
AcDbLine
10
62.990971
20
0.044951
30
0
11
63
21
0
31
0
39
0
210
0
220
0
230
1
0
LINE
5
8C
100
AcDbEntity
8
1
62
256
6
ByLayer
370
18
48
1
60
0
100
AcDbLine
10
0
20
-5
30
0
11
0
21
5
31
0
39
0
210
0
220
0
230
1
0
LINE
5
8D
100
AcDbEntity
8
1
62
256
6
ByLayer
370
13
48
1
60
0
100
AcDbLine
10
61.987153
20
0.857832
30
0
11
62.914544
21
0.307581
31
0
39
0
210
0
220
0
230
1
0
LINE
5
8E
100
AcDbEntity
8
1
62
256
6
ByLayer
370
13
48
1
60
0
100
AcDbLine
10
0.549009
20
4.781884
30
0
11
0.549009
21
-4.781884
31
0
39
0
210
0
220
0
230
1
0
LINE
5
8F
100
AcDbEntity
8
1
62
256
6
ByLayer
370
13
48
1
60
0
100
AcDbLine
10
62.775814
20
0.857832
30
0
11
61.987153
21
0.857832
31
0
39
0
210
0
220
0
230
1
0
LINE
5
90
100
AcDbEntity
8
1
62
256
6
ByLayer
370
18
48
1
60
0
100
AcDbLine
10
62.914544
20
-0.307581
30
0
11
62.775814
21
-0.857832
31
0
39
0
210
0
220
0
230
1
0
LINE
5
91
100
AcDbEntity
8
1
62
256
6
ByLayer
370
18
48
1
60
0
100
AcDbLine
10
62.914544
20
0.307581
30
0
11
62.775814
21
0.857832
31
0
39
0
210
0
220
0
230
1
0
LINE
5
92
100
AcDbEntity
8
1
62
256
6
ByLayer
370
18
48
1
60
0
100
AcDbLine
10
63
20
0
30
0
11
61.401824
21
-4.390952
31
0
39
0
210
0
220
0
230
1
0
LINE
5
93
100
AcDbEntity
8
1
62
256
6
ByLayer
370
18
48
1
60
0
100
AcDbLine
10
60.704391
20
-2.391106
30
0
11
62.894598
21
-0.128592
31
0
39
0
210
0
220
0
230
1
0
LINE
5
94
100
AcDbEntity
8
1
62
256
6
ByLayer
370
18
48
1
60
0
100
AcDbLine
10
63
20
0
30
0
11
62.990971
21
-0.044951
31
0
39
0
210
0
220
0
230
1
0
LINE
5
95
100
AcDbEntity
8
1
62
256
6
ByLayer
370
13
48
1
60
0
100
AcDbLine
10
61.797247
20
0.522503
30
0
11
62.894598
21
-0.128592
31
0
39
0
210
0
220
0
230
1
0
LINE
5
96
100
AcDbEntity
8
SK1
62
256
6
ByLayer
370
18
48
1
60
0
100
AcDbLine
10
0
20
-5
30
0
11
0
21
5
31
0
39
0
210
0
220
0
230
1
0
LINE
5
97
100
AcDbEntity
8
SK1
62
256
6
ByLayer
370
13
48
1
60
0
100
AcDbLine
10
-32.528635
20
4.766727
30
0
11
-32.528635
21
-0.319642
31
0
39
0
210
0
220
0
230
1
0
LINE
5
98
100
AcDbEntity
8
SK1
62
256
6
ByLayer
370
18
48
1
60
0
100
AcDbLine
10
-38.85
20
-4.574951
30
0
11
-38.85
21
-3.19392
31
0
39
0
210
0
220
0
230
1
0
LINE
5
99
100
AcDbEntity
8
SK1
62
256
6
ByLayer
370
18
48
1
60
0
100
AcDbLine
10
-40
20
3
30
0
11
-40
21
-1.430265
31
0
39
0
210
0
220
0
230
1
0
LINE
5
9A
100
AcDbEntity
8
SK1
62
256
6
ByLayer
370
13
48
1
60
0
100
AcDbLine
10
-33.36438
20
4.518551
30
0
11
-33.36438
21
0.358695
31
0
39
0
210
0
220
0
230
1
0
LINE
5
9B
100
AcDbEntity
8
SK1
62
256
6
ByLayer
370
18
48
1
60
0
100
AcDbLine
10
-40
20
-1.430228
30
0
11
-40
21
-2.931385
31
0
39
0
210
0
220
0
230
1
0
LINE
5
9C
100
AcDbEntity
8
SK1
62
256
6
ByLayer
370
13
48
1
60
0
100
AcDbLine
10
-13.475736
20
4.889505
30
0
11
-13.475736
21
-0.796668
31
0
39
0
210
0
220
0
230
1
0
LINE
5
9D
100
AcDbEntity
8
SK1
62
256
6
ByLayer
370
13
48
1
60
0
100
AcDbLine
10
-38.95
20
-2.970721
30
0
11
-38.95
21
-4.471955
31
0
39
0
210
0
220
0
230
1
0
LINE
5
9E
100
AcDbEntity
8
SK1
62
256
6
ByLayer
370
13
48
1
60
0
100
AcDbLine
10
-14.336014
20
4.963244
30
0
11
-14.336014
21
-1.233677
31
0
39
0
210
0
220
0
230
1
0
LINE
5
9F
100
AcDbEntity
8
SK1
62
256
6
ByLayer
370
18
48
1
60
0
100
AcDbLine
10
-38.845299
20
5
30
0
11
-38.845299
21
-5
31
0
39
0
210
0
220
0
230
1
0
LINE
5
A0
100
AcDbEntity
8
SK1
62
256
6
ByLayer
370
18
48
1
60
0
100
AcDbLine
10
-40
20
-3
30
0
11
-40
21
-2.931385
31
0
39
0
210
0
220
0
230
1
0
MTEXT
5
F2
100
AcDbEntity
8
SK6
62
256
6
ByLayer
370
13
48
1
60
0
100
AcDbMText
10
13.629169
20
36.982694
30
0
210
0
220
0
230
1
1
\W0.7544;R840-0920-50-W1A1220
40
3.5
41
0
44
1.084337
50
0
71
8
72
5
7
iso_b_vert
0
DIMENSION
5
FF
100
AcDbEntity
8
SK2
62
256
6
ByLayer
370
13
48
1
60
0
100
AcDbDimension
2
DimnDraft3D1
10
61.43
20
-14.813398
30
0
11
29.180059
21
-14.813398
31
0
70
32
71
5
72
1
41
1
210
0
220
0
230
1
3
Standard
100
AcDbAlignedDimension
13
0
23
-1.5875
33
0
14
61.43
24
-6.1875
34
0
50
0
100
AcDbRotatedDimension
1001
ACAD
1000
DSTYLE
1002
{
1070
   279
1070
     0
1070
   172
1070
     1
1070
   173
1070
     1
1070
   340
1005
F3
1070
   271
1070
     2
1070
   272
1070
     2
1070
    77
1070
     1
1070
    73
1070
     0
1070
   171
1070
     3
1070
   274
1070
     4
1070
   177
1070
    35
1070
   176
1070
    35
1070
   178
1070
    35
1070
    48
1040
-0.005
1070
    41
1041
3.5
1070
   147
1041
1.75
1070
    42
1041
1.5875
1070
    44
1041
2.0
1070
   140
1041
3.5
1070
   343
1005
0
1070
   344
1005
0
1002
}
0
DIMENSION
5
109
100
AcDbEntity
8
SK2
62
256
6
ByLayer
370
13
48
1
60
0
100
AcDbDimension
2
DimnDraft3D2
10
63
20
-33.692985
30
0
11
11.2713
21
-33.692985
31
0
70
32
71
5
72
1
41
1
210
0
220
0
230
1
3
Standard
100
AcDbAlignedDimension
13
-40
23
-6.5875
33
0
14
63
24
-1.5875
34
0
50
0
100
AcDbRotatedDimension
1001
ACAD
1000
DSTYLE
1002
{
1070
   279
1070
     0
1070
   172
1070
     1
1070
   173
1070
     1
1070
   340
1005
F3
1070
   271
1070
     2
1070
   272
1070
     2
1070
    77
1070
     1
1070
    73
1070
     0
1070
   171
1070
     3
1070
   274
1070
     4
1070
   177
1070
    35
1070
   176
1070
    35
1070
   178
1070
    35
1070
    48
1040
-0.005
1070
    41
1041
3.5
1070
   147
1041
1.75
1070
    42
1041
1.5875
1070
    44
1041
2.0
1070
   140
1041
3.5
1070
   343
1005
0
1070
   344
1005
0
1002
}
0
DIMENSION
5
113
100
AcDbEntity
8
SK2
62
256
6
ByLayer
370
13
48
1
60
0
100
AcDbDimension
2
DimnDraft3D3
10
63
20
16.209119
30
0
11
39.215
21
16.209119
31
0
70
32
71
5
72
1
41
1
210
0
220
0
230
1
3
Standard
100
AcDbAlignedDimension
13
15.43
23
6.1875
33
0
14
63
24
1.5875
34
0
50
0
100
AcDbRotatedDimension
1001
ACAD
1000
DSTYLE
1002
{
1070
   279
1070
     0
1070
   172
1070
     1
1070
   173
1070
     1
1070
   340
1005
F3
1070
   271
1070
     2
1070
   272
1070
     2
1070
    77
1070
     1
1070
    73
1070
     0
1070
   171
1070
     3
1070
   274
1070
     4
1070
   177
1070
    35
1070
   176
1070
    35
1070
   178
1070
    35
1070
    48
1040
-0.005
1070
    41
1041
3.5
1070
   147
1041
1.75
1070
    42
1041
1.5875
1070
    44
1041
2.0
1070
   140
1041
3.5
1070
   343
1005
0
1070
   344
1005
0
1002
}
0
DIMENSION
5
11D
100
AcDbEntity
8
SK2
62
256
6
ByLayer
370
13
48
1
60
0
100
AcDbDimension
2
DimnDraft3D4
10
61.43
20
-17.402503
30
0
11
72.981425
21
-17.402503
31
0
70
32
71
5
72
1
41
1
210
0
220
0
230
1
3
Standard
100
AcDbAlignedDimension
13
63
23
-1.5875
33
0
14
61.43
24
-6.1875
34
0
50
0
100
AcDbRotatedDimension
1001
ACAD
1000
DSTYLE
1002
{
1070
   279
1070
     0
1070
   172
1070
     1
1070
   173
1070
     1
1070
   340
1005
F3
1070
   271
1070
     2
1070
   272
1070
     2
1070
    77
1070
     1
1070
    73
1070
     0
1070
   171
1070
     3
1070
   274
1070
     4
1070
   177
1070
    35
1070
   176
1070
    35
1070
   178
1070
    35
1070
    48
1040
-0.005
1070
    41
1041
3.5
1070
   147
1041
1.75
1070
    42
1041
1.5875
1070
    44
1041
2.0
1070
   140
1041
3.5
1070
   343
1005
0
1070
   344
1005
0
1002
}
0
DIMENSION
5
127
100
AcDbEntity
8
SK2
62
256
6
ByLayer
370
13
48
1
60
0
100
AcDbDimension
2
DimnDraft3D5
10
61.43
20
-23.343428
30
0
11
8.190676
21
-23.343428
31
0
70
32
71
5
72
1
41
1
210
0
220
0
230
1
3
Standard
100
AcDbAlignedDimension
13
-40
23
-6.5875
33
0
14
61.43
24
-6.1875
34
0
50
0
100
AcDbRotatedDimension
1001
ACAD
1000
DSTYLE
1002
{
1070
   279
1070
     0
1070
   172
1070
     1
1070
   173
1070
     1
1070
   340
1005
F3
1070
   271
1070
     2
1070
   272
1070
     2
1070
    77
1070
     1
1070
    73
1070
     0
1070
   171
1070
     3
1070
   274
1070
     4
1070
   177
1070
    35
1070
   176
1070
    35
1070
   178
1070
    35
1070
    48
1040
-0.005
1070
    41
1041
3.5
1070
   147
1041
1.75
1070
    42
1041
1.5875
1070
    44
1041
2.0
1070
   140
1041
3.5
1070
   343
1005
0
1070
   344
1005
0
1002
}
0
DIMENSION
5
132
100
AcDbEntity
8
SK2
62
256
6
ByLayer
370
13
48
1
60
0
100
AcDbDimension
2
DimnDraft3D6
10
-50.625163
20
5
30
0
11
-51.250163
21
23.47418
31
0
70
33
71
5
72
1
41
1
210
0
220
0
230
1
3
Standard
100
AcDbAlignedDimension
13
-41.5875
23
-5
33
0
14
-41.5875
24
5
34
0
1001
ACAD
1000
DSTYLE
1002
{
1070
   279
1070
     0
1070
    74
1070
     0
1070
   173
1070
     1
1070
   340
1005
F3
1070
   271
1070
     3
1070
   272
1070
     2
1070
    77
1070
     1
1070
    73
1070
     0
1070
   171
1070
     3
1070
   274
1070
     4
1070
   177
1070
    35
1070
   176
1070
    35
1070
   178
1070
    35
1070
    48
1040
-0.005
1070
    41
1041
3.5
1070
   147
1041
1.75
1070
    42
1041
1.5875
1070
    44
1041
2.0
1070
   140
1041
3.5
1070
   343
1005
0
1070
   344
1005
0
1002
}
0
DIMENSION
5
13D
100
AcDbEntity
8
2
62
256
6
ByLayer
370
13
48
1
60
0
100
AcDbDimension
2
DimnDraft3D7
10
77.083343
20
4.6
30
0
11
72.458343
21
21.667266
31
0
70
33
71
5
72
1
41
1
210
0
220
0
230
1
3
Standard
100
AcDbAlignedDimension
13
63.0175
23
-4.6
33
0
14
63.0175
24
4.6
34
0
1001
ACAD
1000
DSTYLE
1002
{
1070
   279
1070
     0
1070
    74
1070
     0
1070
   173
1070
     1
1070
   340
1005
F3
1070
   271
1070
     3
1070
   272
1070
     2
1070
    77
1070
     1
1070
    73
1070
     0
1070
   171
1070
     3
1070
   274
1070
     4
1070
   177
1070
    35
1070
   176
1070
    35
1070
   178
1070
    35
1070
    48
1040
-0.005
1070
    41
1041
3.5
1070
   147
1041
1.75
1070
    42
1041
1.5875
1070
    44
1041
2.0
1070
   140
1041
3.5
1070
   343
1005
0
1070
   344
1005
0
1002
}
0
ENDSEC
0
SECTION
2
OBJECTS
0
DICTIONARY
5
1a8
330
0
100
AcDbDictionary
280
0
281
1
3
ACAD_GROUP
350
1a9
3
ACAD_MLINESTYLE
350
1aa
0
DICTIONARY
5
1a9
330
0
100
AcDbDictionary
280
0
281
1
0
DICTIONARY
5
1aa
330
0
100
AcDbDictionary
280
0
281
1
3
Standard
350
18
0
MLINESTYLE
5
18
330
1aa
100
AcDbMlineStyle
2
Standard
70
0
3

62
256
51
90
52
90
71
2
49
-0.5
62
256
6
ByLayer
49
0.5
62
256
6
ByLayer
0
RASTERVARIABLES
5
196
330

100
AcDbRasterVariables
90
0
70
1
71
1
72
1
0
ENDSEC
0
EOF
