0
SECTION
2
HEADER
9
$ACADVER
1
AC1015
9
$DWGCODEPAGE
3
ANSI_1252
9
$HANDSEED
5
1a0
9
$ANGBASE
50
0
9
$ANGDIR
70
0
9
$ATTMODE
70
1
9
$AUNITS
70
0
9
$AUPREC
70
0
9
$CECOLOR
62
256
9
$CELTSCALE
40
1
9
$CELTYPE
6
ByLayer
9
$CELWEIGHT
370
18
9
$CLAYER
8
0
9
$CMLJUST
70
0
9
$CMLSCALE
40
1
9
$CMLSTYLE
2
Standard
9
$DIMSTYLE
2
Standard
9
$TEXTSIZE
40
0.2
9
$TEXTSTYLE
7
Standard
9
$LUNITS
70
2
9
$LUPREC
70
4
9
$EXTNAMES
290
1
9
$INSUNITS
70
4
9
$LTSCALE
40
1
9
$LWDISPLAY
290
1
9
$PDMODE
70
0
9
$PDSIZE
40
0
9
$PLINEGEN
70
0
0
ENDSEC
0
SECTION
2
CLASSES
0
CLASS
1
RASTERVARIABLES
2
AcDbRasterVariables
3
ISM
90
0
280
0
281
0
0
ENDSEC
0
SECTION
2
TABLES
0
TABLE
2
VPORT
5
196
100
AcDbSymbolTable
0
VPORT
5
1
100
AcDbSymbolTableRecord
100
AcDbViewportTableRecord
2
*Active
70
0
10
0
20
0
11
1
21
1
12
-1
22
1
13
0
23
0
14
0.5
24
0.5
15
10
25
10
16
0
26
0
36
1
17
0
27
0
37
0
0
ENDTAB
0
TABLE
2
LTYPE
5
197
100
AcDbSymbolTable
0
LTYPE
5
14
100
AcDbSymbolTableRecord
100
AcDbLinetypeTableRecord
70
0
2
ByBlock
3

72
65
73
0
40
0
0
LTYPE
5
15
100
AcDbSymbolTableRecord
100
AcDbLinetypeTableRecord
70
0
2
ByLayer
3

72
65
73
0
40
0
0
LTYPE
5
16
100
AcDbSymbolTableRecord
100
AcDbLinetypeTableRecord
70
0
2
CONTINUOUS
3
Solid line
72
65
73
0
40
0
0
LTYPE
5
6A
100
AcDbSymbolTableRecord
100
AcDbLinetypeTableRecord
70
0
2
CENTER
3
____ _ ____ _ ____ _ ____
72
65
73
4
40
47.5
49
22
74
0
49
-8.5
74
0
49
8.5
74
0
49
-8.5
74
0
0
LTYPE
5
6B
100
AcDbSymbolTableRecord
100
AcDbLinetypeTableRecord
70
0
2
DASHED
3
__ __ __ __ __ __ __ __ __
72
65
73
2
40
25.72
49
12.86
74
0
49
-12.86
74
0
0
ENDTAB
0
TABLE
2
LAYER
5
198
100
AcDbSymbolTable
0
LAYER
5
10
100
AcDbSymbolTableRecord
100
AcDbLayerTableRecord
2
0
70
0
62
7
6
CONTINUOUS
290
1
370
-3
390
0
0
LAYER
5
6D
100
AcDbSymbolTableRecord
100
AcDbLayerTableRecord
2
81
70
0
62
-3
6
CONTINUOUS
290
1
370
-3
390
0
0
LAYER
5
6F
100
AcDbSymbolTableRecord
100
AcDbLayerTableRecord
2
80
70
0
62
-6
6
CONTINUOUS
290
1
370
-3
390
0
0
LAYER
5
74
100
AcDbSymbolTableRecord
100
AcDbLayerTableRecord
2
2
70
0
62
7
6
CONTINUOUS
290
1
370
-3
390
0
0
LAYER
5
78
100
AcDbSymbolTableRecord
100
AcDbLayerTableRecord
2
1
70
0
62
4
6
CONTINUOUS
290
1
370
-3
390
0
0
LAYER
5
84
100
AcDbSymbolTableRecord
100
AcDbLayerTableRecord
2
4
70
0
62
-2
6
CENTER
290
1
370
-3
390
0
0
LAYER
5
182
100
AcDbSymbolTableRecord
100
AcDbLayerTableRecord
2
SK2
70
0
62
7
6
CONTINUOUS
290
1
370
-3
390
0
0
LAYER
5
183
100
AcDbSymbolTableRecord
100
AcDbLayerTableRecord
2
SK1
70
0
62
4
6
CONTINUOUS
290
1
370
-3
390
0
0
LAYER
5
184
100
AcDbSymbolTableRecord
100
AcDbLayerTableRecord
2
SK4
70
0
62
2
6
CENTER
290
1
370
-3
390
0
0
LAYER
5
185
100
AcDbSymbolTableRecord
100
AcDbLayerTableRecord
2
SK6
70
0
62
5
6
CONTINUOUS
290
1
370
-3
390
0
0
ENDTAB
0
TABLE
2
STYLE
5
199
100
AcDbSymbolTable
0
STYLE
5
11
100
AcDbSymbolTableRecord
100
AcDbTextStyleTableRecord
2
Standard
3
txt
70
0
71
0
40
0
41
1
42
0
50
0
0
STYLE
5
DE
100
AcDbSymbolTableRecord
100
AcDbTextStyleTableRecord
2
iso_b_vert
3
simplex.shx
70
0
71
0
40
0
41
1
42
0
50
0
0
STYLE
5
DF
100
AcDbSymbolTableRecord
100
AcDbTextStyleTableRecord
2
DWGDirectTextStyle
3
simplex
70
0
71
0
40
0
41
1
42
0
50
0
0
ENDTAB
0
TABLE
2
DIMSTYLE
5
19a
100
AcDbSymbolTable
100
AcDbDimStyleTable
0
DIMSTYLE
105
27
100
AcDbSymbolTableRecord
100
AcDbDimStyleTableRecord
2
Standard
70
0
3
<>
41
0.18
42
0.0625
44
0.18
140
0.18
147
0.09
73
0
74
0
77
1
271
2
275
0
278
52
280
0
340
11
0
ENDTAB
0
TABLE
2
VIEW
5
19b
100
AcDbSymbolTable
0
ENDTAB
0
TABLE
2
UCS
5
19c
100
AcDbSymbolTable
0
ENDTAB
0
TABLE
2
APPID
5
19d
100
AcDbSymbolTable
0
APPID
5
12
100
AcDbSymbolTableRecord
100
AcDbRegAppTableRecord
2
ACAD
70
0
0
ENDTAB
0
TABLE
2
BLOCK_RECORD
5
19e
100
AcDbSymbolTable
0
BLOCK_RECORD
5
1F
100
AcDbSymbolTableRecord
100
AcDbBlockTableRecord
2
*Model_Space
340
0
70
0
0
BLOCK_RECORD
5
1B
100
AcDbSymbolTableRecord
100
AcDbBlockTableRecord
2
*Paper_Space
340
0
70
0
0
BLOCK_RECORD
5
23
100
AcDbSymbolTableRecord
100
AcDbBlockTableRecord
2
*Paper_Space0
340
0
70
0
0
BLOCK_RECORD
5
E1
100
AcDbSymbolTableRecord
100
AcDbBlockTableRecord
2
DimnDraft3D1
340
0
70
0
0
BLOCK_RECORD
5
EB
100
AcDbSymbolTableRecord
100
AcDbBlockTableRecord
2
DimnDraft3D2
340
0
70
0
0
BLOCK_RECORD
5
F5
100
AcDbSymbolTableRecord
100
AcDbBlockTableRecord
2
DimnDraft3D3
340
0
70
0
0
BLOCK_RECORD
5
FF
100
AcDbSymbolTableRecord
100
AcDbBlockTableRecord
2
DimnDraft3D4
340
0
70
0
0
BLOCK_RECORD
5
109
100
AcDbSymbolTableRecord
100
AcDbBlockTableRecord
2
DimnDraft3D5
340
0
70
0
0
BLOCK_RECORD
5
113
100
AcDbSymbolTableRecord
100
AcDbBlockTableRecord
2
DimnDraft3D6
340
0
70
0
0
BLOCK_RECORD
5
11E
100
AcDbSymbolTableRecord
100
AcDbBlockTableRecord
2
DimnDraft3D7
340
0
70
0
0
ENDTAB
0
ENDSEC
0
SECTION
2
BLOCKS
0
BLOCK
5
20
100
AcDbEntity
8
0
100
AcDbBlockBegin
2
*Model_Space
70
0
10
0
20
0
30
0
3
*Model_Space
0
ENDBLK
5
21
100
AcDbEntity
8
0
100
AcDbBlockEnd
0
BLOCK
5
1C
100
AcDbEntity
8
0
100
AcDbBlockBegin
2
*Paper_Space
70
0
10
0
20
0
30
0
3
*Paper_Space
0
ENDBLK
5
1D
100
AcDbEntity
8
0
100
AcDbBlockEnd
0
BLOCK
5
24
100
AcDbEntity
8
0
100
AcDbBlockBegin
2
*Paper_Space0
70
0
10
0
20
0
30
0
3
*Paper_Space0
0
ENDBLK
5
25
100
AcDbEntity
8
0
100
AcDbBlockEnd
0
BLOCK
5
E8
100
AcDbEntity
8
0
100
AcDbBlockBegin
2
DimnDraft3D1
70
0
10
0
20
0
30
0
3
DimnDraft3D1
0
MTEXT
5
E2
100
AcDbEntity
8
SK2
62
256
6
ByLayer
370
13
48
1
60
0
100
AcDbMText
10
17.362954
20
-13.938398
30
0
210
0
220
0
230
1
1
\W0.7845;47,43
40
3.5
41
0
44
1.084337
50
0
71
7
72
5
7
iso_b_vert
0
LINE
5
E3
100
AcDbEntity
8
SK2
62
256
6
ByLayer
370
13
48
1
60
0
100
AcDbLine
10
0
20
-1.5875
30
0
11
0
21
-16.813398
31
0
39
0
210
0
220
0
230
1
0
LINE
5
E4
100
AcDbEntity
8
SK2
62
256
6
ByLayer
370
13
48
1
60
0
100
AcDbLine
10
47.43
20
-6.1875
30
0
11
47.43
21
-16.813398
31
0
39
0
210
0
220
0
230
1
0
LINE
5
E5
100
AcDbEntity
8
SK2
62
256
6
ByLayer
370
13
48
1
60
0
100
AcDbLine
10
0
20
-14.813398
30
0
11
47.43
21
-14.813398
31
0
39
0
210
0
220
0
230
1
0
SOLID
5
E6
100
AcDbEntity
8
SK2
62
256
6
ByLayer
370
13
48
1
60
0
100
AcDbTrace
10
0
20
-14.813398
30
0
11
3.499998
21
-14.352615
31
0
12
3.500002
22
-15.274182
32
0
13
0
23
-14.813398
33
0
39
0
210
0
220
0
230
1
0
SOLID
5
E7
100
AcDbEntity
8
SK2
62
256
6
ByLayer
370
13
48
1
60
0
100
AcDbTrace
10
47.43
20
-14.813398
30
0
11
43.930002
21
-15.274182
31
0
12
43.929998
22
-14.352615
32
0
13
47.43
23
-14.813398
33
0
39
0
210
0
220
0
230
1
0
ENDBLK
5
E9
100
AcDbEntity
8
0
100
AcDbBlockEnd
0
BLOCK
5
F2
100
AcDbEntity
8
0
100
AcDbBlockBegin
2
DimnDraft3D2
70
0
10
0
20
0
30
0
3
DimnDraft3D2
0
MTEXT
5
EC
100
AcDbEntity
8
SK2
62
256
6
ByLayer
370
13
48
1
60
0
100
AcDbMText
10
-0.177384
20
-32.817985
30
0
210
0
220
0
230
1
1
\W0.7317;89,00
40
3.5
41
0
44
1.084337
50
0
71
7
72
5
7
iso_b_vert
0
LINE
5
ED
100
AcDbEntity
8
SK2
62
256
6
ByLayer
370
13
48
1
60
0
100
AcDbLine
10
-40
20
-6.5875
30
0
11
-40
21
-35.692985
31
0
39
0
210
0
220
0
230
1
0
LINE
5
EE
100
AcDbEntity
8
SK2
62
256
6
ByLayer
370
13
48
1
60
0
100
AcDbLine
10
49
20
-1.5875
30
0
11
49
21
-35.692985
31
0
39
0
210
0
220
0
230
1
0
LINE
5
EF
100
AcDbEntity
8
SK2
62
256
6
ByLayer
370
13
48
1
60
0
100
AcDbLine
10
-40
20
-33.692985
30
0
11
49
21
-33.692985
31
0
39
0
210
0
220
0
230
1
0
SOLID
5
F0
100
AcDbEntity
8
SK2
62
256
6
ByLayer
370
13
48
1
60
0
100
AcDbTrace
10
-40
20
-33.692985
30
0
11
-36.500002
21
-33.232202
31
0
12
-36.499998
22
-34.153769
32
0
13
-40
23
-33.692985
33
0
39
0
210
0
220
0
230
1
0
SOLID
5
F1
100
AcDbEntity
8
SK2
62
256
6
ByLayer
370
13
48
1
60
0
100
AcDbTrace
10
49
20
-33.692985
30
0
11
45.500002
21
-34.153769
31
0
12
45.499998
22
-33.232202
32
0
13
49
23
-33.692985
33
0
39
0
210
0
220
0
230
1
0
ENDBLK
5
F3
100
AcDbEntity
8
0
100
AcDbBlockEnd
0
BLOCK
5
FC
100
AcDbEntity
8
0
100
AcDbBlockBegin
2
DimnDraft3D3
70
0
10
0
20
0
30
0
3
DimnDraft3D3
0
MTEXT
5
F6
100
AcDbEntity
8
SK2
62
256
6
ByLayer
370
13
48
1
60
0
100
AcDbMText
10
30.403816
20
17.084119
30
0
210
0
220
0
230
1
1
\W0.6713;29,17
40
3.5
41
0
44
1.084337
50
0
71
7
72
5
7
iso_b_vert
0
LINE
5
F7
100
AcDbEntity
8
SK2
62
256
6
ByLayer
370
13
48
1
60
0
100
AcDbLine
10
19.83
20
6.1875
30
0
11
19.83
21
18.209119
31
0
39
0
210
0
220
0
230
1
0
LINE
5
F8
100
AcDbEntity
8
SK2
62
256
6
ByLayer
370
13
48
1
60
0
100
AcDbLine
10
49
20
1.5875
30
0
11
49
21
18.209119
31
0
39
0
210
0
220
0
230
1
0
LINE
5
F9
100
AcDbEntity
8
SK2
62
256
6
ByLayer
370
13
48
1
60
0
100
AcDbLine
10
19.83
20
16.209119
30
0
11
49
21
16.209119
31
0
39
0
210
0
220
0
230
1
0
SOLID
5
FA
100
AcDbEntity
8
SK2
62
256
6
ByLayer
370
13
48
1
60
0
100
AcDbTrace
10
19.83
20
16.209119
30
0
11
23.329998
21
16.669903
31
0
12
23.330002
22
15.748335
32
0
13
19.83
23
16.209119
33
0
39
0
210
0
220
0
230
1
0
SOLID
5
FB
100
AcDbEntity
8
SK2
62
256
6
ByLayer
370
13
48
1
60
0
100
AcDbTrace
10
49
20
16.209119
30
0
11
45.500002
21
15.748335
31
0
12
45.499998
22
16.669903
32
0
13
49
23
16.209119
33
0
39
0
210
0
220
0
230
1
0
ENDBLK
5
FD
100
AcDbEntity
8
0
100
AcDbBlockEnd
0
BLOCK
5
106
100
AcDbEntity
8
0
100
AcDbBlockBegin
2
DimnDraft3D4
70
0
10
0
20
0
30
0
3
DimnDraft3D4
0
MTEXT
5
100
100
AcDbEntity
8
SK2
62
256
6
ByLayer
370
13
48
1
60
0
100
AcDbMText
10
56.278136
20
-16.527503
30
0
210
0
220
0
230
1
1
\W0.6367;1,57
40
3.5
41
0
44
1.084337
50
0
71
7
72
5
7
iso_b_vert
0
LINE
5
101
100
AcDbEntity
8
SK2
62
256
6
ByLayer
370
13
48
1
60
0
100
AcDbLine
10
49
20
-1.5875
30
0
11
49
21
-19.402503
31
0
39
0
210
0
220
0
230
1
0
LINE
5
102
100
AcDbEntity
8
SK2
62
256
6
ByLayer
370
13
48
1
60
0
100
AcDbLine
10
47.43
20
-6.1875
30
0
11
47.43
21
-19.402503
31
0
39
0
210
0
220
0
230
1
0
LINE
5
103
100
AcDbEntity
8
SK2
62
256
6
ByLayer
370
13
48
1
60
0
100
AcDbLine
10
38.68
20
-17.402503
30
0
11
62.559715
21
-17.402503
31
0
39
0
210
0
220
0
230
1
0
SOLID
5
104
100
AcDbEntity
8
SK2
62
256
6
ByLayer
370
13
48
1
60
0
100
AcDbTrace
10
49
20
-17.402503
30
0
11
52.499998
21
-16.941719
31
0
12
52.500002
22
-17.863287
32
0
13
49
23
-17.402503
33
0
39
0
210
0
220
0
230
1
0
SOLID
5
105
100
AcDbEntity
8
SK2
62
256
6
ByLayer
370
13
48
1
60
0
100
AcDbTrace
10
47.43
20
-17.402503
30
0
11
43.930002
21
-17.863287
31
0
12
43.929998
22
-16.941719
32
0
13
47.43
23
-17.402503
33
0
39
0
210
0
220
0
230
1
0
ENDBLK
5
107
100
AcDbEntity
8
0
100
AcDbBlockEnd
0
BLOCK
5
110
100
AcDbEntity
8
0
100
AcDbBlockBegin
2
DimnDraft3D5
70
0
10
0
20
0
30
0
3
DimnDraft3D5
0
MTEXT
5
10A
100
AcDbEntity
8
SK2
62
256
6
ByLayer
370
13
48
1
60
0
100
AcDbMText
10
-3.442218
20
-22.468428
30
0
210
0
220
0
230
1
1
\W0.7581;87,43
40
3.5
41
0
44
1.084337
50
0
71
7
72
5
7
iso_b_vert
0
LINE
5
10B
100
AcDbEntity
8
SK2
62
256
6
ByLayer
370
13
48
1
60
0
100
AcDbLine
10
-40
20
-6.5875
30
0
11
-40
21
-25.343428
31
0
39
0
210
0
220
0
230
1
0
LINE
5
10C
100
AcDbEntity
8
SK2
62
256
6
ByLayer
370
13
48
1
60
0
100
AcDbLine
10
47.43
20
-6.1875
30
0
11
47.43
21
-25.343428
31
0
39
0
210
0
220
0
230
1
0
LINE
5
10D
100
AcDbEntity
8
SK2
62
256
6
ByLayer
370
13
48
1
60
0
100
AcDbLine
10
-40
20
-23.343428
30
0
11
47.43
21
-23.343428
31
0
39
0
210
0
220
0
230
1
0
SOLID
5
10E
100
AcDbEntity
8
SK2
62
256
6
ByLayer
370
13
48
1
60
0
100
AcDbTrace
10
-40
20
-23.343428
30
0
11
-36.500002
21
-22.882645
31
0
12
-36.499998
22
-23.804212
32
0
13
-40
23
-23.343428
33
0
39
0
210
0
220
0
230
1
0
SOLID
5
10F
100
AcDbEntity
8
SK2
62
256
6
ByLayer
370
13
48
1
60
0
100
AcDbTrace
10
47.43
20
-23.343428
30
0
11
43.930002
21
-23.804212
31
0
12
43.929998
22
-22.882645
32
0
13
47.43
23
-23.343428
33
0
39
0
210
0
220
0
230
1
0
ENDBLK
5
111
100
AcDbEntity
8
0
100
AcDbBlockEnd
0
BLOCK
5
11B
100
AcDbEntity
8
0
100
AcDbBlockBegin
2
DimnDraft3D6
70
0
10
0
20
0
30
0
3
DimnDraft3D6
0
MTEXT
5
114
100
AcDbEntity
8
SK2
62
256
6
ByLayer
370
13
48
1
60
0
100
AcDbMText
10
-50.375163
20
24.34918
30
0
210
0
220
0
230
1
1
\W0.6930;10,000
40
3.5
41
0
44
1.084337
50
90
71
7
72
5
7
iso_b_vert
0
MTEXT
5
115
100
AcDbEntity
8
SK2
62
256
6
ByLayer
370
13
48
1
60
0
100
AcDbMText
10
-50.375163
20
19.126524
30
0
210
0
220
0
230
1
1
%%c
40
3.5
41
0
44
1.084337
50
90
71
7
72
5
7
iso_b_vert
0
LINE
5
116
100
AcDbEntity
8
SK2
62
256
6
ByLayer
370
13
48
1
60
0
100
AcDbLine
10
-41.5875
20
-5
30
0
11
-50.625163
21
-5
31
0
39
0
210
0
220
0
230
1
0
LINE
5
117
100
AcDbEntity
8
SK2
62
256
6
ByLayer
370
13
48
1
60
0
100
AcDbLine
10
-41.5875
20
5
30
0
11
-50.625163
21
5
31
0
39
0
210
0
220
0
230
1
0
LINE
5
118
100
AcDbEntity
8
SK2
62
256
6
ByLayer
370
13
48
1
60
0
100
AcDbLine
10
-48.625163
20
-5
30
0
11
-48.625163
21
35.862338
31
0
39
0
210
0
220
0
230
1
0
SOLID
5
119
100
AcDbEntity
8
SK2
62
256
6
ByLayer
370
13
48
1
60
0
100
AcDbTrace
10
-48.625163
20
-5
30
0
11
-49.085946
21
-1.500002
31
0
12
-48.164379
22
-1.499998
32
0
13
-48.625163
23
-5
33
0
39
0
210
0
220
0
230
1
0
SOLID
5
11A
100
AcDbEntity
8
SK2
62
256
6
ByLayer
370
13
48
1
60
0
100
AcDbTrace
10
-48.625163
20
5
30
0
11
-48.164379
21
1.500002
31
0
12
-49.085946
22
1.499998
32
0
13
-48.625163
23
5
33
0
39
0
210
0
220
0
230
1
0
ENDBLK
5
11C
100
AcDbEntity
8
0
100
AcDbBlockEnd
0
BLOCK
5
126
100
AcDbEntity
8
0
100
AcDbBlockBegin
2
DimnDraft3D7
70
0
10
0
20
0
30
0
3
DimnDraft3D7
0
MTEXT
5
11F
100
AcDbEntity
8
2
62
256
6
ByLayer
370
13
48
1
60
0
100
AcDbMText
10
59.333343
20
22.542266
30
0
210
0
220
0
230
1
1
\W0.7317;9,200
40
3.5
41
0
44
1.084337
50
90
71
7
72
5
7
iso_b_vert
0
MTEXT
5
120
100
AcDbEntity
8
2
62
256
6
ByLayer
370
13
48
1
60
0
100
AcDbMText
10
59.333343
20
17.31961
30
0
210
0
220
0
230
1
1
%%c
40
3.5
41
0
44
1.084337
50
90
71
7
72
5
7
iso_b_vert
0
LINE
5
121
100
AcDbEntity
8
2
62
256
6
ByLayer
370
13
48
1
60
0
100
AcDbLine
10
49.0175
20
-4.6
30
0
11
63.083343
21
-4.6
31
0
39
0
210
0
220
0
230
1
0
LINE
5
122
100
AcDbEntity
8
2
62
256
6
ByLayer
370
13
48
1
60
0
100
AcDbLine
10
49.0175
20
4.6
30
0
11
63.083343
21
4.6
31
0
39
0
210
0
220
0
230
1
0
LINE
5
123
100
AcDbEntity
8
2
62
256
6
ByLayer
370
13
48
1
60
0
100
AcDbLine
10
61.083343
20
-4.6
30
0
11
61.083343
21
32.314635
31
0
39
0
210
0
220
0
230
1
0
SOLID
5
124
100
AcDbEntity
8
2
62
256
6
ByLayer
370
13
48
1
60
0
100
AcDbTrace
10
61.083343
20
-4.6
30
0
11
60.622559
21
-1.100002
31
0
12
61.544126
22
-1.099998
32
0
13
61.083343
23
-4.6
33
0
39
0
210
0
220
0
230
1
0
SOLID
5
125
100
AcDbEntity
8
2
62
256
6
ByLayer
370
13
48
1
60
0
100
AcDbTrace
10
61.083343
20
4.6
30
0
11
61.544126
21
1.100002
31
0
12
60.622559
22
1.099998
32
0
13
61.083343
23
4.6
33
0
39
0
210
0
220
0
230
1
0
ENDBLK
5
127
100
AcDbEntity
8
0
100
AcDbBlockEnd
0
ENDSEC
0
SECTION
2
ENTITIES
0
ARC
5
9B
100
AcDbEntity
8
1
62
256
6
ByLayer
370
18
48
1
60
0
100
AcDbCircle
39
0
10
0
20
4.2
30
0
40
0.800000000000002
210
0
220
0
230
1
100
AcDbArc
50
47.104953
51
90
0
ARC
5
9C
100
AcDbEntity
8
1
62
256
6
ByLayer
370
18
48
1
60
0
100
AcDbCircle
39
0
10
0
20
-4.2
30
0
40
0.800000000000002
210
0
220
0
230
1
100
AcDbArc
50
270
51
312.895047
0
ARC
5
9D
100
AcDbEntity
8
1
62
256
6
ByLayer
370
18
48
1
60
0
100
AcDbCircle
39
0
10
-1.089052
20
5.372163
30
0
40
0.799999999999996
210
0
220
0
230
-1
100
AcDbArc
50
269.965623
51
312.895047
0
ARC
5
9E
100
AcDbEntity
8
1
62
256
6
ByLayer
370
18
48
1
60
0
100
AcDbCircle
39
0
10
-1.089052
20
-5.372163
30
0
40
0.799999999999996
210
0
220
0
230
-1
100
AcDbArc
50
47.104953
51
90.034377
0
ELLIPSE
5
9F
100
AcDbEntity
8
1
62
256
6
ByLayer
370
18
48
1
60
0
100
AcDbEllipse
10
4.25
20
-4.615367
30
0
11
-0.25
21
3.06151588455594E-17
31
0
210
0
220
0
230
1
40
0.999995
41
-1.56284683944004
42
-0.202105258870822
0
ELLIPSE
5
A0
100
AcDbEntity
8
1
62
256
6
ByLayer
370
18
48
1
60
0
100
AcDbEllipse
10
4.25
20
4.615367
30
0
11
-0.25
21
3.06151588455594E-17
31
0
210
0
220
0
230
1
40
0.999995
41
0.201675317657248
42
1.58189049454637
0
ELLIPSE
5
A1
100
AcDbEntity
8
1
62
256
6
ByLayer
370
18
48
1
60
0
100
AcDbEllipse
10
48.860074
20
0.127768
30
0
11
0.0727819104933004
21
0.301917195712427
31
0
210
0
220
0
230
-1
40
0.478434
41
1.7319553272341
42
2.45976119972764
0
ELLIPSE
5
A2
100
AcDbEntity
8
1
62
256
6
ByLayer
370
18
48
1
60
0
100
AcDbEllipse
10
48.125679
20
2.224372
30
0
11
0.710566952738631
21
-1.93072826920982
31
0
210
0
220
0
230
-1
40
0.098637
41
-1.54170560898337
42
-0.749112684720056
0
ELLIPSE
5
A3
100
AcDbEntity
8
1
62
256
6
ByLayer
370
18
48
1
60
0
100
AcDbEllipse
10
49.033235
20
-0.025025
30
0
11
0.140634104978343
21
0.431000092707171
31
0
210
0
220
0
230
-1
40
0.07518
41
-2.31001430908362
42
-1.64155678008729
0
ELLIPSE
5
A4
100
AcDbEntity
8
1
62
256
6
ByLayer
370
13
48
1
60
0
100
AcDbEllipse
10
48.40883
20
2.101175
30
0
11
2.56201140093066
21
-1.76401770384394
31
0
210
0
220
0
230
-1
40
0.533762
41
1.4448462274222
42
1.74665873761911
0
ELLIPSE
5
A5
100
AcDbEntity
8
1
62
256
6
ByLayer
370
18
48
1
60
0
100
AcDbEllipse
10
49.033235
20
0.025025
30
0
11
0.140634105007557
21
-0.431000092784371
31
0
210
0
220
0
230
-1
40
0.07518
41
1.6415567801929
42
2.31001430907815
0
ELLIPSE
5
A6
100
AcDbEntity
8
1
62
256
6
ByLayer
370
13
48
1
60
0
100
AcDbEllipse
10
48.598737
20
2.224372
30
0
11
2.63665055507527
21
-1.41363833846461
31
0
210
0
220
0
230
-1
40
0.499463
41
1.53538643616208
42
1.8614608132749
0
ELLIPSE
5
A7
100
AcDbEntity
8
1
62
256
6
ByLayer
370
18
48
1
60
0
100
AcDbEllipse
10
49.0004
20
-0.001005
30
0
11
1.69216057782305
21
-4.59788094524043
31
0
210
0
220
0
230
-1
40
0.098637
41
-2.97785013041654
42
-2.87817312856545
0
ELLIPSE
5
A8
100
AcDbEntity
8
1
62
256
6
ByLayer
370
18
48
1
60
0
100
AcDbEllipse
10
49.0004
20
0.001005
30
0
11
1.69216055152287
21
4.59788086882205
31
0
210
0
220
0
230
-1
40
0.098637
41
2.87817312636246
42
2.97785012905402
0
ELLIPSE
5
A9
100
AcDbEntity
8
1
62
256
6
ByLayer
370
18
48
1
60
0
100
AcDbEllipse
10
48.125679
20
-2.224372
30
0
11
0.71056695272794
21
1.93072826918617
31
0
210
0
220
0
230
-1
40
0.098637
41
0.749112684721482
42
1.54170560899322
0
ELLIPSE
5
AA
100
AcDbEntity
8
1
62
256
6
ByLayer
370
13
48
1
60
0
100
AcDbEllipse
10
47.986463
20
0.64611
30
0
11
0.15308208161242
21
0.258003636193772
31
0
210
0
220
0
230
1
40
0.454519
41
0.917105603404943
42
2.31336900500028
0
POINT
5
6C
100
AcDbEntity
8
81
62
256
6
ByLayer
370
18
48
1
60
0
100
AcDbPoint
10
49
20
0
30
0
39
0
210
0
220
0
230
1
50
360
0
POINT
5
6E
100
AcDbEntity
8
80
62
256
6
ByLayer
370
18
48
1
60
0
100
AcDbPoint
10
0
20
0
30
0
39
0
210
0
220
0
230
1
50
360
0
POINT
5
70
100
AcDbEntity
8
SK2
62
256
6
ByLayer
370
18
48
1
60
1
100
AcDbPoint
10
-40
20
-5
30
0
39
0
210
0
220
0
230
1
50
360
0
POINT
5
72
100
AcDbEntity
8
SK2
62
256
6
ByLayer
370
18
48
1
60
1
100
AcDbPoint
10
-40
20
5
30
0
39
0
210
0
220
0
230
1
50
360
0
POINT
5
73
100
AcDbEntity
8
2
62
256
6
ByLayer
370
18
48
1
60
1
100
AcDbPoint
10
47.43
20
-4.6
30
0
39
0
210
0
220
0
230
1
50
360
0
POINT
5
75
100
AcDbEntity
8
2
62
256
6
ByLayer
370
18
48
1
60
1
100
AcDbPoint
10
47.43
20
4.6
30
0
39
0
210
0
220
0
230
1
50
360
0
SPLINE
5
AB
100
AcDbEntity
8
1
62
256
6
ByLayer
370
18
48
1
60
0
100
AcDbSpline
70
4
71
3
72
19
73
15
40
0
40
0
40
0
40
0
40
0.0933793464148981
40
0.21384237545389
40
0.308877796211436
40
0.378898175472734
40
0.434865198243719
40
0.484002985800751
40
0.526371141251552
40
0.577893622376889
40
0.666585310525894
40
0.792606880009508
40
0.955449620059784
40
1
40
1
40
1
40
1
41
1
10
4.25037586492257
20
-4.36525664408944
30
0
41
1
10
4.39775074872182
20
-4.36551640500855
30
0
41
1
10
4.73524442396194
20
-4.36601995619679
30
0
41
1
10
5.22272504295185
20
-4.36609985857262
30
0
41
1
10
5.67333687668562
20
-4.36646352072646
30
0
41
1
10
6.02216380029563
20
-4.36677791618379
30
0
41
1
10
6.29855315857981
20
-4.36686257566603
30
0
41
1
10
6.5313002436896
20
-4.36718073956993
30
0
41
1
10
6.75703263807532
20
-4.36781619730334
30
0
41
1
10
7.04518148138587
20
-4.36822119926592
30
0
41
1
10
7.46534085032977
20
-4.36790230524119
30
0
41
1
10
8.06119146756697
20
-4.36806730682284
30
0
41
1
10
8.58742845737032
20
-4.3674186580495
30
0
41
1
10
8.91471471279877
20
-4.36810713023507
30
0
41
1
10
8.98501870423772
20
-4.36827604675381
30
0
0
SPLINE
5
AC
100
AcDbEntity
8
1
62
256
6
ByLayer
370
18
48
1
60
0
100
AcDbSpline
70
4
71
2
72
6
73
3
40
0
40
0
40
0
40
1
40
1
40
1
41
1
10
46.5949784858346
20
-4.3906092260556
30
0
41
1
10
46.9970856901134
20
-4.38961580458712
30
0
41
1
10
47.398624229873
20
-4.39188424440198
30
0
0
SPLINE
5
AD
100
AcDbEntity
8
1
62
256
6
ByLayer
370
18
48
1
60
0
100
AcDbSpline
70
4
71
3
72
33
73
29
40
0
40
0
40
0
40
0
40
0.062449141502729
40
0.108130954549762
40
0.13715650752725
40
0.161398886244864
40
0.189345384202037
40
0.231541899475153
40
0.274668400504335
40
0.313114316119527
40
0.346157282160071
40
0.376084738398029
40
0.403295424966593
40
0.434059695595118
40
0.474199624658974
40
0.517891440582679
40
0.551915865121643
40
0.590533109875793
40
0.645505095181571
40
0.701863427273101
40
0.749080701217663
40
0.787824930165165
40
0.819573725855484
40
0.845539185430942
40
0.880586560964597
40
0.926804179977946
40
0.983283911668602
40
1
40
1
40
1
40
1
41
1
10
21.5272559099385
20
-4.37539054497728
30
0
41
1
10
21.7889412022957
20
-4.37566174566663
30
0
41
1
10
22.2420503921657
20
-4.37599499433131
30
0
41
1
10
22.8167050051971
20
-4.37599846473287
30
0
41
1
10
23.2313792791321
20
-4.3759930588997
30
0
41
1
10
23.5714945093052
20
-4.37618039980313
30
0
41
1
10
23.9669626498098
20
-4.37720418901097
30
0
41
1
10
24.4415892287914
20
-4.37767469047032
30
0
41
1
10
24.9602122097707
20
-4.37760072457971
30
0
41
1
10
25.4404576484163
20
-4.37738177502803
30
0
41
1
10
25.8654073851175
20
-4.3771753481424
30
0
41
1
10
26.2432866026023
20
-4.37765561510832
30
0
41
1
10
26.6116198241066
20
-4.37914528000175
30
0
41
1
10
27.022739587021
20
-4.37939249719358
30
0
41
1
10
27.5029299483589
20
-4.37847975670576
30
0
41
1
10
27.9967711172423
20
-4.37802763872159
30
0
41
1
10
28.4842360292301
20
-4.37762072409606
30
0
41
1
10
29.0189697732604
20
-4.37916694532473
30
0
41
1
10
29.6472859061975
20
-4.38052867285379
30
0
41
1
10
30.3116440017313
20
-4.38036306849079
30
0
41
1
10
30.9079815444237
20
-4.38043185970176
30
0
41
1
10
31.4012683261918
20
-4.37984308224426
30
0
41
1
10
31.8052594358358
20
-4.38125458191118
30
0
41
1
10
32.1933428518881
20
-4.38141617927599
30
0
41
1
10
32.6428219922059
20
-4.38141579530895
30
0
41
1
10
33.213643456619
20
-4.38209132927164
30
0
41
1
10
33.7165966649571
20
-4.38125002424081
30
0
41
1
10
34.0221849174367
20
-4.38179712916667
30
0
41
1
10
34.0919744036795
20
-4.38193920079877
30
0
0
SPLINE
5
AE
100
AcDbEntity
8
1
62
256
6
ByLayer
370
18
48
1
60
0
100
AcDbSpline
70
4
71
3
72
17
73
13
40
0
40
0
40
0
40
0
40
0.0302166141892359
40
0.172721076258428
40
0.269207256586483
40
0.321699627012674
40
0.36922689633158
40
0.425390300828341
40
0.52629870970821
40
0.660671252806622
40
0.835964699732705
40
1
40
1
40
1
40
1
41
1
10
8.97215482456733
20
4.36817393142255
30
0
41
1
10
8.9246061349676
20
4.36805866347666
30
0
41
1
10
8.6528032178785
20
4.3674650582285
30
0
41
1
10
8.22903605030146
20
4.36796691680169
30
0
41
1
10
7.77014127437937
20
4.36784631322186
30
0
41
1
10
7.46108469457715
20
4.36796994667952
30
0
41
1
10
7.21539751180507
20
4.36811067834569
30
0
41
1
10
6.89335664635968
20
4.36817634770964
30
0
41
1
10
6.43460185059234
20
4.36679314523755
30
0
41
1
10
5.78833384375849
20
4.36664946988148
30
0
41
1
10
5.04270203049643
20
4.3661282567528
30
0
41
1
10
4.50857927269303
20
4.36553326754282
30
0
41
1
10
4.25037836774305
20
4.36518928447069
30
0
0
SPLINE
5
AF
100
AcDbEntity
8
1
62
256
6
ByLayer
370
18
48
1
60
0
100
AcDbSpline
70
4
71
3
72
26
73
22
40
0
40
0
40
0
40
0
40
0.0392549235218134
40
0.119904128644875
40
0.179453738539981
40
0.220594830682064
40
0.268630656129648
40
0.31514218300729
40
0.371173940074092
40
0.437054209360398
40
0.498320718141437
40
0.541945304263548
40
0.591242480557284
40
0.653588135667734
40
0.704810327808244
40
0.74364461741965
40
0.784988983070773
40
0.831300250498735
40
0.89157388308802
40
0.958983472963843
40
1
40
1
40
1
40
1
41
1
10
34.0821331113186
20
4.38212719169772
30
0
41
1
10
33.946703522952
20
4.38189571086826
30
0
41
1
10
33.5330983201169
20
4.38130492820579
30
0
41
1
10
32.9129692946864
20
4.38174295586066
30
0
41
1
10
32.2891356801426
20
4.3814247175527
30
0
41
1
10
31.7747376337556
20
4.38121079480075
30
0
41
1
10
31.3058321790608
20
4.37980712461967
30
0
41
1
10
30.7850141629673
20
4.38052630758696
30
0
41
1
10
30.2026076211589
20
4.38026153006277
30
0
41
1
10
29.5691370009321
20
4.380632063185
30
0
41
1
10
28.9785842379247
20
4.37890940114758
30
0
41
1
10
28.4453738346372
20
4.37759541092774
30
0
41
1
10
27.9084364405641
20
4.37810591126913
30
0
41
1
10
27.3452239245923
20
4.37866282649355
30
0
41
1
10
26.8181909299626
20
4.37973526114678
30
0
41
1
10
26.3637898531815
20
4.37808686043257
30
0
41
1
10
25.9263658421079
20
4.37708683550915
30
0
41
1
10
25.4148139316164
20
4.37742362819094
30
0
41
1
10
24.8131368257426
20
4.37762111557967
30
0
41
1
10
24.2297413621679
20
4.37773459729323
30
0
41
1
10
23.8547752575276
20
4.37682073074089
30
0
41
1
10
23.7129577115431
20
4.37654138325735
30
0
0
SPLINE
5
B0
100
AcDbEntity
8
1
62
256
6
ByLayer
370
18
48
1
60
0
100
AcDbSpline
70
4
71
3
72
11
73
7
40
0
40
0
40
0
40
0
40
0.154400940410796
40
0.289317497900166
40
0.444668184046574
40
1
40
1
40
1
40
1
41
1
10
35.088500384438
20
-1.09983180620844
30
0
41
1
10
35.0886060616919
20
-1.0999655596629
30
0
41
1
10
35.092896237675
20
-1.10221664502245
30
0
41
1
10
35.1135517434969
20
-1.1128470955826
30
0
41
1
10
35.1819859731909
20
-1.14807144329202
30
0
41
1
10
35.2593150101815
20
-1.18999552534606
30
0
41
1
10
35.3362393418692
20
-1.23231110300387
30
0
0
SPLINE
5
B1
100
AcDbEntity
8
1
62
256
6
ByLayer
370
18
48
1
60
0
100
AcDbSpline
70
4
71
3
72
14
73
10
40
0
40
0
40
0
40
0
40
0.25
40
0.25
40
0.5
40
0.5
40
0.75
40
0.75
40
1
40
1
40
1
40
1
41
1
10
4.25074265972148
20
-3.40019935689773
30
0
41
1
10
4.22546997077882
20
-3.38802428538344
30
0
41
1
10
4.19914866755136
20
-3.37986046576148
30
0
41
1
10
4.14476341213341
20
-3.37605780207696
30
0
41
1
10
4.11716284150412
20
-3.38098393379497
30
0
41
1
10
4.06857748253304
20
-3.40708880935333
30
0
41
1
10
4.04755832404555
20
-3.42847937281277
30
0
41
1
10
4.01734250835781
20
-3.48086764573463
30
0
41
1
10
4.00809025707966
20
-3.51103713188337
30
0
41
1
10
4.00353182430982
20
-3.54188529376938
30
0
0
SPLINE
5
B2
100
AcDbEntity
8
1
62
256
6
ByLayer
370
18
48
1
60
0
100
AcDbSpline
70
4
71
3
72
22
73
18
40
0
40
0
40
0
40
0
40
0.167098320711799
40
0.167098320711799
40
0.334196641423597
40
0.334196641423597
40
0.501294962135396
40
0.501294962135396
40
0.584844122491294
40
0.584844122491294
40
0.668393282847192
40
0.668393282847192
40
0.75194244320309
40
0.75194244320309
40
0.835491603558988
40
0.835491603558988
40
1
40
1
40
1
40
1
41
1
10
14.497540700789
20
-3.27099047128391
30
0
41
1
10
14.8415400027813
20
-3.41065560955917
30
0
41
1
10
15.18573326922
20
-3.53935905129967
30
0
41
1
10
15.8730536853122
20
-3.77715783249283
30
0
41
1
10
16.2155584972777
20
-3.88670553944934
30
0
41
1
10
16.9032791238455
20
-4.08217118020156
30
0
41
1
10
17.2487011536733
20
-4.16870779745031
30
0
41
1
10
17.7641056989124
20
-4.28126535855455
30
0
41
1
10
17.9355831108933
20
-4.31586025392855
30
0
41
1
10
18.2790475826087
20
-4.37857266049215
30
0
41
1
10
18.4508628725835
20
-4.40680870063667
30
0
41
1
10
18.7945038425946
20
-4.45716368485643
30
0
41
1
10
18.9663409261053
20
-4.47927822316086
30
0
41
1
10
19.3098599273009
20
-4.517374675996
30
0
41
1
10
19.4814310015645
20
-4.53336504880807
30
0
41
1
10
19.9923053262317
20
-4.57113621856661
30
0
41
1
10
20.3317869718991
20
-4.58369534846588
30
0
41
1
10
20.6699818067617
20
-4.58391123038444
30
0
0
SPLINE
5
B3
100
AcDbEntity
8
1
62
256
6
ByLayer
370
18
48
1
60
0
100
AcDbSpline
70
4
71
3
72
30
73
26
40
0
40
0
40
0
40
0
40
0.0829287737804773
40
0.0829287737804773
40
0.148433861367588
40
0.148433861367588
40
0.213938948954698
40
0.213938948954698
40
0.34494912412892
40
0.34494912412892
40
0.475959299303142
40
0.475959299303142
40
0.54146438689025
40
0.54146438689025
40
0.606969474477359
40
0.606969474477359
40
0.737979649651573
40
0.737979649651573
40
0.803484737238679
40
0.803484737238679
40
0.868989824825786
40
0.868989824825786
40
0.934494912412893
40
0.934494912412893
40
1
40
1
40
1
40
1
41
1
10
39.6189382260561
20
3.32792341231908
30
0
41
1
10
39.8362560449029
20
3.41434032386769
30
0
41
1
10
40.0537002955042
20
3.49685378514639
30
0
41
1
10
40.4427886238516
20
3.63799677818244
30
0
41
1
10
40.6143507648134
20
3.69809144297307
30
0
41
1
10
40.9578379490013
20
3.81311919477287
30
0
41
1
10
41.1301026878773
20
3.86785340025327
30
0
41
1
10
41.6462182742965
20
4.02335024377848
30
0
41
1
10
41.9897223332817
20
4.11579276939199
30
0
41
1
10
42.6750360086183
20
4.27842039188423
30
0
41
1
10
43.0184542943446
20
4.34745876871432
30
0
41
1
10
43.5344264895575
20
4.43298050804731
30
0
41
1
10
43.7066716955138
20
4.45850717080111
30
0
41
1
10
44.0502445096112
20
4.50337290030549
30
0
41
1
10
44.2218037913088
20
4.5226277089036
30
0
41
1
10
44.7370187894048
20
4.57061574147218
30
0
41
1
10
45.0806361520852
20
4.5898822395207
30
0
41
1
10
45.5952879971155
20
4.59969692093301
30
0
41
1
10
45.7667003350462
20
4.59974188830782
30
0
41
1
10
46.1105230284725
20
4.59338571022116
30
0
41
1
10
46.2828791865079
20
4.58699259547652
30
0
41
1
10
46.6269753597413
20
4.56785629058254
30
0
41
1
10
46.7988427703117
20
4.5551166489274
30
0
41
1
10
47.1420461672384
20
4.52322495142701
30
0
41
1
10
47.3132453912898
20
4.50400707241133
30
0
41
1
10
47.4846997922892
20
4.48173385441336
30
0
0
SPLINE
5
B4
100
AcDbEntity
8
1
62
256
6
ByLayer
370
18
48
1
60
0
100
AcDbSpline
70
4
71
3
72
58
73
54
40
0
40
0
40
0
40
0
40
0.0519748705436471
40
0.0519748705436471
40
0.07796230581547
40
0.07796230581547
40
0.103949741087293
40
0.103949741087293
40
0.155924611630939
40
0.155924611630939
40
0.181912046902762
40
0.181912046902762
40
0.207899482174585
40
0.207899482174585
40
0.259874352718232
40
0.259874352718232
40
0.285861787990055
40
0.285861787990055
40
0.311849223261877
40
0.311849223261877
40
0.363824093805523
40
0.363824093805523
40
0.389811529077346
40
0.389811529077346
40
0.415798964349169
40
0.415798964349169
40
0.467773834892815
40
0.467773834892815
40
0.493761270164637
40
0.493761270164637
40
0.519748705436459
40
0.519748705436459
40
0.623698446523748
40
0.623698446523748
40
0.675673317067392
40
0.675673317067392
40
0.701660752339214
40
0.701660752339214
40
0.727648187611036
40
0.727648187611036
40
0.77962305815468
40
0.77962305815468
40
0.805610493426503
40
0.805610493426503
40
0.831597928698326
40
0.831597928698326
40
0.883572799241972
40
0.883572799241972
40
0.935547669785618
40
0.935547669785618
40
0.987522540329263
40
0.987522540329263
40
1
40
1
40
1
40
1
41
1
10
47.4048030827864
20
-4.56258367126682
30
0
41
1
10
46.9534302352455
20
-4.59555994078789
30
0
41
1
10
46.5026930888743
20
-4.60635191081931
30
0
41
1
10
45.8253452684634
20
-4.58926511985453
30
0
41
1
10
45.5991296553074
20
-4.57799753770021
30
0
41
1
10
45.1475478850039
20
-4.54448307077854
30
0
41
1
10
44.922072594146
20
-4.5222452573216
30
0
41
1
10
44.2460044125773
20
-4.43934878508566
30
0
41
1
10
43.7957522468557
20
-4.36250517006823
30
0
41
1
10
43.1185239528966
20
-4.21603212451035
30
0
41
1
10
42.8922693072694
20
-4.16194154208381
30
0
41
1
10
42.4407545910019
20
-4.0440690418348
30
0
41
1
10
42.2153046380429
20
-3.98025462494127
30
0
41
1
10
41.539268105984
20
-3.77475862443737
30
0
41
1
10
41.0889787642424
20
-3.6190310286606
30
0
41
1
10
40.4115673305812
20
-3.35989130502117
30
0
41
1
10
40.1853102919248
20
-3.26918141958853
30
0
41
1
10
39.7338448329098
20
-3.08052590417651
30
0
41
1
10
39.5083921213177
20
-2.98249225233278
30
0
41
1
10
38.8322790738354
20
-2.67810142913743
30
0
41
1
10
38.3818193083544
20
-2.46151596328903
30
0
41
1
10
37.7041655810459
20
-2.11948200298374
30
0
41
1
10
37.4779519173677
20
-2.00255880056625
30
0
41
1
10
37.0265516952569
20
-1.76477589607814
30
0
41
1
10
36.8010946578622
20
-1.64379271924682
30
0
41
1
10
36.1249394807177
20
-1.27542421354434
30
0
41
1
10
35.6743903407269
20
-1.02272957682177
30
0
41
1
10
34.9965457391119
20
-0.636909070175562
30
0
41
1
10
34.7704482196616
20
-0.507257922932666
30
0
41
1
10
34.3202556859292
20
-0.24833697677559
30
0
41
1
10
34.0957831885557
20
-0.118839547746262
30
0
41
1
10
32.9757492008026
20
0.527476610978511
30
0
41
1
10
32.0867564095825
20
1.04002285085875
30
0
41
1
10
30.7450647925763
20
1.7695837246595
30
0
41
1
10
30.2964849084586
20
2.00625843759045
30
0
41
1
10
29.6191792160394
20
2.34732571162479
30
0
41
1
10
29.3928441435969
20
2.45859746542294
30
0
41
1
10
28.9414199857899
20
2.674261095183
30
0
41
1
10
28.7159596551613
20
2.77887011647295
30
0
41
1
10
28.0397649758617
20
3.08226677855427
30
0
41
1
10
27.5890821727888
20
3.27044208371385
30
0
41
1
10
26.9108616494736
20
3.52846299941808
30
0
41
1
10
26.6846621388669
20
3.61036251880918
30
0
41
1
10
26.2332649423051
20
3.76496236585336
30
0
41
1
10
26.0078013034057
20
3.83772046719045
30
0
41
1
10
25.3314992774203
20
4.0418249820147
30
0
41
1
10
24.8807256878022
20
4.15898216985474
30
0
41
1
10
23.9761773239235
20
4.35268030321052
30
0
41
1
10
23.5248368794176
20
4.42872920135275
30
0
41
1
10
22.6230703061434
20
4.537378732039
30
0
41
1
10
22.1721884461077
20
4.57006274999668
30
0
41
1
10
21.6111201729419
20
4.58312538857521
30
0
41
1
10
21.5025810451919
20
4.58437214636328
30
0
41
1
10
21.3941045720666
20
4.58434132582133
30
0
0
SPLINE
5
B5
100
AcDbEntity
8
1
62
256
6
ByLayer
370
18
48
1
60
0
100
AcDbSpline
70
4
71
3
72
12
73
8
40
0
40
0
40
0
40
0
40
0.25
40
0.25
40
0.5
40
0.5
40
1
40
1
40
1
40
1
41
1
10
47.4466134318023
20
-4.45061970433397
30
0
41
1
10
47.4515370255605
20
-4.43741286994862
30
0
41
1
10
47.4561995942158
20
-4.42392680425664
30
0
41
1
10
47.4636910831114
20
-4.39976019819861
30
0
41
1
10
47.4664987947484
20
-4.38910014764994
30
0
41
1
10
47.4710732713882
20
-4.36580701057662
30
0
41
1
10
47.4692964479232
20
-4.36162317840453
30
0
41
1
10
47.4650898929689
20
-4.36466821453485
30
0
0
SPLINE
5
B6
100
AcDbEntity
8
1
62
256
6
ByLayer
370
18
48
1
60
0
100
AcDbSpline
70
4
71
3
72
18
73
14
40
0
40
0
40
0
40
0
40
0.112903319974573
40
0.112903319974573
40
0.534577656484768
40
0.534577656484768
40
0.639996240612317
40
0.639996240612317
40
0.745414824739865
40
0.745414824739865
40
0.95625199299496
40
0.95625199299496
40
1
40
1
40
1
40
1
41
1
10
8.90455967837408
20
-0.0082261702106337
30
0
41
1
10
9.14496783806166
20
-0.14314481823385
30
0
41
1
10
9.38510127043682
20
-0.27786933834571
30
0
41
1
10
10.5218549274923
20
-0.91290717109743
30
0
41
1
10
11.4171545236338
20
-1.40663800270337
30
0
41
1
10
12.5510557678754
20
-1.98512420232876
30
0
41
1
10
12.7786332225284
20
-2.09895556047476
30
0
41
1
10
13.2313749871849
20
-2.32010676585926
30
0
41
1
10
13.4570676331753
20
-2.42769959366552
30
0
41
1
10
14.1327195450193
20
-2.74074483414395
30
0
41
1
10
14.5813410678543
20
-2.93638768063769
30
0
41
1
10
15.122566791248
20
-3.15458655827246
30
0
41
1
10
15.2155564268979
20
-3.19143844586051
30
0
41
1
10
15.3085447205343
20
-3.22762984919658
30
0
0
SPLINE
5
B7
100
AcDbEntity
8
1
62
256
6
ByLayer
370
13
48
1
60
0
100
AcDbSpline
70
4
71
3
72
16
73
12
40
0
40
0
40
0
40
0
40
0.317988611131412
40
0.317988611131412
40
0.406688197626038
40
0.406688197626038
40
0.495387784120664
40
0.495387784120664
40
0.672786957109917
40
0.672786957109917
40
1
40
1
40
1
40
1
41
1
10
15.3085447204178
20
-3.22762984915121
30
0
41
1
10
16.1118435883778
20
-3.54027687377419
30
0
41
1
10
16.915042305493
20
-3.80363373925971
30
0
41
1
10
17.9532407083779
20
-4.06339611368736
30
0
41
1
10
18.1808044404378
20
-4.11545371749787
30
0
41
1
10
18.6340095038182
20
-4.20895816157423
30
0
41
1
10
18.8599471532202
20
-4.25051550584971
30
0
41
1
10
19.5362181899557
20
-4.35944684035002
30
0
41
1
10
19.98502486462
20
-4.41114196548941
30
0
41
1
10
21.2599909367026
20
-4.4978050663388
30
0
41
1
10
22.0852857769574
20
-4.48204833697346
30
0
41
1
10
22.918321493734
20
-4.39306122304822
30
0
0
SPLINE
5
B8
100
AcDbEntity
8
1
62
256
6
ByLayer
370
18
48
1
60
0
100
AcDbSpline
70
4
71
3
72
94
73
90
40
0
40
0
40
0
40
0
40
0.02874463188838
40
0.02874463188838
40
0.0619562024171413
40
0.0619562024171413
40
0.0951677729459027
40
0.0951677729459027
40
0.111773558210283
40
0.111773558210283
40
0.128379343474664
40
0.128379343474664
40
0.144985128739045
40
0.144985128739045
40
0.161590914003425
40
0.161590914003425
40
0.194802484532187
40
0.194802484532187
40
0.211408269796567
40
0.211408269796567
40
0.228014055060948
40
0.228014055060948
40
0.244619840325329
40
0.244619840325329
40
0.26122562558971
40
0.26122562558971
40
0.294437196118472
40
0.294437196118472
40
0.327648766647234
40
0.327648766647234
40
0.360860337175997
40
0.360860337175997
40
0.377466122440378
40
0.377466122440378
40
0.394071907704759
40
0.394071907704759
40
0.41067769296914
40
0.41067769296914
40
0.427283478233521
40
0.427283478233521
40
0.460495048762284
40
0.460495048762284
40
0.477100834026665
40
0.477100834026665
40
0.493706619291046
40
0.493706619291046
40
0.510312404555427
40
0.510312404555427
40
0.526918189819808
40
0.526918189819808
40
0.56012976034857
40
0.56012976034857
40
0.593341330877331
40
0.593341330877331
40
0.626552901406092
40
0.626552901406092
40
0.659764471934854
40
0.659764471934854
40
0.676370257199234
40
0.676370257199234
40
0.692976042463615
40
0.692976042463615
40
0.726187612992376
40
0.726187612992376
40
0.742793398256757
40
0.742793398256757
40
0.759399183521137
40
0.759399183521137
40
0.776004968785517
40
0.776004968785517
40
0.792610754049897
40
0.792610754049897
40
0.825822324578658
40
0.825822324578658
40
0.842428109843037
40
0.842428109843037
40
0.859033895107417
40
0.859033895107417
40
0.892245465636176
40
0.892245465636176
40
0.925457036164936
40
0.925457036164936
40
0.942062821429315
40
0.942062821429315
40
0.958668606693695
40
0.958668606693695
40
0.991880177222454
40
0.991880177222454
40
1
40
1
40
1
40
1
41
1
10
14.6363526299694
20
3.32675305446404
30
0
41
1
10
14.9341179836574
20
3.44509934267236
30
0
41
1
10
15.2319553851285
20
3.55535095634113
30
0
41
1
10
15.8730536853124
20
3.77715783249286
30
0
41
1
10
16.2155584972778
20
3.8867055394494
30
0
41
1
10
16.9032791238457
20
4.08217118020158
30
0
41
1
10
17.2487011536736
20
4.16870779745037
30
0
41
1
10
17.7641056989127
20
4.28126535855461
30
0
41
1
10
17.9355831108936
20
4.31586025392861
30
0
41
1
10
18.279047582609
20
4.37857266049221
30
0
41
1
10
18.4508628725839
20
4.40680870063673
30
0
41
1
10
18.794503842595
20
4.45716368485648
30
0
41
1
10
18.9663409261057
20
4.47927822316092
30
0
41
1
10
19.3098599273013
20
4.51737467599602
30
0
41
1
10
19.4814310015649
20
4.53336504880809
30
0
41
1
10
19.9976392730382
20
4.57153058054681
30
0
41
1
10
20.3424763417982
20
4.58408769994233
30
0
41
1
10
20.8576926327822
20
4.58382452368073
30
0
41
1
10
21.0290496344224
20
4.5805187700947
30
0
41
1
10
21.3720721606432
20
4.56748889946948
30
0
41
1
10
21.5438525528362
20
4.55780396569867
30
0
41
1
10
21.8876566030305
20
4.53212470205821
30
0
41
1
10
22.0596992352169
20
4.51613182827137
30
0
41
1
10
22.4039308096943
20
4.47774221749827
30
0
41
1
10
22.5760915902252
20
4.45527422374232
30
0
41
1
10
23.0915345986842
20
4.37854812752073
30
0
41
1
10
23.4353668134773
20
4.31551431135279
30
0
41
1
10
24.122315145371
20
4.16556371403792
30
0
41
1
10
24.4648334725598
20
4.07803066048308
30
0
41
1
10
25.1531220894181
20
3.88165284671763
30
0
41
1
10
25.4982388988667
20
3.77256978011252
30
0
41
1
10
26.0129598473119
20
3.59261321037187
30
0
41
1
10
26.1843691808393
20
3.53002236936032
30
0
41
1
10
26.527721308306
20
3.40064498099386
30
0
41
1
10
26.6995048818017
20
3.33369048644215
30
0
41
1
10
27.0431540403771
20
3.19510997705998
30
0
41
1
10
27.2150317888645
20
3.12350031283643
30
0
41
1
10
27.5586679067268
20
2.9752732439967
30
0
41
1
10
27.7305577791084
20
2.89854643128129
30
0
41
1
10
28.2468090985839
20
2.66390437131247
30
0
41
1
10
28.5908021432995
20
2.50088947639947
30
0
41
1
10
29.1055965492151
20
2.24520569667658
30
0
41
1
10
29.2768514799109
20
2.15787849346307
30
0
41
1
10
29.6199621813809
20
1.98098126898219
30
0
41
1
10
29.7918135146204
20
1.89141891335137
30
0
41
1
10
30.1358182808056
20
1.7096346371749
30
0
41
1
10
30.308079537951
20
1.61740085714999
30
0
41
1
10
30.652438344146
20
1.43028673106824
30
0
41
1
10
30.8241171843242
20
1.33531175039005
30
0
41
1
10
31.338970017942
20
1.04833016718649
30
0
41
1
10
31.6826355535983
20
0.855432629458079
30
0
41
1
10
32.3694211191213
20
0.464161074998259
30
0
41
1
10
32.712107748794
20
0.264995939372881
30
0
41
1
10
33.4011854912512
20
-0.131506414704063
30
0
41
1
10
33.7452167595781
20
-0.328994488377845
30
0
41
1
10
34.4308727508224
20
-0.723909867772448
30
0
41
1
10
34.7741100753812
20
-0.918691878000033
30
0
41
1
10
35.2897536051487
20
-1.20659772066537
30
0
41
1
10
35.4617219765135
20
-1.30192945436079
30
0
41
1
10
35.8055955069882
20
-1.4916996759359
30
0
41
1
10
35.9774404419147
20
-1.58585459270606
30
0
41
1
10
36.4930567580927
20
-1.86281480726154
30
0
41
1
10
36.8367456570406
20
-2.04155000866316
30
0
41
1
10
37.3512597127735
20
-2.30226943062493
30
0
41
1
10
37.5224942433951
20
-2.38807599037088
30
0
41
1
10
37.8657990849852
20
-2.55542239444387
30
0
41
1
10
38.0377598450203
20
-2.63713767134547
30
0
41
1
10
38.3820690005466
20
-2.79699754155712
30
0
41
1
10
38.5544334092668
20
-2.87511440426911
30
0
41
1
10
38.8982057662283
20
-3.02734832126475
30
0
41
1
10
39.0696136046182
20
-3.10172678509417
30
0
41
1
10
39.584089920655
20
-3.31742943170013
30
0
41
1
10
39.9276649561268
20
-3.451134076453
30
0
41
1
10
40.4427886238539
20
-3.63799677818327
30
0
41
1
10
40.6143507648156
20
-3.69809144297389
30
0
41
1
10
40.9578379490036
20
-3.81311919477361
30
0
41
1
10
41.1301026878797
20
-3.86785340025401
30
0
41
1
10
41.6462182742989
20
-4.02335024377916
30
0
41
1
10
41.9897223332841
20
-4.11579276939261
30
0
41
1
10
42.6750360086209
20
-4.27842039188474
30
0
41
1
10
43.0184542943471
20
-4.3474587687148
30
0
41
1
10
43.5344264895601
20
-4.43298050804771
30
0
41
1
10
43.7066716955163
20
-4.45850717080148
30
0
41
1
10
44.0502445096138
20
-4.50337290030578
30
0
41
1
10
44.2218037913116
20
-4.52262770890385
30
0
41
1
10
44.7370187894075
20
-4.57061574147235
30
0
41
1
10
45.0806361520879
20
-4.58988223952082
30
0
41
1
10
45.5076214363148
20
-4.59802507350238
30
0
41
1
10
45.5914724288759
20
-4.59885331756649
30
0
41
1
10
45.6753648665525
20
-4.59891050613686
30
0
0
SPLINE
5
B9
100
AcDbEntity
8
1
62
256
6
ByLayer
370
18
48
1
60
0
100
AcDbSpline
70
4
71
3
72
22
73
18
40
0
40
0
40
0
40
0
40
0.250000000000011
40
0.250000000000011
40
0.500000000000023
40
0.500000000000023
40
0.625000000000017
40
0.625000000000017
40
0.750000000000011
40
0.750000000000011
40
0.812500000000008
40
0.812500000000008
40
0.875000000000005
40
0.875000000000005
40
0.937500000000003
40
0.937500000000003
40
1
40
1
40
1
40
1
41
1
10
47.1666586096732
20
1.3678350610945
30
0
41
1
10
47.2963165850051
20
1.39738283168302
30
0
41
1
10
47.4249485743554
20
1.43097382871034
30
0
41
1
10
47.678031829672
20
1.51234225372915
30
0
41
1
10
47.8012952129754
20
1.55933112179463
30
0
41
1
10
47.976066114997
20
1.64991184098557
30
0
41
1
10
48.0326133028297
20
1.68350049295381
30
0
41
1
10
48.1399355217877
20
1.76234279708072
30
0
41
1
10
48.1903602281074
20
1.80751176767558
30
0
41
1
10
48.2532517632428
20
1.88614087486374
30
0
41
1
10
48.2721367225323
20
1.91435849318711
30
0
41
1
10
48.3033815840761
20
1.97323561849922
30
0
41
1
10
48.3159580097603
20
2.00413899490485
30
0
41
1
10
48.3341767101301
20
2.06931390747533
30
0
41
1
10
48.3395782305296
20
2.10311808286778
30
0
41
1
10
48.3431580686007
20
2.17040761573807
30
0
41
1
10
48.3414370398834
20
2.20455627580896
30
0
41
1
10
48.3367072911194
20
2.23827212260414
30
0
0
SPLINE
5
BA
100
AcDbEntity
8
1
62
256
6
ByLayer
370
18
48
1
60
0
100
AcDbSpline
70
4
71
3
72
10
73
6
40
0
40
0
40
0
40
0
40
0.5
40
0.5
40
1
40
1
40
1
40
1
41
1
10
4.12544588799085
20
2.5777188564868
30
0
41
1
10
4.09710811413765
20
2.59116039430495
30
0
41
1
10
4.07248126814892
20
2.60885248217136
30
0
41
1
10
4.03267749250253
20
2.65076149376517
30
0
41
1
10
4.017869519447
20
2.67477847922714
30
0
41
1
10
4.00920839353725
20
2.69983089427322
30
0
0
SPLINE
5
BB
100
AcDbEntity
8
1
62
256
6
ByLayer
370
18
48
1
60
0
100
AcDbSpline
70
4
71
3
72
22
73
18
40
0
40
0
40
0
40
0
40
0.125000000000001
40
0.125000000000001
40
0.187500000000001
40
0.187500000000001
40
0.250000000000002
40
0.250000000000002
40
0.375000000000002
40
0.375000000000002
40
0.500000000000003
40
0.500000000000003
40
0.750000000000004
40
0.750000000000004
40
0.875000000000002
40
0.875000000000002
40
1
40
1
40
1
40
1
41
1
10
43.7201591760284
20
1.50350834831684
30
0
41
1
10
43.7726905261398
20
1.30927089124816
30
0
41
1
10
43.8408858509944
20
1.11616358269691
30
0
41
1
10
43.9633893143054
20
0.827960796346872
30
0
41
1
10
44.0076158083324
20
0.732137932575995
30
0
41
1
10
44.1025207553035
20
0.540957710879439
30
0
41
1
10
44.1527816169514
20
0.446469635755875
30
0
41
1
10
44.3098549389331
20
0.168274039482043
30
0
41
1
10
44.4234358806129
20
-0.0112590240508439
30
0
41
1
10
44.6652440142873
20
-0.360527273992716
30
0
41
1
10
44.7936182125304
20
-0.530423883683284
30
0
41
1
10
45.1973381993681
20
-1.02607746630906
30
0
41
1
10
45.4826791360648
20
-1.32782997515764
30
0
41
1
10
45.9284881340147
20
-1.74893574487285
30
0
41
1
10
46.0800868539898
20
-1.88399833168401
30
0
41
1
10
46.3886626280818
20
-2.14459743099911
30
0
41
1
10
46.5459594190777
20
-2.27033091590675
30
0
41
1
10
46.7047328631396
20
-2.39075259869716
30
0
0
SPLINE
5
BC
100
AcDbEntity
8
1
62
256
6
ByLayer
370
18
48
1
60
0
100
AcDbSpline
70
4
71
3
72
16
73
12
40
0
40
0
40
0
40
0
40
0.109894163072472
40
0.109894163072472
40
0.258245135893727
40
0.258245135893727
40
0.406596108714981
40
0.406596108714981
40
0.703298054357491
40
0.703298054357491
40
1
40
1
40
1
40
1
41
1
10
4.00346504731368
20
-4.57391129053445
30
0
41
1
10
4.00346641348312
20
-4.57336036719065
30
0
41
1
10
4.00346793127969
20
-4.56856742418211
30
0
41
1
10
4.00347188265783
20
-4.54733504387062
30
0
41
1
10
4.0034744650161
20
-4.52715872195245
30
0
41
1
10
4.00348013517939
20
-4.47157576753861
30
0
41
1
10
4.0034832185643
20
-4.43628827138966
30
0
41
1
10
4.00349311284316
20
-4.30850736162506
30
0
41
1
10
4.00350058585425
20
-4.19432211360475
30
0
41
1
10
4.00351637305943
20
-3.90555236467304
30
0
41
1
10
4.00352440947771
20
-3.73580398048753
30
0
41
1
10
4.00353182430695
20
-3.54188529378274
30
0
0
SPLINE
5
BD
100
AcDbEntity
8
1
62
256
6
ByLayer
370
18
48
1
60
0
100
AcDbSpline
70
2053
71
3
72
62
73
58
40
0
40
0
40
0
40
0
40
0.0312500000000009
40
0.0312500000000009
40
0.0625000000000017
40
0.0625000000000017
40
0.0937500000000026
40
0.0937500000000026
40
0.125000000000003
40
0.125000000000003
40
0.156250000000004
40
0.156250000000004
40
0.187500000000005
40
0.187500000000005
40
0.218750000000006
40
0.218750000000006
40
0.250000000000007
40
0.250000000000007
40
0.281250000000008
40
0.281250000000008
40
0.312500000000009
40
0.312500000000009
40
0.37500000000001
40
0.37500000000001
40
0.437500000000012
40
0.437500000000012
40
0.468750000000011
40
0.468750000000011
40
0.50000000000001
40
0.50000000000001
40
0.531250000000009
40
0.531250000000009
40
0.562500000000008
40
0.562500000000008
40
0.593750000000007
40
0.593750000000007
40
0.625000000000006
40
0.625000000000006
40
0.656250000000005
40
0.656250000000005
40
0.687500000000004
40
0.687500000000004
40
0.718750000000003
40
0.718750000000003
40
0.750000000000002
40
0.750000000000002
40
0.812499999999998
40
0.812499999999998
40
0.843749999999998
40
0.843749999999998
40
0.874999999999997
40
0.874999999999997
40
0.906249999999997
40
0.906249999999997
40
0.937499999999997
40
0.937499999999997
40
1
40
1
40
1
40
1
41
1
10
47.7398158564685
20
-1.55120070724033
30
0
41
1
10
47.7170603989454
20
-1.58348406453371
30
0
41
1
10
47.6947643591189
20
-1.61810251263489
30
0
41
1
10
47.6511670427955
20
-1.69239551684075
30
0
41
1
10
47.6296334972226
20
-1.73254991924537
30
0
41
1
10
47.589018558454
20
-1.81639813368815
30
0
41
1
10
47.5700132556887
20
-1.85982378522399
30
0
41
1
10
47.5349760298561
20
-1.95010372892835
30
0
41
1
10
47.5192845181367
20
-1.99623923467402
30
0
41
1
10
47.4930378639646
20
-2.08685157554382
30
0
41
1
10
47.4821573053977
20
-2.1326096041326
30
0
41
1
10
47.4665703934248
20
-2.21877821380963
30
0
41
1
10
47.4617094233171
20
-2.25957270974141
30
0
41
1
10
47.4578835961611
20
-2.33526380470525
30
0
41
1
10
47.4589392198122
20
-2.36903776039122
30
0
41
1
10
47.4663428686147
20
-2.42932670990138
30
0
41
1
10
47.4726879870074
20
-2.45534384452211
30
0
41
1
10
47.4896314554688
20
-2.49881543086428
30
0
41
1
10
47.5003852926557
20
-2.51658763900934
30
0
41
1
10
47.5251262686454
20
-2.5437423846823
30
0
41
1
10
47.5391439651592
20
-2.55331269615326
30
0
41
1
10
47.58572724008
20
-2.5710033313126
30
0
41
1
10
47.6216830748683
20
-2.56789643397133
30
0
41
1
10
47.7011507822907
20
-2.53520752776572
30
0
41
1
10
47.7432899051577
20
-2.50624807594519
30
0
41
1
10
47.8097283710423
20
-2.44426313556664
30
0
41
1
10
47.8323520537197
20
-2.42046433790176
30
0
41
1
10
47.8772638242345
20
-2.36782439156437
30
0
41
1
10
47.8997304430156
20
-2.3388288539266
30
0
41
1
10
47.9446870635759
20
-2.27500905601352
30
0
41
1
10
47.9674072010619
20
-2.23977276783734
30
0
41
1
10
48.0112390274805
20
-2.16511798454223
30
0
41
1
10
48.0324471338553
20
-2.12563908984461
30
0
41
1
10
48.0732418240747
20
-2.0417523982421
30
0
41
1
10
48.0926750922977
20
-1.99754226655918
30
0
41
1
10
48.1277094414841
20
-1.90788384484134
30
0
41
1
10
48.1437492977378
20
-1.86122617811611
30
0
41
1
10
48.1704800349222
20
-1.76993508529691
30
0
41
1
10
48.1812925044407
20
-1.72520949785434
30
0
41
1
10
48.1974393393542
20
-1.63773240453864
30
0
41
1
10
48.2024111974445
20
-1.59683819799528
30
0
41
1
10
48.2064462286302
20
-1.52128116677471
30
0
41
1
10
48.2054347749127
20
-1.48671900531926
30
0
41
1
10
48.1980705875898
20
-1.42663166453355
30
0
41
1
10
48.1916441501365
20
-1.40042076139218
30
0
41
1
10
48.16597674478
20
-1.33541131494428
30
0
41
1
10
48.1400929442212
20
-1.30893406022133
30
0
41
1
10
48.0935140350553
20
-1.2918239165796
30
0
41
1
10
48.0764618743166
20
-1.28981548470483
30
0
41
1
10
48.0405664484307
20
-1.29277384450421
30
0
41
1
10
48.0216945497258
20
-1.29767262577835
30
0
41
1
10
47.9821973575697
20
-1.31395796527673
30
0
41
1
10
47.9614133635802
20
-1.32547291226413
30
0
41
1
10
47.9190957420683
20
-1.35446897029701
30
0
41
1
10
47.89751896949
20
-1.37192263627006
30
0
41
1
10
47.8315257014422
20
-1.43321464754368
30
0
41
1
10
47.7853267715147
20
-1.48663399265357
30
0
41
1
10
47.7398158564685
20
-1.55120070724033
30
0
0
SPLINE
5
BE
100
AcDbEntity
8
1
62
256
6
ByLayer
370
18
48
1
60
0
100
AcDbSpline
70
4
71
3
72
61
73
57
40
0
40
0
40
0
40
0
40
0.0624999999999969
40
0.0624999999999969
40
0.124999999999994
40
0.124999999999994
40
0.249999999999989
40
0.249999999999989
40
0.374999999999984
40
0.374999999999984
40
0.499999999999978
40
0.499999999999978
40
0.562499999999976
40
0.562499999999976
40
0.624999999999974
40
0.624999999999974
40
0.656249999999973
40
0.656249999999973
40
0.671874999999973
40
0.671874999999973
40
0.675781249999973
40
0.675781249999973
40
0.679687499999973
40
0.679687499999973
40
0.681640624999974
40
0.681640624999974
40
0.683593749999974
40
0.687499999999974
40
0.687499999999974
40
0.718749999999976
40
0.718749999999976
40
0.734374999999977
40
0.734374999999977
40
0.749999999999978
40
0.749999999999978
40
0.76562499999998
40
0.76562499999998
40
0.781249999999981
40
0.781249999999981
40
0.796874999999982
40
0.796874999999982
40
0.804687499999983
40
0.804687499999983
40
0.812499999999984
40
0.812499999999984
40
0.828124999999985
40
0.828124999999985
40
0.843749999999986
40
0.843749999999986
40
0.874999999999989
40
0.874999999999989
40
0.906249999999992
40
0.906249999999992
40
0.937499999999995
40
0.937499999999995
40
1
40
1
40
1
40
1
41
1
10
14.4975630085473
20
-3.27102668649187
30
0
41
1
10
14.1789610957485
20
-3.14204236113747
30
0
41
1
10
13.8585796231145
20
-3.00803455179897
30
0
41
1
10
13.2133402697135
20
-2.73298937028616
30
0
41
1
10
12.8879236339258
20
-2.59170634345673
30
0
41
1
10
11.9070217560797
20
-2.16438256588776
30
0
41
1
10
11.2494972520969
20
-1.87602657260104
30
0
41
1
10
9.91699015535175
20
-1.3252936950617
30
0
41
1
10
9.24191217990699
20
-1.06317769280864
30
0
41
1
10
7.86563584595493
20
-0.596102847953972
30
0
41
1
10
7.16443931540692
20
-0.391228234037754
30
0
41
1
10
6.08919706667362
20
-0.143964777472917
30
0
41
1
10
5.72715593141149
20
-0.0715911931308995
30
0
41
1
10
5.0005173997834
20
0.0504230486905044
30
0
41
1
10
4.63503566937874
20
0.100253394575731
30
0
41
1
10
4.08511683372296
20
0.157142045239794
30
0
41
1
10
3.90145027561414
20
0.173141063090156
30
0
41
1
10
3.62564663641319
20
0.192569276153733
30
0
41
1
10
3.53366049781587
20
0.198283954661974
30
0
41
1
10
3.41861251992665
20
0.204464092363622
30
0
41
1
10
3.39558638624828
20
0.205866932120443
30
0
41
1
10
3.35011315995067
20
0.201423860251992
30
0
41
1
10
3.32684377215702
20
0.196336352452732
30
0
41
1
10
3.29613879404985
20
0.181156531132558
30
0
41
1
10
3.28622981709319
20
0.175513226788638
30
0
41
1
10
3.26617248855561
20
0.164654303609296
30
0
41
1
10
3.23614482408036
20
0.148260873855207
30
0
41
1
10
3.20629567964542
20
0.131545904277658
30
0
41
1
10
3.02794561990345
20
0.0299142585976142
30
0
41
1
10
2.87466150009783
20
-0.0698469690838692
30
0
41
1
10
2.66058171385654
20
-0.236802822063339
30
0
41
1
10
2.59172937915002
20
-0.295453210731068
30
0
41
1
10
2.46032737564562
20
-0.420273698258797
30
0
41
1
10
2.39737481067459
20
-0.486915566971675
30
0
41
1
10
2.28178357540455
20
-0.627667658816023
30
0
41
1
10
2.22941538289999
20
-0.701330512161945
30
0
41
1
10
2.13801066014403
20
-0.856658606452868
30
0
41
1
10
2.09877762906609
20
-0.939257321759413
30
0
41
1
10
2.03964823578369
20
-1.10662978650191
30
0
41
1
10
2.01925913007676
20
-1.19192798134239
30
0
41
1
10
2.00328401900225
20
-1.32234383104748
30
0
41
1
10
2.00040956805299
20
-1.36652338268985
30
0
41
1
10
1.99967337201801
20
-1.45373030335617
30
0
41
1
10
2.00176068606839
20
-1.49684731296
30
0
41
1
10
2.01481779299044
20
-1.62482177440316
30
0
41
1
10
2.03275270275219
20
-1.70888031709666
30
0
41
1
10
2.08343319373506
20
-1.87100872990743
30
0
41
1
10
2.1157097581235
20
-1.94815420907798
30
0
41
1
10
2.22839905827831
20
-2.17041841699927
30
0
41
1
10
2.32544101697039
20
-2.30735233578184
30
0
41
1
10
2.53871870815701
20
-2.55595489792532
30
0
41
1
10
2.65569894245661
20
-2.66900412946262
30
0
41
1
10
2.90306110739576
20
-2.87979141955364
30
0
41
1
10
3.03407707355279
20
-2.97773550997815
30
0
41
1
10
3.43575875303822
20
-3.24989491998389
30
0
41
1
10
3.71616519909668
20
-3.40443929041356
30
0
41
1
10
4.0035318237158
20
-3.54188529350594
30
0
0
SPLINE
5
BF
100
AcDbEntity
8
1
62
256
6
ByLayer
370
18
48
1
60
0
100
AcDbSpline
70
4
71
3
72
20
73
16
40
0
40
0
40
0
40
0
40
0.125
40
0.125
40
0.25
40
0.25
40
0.375
40
0.375
40
0.5
40
0.5
40
0.75
40
0.75
40
0.875
40
0.875
40
1
40
1
40
1
40
1
41
1
10
48.3367072911195
20
2.23827212260397
30
0
41
1
10
48.3015558691588
20
2.33269485556622
30
0
41
1
10
48.2663373119638
20
2.42704428068797
30
0
41
1
10
48.1958950185544
20
2.6157374757378
30
0
41
1
10
48.1606393609648
20
2.71004788099296
30
0
41
1
10
48.0900310831668
20
2.89841691565545
30
0
41
1
10
48.0546822942823
20
2.99249927245037
30
0
41
1
10
47.9838648602548
20
3.1803897512458
30
0
41
1
10
47.9483589486933
20
3.27411260653778
30
0
41
1
10
47.8418361948442
20
3.55526968841093
30
0
41
1
10
47.7707200164234
20
3.74273916046218
30
0
41
1
10
47.6636725449245
20
4.02125933836825
30
0
41
1
10
47.6279376763147
20
4.11375110336397
30
0
41
1
10
47.5564222560049
20
4.29843085835654
30
0
41
1
10
47.5206251822832
20
4.39050898325894
30
0
41
1
10
47.4846997923102
20
4.48173385439279
30
0
0
SPLINE
5
C0
100
AcDbEntity
8
1
62
256
6
ByLayer
370
18
48
1
60
0
100
AcDbSpline
70
4
71
3
72
18
73
14
40
0
40
0
40
0
40
0
40
0.0075366222128389
40
0.0075366222128389
40
0.214020197444062
40
0.214020197444062
40
0.317261985059671
40
0.317261985059671
40
0.42050377267528
40
0.42050377267528
40
0.833470923137727
40
0.833470923137727
40
1
40
1
40
1
40
1
41
1
10
33.9106425928303
20
-0.0117187918755803
30
0
41
1
10
33.9269939093484
20
-0.0209286003154148
30
0
41
1
10
33.9433460798645
20
-0.030138842352045
30
0
41
1
10
34.4077309727442
20
-0.291693915475975
30
0
41
1
10
34.8564403976441
20
-0.544295084499112
30
0
41
1
10
35.5328452169463
20
-0.919380672221507
30
0
41
1
10
35.7589004493472
20
-1.04371695212595
30
0
41
1
10
36.2124680854428
20
-1.29049476111749
30
0
41
1
10
36.43963422492
20
-1.41271108058493
30
0
41
1
10
37.5698125993902
20
-2.01131757109926
30
0
41
1
10
38.4635303759468
20
-2.45500575054896
30
0
41
1
10
39.7201888753232
20
-3.00303993079888
30
0
41
1
10
40.0816117339846
20
-3.15188954959606
30
0
41
1
10
40.4441259843248
20
-3.29092088209222
30
0
0
SPLINE
5
C1
100
AcDbEntity
8
1
62
256
6
ByLayer
370
13
48
1
60
0
100
AcDbSpline
70
4
71
3
72
18
73
14
40
0
40
0
40
0
40
0
40
0.0372580452019652
40
0.0372580452019652
40
0.133532240681769
40
0.133532240681769
40
0.229806436161573
40
0.229806436161573
40
0.614903218080787
40
0.614903218080787
40
0.807451609040393
40
0.807451609040393
40
1
40
1
40
1
40
1
41
1
10
40.4441259840912
20
-3.29092088200261
30
0
41
1
10
40.5311022365859
20
-3.32427798249978
30
0
41
1
10
40.6181413139877
20
-3.35706990283643
30
0
41
1
10
40.9303523898032
20
-3.47251161631149
30
0
41
1
10
41.1559409917105
20
-3.55186708035981
30
0
41
1
10
41.6084783078817
20
-3.70230374512903
30
0
41
1
10
41.8359139619394
20
-3.77350166848751
30
0
41
1
10
42.9676504652102
20
-4.104340104236
30
0
41
1
10
43.8609824824001
20
-4.29076525499977
30
0
41
1
10
45.2010544048939
20
-4.44582116232957
30
0
41
1
10
45.647796437622
20
-4.47677839559597
30
0
41
1
10
46.5442516276379
20
-4.49605256535253
30
0
41
1
10
46.9940170386138
20
-4.4840039560145
30
0
41
1
10
47.4466134318171
20
-4.45061970433289
30
0
0
SPLINE
5
C2
100
AcDbEntity
8
1
62
256
6
ByLayer
370
13
48
1
60
0
100
AcDbSpline
70
4
71
3
72
18
73
14
40
0
40
0
40
0
40
0
40
0.0942849725743702
40
0.0942849725743702
40
0.245237477145308
40
0.245237477145308
40
0.396189981716246
40
0.396189981716246
40
0.698094990858124
40
0.698094990858124
40
0.849047495429062
40
0.849047495429062
40
1
40
1
40
1
40
1
41
1
10
4.25039147304034
20
-4.36538405493988
30
0
41
1
10
4.25039740221587
20
-4.36555820880855
30
0
41
1
10
4.25040396760551
20
-4.36272331732886
30
0
41
1
10
4.25042275364365
20
-4.34754383909547
30
0
41
1
10
4.2504360244622
20
-4.33045111115129
30
0
41
1
10
4.25046568313826
20
-4.28096562487752
30
0
41
1
10
4.25048200727488
20
-4.24868452827221
30
0
41
1
10
4.25053448554419
20
-4.13060116160457
30
0
41
1
10
4.25057435719998
20
-4.02357093935075
30
0
41
1
10
4.25063743919645
20
-3.81995360545679
30
0
41
1
10
4.25065903902578
20
-3.74460545058272
30
0
41
1
10
4.25070153283036
20
-3.58184719941548
30
0
41
1
10
4.25072251617706
20
-3.49418141899437
30
0
41
1
10
4.25074265972142
20
-3.40019935689963
30
0
0
SPLINE
5
C3
100
AcDbEntity
8
1
62
256
6
ByLayer
370
18
48
1
60
0
100
AcDbSpline
70
4
71
3
72
8
73
4
40
0
40
0
40
0
40
0
40
1
40
1
40
1
40
1
41
1
10
4.00920839354404
20
2.69983089424991
30
0
41
1
10
4.00539514847696
20
2.71086075330658
30
0
41
1
10
4.00343564744662
20
2.72206167550075
30
0
41
1
10
4.00343591199908
20
2.73344119479964
30
0
0
SPLINE
5
C4
100
AcDbEntity
8
1
62
256
6
ByLayer
370
13
48
1
60
0
100
AcDbSpline
70
4
71
3
72
21
73
17
40
0
40
0
40
0
40
0
40
0.213335302101077
40
0.213335302101077
40
0.320002953151616
40
0.320002953151616
40
0.426670604202154
40
0.533338255252693
40
0.533338255252693
40
0.640005906303231
40
0.640005906303231
40
0.853341208404307
40
0.853341208404307
40
0.960008859454846
40
0.960008859454846
40
1
40
1
40
1
40
1
41
1
10
4.25027849977053
20
2.4960716771302
30
0
41
1
10
4.25030605350221
20
2.74257384381852
30
0
41
1
10
4.25032193615439
20
2.96862637398283
30
0
41
1
10
4.25033573571014
20
3.27725652459267
30
0
41
1
10
4.25033862863415
20
3.37458086910138
30
0
41
1
10
4.25034226180958
20
3.55545147052618
30
0
41
1
10
4.25034378467251
20
3.72346758593804
30
0
41
1
10
4.25034358406717
20
3.86607806727741
30
0
41
1
10
4.2503436798757
20
3.9957364876158
30
0
41
1
10
4.2503438839519
20
4.05428216047304
30
0
41
1
10
4.25034652707905
20
4.20650122616158
30
0
41
1
10
4.25035105659427
20
4.27828426239086
30
0
41
1
10
4.25036655776779
20
4.34190812922887
30
0
41
1
10
4.25037318674944
20
4.35573307308525
30
0
41
1
10
4.25038457167963
20
4.36408480284817
30
0
41
1
10
4.25038790082723
20
4.3652762953636
30
0
41
1
10
4.25039145919351
20
4.36538364272062
30
0
0
SPLINE
5
C5
100
AcDbEntity
8
1
62
256
6
ByLayer
370
13
48
1
60
0
100
AcDbSpline
70
4
71
3
72
8
73
4
40
0
40
0
40
0
40
0
40
1
40
1
40
1
40
1
41
1
10
4.00343591199655
20
2.733441194817
30
0
41
1
10
4.00734894234347
20
2.70874589591517
30
0
41
1
10
4.0145657664153
20
2.68469050596264
30
0
41
1
10
4.02499741526566
20
2.66198879120253
30
0
0
SPLINE
5
C6
100
AcDbEntity
8
1
62
256
6
ByLayer
370
18
48
1
60
0
100
AcDbSpline
70
4
71
3
72
16
73
12
40
0
40
0
40
0
40
0
40
0.224160436846127
40
0.224160436846127
40
0.492292076102649
40
0.492292076102649
40
0.626357895730909
40
0.626357895730909
40
0.760423715359171
40
0.760423715359171
40
1
40
1
40
1
40
1
41
1
10
21.5932960554142
20
-4.37539645684376
30
0
41
1
10
21.2185468297373
20
-4.37515887982738
30
0
41
1
10
20.8443258293351
20
-4.36037257365061
30
0
41
1
10
20.021827351596
20
-4.29625746853102
30
0
41
1
10
19.5732735289293
20
-4.24066526316344
30
0
41
1
10
18.8974727027569
20
-4.12676269494662
30
0
41
1
10
18.6717015452954
20
-4.08369689131578
30
0
41
1
10
18.2188551161461
20
-3.9875257303388
30
0
41
1
10
17.9915432159933
20
-3.93430814521193
30
0
41
1
10
17.3611001981645
20
-3.77363120787925
30
0
41
1
10
16.9589073343001
20
-3.65615535042772
30
0
41
1
10
16.5577237727696
20
-3.52558453431868
30
0
0
SPLINE
5
C7
100
AcDbEntity
8
1
62
256
6
ByLayer
370
13
48
1
60
0
100
AcDbSpline
70
4
71
3
72
24
73
20
40
0
40
0
40
0
40
0
40
0.131545961282422
40
0.131545961282422
40
0.250430964551683
40
0.250430964551683
40
0.309873466186314
40
0.309873466186314
40
0.369315967820944
40
0.369315967820944
40
0.607085974359463
40
0.607085974359463
40
0.725970977628724
40
0.725970977628724
40
0.785413479263354
40
0.785413479263354
40
0.844855980897984
40
0.844855980897984
40
1
40
1
40
1
40
1
41
1
10
16.5577237727606
20
-3.52558453431576
30
0
41
1
10
16.0609052122793
20
-3.36388796665784
30
0
41
1
10
15.565634508111
20
-3.18210909685666
30
0
41
1
10
14.6219742885148
20
-2.80271860055481
30
0
41
1
10
14.1735879693626
20
-2.60834140671943
30
0
41
1
10
13.4983957787731
20
-2.29819450640574
30
0
41
1
10
13.272871372102
20
-2.19173695894722
30
0
41
1
10
12.8205089454672
20
-1.97319875210505
30
0
41
1
10
12.5931654840323
20
-1.86085715773504
30
0
41
1
10
11.4604097163462
20
-1.29058137057916
30
0
41
1
10
10.5655643185845
20
-0.80559613657914
30
0
41
1
10
9.22130836197007
20
-0.0700503487561548
30
0
41
1
10
8.77303005703848
20
0.176734722768202
30
0
41
1
10
8.09826799839652
20
0.545474378724464
30
0
41
1
10
7.87290568768177
20
0.668056775797993
30
0
41
1
10
7.42095553300868
20
0.911924815120813
30
0
41
1
10
7.19407285802606
20
1.03338658686158
30
0
41
1
10
6.3746393271046
20
1.46678425495304
30
0
41
1
10
5.78502231653209
20
1.76930295527481
30
0
41
1
10
5.19466849769017
20
2.05495145685617
30
0
0
SPLINE
5
C8
100
AcDbEntity
8
1
62
256
6
ByLayer
370
18
48
1
60
0
100
AcDbSpline
70
4
71
3
72
22
73
18
40
0
40
0
40
0
40
0
40
0.0506263954812099
40
0.0506263954812099
40
0.181481592163868
40
0.181481592163868
40
0.312336788846524
40
0.312336788846524
40
0.443191985529182
40
0.443191985529182
40
0.57404718221184
40
0.57404718221184
40
0.704902378894497
40
0.704902378894497
40
0.835757575577155
40
0.835757575577155
40
1
40
1
40
1
40
1
41
1
10
11.9577760077785
20
-2.14195536333014
30
0
41
1
10
11.9091289783556
20
-2.1833634200969
30
0
41
1
10
11.8605195639374
20
-2.2251516993833
30
0
41
1
10
11.6863001733615
20
-2.37613381437981
30
0
41
1
10
11.5610045669642
20
-2.48699465630696
30
0
41
1
10
11.3111908105354
20
-2.70949574905788
30
0
41
1
10
11.1864300961356
20
-2.82135516014921
30
0
41
1
10
10.9353455445067
20
-3.04422548387501
30
0
41
1
10
10.8086346884314
20
-3.15557460262133
30
0
41
1
10
10.5531314387783
20
-3.37337797382167
30
0
41
1
10
10.425246545102
20
-3.47904742324732
30
0
41
1
10
10.1670224908415
20
-3.68124162335678
30
0
41
1
10
10.0366787912644
20
-3.77775833982204
30
0
41
1
10
9.77128732187452
20
-3.95895024281469
30
0
41
1
10
9.63545618113764
20
-4.04397344455234
30
0
41
1
10
9.32876413319835
20
-4.21590530058296
30
0
41
1
10
9.15688348985657
20
-4.2982771924585
30
0
41
1
10
8.9829570998109
20
-4.36812521153851
30
0
0
SPLINE
5
C9
100
AcDbEntity
8
1
62
256
6
ByLayer
370
18
48
1
60
0
100
AcDbSpline
70
4
71
3
72
8
73
4
40
0
40
0
40
0
40
0
40
1
40
1
40
1
40
1
41
1
10
47.4048030827809
20
4.56258367126725
30
0
41
1
10
47.065999153566
20
4.58733591266898
30
0
41
1
10
46.7274310349054
20
4.59959820125883
30
0
41
1
10
46.3884789736163
20
4.59934389864279
30
0
0
SPLINE
5
CA
100
AcDbEntity
8
1
62
256
6
ByLayer
370
18
48
1
60
0
100
AcDbSpline
70
4
71
3
72
46
73
42
40
0
40
0
40
0
40
0
40
0.0335490643630968
40
0.0335490643630968
40
0.0680651692072731
40
0.0680651692072731
40
0.102581274051448
40
0.102581274051448
40
0.1716134837398
40
0.1716134837398
40
0.206129588583975
40
0.206129588583975
40
0.24064569342815
40
0.24064569342815
40
0.309677903116501
40
0.309677903116501
40
0.344194007960676
40
0.344194007960676
40
0.378710112804851
40
0.378710112804851
40
0.447742322493201
40
0.447742322493201
40
0.482258427337377
40
0.482258427337377
40
0.516774532181552
40
0.516774532181552
40
0.585806741869902
40
0.585806741869902
40
0.620322846714077
40
0.620322846714077
40
0.654838951558252
40
0.654838951558252
40
0.723871161246602
40
0.723871161246602
40
0.758387266090777
40
0.758387266090777
40
0.792903370934952
40
0.792903370934952
40
0.861935580623301
40
0.861935580623301
40
1
40
1
40
1
40
1
41
1
10
23.7116346168637
20
-4.39190067602826
30
0
41
1
10
23.4925989318116
20
-4.42809316812682
30
0
41
1
10
23.2736885343599
20
-4.45927491050384
30
0
41
1
10
22.82940833985
20
-4.51219708046685
30
0
41
1
10
22.604024901579
20
-4.53363893644652
30
0
41
1
10
22.1526810378709
20
-4.56558130764003
30
0
41
1
10
21.9264612996798
20
-4.57608233893373
30
0
41
1
10
21.2489750485265
20
-4.59091990743175
30
0
41
1
10
20.7987282354997
20
-4.57866029734862
30
0
41
1
10
20.1227719346651
20
-4.52740489374506
30
0
41
1
10
19.8973371837985
20
-4.50485165399826
30
0
41
1
10
19.4458636263056
20
-4.44888598810218
30
0
41
1
10
19.2195998581632
20
-4.41542668325411
30
0
41
1
10
18.5422058786463
20
-4.29940516227475
30
0
41
1
10
18.0919267159011
20
-4.20108051068743
30
0
41
1
10
17.4158262057155
20
-4.02399875092425
30
0
41
1
10
17.1903273745281
20
-3.96005907501586
30
0
41
1
10
16.7387463369156
20
-3.82258239457249
30
0
41
1
10
16.5125030188729
20
-3.74897780839342
30
0
41
1
10
15.8352565957921
20
-3.51543054602576
30
0
41
1
10
15.3849072711004
20
-3.34241576589162
30
0
41
1
10
14.7086563778576
20
-3.05987088535565
30
0
41
1
10
14.4831002897816
20
-2.96187669952789
30
0
41
1
10
14.0313833411683
20
-2.7586489622295
30
0
41
1
10
13.8051546992278
20
-2.65337533190686
30
0
41
1
10
13.1280305484027
20
-2.32912656001727
30
0
41
1
10
12.67764662381
20
-2.1012815060603
30
0
41
1
10
12.0012173928765
20
-1.74574708550415
30
0
41
1
10
11.775604137223
20
-1.62493353209212
30
0
41
1
10
11.3237930863384
20
-1.37916915294386
30
0
41
1
10
11.0976473745531
20
-1.25425488056862
30
0
41
1
10
10.4206615849546
20
-0.876459315960204
30
0
41
1
10
9.97023120541857
20
-0.619947324034399
30
0
41
1
10
9.29360266942984
20
-0.232240753697255
30
0
41
1
10
9.06790138718108
20
-0.102506238841954
30
0
41
1
10
8.61588586576065
20
0.157453904086964
30
0
41
1
10
8.38985800206623
20
0.287496485935549
30
0
41
1
10
7.71425635603782
20
0.674467174226351
30
0
41
1
10
7.26593255162032
20
0.929079227617763
30
0
41
1
10
5.92249581885838
20
1.67497466930209
30
0
41
1
10
5.02932778308255
20
2.14897795612691
30
0
41
1
10
4.12544588799108
20
2.57771885648671
30
0
0
SPLINE
5
CB
100
AcDbEntity
8
1
62
256
6
ByLayer
370
18
48
1
60
0
100
AcDbSpline
70
4
71
3
72
32
73
28
40
0
40
0
40
0
40
0
40
0.249999999999983
40
0.249999999999983
40
0.499999999999965
40
0.499999999999965
40
0.624999999999957
40
0.624999999999957
40
0.687499999999955
40
0.687499999999955
40
0.718749999999958
40
0.718749999999958
40
0.74999999999996
40
0.74999999999996
40
0.81249999999997
40
0.81249999999997
40
0.843749999999975
40
0.843749999999975
40
0.87499999999998
40
0.87499999999998
40
0.906249999999985
40
0.906249999999985
40
0.93749999999999
40
0.93749999999999
40
0.968749999999995
40
0.968749999999995
40
1
40
1
40
1
40
1
41
1
10
43.7201591760287
20
1.50350834831727
30
0
41
1
10
44.0445153018622
20
1.26204379628518
30
0
41
1
10
44.3758561512009
20
1.0436962154977
30
0
41
1
10
45.0468179373315
20
0.676611558165376
30
0
41
1
10
45.3800193169109
20
0.530694307212372
30
0
41
1
10
45.8755929305593
20
0.381612260072018
30
0
41
1
10
46.0400726064539
20
0.343662557829362
30
0
41
1
10
46.285519768212
20
0.307739128748011
30
0
41
1
10
46.366591996324
20
0.299374711879011
30
0
41
1
10
46.4863319518615
20
0.292624591238678
30
0
41
1
10
46.5259694079284
20
0.291334550496913
30
0
41
1
10
46.6046771889552
20
0.290728081484843
30
0
41
1
10
46.6437557946355
20
0.291382836362885
30
0
41
1
10
46.7579156099897
20
0.30405156635905
30
0
41
1
10
46.8293577291063
20
0.323351138501863
30
0
41
1
10
46.9240261935585
20
0.376567390087871
30
0
41
1
10
46.95263529931
20
0.398176501952633
30
0
41
1
10
47.0023043784833
20
0.451309005777318
30
0
41
1
10
47.0237420976437
20
0.483058405442108
30
0
41
1
10
47.0567002100655
20
0.553839079647275
30
0
41
1
10
47.0685707528271
20
0.592910404075894
30
0
41
1
10
47.083448048758
20
0.678132884099597
30
0
41
1
10
47.0862962696095
20
0.723558069835491
30
0
41
1
10
47.083694170793
20
0.817211939588702
30
0
41
1
10
47.0782021208614
20
0.866233110771418
30
0
41
1
10
47.0604159176728
20
0.964483888201528
30
0
41
1
10
47.0481514420738
20
1.01385294958993
30
0
41
1
10
47.0335452696562
20
1.06339126171207
30
0
0
SPLINE
5
CC
100
AcDbEntity
8
1
62
256
6
ByLayer
370
18
48
1
60
0
100
AcDbSpline
70
4
71
3
72
10
73
6
40
0
40
0
40
0
40
0
40
0.911545134541759
40
0.911545134541759
40
1
40
1
40
1
40
1
41
1
10
46.592953526193
20
-4.39063749883115
30
0
41
1
10
45.085755087416
20
-4.38977779246974
30
0
41
1
10
43.6004652202239
20
-4.15184297669302
30
0
41
1
10
41.9353148142564
20
-3.6578472762624
30
0
41
1
10
41.7876191301119
20
-3.61210629626646
30
0
41
1
10
41.6400998235675
20
-3.56459415614543
30
0
0
SPLINE
5
CD
100
AcDbEntity
8
1
62
256
6
ByLayer
370
13
48
1
60
0
100
AcDbSpline
70
4
71
3
72
24
73
20
40
0
40
0
40
0
40
0
40
0.0202542539875697
40
0.0202542539875697
40
0.0783097519147537
40
0.0783097519147537
40
0.194420747769119
40
0.194420747769119
40
0.426642739477846
40
0.426642739477846
40
0.484698237405029
40
0.484698237405029
40
0.542753735332211
40
0.542753735332211
40
0.658864731186576
40
0.658864731186576
40
0.891086722895306
40
0.891086722895306
40
1
40
1
40
1
40
1
41
1
10
41.640099823579
20
-3.56459415614918
30
0
41
1
10
41.5610576230759
20
-3.53913671472174
30
0
41
1
10
41.4820660590809
20
-3.51317078829379
30
0
41
1
10
41.1771996951483
20
-3.41097447806061
30
0
41
1
10
40.9518258510228
20
-3.3312502946707
30
0
41
1
10
40.2771106272886
20
-3.08094792348692
30
0
41
1
10
39.8291919452969
20
-2.89920873928034
30
0
41
1
10
38.486687967777
20
-2.31608420804292
30
0
41
1
10
37.5932723793889
20
-1.87687793920034
30
0
41
1
10
36.463829053107
20
-1.28721646237582
30
0
41
1
10
36.2368215736404
20
-1.1669495288105
30
0
41
1
10
35.7837968707465
20
-0.924513787656366
30
0
41
1
10
35.5579731234271
20
-0.802486981688077
30
0
41
1
10
34.8822019198621
20
-0.434646468949239
30
0
41
1
10
34.4338017432272
20
-0.187367297073052
30
0
41
1
10
33.090515680562
20
0.552454666493929
30
0
41
1
10
32.1975612587172
20
1.04299438725863
30
0
41
1
10
30.8722524304655
20
1.72772553903371
30
0
41
1
10
30.4457474225889
20
1.94163586992536
30
0
41
1
10
30.0217032619312
20
2.14509228402821
30
0
0
SPLINE
5
CE
100
AcDbEntity
8
1
62
256
6
ByLayer
370
18
48
1
60
0
100
AcDbSpline
70
4
71
3
72
20
73
16
40
0
40
0
40
0
40
0
40
0.125
40
0.125
40
0.25
40
0.25
40
0.375
40
0.375
40
0.5
40
0.5
40
0.75
40
0.75
40
0.875
40
0.875
40
1
40
1
40
1
40
1
41
1
10
48.3367072911194
20
-2.23827212260397
30
0
41
1
10
48.3015558691588
20
-2.33269485556622
30
0
41
1
10
48.2663373119638
20
-2.42704428068797
30
0
41
1
10
48.1958950185544
20
-2.6157374757378
30
0
41
1
10
48.1606393609648
20
-2.71004788099293
30
0
41
1
10
48.0900310831668
20
-2.89841691565545
30
0
41
1
10
48.0546822942822
20
-2.99249927245035
30
0
41
1
10
47.9838648602547
20
-3.1803897512458
30
0
41
1
10
47.9483589486933
20
-3.27411260653778
30
0
41
1
10
47.8418361948442
20
-3.55526968841093
30
0
41
1
10
47.7707200164234
20
-3.74273916046215
30
0
41
1
10
47.6636725449245
20
-4.02125933836828
30
0
41
1
10
47.6279376763147
20
-4.11375110336397
30
0
41
1
10
47.5564222560049
20
-4.29843085835654
30
0
41
1
10
47.5206251822832
20
-4.39050898325897
30
0
41
1
10
47.4846997923101
20
-4.48173385439279
30
0
0
SPLINE
5
CF
100
AcDbEntity
8
1
62
256
6
ByLayer
370
18
48
1
60
0
100
AcDbSpline
70
4
71
3
72
8
73
4
40
0
40
0
40
0
40
0
40
1
40
1
40
1
40
1
41
1
10
4.00920839353671
20
2.6998308942803
30
0
41
1
10
4.02620655715955
20
2.62972710916932
30
0
41
1
10
4.06650484715368
20
2.56559814346957
30
0
41
1
10
4.12733230260756
20
2.52594037350929
30
0
0
SPLINE
5
D0
100
AcDbEntity
8
1
62
256
6
ByLayer
370
18
48
1
60
0
100
AcDbSpline
70
4
71
3
72
18
73
14
40
0
40
0
40
0
40
0
40
0.192324127882899
40
0.192324127882899
40
0.384648255765797
40
0.384648255765797
40
0.576972383648696
40
0.576972383648696
40
0.769296511531594
40
0.769296511531594
40
0.961620639414493
40
0.961620639414493
40
1
40
1
40
1
40
1
41
1
10
8.98293902065817
20
-4.36813247199302
30
0
41
1
10
9.34567075418332
20
-4.36929206319476
30
0
41
1
10
9.70776383319233
20
-4.35726227065106
30
0
41
1
10
10.4308040667916
20
-4.30400593949182
30
0
41
1
10
10.7919397225727
20
-4.26331631280416
30
0
41
1
10
11.5161081471539
20
-4.15734741238251
30
0
41
1
10
11.8791283202923
20
-4.0924867045195
30
0
41
1
10
12.602664741242
20
-3.93646708911902
30
0
41
1
10
12.96410585398
20
-3.8452766430629
30
0
41
1
10
13.6869794688534
20
-3.64019991282382
30
0
41
1
10
14.0482859776004
20
-3.52541287170331
30
0
41
1
10
14.4832575080261
20
-3.37593504473469
30
0
41
1
10
14.5555873045528
20
-3.35064632959853
30
0
41
1
10
14.6278878113972
20
-3.32494427600045
30
0
0
SPLINE
5
D1
100
AcDbEntity
8
1
62
256
6
ByLayer
370
18
48
1
60
0
100
AcDbSpline
70
4
71
3
72
34
73
30
40
0
40
0
40
0
40
0
40
0.0429543299983265
40
0.0429543299983265
40
0.0992511341160729
40
0.0992511341160729
40
0.211844742351562
40
0.211844742351562
40
0.268141546469307
40
0.268141546469307
40
0.324438350587052
40
0.324438350587052
40
0.380735154704797
40
0.380735154704797
40
0.437031958822542
40
0.437031958822542
40
0.493328762940286
40
0.493328762940286
40
0.549625567058031
40
0.549625567058031
40
0.662219175293524
40
0.662219175293524
40
0.774812783529017
40
0.774812783529017
40
0.831109587646764
40
0.831109587646764
40
0.88740639176451
40
0.88740639176451
40
1
40
1
40
1
40
1
41
1
10
34.0767743378129
20
4.38195414660714
30
0
41
1
10
34.2149462697788
20
4.38137835707769
30
0
41
1
10
34.3530522870381
20
4.3789907041245
30
0
41
1
10
34.6719210204543
20
4.36874844476489
30
0
41
1
10
34.8525889050082
20
4.35919501587415
30
0
41
1
10
35.3947292278734
20
4.3205226565718
30
0
41
1
10
35.7564042505154
20
4.28266646377739
30
0
41
1
10
36.3001671042683
20
4.20374983717298
30
0
41
1
10
36.4815640895977
20
4.17387989222939
30
0
41
1
10
36.843732567073
20
4.10840026062007
30
0
41
1
10
37.0246256133551
20
4.0726297688222
30
0
41
1
10
37.3864424837118
20
3.99470070722134
30
0
41
1
10
37.5673474234557
20
3.9525211239193
30
0
41
1
10
37.9290156509466
20
3.86242979876977
30
0
41
1
10
38.1097393847703
20
3.814619013488
30
0
41
1
10
38.4714166066007
20
3.71308085852746
30
0
41
1
10
38.6523463815078
20
3.65916884071092
30
0
41
1
10
39.0148896207582
20
3.54521142197578
30
0
41
1
10
39.1965177478821
20
3.48524178530243
30
0
41
1
10
39.7401321265107
20
3.29755757029622
30
0
41
1
10
40.1014649748654
20
3.16161216406246
30
0
41
1
10
40.8249440641311
20
2.87338025322066
30
0
41
1
10
41.1866907151035
20
2.720768364865
30
0
41
1
10
41.7302658237848
20
2.47716813084861
30
0
41
1
10
41.9117321312618
20
2.393726693199
30
0
41
1
10
42.2741101304294
20
2.22402630824541
30
0
41
1
10
42.4551691391566
20
2.13763256894035
30
0
41
1
10
42.9977518266359
20
1.87339203809162
30
0
41
1
10
43.3586247115405
20
1.69047715752703
30
0
41
1
10
43.7201591760285
20
1.50350834831718
30
0
0
SPLINE
5
D2
100
AcDbEntity
8
1
62
256
6
ByLayer
370
18
48
1
60
0
100
AcDbSpline
70
4
71
3
72
16
73
12
40
0
40
0
40
0
40
0
40
0.249999999999998
40
0.249999999999998
40
0.499999999999995
40
0.499999999999995
40
0.624999999999996
40
0.624999999999996
40
0.749999999999996
40
0.749999999999996
40
1
40
1
40
1
40
1
41
1
10
8.98300916256397
20
-4.3681325194118
30
0
41
1
10
8.57538046205616
20
-4.36683004154023
30
0
41
1
10
8.17186691563515
20
-4.34964121798629
30
0
41
1
10
7.37025285916326
20
-4.27629578059069
30
0
41
1
10
6.97207591579729
20
-4.22098631940042
30
0
41
1
10
6.37759066832825
20
-4.10471579676104
30
0
41
1
10
6.17987178985615
20
-4.06112318793868
30
0
41
1
10
5.78535311075157
20
-3.96237597685737
30
0
41
1
10
5.58852398755846
20
-3.9072357940986
30
0
41
1
10
5.00453591555259
20
-3.72421510569507
30
0
41
1
10
4.62196869410798
20
-3.57903681757566
30
0
41
1
10
4.25074266060318
20
-3.40019935732249
30
0
0
SPLINE
5
D3
100
AcDbEntity
8
1
62
256
6
ByLayer
370
18
48
1
60
0
100
AcDbSpline
70
4
71
3
72
90
73
86
40
0
40
0
40
0
40
0
40
0.0079364640823666
40
0.0079364640823666
40
0.0433673046508529
40
0.0433673046508529
40
0.0610827249350961
40
0.0610827249350961
40
0.0787981452193393
40
0.0787981452193393
40
0.114228985787827
40
0.114228985787827
40
0.149659826356314
40
0.149659826356314
40
0.167375246640558
40
0.167375246640558
40
0.185090666924802
40
0.185090666924802
40
0.202806087209045
40
0.202806087209045
40
0.220521507493289
40
0.220521507493289
40
0.255952348061777
40
0.255952348061777
40
0.27366776834602
40
0.27366776834602
40
0.291383188630264
40
0.291383188630264
40
0.326814029198752
40
0.326814029198752
40
0.344529449482996
40
0.344529449482996
40
0.36224486976724
40
0.36224486976724
40
0.397675710335729
40
0.397675710335729
40
0.415391130619973
40
0.415391130619973
40
0.433106550904217
40
0.433106550904217
40
0.450821971188461
40
0.450821971188461
40
0.468537391472706
40
0.468537391472706
40
0.503968232041193
40
0.503968232041193
40
0.521683652325437
40
0.521683652325437
40
0.539399072609681
40
0.539399072609681
40
0.574829913178167
40
0.574829913178167
40
0.59254533346241
40
0.59254533346241
40
0.610260753746653
40
0.610260753746653
40
0.627976174030896
40
0.627976174030896
40
0.645691594315139
40
0.645691594315139
40
0.681122434883625
40
0.681122434883625
40
0.698837855167868
40
0.698837855167868
40
0.716553275452111
40
0.716553275452111
40
0.751984116020597
40
0.751984116020597
40
0.787414956589083
40
0.787414956589083
40
0.805130376873326
40
0.805130376873326
40
0.822845797157569
40
0.822845797157569
40
0.858276637726056
40
0.858276637726056
40
0.893707478294542
40
0.893707478294542
40
0.911422898578785
40
0.911422898578785
40
0.929138318863028
40
0.929138318863028
40
0.964569159431514
40
0.964569159431514
40
1
40
1
40
1
40
1
41
1
10
39.6206023488029
20
-3.33718294115968
30
0
41
1
10
39.5394739398973
20
-3.36627879561385
30
0
41
1
10
39.4583002562212
20
-3.39486368573802
30
0
41
1
10
39.0144026985855
20
-3.54810416983307
30
0
41
1
10
38.6520051943631
20
-3.66238287421692
30
0
41
1
10
38.1098028346403
20
-3.81460074981163
30
0
41
1
10
37.9291462002111
20
-3.8623955310164
30
0
41
1
10
37.567547047799
20
-3.95247314404182
30
0
41
1
10
37.3866423605148
20
-3.99465575697323
30
0
41
1
10
36.8437996921202
20
-4.11158032554425
30
0
41
1
10
36.4811446694965
20
-4.17748285018359
30
0
41
1
10
35.7568043993451
20
-4.28260999489896
30
0
41
1
10
35.3953079860941
20
-4.32046589904141
30
0
41
1
10
34.8532442858663
20
-4.35915598210525
30
0
41
1
10
34.6725668406834
20
-4.36871957019028
30
0
41
1
10
34.3107348038542
20
-4.38035807129003
30
0
41
1
10
34.1296021035027
20
-4.38266202122827
30
0
41
1
10
33.7670880388557
20
-4.3812870843141
30
0
41
1
10
33.5857497562286
20
-4.37735909245495
30
0
41
1
10
33.223756953318
20
-4.3623539880999
30
0
41
1
10
33.04298763555
20
-4.351095645328
30
0
41
1
10
32.5005501156477
20
-4.30768050427076
30
0
41
1
10
32.1391378244378
20
-4.26658622352886
30
0
41
1
10
31.5967088707854
20
-4.18273726387616
30
0
41
1
10
31.4157972387913
20
-4.15147380841128
30
0
41
1
10
31.0533719979143
20
-4.08352079097747
30
0
41
1
10
30.8718494293144
20
-4.04645195641663
30
0
41
1
10
30.3285441472022
20
-3.92583981110025
30
0
41
1
10
29.9675130411797
20
-3.83261476480962
30
0
41
1
10
29.4253320161614
20
-3.6758700899683
30
0
41
1
10
29.2445126177967
20
-3.6206767360043
30
0
41
1
10
28.8827391058019
20
-3.50367915530779
30
0
41
1
10
28.7018269633074
20
-3.44230001395994
30
0
41
1
10
28.1585081550039
20
-3.25171283722867
30
0
41
1
10
27.7959136270985
20
-3.11506461773857
30
0
41
1
10
27.2534136967236
20
-2.89661925679314
30
0
41
1
10
27.0727881503937
20
-2.82144838162827
30
0
41
1
10
26.7115313026692
20
-2.66634411309414
30
0
41
1
10
26.530933279128
20
-2.58604695239694
30
0
41
1
10
26.1692425294255
20
-2.42187601946856
30
0
41
1
10
25.9881842679081
20
-2.33817494156682
30
0
41
1
10
25.625833636865
20
-2.16744430138957
30
0
41
1
10
25.4444847855986
20
-2.080148798441
30
0
41
1
10
24.9014181567098
20
-1.81415104623346
30
0
41
1
10
24.5399961478395
20
-1.63142464107747
30
0
41
1
10
23.9978559564504
20
-1.35001191898544
30
0
41
1
10
23.8172463957947
20
-1.25452727715481
30
0
41
1
10
23.4557522300496
20
-1.06205401192241
30
0
41
1
10
23.2749271060737
20
-0.965040463389158
30
0
41
1
10
22.7315986074068
20
-0.672464430783805
30
0
41
1
10
22.3688711173918
20
-0.474888119875032
30
0
41
1
10
21.8267866547814
20
-0.177041055693707
30
0
41
1
10
21.6462399743199
20
-0.0775096913273217
30
0
41
1
10
21.2849519286545
20
0.121144698849235
30
0
41
1
10
21.104206899069
20
0.22025726028221
30
0
41
1
10
20.7425914083447
20
0.418220560601412
30
0
41
1
10
20.561792753033
20
0.517200302596024
30
0
41
1
10
20.1998124009567
20
0.714415641742193
30
0
41
1
10
20.0185326391604
20
0.812777417779301
30
0
41
1
10
19.4752764230046
20
1.10474228123647
30
0
41
1
10
19.1137175171475
20
1.2961600188826
30
0
41
1
10
18.5719440183183
20
1.57665004829587
30
0
41
1
10
18.3913919120117
20
1.66875735397605
30
0
41
1
10
18.0298617636568
20
1.85037125733115
30
0
41
1
10
17.848915031859
20
1.93984425209504
30
0
41
1
10
17.3056496369069
20
2.2039064888676
30
0
41
1
10
16.9433191636089
20
2.37440952652156
30
0
41
1
10
16.2200675820489
20
2.69813855217132
30
0
41
1
10
15.8586967206189
20
2.85120845294037
30
0
41
1
10
15.316549254941
20
3.06839953500477
30
0
41
1
10
15.1357879818284
20
3.13862992805363
30
0
41
1
10
14.7736666545887
20
3.27365521356384
30
0
41
1
10
14.5921580048917
20
3.33851085207448
30
0
41
1
10
14.0485632961077
20
3.5253187146447
30
0
41
1
10
13.6873720533528
20
3.64007965408797
30
0
41
1
10
12.9645165995687
20
3.84516898997984
30
0
41
1
10
12.6029842735132
20
3.93639528475077
30
0
41
1
10
12.0600240537519
20
4.05348074358227
30
0
41
1
10
11.878714073845
20
4.08916114952592
30
0
41
1
10
11.5161812178266
20
4.15429959066759
30
0
41
1
10
11.3350146244616
20
4.18384725423144
30
0
41
1
10
10.792017789548
20
4.26330470338257
30
0
41
1
10
10.4309279509807
20
4.30399355416586
30
0
41
1
10
9.70789192135345
20
4.35725609553782
30
0
41
1
10
9.34575552665223
20
4.36929233419784
30
0
41
1
10
8.98293902065819
20
4.36813247199302
30
0
0
SPLINE
5
D4
100
AcDbEntity
8
1
62
256
6
ByLayer
370
18
48
1
60
0
100
AcDbSpline
70
4
71
3
72
14
73
10
40
0
40
0
40
0
40
0
40
0.25
40
0.25
40
0.5
40
0.5
40
0.75
40
0.75
40
1
40
1
40
1
40
1
41
1
10
47.0335452696562
20
1.06339126171207
30
0
41
1
10
47.0248820340823
20
1.09277350201293
30
0
41
1
10
47.0194073881316
20
1.12286209812009
30
0
41
1
10
47.0166812363785
20
1.18488666834651
30
0
41
1
10
47.0194483397303
20
1.21714856701891
30
0
41
1
10
47.03823109282
20
1.27829463980467
30
0
41
1
10
47.0561021313274
20
1.30632353303426
30
0
41
1
10
47.1052627708511
20
1.34765567666838
30
0
41
1
10
47.1353777507177
20
1.36070646262681
30
0
41
1
10
47.1666586096734
20
1.36783506109421
30
0
0
SPLINE
5
D5
100
AcDbEntity
8
1
62
256
6
ByLayer
370
18
48
1
60
0
100
AcDbSpline
70
4
71
3
72
8
73
4
40
0
40
0
40
0
40
0
40
1
40
1
40
1
40
1
41
1
10
47.4650898929688
20
-4.36466821453485
30
0
41
1
10
47.4409306672779
20
-4.38215656685836
30
0
41
1
10
47.4198271129851
20
-4.39096065638438
30
0
41
1
10
47.4018321878256
20
-4.39092997644875
30
0
0
SPLINE
5
D6
100
AcDbEntity
8
1
62
256
6
ByLayer
370
18
48
1
60
0
100
AcDbSpline
70
4
71
3
72
20
73
16
40
0
40
0
40
0
40
0
40
0.1079973681452
40
0.1079973681452
40
0.215994736290399
40
0.215994736290399
40
0.431989472580799
40
0.431989472580799
40
0.647984208871199
40
0.647984208871199
40
0.755981577016399
40
0.755981577016399
40
0.863978945161599
40
0.863978945161599
40
1
40
1
40
1
40
1
41
1
10
4.00343591199911
20
2.73344119481143
30
0
41
1
10
4.00343880381055
20
2.85783004635152
30
0
41
1
10
4.00344118716015
20
2.97786507063179
30
0
41
1
10
4.00344508506703
20
3.20559294994158
30
0
41
1
10
4.00344660600913
20
3.31341381245519
30
0
41
1
10
4.00345024699169
20
3.61919139783913
30
0
41
1
10
4.00345144780863
20
3.79973681400998
30
0
41
1
10
4.00345315391104
20
4.11164992190663
30
0
41
1
10
4.00345364932411
20
4.23787152898092
30
0
41
1
10
4.0034550607744
20
4.38435924265377
30
0
41
1
10
4.00345563878454
20
4.42599195176444
30
0
41
1
10
4.00345717674119
20
4.49448731774118
30
0
41
1
10
4.00345814015577
20
4.52122499140131
30
0
41
1
10
4.00346084109455
20
4.56353128299904
30
0
41
1
10
4.00346272574564
20
4.57485240740087
30
0
41
1
10
4.00346504873198
20
4.57391071708003
30
0
0
SPLINE
5
D7
100
AcDbEntity
8
1
62
256
6
ByLayer
370
18
48
1
60
0
100
AcDbSpline
70
4
71
3
72
8
73
4
40
0
40
0
40
0
40
0
40
1
40
1
40
1
40
1
41
1
10
47.404803082787
20
-4.56258367125093
30
0
41
1
10
47.4187543240761
20
-4.52528566616402
30
0
41
1
10
47.4326914806328
20
-4.48796334246398
30
0
41
1
10
47.4466134318168
20
-4.45061970433284
30
0
0
SPLINE
5
D8
100
AcDbEntity
8
1
62
256
6
ByLayer
370
18
48
1
60
0
100
AcDbSpline
70
4
71
3
72
22
73
18
40
0
40
0
40
0
40
0
40
0.125
40
0.125
40
0.1875
40
0.1875
40
0.25
40
0.25
40
0.5
40
0.5
40
0.625
40
0.625
40
0.75
40
0.75
40
0.875
40
0.875
40
1
40
1
40
1
40
1
41
1
10
47.4018321878216
20
-4.39092997644872
30
0
41
1
10
47.3349452740021
20
-4.39085982326088
30
0
41
1
10
47.2714326932832
20
-4.3806046841039
30
0
41
1
10
47.1814910996993
20
-4.34914228052978
30
0
41
1
10
47.1524008751259
20
-4.33596753783036
30
0
41
1
10
47.0960791206647
20
-4.30400782406107
30
0
41
1
10
47.0688177792693
20
-4.28516887308032
30
0
41
1
10
46.9392947003822
20
-4.17799800080769
30
0
41
1
10
46.8554025997657
20
-4.0506069296294
30
0
41
1
10
46.7611402737937
20
-3.79284451265161
30
0
41
1
10
46.7349745237147
20
-3.69480530467871
30
0
41
1
10
46.6954996707642
20
-3.48145650365936
30
0
41
1
10
46.6819111687389
20
-3.36573557034475
30
0
41
1
10
46.6669966033725
20
-3.11625273496799
30
0
41
1
10
46.6656684584328
20
-2.98249389543349
30
0
41
1
10
46.6758415106358
20
-2.69610119765815
30
0
41
1
10
46.6872715960038
20
-2.54619277283592
30
0
41
1
10
46.7047328631415
20
-2.3907525986989
30
0
0
SPLINE
5
D9
100
AcDbEntity
8
SK1
62
256
6
ByLayer
370
18
48
1
60
0
100
AcDbSpline
70
4
71
3
72
10
73
6
40
0
40
0
40
0
40
0
40
0.5
40
0.5
40
1
40
1
40
1
40
1
41
1
10
-40
20
0.0773628577548777
30
0
41
1
10
-39.8300550395374
20
0.219825278020153
30
0
41
1
10
-39.656236221755
20
0.361372986338154
30
0
41
1
10
-39.305314252954
20
0.643692892003685
30
0
41
1
10
-39.1281046064877
20
0.78443994318539
30
0
41
1
10
-38.95
20
0.924975672535595
30
0
0
SPLINE
5
DA
100
AcDbEntity
8
SK1
62
256
6
ByLayer
370
18
48
1
60
0
100
AcDbSpline
70
4
71
3
72
14
73
10
40
0
40
0
40
0
40
0
40
0.500000000000005
40
0.500000000000005
40
0.750000000000003
40
0.750000000000003
40
0.875000000000002
40
0.875000000000002
40
1
40
1
40
1
40
1
41
1
10
-38.9500000000001
20
0.92497567253551
30
0
41
1
10
-38.9287234691649
20
0.941764192708717
30
0
41
1
10
-38.9083432483059
20
0.964033744292834
30
0
41
1
10
-38.880223151313
20
1.00772220670859
30
0
41
1
10
-38.8713218079587
20
1.02401230529591
30
0
41
1
10
-38.8602667834558
20
1.05150800385357
30
0
41
1
10
-38.8569157654531
20
1.06130375582157
30
0
41
1
10
-38.851744720606
20
1.0824422496639
30
0
41
1
10
-38.8499999999999
20
1.09369629593428
30
0
41
1
10
-38.8499999999999
20
1.10448130255981
30
0
0
SPLINE
5
DB
100
AcDbEntity
8
SK1
62
256
6
ByLayer
370
18
48
1
60
0
100
AcDbSpline
70
4
71
3
72
10
73
6
40
0
40
0
40
0
40
0
40
0.5
40
0.5
40
1
40
1
40
1
40
1
41
1
10
-38.95
20
3.17000614363064
30
0
41
1
10
-39.1281021891728
20
3.02947232169385
30
0
41
1
10
-39.3053148246314
20
2.88872290848263
30
0
41
1
10
-39.6562371270631
20
2.60640272380107
30
0
41
1
10
-39.8300558091376
20
2.46485510397042
30
0
41
1
10
-40
20
2.32239332884996
30
0
0
SPLINE
5
DC
100
AcDbEntity
8
SK1
62
256
6
ByLayer
370
18
48
1
60
0
100
AcDbSpline
70
4
71
3
72
14
73
10
40
0
40
0
40
0
40
0
40
0.125
40
0.125
40
0.249999999999999
40
0.249999999999999
40
0.499999999999999
40
0.499999999999999
40
1
40
1
40
1
40
1
41
1
10
-38.85
20
3.16990933596725
30
0
41
1
10
-38.85
20
3.17843223888406
30
0
41
1
10
-38.8517453396944
20
3.18487814844946
30
0
41
1
10
-38.8568901241517
20
3.19423716450231
30
0
41
1
10
-38.860211966304
20
3.19723333656401
30
0
41
1
10
-38.8714485682308
20
3.20336701846279
30
0
41
1
10
-38.8802054040538
20
3.2035248517731
30
0
41
1
10
-38.9082792076556
20
3.19813843237429
30
0
41
1
10
-38.9286347141249
20
3.18686469710914
30
0
41
1
10
-38.95
20
3.17000614363064
30
0
0
LINE
5
76
100
AcDbEntity
8
81
62
256
6
ByLayer
370
18
48
1
60
0
100
AcDbLine
10
49
20
0
30
0
11
54
21
0
31
0
39
0
210
0
220
0
230
1
0
LINE
5
77
100
AcDbEntity
8
1
62
256
6
ByLayer
370
18
48
1
60
0
100
AcDbLine
10
4.00346
20
4.573911
30
0
11
1.089532
21
4.572163
31
0
39
0
210
0
220
0
230
1
0
LINE
5
79
100
AcDbEntity
8
1
62
256
6
ByLayer
370
18
48
1
60
0
100
AcDbLine
10
21.389912
20
4.584343
30
0
11
20.669045
21
4.583911
31
0
39
0
210
0
220
0
230
1
0
LINE
5
7A
100
AcDbEntity
8
1
62
256
6
ByLayer
370
18
48
1
60
0
100
AcDbLine
10
46.389714
20
4.599343
30
0
11
45.67654
21
4.598915
31
0
39
0
210
0
220
0
230
1
0
LINE
5
7B
100
AcDbEntity
8
1
62
256
6
ByLayer
370
18
48
1
60
0
100
AcDbLine
10
45.67654
20
-4.598915
30
0
11
46.38968
21
-4.599343
31
0
39
0
210
0
220
0
230
1
0
LINE
5
7C
100
AcDbEntity
8
1
62
256
6
ByLayer
370
18
48
1
60
0
100
AcDbLine
10
20.669045
20
-4.583911
30
0
11
21.389777
21
-4.584343
31
0
39
0
210
0
220
0
230
1
0
LINE
5
7D
100
AcDbEntity
8
1
62
256
6
ByLayer
370
18
48
1
60
0
100
AcDbLine
10
1.089532
20
-4.572163
30
0
11
4.00346
21
-4.573911
31
0
39
0
210
0
220
0
230
1
0
LINE
5
7E
100
AcDbEntity
8
SK1
62
256
6
ByLayer
370
18
48
1
60
0
100
AcDbLine
10
-38.845299
20
5
30
0
11
-40
21
3
31
0
39
0
210
0
220
0
230
1
0
LINE
5
80
100
AcDbEntity
8
SK1
62
256
6
ByLayer
370
18
48
1
60
0
100
AcDbLine
10
-40
20
-3
30
0
11
-38.845299
21
-5
31
0
39
0
210
0
220
0
230
1
0
LINE
5
81
100
AcDbEntity
8
SK1
62
256
6
ByLayer
370
18
48
1
60
0
100
AcDbLine
10
0
20
5
30
0
11
-38.845299
21
5
31
0
39
0
210
0
220
0
230
1
0
LINE
5
82
100
AcDbEntity
8
SK1
62
256
6
ByLayer
370
18
48
1
60
0
100
AcDbLine
10
-38.845299
20
-5
30
0
11
0
21
-5
31
0
39
0
210
0
220
0
230
1
0
LINE
5
83
100
AcDbEntity
8
4
62
256
6
ByLayer
370
18
48
0.05
60
0
100
AcDbLine
10
49
20
0
30
0
11
0
21
0
31
0
39
0
210
0
220
0
230
1
0
LINE
5
85
100
AcDbEntity
8
SK4
62
256
6
ByLayer
370
18
48
0.05
60
0
100
AcDbLine
10
54
20
0
30
0
11
-45
21
0
31
0
39
0
210
0
220
0
230
1
0
LINE
5
87
100
AcDbEntity
8
80
62
256
6
ByLayer
370
18
48
1
60
0
100
AcDbLine
10
0
20
0
30
0
11
-5
21
0
31
0
39
0
210
0
220
0
230
1
0
LINE
5
88
100
AcDbEntity
8
1
62
256
6
ByLayer
370
13
48
1
60
0
100
AcDbLine
10
48.775711
20
0.858242
30
0
11
47.986463
21
0.858242
31
0
39
0
210
0
220
0
230
1
0
LINE
5
89
100
AcDbEntity
8
1
62
256
6
ByLayer
370
18
48
1
60
0
100
AcDbLine
10
48.914544
20
0.307581
30
0
11
48.775711
21
0.858242
31
0
39
0
210
0
220
0
230
1
0
LINE
5
8A
100
AcDbEntity
8
1
62
256
6
ByLayer
370
18
48
1
60
0
100
AcDbLine
10
46.704733
20
-2.390753
30
0
11
48.894598
21
-0.128592
31
0
39
0
210
0
220
0
230
1
0
LINE
5
8B
100
AcDbEntity
8
1
62
256
6
ByLayer
370
18
48
1
60
0
100
AcDbLine
10
48.990971
20
0.044951
30
0
11
49
21
0
31
0
39
0
210
0
220
0
230
1
0
LINE
5
8C
100
AcDbEntity
8
1
62
256
6
ByLayer
370
13
48
1
60
0
100
AcDbLine
10
47.986463
20
0.858242
30
0
11
48.914544
21
0.307581
31
0
39
0
210
0
220
0
230
1
0
LINE
5
8D
100
AcDbEntity
8
1
62
256
6
ByLayer
370
13
48
1
60
0
100
AcDbLine
10
47.796557
20
0.522912
30
0
11
48.894598
21
-0.128592
31
0
39
0
210
0
220
0
230
1
0
LINE
5
8E
100
AcDbEntity
8
1
62
256
6
ByLayer
370
18
48
1
60
0
100
AcDbLine
10
49
20
0
30
0
11
48.990971
21
-0.044951
31
0
39
0
210
0
220
0
230
1
0
LINE
5
8F
100
AcDbEntity
8
1
62
256
6
ByLayer
370
18
48
1
60
0
100
AcDbLine
10
48.914544
20
-0.307581
30
0
11
48.775711
21
-0.858242
31
0
39
0
210
0
220
0
230
1
0
LINE
5
90
100
AcDbEntity
8
1
62
256
6
ByLayer
370
13
48
1
60
0
100
AcDbLine
10
1.089532
20
4.572163
30
0
11
1.089532
21
-4.572163
31
0
39
0
210
0
220
0
230
1
0
LINE
5
91
100
AcDbEntity
8
1
62
256
6
ByLayer
370
18
48
1
60
0
100
AcDbLine
10
0
20
-5
30
0
11
0
21
5
31
0
39
0
210
0
220
0
230
1
0
LINE
5
92
100
AcDbEntity
8
1
62
256
6
ByLayer
370
18
48
1
60
0
100
AcDbLine
10
49
20
0
30
0
11
47.401832
21
-4.39093
31
0
39
0
210
0
220
0
230
1
0
LINE
5
93
100
AcDbEntity
8
1
62
256
6
ByLayer
370
13
48
1
60
0
100
AcDbLine
10
0.544526
20
4.786081
30
0
11
0.544526
21
-4.786081
31
0
39
0
210
0
220
0
230
1
0
LINE
5
94
100
AcDbEntity
8
SK1
62
256
6
ByLayer
370
18
48
1
60
0
100
AcDbLine
10
0
20
-5
30
0
11
0
21
5
31
0
39
0
210
0
220
0
230
1
0
LINE
5
95
100
AcDbEntity
8
SK1
62
256
6
ByLayer
370
18
48
1
60
0
100
AcDbLine
10
-40
20
2.322393
30
0
11
-40
21
0.077384
31
0
39
0
210
0
220
0
230
1
0
LINE
5
96
100
AcDbEntity
8
SK1
62
256
6
ByLayer
370
18
48
1
60
0
100
AcDbLine
10
-38.845299
20
5
30
0
11
-38.845299
21
-5
31
0
39
0
210
0
220
0
230
1
0
LINE
5
97
100
AcDbEntity
8
SK1
62
256
6
ByLayer
370
18
48
1
60
0
100
AcDbLine
10
-40
20
0.077363
30
0
11
-40
21
-3
31
0
39
0
210
0
220
0
230
1
0
LINE
5
98
100
AcDbEntity
8
SK1
62
256
6
ByLayer
370
18
48
1
60
0
100
AcDbLine
10
-40
20
3
30
0
11
-40
21
2.322393
31
0
39
0
210
0
220
0
230
1
0
LINE
5
99
100
AcDbEntity
8
SK1
62
256
6
ByLayer
370
18
48
1
60
0
100
AcDbLine
10
-38.85
20
1.104481
30
0
11
-38.85
21
3.169909
31
0
39
0
210
0
220
0
230
1
0
LINE
5
9A
100
AcDbEntity
8
SK1
62
256
6
ByLayer
370
13
48
1
60
0
100
AcDbLine
10
-38.95
20
3.170006
30
0
11
-38.95
21
0.924996
31
0
39
0
210
0
220
0
230
1
0
MTEXT
5
DD
100
AcDbEntity
8
SK6
62
256
6
ByLayer
370
13
48
1
60
0
100
AcDbMText
10
6.629169
20
36.982694
30
0
210
0
220
0
230
1
1
\W0.7542;R840-0920-30-A1A1220
40
3.5
41
0
44
1.084337
50
0
71
8
72
5
7
iso_b_vert
0
DIMENSION
5
EA
100
AcDbEntity
8
SK2
62
256
6
ByLayer
370
13
48
1
60
0
100
AcDbDimension
2
DimnDraft3D1
10
47.43
20
-14.813398
30
0
11
22.180059
21
-14.813398
31
0
70
32
71
5
72
1
41
1
210
0
220
0
230
1
3
Standard
100
AcDbAlignedDimension
13
0
23
-1.5875
33
0
14
47.43
24
-6.1875
34
0
50
0
100
AcDbRotatedDimension
1001
ACAD
1000
DSTYLE
1002
{
1070
   279
1070
     0
1070
   172
1070
     1
1070
   173
1070
     1
1070
   340
1005
DE
1070
   271
1070
     2
1070
   272
1070
     2
1070
    77
1070
     1
1070
    73
1070
     0
1070
   171
1070
     3
1070
   274
1070
     4
1070
   177
1070
    35
1070
   176
1070
    35
1070
   178
1070
    35
1070
    48
1040
-0.005
1070
    41
1041
3.5
1070
   147
1041
1.75
1070
    42
1041
1.5875
1070
    44
1041
2.0
1070
   140
1041
3.5
1070
   343
1005
0
1070
   344
1005
0
1002
}
0
DIMENSION
5
F4
100
AcDbEntity
8
SK2
62
256
6
ByLayer
370
13
48
1
60
0
100
AcDbDimension
2
DimnDraft3D2
10
49
20
-33.692985
30
0
11
4.2713
21
-33.692985
31
0
70
32
71
5
72
1
41
1
210
0
220
0
230
1
3
Standard
100
AcDbAlignedDimension
13
-40
23
-6.5875
33
0
14
49
24
-1.5875
34
0
50
0
100
AcDbRotatedDimension
1001
ACAD
1000
DSTYLE
1002
{
1070
   279
1070
     0
1070
   172
1070
     1
1070
   173
1070
     1
1070
   340
1005
DE
1070
   271
1070
     2
1070
   272
1070
     2
1070
    77
1070
     1
1070
    73
1070
     0
1070
   171
1070
     3
1070
   274
1070
     4
1070
   177
1070
    35
1070
   176
1070
    35
1070
   178
1070
    35
1070
    48
1040
-0.005
1070
    41
1041
3.5
1070
   147
1041
1.75
1070
    42
1041
1.5875
1070
    44
1041
2.0
1070
   140
1041
3.5
1070
   343
1005
0
1070
   344
1005
0
1002
}
0
DIMENSION
5
FE
100
AcDbEntity
8
SK2
62
256
6
ByLayer
370
13
48
1
60
0
100
AcDbDimension
2
DimnDraft3D3
10
49
20
16.209119
30
0
11
34.415
21
16.209119
31
0
70
32
71
5
72
1
41
1
210
0
220
0
230
1
3
Standard
100
AcDbAlignedDimension
13
19.83
23
6.1875
33
0
14
49
24
1.5875
34
0
50
0
100
AcDbRotatedDimension
1001
ACAD
1000
DSTYLE
1002
{
1070
   279
1070
     0
1070
   172
1070
     1
1070
   173
1070
     1
1070
   340
1005
DE
1070
   271
1070
     2
1070
   272
1070
     2
1070
    77
1070
     1
1070
    73
1070
     0
1070
   171
1070
     3
1070
   274
1070
     4
1070
   177
1070
    35
1070
   176
1070
    35
1070
   178
1070
    35
1070
    48
1040
-0.005
1070
    41
1041
3.5
1070
   147
1041
1.75
1070
    42
1041
1.5875
1070
    44
1041
2.0
1070
   140
1041
3.5
1070
   343
1005
0
1070
   344
1005
0
1002
}
0
DIMENSION
5
108
100
AcDbEntity
8
SK2
62
256
6
ByLayer
370
13
48
1
60
0
100
AcDbDimension
2
DimnDraft3D4
10
47.43
20
-17.402503
30
0
11
58.981425
21
-17.402503
31
0
70
32
71
5
72
1
41
1
210
0
220
0
230
1
3
Standard
100
AcDbAlignedDimension
13
49
23
-1.5875
33
0
14
47.43
24
-6.1875
34
0
50
0
100
AcDbRotatedDimension
1001
ACAD
1000
DSTYLE
1002
{
1070
   279
1070
     0
1070
   172
1070
     1
1070
   173
1070
     1
1070
   340
1005
DE
1070
   271
1070
     2
1070
   272
1070
     2
1070
    77
1070
     1
1070
    73
1070
     0
1070
   171
1070
     3
1070
   274
1070
     4
1070
   177
1070
    35
1070
   176
1070
    35
1070
   178
1070
    35
1070
    48
1040
-0.005
1070
    41
1041
3.5
1070
   147
1041
1.75
1070
    42
1041
1.5875
1070
    44
1041
2.0
1070
   140
1041
3.5
1070
   343
1005
0
1070
   344
1005
0
1002
}
0
DIMENSION
5
112
100
AcDbEntity
8
SK2
62
256
6
ByLayer
370
13
48
1
60
0
100
AcDbDimension
2
DimnDraft3D5
10
47.43
20
-23.343428
30
0
11
1.190676
21
-23.343428
31
0
70
32
71
5
72
1
41
1
210
0
220
0
230
1
3
Standard
100
AcDbAlignedDimension
13
-40
23
-6.5875
33
0
14
47.43
24
-6.1875
34
0
50
0
100
AcDbRotatedDimension
1001
ACAD
1000
DSTYLE
1002
{
1070
   279
1070
     0
1070
   172
1070
     1
1070
   173
1070
     1
1070
   340
1005
DE
1070
   271
1070
     2
1070
   272
1070
     2
1070
    77
1070
     1
1070
    73
1070
     0
1070
   171
1070
     3
1070
   274
1070
     4
1070
   177
1070
    35
1070
   176
1070
    35
1070
   178
1070
    35
1070
    48
1040
-0.005
1070
    41
1041
3.5
1070
   147
1041
1.75
1070
    42
1041
1.5875
1070
    44
1041
2.0
1070
   140
1041
3.5
1070
   343
1005
0
1070
   344
1005
0
1002
}
0
DIMENSION
5
11D
100
AcDbEntity
8
SK2
62
256
6
ByLayer
370
13
48
1
60
0
100
AcDbDimension
2
DimnDraft3D6
10
-50.625163
20
5
30
0
11
-51.250163
21
23.47418
31
0
70
33
71
5
72
1
41
1
210
0
220
0
230
1
3
Standard
100
AcDbAlignedDimension
13
-41.5875
23
-5
33
0
14
-41.5875
24
5
34
0
1001
ACAD
1000
DSTYLE
1002
{
1070
   279
1070
     0
1070
    74
1070
     0
1070
   173
1070
     1
1070
   340
1005
DE
1070
   271
1070
     3
1070
   272
1070
     2
1070
    77
1070
     1
1070
    73
1070
     0
1070
   171
1070
     3
1070
   274
1070
     4
1070
   177
1070
    35
1070
   176
1070
    35
1070
   178
1070
    35
1070
    48
1040
-0.005
1070
    41
1041
3.5
1070
   147
1041
1.75
1070
    42
1041
1.5875
1070
    44
1041
2.0
1070
   140
1041
3.5
1070
   343
1005
0
1070
   344
1005
0
1002
}
0
DIMENSION
5
128
100
AcDbEntity
8
2
62
256
6
ByLayer
370
13
48
1
60
0
100
AcDbDimension
2
DimnDraft3D7
10
63.083343
20
4.6
30
0
11
58.458343
21
21.667266
31
0
70
33
71
5
72
1
41
1
210
0
220
0
230
1
3
Standard
100
AcDbAlignedDimension
13
49.0175
23
-4.6
33
0
14
49.0175
24
4.6
34
0
1001
ACAD
1000
DSTYLE
1002
{
1070
   279
1070
     0
1070
    74
1070
     0
1070
   173
1070
     1
1070
   340
1005
DE
1070
   271
1070
     3
1070
   272
1070
     2
1070
    77
1070
     1
1070
    73
1070
     0
1070
   171
1070
     3
1070
   274
1070
     4
1070
   177
1070
    35
1070
   176
1070
    35
1070
   178
1070
    35
1070
    48
1040
-0.005
1070
    41
1041
3.5
1070
   147
1041
1.75
1070
    42
1041
1.5875
1070
    44
1041
2.0
1070
   140
1041
3.5
1070
   343
1005
0
1070
   344
1005
0
1002
}
0
ENDSEC
0
SECTION
2
OBJECTS
0
DICTIONARY
5
193
330
0
100
AcDbDictionary
280
0
281
1
3
ACAD_GROUP
350
194
3
ACAD_MLINESTYLE
350
195
0
DICTIONARY
5
194
330
0
100
AcDbDictionary
280
0
281
1
0
DICTIONARY
5
195
330
0
100
AcDbDictionary
280
0
281
1
3
Standard
350
18
0
MLINESTYLE
5
18
330
195
100
AcDbMlineStyle
2
Standard
70
0
3

62
256
51
90
52
90
71
2
49
-0.5
62
256
6
ByLayer
49
0.5
62
256
6
ByLayer
0
RASTERVARIABLES
5
181
330

100
AcDbRasterVariables
90
0
70
1
71
1
72
1
0
ENDSEC
0
EOF
