0
SECTION
2
HEADER
9
$ACADVER
1
AC1015
9
$DWGCODEPAGE
3
ANSI_1252
9
$HANDSEED
5
1a0
9
$ANGBASE
50
0
9
$ANGDIR
70
0
9
$ATTMODE
70
1
9
$AUNITS
70
0
9
$AUPREC
70
0
9
$CECOLOR
62
256
9
$CELTSCALE
40
1
9
$CELTYPE
6
ByLayer
9
$CELWEIGHT
370
18
9
$CLAYER
8
0
9
$CMLJUST
70
0
9
$CMLSCALE
40
1
9
$CMLSTYLE
2
Standard
9
$DIMSTYLE
2
Standard
9
$TEXTSIZE
40
0.2
9
$TEXTSTYLE
7
Standard
9
$LUNITS
70
2
9
$LUPREC
70
4
9
$EXTNAMES
290
1
9
$INSUNITS
70
4
9
$LTSCALE
40
1
9
$LWDISPLAY
290
1
9
$PDMODE
70
0
9
$PDSIZE
40
0
9
$PLINEGEN
70
0
0
ENDSEC
0
SECTION
2
CLASSES
0
CLASS
1
RASTERVARIABLES
2
AcDbRasterVariables
3
ISM
90
0
280
0
281
0
0
ENDSEC
0
SECTION
2
TABLES
0
TABLE
2
VPORT
5
196
100
AcDbSymbolTable
0
VPORT
5
1
100
AcDbSymbolTableRecord
100
AcDbViewportTableRecord
2
*Active
70
0
10
0
20
0
11
1
21
1
12
-1
22
1
13
0
23
0
14
0.5
24
0.5
15
10
25
10
16
0
26
0
36
1
17
0
27
0
37
0
0
ENDTAB
0
TABLE
2
LTYPE
5
197
100
AcDbSymbolTable
0
LTYPE
5
14
100
AcDbSymbolTableRecord
100
AcDbLinetypeTableRecord
70
0
2
ByBlock
3

72
65
73
0
40
0
0
LTYPE
5
15
100
AcDbSymbolTableRecord
100
AcDbLinetypeTableRecord
70
0
2
ByLayer
3

72
65
73
0
40
0
0
LTYPE
5
16
100
AcDbSymbolTableRecord
100
AcDbLinetypeTableRecord
70
0
2
CONTINUOUS
3
Solid line
72
65
73
0
40
0
0
LTYPE
5
6A
100
AcDbSymbolTableRecord
100
AcDbLinetypeTableRecord
70
0
2
CENTER
3
____ _ ____ _ ____ _ ____
72
65
73
4
40
47.5
49
22
74
0
49
-8.5
74
0
49
8.5
74
0
49
-8.5
74
0
0
LTYPE
5
6B
100
AcDbSymbolTableRecord
100
AcDbLinetypeTableRecord
70
0
2
DASHED
3
__ __ __ __ __ __ __ __ __
72
65
73
2
40
25.72
49
12.86
74
0
49
-12.86
74
0
0
ENDTAB
0
TABLE
2
LAYER
5
198
100
AcDbSymbolTable
0
LAYER
5
10
100
AcDbSymbolTableRecord
100
AcDbLayerTableRecord
2
0
70
0
62
7
6
CONTINUOUS
290
1
370
-3
390
0
0
LAYER
5
6D
100
AcDbSymbolTableRecord
100
AcDbLayerTableRecord
2
81
70
0
62
-3
6
CONTINUOUS
290
1
370
-3
390
0
0
LAYER
5
6F
100
AcDbSymbolTableRecord
100
AcDbLayerTableRecord
2
80
70
0
62
-6
6
CONTINUOUS
290
1
370
-3
390
0
0
LAYER
5
74
100
AcDbSymbolTableRecord
100
AcDbLayerTableRecord
2
2
70
0
62
7
6
CONTINUOUS
290
1
370
-3
390
0
0
LAYER
5
78
100
AcDbSymbolTableRecord
100
AcDbLayerTableRecord
2
1
70
0
62
4
6
CONTINUOUS
290
1
370
-3
390
0
0
LAYER
5
84
100
AcDbSymbolTableRecord
100
AcDbLayerTableRecord
2
4
70
0
62
-2
6
CENTER
290
1
370
-3
390
0
0
LAYER
5
182
100
AcDbSymbolTableRecord
100
AcDbLayerTableRecord
2
SK2
70
0
62
7
6
CONTINUOUS
290
1
370
-3
390
0
0
LAYER
5
183
100
AcDbSymbolTableRecord
100
AcDbLayerTableRecord
2
SK1
70
0
62
4
6
CONTINUOUS
290
1
370
-3
390
0
0
LAYER
5
184
100
AcDbSymbolTableRecord
100
AcDbLayerTableRecord
2
SK4
70
0
62
2
6
CENTER
290
1
370
-3
390
0
0
LAYER
5
185
100
AcDbSymbolTableRecord
100
AcDbLayerTableRecord
2
SK6
70
0
62
5
6
CONTINUOUS
290
1
370
-3
390
0
0
ENDTAB
0
TABLE
2
STYLE
5
199
100
AcDbSymbolTable
0
STYLE
5
11
100
AcDbSymbolTableRecord
100
AcDbTextStyleTableRecord
2
Standard
3
txt
70
0
71
0
40
0
41
1
42
0
50
0
0
STYLE
5
DE
100
AcDbSymbolTableRecord
100
AcDbTextStyleTableRecord
2
iso_b_vert
3
simplex.shx
70
0
71
0
40
0
41
1
42
0
50
0
0
STYLE
5
DF
100
AcDbSymbolTableRecord
100
AcDbTextStyleTableRecord
2
DWGDirectTextStyle
3
simplex
70
0
71
0
40
0
41
1
42
0
50
0
0
ENDTAB
0
TABLE
2
DIMSTYLE
5
19a
100
AcDbSymbolTable
100
AcDbDimStyleTable
0
DIMSTYLE
105
27
100
AcDbSymbolTableRecord
100
AcDbDimStyleTableRecord
2
Standard
70
0
3
<>
41
0.18
42
0.0625
44
0.18
140
0.18
147
0.09
73
0
74
0
77
1
271
2
275
0
278
52
280
0
340
11
0
ENDTAB
0
TABLE
2
VIEW
5
19b
100
AcDbSymbolTable
0
ENDTAB
0
TABLE
2
UCS
5
19c
100
AcDbSymbolTable
0
ENDTAB
0
TABLE
2
APPID
5
19d
100
AcDbSymbolTable
0
APPID
5
12
100
AcDbSymbolTableRecord
100
AcDbRegAppTableRecord
2
ACAD
70
0
0
ENDTAB
0
TABLE
2
BLOCK_RECORD
5
19e
100
AcDbSymbolTable
0
BLOCK_RECORD
5
1F
100
AcDbSymbolTableRecord
100
AcDbBlockTableRecord
2
*Model_Space
340
0
70
0
0
BLOCK_RECORD
5
1B
100
AcDbSymbolTableRecord
100
AcDbBlockTableRecord
2
*Paper_Space
340
0
70
0
0
BLOCK_RECORD
5
23
100
AcDbSymbolTableRecord
100
AcDbBlockTableRecord
2
*Paper_Space0
340
0
70
0
0
BLOCK_RECORD
5
E1
100
AcDbSymbolTableRecord
100
AcDbBlockTableRecord
2
DimnDraft3D1
340
0
70
0
0
BLOCK_RECORD
5
EB
100
AcDbSymbolTableRecord
100
AcDbBlockTableRecord
2
DimnDraft3D2
340
0
70
0
0
BLOCK_RECORD
5
F5
100
AcDbSymbolTableRecord
100
AcDbBlockTableRecord
2
DimnDraft3D3
340
0
70
0
0
BLOCK_RECORD
5
FF
100
AcDbSymbolTableRecord
100
AcDbBlockTableRecord
2
DimnDraft3D4
340
0
70
0
0
BLOCK_RECORD
5
109
100
AcDbSymbolTableRecord
100
AcDbBlockTableRecord
2
DimnDraft3D5
340
0
70
0
0
BLOCK_RECORD
5
113
100
AcDbSymbolTableRecord
100
AcDbBlockTableRecord
2
DimnDraft3D6
340
0
70
0
0
BLOCK_RECORD
5
11E
100
AcDbSymbolTableRecord
100
AcDbBlockTableRecord
2
DimnDraft3D7
340
0
70
0
0
ENDTAB
0
ENDSEC
0
SECTION
2
BLOCKS
0
BLOCK
5
20
100
AcDbEntity
8
0
100
AcDbBlockBegin
2
*Model_Space
70
0
10
0
20
0
30
0
3
*Model_Space
0
ENDBLK
5
21
100
AcDbEntity
8
0
100
AcDbBlockEnd
0
BLOCK
5
1C
100
AcDbEntity
8
0
100
AcDbBlockBegin
2
*Paper_Space
70
0
10
0
20
0
30
0
3
*Paper_Space
0
ENDBLK
5
1D
100
AcDbEntity
8
0
100
AcDbBlockEnd
0
BLOCK
5
24
100
AcDbEntity
8
0
100
AcDbBlockBegin
2
*Paper_Space0
70
0
10
0
20
0
30
0
3
*Paper_Space0
0
ENDBLK
5
25
100
AcDbEntity
8
0
100
AcDbBlockEnd
0
BLOCK
5
E8
100
AcDbEntity
8
0
100
AcDbBlockBegin
2
DimnDraft3D1
70
0
10
0
20
0
30
0
3
DimnDraft3D1
0
MTEXT
5
E2
100
AcDbEntity
8
SK2
62
256
6
ByLayer
370
13
48
1
60
0
100
AcDbMText
10
17.382954
20
-13.888398
30
0
210
0
220
0
230
1
1
\W0.7845;47,45
40
3.5
41
0
44
1.084337
50
0
71
7
72
5
7
iso_b_vert
0
LINE
5
E3
100
AcDbEntity
8
SK2
62
256
6
ByLayer
370
13
48
1
60
0
100
AcDbLine
10
0
20
-1.5875
30
0
11
0
21
-16.763398
31
0
39
0
210
0
220
0
230
1
0
LINE
5
E4
100
AcDbEntity
8
SK2
62
256
6
ByLayer
370
13
48
1
60
0
100
AcDbLine
10
47.45
20
-6.1375
30
0
11
47.45
21
-16.763398
31
0
39
0
210
0
220
0
230
1
0
LINE
5
E5
100
AcDbEntity
8
SK2
62
256
6
ByLayer
370
13
48
1
60
0
100
AcDbLine
10
0
20
-14.763398
30
0
11
47.45
21
-14.763398
31
0
39
0
210
0
220
0
230
1
0
SOLID
5
E6
100
AcDbEntity
8
SK2
62
256
6
ByLayer
370
13
48
1
60
0
100
AcDbTrace
10
0
20
-14.763398
30
0
11
3.499998
21
-14.302615
31
0
12
3.500002
22
-15.224182
32
0
13
0
23
-14.763398
33
0
39
0
210
0
220
0
230
1
0
SOLID
5
E7
100
AcDbEntity
8
SK2
62
256
6
ByLayer
370
13
48
1
60
0
100
AcDbTrace
10
47.45
20
-14.763398
30
0
11
43.950002
21
-15.224182
31
0
12
43.949998
22
-14.302615
32
0
13
47.45
23
-14.763398
33
0
39
0
210
0
220
0
230
1
0
ENDBLK
5
E9
100
AcDbEntity
8
0
100
AcDbBlockEnd
0
BLOCK
5
F2
100
AcDbEntity
8
0
100
AcDbBlockBegin
2
DimnDraft3D2
70
0
10
0
20
0
30
0
3
DimnDraft3D2
0
MTEXT
5
EC
100
AcDbEntity
8
SK2
62
256
6
ByLayer
370
13
48
1
60
0
100
AcDbMText
10
-0.157384
20
-32.817985
30
0
210
0
220
0
230
1
1
\W0.7317;89,00
40
3.5
41
0
44
1.084337
50
0
71
7
72
5
7
iso_b_vert
0
LINE
5
ED
100
AcDbEntity
8
SK2
62
256
6
ByLayer
370
13
48
1
60
0
100
AcDbLine
10
-40
20
-6.5875
30
0
11
-40
21
-35.692985
31
0
39
0
210
0
220
0
230
1
0
LINE
5
EE
100
AcDbEntity
8
SK2
62
256
6
ByLayer
370
13
48
1
60
0
100
AcDbLine
10
49
20
-1.5875
30
0
11
49
21
-35.692985
31
0
39
0
210
0
220
0
230
1
0
LINE
5
EF
100
AcDbEntity
8
SK2
62
256
6
ByLayer
370
13
48
1
60
0
100
AcDbLine
10
-40
20
-33.692985
30
0
11
49
21
-33.692985
31
0
39
0
210
0
220
0
230
1
0
SOLID
5
F0
100
AcDbEntity
8
SK2
62
256
6
ByLayer
370
13
48
1
60
0
100
AcDbTrace
10
-40
20
-33.692985
30
0
11
-36.500002
21
-33.232202
31
0
12
-36.499998
22
-34.153769
32
0
13
-40
23
-33.692985
33
0
39
0
210
0
220
0
230
1
0
SOLID
5
F1
100
AcDbEntity
8
SK2
62
256
6
ByLayer
370
13
48
1
60
0
100
AcDbTrace
10
49
20
-33.692985
30
0
11
45.500002
21
-34.153769
31
0
12
45.499998
22
-33.232202
32
0
13
49
23
-33.692985
33
0
39
0
210
0
220
0
230
1
0
ENDBLK
5
F3
100
AcDbEntity
8
0
100
AcDbBlockEnd
0
BLOCK
5
FC
100
AcDbEntity
8
0
100
AcDbBlockBegin
2
DimnDraft3D3
70
0
10
0
20
0
30
0
3
DimnDraft3D3
0
MTEXT
5
F6
100
AcDbEntity
8
SK2
62
256
6
ByLayer
370
13
48
1
60
0
100
AcDbMText
10
30.126316
20
17.034119
30
0
210
0
220
0
230
1
1
\W0.7317;28,85
40
3.5
41
0
44
1.084337
50
0
71
7
72
5
7
iso_b_vert
0
LINE
5
F7
100
AcDbEntity
8
SK2
62
256
6
ByLayer
370
13
48
1
60
0
100
AcDbLine
10
20.15
20
6.1375
30
0
11
20.15
21
18.159119
31
0
39
0
210
0
220
0
230
1
0
LINE
5
F8
100
AcDbEntity
8
SK2
62
256
6
ByLayer
370
13
48
1
60
0
100
AcDbLine
10
49
20
1.5875
30
0
11
49
21
18.159119
31
0
39
0
210
0
220
0
230
1
0
LINE
5
F9
100
AcDbEntity
8
SK2
62
256
6
ByLayer
370
13
48
1
60
0
100
AcDbLine
10
20.15
20
16.159119
30
0
11
49
21
16.159119
31
0
39
0
210
0
220
0
230
1
0
SOLID
5
FA
100
AcDbEntity
8
SK2
62
256
6
ByLayer
370
13
48
1
60
0
100
AcDbTrace
10
20.15
20
16.159119
30
0
11
23.649998
21
16.619903
31
0
12
23.650002
22
15.698335
32
0
13
20.15
23
16.159119
33
0
39
0
210
0
220
0
230
1
0
SOLID
5
FB
100
AcDbEntity
8
SK2
62
256
6
ByLayer
370
13
48
1
60
0
100
AcDbTrace
10
49
20
16.159119
30
0
11
45.500002
21
15.698335
31
0
12
45.499998
22
16.619903
32
0
13
49
23
16.159119
33
0
39
0
210
0
220
0
230
1
0
ENDBLK
5
FD
100
AcDbEntity
8
0
100
AcDbBlockEnd
0
BLOCK
5
106
100
AcDbEntity
8
0
100
AcDbBlockBegin
2
DimnDraft3D4
70
0
10
0
20
0
30
0
3
DimnDraft3D4
0
MTEXT
5
100
100
AcDbEntity
8
SK2
62
256
6
ByLayer
370
13
48
1
60
0
100
AcDbMText
10
56.278136
20
-16.477503
30
0
210
0
220
0
230
1
1
\W0.6367;1,55
40
3.5
41
0
44
1.084337
50
0
71
7
72
5
7
iso_b_vert
0
LINE
5
101
100
AcDbEntity
8
SK2
62
256
6
ByLayer
370
13
48
1
60
0
100
AcDbLine
10
49
20
-1.5875
30
0
11
49
21
-19.352503
31
0
39
0
210
0
220
0
230
1
0
LINE
5
102
100
AcDbEntity
8
SK2
62
256
6
ByLayer
370
13
48
1
60
0
100
AcDbLine
10
47.45
20
-6.1375
30
0
11
47.45
21
-19.352503
31
0
39
0
210
0
220
0
230
1
0
LINE
5
103
100
AcDbEntity
8
SK2
62
256
6
ByLayer
370
13
48
1
60
0
100
AcDbLine
10
38.7
20
-17.352503
30
0
11
62.559715
21
-17.352503
31
0
39
0
210
0
220
0
230
1
0
SOLID
5
104
100
AcDbEntity
8
SK2
62
256
6
ByLayer
370
13
48
1
60
0
100
AcDbTrace
10
49
20
-17.352503
30
0
11
52.499998
21
-16.891719
31
0
12
52.500002
22
-17.813287
32
0
13
49
23
-17.352503
33
0
39
0
210
0
220
0
230
1
0
SOLID
5
105
100
AcDbEntity
8
SK2
62
256
6
ByLayer
370
13
48
1
60
0
100
AcDbTrace
10
47.45
20
-17.352503
30
0
11
43.950002
21
-17.813287
31
0
12
43.949998
22
-16.891719
32
0
13
47.45
23
-17.352503
33
0
39
0
210
0
220
0
230
1
0
ENDBLK
5
107
100
AcDbEntity
8
0
100
AcDbBlockEnd
0
BLOCK
5
110
100
AcDbEntity
8
0
100
AcDbBlockBegin
2
DimnDraft3D5
70
0
10
0
20
0
30
0
3
DimnDraft3D5
0
MTEXT
5
10A
100
AcDbEntity
8
SK2
62
256
6
ByLayer
370
13
48
1
60
0
100
AcDbMText
10
-3.422218
20
-22.468428
30
0
210
0
220
0
230
1
1
\W0.7581;87,45
40
3.5
41
0
44
1.084337
50
0
71
7
72
5
7
iso_b_vert
0
LINE
5
10B
100
AcDbEntity
8
SK2
62
256
6
ByLayer
370
13
48
1
60
0
100
AcDbLine
10
-40
20
-6.5875
30
0
11
-40
21
-25.343428
31
0
39
0
210
0
220
0
230
1
0
LINE
5
10C
100
AcDbEntity
8
SK2
62
256
6
ByLayer
370
13
48
1
60
0
100
AcDbLine
10
47.45
20
-6.1375
30
0
11
47.45
21
-25.343428
31
0
39
0
210
0
220
0
230
1
0
LINE
5
10D
100
AcDbEntity
8
SK2
62
256
6
ByLayer
370
13
48
1
60
0
100
AcDbLine
10
-40
20
-23.343428
30
0
11
47.45
21
-23.343428
31
0
39
0
210
0
220
0
230
1
0
SOLID
5
10E
100
AcDbEntity
8
SK2
62
256
6
ByLayer
370
13
48
1
60
0
100
AcDbTrace
10
-40
20
-23.343428
30
0
11
-36.500002
21
-22.882645
31
0
12
-36.499998
22
-23.804212
32
0
13
-40
23
-23.343428
33
0
39
0
210
0
220
0
230
1
0
SOLID
5
10F
100
AcDbEntity
8
SK2
62
256
6
ByLayer
370
13
48
1
60
0
100
AcDbTrace
10
47.45
20
-23.343428
30
0
11
43.950002
21
-23.804212
31
0
12
43.949998
22
-22.882645
32
0
13
47.45
23
-23.343428
33
0
39
0
210
0
220
0
230
1
0
ENDBLK
5
111
100
AcDbEntity
8
0
100
AcDbBlockEnd
0
BLOCK
5
11B
100
AcDbEntity
8
0
100
AcDbBlockBegin
2
DimnDraft3D6
70
0
10
0
20
0
30
0
3
DimnDraft3D6
0
MTEXT
5
114
100
AcDbEntity
8
SK2
62
256
6
ByLayer
370
13
48
1
60
0
100
AcDbMText
10
-50.375163
20
24.34918
30
0
210
0
220
0
230
1
1
\W0.6930;10,000
40
3.5
41
0
44
1.084337
50
90
71
7
72
5
7
iso_b_vert
0
MTEXT
5
115
100
AcDbEntity
8
SK2
62
256
6
ByLayer
370
13
48
1
60
0
100
AcDbMText
10
-50.375163
20
19.126524
30
0
210
0
220
0
230
1
1
%%c
40
3.5
41
0
44
1.084337
50
90
71
7
72
5
7
iso_b_vert
0
LINE
5
116
100
AcDbEntity
8
SK2
62
256
6
ByLayer
370
13
48
1
60
0
100
AcDbLine
10
-41.5875
20
-5
30
0
11
-50.625163
21
-5
31
0
39
0
210
0
220
0
230
1
0
LINE
5
117
100
AcDbEntity
8
SK2
62
256
6
ByLayer
370
13
48
1
60
0
100
AcDbLine
10
-41.5875
20
5
30
0
11
-50.625163
21
5
31
0
39
0
210
0
220
0
230
1
0
LINE
5
118
100
AcDbEntity
8
SK2
62
256
6
ByLayer
370
13
48
1
60
0
100
AcDbLine
10
-48.625163
20
-5
30
0
11
-48.625163
21
35.862338
31
0
39
0
210
0
220
0
230
1
0
SOLID
5
119
100
AcDbEntity
8
SK2
62
256
6
ByLayer
370
13
48
1
60
0
100
AcDbTrace
10
-48.625163
20
-5
30
0
11
-49.085946
21
-1.500002
31
0
12
-48.164379
22
-1.499998
32
0
13
-48.625163
23
-5
33
0
39
0
210
0
220
0
230
1
0
SOLID
5
11A
100
AcDbEntity
8
SK2
62
256
6
ByLayer
370
13
48
1
60
0
100
AcDbTrace
10
-48.625163
20
5
30
0
11
-48.164379
21
1.500002
31
0
12
-49.085946
22
1.499998
32
0
13
-48.625163
23
5
33
0
39
0
210
0
220
0
230
1
0
ENDBLK
5
11C
100
AcDbEntity
8
0
100
AcDbBlockEnd
0
BLOCK
5
126
100
AcDbEntity
8
0
100
AcDbBlockBegin
2
DimnDraft3D7
70
0
10
0
20
0
30
0
3
DimnDraft3D7
0
MTEXT
5
11F
100
AcDbEntity
8
2
62
256
6
ByLayer
370
13
48
1
60
0
100
AcDbMText
10
59.333343
20
22.492266
30
0
210
0
220
0
230
1
1
\W0.6713;9,100
40
3.5
41
0
44
1.084337
50
90
71
7
72
5
7
iso_b_vert
0
MTEXT
5
120
100
AcDbEntity
8
2
62
256
6
ByLayer
370
13
48
1
60
0
100
AcDbMText
10
59.333343
20
17.26961
30
0
210
0
220
0
230
1
1
%%c
40
3.5
41
0
44
1.084337
50
90
71
7
72
5
7
iso_b_vert
0
LINE
5
121
100
AcDbEntity
8
2
62
256
6
ByLayer
370
13
48
1
60
0
100
AcDbLine
10
49.0375
20
-4.55
30
0
11
63.083343
21
-4.55
31
0
39
0
210
0
220
0
230
1
0
LINE
5
122
100
AcDbEntity
8
2
62
256
6
ByLayer
370
13
48
1
60
0
100
AcDbLine
10
49.0375
20
4.55
30
0
11
63.083343
21
4.55
31
0
39
0
210
0
220
0
230
1
0
LINE
5
123
100
AcDbEntity
8
2
62
256
6
ByLayer
370
13
48
1
60
0
100
AcDbLine
10
61.083343
20
-4.55
30
0
11
61.083343
21
31.389635
31
0
39
0
210
0
220
0
230
1
0
SOLID
5
124
100
AcDbEntity
8
2
62
256
6
ByLayer
370
13
48
1
60
0
100
AcDbTrace
10
61.083343
20
-4.55
30
0
11
60.622559
21
-1.050002
31
0
12
61.544126
22
-1.049998
32
0
13
61.083343
23
-4.55
33
0
39
0
210
0
220
0
230
1
0
SOLID
5
125
100
AcDbEntity
8
2
62
256
6
ByLayer
370
13
48
1
60
0
100
AcDbTrace
10
61.083343
20
4.55
30
0
11
61.544126
21
1.050002
31
0
12
60.622559
22
1.049998
32
0
13
61.083343
23
4.55
33
0
39
0
210
0
220
0
230
1
0
ENDBLK
5
127
100
AcDbEntity
8
0
100
AcDbBlockEnd
0
ENDSEC
0
SECTION
2
ENTITIES
0
ARC
5
9B
100
AcDbEntity
8
1
62
256
6
ByLayer
370
18
48
1
60
0
100
AcDbCircle
39
0
10
0
20
4.2
30
0
40
0.800000000000003
210
0
220
0
230
1
100
AcDbArc
50
44.536597
51
90
0
ARC
5
9C
100
AcDbEntity
8
1
62
256
6
ByLayer
370
18
48
1
60
0
100
AcDbCircle
39
0
10
0
20
-4.2
30
0
40
0.800000000000003
210
0
220
0
230
1
100
AcDbArc
50
270
51
315.463403
0
ARC
5
9D
100
AcDbEntity
8
1
62
256
6
ByLayer
370
18
48
1
60
0
100
AcDbCircle
39
0
10
-1.140484
20
5.322184
30
0
40
0.799999999999997
210
0
220
0
230
-1
100
AcDbArc
50
269.965623
51
315.463403
0
ARC
5
9E
100
AcDbEntity
8
1
62
256
6
ByLayer
370
18
48
1
60
0
100
AcDbCircle
39
0
10
-1.140484
20
-5.322184
30
0
40
0.799999999999997
210
0
220
0
230
-1
100
AcDbArc
50
44.536597
51
90.034377
0
ELLIPSE
5
9F
100
AcDbEntity
8
1
62
256
6
ByLayer
370
18
48
1
60
0
100
AcDbEllipse
10
4.25
20
-4.567375
30
0
11
-0.25
21
3.06151588455594E-17
31
0
210
0
220
0
230
1
40
0.999995
41
-1.56314628444572
42
-0.206385038678363
0
ELLIPSE
5
A0
100
AcDbEntity
8
1
62
256
6
ByLayer
370
18
48
1
60
0
100
AcDbEllipse
10
4.25
20
4.567375
30
0
11
-0.25
21
3.06151588455594E-17
31
0
210
0
220
0
230
1
40
0.999995
41
0.205985389750436
42
1.58171454883024
0
ELLIPSE
5
A1
100
AcDbEntity
8
1
62
256
6
ByLayer
370
18
48
1
60
0
100
AcDbEllipse
10
49.000396
20
0.000994
30
0
11
1.67376743809735
21
4.54790373302031
31
0
210
0
220
0
230
-1
40
0.098637
41
2.87775416937535
42
2.97753263568844
0
ELLIPSE
5
A2
100
AcDbEntity
8
1
62
256
6
ByLayer
370
13
48
1
60
0
100
AcDbEllipse
10
48.41058
20
2.081139
30
0
11
2.53790645520054
21
-1.74742076325373
31
0
210
0
220
0
230
-1
40
0.533762
41
1.44484622743349
42
1.74545682446455
0
ELLIPSE
5
A3
100
AcDbEntity
8
1
62
256
6
ByLayer
370
18
48
1
60
0
100
AcDbEllipse
10
48.860091
20
0.127028
30
0
11
0.0727819104890565
21
0.301917195734411
31
0
210
0
220
0
230
-1
40
0.478434
41
1.73110082710896
42
2.45976119974545
0
ELLIPSE
5
A4
100
AcDbEntity
8
1
62
256
6
ByLayer
370
13
48
1
60
0
100
AcDbEllipse
10
47.993974
20
0.640924
30
0
11
0.153082081612423
21
0.258003636193771
31
0
210
0
220
0
230
1
40
0.454519
41
0.917105603404823
42
2.31336900500027
0
ELLIPSE
5
A5
100
AcDbEntity
8
1
62
256
6
ByLayer
370
13
48
1
60
0
100
AcDbEllipse
10
48.600487
20
2.204337
30
0
11
2.61241386765952
21
-1.397208098497
31
0
210
0
220
0
230
-1
40
0.499055
41
1.53620337401374
42
1.86246597716137
0
ELLIPSE
5
A6
100
AcDbEntity
8
1
62
256
6
ByLayer
370
18
48
1
60
0
100
AcDbEllipse
10
48.134052
20
2.204337
30
0
11
0.702843398880774
21
-1.90974209231711
31
0
210
0
220
0
230
-1
40
0.098637
41
-1.54281698762427
42
-0.749112684718365
0
ELLIPSE
5
A7
100
AcDbEntity
8
1
62
256
6
ByLayer
370
18
48
1
60
0
100
AcDbEllipse
10
48.134052
20
-2.204337
30
0
11
0.702843398896113
21
1.90974209235149
31
0
210
0
220
0
230
-1
40
0.098637
41
0.74911268471929
42
1.54281698761184
0
ELLIPSE
5
A8
100
AcDbEntity
8
1
62
256
6
ByLayer
370
18
48
1
60
0
100
AcDbEllipse
10
49.000396
20
-0.000994
30
0
11
1.67376744650586
21
-4.54790375747091
31
0
210
0
220
0
230
-1
40
0.098637
41
-2.97753263613006
42
-2.87775417008929
0
ELLIPSE
5
A9
100
AcDbEntity
8
1
62
256
6
ByLayer
370
18
48
1
60
0
100
AcDbEllipse
10
49.033452
20
0.024167
30
0
11
0.140634104967756
21
-0.431000092680429
31
0
210
0
220
0
230
-1
40
0.07518
41
1.64241128021962
42
2.31001430906806
0
ELLIPSE
5
AA
100
AcDbEntity
8
1
62
256
6
ByLayer
370
18
48
1
60
0
100
AcDbEllipse
10
49.033452
20
-0.024167
30
0
11
0.1406341049717
21
0.431000092690633
31
0
210
0
220
0
230
-1
40
0.07518
41
-2.31001430906919
42
-1.64241128023546
0
POINT
5
6C
100
AcDbEntity
8
81
62
256
6
ByLayer
370
18
48
1
60
0
100
AcDbPoint
10
49
20
0
30
0
39
0
210
0
220
0
230
1
50
360
0
POINT
5
6E
100
AcDbEntity
8
80
62
256
6
ByLayer
370
18
48
1
60
0
100
AcDbPoint
10
0
20
0
30
0
39
0
210
0
220
0
230
1
50
360
0
POINT
5
70
100
AcDbEntity
8
SK2
62
256
6
ByLayer
370
18
48
1
60
1
100
AcDbPoint
10
-40
20
-5
30
0
39
0
210
0
220
0
230
1
50
360
0
POINT
5
72
100
AcDbEntity
8
SK2
62
256
6
ByLayer
370
18
48
1
60
1
100
AcDbPoint
10
-40
20
5
30
0
39
0
210
0
220
0
230
1
50
360
0
POINT
5
73
100
AcDbEntity
8
2
62
256
6
ByLayer
370
18
48
1
60
1
100
AcDbPoint
10
47.45
20
-4.55
30
0
39
0
210
0
220
0
230
1
50
360
0
POINT
5
75
100
AcDbEntity
8
2
62
256
6
ByLayer
370
18
48
1
60
1
100
AcDbPoint
10
47.45
20
4.55
30
0
39
0
210
0
220
0
230
1
50
360
0
SPLINE
5
AB
100
AcDbEntity
8
1
62
256
6
ByLayer
370
18
48
1
60
0
100
AcDbSpline
70
4
71
3
72
18
73
14
40
0
40
0
40
0
40
0
40
0.156270875214915
40
0.308678046771428
40
0.379298104942969
40
0.4357532982646
40
0.484979949151597
40
0.527039141171186
40
0.57807330799101
40
0.66644293719222
40
0.792319748004925
40
0.955202076788352
40
1
40
1
40
1
40
1
41
1
10
4.25039261482112
20
-4.31719656734523
30
0
41
1
10
4.49620600282501
20
-4.31756009168626
30
0
41
1
10
4.98175437438587
20
-4.31818710375737
30
0
41
1
10
5.57837946123948
20
-4.31837556960841
30
0
41
1
10
6.01800291197208
20
-4.31878604441175
30
0
41
1
10
6.29532432751091
20
-4.31886004560954
30
0
41
1
10
6.52771926201245
20
-4.31917248461406
30
0
41
1
10
6.75158685639911
20
-4.31980595785564
30
0
41
1
10
7.03701747145982
20
-4.32022985071521
30
0
41
1
10
7.45427855552407
20
-4.3199259427295
30
0
41
1
10
8.04747682133208
20
-4.32007764320386
30
0
41
1
10
8.57218708673526
20
-4.31941465246581
30
0
41
1
10
8.89883784290282
20
-4.3201035614897
30
0
41
1
10
8.9692976827171
20
-4.32027359183809
30
0
0
SPLINE
5
AC
100
AcDbEntity
8
1
62
256
6
ByLayer
370
18
48
1
60
0
100
AcDbSpline
70
4
71
2
72
6
73
3
40
0
40
0
40
0
40
1
40
1
40
1
41
1
10
46.6120273637545
20
-4.34260481152995
30
0
41
1
10
47.0143859682373
20
-4.34162360760112
30
0
41
1
10
47.4161973124637
20
-4.343879637615
30
0
0
SPLINE
5
AD
100
AcDbEntity
8
1
62
256
6
ByLayer
370
18
48
1
60
0
100
AcDbSpline
70
4
71
3
72
32
73
28
40
0
40
0
40
0
40
0
40
0.0620785970305258
40
0.107618270664426
40
0.136722277286699
40
0.161046923888961
40
0.189023757593311
40
0.23117989142278
40
0.274309046802007
40
0.312804730793902
40
0.345928539808308
40
0.37583556256068
40
0.402888445149118
40
0.43345828122335
40
0.473682157214306
40
0.517808873490712
40
0.552180211613515
40
0.600297119487764
40
0.668672272181583
40
0.730924606969605
40
0.781133227860679
40
0.820643943170158
40
0.846739857826777
40
0.881888978797466
40
0.928256191885782
40
0.984166993349046
40
1
40
1
40
1
40
1
41
1
10
21.5440723535796
20
-4.3274184547281
30
0
41
1
10
21.803670974515
20
-4.32768576468044
30
0
41
1
10
22.2537061532656
20
-4.32801324892907
30
0
41
1
10
22.8253646305365
20
-4.32802669172889
30
0
41
1
10
23.2392660000402
20
-4.32800863965741
30
0
41
1
10
23.5794710677595
20
-4.32824224624579
30
0
41
1
10
23.9744257039704
20
-4.3290874485354
30
0
41
1
10
24.4480467594608
20
-4.32955682115079
30
0
41
1
10
24.9656567228649
20
-4.32931080875136
30
0
41
1
10
25.4454749359116
20
-4.32906063696652
30
0
41
1
10
25.8700117815246
20
-4.32902036754825
30
0
41
1
10
26.2467068212862
20
-4.32962704967017
30
0
41
1
10
26.6127262327497
20
-4.33106212439154
30
0
41
1
10
27.0218803914109
20
-4.33137997648356
30
0
41
1
10
27.5024418084774
20
-4.33046760534776
30
0
41
1
10
27.9988900045521
20
-4.33004339562677
30
0
41
1
10
28.5283481314898
20
-4.32952354705827
30
0
41
1
10
29.1592050333736
20
-4.33198428463709
30
0
41
1
10
29.9066570506295
20
-4.33219193999673
30
0
41
1
10
30.6628318994869
20
-4.33264293348728
30
0
41
1
10
31.2983693322325
20
-4.33167055710422
30
0
41
1
10
31.7825384646866
20
-4.33316793554039
30
0
41
1
10
32.2029790722074
20
-4.33335424336809
30
0
41
1
10
32.6532684678644
20
-4.33339991993728
30
0
41
1
10
33.2206907406678
20
-4.33404997918052
30
0
41
1
10
33.7174807190405
20
-4.33317023339336
30
0
41
1
10
34.0162404272918
20
-4.33373010841947
30
0
41
1
10
34.0821738344824
20
-4.33387054426868
30
0
0
SPLINE
5
AE
100
AcDbEntity
8
1
62
256
6
ByLayer
370
18
48
1
60
0
100
AcDbSpline
70
4
71
3
72
17
73
13
40
0
40
0
40
0
40
0
40
0.021797622130858
40
0.164590888661068
40
0.261468290655618
40
0.314436515660779
40
0.362498101524784
40
0.419305153373002
40
0.521387458731652
40
0.65727058711578
40
0.834393954738687
40
1
40
1
40
1
40
1
41
1
10
8.92164516613792
20
4.32009220796334
30
0
41
1
10
8.88771111738436
20
4.32001229225509
30
0
41
1
10
8.63147361521311
20
4.31945496311761
30
0
41
1
10
8.22429326911839
20
4.31999306043534
30
0
41
1
10
7.76854513306279
20
4.3198614380633
30
0
41
1
10
7.46054820582228
20
4.3199800912021
30
0
41
1
10
7.21488143881652
20
4.32012089844076
30
0
41
1
10
6.89263406258232
20
4.32018505234041
30
0
41
1
10
6.43361539762037
20
4.31878493260211
30
0
41
1
10
5.78724790603161
20
4.31866439190168
30
0
41
1
10
5.04196422910638
20
4.31817264508553
30
0
41
1
10
4.50827212592156
20
4.31755268053846
30
0
41
1
10
4.25039310777524
20
4.31718988500072
30
0
0
SPLINE
5
AF
100
AcDbEntity
8
1
62
256
6
ByLayer
370
18
48
1
60
0
100
AcDbSpline
70
4
71
3
72
26
73
22
40
0
40
0
40
0
40
0
40
0.037825704591739
40
0.11827476899529
40
0.178117371642999
40
0.219522183559658
40
0.268370551753608
40
0.315808190277118
40
0.372242211364784
40
0.437854601135613
40
0.498614087570679
40
0.542284369071162
40
0.592163188873243
40
0.655109012420776
40
0.706360117496681
40
0.744944092833331
40
0.786271011944815
40
0.832754809618585
40
0.893182845373576
40
0.960645910105225
40
1
40
1
40
1
40
1
41
1
10
34.0710908292413
20
4.3340619112154
30
0
41
1
10
33.9410850547817
20
4.33382648482555
30
0
41
1
10
33.5346480701821
20
4.33320803762359
30
0
41
1
10
32.921527198983
20
4.33377133132157
30
0
41
1
10
32.2989212453484
20
4.33334355455005
30
0
41
1
10
31.7817180638748
20
4.33317940385362
30
0
41
1
10
31.3075913863188
20
4.3317851110059
30
0
41
1
10
30.7812053460217
20
4.33251813933882
30
0
41
1
10
30.1971832867813
20
4.3322267095738
30
0
41
1
10
29.567209993666
20
4.33261940710247
30
0
41
1
10
28.9812347434471
20
4.33083693722142
30
0
41
1
10
28.4494732690164
20
4.32959103963412
30
0
41
1
10
27.9101829149108
20
4.3301024855117
30
0
41
1
10
27.344766297542
20
4.33066423452684
30
0
41
1
10
26.818270674036
20
4.33167178167352
30
0
41
1
10
26.3662802641134
20
4.3300398182088
30
0
41
1
10
25.9307144194902
20
4.32898147063847
30
0
41
1
10
25.419886347416
20
4.32906843026345
30
0
41
1
10
24.8189994876984
20
4.32939141631141
30
0
41
1
10
24.2426556837793
20
4.32958961481734
30
0
41
1
10
23.8745459116072
20
4.32882601438305
30
0
41
1
10
23.7389512814839
20
4.32858208689089
30
0
0
SPLINE
5
B0
100
AcDbEntity
8
1
62
256
6
ByLayer
370
18
48
1
60
0
100
AcDbSpline
70
4
71
3
72
10
73
6
40
0
40
0
40
0
40
0
40
0.186174799005523
40
0.45690203931577
40
1
40
1
40
1
40
1
41
1
10
35.1381234187107
20
-1.108464212222
30
0
41
1
10
35.1380196476633
20
-1.10854521413819
30
0
41
1
10
35.1460388042624
20
-1.11266653179956
30
0
41
1
10
35.2434212171781
20
-1.16192494646606
30
0
41
1
10
35.3368634891577
20
-1.21226814174312
30
0
41
1
10
35.4168275360557
20
-1.25577544806148
30
0
0
SPLINE
5
B1
100
AcDbEntity
8
1
62
256
6
ByLayer
370
18
48
1
60
0
100
AcDbSpline
70
4
71
3
72
34
73
30
40
0
40
0
40
0
40
0
40
0.250000000000012
40
0.250000000000012
40
0.500000000000024
40
0.500000000000024
40
0.62500000000003
40
0.62500000000003
40
0.68750000000003
40
0.68750000000003
40
0.718750000000027
40
0.718750000000027
40
0.734375000000025
40
0.734375000000025
40
0.750000000000024
40
0.750000000000024
40
0.781250000000021
40
0.781250000000021
40
0.812500000000018
40
0.812500000000018
40
0.843750000000015
40
0.843750000000015
40
0.875000000000012
40
0.875000000000012
40
0.937500000000006
40
0.937500000000006
40
0.968750000000003
40
0.968750000000003
40
1
40
1
40
1
40
1
41
1
10
43.7881580778084
20
1.44418017504233
30
0
41
1
10
44.1096177651813
20
1.21000926516382
30
0
41
1
10
44.4375320348023
20
0.99839418920061
30
0
41
1
10
45.1007041236509
20
0.643849233187183
30
0
41
1
10
45.4303415021573
20
0.503341953967038
30
0
41
1
10
45.9189474378691
20
0.361609580898687
30
0
41
1
10
46.0809401845975
20
0.325913901330296
30
0
41
1
10
46.3223736705418
20
0.292880926168323
30
0
41
1
10
46.402366050782
20
0.285353748354652
30
0
41
1
10
46.5203406204131
20
0.279737112035548
30
0
41
1
10
46.5593882889453
20
0.278800054654994
30
0
41
1
10
46.6175331233575
20
0.278833928232388
30
0
41
1
10
46.6369176350083
20
0.278835435028952
30
0
41
1
10
46.675037070242
20
0.281029976850164
30
0
41
1
10
46.6939133643177
20
0.282746067421584
30
0
41
1
10
46.7499593133445
20
0.28986099250605
30
0
41
1
10
46.7862057889845
20
0.29718489180226
30
0
41
1
10
46.8555591680483
20
0.317940434266291
30
0
41
1
10
46.8887984094188
20
0.331352095931123
30
0
41
1
10
46.9506550173226
20
0.367154906021654
30
0
41
1
10
46.9783363362183
20
0.389272127170955
30
0
41
1
10
47.0264510883578
20
0.442917069524299
30
0
41
1
10
47.0471276477736
20
0.47477232070932
30
0
41
1
10
47.0940610630883
20
0.581125306284889
30
0
41
1
10
47.1065724916074
20
0.668540137484428
30
0
41
1
10
47.1015733266785
20
0.807775000073718
30
0
41
1
10
47.0959077045037
20
0.85623409477077
30
0
41
1
10
47.0782259258111
20
0.95310593524988
30
0
41
1
10
47.0660482638853
20
1.00181945152173
30
0
41
1
10
47.0510428191474
20
1.05076821945369
30
0
0
SPLINE
5
B2
100
AcDbEntity
8
1
62
256
6
ByLayer
370
18
48
1
60
0
100
AcDbSpline
70
4
71
3
72
62
73
58
40
0
40
0
40
0
40
0
40
0.0624999999999927
40
0.0624999999999927
40
0.124999999999985
40
0.124999999999985
40
0.249999999999972
40
0.249999999999972
40
0.374999999999958
40
0.374999999999958
40
0.499999999999945
40
0.499999999999945
40
0.562499999999938
40
0.562499999999938
40
0.624999999999932
40
0.624999999999932
40
0.656249999999928
40
0.656249999999928
40
0.671874999999927
40
0.671874999999927
40
0.675781249999926
40
0.675781249999926
40
0.677734374999926
40
0.677734374999926
40
0.679687499999926
40
0.679687499999926
40
0.687499999999927
40
0.687499999999927
40
0.718749999999934
40
0.718749999999934
40
0.734374999999937
40
0.734374999999937
40
0.749999999999941
40
0.749999999999941
40
0.765624999999944
40
0.765624999999944
40
0.781249999999948
40
0.781249999999948
40
0.796874999999951
40
0.796874999999951
40
0.804687499999953
40
0.804687499999953
40
0.812499999999955
40
0.812499999999955
40
0.828124999999959
40
0.828124999999959
40
0.843749999999962
40
0.843749999999962
40
0.859374999999966
40
0.859374999999966
40
0.87499999999997
40
0.87499999999997
40
0.906249999999977
40
0.906249999999977
40
0.937499999999985
40
0.937499999999985
40
1
40
1
40
1
40
1
41
1
10
14.5120966142011
20
-3.23583939697099
30
0
41
1
10
14.1919172170805
20
-3.10764418688132
30
0
41
1
10
13.8699332914353
20
-2.97448759385551
30
0
41
1
10
13.2214703316952
20
-2.70128092581186
30
0
41
1
10
12.894417444972
20
-2.5609816670912
30
0
41
1
10
11.9087934736688
20
-2.13686414613738
30
0
41
1
10
11.2481279058097
20
-1.85086950720216
30
0
41
1
10
9.90959668978445
20
-1.3051456349755
30
0
41
1
10
9.23163757835232
20
-1.04567633401984
30
0
41
1
10
7.85008842190487
20
-0.583922277428712
30
0
41
1
10
7.1465009188758
20
-0.381719576479526
30
0
41
1
10
6.06816738532723
20
-0.138251361071354
30
0
41
1
10
5.70503006513087
20
-0.0670747196590469
30
0
41
1
10
4.97633077417404
20
0.0526530977349466
30
0
41
1
10
4.60984263799747
20
0.101395303839723
30
0
41
1
10
4.05877768375785
20
0.156728852159347
30
0
41
1
10
3.87482068503886
20
0.172221886136072
30
0
41
1
10
3.59847230153443
20
0.190931194592878
30
0
41
1
10
3.50628734354672
20
0.196412396890935
30
0
41
1
10
3.39096891368817
20
0.202307147019837
30
0
41
1
10
3.36807622956718
20
0.201438299841868
30
0
41
1
10
3.334274458425
20
0.194931437141633
30
0
41
1
10
3.32297570936461
20
0.191854120181517
30
0
41
1
10
3.30178942675155
20
0.18350557398378
30
0
41
1
10
3.29199654195276
20
0.17787446558836
30
0
41
1
10
3.24222969435735
20
0.151178188290146
30
0
41
1
10
3.20271438970531
20
0.129274533514575
30
0
41
1
10
3.00675982603784
20
0.0167812697025909
30
0
41
1
10
2.85551420238912
20
-0.082373460725222
30
0
41
1
10
2.64410232030599
20
-0.248582864102275
30
0
41
1
10
2.57609857287514
20
-0.307003103174139
30
0
41
1
10
2.44633559717357
20
-0.431465262529912
30
0
41
1
10
2.38417235368698
20
-0.498024615086706
30
0
41
1
10
2.27085661904354
20
-0.637790445252648
30
0
41
1
10
2.21953768637496
20
-0.711027500719695
30
0
41
1
10
2.13017329633135
20
-0.865771211163576
30
0
41
1
10
2.09220312044863
20
-0.947750158011445
30
0
41
1
10
2.03556609559672
20
-1.11351829659401
30
0
41
1
10
2.01631738113193
20
-1.19813657580516
30
0
41
1
10
2.00207181580879
20
-1.32776470432683
30
0
41
1
10
1.99980379866758
20
-1.37152513100398
30
0
41
1
10
2.00020080590784
20
-1.45753474208169
30
0
41
1
10
2.0028164721073
20
-1.50008437262622
30
0
41
1
10
2.01738193854254
20
-1.62643866200955
30
0
41
1
10
2.03630929268218
20
-1.70969812210745
30
0
41
1
10
2.08834425088122
20
-1.86903734261171
30
0
41
1
10
2.12115551899771
20
-1.94493140121372
30
0
41
1
10
2.19720333917073
20
-2.09078933773068
30
0
41
1
10
2.2405708324066
20
-2.16089484426439
30
0
41
1
10
2.33526092106007
20
-2.29555490642412
30
0
41
1
10
2.38599432227065
20
-2.35933112820749
30
0
41
1
10
2.54591981363888
20
-2.54237394018259
30
0
41
1
10
2.66271421146843
20
-2.6534751100605
30
0
41
1
10
2.90959419308587
20
-2.86070774189426
30
0
41
1
10
3.04008409784626
20
-2.95686639336253
30
0
41
1
10
3.43940395939256
20
-3.22375743502198
30
0
41
1
10
3.71814468049757
20
-3.37546652972557
30
0
41
1
10
4.00388106261099
20
-3.51040559563802
30
0
0
SPLINE
5
B3
100
AcDbEntity
8
1
62
256
6
ByLayer
370
18
48
1
60
0
100
AcDbSpline
70
4
71
3
72
10
73
6
40
0
40
0
40
0
40
0
40
0.5
40
0.5
40
1
40
1
40
1
40
1
41
1
10
4.01014103628825
20
2.67590338847859
30
0
41
1
10
4.01896157531306
20
2.64134692123889
30
0
41
1
10
4.0331807044135
20
2.60895453282131
30
0
41
1
10
4.07302464639369
20
2.55014725261242
30
0
41
1
10
4.09816253279456
20
2.52461097443657
30
0
41
1
10
4.12833927042055
20
2.50515233647661
30
0
0
SPLINE
5
B4
100
AcDbEntity
8
1
62
256
6
ByLayer
370
13
48
1
60
0
100
AcDbSpline
70
4
71
3
72
8
73
4
40
0
40
0
40
0
40
0
40
1
40
1
40
1
40
1
41
1
10
4.00377881218486
20
2.7110911391201
30
0
41
1
10
4.0079597190271
20
2.68594207517117
30
0
41
1
10
4.01557028804342
20
2.66147480807191
30
0
41
1
10
4.02651518040653
20
2.63845281522722
30
0
0
SPLINE
5
B5
100
AcDbEntity
8
1
62
256
6
ByLayer
370
18
48
1
60
0
100
AcDbSpline
70
4
71
3
72
20
73
16
40
0
40
0
40
0
40
0
40
0.107935262706137
40
0.107935262706137
40
0.215870525412275
40
0.215870525412275
40
0.43174105082455
40
0.43174105082455
40
0.647611576236824
40
0.647611576236824
40
0.755546838942961
40
0.755546838942961
40
0.863482101649099
40
0.863482101649099
40
1
40
1
40
1
40
1
41
1
10
4.00377881218753
20
2.71109113911425
30
0
41
1
10
4.00378194984046
20
2.83357212240878
30
0
41
1
10
4.00378456984836
20
2.95175888401249
30
0
41
1
10
4.00378891909483
20
3.17602492377753
30
0
41
1
10
4.00379065424414
20
3.28219512125642
30
0
41
1
10
4.00379490911985
20
3.58326322718554
30
0
41
1
10
4.00379648062491
20
3.7608981190792
30
0
41
1
10
4.00379887725751
20
4.06808726121045
30
0
41
1
10
4.00379968000061
20
4.19244030121914
30
0
41
1
10
4.00380151583698
20
4.33674152073601
30
0
41
1
10
4.00380222915942
20
4.37775815678478
30
0
41
1
10
4.00380402772677
20
4.44526777195054
30
0
41
1
10
4.00380511744541
20
4.47167073265769
30
0
41
1
10
4.00380809725928
20
4.51358889416508
30
0
41
1
10
4.00381013524651
20
4.52482405159083
30
0
41
1
10
4.00381260866013
20
4.52390102211354
30
0
0
SPLINE
5
B6
100
AcDbEntity
8
1
62
256
6
ByLayer
370
18
48
1
60
0
100
AcDbSpline
70
4
71
3
72
12
73
8
40
0
40
0
40
0
40
0
40
0.249999999999993
40
0.249999999999993
40
0.499999999999986
40
0.499999999999986
40
1
40
1
40
1
40
1
41
1
10
47.4633770322711
20
-4.40290115207074
30
0
41
1
10
47.4682902338967
20
-4.38971168220746
30
0
41
1
10
47.472940848644
20
-4.37625265240797
30
0
41
1
10
47.4804206033793
20
-4.35212468589242
30
0
41
1
10
47.4832296093287
20
-4.3414749925638
30
0
41
1
10
47.4878304325111
20
-4.31813667263648
30
0
41
1
10
47.4860751439984
20
-4.31391076645886
30
0
41
1
10
47.4818749684857
20
-4.31695135207201
30
0
0
SPLINE
5
B7
100
AcDbEntity
8
1
62
256
6
ByLayer
370
18
48
1
60
0
100
AcDbSpline
70
4
71
3
72
10
73
6
40
0
40
0
40
0
40
0
40
0.5
40
0.5
40
1
40
1
40
1
40
1
41
1
10
4.12647245545301
20
2.5561124331654
30
0
41
1
10
4.0983851409645
20
2.56927364350113
30
0
41
1
10
4.07391666873289
20
2.58658129260792
30
0
41
1
10
4.03408470661415
20
2.62768366020856
30
0
41
1
10
4.01914077290269
20
2.6511987383561
30
0
41
1
10
4.01014103628822
20
2.67590338847873
30
0
0
SPLINE
5
B8
100
AcDbEntity
8
1
62
256
6
ByLayer
370
18
48
1
60
0
100
AcDbSpline
70
4
71
3
72
92
73
88
40
0
40
0
40
0
40
0
40
0.0063526061023801
40
0.0063526061023801
40
0.0240963095648381
40
0.0240963095648381
40
0.041840013027296
40
0.041840013027296
40
0.077327419952212
40
0.077327419952212
40
0.0950711234146699
40
0.0950711234146699
40
0.112814826877128
40
0.112814826877128
40
0.148302233802044
40
0.148302233802044
40
0.166045937264502
40
0.166045937264502
40
0.18378964072696
40
0.18378964072696
40
0.201533344189418
40
0.201533344189418
40
0.219277047651876
40
0.219277047651876
40
0.254764454576792
40
0.254764454576792
40
0.272508158039251
40
0.272508158039251
40
0.290251861501709
40
0.290251861501709
40
0.325739268426626
40
0.325739268426626
40
0.343482971889084
40
0.343482971889084
40
0.361226675351542
40
0.361226675351542
40
0.396714082276458
40
0.396714082276458
40
0.414457785738916
40
0.414457785738916
40
0.432201489201373
40
0.432201489201373
40
0.467688896126288
40
0.467688896126288
40
0.503176303051203
40
0.503176303051203
40
0.52092000651366
40
0.52092000651366
40
0.538663709976117
40
0.538663709976117
40
0.574151116901032
40
0.574151116901032
40
0.591894820363489
40
0.591894820363489
40
0.609638523825947
40
0.609638523825947
40
0.627382227288404
40
0.627382227288404
40
0.645125930750861
40
0.645125930750861
40
0.680613337675775
40
0.680613337675775
40
0.698357041138231
40
0.698357041138231
40
0.716100744600688
40
0.716100744600688
40
0.733844448063145
40
0.733844448063145
40
0.751588151525602
40
0.751588151525602
40
0.787075558450516
40
0.787075558450516
40
0.82256296537543
40
0.82256296537543
40
0.840306668837886
40
0.840306668837886
40
0.858050372300343
40
0.858050372300343
40
0.893537779225257
40
0.893537779225257
40
0.929025186150172
40
0.929025186150172
40
0.946768889612629
40
0.946768889612629
40
0.964512593075086
40
0.964512593075086
40
1
40
1
40
1
40
1
41
1
10
39.6254712681459
20
-3.29333254973616
30
0
41
1
10
39.5604459886263
20
-3.31649878294647
30
0
41
1
10
39.4953888376359
20
-3.33933469292242
30
0
41
1
10
39.2484300106114
20
-3.42460457854764
30
0
41
1
10
39.0661916252937
20
-3.48477412565788
30
0
41
1
10
38.7025047780273
20
-3.59908878289681
30
0
41
1
10
38.5209962135097
20
-3.6532728427488
30
0
41
1
10
37.9768255807063
20
-3.80647529902689
30
0
41
1
10
37.6143420698061
20
-3.89757243140178
30
0
41
1
10
37.0696817106719
20
-4.01565743286517
30
0
41
1
10
36.8879994592694
20
-4.05176055538118
30
0
41
1
10
36.524595393284
20
-4.11816338691506
30
0
41
1
10
36.3426785938667
20
-4.1485368068721
30
0
41
1
10
35.7973624066869
20
-4.2289785033397
30
0
41
1
10
35.4343930223669
20
-4.26781819714816
30
0
41
1
10
34.8904919467194
20
-4.30819434826986
30
0
41
1
10
34.7092419427489
20
-4.31836199928634
30
0
41
1
10
34.346403301376
20
-4.33126395445058
30
0
41
1
10
34.1647964214998
20
-4.33413669665663
30
0
41
1
10
33.8012026766613
20
-4.3339879003525
30
0
41
1
10
33.6190451917752
20
-4.33072617809529
30
0
41
1
10
33.2556738090478
20
-4.31705504424164
30
0
41
1
10
33.0743088233396
20
-4.30647472849296
30
0
41
1
10
32.5299338544347
20
-4.26501770282246
30
0
41
1
10
32.1671284946879
20
-4.22538948366278
30
0
41
1
10
31.6230423776063
20
-4.14378486537791
30
0
41
1
10
31.4416200882299
20
-4.11322199591291
30
0
41
1
10
31.0782969700839
20
-4.04671211002773
30
0
41
1
10
30.8962159924333
20
-4.01035714650428
30
0
41
1
10
30.350629036149
20
-3.89198365789866
30
0
41
1
10
29.9882581149554
20
-3.80023385667462
30
0
41
1
10
29.4442707562127
20
-3.64577142029753
30
0
41
1
10
29.2628563364557
20
-3.59138694637068
30
0
41
1
10
28.8999045580261
20
-3.47609809152033
30
0
41
1
10
28.7184486206136
20
-3.41554994413025
30
0
41
1
10
28.1736622520603
20
-3.22745925289624
30
0
41
1
10
27.8096752908134
20
-3.09204739469425
30
0
41
1
10
27.2650896573575
20
-2.87599793680241
30
0
41
1
10
27.0836675315115
20
-2.80182798504859
30
0
41
1
10
26.7212759797868
20
-2.64822512765409
30
0
41
1
10
26.5402066900746
20
-2.56861705771234
30
0
41
1
10
25.9961309775461
20
-2.32480563167388
30
0
41
1
10
25.6324786189733
20
-2.15574082510653
30
0
41
1
10
24.905393112693
20
-1.80404563341241
30
0
41
1
10
24.5427699567525
20
-1.62262401289411
30
0
41
1
10
23.9987814157966
20
-1.34368433701084
30
0
41
1
10
23.8174642409969
20
-1.24936252849315
30
0
41
1
10
23.4550356581776
20
-1.05842853112105
30
0
41
1
10
23.2738017882892
20
-0.962106520888483
30
0
41
1
10
22.7291400444054
20
-0.672116329908903
30
0
41
1
10
22.364799202936
20
-0.476179656656399
30
0
41
1
10
21.8206786142541
20
-0.180520127027307
30
0
41
1
10
21.6394982086472
20
-0.0817234340532025
30
0
41
1
10
21.2771133892257
20
0.115548402279387
30
0
41
1
10
21.0958875630783
20
0.213966705392636
30
0
41
1
10
20.7332322665076
20
0.410260567337247
30
0
41
1
10
20.5518086136758
20
0.508134185976218
30
0
41
1
10
20.1890666677427
20
0.703843115782547
30
0
41
1
10
20.0075635333026
20
0.801424753217248
30
0
41
1
10
19.4620402266384
20
1.09142738045054
30
0
41
1
10
19.0990124044908
20
1.28127836005635
30
0
41
1
10
18.5554918418738
20
1.55954799342678
30
0
41
1
10
18.3744163621548
20
1.65091964592872
30
0
41
1
10
18.0119746960017
20
1.83116382421753
30
0
41
1
10
17.8306223135712
20
1.91994425319146
30
0
41
1
10
17.4676035978942
20
2.09435078235396
30
0
41
1
10
17.2859089629848
20
2.17993589573794
30
0
41
1
10
16.9224373629861
20
2.34852019115698
30
0
41
1
10
16.7409467055662
20
2.43112757952713
30
0
41
1
10
16.1964851789213
20
2.67198251270926
30
0
41
1
10
15.8338661468182
20
2.8235609551545
30
0
41
1
10
15.1090555216722
20
3.11044053315061
30
0
41
1
10
14.7464699051546
20
3.24438421997749
30
0
41
1
10
14.2007836355518
20
3.42945992790342
30
0
41
1
10
14.0189297265458
20
3.48862358407925
30
0
41
1
10
13.6560672570143
20
3.60178764633827
30
0
41
1
10
13.4748405307544
20
3.65558504321189
30
0
41
1
10
12.9308073856716
20
3.80767625755479
30
0
41
1
10
12.5680791220289
20
3.89770157661928
30
0
41
1
10
11.8422400779525
20
4.05141932540269
30
0
41
1
10
11.4782147777483
20
4.11543367482551
30
0
41
1
10
10.9333230634126
20
4.19351351240945
30
0
41
1
10
10.7517953987634
20
4.21642846045779
30
0
41
1
10
10.3892704702722
20
4.25580332244274
30
0
41
1
10
10.2081312264455
20
4.27218857396608
30
0
41
1
10
9.66410560154293
20
4.31074433497079
30
0
41
1
10
9.30075447109996
20
4.32181923536399
30
0
41
1
10
8.93691120883551
20
4.31998869649385
30
0
0
SPLINE
5
B9
100
AcDbEntity
8
1
62
256
6
ByLayer
370
18
48
1
60
0
100
AcDbSpline
70
4
71
3
72
24
73
20
40
0
40
0
40
0
40
0
40
0.125000000000006
40
0.125000000000006
40
0.187500000000007
40
0.187500000000007
40
0.250000000000008
40
0.250000000000008
40
0.375000000000007
40
0.375000000000007
40
0.500000000000006
40
0.500000000000006
40
0.625000000000004
40
0.625000000000004
40
0.750000000000003
40
0.750000000000003
40
0.875000000000001
40
0.875000000000001
40
1
40
1
40
1
40
1
41
1
10
43.7881580778081
20
1.44418017504196
30
0
41
1
10
43.8420541484695
20
1.25354405897076
30
0
41
1
10
43.9109214402145
20
1.06435277432792
30
0
41
1
10
44.0334652794408
20
0.782422926946253
30
0
41
1
10
44.0775427201203
20
0.688757980774511
30
0
41
1
10
44.1718218807081
20
0.502019125799023
30
0
41
1
10
44.2218268786037
20
0.409386065920302
30
0
41
1
10
44.3775911747667
20
0.13714735815131
30
0
41
1
10
44.4898327352653
20
-0.0383972045159453
30
0
41
1
10
44.7281595113936
20
-0.379682331754026
30
0
41
1
10
44.8542553798841
20
-0.545415352029096
30
0
41
1
10
45.1186905209639
20
-0.868210683193325
30
0
41
1
10
45.2555215534725
20
-1.02337368642975
30
0
41
1
10
45.5349616090265
20
-1.32067144732216
30
0
41
1
10
45.6779353362035
20
-1.46323467570409
30
0
41
1
10
45.9694785997736
20
-1.73789484664203
30
0
41
1
10
46.1180455542805
20
-1.86999661830509
30
0
41
1
10
46.4201971641149
20
-2.12481515779246
30
0
41
1
10
46.5740004580973
20
-2.24766588440488
30
0
41
1
10
46.7297002351667
20
-2.36571874233962
30
0
0
SPLINE
5
BA
100
AcDbEntity
8
1
62
256
6
ByLayer
370
18
48
1
60
0
100
AcDbSpline
70
4
71
3
72
22
73
18
40
0
40
0
40
0
40
0
40
0.1914396146648
40
0.1914396146648
40
0.287159421997198
40
0.287159421997198
40
0.382879229329596
40
0.382879229329596
40
0.574318843994393
40
0.574318843994393
40
0.76575845865919
40
0.76575845865919
40
0.861478265991588
40
0.861478265991588
40
0.957198073323986
40
0.957198073323986
40
1
40
1
40
1
40
1
41
1
10
8.93691120883557
20
-4.31998869649382
30
0
41
1
10
9.30084268035819
20
-4.32181967915528
30
0
41
1
10
9.66426989239119
20
-4.31073855190587
30
0
41
1
10
10.2083894484526
20
-4.27216734049227
30
0
41
1
10
10.3895564189269
20
-4.2557758590234
30
0
41
1
10
10.7521325024555
20
-4.21638824621061
30
0
41
1
10
10.9336822481648
20
-4.19346632776512
30
0
41
1
10
11.4786319554522
20
-4.11536531334758
30
0
41
1
10
11.8427478522775
20
-4.0513265793719
30
0
41
1
10
12.5687605864125
20
-3.89754244215757
30
0
41
1
10
12.9315114041911
20
-3.80749416402924
30
0
41
1
10
13.4754921511479
20
-3.65539549246302
30
0
41
1
10
13.6566858253901
20
-3.60159949861099
30
0
41
1
10
14.0194556368592
20
-3.48845479404571
30
0
41
1
10
14.2011788785433
20
-3.42932955844023
30
0
41
1
10
14.4644150687676
20
-3.34004467521345
30
0
41
1
10
14.5457150843656
20
-3.31191998722872
30
0
41
1
10
14.6269799792191
20
-3.28327401757798
30
0
0
SPLINE
5
BB
100
AcDbEntity
8
1
62
256
6
ByLayer
370
18
48
1
60
0
100
AcDbSpline
70
4
71
3
72
32
73
28
40
0
40
0
40
0
40
0
40
0.0476189953295193
40
0.0476189953295193
40
0.10364140736896
40
0.10364140736896
40
0.215686231447842
40
0.215686231447842
40
0.271708643487283
40
0.271708643487283
40
0.327731055526723
40
0.327731055526723
40
0.439775879605605
40
0.439775879605605
40
0.551820703684487
40
0.551820703684487
40
0.607843115723926
40
0.607843115723926
40
0.663865527763365
40
0.663865527763365
40
0.775910351842244
40
0.775910351842244
40
0.887955175921122
40
0.887955175921122
40
0.943977587960561
40
0.943977587960561
40
1
40
1
40
1
40
1
41
1
10
34.0660298556719
20
4.33388876947751
30
0
41
1
10
34.2205472268607
20
4.33317623119677
30
0
41
1
10
34.374917700181
20
4.33026525796373
30
0
41
1
10
34.7105810264296
20
4.31829632434201
30
0
41
1
10
34.8918356094582
20
4.3081106641495
30
0
41
1
10
35.4357066628568
20
4.26768837831756
30
0
41
1
10
35.7986039893936
20
4.22882359059253
30
0
41
1
10
36.3437097108107
20
4.14837051959336
30
0
41
1
10
36.525576863177
20
4.11799454849665
30
0
41
1
10
36.8890550169776
20
4.0515571199162
30
0
41
1
10
37.0707606073242
20
4.01543644870085
30
0
41
1
10
37.6154515980622
20
3.89730591194814
30
0
41
1
10
37.9779045049693
20
3.80619346094679
30
0
41
1
10
38.7033101600484
20
3.60192331826391
30
0
41
1
10
39.0672558615771
20
3.48717512754712
30
0
41
1
10
39.6128974529543
20
3.29875393273855
30
0
41
1
10
39.7943807042872
20
3.23317233066365
30
0
41
1
10
40.1573304398314
20
3.09758172557014
30
0
41
1
10
40.3388666252719
20
3.02767530863918
30
0
41
1
10
40.8833164348079
20
2.81155898135538
30
0
41
1
10
41.2458566624515
20
2.65858447192738
30
0
41
1
10
41.9724385449395
20
2.33428189501677
30
0
41
1
10
42.3370354724459
20
2.16450372247874
30
0
41
1
10
42.8816247051996
20
1.90063190755899
30
0
41
1
10
43.062820143027
20
1.81084393364992
30
0
41
1
10
43.4253575832266
20
1.62909806850215
30
0
41
1
10
43.6067445590174
20
1.53723925939889
30
0
41
1
10
43.7881580778084
20
1.44418017504233
30
0
0
SPLINE
5
BC
100
AcDbEntity
8
1
62
256
6
ByLayer
370
18
48
1
60
0
100
AcDbSpline
70
4
71
3
72
16
73
12
40
0
40
0
40
0
40
0
40
0.24999999999998
40
0.24999999999998
40
0.499999999999959
40
0.499999999999959
40
0.749999999999939
40
0.749999999999939
40
0.874999999999969
40
0.874999999999969
40
1
40
1
40
1
40
1
41
1
10
47.0510428191474
20
1.05076821945369
30
0
41
1
10
47.0419858560158
20
1.08031264111099
30
0
41
1
10
47.0360833277493
20
1.11057452766195
30
0
41
1
10
47.0324548673715
20
1.17298182817376
30
0
41
1
10
47.034575441484
20
1.20555755368559
30
0
41
1
10
47.0530076287096
20
1.26713047731832
30
0
41
1
10
47.0708670122061
20
1.2954738392643
30
0
41
1
10
47.107572156048
20
1.32662152990767
30
0
41
1
10
47.1215281594394
20
1.33532098522602
30
0
41
1
10
47.1505561616235
20
1.34884864310459
30
0
41
1
10
47.1657398828526
20
1.3538357791758
30
0
41
1
10
47.1814491184119
20
1.3574325142483
30
0
0
SPLINE
5
BD
100
AcDbEntity
8
1
62
256
6
ByLayer
370
18
48
1
60
0
100
AcDbSpline
70
2053
71
3
72
62
73
58
40
0
40
0
40
0
40
0
40
0.0312499999999997
40
0.0312499999999997
40
0.0624999999999993
40
0.0624999999999993
40
0.093749999999999
40
0.093749999999999
40
0.124999999999999
40
0.124999999999999
40
0.156249999999998
40
0.156249999999998
40
0.187499999999998
40
0.187499999999998
40
0.218749999999998
40
0.218749999999998
40
0.249999999999997
40
0.249999999999997
40
0.281249999999997
40
0.281249999999997
40
0.312499999999997
40
0.312499999999997
40
0.374999999999999
40
0.374999999999999
40
0.437500000000001
40
0.437500000000001
40
0.46875
40
0.46875
40
0.499999999999999
40
0.499999999999999
40
0.531249999999998
40
0.531249999999998
40
0.562499999999997
40
0.562499999999997
40
0.593749999999996
40
0.593749999999996
40
0.624999999999995
40
0.624999999999995
40
0.656249999999995
40
0.656249999999995
40
0.687499999999994
40
0.687499999999994
40
0.718749999999993
40
0.718749999999993
40
0.749999999999992
40
0.749999999999992
40
0.812499999999992
40
0.812499999999992
40
0.843749999999993
40
0.843749999999993
40
0.874999999999995
40
0.874999999999995
40
0.906249999999996
40
0.906249999999996
40
0.937499999999997
40
0.937499999999997
40
1
40
1
40
1
40
1
41
1
10
47.7398158564686
20
-1.55120070724019
30
0
41
1
10
47.7170603989455
20
-1.58348406453357
30
0
41
1
10
47.6947643591191
20
-1.61810251263475
30
0
41
1
10
47.6511670427956
20
-1.69239551684058
30
0
41
1
10
47.6296334972228
20
-1.7325499192452
30
0
41
1
10
47.5890185584541
20
-1.81639813368798
30
0
41
1
10
47.5700132556889
20
-1.85982378522382
30
0
41
1
10
47.5349760298562
20
-1.95010372892816
30
0
41
1
10
47.5192845181368
20
-1.99623923467382
30
0
41
1
10
47.4930378639647
20
-2.08685157554359
30
0
41
1
10
47.482157305398
20
-2.13260960413234
30
0
41
1
10
47.4665703934252
20
-2.21877821380934
30
0
41
1
10
47.4617094233173
20
-2.25957270974109
30
0
41
1
10
47.4578835961614
20
-2.33526380470491
30
0
41
1
10
47.4589392198125
20
-2.36903776039085
30
0
41
1
10
47.4663428686149
20
-2.42932670990101
30
0
41
1
10
47.4726879870076
20
-2.45534384452173
30
0
41
1
10
47.4896314554692
20
-2.49881543086389
30
0
41
1
10
47.5003852926559
20
-2.51658763900895
30
0
41
1
10
47.5251262686456
20
-2.54374238468191
30
0
41
1
10
47.5391439651594
20
-2.55331269615283
30
0
41
1
10
47.5857272400803
20
-2.5710033313122
30
0
41
1
10
47.6216830748685
20
-2.5678964339709
30
0
41
1
10
47.7011507822908
20
-2.53520752776535
30
0
41
1
10
47.743289905158
20
-2.50624807594488
30
0
41
1
10
47.8097283710426
20
-2.44426313556636
30
0
41
1
10
47.8323520537198
20
-2.42046433790148
30
0
41
1
10
47.8772638242347
20
-2.36782439156411
30
0
41
1
10
47.8997304430156
20
-2.33882885392634
30
0
41
1
10
47.944687063576
20
-2.27500905601326
30
0
41
1
10
47.967407201062
20
-2.23977276783711
30
0
41
1
10
48.0112390274807
20
-2.16511798454204
30
0
41
1
10
48.0324471338554
20
-2.12563908984441
30
0
41
1
10
48.0732418240748
20
-2.04175239824193
30
0
41
1
10
48.0926750922979
20
-1.99754226655901
30
0
41
1
10
48.1277094414842
20
-1.90788384484119
30
0
41
1
10
48.1437492977379
20
-1.86122617811597
30
0
41
1
10
48.1704800349224
20
-1.76993508529677
30
0
41
1
10
48.1812925044406
20
-1.72520949785422
30
0
41
1
10
48.1974393393542
20
-1.63773240453855
30
0
41
1
10
48.2024111974445
20
-1.5968381979952
30
0
41
1
10
48.2064462286302
20
-1.52128116677466
30
0
41
1
10
48.2054347749128
20
-1.48671900531923
30
0
41
1
10
48.1980705875899
20
-1.42663166453355
30
0
41
1
10
48.1916441501365
20
-1.40042076139218
30
0
41
1
10
48.16597674478
20
-1.33541131494431
30
0
41
1
10
48.1400929442211
20
-1.30893406022133
30
0
41
1
10
48.0935140350551
20
-1.2918239165796
30
0
41
1
10
48.0764618743167
20
-1.28981548470483
30
0
41
1
10
48.0405664484308
20
-1.29277384450424
30
0
41
1
10
48.0216945497258
20
-1.29767262577835
30
0
41
1
10
47.9821973575697
20
-1.3139579652767
30
0
41
1
10
47.9614133635802
20
-1.3254729122641
30
0
41
1
10
47.9190957420684
20
-1.35446897029695
30
0
41
1
10
47.8975189694901
20
-1.37192263627
30
0
41
1
10
47.8315257014422
20
-1.43321464754359
30
0
41
1
10
47.7853267715149
20
-1.48663399265345
30
0
41
1
10
47.7398158564686
20
-1.55120070724019
30
0
0
SPLINE
5
BE
100
AcDbEntity
8
1
62
256
6
ByLayer
370
18
48
1
60
0
100
AcDbSpline
70
4
71
3
72
60
73
56
40
0
40
0
40
0
40
0
40
0.0519897895202928
40
0.0519897895202928
40
0.0779846842804386
40
0.0779846842804386
40
0.103979579040584
40
0.103979579040584
40
0.155969368560875
40
0.155969368560875
40
0.181964263321019
40
0.181964263321019
40
0.207959158081164
40
0.207959158081164
40
0.259948947601452
40
0.259948947601452
40
0.285943842361595
40
0.285943842361595
40
0.311938737121739
40
0.311938737121739
40
0.363928526642024
40
0.363928526642024
40
0.389923421402168
40
0.389923421402168
40
0.415918316162311
40
0.415918316162311
40
0.467908105682598
40
0.467908105682598
40
0.493903000442741
40
0.493903000442741
40
0.519897895202884
40
0.519897895202884
40
0.623877474243457
40
0.623877474243457
40
0.675867263763744
40
0.675867263763744
40
0.701862158523888
40
0.701862158523888
40
0.727857053284032
40
0.727857053284032
40
0.779846842804319
40
0.779846842804319
40
0.805841737564463
40
0.805841737564463
40
0.831836632324607
40
0.831836632324607
40
0.883826421844895
40
0.883826421844895
40
0.90982131660504
40
0.90982131660504
40
0.935816211365184
40
0.935816211365184
40
0.987806000885472
40
0.987806000885472
40
1
40
1
40
1
40
1
41
1
10
47.4223694860525
20
-4.51280625107489
30
0
41
1
10
46.9708576569549
20
-4.54551262690057
30
0
41
1
10
46.5199748683487
20
-4.5562628437898
30
0
41
1
10
45.8424302691534
20
-4.53945480264503
30
0
41
1
10
45.6161537915426
20
-4.52833775180306
30
0
41
1
10
45.1644368533241
20
-4.49523650908682
30
0
41
1
10
44.9388924614559
20
-4.47326153400553
30
0
41
1
10
44.2626244819084
20
-4.39131972289871
30
0
41
1
10
43.8122487661465
20
-4.31533328186293
30
0
41
1
10
43.1348859807193
20
-4.17048236424637
30
0
41
1
10
42.9085737531984
20
-4.11698502538022
30
0
41
1
10
42.4568860085605
20
-4.00038144495755
30
0
41
1
10
42.2313551183933
20
-3.93725172896299
30
0
41
1
10
41.5551020741734
20
-3.7339596906717
30
0
41
1
10
41.1047022311165
20
-3.57990195465911
30
0
41
1
10
40.4272153631478
20
-3.32357543977469
30
0
41
1
10
40.2008851523782
20
-3.23383063681581
30
0
41
1
10
39.7492120176892
20
-3.04715004265512
30
0
41
1
10
39.5236679358155
20
-2.95014527861855
30
0
41
1
10
38.8473271717418
20
-2.64896500147859
30
0
41
1
10
38.3967764685824
20
-2.43468665472912
30
0
41
1
10
37.71911459085
20
-2.09636898282565
30
0
41
1
10
37.4927940182935
20
-1.98066296901502
30
0
41
1
10
37.0411549823369
20
-1.74533833553076
30
0
41
1
10
36.815597670012
20
-1.62561500104542
30
0
41
1
10
36.1392066548116
20
-1.26111720723552
30
0
41
1
10
35.688587764887
20
-1.0111242772287
30
0
41
1
10
35.0108060088436
20
-0.629534720297755
30
0
41
1
10
34.784445581812
20
-0.501144174228841
30
0
41
1
10
34.3337727603074
20
-0.244764503579319
30
0
41
1
10
34.1090822396156
20
-0.116551765781566
30
0
41
1
10
32.9880785284933
20
0.523276265098588
30
0
41
1
10
32.09870288215
20
1.03042523407393
30
0
41
1
10
30.7573023030921
20
1.75178035872582
30
0
41
1
10
30.3089663947928
20
1.98570716037267
30
0
41
1
10
29.6322973268784
20
2.3226895313878
30
0
41
1
10
29.4058014346382
20
2.43281282352521
30
0
41
1
10
28.9540371753482
20
2.64624634223924
30
0
41
1
10
28.7284441950632
20
2.74975001919296
30
0
41
1
10
28.0519738539009
20
3.04987663738422
30
0
41
1
10
27.6012741156684
20
3.23593574538069
30
0
41
1
10
26.9233158843275
20
3.49094603559453
30
0
41
1
10
26.6968865421947
20
3.57200251484787
30
0
41
1
10
26.2451222335314
20
3.72496185143115
30
0
41
1
10
26.0195339472496
20
3.79693994752293
30
0
41
1
10
25.3430269089826
20
3.99881492378449
30
0
41
1
10
24.8922587310484
20
4.11455736780977
30
0
41
1
10
24.2141277673384
20
4.25797443260052
30
0
41
1
10
23.9876850905545
20
4.30076658571997
30
0
41
1
10
23.5359326238445
20
4.37568762643946
30
0
41
1
10
23.3103398831525
20
4.40785848460933
30
0
41
1
10
22.6337474036461
20
4.48828479007085
30
0
41
1
10
22.1829064863337
20
4.52045231038036
30
0
41
1
10
21.6246880757837
20
4.53314182953073
30
0
41
1
10
21.5185575786794
20
4.53434512121092
30
0
41
1
10
21.4124447872894
20
4.53434134602836
30
0
0
SPLINE
5
BF
100
AcDbEntity
8
1
62
256
6
ByLayer
370
18
48
1
60
0
100
AcDbSpline
70
4
71
3
72
16
73
12
40
0
40
0
40
0
40
0
40
0.223519461539067
40
0.223519461539067
40
0.488665501771746
40
0.488665501771746
40
0.621238521888084
40
0.621238521888084
40
0.753811542004424
40
0.753811542004424
40
1
40
1
40
1
40
1
41
1
10
21.5899606440805
20
-4.32739594611056
30
0
41
1
10
21.2123432128349
20
-4.32663816094049
30
0
41
1
10
20.8352626444203
20
-4.31127175159602
30
0
41
1
10
20.0102375805252
20
-4.24605852711071
30
0
41
1
10
19.5620292809115
20
-4.19027233426988
30
0
41
1
10
18.8868132471043
20
-4.07650081303404
30
0
41
1
10
18.6612485697216
20
-4.03355107625194
30
0
41
1
10
18.2088464495125
20
-3.93775666788332
30
0
41
1
10
17.9816867474461
20
-3.8847830889344
30
0
41
1
10
17.3357008502784
20
-3.72091351405024
30
0
41
1
10
16.9180371428441
20
-3.59901375710007
30
0
41
1
10
16.5014506005085
20
-3.46324805234738
30
0
0
SPLINE
5
C0
100
AcDbEntity
8
1
62
256
6
ByLayer
370
13
48
1
60
0
100
AcDbSpline
70
4
71
3
72
20
73
16
40
0
40
0
40
0
40
0
40
0.128000833965239
40
0.128000833965239
40
0.247460387504906
40
0.247460387504906
40
0.30719016427474
40
0.30719016427474
40
0.366919941044573
40
0.366919941044573
40
0.605839048123908
40
0.605839048123908
40
0.844758155203243
40
0.844758155203243
40
1
40
1
40
1
40
1
41
1
10
16.5014515512544
20
-3.46324836219583
30
0
41
1
10
16.0207067381147
20
-3.30657347875575
30
0
41
1
10
15.541396427647
20
-3.13143278644745
30
0
41
1
10
14.6141489354913
20
-2.76165908737613
30
0
41
1
10
14.1661856287447
20
-2.56913204016391
30
0
41
1
10
13.4917681954623
20
-2.26214396105078
30
0
41
1
10
13.2665258268071
20
-2.15680338141868
30
0
41
1
10
12.8147839680065
20
-1.94062794958776
30
0
41
1
10
12.5878088606045
20
-1.82955182560426
30
0
41
1
10
11.4550255176826
20
-1.26484970481553
30
0
41
1
10
10.5604097016023
20
-0.784982406421648
30
0
41
1
10
8.76946223882655
20
0.184386773910148
30
0
41
1
10
7.87396239286727
20
0.675431334077302
30
0
41
1
10
6.3764629719827
20
1.45827140011036
30
0
41
1
10
5.78934297086485
20
1.75596430045471
30
0
41
1
10
5.20163837559849
20
2.03702116166917
30
0
0
SPLINE
5
C1
100
AcDbEntity
8
1
62
256
6
ByLayer
370
18
48
1
60
0
100
AcDbSpline
70
4
71
3
72
90
73
86
40
0
40
0
40
0
40
0
40
0.0295850656567505
40
0.0295850656567505
40
0.0627707532274344
40
0.0627707532274344
40
0.0959564407981183
40
0.0959564407981183
40
0.11254928458346
40
0.11254928458346
40
0.129142128368802
40
0.129142128368802
40
0.145734972154144
40
0.145734972154144
40
0.162327815939486
40
0.162327815939486
40
0.19551350351017
40
0.19551350351017
40
0.212106347295512
40
0.212106347295512
40
0.228699191080853
40
0.228699191080853
40
0.245292034866195
40
0.245292034866195
40
0.261884878651537
40
0.261884878651537
40
0.295070566222221
40
0.295070566222221
40
0.328256253792906
40
0.328256253792906
40
0.36144194136359
40
0.36144194136359
40
0.378034785148933
40
0.378034785148933
40
0.394627628934275
40
0.394627628934275
40
0.411220472719617
40
0.411220472719617
40
0.427813316504959
40
0.427813316504959
40
0.460999004075643
40
0.460999004075643
40
0.477591847860986
40
0.477591847860986
40
0.494184691646329
40
0.494184691646329
40
0.510777535431672
40
0.510777535431672
40
0.527370379217014
40
0.527370379217014
40
0.5605560667877
40
0.5605560667877
40
0.593741754358385
40
0.593741754358385
40
0.626927441929071
40
0.626927441929071
40
0.660113129499756
40
0.660113129499756
40
0.676705973285099
40
0.676705973285099
40
0.693298817070443
40
0.693298817070443
40
0.726484504641128
40
0.726484504641128
40
0.743077348426471
40
0.743077348426471
40
0.759670192211813
40
0.759670192211813
40
0.776263035997156
40
0.776263035997156
40
0.792855879782499
40
0.792855879782499
40
0.826041567353183
40
0.826041567353183
40
0.859227254923868
40
0.859227254923868
40
0.892412942494552
40
0.892412942494552
40
0.925598630065236
40
0.925598630065236
40
0.958784317635921
40
0.958784317635921
40
0.991970005206606
40
0.991970005206606
40
1
40
1
40
1
40
1
41
1
10
14.6240631013559
20
3.28038835256248
30
0
41
1
10
14.9307836528691
20
3.40144719259831
30
0
41
1
10
15.2375878660488
20
3.51398256318768
30
0
41
1
10
15.8876461636847
20
3.73638718493791
30
0
41
1
10
16.2301762788033
20
3.84471915617385
30
0
41
1
10
16.9178774436531
20
4.03799970349007
30
0
41
1
10
17.2633117787409
20
4.12353954497326
30
0
41
1
10
17.778786117561
20
4.23484185049733
30
0
41
1
10
17.950289243239
20
4.26904713559111
30
0
41
1
10
18.2937831354829
20
4.33104770100263
30
0
41
1
10
18.4656054229861
20
4.35896045152808
30
0
41
1
10
18.8092477839392
20
4.408733944793
30
0
41
1
10
18.9810710377891
20
4.43059310356875
30
0
41
1
10
19.3245801113721
20
4.46823525753697
30
0
41
1
10
19.4961350644144
20
4.48403418443493
30
0
41
1
10
20.0122761842594
20
4.52172562876788
30
0
41
1
10
20.3572685247686
20
4.53411891880384
30
0
41
1
10
20.8725479166771
20
4.53380453815851
30
0
41
1
10
21.043919751307
20
4.53051511753233
30
0
41
1
10
21.3869640625186
20
4.51758992722429
30
0
41
1
10
21.5587407360638
20
4.50799258498509
30
0
41
1
10
21.902510536108
20
4.48255954622073
30
0
41
1
10
22.074523238286
20
4.46672556593936
30
0
41
1
10
22.4186659357506
20
4.42872528683188
30
0
41
1
10
22.5908490391576
20
4.40649271903683
30
0
41
1
10
23.1064145240703
20
4.33049820310282
30
0
41
1
10
23.4503715924074
20
4.2681327229497
30
0
41
1
10
24.1373498091489
20
4.11973494668959
30
0
41
1
10
24.4798457378255
20
4.03312044507049
30
0
41
1
10
25.1679430926534
20
3.83888181715292
30
0
41
1
10
25.5131699228495
20
3.73089281773278
30
0
41
1
10
26.0280685681225
20
3.55282543861372
30
0
41
1
10
26.1994987532394
20
3.49087037089711
30
0
41
1
10
26.5428797742211
20
3.36285809832307
30
0
41
1
10
26.7146771859052
20
3.29663934320953
30
0
41
1
10
27.0582912038776
20
3.15956467653732
30
0
41
1
10
27.2301269800337
20
3.08873299989563
30
0
41
1
10
27.5736355805768
20
2.94211734293816
30
0
41
1
10
27.7453552473614
20
2.86630300824851
30
0
41
1
10
28.2619260159837
20
2.63407769773616
30
0
41
1
10
28.6060277553463
20
2.47274323038204
30
0
41
1
10
29.1208805571614
20
2.21974569052659
30
0
41
1
10
29.2921328616344
20
2.13333217141653
30
0
41
1
10
29.6352453869762
20
1.95840662323303
30
0
41
1
10
29.80705094972
20
1.86982259865292
30
0
41
1
10
30.1509480538248
20
1.69009945086
30
0
41
1
10
30.323036517866
20
1.59895457948517
30
0
41
1
10
30.6673702436439
20
1.41385543974329
30
0
41
1
10
30.8392457855215
20
1.3197674882947
30
0
41
1
10
31.3543758110585
20
1.03579070585957
30
0
41
1
10
31.6981197333006
20
0.844970878844862
30
0
41
1
10
32.3848205415126
20
0.457921387923392
30
0
41
1
10
32.7273906740507
20
0.26097796321622
30
0
41
1
10
33.416024274228
20
-0.130869062065756
30
0
41
1
10
33.7606282382643
20
-0.326572413886453
30
0
41
1
10
34.4464785993571
20
-0.717325262304598
30
0
41
1
10
34.7897454821407
20
-0.909893237987575
30
0
41
1
10
35.3051756376256
20
-1.19455870561205
30
0
41
1
10
35.4770247933998
20
-1.28883248494819
30
0
41
1
10
35.8206659354036
20
-1.47635979298934
30
0
41
1
10
35.9926422208253
20
-1.56957361407007
30
0
41
1
10
36.5086492564295
20
-1.84367527201874
30
0
41
1
10
36.8524937850049
20
-2.02045826228635
30
0
41
1
10
37.3669769105636
20
-2.2783795620702
30
0
41
1
10
37.5381922977543
20
-2.36322102257205
30
0
41
1
10
37.8814050030478
20
-2.52861403114738
30
0
41
1
10
38.0532704323792
20
-2.60937600788901
30
0
41
1
10
38.3973126705331
20
-2.76734831564642
30
0
41
1
10
38.5696505608001
20
-2.84460691488661
30
0
41
1
10
38.9137017952841
20
-2.99532359929702
30
0
41
1
10
39.0852072621852
20
-3.06896225940741
30
0
41
1
10
39.6000215400606
20
-3.2822703092028
30
0
41
1
10
39.9436215474557
20
-3.41448192389953
30
0
41
1
10
40.6301821019943
20
-3.66079216974913
30
0
41
1
10
40.9730857278511
20
-3.77500001282766
30
0
41
1
10
41.6619735637814
20
-3.98019686163295
30
0
41
1
10
42.0056850322109
20
-4.07164048732454
30
0
41
1
10
42.6910387145704
20
-4.23248097473945
30
0
41
1
10
43.0344517639425
20
-4.30061843635008
30
0
41
1
10
43.7218573960022
20
-4.41322894319441
30
0
41
1
10
44.065640921032
20
-4.45787433974562
30
0
41
1
10
44.7531961458621
20
-4.52109369696498
30
0
41
1
10
45.0969289412838
20
-4.5400985973271
30
0
41
1
10
45.5230923847054
20
-4.54805231689392
30
0
41
1
10
45.6060829408413
20
-4.54885390234304
30
0
41
1
10
45.689107203852
20
-4.54890862883533
30
0
0
SPLINE
5
C2
100
AcDbEntity
8
1
62
256
6
ByLayer
370
18
48
1
60
0
100
AcDbSpline
70
4
71
3
72
16
73
12
40
0
40
0
40
0
40
0
40
0.25
40
0.25
40
0.375
40
0.375
40
0.5
40
0.5
40
0.75
40
0.75
40
1
40
1
40
1
40
1
41
1
10
8.93696979255503
20
-4.31998848973382
30
0
41
1
10
8.53207580082326
20
-4.31795513820728
30
0
41
1
10
8.13030125374166
20
-4.30033463954211
30
0
41
1
10
7.53013948820441
20
-4.24496559908332
30
0
41
1
10
7.3302177305618
20
-4.22189509313523
30
0
41
1
10
6.93325181327404
20
-4.16584472213316
30
0
41
1
10
6.73608347489355
20
-4.13259078918716
30
0
41
1
10
6.14809266704978
20
-4.01790161699611
30
0
41
1
10
5.76047603575688
20
-3.9228023787218
30
0
41
1
10
4.99599310924737
20
-3.68546560651399
30
0
41
1
10
4.61884830778189
20
-3.54414859787153
30
0
41
1
10
4.25074905516209
20
-3.36899650300975
30
0
0
SPLINE
5
C3
100
AcDbEntity
8
1
62
256
6
ByLayer
370
18
48
1
60
0
100
AcDbSpline
70
4
71
3
72
14
73
10
40
0
40
0
40
0
40
0
40
0.25
40
0.25
40
0.5
40
0.5
40
0.75
40
0.75
40
1
40
1
40
1
40
1
41
1
10
4.2507490533757
20
-3.36899650215975
30
0
41
1
10
4.22556212271812
20
-3.35701184410996
30
0
41
1
10
4.19932073465685
20
-3.34902892800474
30
0
41
1
10
4.14515003024263
20
-3.34553072904038
30
0
41
1
10
4.11766917467975
20
-3.35056863526964
30
0
41
1
10
4.06927479831825
20
-3.37666224075463
30
0
41
1
10
4.04832398083153
20
-3.39790196633089
30
0
41
1
10
4.01801200768972
20
-3.44988943328565
30
0
41
1
10
4.00862769712683
20
-3.47979851302449
30
0
41
1
10
4.00388106261485
20
-3.51040559562196
30
0
0
SPLINE
5
C4
100
AcDbEntity
8
1
62
256
6
ByLayer
370
18
48
1
60
0
100
AcDbSpline
70
4
71
3
72
16
73
12
40
0
40
0
40
0
40
0
40
0.366004810637025
40
0.366004810637025
40
0.636020747719761
40
0.636020747719761
40
0.771028716261129
40
0.771028716261129
40
0.906036684802497
40
0.906036684802497
40
1
40
1
40
1
40
1
41
1
10
46.6094656925637
20
-4.3426106262207
30
0
41
1
10
45.9991128249767
20
-4.34223027341895
30
0
41
1
10
45.3908370201753
20
-4.30339906510108
30
0
41
1
10
44.3313870993468
20
-4.17109209487285
30
0
41
1
10
43.8808378526713
20
-4.09455906494969
30
0
41
1
10
43.2015179417406
20
-3.94994867060606
30
0
41
1
10
42.9748806763204
20
-3.89682885037638
30
0
41
1
10
42.5236833543646
20
-3.7818263522839
30
0
41
1
10
42.2987156837172
20
-3.71986147581507
30
0
41
1
10
41.9179353433918
20
-3.60757542215794
30
0
41
1
10
41.761882351469
20
-3.55945088705457
30
0
41
1
10
41.6059779751704
20
-3.50935894020483
30
0
0
SPLINE
5
C5
100
AcDbEntity
8
1
62
256
6
ByLayer
370
13
48
1
60
0
100
AcDbSpline
70
4
71
3
72
22
73
18
40
0
40
0
40
0
40
0
40
0.192351013298302
40
0.192351013298302
40
0.308785669050057
40
0.308785669050057
40
0.367002996925933
40
0.367002996925933
40
0.425220324801809
40
0.425220324801809
40
0.658089636305317
40
0.658089636305317
40
0.774524292057071
40
0.774524292057071
40
0.890958947808825
40
0.890958947808825
40
1
40
1
40
1
40
1
41
1
10
41.6059779751464
20
-3.50935894019702
30
0
41
1
10
40.8658589156461
20
-3.27155929998585
30
0
41
1
10
40.1290891328931
20
-2.98942107527907
30
0
41
1
10
38.941435112196
20
-2.47873607112263
30
0
41
1
10
38.4924375607555
20
-2.27308046370058
30
0
41
1
10
37.8150416481202
20
-1.94788252721449
30
0
41
1
10
37.58810774737
20
-1.83637599417895
30
0
41
1
10
37.1356552198124
20
-1.60993989845156
30
0
41
1
10
36.9101142514039
20
-1.49503834168095
30
0
41
1
10
35.7850594754565
20
-0.913566250341887
30
0
41
1
10
34.8932828175693
20
-0.426492159783407
30
0
41
1
10
33.5507915869541
20
0.304781190945477
30
0
41
1
10
33.1024743249847
20
0.548617826236949
30
0
41
1
10
32.2013698564326
20
1.03115356501607
30
0
41
1
10
31.7471292589082
20
1.27045589076428
30
0
41
1
10
30.8710827441196
20
1.71774733617525
30
0
41
1
10
30.4482962880842
20
1.92726848254315
30
0
41
1
10
30.025132658198
20
2.12787439814392
30
0
0
SPLINE
5
C6
100
AcDbEntity
8
1
62
256
6
ByLayer
370
18
48
1
60
0
100
AcDbSpline
70
4
71
3
72
8
73
4
40
0
40
0
40
0
40
0
40
1
40
1
40
1
40
1
41
1
10
4.01014103628822
20
2.67590338847865
30
0
41
1
10
4.00594177289531
20
2.68743054058754
30
0
41
1
10
4.00377850645484
20
2.69915657121857
30
0
41
1
10
4.00377881218751
20
2.71109113909966
30
0
0
SPLINE
5
C7
100
AcDbEntity
8
1
62
256
6
ByLayer
370
18
48
1
60
0
100
AcDbSpline
70
4
71
3
72
8
73
4
40
0
40
0
40
0
40
0
40
1
40
1
40
1
40
1
41
1
10
47.4223694860525
20
-4.51280625107489
30
0
41
1
10
47.4360527737423
20
-4.47619318288292
30
0
41
1
10
47.4497223083955
20
-4.4395572030065
30
0
41
1
10
47.4633770322687
20
-4.40290115207696
30
0
0
SPLINE
5
C8
100
AcDbEntity
8
1
62
256
6
ByLayer
370
13
48
1
60
0
100
AcDbSpline
70
4
71
3
72
16
73
12
40
0
40
0
40
0
40
0
40
0.0936737791237067
40
0.0936737791237067
40
0.395782519415804
40
0.395782519415804
40
0.697891259707902
40
0.697891259707902
40
0.848945629853951
40
0.848945629853951
40
1
40
1
40
1
40
1
41
1
10
4.25040669782112
20
-4.31739226766632
30
0
41
1
10
4.25041261075347
20
-4.31756339165946
30
0
41
1
10
4.2504191152552
20
-4.31481616440709
30
0
41
1
10
4.25044918376327
20
-4.29091676154201
30
0
41
1
10
4.25047884058625
20
-4.24170825087143
30
0
41
1
10
4.25054719243462
20
-4.08699025346738
30
0
41
1
10
4.25058596622631
20
-3.98178616231681
30
0
41
1
10
4.25064714113626
20
-3.78175027448117
30
0
41
1
10
4.25066808121141
20
-3.70767488347343
30
0
41
1
10
4.25070925815714
20
-3.54759766279636
30
0
41
1
10
4.25072957025549
20
-3.46138986975026
30
0
41
1
10
4.25074905337573
20
-3.36899650216313
30
0
0
SPLINE
5
C9
100
AcDbEntity
8
1
62
256
6
ByLayer
370
18
48
1
60
0
100
AcDbSpline
70
4
71
3
72
8
73
4
40
0
40
0
40
0
40
0
40
1
40
1
40
1
40
1
41
1
10
47.4818749684857
20
-4.31695135207201
30
0
41
1
10
47.4579770304399
20
-4.33425151640679
30
0
41
1
10
47.4371022605039
20
-4.34296041224059
30
0
41
1
10
47.4193027984759
20
-4.34292986818281
30
0
0
SPLINE
5
CA
100
AcDbEntity
8
1
62
256
6
ByLayer
370
18
48
1
60
0
100
AcDbSpline
70
4
71
3
72
18
73
14
40
0
40
0
40
0
40
0
40
0.109190696724542
40
0.109190696724542
40
0.257658913937118
40
0.257658913937118
40
0.406127131149694
40
0.406127131149694
40
0.703063565574847
40
0.703063565574847
40
0.851531782787424
40
0.851531782787424
40
1
40
1
40
1
40
1
41
1
10
4.00381260712862
20
-4.52390159210393
30
0
41
1
10
4.00381404523523
20
-4.52336779824981
30
0
41
1
10
4.00381563055745
20
-4.51872325746436
30
0
41
1
10
4.00381974740813
20
-4.49807087008188
30
0
41
1
10
4.00382242815624
20
-4.47834370118179
30
0
41
1
10
4.00382829504528
20
-4.42383184733166
30
0
41
1
10
4.00383147245492
20
-4.38919891980137
30
0
41
1
10
4.00384163638023
20
-4.26375836336305
30
0
41
1
10
4.0038492728072
20
-4.15162886978462
30
0
41
1
10
4.00386133030909
20
-3.93905085370105
30
0
41
1
10
4.00386539185749
20
-3.86163871810592
30
0
41
1
10
4.00387337245695
20
-3.69504146315126
30
0
41
1
10
4.00387729971743
20
-3.60571550554823
30
0
41
1
10
4.00388106261221
20
-3.51040559563344
30
0
0
SPLINE
5
CB
100
AcDbEntity
8
1
62
256
6
ByLayer
370
18
48
1
60
0
100
AcDbSpline
70
4
71
3
72
8
73
4
40
0
40
0
40
0
40
0
40
1
40
1
40
1
40
1
41
1
10
47.4223694860525
20
4.51280625107489
30
0
41
1
10
47.0827913934314
20
4.53740442991253
30
0
41
1
10
46.7434481665603
20
4.54959206703657
30
0
41
1
10
46.4037253896457
20
4.54934283553331
30
0
0
SPLINE
5
CC
100
AcDbEntity
8
1
62
256
6
ByLayer
370
18
48
1
60
0
100
AcDbSpline
70
4
71
3
72
40
73
36
40
0
40
0
40
0
40
0
40
0.0333489975792008
40
0.0333489975792008
40
0.102395497752114
40
0.102395497752114
40
0.171441997925028
40
0.171441997925028
40
0.240488498097942
40
0.240488498097942
40
0.309534998270856
40
0.309534998270856
40
0.378581498443769
40
0.378581498443769
40
0.447627998616683
40
0.447627998616683
40
0.48215124870314
40
0.48215124870314
40
0.516674498789597
40
0.516674498789597
40
0.585720998962511
40
0.585720998962511
40
0.620244249048969
40
0.620244249048969
40
0.654767499135427
40
0.654767499135427
40
0.723813999308342
40
0.723813999308342
40
0.7583372493948
40
0.7583372493948
40
0.792860499481257
40
0.792860499481257
40
0.861906999654172
40
0.861906999654172
40
1
40
1
40
1
40
1
41
1
10
23.7190182853265
20
-4.34526375439214
30
0
41
1
10
23.5011992863196
20
-4.38074468434331
30
0
41
1
10
23.2835560022184
20
-4.41131883612536
30
0
41
1
10
22.6152282807606
20
-4.48987497584099
30
0
41
1
10
22.1641511083757
20
-4.52147258678423
30
0
41
1
10
21.2598043984631
20
-4.54081733566477
30
0
41
1
10
20.8092619025147
20
-4.52852467474565
30
0
41
1
10
19.9078956519741
20
-4.46062511216491
30
0
41
1
10
19.4566007061171
20
-4.40499091417601
30
0
41
1
10
18.5523218351375
20
-4.25152317624574
30
0
41
1
10
18.10174608367
20
-4.15403826842663
30
0
41
1
10
17.2002372167404
20
-3.92018699418006
30
0
41
1
10
16.7487874682646
20
-3.78365709102255
30
0
41
1
10
15.8446565676401
20
-3.4750029964207
30
0
41
1
10
15.3940137826489
20
-3.30361080092868
30
0
41
1
10
14.7177732759781
20
-3.02395335472798
30
0
41
1
10
14.4922950924574
20
-2.92699833048999
30
0
41
1
10
14.0408907122512
20
-2.7260137143011
30
0
41
1
10
13.8147210431379
20
-2.62186718433796
30
0
41
1
10
13.1367129541953
20
-2.30058010183822
30
0
41
1
10
12.6860430549949
20
-2.07496515806881
30
0
41
1
10
12.0096700106208
20
-1.72321368795394
30
0
41
1
10
11.7841560814555
20
-1.60373443932229
30
0
41
1
10
11.3327134060752
20
-1.3607893453684
30
0
41
1
10
11.1065209209014
20
-1.23718649779772
30
0
41
1
10
10.4286240395203
20
-0.862931587160091
30
0
41
1
10
9.97791637197483
20
-0.609021035854624
30
0
41
1
10
9.30139706033316
20
-0.225584864274907
30
0
41
1
10
9.0758193021008
20
-0.0973357919035038
30
0
41
1
10
8.62423351512379
20
0.159534037720448
30
0
41
1
10
8.39787373236439
20
0.288341004790197
30
0
41
1
10
7.72044386634158
20
0.67208932605115
30
0
41
1
10
7.27105790111202
20
0.924462386803185
30
0
41
1
10
5.92494303646669
20
1.66340837394389
30
0
41
1
10
5.03064546286762
20
2.13243322612118
30
0
41
1
10
4.12647245545315
20
2.55611243316531
30
0
0
SPLINE
5
CD
100
AcDbEntity
8
1
62
256
6
ByLayer
370
18
48
1
60
0
100
AcDbSpline
70
4
71
3
72
22
73
18
40
0
40
0
40
0
40
0
40
0.124999999999999
40
0.124999999999999
40
0.187499999999998
40
0.187499999999998
40
0.249999999999998
40
0.249999999999998
40
0.499999999999999
40
0.499999999999999
40
0.624999999999999
40
0.624999999999999
40
0.749999999999999
40
0.749999999999999
40
0.875
40
0.875
40
1
40
1
40
1
40
1
41
1
10
47.419302798472
20
-4.34292986818281
30
0
41
1
10
47.3531670756444
20
-4.34285992820978
30
0
41
1
10
47.2903666420924
20
-4.33272235881239
30
0
41
1
10
47.2014315364573
20
-4.30162186531521
30
0
41
1
10
47.1726664903294
20
-4.28859877160005
30
0
41
1
10
47.1169735255016
20
-4.25700718267083
30
0
41
1
10
47.0900161667113
20
-4.23838537619366
30
0
41
1
10
46.9619341387046
20
-4.13244960478457
30
0
41
1
10
46.8789657759373
20
-4.00652604640783
30
0
41
1
10
46.7857221927709
20
-3.75173261925198
30
0
41
1
10
46.7598346225659
20
-3.65482264178428
30
0
41
1
10
46.7207673349245
20
-3.44392737665993
30
0
41
1
10
46.7073115407588
20
-3.3295362907389
30
0
41
1
10
46.6925205311797
20
-3.08291889148703
30
0
41
1
10
46.6911832608604
20
-2.95069560191575
30
0
41
1
10
46.7011891600225
20
-2.66758996926478
30
0
41
1
10
46.7124635877305
20
-2.51938666087338
30
0
41
1
10
46.7297002351665
20
-2.36571874233959
30
0
0
SPLINE
5
CE
100
AcDbEntity
8
1
62
256
6
ByLayer
370
18
48
1
60
0
100
AcDbSpline
70
4
71
3
72
20
73
16
40
0
40
0
40
0
40
0
40
0.250000000000013
40
0.250000000000013
40
0.500000000000026
40
0.500000000000026
40
0.625000000000021
40
0.625000000000021
40
0.750000000000016
40
0.750000000000016
40
0.812500000000014
40
0.812500000000014
40
0.875000000000011
40
0.875000000000011
40
1
40
1
40
1
40
1
41
1
10
47.1814491184118
20
1.3574325142483
30
0
41
1
10
47.3103364212704
20
1.38694212856674
30
0
41
1
10
47.4380910565961
20
1.42035925401046
30
0
41
1
10
47.68948987982
20
1.50121032965231
30
0
41
1
10
47.8122550925082
20
1.54790710189892
30
0
41
1
10
47.9869976895766
20
1.63872699044151
30
0
41
1
10
48.0439802664015
20
1.67282257519926
30
0
41
1
10
48.1496171987209
20
1.75109481014999
30
0
41
1
10
48.1991673094154
20
1.79609400610516
30
0
41
1
10
48.2600299681268
20
1.87298811532113
30
0
41
1
10
48.2781153349561
20
1.90018217099549
30
0
41
1
10
48.3088529357997
20
1.95846083293631
30
0
41
1
10
48.3214942249929
20
1.98985819303002
30
0
41
1
10
48.3480807512409
20
2.08565144706535
30
0
41
1
10
48.3510667842797
20
2.1540646990461
30
0
41
1
10
48.3420117099311
20
2.22020965103931
30
0
0
SPLINE
5
CF
100
AcDbEntity
8
1
62
256
6
ByLayer
370
18
48
1
60
0
100
AcDbSpline
70
4
71
3
72
18
73
14
40
0
40
0
40
0
40
0
40
0.250000000000003
40
0.250000000000003
40
0.375000000000001
40
0.375000000000001
40
0.5
40
0.5
40
0.749999999999997
40
0.749999999999997
40
0.874999999999999
40
0.874999999999999
40
1
40
1
40
1
40
1
41
1
10
48.3420117099311
20
-2.22020965103928
30
0
41
1
10
48.2726326767598
20
-2.40646773212382
30
0
41
1
10
48.2031956694785
20
-2.59274173464777
30
0
41
1
10
48.0987123690939
20
-2.87142841657288
30
0
41
1
10
48.0638351562636
20
-2.96421159057525
30
0
41
1
10
47.993977237148
20
-3.14954270674619
30
0
41
1
10
47.9589537633005
20
-3.24199344187764
30
0
41
1
10
47.8538569157394
20
-3.51928558317613
30
0
41
1
10
47.7837026601928
20
-3.70417752880525
30
0
41
1
10
47.6780978849413
20
-3.97875874087038
30
0
41
1
10
47.6428420504748
20
-4.06991410926261
30
0
41
1
10
47.5722879344572
20
-4.25193397420324
30
0
41
1
10
47.5369705272427
20
-4.34266741070235
30
0
41
1
10
47.5015347040709
20
-4.43258939293671
30
0
0
SPLINE
5
D0
100
AcDbEntity
8
1
62
256
6
ByLayer
370
18
48
1
60
0
100
AcDbSpline
70
4
71
3
72
24
73
20
40
0
40
0
40
0
40
0
40
0.0547572827394093
40
0.0547572827394093
40
0.18472217967699
40
0.18472217967699
40
0.31468707661457
40
0.31468707661457
40
0.444651973552151
40
0.444651973552151
40
0.574616870489731
40
0.574616870489731
40
0.704581767427311
40
0.704581767427311
40
0.769564215896102
40
0.769564215896102
40
0.834546664364892
40
0.834546664364892
40
1
40
1
40
1
40
1
41
1
10
12.0037250536529
20
-2.07873876241359
30
0
41
1
10
11.9494780022884
20
-2.12384702887277
30
0
41
1
10
11.8952649663293
20
-2.16943541597587
30
0
41
1
10
11.7124357642164
20
-2.32455675552521
30
0
41
1
10
11.5840038971087
20
-2.43584885731104
30
0
41
1
10
11.3278814737222
20
-2.65925247684251
30
0
41
1
10
11.199924321156
20
-2.77159848474418
30
0
41
1
10
10.9423116057925
20
-2.99541692918569
30
0
41
1
10
10.8120559918898
20
-3.10739287758949
30
0
41
1
10
10.5506314035513
20
-3.32524585403684
30
0
41
1
10
10.4198508779761
20
-3.43080143280182
30
0
41
1
10
10.1559945832481
20
-3.63248004809168
30
0
41
1
10
10.0229140449968
20
-3.72859452389062
30
0
41
1
10
9.81994166646692
20
-3.86371582063381
30
0
41
1
10
9.75172598640756
20
-3.90724919342478
30
0
41
1
10
9.61392244406048
20
-3.99100667020241
30
0
41
1
10
9.54409766376514
20
-4.03135475748792
30
0
41
1
10
9.29612857985913
20
-4.16678337170535
30
0
41
1
10
9.1173494856487
20
-4.24989633031291
30
0
41
1
10
8.93692278735429
20
-4.31998419876527
30
0
0
SPLINE
5
D1
100
AcDbEntity
8
1
62
256
6
ByLayer
370
18
48
1
60
0
100
AcDbSpline
70
4
71
3
72
18
73
14
40
0
40
0
40
0
40
0
40
0.110597313966642
40
0.110597313966642
40
0.531119044078627
40
0.531119044078627
40
0.636249476606623
40
0.636249476606623
40
0.741379909134618
40
0.741379909134618
40
0.951640774190612
40
0.951640774190612
40
1
40
1
40
1
40
1
41
1
10
8.91359077885002
20
-0.0047512995689374
30
0
41
1
10
9.14944433774653
20
-0.13570986605464
30
0
41
1
10
9.38506793851204
20
-0.266521530999967
30
0
41
1
10
10.5165988629184
20
-0.891982124449754
30
0
41
1
10
11.4116174764149
20
-1.38059548971609
30
0
41
1
10
12.5454960807601
20
-1.95353191150289
30
0
41
1
10
12.7726743765784
20
-2.06609033217794
30
0
41
1
10
13.2247584005137
20
-2.28488006288114
30
0
41
1
10
13.450150957178
20
-2.39135847115017
30
0
41
1
10
14.1249756336601
20
-2.70125684989736
30
0
41
1
10
14.5731408911462
20
-2.89506453504006
30
0
41
1
10
15.1239758763388
20
-3.11538543754995
30
0
41
1
10
15.2269614110008
20
-3.15580611456355
30
0
41
1
10
15.3299501539285
20
-3.19542663172018
30
0
0
SPLINE
5
D2
100
AcDbEntity
8
1
62
256
6
ByLayer
370
13
48
1
60
0
100
AcDbSpline
70
4
71
3
72
16
73
12
40
0
40
0
40
0
40
0
40
0.31461110335085
40
0.31461110335085
40
0.40348411175871
40
0.40348411175871
40
0.49235712016657
40
0.49235712016657
40
0.670103136982287
40
0.670103136982287
40
1
40
1
40
1
40
1
41
1
10
15.3299501539709
20
-3.1954266317365
30
0
41
1
10
16.1225300152232
20
-3.50033785890435
30
0
41
1
10
16.9152998866639
20
-3.75785945678811
30
0
41
1
10
17.9427801742128
20
-4.01381575876414
30
0
41
1
10
18.1701714707874
20
-4.06564741745976
30
0
41
1
10
18.6229033458697
20
-4.15881795208688
30
0
41
1
10
18.8486188380873
20
-4.20028222893359
30
0
41
1
10
19.5242603821264
20
-4.30915086484322
30
0
41
1
10
19.9726913352606
20
-4.36108929435881
30
0
41
1
10
21.2517821252959
20
-4.44957428775356
30
0
41
1
10
22.0815761977391
20
-4.43513853005618
30
0
41
1
10
22.9191365006326
20
-4.34745588190088
30
0
0
SPLINE
5
D3
100
AcDbEntity
8
1
62
256
6
ByLayer
370
18
48
1
60
0
100
AcDbSpline
70
4
71
3
72
18
73
14
40
0
40
0
40
0
40
0
40
0.0069710477395022
40
0.0069710477395022
40
0.41109170634967
40
0.41109170634967
40
0.512121871002215
40
0.512121871002215
40
0.613152035654759
40
0.613152035654759
40
0.815212364959847
40
0.815212364959847
40
1
40
1
40
1
40
1
41
1
10
33.9251560931991
20
-0.01130116913086
30
0
41
1
10
33.9406034665747
20
-0.0199084389063273
30
0
41
1
10
33.9560498041954
20
-0.0285151431458814
30
0
41
1
10
34.866882828225
20
-0.536023732693565
30
0
41
1
10
35.7590141669936
20
-1.0326063895935
30
0
41
1
10
36.8850483457943
20
-1.62319703297186
30
0
41
1
10
37.1108079031732
20
-1.73979165478141
30
0
41
1
10
37.563768701984
20
-1.9693203914733
30
0
41
1
10
37.7908726983959
20
-2.08216594717794
30
0
41
1
10
38.4686644600582
20
-2.41082897208486
30
0
41
1
10
38.9178562463321
20
-2.61807649803993
30
0
41
1
10
39.775623588497
20
-2.98846631023778
30
0
41
1
10
40.1843985556636
20
-3.15381259161884
30
0
41
1
10
40.5933510980842
20
-3.30615710224163
30
0
0
SPLINE
5
D4
100
AcDbEntity
8
1
62
256
6
ByLayer
370
13
48
1
60
0
100
AcDbSpline
70
4
71
3
72
18
73
14
40
0
40
0
40
0
40
0
40
0.213447353535856
40
0.213447353535856
40
0.311766434343874
40
0.311766434343874
40
0.410085515151892
40
0.410085515151892
40
0.606723676767928
40
0.606723676767928
40
0.803361838383964
40
0.803361838383964
40
1
40
1
40
1
40
1
41
1
10
40.5933510978055
20
-3.30615710213775
30
0
41
1
10
41.078755857834
20
-3.48698187507037
30
0
41
1
10
41.564410793307
20
-3.64948920954299
30
0
41
1
10
42.2769120715028
20
-3.85662312852037
30
0
41
1
10
42.502079241165
20
-3.91753956287229
30
0
41
1
10
42.9537414889709
20
-4.03010544244358
30
0
41
1
10
43.1806946643663
20
-4.08184410442703
30
0
41
1
10
43.8604814008111
20
-4.22171090882674
30
0
41
1
10
44.3112597944126
20
-4.29442552933625
30
0
41
1
10
45.211242634331
20
-4.39795712346356
30
0
41
1
10
45.6604577623111
20
-4.42881804376213
30
0
41
1
10
46.5602126418033
20
-4.44800981310206
30
0
41
1
10
47.0107898750036
20
-4.43599421207546
30
0
41
1
10
47.4633770322565
20
-4.40290115207182
30
0
0
SPLINE
5
D5
100
AcDbEntity
8
1
62
256
6
ByLayer
370
18
48
1
60
0
100
AcDbSpline
70
4
71
3
72
18
73
14
40
0
40
0
40
0
40
0
40
0.250000000000003
40
0.250000000000003
40
0.375000000000001
40
0.375000000000001
40
0.5
40
0.5
40
0.749999999999996
40
0.749999999999996
40
0.874999999999998
40
0.874999999999998
40
1
40
1
40
1
40
1
41
1
10
48.3420117099311
20
2.22020965103931
30
0
41
1
10
48.2726326767598
20
2.40646773212384
30
0
41
1
10
48.2031956694785
20
2.5927417346478
30
0
41
1
10
48.0987123690939
20
2.87142841657291
30
0
41
1
10
48.0638351562636
20
2.96421159057528
30
0
41
1
10
47.9939772371481
20
3.14954270674622
30
0
41
1
10
47.9589537633005
20
3.24199344187767
30
0
41
1
10
47.8538569157394
20
3.51928558317619
30
0
41
1
10
47.7837026601928
20
3.70417752880528
30
0
41
1
10
47.6780978849412
20
3.9787587408704
30
0
41
1
10
47.6428420504748
20
4.06991410926264
30
0
41
1
10
47.5722879344572
20
4.25193397420327
30
0
41
1
10
47.5369705272426
20
4.34266741070238
30
0
41
1
10
47.5015347040709
20
4.43258939293673
30
0
0
SPLINE
5
D6
100
AcDbEntity
8
1
62
256
6
ByLayer
370
13
48
1
60
0
100
AcDbSpline
70
4
71
3
72
21
73
17
40
0
40
0
40
0
40
0
40
0.213252675501657
40
0.213252675501657
40
0.319879013252486
40
0.319879013252486
40
0.426505351003314
40
0.533131688754143
40
0.533131688754143
40
0.639758026504972
40
0.639758026504972
40
0.85301070200663
40
0.85301070200663
40
0.959637039757458
40
0.959637039757458
40
1
40
1
40
1
40
1
41
1
10
4.25027822058067
20
2.47606016998267
30
0
41
1
10
4.25030675835441
20
2.71884747522478
30
0
41
1
10
4.2503239330768
20
2.94146946741208
30
0
41
1
10
4.2503398790688
20
3.24538092980231
30
0
41
1
10
4.25034352073118
20
3.34123183406996
30
0
41
1
10
4.25034864868775
20
3.51935126651517
30
0
41
1
10
4.25035167061006
20
3.68480615554495
30
0
41
1
10
4.25035289747882
20
3.82523663318136
30
0
41
1
10
4.25035434631781
20
3.95291457008719
30
0
41
1
10
4.25035519204306
20
4.0105795680264
30
0
41
1
10
4.25035955858465
20
4.16056102025357
30
0
41
1
10
4.25036497858889
20
4.23130290149911
30
0
41
1
10
4.25038130012194
20
4.29408080301343
30
0
41
1
10
4.25038811429494
20
4.3077437419584
30
0
41
1
10
4.25039966469944
20
4.31607958771275
30
0
41
1
10
4.25040305215958
20
4.31727908426563
30
0
41
1
10
4.25040666003471
20
4.31739113412553
30
0
0
SPLINE
5
D7
100
AcDbEntity
8
1
62
256
6
ByLayer
370
18
48
1
60
0
100
AcDbSpline
70
4
71
3
72
22
73
18
40
0
40
0
40
0
40
0
40
0.167154174949467
40
0.167154174949467
40
0.334308349898935
40
0.334308349898935
40
0.501462524848403
40
0.501462524848403
40
0.585039612323138
40
0.585039612323138
40
0.668616699797873
40
0.668616699797873
40
0.752193787272608
40
0.752193787272608
40
0.835770874747343
40
0.835770874747343
40
1
40
1
40
1
40
1
41
1
10
14.5120803377277
20
-3.2358080952406
30
0
41
1
10
14.8560988211928
20
-3.3739409488762
30
0
41
1
10
15.2002995744248
20
-3.50122510985693
30
0
41
1
10
15.8876461636846
20
-3.73638718493791
30
0
41
1
10
16.2301762788032
20
-3.84471915617382
30
0
41
1
10
16.917877443653
20
-4.03799970349004
30
0
41
1
10
17.2633117787408
20
-4.12353954497326
30
0
41
1
10
17.7787861175608
20
-4.2348418504973
30
0
41
1
10
17.9502892432389
20
-4.26904713559108
30
0
41
1
10
18.2937831354827
20
-4.33104770100263
30
0
41
1
10
18.465605422986
20
-4.35896045152805
30
0
41
1
10
18.809247783939
20
-4.40873394479297
30
0
41
1
10
18.9810710377889
20
-4.43059310356873
30
0
41
1
10
19.324580111372
20
-4.46823525753695
30
0
41
1
10
19.4961350644143
20
-4.4840341844349
30
0
41
1
10
20.0062548432763
20
-4.52128591755374
30
0
41
1
10
20.3451946803403
20
-4.5336812761571
30
0
41
1
10
20.6827529151307
20
-4.53390875604816
30
0
0
SPLINE
5
D8
100
AcDbEntity
8
1
62
256
6
ByLayer
370
18
48
1
60
0
100
AcDbSpline
70
4
71
3
72
26
73
22
40
0
40
0
40
0
40
0
40
0.083649827605014
40
0.083649827605014
40
0.214556995090013
40
0.214556995090013
40
0.345464162575012
40
0.345464162575012
40
0.476371330060011
40
0.476371330060011
40
0.60727849754501
40
0.60727849754501
40
0.738185665030009
40
0.738185665030009
40
0.803639248772507
40
0.803639248772507
40
0.869092832515005
40
0.869092832515005
40
0.934546416257502
40
0.934546416257502
40
1
40
1
40
1
40
1
41
1
10
39.6286260224807
20
3.29020980468394
30
0
41
1
10
39.848058303374
20
3.37654655321555
30
0
41
1
10
40.0675453405418
20
3.45894078443243
30
0
41
1
10
40.6301821019933
20
3.66079216974885
30
0
41
1
10
40.9730857278502
20
3.77500001282735
30
0
41
1
10
41.6619735637804
20
3.98019686163269
30
0
41
1
10
42.0056850322099
20
4.07164048732434
30
0
41
1
10
42.6910387145694
20
4.23248097473922
30
0
41
1
10
43.0344517639415
20
4.30061843634988
30
0
41
1
10
43.721857396001
20
4.41322894319427
30
0
41
1
10
44.065640921031
20
4.4578743397455
30
0
41
1
10
44.7531961458611
20
4.52109369696493
30
0
41
1
10
45.0969289412827
20
4.54009859732705
30
0
41
1
10
45.6116308487693
20
4.54970475828679
30
0
41
1
10
45.7830346921725
20
4.54971286066865
30
0
41
1
10
46.1267857828584
20
4.54336177086697
30
0
41
1
10
46.2991005720761
20
4.5370122492001
30
0
41
1
10
46.6434093650456
20
4.51801023545664
30
0
41
1
10
46.8153644151165
20
4.50536749903259
30
0
41
1
10
47.158706303759
20
4.47372181586502
30
0
41
1
10
47.3299811208728
20
4.45465871910704
30
0
41
1
10
47.5015347040502
20
4.43258939295632
30
0
0
SPLINE
5
D9
100
AcDbEntity
8
SK1
62
256
6
ByLayer
370
18
48
1
60
0
100
AcDbSpline
70
4
71
3
72
10
73
6
40
0
40
0
40
0
40
0
40
0.5
40
0.5
40
1
40
1
40
1
40
1
41
1
10
-40
20
0.0773628614437882
30
0
41
1
10
-39.8300550395376
20
0.219825282066495
30
0
41
1
10
-39.6562362217553
20
0.361372990739852
30
0
41
1
10
-39.3053142529543
20
0.643692897114221
30
0
41
1
10
-39.1281046064878
20
0.78443994864935
30
0
41
1
10
-38.95
20
0.924975678352524
30
0
0
SPLINE
5
DA
100
AcDbEntity
8
SK1
62
256
6
ByLayer
370
18
48
1
60
0
100
AcDbSpline
70
4
71
3
72
10
73
6
40
0
40
0
40
0
40
0
40
0.5
40
0.5
40
1
40
1
40
1
40
1
41
1
10
-38.95
20
3.17000614809462
30
0
41
1
10
-39.1281021891728
20
3.02947232580499
30
0
41
1
10
-39.3053148246314
20
2.88872291224044
30
0
41
1
10
-39.6562371270631
20
2.60640272685009
30
0
41
1
10
-39.8300558091376
20
2.46485510666406
30
0
41
1
10
-40
20
2.32239333118591
30
0
0
SPLINE
5
DB
100
AcDbEntity
8
SK1
62
256
6
ByLayer
370
18
48
1
60
0
100
AcDbSpline
70
4
71
3
72
14
73
10
40
0
40
0
40
0
40
0
40
0.125
40
0.125
40
0.249999999999999
40
0.249999999999999
40
0.5
40
0.5
40
1
40
1
40
1
40
1
41
1
10
-38.85
20
3.16990934071058
30
0
41
1
10
-38.85
20
3.17843224361874
30
0
41
1
10
-38.8517453396944
20
3.18487815317275
30
0
41
1
10
-38.8568901241517
20
3.19423716920176
30
0
41
1
10
-38.860211966304
20
3.19723334125115
30
0
41
1
10
-38.8714485682308
20
3.20336702311226
30
0
41
1
10
-38.8802054040538
20
3.2035248563979
30
0
41
1
10
-38.9082792076556
20
3.19813843692603
30
0
41
1
10
-38.9286347141248
20
3.18686470161543
30
0
41
1
10
-38.95
20
3.17000614809462
30
0
0
SPLINE
5
DC
100
AcDbEntity
8
SK1
62
256
6
ByLayer
370
18
48
1
60
0
100
AcDbSpline
70
4
71
3
72
14
73
10
40
0
40
0
40
0
40
0
40
0.500000000000002
40
0.500000000000002
40
0.75
40
0.75
40
0.875
40
0.875
40
1
40
1
40
1
40
1
41
1
10
-38.9500000000001
20
0.924975678352439
30
0
41
1
10
-38.9287234691649
20
0.941764198567796
30
0
41
1
10
-38.9083432483059
20
0.964033750190765
30
0
41
1
10
-38.880223151313
20
1.00772221265663
30
0
41
1
10
-38.8713218079587
20
1.02401231125916
30
0
41
1
10
-38.8602667834558
20
1.05150800983364
30
0
41
1
10
-38.8569157654531
20
1.06130376180633
30
0
41
1
10
-38.851744720606
20
1.08244225565423
30
0
41
1
10
-38.8499999999999
20
1.09369630192532
30
0
41
1
10
-38.8499999999999
20
1.10448130854783
30
0
0
LINE
5
76
100
AcDbEntity
8
81
62
256
6
ByLayer
370
18
48
1
60
0
100
AcDbLine
10
49
20
0
30
0
11
54
21
0
31
0
39
0
210
0
220
0
230
1
0
LINE
5
77
100
AcDbEntity
8
1
62
256
6
ByLayer
370
18
48
1
60
0
100
AcDbLine
10
4.003808
20
4.523901
30
0
11
1.140964
21
4.522184
31
0
39
0
210
0
220
0
230
1
0
LINE
5
79
100
AcDbEntity
8
1
62
256
6
ByLayer
370
18
48
1
60
0
100
AcDbLine
10
21.404724
20
4.534342
30
0
11
20.68209
21
4.533908
31
0
39
0
210
0
220
0
230
1
0
LINE
5
7A
100
AcDbEntity
8
1
62
256
6
ByLayer
370
18
48
1
60
0
100
AcDbLine
10
46.404753
20
4.549342
30
0
11
45.690489
21
4.548913
31
0
39
0
210
0
220
0
230
1
0
LINE
5
7B
100
AcDbEntity
8
1
62
256
6
ByLayer
370
18
48
1
60
0
100
AcDbLine
10
45.690489
20
-4.548913
30
0
11
46.404719
21
-4.549342
31
0
39
0
210
0
220
0
230
1
0
LINE
5
7C
100
AcDbEntity
8
1
62
256
6
ByLayer
370
18
48
1
60
0
100
AcDbLine
10
20.68209
20
-4.533908
30
0
11
21.404971
21
-4.534342
31
0
39
0
210
0
220
0
230
1
0
LINE
5
7D
100
AcDbEntity
8
1
62
256
6
ByLayer
370
18
48
1
60
0
100
AcDbLine
10
1.140964
20
-4.522184
30
0
11
4.003808
21
-4.523901
31
0
39
0
210
0
220
0
230
1
0
LINE
5
7E
100
AcDbEntity
8
SK1
62
256
6
ByLayer
370
18
48
1
60
0
100
AcDbLine
10
-38.845299
20
5
30
0
11
-40
21
3
31
0
39
0
210
0
220
0
230
1
0
LINE
5
80
100
AcDbEntity
8
SK1
62
256
6
ByLayer
370
18
48
1
60
0
100
AcDbLine
10
-40
20
-3
30
0
11
-38.845299
21
-5
31
0
39
0
210
0
220
0
230
1
0
LINE
5
81
100
AcDbEntity
8
SK1
62
256
6
ByLayer
370
18
48
1
60
0
100
AcDbLine
10
0
20
5
30
0
11
-38.845299
21
5
31
0
39
0
210
0
220
0
230
1
0
LINE
5
82
100
AcDbEntity
8
SK1
62
256
6
ByLayer
370
18
48
1
60
0
100
AcDbLine
10
-38.845299
20
-5
30
0
11
0
21
-5
31
0
39
0
210
0
220
0
230
1
0
LINE
5
83
100
AcDbEntity
8
4
62
256
6
ByLayer
370
18
48
0.05
60
0
100
AcDbLine
10
49
20
0
30
0
11
0
21
0
31
0
39
0
210
0
220
0
230
1
0
LINE
5
85
100
AcDbEntity
8
SK4
62
256
6
ByLayer
370
18
48
0.05
60
0
100
AcDbLine
10
54
20
0
30
0
11
-45
21
0
31
0
39
0
210
0
220
0
230
1
0
LINE
5
87
100
AcDbEntity
8
80
62
256
6
ByLayer
370
18
48
1
60
0
100
AcDbLine
10
0
20
0
30
0
11
-5
21
0
31
0
39
0
210
0
220
0
230
1
0
LINE
5
88
100
AcDbEntity
8
1
62
256
6
ByLayer
370
18
48
1
60
0
100
AcDbLine
10
46.7297
20
-2.365719
30
0
11
48.894615
21
-0.129332
31
0
39
0
210
0
220
0
230
1
0
LINE
5
89
100
AcDbEntity
8
1
62
256
6
ByLayer
370
18
48
1
60
0
100
AcDbLine
10
49
20
0
30
0
11
48.991069
21
-0.044461
31
0
39
0
210
0
220
0
230
1
0
LINE
5
8A
100
AcDbEntity
8
1
62
256
6
ByLayer
370
18
48
1
60
0
100
AcDbLine
10
48.91476
20
-0.306723
30
0
11
48.777018
21
-0.853056
31
0
39
0
210
0
220
0
230
1
0
LINE
5
8B
100
AcDbEntity
8
1
62
256
6
ByLayer
370
18
48
1
60
0
100
AcDbLine
10
49
20
0
30
0
11
47.419303
21
-4.34293
31
0
39
0
210
0
220
0
230
1
0
LINE
5
8C
100
AcDbEntity
8
1
62
256
6
ByLayer
370
18
48
1
60
0
100
AcDbLine
10
48.991069
20
0.044461
30
0
11
49
21
0
31
0
39
0
210
0
220
0
230
1
0
LINE
5
8D
100
AcDbEntity
8
1
62
256
6
ByLayer
370
13
48
1
60
0
100
AcDbLine
10
1.140964
20
4.522184
30
0
11
1.140964
21
-4.522184
31
0
39
0
210
0
220
0
230
1
0
LINE
5
8E
100
AcDbEntity
8
1
62
256
6
ByLayer
370
13
48
1
60
0
100
AcDbLine
10
47.993974
20
0.853056
30
0
11
48.91476
21
0.306723
31
0
39
0
210
0
220
0
230
1
0
LINE
5
8F
100
AcDbEntity
8
1
62
256
6
ByLayer
370
13
48
1
60
0
100
AcDbLine
10
47.804067
20
0.517726
30
0
11
48.894615
21
-0.129332
31
0
39
0
210
0
220
0
230
1
0
LINE
5
90
100
AcDbEntity
8
1
62
256
6
ByLayer
370
18
48
1
60
0
100
AcDbLine
10
48.91476
20
0.306723
30
0
11
48.777018
21
0.853056
31
0
39
0
210
0
220
0
230
1
0
LINE
5
91
100
AcDbEntity
8
1
62
256
6
ByLayer
370
13
48
1
60
0
100
AcDbLine
10
0.570242
20
4.761092
30
0
11
0.570242
21
-4.761092
31
0
39
0
210
0
220
0
230
1
0
LINE
5
92
100
AcDbEntity
8
1
62
256
6
ByLayer
370
13
48
1
60
0
100
AcDbLine
10
48.777018
20
0.853056
30
0
11
47.993974
21
0.853056
31
0
39
0
210
0
220
0
230
1
0
LINE
5
93
100
AcDbEntity
8
1
62
256
6
ByLayer
370
18
48
1
60
0
100
AcDbLine
10
0
20
-5
30
0
11
0
21
5
31
0
39
0
210
0
220
0
230
1
0
LINE
5
94
100
AcDbEntity
8
SK1
62
256
6
ByLayer
370
18
48
1
60
0
100
AcDbLine
10
0
20
-5
30
0
11
0
21
5
31
0
39
0
210
0
220
0
230
1
0
LINE
5
95
100
AcDbEntity
8
SK1
62
256
6
ByLayer
370
13
48
1
60
0
100
AcDbLine
10
-38.95
20
3.170006
30
0
11
-38.95
21
0.924996
31
0
39
0
210
0
220
0
230
1
0
LINE
5
96
100
AcDbEntity
8
SK1
62
256
6
ByLayer
370
18
48
1
60
0
100
AcDbLine
10
-40
20
0.077363
30
0
11
-40
21
-3
31
0
39
0
210
0
220
0
230
1
0
LINE
5
97
100
AcDbEntity
8
SK1
62
256
6
ByLayer
370
18
48
1
60
0
100
AcDbLine
10
-38.845299
20
5
30
0
11
-38.845299
21
-5
31
0
39
0
210
0
220
0
230
1
0
LINE
5
98
100
AcDbEntity
8
SK1
62
256
6
ByLayer
370
18
48
1
60
0
100
AcDbLine
10
-40
20
3
30
0
11
-40
21
2.322393
31
0
39
0
210
0
220
0
230
1
0
LINE
5
99
100
AcDbEntity
8
SK1
62
256
6
ByLayer
370
18
48
1
60
0
100
AcDbLine
10
-40
20
2.322393
30
0
11
-40
21
0.077384
31
0
39
0
210
0
220
0
230
1
0
LINE
5
9A
100
AcDbEntity
8
SK1
62
256
6
ByLayer
370
18
48
1
60
0
100
AcDbLine
10
-38.85
20
1.104481
30
0
11
-38.85
21
3.169909
31
0
39
0
210
0
220
0
230
1
0
MTEXT
5
DD
100
AcDbEntity
8
SK6
62
256
6
ByLayer
370
13
48
1
60
0
100
AcDbMText
10
6.629169
20
36.932694
30
0
210
0
220
0
230
1
1
\W0.7415;R840-0910-30-A1A1220
40
3.5
41
0
44
1.084337
50
0
71
8
72
5
7
iso_b_vert
0
DIMENSION
5
EA
100
AcDbEntity
8
SK2
62
256
6
ByLayer
370
13
48
1
60
0
100
AcDbDimension
2
DimnDraft3D1
10
47.45
20
-14.763398
30
0
11
22.200059
21
-14.763398
31
0
70
32
71
5
72
1
41
1
210
0
220
0
230
1
3
Standard
100
AcDbAlignedDimension
13
0
23
-1.5875
33
0
14
47.45
24
-6.1375
34
0
50
0
100
AcDbRotatedDimension
1001
ACAD
1000
DSTYLE
1002
{
1070
   279
1070
     0
1070
   172
1070
     1
1070
   173
1070
     1
1070
   340
1005
DE
1070
   271
1070
     2
1070
   272
1070
     2
1070
    77
1070
     1
1070
    73
1070
     0
1070
   171
1070
     3
1070
   274
1070
     4
1070
   177
1070
    35
1070
   176
1070
    35
1070
   178
1070
    35
1070
    48
1040
-0.005
1070
    41
1041
3.5
1070
   147
1041
1.75
1070
    42
1041
1.5875
1070
    44
1041
2.0
1070
   140
1041
3.5
1070
   343
1005
0
1070
   344
1005
0
1002
}
0
DIMENSION
5
F4
100
AcDbEntity
8
SK2
62
256
6
ByLayer
370
13
48
1
60
0
100
AcDbDimension
2
DimnDraft3D2
10
49
20
-33.692985
30
0
11
4.2913
21
-33.692985
31
0
70
32
71
5
72
1
41
1
210
0
220
0
230
1
3
Standard
100
AcDbAlignedDimension
13
-40
23
-6.5875
33
0
14
49
24
-1.5875
34
0
50
0
100
AcDbRotatedDimension
1001
ACAD
1000
DSTYLE
1002
{
1070
   279
1070
     0
1070
   172
1070
     1
1070
   173
1070
     1
1070
   340
1005
DE
1070
   271
1070
     2
1070
   272
1070
     2
1070
    77
1070
     1
1070
    73
1070
     0
1070
   171
1070
     3
1070
   274
1070
     4
1070
   177
1070
    35
1070
   176
1070
    35
1070
   178
1070
    35
1070
    48
1040
-0.005
1070
    41
1041
3.5
1070
   147
1041
1.75
1070
    42
1041
1.5875
1070
    44
1041
2.0
1070
   140
1041
3.5
1070
   343
1005
0
1070
   344
1005
0
1002
}
0
DIMENSION
5
FE
100
AcDbEntity
8
SK2
62
256
6
ByLayer
370
13
48
1
60
0
100
AcDbDimension
2
DimnDraft3D3
10
49
20
16.159119
30
0
11
34.575
21
16.159119
31
0
70
32
71
5
72
1
41
1
210
0
220
0
230
1
3
Standard
100
AcDbAlignedDimension
13
20.15
23
6.1375
33
0
14
49
24
1.5875
34
0
50
0
100
AcDbRotatedDimension
1001
ACAD
1000
DSTYLE
1002
{
1070
   279
1070
     0
1070
   172
1070
     1
1070
   173
1070
     1
1070
   340
1005
DE
1070
   271
1070
     2
1070
   272
1070
     2
1070
    77
1070
     1
1070
    73
1070
     0
1070
   171
1070
     3
1070
   274
1070
     4
1070
   177
1070
    35
1070
   176
1070
    35
1070
   178
1070
    35
1070
    48
1040
-0.005
1070
    41
1041
3.5
1070
   147
1041
1.75
1070
    42
1041
1.5875
1070
    44
1041
2.0
1070
   140
1041
3.5
1070
   343
1005
0
1070
   344
1005
0
1002
}
0
DIMENSION
5
108
100
AcDbEntity
8
SK2
62
256
6
ByLayer
370
13
48
1
60
0
100
AcDbDimension
2
DimnDraft3D4
10
47.45
20
-17.352503
30
0
11
58.981425
21
-17.352503
31
0
70
32
71
5
72
1
41
1
210
0
220
0
230
1
3
Standard
100
AcDbAlignedDimension
13
49
23
-1.5875
33
0
14
47.45
24
-6.1375
34
0
50
0
100
AcDbRotatedDimension
1001
ACAD
1000
DSTYLE
1002
{
1070
   279
1070
     0
1070
   172
1070
     1
1070
   173
1070
     1
1070
   340
1005
DE
1070
   271
1070
     2
1070
   272
1070
     2
1070
    77
1070
     1
1070
    73
1070
     0
1070
   171
1070
     3
1070
   274
1070
     4
1070
   177
1070
    35
1070
   176
1070
    35
1070
   178
1070
    35
1070
    48
1040
-0.005
1070
    41
1041
3.5
1070
   147
1041
1.75
1070
    42
1041
1.5875
1070
    44
1041
2.0
1070
   140
1041
3.5
1070
   343
1005
0
1070
   344
1005
0
1002
}
0
DIMENSION
5
112
100
AcDbEntity
8
SK2
62
256
6
ByLayer
370
13
48
1
60
0
100
AcDbDimension
2
DimnDraft3D5
10
47.45
20
-23.343428
30
0
11
1.210676
21
-23.343428
31
0
70
32
71
5
72
1
41
1
210
0
220
0
230
1
3
Standard
100
AcDbAlignedDimension
13
-40
23
-6.5875
33
0
14
47.45
24
-6.1375
34
0
50
0
100
AcDbRotatedDimension
1001
ACAD
1000
DSTYLE
1002
{
1070
   279
1070
     0
1070
   172
1070
     1
1070
   173
1070
     1
1070
   340
1005
DE
1070
   271
1070
     2
1070
   272
1070
     2
1070
    77
1070
     1
1070
    73
1070
     0
1070
   171
1070
     3
1070
   274
1070
     4
1070
   177
1070
    35
1070
   176
1070
    35
1070
   178
1070
    35
1070
    48
1040
-0.005
1070
    41
1041
3.5
1070
   147
1041
1.75
1070
    42
1041
1.5875
1070
    44
1041
2.0
1070
   140
1041
3.5
1070
   343
1005
0
1070
   344
1005
0
1002
}
0
DIMENSION
5
11D
100
AcDbEntity
8
SK2
62
256
6
ByLayer
370
13
48
1
60
0
100
AcDbDimension
2
DimnDraft3D6
10
-50.625163
20
5
30
0
11
-51.250163
21
23.47418
31
0
70
33
71
5
72
1
41
1
210
0
220
0
230
1
3
Standard
100
AcDbAlignedDimension
13
-41.5875
23
-5
33
0
14
-41.5875
24
5
34
0
1001
ACAD
1000
DSTYLE
1002
{
1070
   279
1070
     0
1070
    74
1070
     0
1070
   173
1070
     1
1070
   340
1005
DE
1070
   271
1070
     3
1070
   272
1070
     2
1070
    77
1070
     1
1070
    73
1070
     0
1070
   171
1070
     3
1070
   274
1070
     4
1070
   177
1070
    35
1070
   176
1070
    35
1070
   178
1070
    35
1070
    48
1040
-0.005
1070
    41
1041
3.5
1070
   147
1041
1.75
1070
    42
1041
1.5875
1070
    44
1041
2.0
1070
   140
1041
3.5
1070
   343
1005
0
1070
   344
1005
0
1002
}
0
DIMENSION
5
128
100
AcDbEntity
8
2
62
256
6
ByLayer
370
13
48
1
60
0
100
AcDbDimension
2
DimnDraft3D7
10
63.083343
20
4.55
30
0
11
58.458343
21
21.617266
31
0
70
33
71
5
72
1
41
1
210
0
220
0
230
1
3
Standard
100
AcDbAlignedDimension
13
49.0375
23
-4.55
33
0
14
49.0375
24
4.55
34
0
1001
ACAD
1000
DSTYLE
1002
{
1070
   279
1070
     0
1070
    74
1070
     0
1070
   173
1070
     1
1070
   340
1005
DE
1070
   271
1070
     3
1070
   272
1070
     2
1070
    77
1070
     1
1070
    73
1070
     0
1070
   171
1070
     3
1070
   274
1070
     4
1070
   177
1070
    35
1070
   176
1070
    35
1070
   178
1070
    35
1070
    48
1040
-0.005
1070
    41
1041
3.5
1070
   147
1041
1.75
1070
    42
1041
1.5875
1070
    44
1041
2.0
1070
   140
1041
3.5
1070
   343
1005
0
1070
   344
1005
0
1002
}
0
ENDSEC
0
SECTION
2
OBJECTS
0
DICTIONARY
5
193
330
0
100
AcDbDictionary
280
0
281
1
3
ACAD_GROUP
350
194
3
ACAD_MLINESTYLE
350
195
0
DICTIONARY
5
194
330
0
100
AcDbDictionary
280
0
281
1
0
DICTIONARY
5
195
330
0
100
AcDbDictionary
280
0
281
1
3
Standard
350
18
0
MLINESTYLE
5
18
330
195
100
AcDbMlineStyle
2
Standard
70
0
3

62
256
51
90
52
90
71
2
49
-0.5
62
256
6
ByLayer
49
0.5
62
256
6
ByLayer
0
RASTERVARIABLES
5
181
330

100
AcDbRasterVariables
90
0
70
1
71
1
72
1
0
ENDSEC
0
EOF
