0
SECTION
2
HEADER
9
$ACADVER
1
AC1015
9
$DWGCODEPAGE
3
ANSI_1252
9
$HANDSEED
5
1a3
9
$ANGBASE
50
0
9
$ANGDIR
70
0
9
$ATTMODE
70
1
9
$AUNITS
70
0
9
$AUPREC
70
0
9
$CECOLOR
62
256
9
$CELTSCALE
40
1
9
$CELTYPE
6
ByLayer
9
$CELWEIGHT
370
18
9
$CLAYER
8
0
9
$CMLJUST
70
0
9
$CMLSCALE
40
1
9
$CMLSTYLE
2
Standard
9
$DIMSTYLE
2
Standard
9
$TEXTSIZE
40
0.2
9
$TEXTSTYLE
7
Standard
9
$LUNITS
70
2
9
$LUPREC
70
4
9
$EXTNAMES
290
1
9
$INSUNITS
70
4
9
$LTSCALE
40
1
9
$LWDISPLAY
290
1
9
$PDMODE
70
0
9
$PDSIZE
40
0
9
$PLINEGEN
70
0
0
ENDSEC
0
SECTION
2
CLASSES
0
CLASS
1
RASTERVARIABLES
2
AcDbRasterVariables
3
ISM
90
0
280
0
281
0
0
ENDSEC
0
SECTION
2
TABLES
0
TABLE
2
VPORT
5
199
100
AcDbSymbolTable
0
VPORT
5
1
100
AcDbSymbolTableRecord
100
AcDbViewportTableRecord
2
*Active
70
0
10
0
20
0
11
1
21
1
12
-1
22
1
13
0
23
0
14
0.5
24
0.5
15
10
25
10
16
0
26
0
36
1
17
0
27
0
37
0
0
ENDTAB
0
TABLE
2
LTYPE
5
19a
100
AcDbSymbolTable
0
LTYPE
5
14
100
AcDbSymbolTableRecord
100
AcDbLinetypeTableRecord
70
0
2
ByBlock
3

72
65
73
0
40
0
0
LTYPE
5
15
100
AcDbSymbolTableRecord
100
AcDbLinetypeTableRecord
70
0
2
ByLayer
3

72
65
73
0
40
0
0
LTYPE
5
16
100
AcDbSymbolTableRecord
100
AcDbLinetypeTableRecord
70
0
2
CONTINUOUS
3
Solid line
72
65
73
0
40
0
0
LTYPE
5
6A
100
AcDbSymbolTableRecord
100
AcDbLinetypeTableRecord
70
0
2
CENTER
3
____ _ ____ _ ____ _ ____
72
65
73
4
40
47.5
49
22
74
0
49
-8.5
74
0
49
8.5
74
0
49
-8.5
74
0
0
LTYPE
5
6B
100
AcDbSymbolTableRecord
100
AcDbLinetypeTableRecord
70
0
2
DASHED
3
__ __ __ __ __ __ __ __ __
72
65
73
2
40
25.72
49
12.86
74
0
49
-12.86
74
0
0
ENDTAB
0
TABLE
2
LAYER
5
19b
100
AcDbSymbolTable
0
LAYER
5
10
100
AcDbSymbolTableRecord
100
AcDbLayerTableRecord
2
0
70
0
62
7
6
CONTINUOUS
290
1
370
-3
390
0
0
LAYER
5
6D
100
AcDbSymbolTableRecord
100
AcDbLayerTableRecord
2
81
70
0
62
-3
6
CONTINUOUS
290
1
370
-3
390
0
0
LAYER
5
6F
100
AcDbSymbolTableRecord
100
AcDbLayerTableRecord
2
80
70
0
62
-6
6
CONTINUOUS
290
1
370
-3
390
0
0
LAYER
5
74
100
AcDbSymbolTableRecord
100
AcDbLayerTableRecord
2
2
70
0
62
7
6
CONTINUOUS
290
1
370
-3
390
0
0
LAYER
5
78
100
AcDbSymbolTableRecord
100
AcDbLayerTableRecord
2
1
70
0
62
4
6
CONTINUOUS
290
1
370
-3
390
0
0
LAYER
5
84
100
AcDbSymbolTableRecord
100
AcDbLayerTableRecord
2
4
70
0
62
-2
6
CENTER
290
1
370
-3
390
0
0
LAYER
5
185
100
AcDbSymbolTableRecord
100
AcDbLayerTableRecord
2
SK2
70
0
62
7
6
CONTINUOUS
290
1
370
-3
390
0
0
LAYER
5
186
100
AcDbSymbolTableRecord
100
AcDbLayerTableRecord
2
SK1
70
0
62
4
6
CONTINUOUS
290
1
370
-3
390
0
0
LAYER
5
187
100
AcDbSymbolTableRecord
100
AcDbLayerTableRecord
2
SK4
70
0
62
2
6
CENTER
290
1
370
-3
390
0
0
LAYER
5
188
100
AcDbSymbolTableRecord
100
AcDbLayerTableRecord
2
SK6
70
0
62
5
6
CONTINUOUS
290
1
370
-3
390
0
0
ENDTAB
0
TABLE
2
STYLE
5
19c
100
AcDbSymbolTable
0
STYLE
5
11
100
AcDbSymbolTableRecord
100
AcDbTextStyleTableRecord
2
Standard
3
txt
70
0
71
0
40
0
41
1
42
0
50
0
0
STYLE
5
E1
100
AcDbSymbolTableRecord
100
AcDbTextStyleTableRecord
2
iso_b_vert
3
simplex.shx
70
0
71
0
40
0
41
1
42
0
50
0
0
STYLE
5
E2
100
AcDbSymbolTableRecord
100
AcDbTextStyleTableRecord
2
DWGDirectTextStyle
3
simplex
70
0
71
0
40
0
41
1
42
0
50
0
0
ENDTAB
0
TABLE
2
DIMSTYLE
5
19d
100
AcDbSymbolTable
100
AcDbDimStyleTable
0
DIMSTYLE
105
27
100
AcDbSymbolTableRecord
100
AcDbDimStyleTableRecord
2
Standard
70
0
3
<>
41
0.18
42
0.0625
44
0.18
140
0.18
147
0.09
73
0
74
0
77
1
271
2
275
0
278
52
280
0
340
11
0
ENDTAB
0
TABLE
2
VIEW
5
19e
100
AcDbSymbolTable
0
ENDTAB
0
TABLE
2
UCS
5
19f
100
AcDbSymbolTable
0
ENDTAB
0
TABLE
2
APPID
5
1a0
100
AcDbSymbolTable
0
APPID
5
12
100
AcDbSymbolTableRecord
100
AcDbRegAppTableRecord
2
ACAD
70
0
0
ENDTAB
0
TABLE
2
BLOCK_RECORD
5
1a1
100
AcDbSymbolTable
0
BLOCK_RECORD
5
1F
100
AcDbSymbolTableRecord
100
AcDbBlockTableRecord
2
*Model_Space
340
0
70
0
0
BLOCK_RECORD
5
1B
100
AcDbSymbolTableRecord
100
AcDbBlockTableRecord
2
*Paper_Space
340
0
70
0
0
BLOCK_RECORD
5
23
100
AcDbSymbolTableRecord
100
AcDbBlockTableRecord
2
*Paper_Space0
340
0
70
0
0
BLOCK_RECORD
5
E4
100
AcDbSymbolTableRecord
100
AcDbBlockTableRecord
2
DimnDraft3D1
340
0
70
0
0
BLOCK_RECORD
5
EE
100
AcDbSymbolTableRecord
100
AcDbBlockTableRecord
2
DimnDraft3D2
340
0
70
0
0
BLOCK_RECORD
5
F8
100
AcDbSymbolTableRecord
100
AcDbBlockTableRecord
2
DimnDraft3D3
340
0
70
0
0
BLOCK_RECORD
5
102
100
AcDbSymbolTableRecord
100
AcDbBlockTableRecord
2
DimnDraft3D4
340
0
70
0
0
BLOCK_RECORD
5
10C
100
AcDbSymbolTableRecord
100
AcDbBlockTableRecord
2
DimnDraft3D5
340
0
70
0
0
BLOCK_RECORD
5
116
100
AcDbSymbolTableRecord
100
AcDbBlockTableRecord
2
DimnDraft3D6
340
0
70
0
0
BLOCK_RECORD
5
121
100
AcDbSymbolTableRecord
100
AcDbBlockTableRecord
2
DimnDraft3D7
340
0
70
0
0
ENDTAB
0
ENDSEC
0
SECTION
2
BLOCKS
0
BLOCK
5
20
100
AcDbEntity
8
0
100
AcDbBlockBegin
2
*Model_Space
70
0
10
0
20
0
30
0
3
*Model_Space
0
ENDBLK
5
21
100
AcDbEntity
8
0
100
AcDbBlockEnd
0
BLOCK
5
1C
100
AcDbEntity
8
0
100
AcDbBlockBegin
2
*Paper_Space
70
0
10
0
20
0
30
0
3
*Paper_Space
0
ENDBLK
5
1D
100
AcDbEntity
8
0
100
AcDbBlockEnd
0
BLOCK
5
24
100
AcDbEntity
8
0
100
AcDbBlockBegin
2
*Paper_Space0
70
0
10
0
20
0
30
0
3
*Paper_Space0
0
ENDBLK
5
25
100
AcDbEntity
8
0
100
AcDbBlockEnd
0
BLOCK
5
EB
100
AcDbEntity
8
0
100
AcDbBlockBegin
2
DimnDraft3D1
70
0
10
0
20
0
30
0
3
DimnDraft3D1
0
MTEXT
5
E5
100
AcDbEntity
8
SK2
62
256
6
ByLayer
370
13
48
1
60
0
100
AcDbMText
10
17.392954
20
-13.838398
30
0
210
0
220
0
230
1
1
\W0.7845;47,46
40
3.5
41
0
44
1.084337
50
0
71
7
72
5
7
iso_b_vert
0
LINE
5
E6
100
AcDbEntity
8
SK2
62
256
6
ByLayer
370
13
48
1
60
0
100
AcDbLine
10
0
20
-1.5875
30
0
11
0
21
-16.713398
31
0
39
0
210
0
220
0
230
1
0
LINE
5
E7
100
AcDbEntity
8
SK2
62
256
6
ByLayer
370
13
48
1
60
0
100
AcDbLine
10
47.46
20
-6.0875
30
0
11
47.46
21
-16.713398
31
0
39
0
210
0
220
0
230
1
0
LINE
5
E8
100
AcDbEntity
8
SK2
62
256
6
ByLayer
370
13
48
1
60
0
100
AcDbLine
10
0
20
-14.713398
30
0
11
47.46
21
-14.713398
31
0
39
0
210
0
220
0
230
1
0
SOLID
5
E9
100
AcDbEntity
8
SK2
62
256
6
ByLayer
370
13
48
1
60
0
100
AcDbTrace
10
0
20
-14.713398
30
0
11
3.499998
21
-14.252615
31
0
12
3.500002
22
-15.174182
32
0
13
0
23
-14.713398
33
0
39
0
210
0
220
0
230
1
0
SOLID
5
EA
100
AcDbEntity
8
SK2
62
256
6
ByLayer
370
13
48
1
60
0
100
AcDbTrace
10
47.46
20
-14.713398
30
0
11
43.960002
21
-15.174182
31
0
12
43.959998
22
-14.252615
32
0
13
47.46
23
-14.713398
33
0
39
0
210
0
220
0
230
1
0
ENDBLK
5
EC
100
AcDbEntity
8
0
100
AcDbBlockEnd
0
BLOCK
5
F5
100
AcDbEntity
8
0
100
AcDbBlockBegin
2
DimnDraft3D2
70
0
10
0
20
0
30
0
3
DimnDraft3D2
0
MTEXT
5
EF
100
AcDbEntity
8
SK2
62
256
6
ByLayer
370
13
48
1
60
0
100
AcDbMText
10
-0.147384
20
-32.817985
30
0
210
0
220
0
230
1
1
\W0.7317;89,00
40
3.5
41
0
44
1.084337
50
0
71
7
72
5
7
iso_b_vert
0
LINE
5
F0
100
AcDbEntity
8
SK2
62
256
6
ByLayer
370
13
48
1
60
0
100
AcDbLine
10
-40
20
-6.5875
30
0
11
-40
21
-35.692985
31
0
39
0
210
0
220
0
230
1
0
LINE
5
F1
100
AcDbEntity
8
SK2
62
256
6
ByLayer
370
13
48
1
60
0
100
AcDbLine
10
49
20
-1.5875
30
0
11
49
21
-35.692985
31
0
39
0
210
0
220
0
230
1
0
LINE
5
F2
100
AcDbEntity
8
SK2
62
256
6
ByLayer
370
13
48
1
60
0
100
AcDbLine
10
-40
20
-33.692985
30
0
11
49
21
-33.692985
31
0
39
0
210
0
220
0
230
1
0
SOLID
5
F3
100
AcDbEntity
8
SK2
62
256
6
ByLayer
370
13
48
1
60
0
100
AcDbTrace
10
-40
20
-33.692985
30
0
11
-36.500002
21
-33.232202
31
0
12
-36.499998
22
-34.153769
32
0
13
-40
23
-33.692985
33
0
39
0
210
0
220
0
230
1
0
SOLID
5
F4
100
AcDbEntity
8
SK2
62
256
6
ByLayer
370
13
48
1
60
0
100
AcDbTrace
10
49
20
-33.692985
30
0
11
45.500002
21
-34.153769
31
0
12
45.499998
22
-33.232202
32
0
13
49
23
-33.692985
33
0
39
0
210
0
220
0
230
1
0
ENDBLK
5
F6
100
AcDbEntity
8
0
100
AcDbBlockEnd
0
BLOCK
5
FF
100
AcDbEntity
8
0
100
AcDbBlockBegin
2
DimnDraft3D3
70
0
10
0
20
0
30
0
3
DimnDraft3D3
0
MTEXT
5
F9
100
AcDbEntity
8
SK2
62
256
6
ByLayer
370
13
48
1
60
0
100
AcDbMText
10
30.097105
20
16.984119
30
0
210
0
220
0
230
1
1
\W0.7495;28,54
40
3.5
41
0
44
1.084337
50
0
71
7
72
5
7
iso_b_vert
0
LINE
5
FA
100
AcDbEntity
8
SK2
62
256
6
ByLayer
370
13
48
1
60
0
100
AcDbLine
10
20.46
20
6.0875
30
0
11
20.46
21
18.109119
31
0
39
0
210
0
220
0
230
1
0
LINE
5
FB
100
AcDbEntity
8
SK2
62
256
6
ByLayer
370
13
48
1
60
0
100
AcDbLine
10
49
20
1.5875
30
0
11
49
21
18.109119
31
0
39
0
210
0
220
0
230
1
0
LINE
5
FC
100
AcDbEntity
8
SK2
62
256
6
ByLayer
370
13
48
1
60
0
100
AcDbLine
10
20.46
20
16.109119
30
0
11
49
21
16.109119
31
0
39
0
210
0
220
0
230
1
0
SOLID
5
FD
100
AcDbEntity
8
SK2
62
256
6
ByLayer
370
13
48
1
60
0
100
AcDbTrace
10
20.46
20
16.109119
30
0
11
23.959998
21
16.569903
31
0
12
23.960002
22
15.648335
32
0
13
20.46
23
16.109119
33
0
39
0
210
0
220
0
230
1
0
SOLID
5
FE
100
AcDbEntity
8
SK2
62
256
6
ByLayer
370
13
48
1
60
0
100
AcDbTrace
10
49
20
16.109119
30
0
11
45.500002
21
15.648335
31
0
12
45.499998
22
16.569903
32
0
13
49
23
16.109119
33
0
39
0
210
0
220
0
230
1
0
ENDBLK
5
100
100
AcDbEntity
8
0
100
AcDbBlockEnd
0
BLOCK
5
109
100
AcDbEntity
8
0
100
AcDbBlockBegin
2
DimnDraft3D4
70
0
10
0
20
0
30
0
3
DimnDraft3D4
0
MTEXT
5
103
100
AcDbEntity
8
SK2
62
256
6
ByLayer
370
13
48
1
60
0
100
AcDbMText
10
56.093925
20
-16.427503
30
0
210
0
220
0
230
1
1
\W0.6611;1,54
40
3.5
41
0
44
1.084337
50
0
71
7
72
5
7
iso_b_vert
0
LINE
5
104
100
AcDbEntity
8
SK2
62
256
6
ByLayer
370
13
48
1
60
0
100
AcDbLine
10
49
20
-1.5875
30
0
11
49
21
-19.302503
31
0
39
0
210
0
220
0
230
1
0
LINE
5
105
100
AcDbEntity
8
SK2
62
256
6
ByLayer
370
13
48
1
60
0
100
AcDbLine
10
47.46
20
-6.0875
30
0
11
47.46
21
-19.302503
31
0
39
0
210
0
220
0
230
1
0
LINE
5
106
100
AcDbEntity
8
SK2
62
256
6
ByLayer
370
13
48
1
60
0
100
AcDbLine
10
38.71
20
-17.302503
30
0
11
62.743925
21
-17.302503
31
0
39
0
210
0
220
0
230
1
0
SOLID
5
107
100
AcDbEntity
8
SK2
62
256
6
ByLayer
370
13
48
1
60
0
100
AcDbTrace
10
49
20
-17.302503
30
0
11
52.499998
21
-16.841719
31
0
12
52.500002
22
-17.763287
32
0
13
49
23
-17.302503
33
0
39
0
210
0
220
0
230
1
0
SOLID
5
108
100
AcDbEntity
8
SK2
62
256
6
ByLayer
370
13
48
1
60
0
100
AcDbTrace
10
47.46
20
-17.302503
30
0
11
43.960002
21
-17.763287
31
0
12
43.959998
22
-16.841719
32
0
13
47.46
23
-17.302503
33
0
39
0
210
0
220
0
230
1
0
ENDBLK
5
10A
100
AcDbEntity
8
0
100
AcDbBlockEnd
0
BLOCK
5
113
100
AcDbEntity
8
0
100
AcDbBlockBegin
2
DimnDraft3D5
70
0
10
0
20
0
30
0
3
DimnDraft3D5
0
MTEXT
5
10D
100
AcDbEntity
8
SK2
62
256
6
ByLayer
370
13
48
1
60
0
100
AcDbMText
10
-3.412218
20
-22.468428
30
0
210
0
220
0
230
1
1
\W0.7581;87,46
40
3.5
41
0
44
1.084337
50
0
71
7
72
5
7
iso_b_vert
0
LINE
5
10E
100
AcDbEntity
8
SK2
62
256
6
ByLayer
370
13
48
1
60
0
100
AcDbLine
10
-40
20
-6.5875
30
0
11
-40
21
-25.343428
31
0
39
0
210
0
220
0
230
1
0
LINE
5
10F
100
AcDbEntity
8
SK2
62
256
6
ByLayer
370
13
48
1
60
0
100
AcDbLine
10
47.46
20
-6.0875
30
0
11
47.46
21
-25.343428
31
0
39
0
210
0
220
0
230
1
0
LINE
5
110
100
AcDbEntity
8
SK2
62
256
6
ByLayer
370
13
48
1
60
0
100
AcDbLine
10
-40
20
-23.343428
30
0
11
47.46
21
-23.343428
31
0
39
0
210
0
220
0
230
1
0
SOLID
5
111
100
AcDbEntity
8
SK2
62
256
6
ByLayer
370
13
48
1
60
0
100
AcDbTrace
10
-40
20
-23.343428
30
0
11
-36.500002
21
-22.882645
31
0
12
-36.499998
22
-23.804212
32
0
13
-40
23
-23.343428
33
0
39
0
210
0
220
0
230
1
0
SOLID
5
112
100
AcDbEntity
8
SK2
62
256
6
ByLayer
370
13
48
1
60
0
100
AcDbTrace
10
47.46
20
-23.343428
30
0
11
43.960002
21
-23.804212
31
0
12
43.959998
22
-22.882645
32
0
13
47.46
23
-23.343428
33
0
39
0
210
0
220
0
230
1
0
ENDBLK
5
114
100
AcDbEntity
8
0
100
AcDbBlockEnd
0
BLOCK
5
11E
100
AcDbEntity
8
0
100
AcDbBlockBegin
2
DimnDraft3D6
70
0
10
0
20
0
30
0
3
DimnDraft3D6
0
MTEXT
5
117
100
AcDbEntity
8
SK2
62
256
6
ByLayer
370
13
48
1
60
0
100
AcDbMText
10
-50.375163
20
24.34918
30
0
210
0
220
0
230
1
1
\W0.6930;10,000
40
3.5
41
0
44
1.084337
50
90
71
7
72
5
7
iso_b_vert
0
MTEXT
5
118
100
AcDbEntity
8
SK2
62
256
6
ByLayer
370
13
48
1
60
0
100
AcDbMText
10
-50.375163
20
19.126524
30
0
210
0
220
0
230
1
1
%%c
40
3.5
41
0
44
1.084337
50
90
71
7
72
5
7
iso_b_vert
0
LINE
5
119
100
AcDbEntity
8
SK2
62
256
6
ByLayer
370
13
48
1
60
0
100
AcDbLine
10
-41.5875
20
-5
30
0
11
-50.625163
21
-5
31
0
39
0
210
0
220
0
230
1
0
LINE
5
11A
100
AcDbEntity
8
SK2
62
256
6
ByLayer
370
13
48
1
60
0
100
AcDbLine
10
-41.5875
20
5
30
0
11
-50.625163
21
5
31
0
39
0
210
0
220
0
230
1
0
LINE
5
11B
100
AcDbEntity
8
SK2
62
256
6
ByLayer
370
13
48
1
60
0
100
AcDbLine
10
-48.625163
20
-5
30
0
11
-48.625163
21
35.862338
31
0
39
0
210
0
220
0
230
1
0
SOLID
5
11C
100
AcDbEntity
8
SK2
62
256
6
ByLayer
370
13
48
1
60
0
100
AcDbTrace
10
-48.625163
20
-5
30
0
11
-49.085946
21
-1.500002
31
0
12
-48.164379
22
-1.499998
32
0
13
-48.625163
23
-5
33
0
39
0
210
0
220
0
230
1
0
SOLID
5
11D
100
AcDbEntity
8
SK2
62
256
6
ByLayer
370
13
48
1
60
0
100
AcDbTrace
10
-48.625163
20
5
30
0
11
-48.164379
21
1.500002
31
0
12
-49.085946
22
1.499998
32
0
13
-48.625163
23
5
33
0
39
0
210
0
220
0
230
1
0
ENDBLK
5
11F
100
AcDbEntity
8
0
100
AcDbBlockEnd
0
BLOCK
5
129
100
AcDbEntity
8
0
100
AcDbBlockBegin
2
DimnDraft3D7
70
0
10
0
20
0
30
0
3
DimnDraft3D7
0
MTEXT
5
122
100
AcDbEntity
8
2
62
256
6
ByLayer
370
13
48
1
60
0
100
AcDbMText
10
59.333343
20
22.442266
30
0
210
0
220
0
230
1
1
\W0.7317;9,000
40
3.5
41
0
44
1.084337
50
90
71
7
72
5
7
iso_b_vert
0
MTEXT
5
123
100
AcDbEntity
8
2
62
256
6
ByLayer
370
13
48
1
60
0
100
AcDbMText
10
59.333343
20
17.21961
30
0
210
0
220
0
230
1
1
%%c
40
3.5
41
0
44
1.084337
50
90
71
7
72
5
7
iso_b_vert
0
LINE
5
124
100
AcDbEntity
8
2
62
256
6
ByLayer
370
13
48
1
60
0
100
AcDbLine
10
49.0475
20
-4.5
30
0
11
63.083343
21
-4.5
31
0
39
0
210
0
220
0
230
1
0
LINE
5
125
100
AcDbEntity
8
2
62
256
6
ByLayer
370
13
48
1
60
0
100
AcDbLine
10
49.0475
20
4.5
30
0
11
63.083343
21
4.5
31
0
39
0
210
0
220
0
230
1
0
LINE
5
126
100
AcDbEntity
8
2
62
256
6
ByLayer
370
13
48
1
60
0
100
AcDbLine
10
61.083343
20
-4.5
30
0
11
61.083343
21
32.214635
31
0
39
0
210
0
220
0
230
1
0
SOLID
5
127
100
AcDbEntity
8
2
62
256
6
ByLayer
370
13
48
1
60
0
100
AcDbTrace
10
61.083343
20
-4.5
30
0
11
60.622559
21
-1.000002
31
0
12
61.544126
22
-0.999998
32
0
13
61.083343
23
-4.5
33
0
39
0
210
0
220
0
230
1
0
SOLID
5
128
100
AcDbEntity
8
2
62
256
6
ByLayer
370
13
48
1
60
0
100
AcDbTrace
10
61.083343
20
4.5
30
0
11
61.544126
21
1.000002
31
0
12
60.622559
22
0.999998
32
0
13
61.083343
23
4.5
33
0
39
0
210
0
220
0
230
1
0
ENDBLK
5
12A
100
AcDbEntity
8
0
100
AcDbBlockEnd
0
ENDSEC
0
SECTION
2
ENTITIES
0
ARC
5
9C
100
AcDbEntity
8
1
62
256
6
ByLayer
370
18
48
1
60
0
100
AcDbCircle
39
0
10
0
20
4.2
30
0
40
0.800000000000004
210
0
220
0
230
1
100
AcDbArc
50
42.076794
51
90
0
ARC
5
9D
100
AcDbEntity
8
1
62
256
6
ByLayer
370
18
48
1
60
0
100
AcDbCircle
39
0
10
-1.187596
20
5.272202
30
0
40
0.799999999999998
210
0
220
0
230
-1
100
AcDbArc
50
269.965623
51
317.923206
0
ARC
5
9E
100
AcDbEntity
8
1
62
256
6
ByLayer
370
18
48
1
60
0
100
AcDbCircle
39
0
10
0
20
-4.2
30
0
40
0.800000000000004
210
0
220
0
230
1
100
AcDbArc
50
270
51
317.923206
0
ARC
5
9F
100
AcDbEntity
8
1
62
256
6
ByLayer
370
18
48
1
60
0
100
AcDbCircle
39
0
10
-1.187596
20
-5.272202
30
0
40
0.799999999999998
210
0
220
0
230
-1
100
AcDbArc
50
42.076794
51
90.034377
0
ELLIPSE
5
A0
100
AcDbEntity
8
1
62
256
6
ByLayer
370
18
48
1
60
0
100
AcDbEllipse
10
4.25
20
-4.519411
30
0
11
-0.25
21
3.06151588455594E-17
31
0
210
0
220
0
230
1
40
0.999995
41
-1.56354381159689
42
-0.210634640957405
0
ELLIPSE
5
A1
100
AcDbEntity
8
1
62
256
6
ByLayer
370
18
48
1
60
0
100
AcDbEllipse
10
4.25
20
4.519411
30
0
11
-0.25
21
3.06151588455594E-17
31
0
210
0
220
0
230
1
40
0.999995
41
0.210269108174243
42
1.58162005000156
0
ELLIPSE
5
A2
100
AcDbEntity
8
1
62
256
6
ByLayer
370
18
48
1
60
0
100
AcDbEllipse
10
49.033668
20
-0.023309
30
0
11
0.140634104915598
21
0.431000092544723
31
0
210
0
220
0
230
-1
40
0.07518
41
-2.31001430903916
42
-1.64326665811572
0
ELLIPSE
5
A3
100
AcDbEntity
8
1
62
256
6
ByLayer
370
13
48
1
60
0
100
AcDbEllipse
10
48.001281
20
0.635858
30
0
11
0.153082081612419
21
0.258003636193772
31
0
210
0
220
0
230
1
40
0.454519
41
0.917105603404822
42
2.31336900500028
0
ELLIPSE
5
A4
100
AcDbEntity
8
1
62
256
6
ByLayer
370
18
48
1
60
0
100
AcDbEllipse
10
49.000392
20
-0.000983
30
0
11
1.65537431707193
21
-4.49792657505517
31
0
210
0
220
0
230
-1
40
0.098637
41
-2.97721682785804
42
-2.87729502854459
0
ELLIPSE
5
A5
100
AcDbEntity
8
1
62
256
6
ByLayer
370
18
48
1
60
0
100
AcDbEllipse
10
48.860109
20
0.126287
30
0
11
0.0727819104885706
21
0.301917195736562
31
0
210
0
220
0
230
-1
40
0.478434
41
1.73024544900414
42
2.4597611997477
0
ELLIPSE
5
A6
100
AcDbEntity
8
1
62
256
6
ByLayer
370
18
48
1
60
0
100
AcDbEllipse
10
49.033668
20
0.023309
30
0
11
0.140634104933606
21
-0.431000092591571
31
0
210
0
220
0
230
-1
40
0.07518
41
1.64326665819116
42
2.31001430905124
0
ELLIPSE
5
A7
100
AcDbEntity
8
1
62
256
6
ByLayer
370
18
48
1
60
0
100
AcDbEllipse
10
48.142394
20
-2.184422
30
0
11
0.695119845061764
21
1.88875591551246
31
0
210
0
220
0
230
-1
40
0.098637
41
0.749112684721964
42
1.54213069013163
0
ELLIPSE
5
A8
100
AcDbEntity
8
1
62
256
6
ByLayer
370
13
48
1
60
0
100
AcDbEllipse
10
48.602034
20
2.184422
30
0
11
2.5881746797138
21
-1.38078147075273
31
0
210
0
220
0
230
-1
40
0.498637
41
1.53703492842747
42
1.86291239765168
0
ELLIPSE
5
A9
100
AcDbEntity
8
1
62
256
6
ByLayer
370
18
48
1
60
0
100
AcDbEllipse
10
48.142394
20
2.184422
30
0
11
0.695119845066381
21
-1.88875591552219
31
0
210
0
220
0
230
-1
40
0.098637
41
-1.54213069012622
42
-0.749112684719608
0
ELLIPSE
5
AA
100
AcDbEntity
8
1
62
256
6
ByLayer
370
13
48
1
60
0
100
AcDbEllipse
10
48.412127
20
2.061224
30
0
11
2.51380150878414
21
-1.73082382220553
31
0
210
0
220
0
230
-1
40
0.533762
41
1.44484622740341
42
1.74414289119616
0
ELLIPSE
5
AB
100
AcDbEntity
8
1
62
256
6
ByLayer
370
18
48
1
60
0
100
AcDbEllipse
10
49.000392
20
0.000983
30
0
11
1.65537428199045
21
4.49792647303935
31
0
210
0
220
0
230
-1
40
0.098637
41
2.87729502552887
42
2.97721682599444
0
POINT
5
6C
100
AcDbEntity
8
81
62
256
6
ByLayer
370
18
48
1
60
0
100
AcDbPoint
10
49
20
0
30
0
39
0
210
0
220
0
230
1
50
360
0
POINT
5
6E
100
AcDbEntity
8
80
62
256
6
ByLayer
370
18
48
1
60
0
100
AcDbPoint
10
0
20
0
30
0
39
0
210
0
220
0
230
1
50
360
0
POINT
5
70
100
AcDbEntity
8
SK2
62
256
6
ByLayer
370
18
48
1
60
1
100
AcDbPoint
10
-40
20
-5
30
0
39
0
210
0
220
0
230
1
50
360
0
POINT
5
72
100
AcDbEntity
8
SK2
62
256
6
ByLayer
370
18
48
1
60
1
100
AcDbPoint
10
-40
20
5
30
0
39
0
210
0
220
0
230
1
50
360
0
POINT
5
73
100
AcDbEntity
8
2
62
256
6
ByLayer
370
18
48
1
60
1
100
AcDbPoint
10
47.46
20
-4.5
30
0
39
0
210
0
220
0
230
1
50
360
0
POINT
5
75
100
AcDbEntity
8
2
62
256
6
ByLayer
370
18
48
1
60
1
100
AcDbPoint
10
47.46
20
4.5
30
0
39
0
210
0
220
0
230
1
50
360
0
SPLINE
5
AC
100
AcDbEntity
8
1
62
256
6
ByLayer
370
18
48
1
60
0
100
AcDbSpline
70
4
71
1
72
4
73
2
40
0
40
0
40
1
40
1
41
1
10
8.91563504590397
20
0.0023114122739685
30
0
41
1
10
8.91562452079253
20
0.00231696669141
30
0
0
SPLINE
5
AD
100
AcDbEntity
8
1
62
256
6
ByLayer
370
18
48
1
60
0
100
AcDbSpline
70
4
71
2
72
6
73
3
40
0
40
0
40
0
40
1
40
1
40
1
41
1
10
46.6288251946451
20
-4.29460315683096
30
0
41
1
10
47.0315618445035
20
-4.29362734694132
30
0
41
1
10
47.4337697100148
20
-4.29587544598292
30
0
0
SPLINE
5
AE
100
AcDbEntity
8
1
62
256
6
ByLayer
370
18
48
1
60
0
100
AcDbSpline
70
4
71
3
72
31
73
27
40
0
40
0
40
0
40
0
40
0.061679896981716
40
0.10706285412857
40
0.136238158553826
40
0.160642244949831
40
0.188650165684576
40
0.25292359818802
40
0.312480491109416
40
0.345686839089413
40
0.375570206301018
40
0.402462103198037
40
0.432814896187025
40
0.473113841961249
40
0.517697206444339
40
0.552440959143907
40
0.600445922795637
40
0.668162067943633
40
0.730519094695659
40
0.781607495654097
40
0.821719310675504
40
0.847946991743824
40
0.883195171343588
40
0.929708748233755
40
0.985043514189922
40
1
40
1
40
1
40
1
41
1
10
21.5608105180695
20
-4.27939058218939
30
0
41
1
10
21.8182061630953
20
-4.27965416516847
30
0
41
1
10
22.2649889531726
20
-4.27998010495182
30
0
41
1
10
22.833438810143
20
-4.27998336345527
30
0
41
1
10
23.2464569741248
20
-4.27998294196553
30
0
41
1
10
23.586705672281
20
-4.2801727917543
30
0
41
1
10
24.0735886408272
20
-4.28142249447387
30
0
41
1
10
24.7072309181133
20
-4.28172822799559
30
0
41
1
10
25.3625126023225
20
-4.28144079460782
30
0
41
1
10
25.8743013386888
20
-4.28118592756786
30
0
41
1
10
26.2497897020621
20
-4.28161598624141
30
0
41
1
10
26.6133730573077
20
-4.2830455706889
30
0
41
1
10
27.0204133632445
20
-4.28341989658756
30
0
41
1
10
27.5012904885206
20
-4.28252171299357
30
0
41
1
10
28.0004815430864
20
-4.28210540541235
30
0
41
1
10
28.5318329828572
20
-4.28157698345683
30
0
41
1
10
29.1597178211472
20
-4.28394336836601
30
0
41
1
10
29.9028376318869
20
-4.28422075890413
30
0
41
1
10
30.6588029102982
20
-4.28465405092078
30
0
41
1
10
31.2996334656659
20
-4.28369202529726
30
0
41
1
10
31.7895355456359
20
-4.2851612531727
30
0
41
1
10
32.2123888308057
20
-4.28530245017157
30
0
41
1
10
32.6634273335833
20
-4.28541275816764
30
0
41
1
10
33.2274627201226
20
-4.28601061308214
30
0
41
1
10
33.7180776192143
20
-4.2850891822886
30
0
41
1
10
34.0100145630638
20
-4.28566108701247
30
0
41
1
10
34.072132110684
20
-4.2857994602937
30
0
0
SPLINE
5
AF
100
AcDbEntity
8
1
62
256
6
ByLayer
370
18
48
1
60
0
100
AcDbSpline
70
4
71
3
72
17
73
13
40
0
40
0
40
0
40
0
40
0.0280664970166422
40
0.16896352907878
40
0.264759223925614
40
0.317409533443028
40
0.365292071929699
40
0.421899129757493
40
0.523638917809537
40
0.659010547110522
40
0.835320056939569
40
1
40
1
40
1
40
1
41
1
10
8.94158561968993
20
4.27220308089545
30
0
41
1
10
8.89770601976025
20
4.27209856576806
30
0
41
1
10
8.63353896014792
20
4.27152885809713
30
0
41
1
10
8.21948334066349
20
4.27207415229501
30
0
41
1
10
7.76697735394202
20
4.27191933094366
30
0
41
1
10
7.46007443193227
20
4.27202081979021
30
0
41
1
10
7.21441782357567
20
4.27216161402009
30
0
41
1
10
6.89193293177914
20
4.27222899514655
30
0
41
1
10
6.43261669059098
20
4.27080083509208
30
0
41
1
10
5.78611719714991
20
4.27072694563367
30
0
41
1
10
5.04119289032127
20
4.27029052065106
30
0
41
1
10
4.50795616508503
20
4.2696114467019
30
0
41
1
10
4.25043029122682
20
4.26920524704758
30
0
0
SPLINE
5
B0
100
AcDbEntity
8
1
62
256
6
ByLayer
370
18
48
1
60
0
100
AcDbSpline
70
4
71
3
72
26
73
22
40
0
40
0
40
0
40
0
40
0.0364531070662327
40
0.116695608952441
40
0.176828191130521
40
0.218500128785899
40
0.268190709250449
40
0.316581754570385
40
0.373421532396562
40
0.438750165065615
40
0.498973066870828
40
0.542690073158246
40
0.593190005320954
40
0.656756631385856
40
0.708016769940325
40
0.746331289372545
40
0.787636883778603
40
0.834295545665884
40
0.894897090940445
40
0.962438921636342
40
1
40
1
40
1
40
1
41
1
10
34.0603819477037
20
4.28599548003001
30
0
41
1
10
33.9355811372095
20
4.28575605466222
30
0
41
1
10
33.5361302683236
20
4.28511023632416
30
0
41
1
10
32.9297941659543
20
4.28581646637511
30
0
41
1
10
32.3084584304287
20
4.28528785937471
30
0
41
1
10
31.7883649870692
20
4.28516884669881
30
0
41
1
10
31.308858310886
20
4.28380646221655
30
0
41
1
10
30.7767633652467
20
4.28453967015409
30
0
41
1
10
30.1911126769246
20
4.28422572311192
30
0
41
1
10
29.564786461435
20
4.28464560102734
30
0
41
1
10
28.9835368080979
20
4.28281892653601
30
0
41
1
10
28.4532017821151
20
4.28165192498301
30
0
41
1
10
27.9113907128912
20
4.28216158989164
30
0
41
1
10
27.3436741203603
20
4.28272176295656
30
0
41
1
10
26.8178001849376
20
4.28367530183837
30
0
41
1
10
26.3683733892315
20
4.28201304274276
30
0
41
1
10
25.9347426505947
20
4.28109833203118
30
0
41
1
10
25.4245924989482
20
4.28144050751212
30
0
41
1
10
24.8243600410894
20
4.28162519933755
30
0
41
1
10
24.2553429627958
20
4.28170964976917
30
0
41
1
10
23.8944179873345
20
4.28086716761911
30
0
41
1
10
23.7654562015722
20
4.28060553790181
30
0
0
SPLINE
5
B1
100
AcDbEntity
8
1
62
256
6
ByLayer
370
18
48
1
60
0
100
AcDbSpline
70
4
71
3
72
11
73
7
40
0
40
0
40
0
40
0
40
0.287112140365378
40
0.372612121192127
40
0.519864084981903
40
1
40
1
40
1
40
1
41
1
10
35.1671357846053
20
-1.10680519661744
30
0
41
1
10
35.168531582832
20
-1.10751232880753
30
0
41
1
10
35.1834448678012
20
-1.11470146669052
30
0
41
1
10
35.2279555714727
20
-1.13698446126764
30
0
41
1
10
35.3229456806468
20
-1.18515616702265
30
0
41
1
10
35.4141786118076
20
-1.23355090811299
30
0
41
1
10
35.496587455916
20
-1.27808560712515
30
0
0
SPLINE
5
B2
100
AcDbEntity
8
1
62
256
6
ByLayer
370
18
48
1
60
0
100
AcDbSpline
70
4
71
3
72
18
73
14
40
0
40
0
40
0
40
0
40
0.155685238549215
40
0.308449937687663
40
0.379701344176792
40
0.436671995299228
40
0.485994626223679
40
0.527731422406255
40
0.57825865910474
40
0.666299509900566
40
0.792034813926213
40
0.954965911020727
40
1
40
1
40
1
40
1
41
1
10
4.25042999755357
20
-4.26921360402852
30
0
41
1
10
4.49447470618432
20
-4.26961847292461
30
0
41
1
10
4.97798525908647
20
-4.2703002890151
30
0
41
1
10
5.57317815437722
20
-4.27044745944764
30
0
41
1
10
6.01363845643422
20
-4.27083128211802
30
0
41
1
10
6.2919483910303
20
-4.27088968029241
30
0
41
1
10
6.52399227905624
20
-4.27119328708622
30
0
41
1
10
6.74593569643477
20
-4.2718291068652
30
0
41
1
10
7.02856377349374
20
-4.27227331858521
30
0
41
1
10
7.44285034555287
20
-4.27197665221692
30
0
41
1
10
8.03333642011552
20
-4.27214782976645
30
0
41
1
10
8.55645442812448
20
-4.27147894859843
30
0
41
1
10
8.88242285421438
20
-4.27214969206187
30
0
41
1
10
8.95300937724414
20
-4.27231594648839
30
0
0
SPLINE
5
B3
100
AcDbEntity
8
1
62
256
6
ByLayer
370
18
48
1
60
0
100
AcDbSpline
70
4
71
3
72
18
73
14
40
0
40
0
40
0
40
0
40
0.0910373756557462
40
0.0910373756557462
40
0.443553646095998
40
0.443553646095998
40
0.531682713706061
40
0.531682713706061
40
0.619811781316124
40
0.619811781316124
40
0.796069916536251
40
0.796069916536251
40
1
40
1
40
1
40
1
41
1
10
8.9300377547099
20
-0.0054730507477814
30
0
41
1
10
9.16174322345225
20
-0.132728106146004
30
0
41
1
10
9.39326797322536
20
-0.259864331281932
30
0
41
1
10
10.5214671586579
20
-0.876785878074998
30
0
41
1
10
11.4177404367908
20
-1.36094445163297
30
0
41
1
10
12.5536263560821
20
-1.92889983777869
30
0
41
1
10
12.7805725421209
20
-2.0401697741296
30
0
41
1
10
13.2326923649113
20
-2.25671060575482
30
0
41
1
10
13.4581334262485
20
-2.3621146539065
30
0
41
1
10
14.1331848807764
20
-2.66893538258569
30
0
41
1
10
14.5816094762707
20
-2.86088311857486
30
0
41
1
10
15.548322186911
20
-3.24364183054286
30
0
41
1
10
16.06659968433
20
-3.42952800534343
30
0
41
1
10
16.5868748069308
20
-3.59303411002563
30
0
0
SPLINE
5
B4
100
AcDbEntity
8
1
62
256
6
ByLayer
370
13
48
1
60
0
100
AcDbSpline
70
4
71
3
72
16
73
12
40
0
40
0
40
0
40
0
40
0.178962399551469
40
0.178962399551469
40
0.285108130389835
40
0.285108130389835
40
0.391253861228201
40
0.391253861228201
40
0.603545322904932
40
0.603545322904932
40
1
40
1
40
1
40
1
41
1
10
16.5868748068858
20
-3.5930341100115
30
0
41
1
10
16.965954221438
20
-3.71216684526377
30
0
41
1
10
17.3460941301618
20
-3.81941850585878
30
0
41
1
10
17.9547822966287
20
-3.9695326512664
30
0
41
1
10
18.1823415515744
20
-4.02088111196858
30
0
41
1
10
18.6352503954164
20
-4.11315988048244
30
0
41
1
10
18.8610742305315
20
-4.15423396218409
30
0
41
1
10
19.5370850542382
20
-4.26209288474769
30
0
41
1
10
19.985822578931
20
-4.31357019312156
30
0
41
1
10
21.2710676127338
20
-4.40165608113338
30
0
41
1
10
22.1067891087686
20
-4.38687151536038
30
0
41
1
10
22.9504311167962
20
-4.2985809535856
30
0
0
SPLINE
5
B5
100
AcDbEntity
8
1
62
256
6
ByLayer
370
18
48
1
60
0
100
AcDbSpline
70
4
71
3
72
18
73
14
40
0
40
0
40
0
40
0
40
0.249999999999996
40
0.249999999999996
40
0.374999999999997
40
0.374999999999997
40
0.499999999999997
40
0.499999999999997
40
0.749999999999998
40
0.749999999999998
40
0.874999999999999
40
0.874999999999999
40
1
40
1
40
1
40
1
41
1
10
48.3485424173862
20
2.19882320763861
30
0
41
1
10
48.2800373999491
20
2.38282754583972
30
0
41
1
10
48.2114697517677
20
2.56674520995725
30
0
41
1
10
48.1082496508523
20
2.84211156450794
30
0
41
1
10
48.0737699381019
20
2.93383811070018
30
0
41
1
10
48.004750485643
20
3.11695431026598
30
0
41
1
10
47.9701799376452
20
3.20822218120148
30
0
41
1
10
47.8664293099024
20
3.48183977165235
30
0
41
1
10
47.7972386540218
20
3.66413902404432
30
0
41
1
10
47.6929472060716
20
3.93517593278
30
0
41
1
10
47.6581098708721
20
4.02517075059407
30
0
41
1
10
47.5883767164963
20
4.20488131283096
30
0
41
1
10
47.5534591591537
20
4.29449332723828
30
0
41
1
10
47.5183964550561
20
4.38341273147412
30
0
0
SPLINE
5
B6
100
AcDbEntity
8
1
62
256
6
ByLayer
370
18
48
1
60
0
100
AcDbSpline
70
4
71
3
72
8
73
4
40
0
40
0
40
0
40
0
40
1
40
1
40
1
40
1
41
1
10
47.4399298569151
20
4.46303339497155
30
0
41
1
10
47.0992783997787
20
4.48749661710889
30
0
41
1
10
46.7588613647801
20
4.49960786022044
30
0
41
1
10
46.4180677060892
20
4.49934109442842
30
0
0
SPLINE
5
B7
100
AcDbEntity
8
1
62
256
6
ByLayer
370
18
48
1
60
0
100
AcDbSpline
70
4
71
3
72
46
73
42
40
0
40
0
40
0
40
0
40
0.034183032693
40
0.034183032693
40
0.103169958929214
40
0.103169958929214
40
0.13766342204732
40
0.13766342204732
40
0.172156885165427
40
0.172156885165427
40
0.24114381140164
40
0.24114381140164
40
0.275637274519747
40
0.275637274519747
40
0.310130737637853
40
0.310130737637853
40
0.379117663874066
40
0.379117663874066
40
0.413611126992173
40
0.413611126992173
40
0.44810459011028
40
0.44810459011028
40
0.517091516346495
40
0.517091516346495
40
0.551584979464602
40
0.551584979464602
40
0.586078442582709
40
0.586078442582709
40
0.655065368818923
40
0.655065368818923
40
0.68955883193703
40
0.68955883193703
40
0.724052295055137
40
0.724052295055137
40
0.793039221291352
40
0.793039221291352
40
0.82753268440946
40
0.82753268440946
40
0.862026147527568
40
0.862026147527568
40
1
40
1
40
1
40
1
41
1
10
23.7654437580341
20
-4.29226504664743
30
0
41
1
10
23.5415298628687
20
-4.32881830698068
30
0
41
1
10
23.317890685612
20
-4.36022876771762
30
0
41
1
10
22.6430918715136
20
-4.439295059296
30
0
41
1
10
22.1920973120202
20
-4.47093085840311
30
0
41
1
10
21.5136656431396
20
-4.48589196922487
30
0
41
1
10
21.2871398985045
20
-4.48544885047949
30
0
41
1
10
20.8352183263138
20
-4.47370785050393
30
0
41
1
10
20.6095565040446
20
-4.4624173581752
30
0
41
1
10
19.9327062731155
20
-4.41247772148691
30
0
41
1
10
19.4816537440414
20
-4.35777994443589
30
0
41
1
10
18.8031389883272
20
-4.24434373869039
30
0
41
1
10
18.5765966267917
20
-4.20127208477308
30
0
41
1
10
18.1246302942365
20
-4.10523026590792
30
0
41
1
10
17.8989416318575
20
-4.05222142664104
30
0
41
1
10
17.2219991594623
20
-3.87886098179149
30
0
41
1
10
16.7709360588657
20
-3.74413409203174
30
0
41
1
10
16.09240683806
20
-3.51530755146408
30
0
41
1
10
15.8658530069974
20
-3.43457610321815
30
0
41
1
10
15.4138344918785
20
-3.26533964302351
30
0
41
1
10
15.188110585177
20
-3.17674540573515
30
0
41
1
10
14.5110759278154
20
-2.89997776133427
30
0
41
1
10
14.059966704442
20
-2.70074438965091
30
0
41
1
10
13.3813994196327
20
-2.38283859150084
30
0
41
1
10
13.1548626599889
20
-2.2737043727526
30
0
41
1
10
12.7028116722992
20
-2.05075348512048
30
0
41
1
10
12.4770355449921
20
-1.93681659315169
30
0
41
1
10
11.799884236144
20
-1.5885684894287
30
0
41
1
10
11.3488131014446
20
-1.34760751841242
30
0
41
1
10
10.670233907747
20
-0.977114898676604
30
0
41
1
10
10.4436924359689
20
-0.852158866662364
30
0
41
1
10
9.99160525174716
20
-0.601155536874018
30
0
41
1
10
9.76579734087306
20
-0.474966301445647
30
0
41
1
10
9.08852337271864
20
-0.0953312950287
30
0
41
1
10
8.63734407481127
20
0.159426421552212
30
0
41
1
10
7.95860994411868
20
0.539659495664466
30
0
41
1
10
7.73204449253393
20
0.666010841281576
30
0
41
1
10
7.28042881612328
20
0.9159456180235
30
0
41
1
10
7.05505754547568
20
1.03970942685535
30
0
41
1
10
5.92931201952871
20
1.65070605445996
30
0
41
1
10
5.03279308114577
20
2.11534194023469
30
0
41
1
10
4.1275069558686
20
2.53435141548096
30
0
0
SPLINE
5
B8
100
AcDbEntity
8
1
62
256
6
ByLayer
370
18
48
1
60
0
100
AcDbSpline
70
4
71
3
72
24
73
20
40
0
40
0
40
0
40
0
40
0.167182155079469
40
0.167182155079469
40
0.334364310158938
40
0.334364310158938
40
0.501546465238407
40
0.501546465238407
40
0.585137542778142
40
0.585137542778142
40
0.668728620317876
40
0.668728620317876
40
0.752319697857611
40
0.752319697857611
40
0.835910775397345
40
0.835910775397345
40
0.91950185293708
40
0.91950185293708
40
1
40
1
40
1
40
1
41
1
10
14.5258044611125
20
-3.20041736166539
30
0
41
1
10
14.8723758089252
20
-3.3380329058055
30
0
41
1
10
15.2181565964532
20
-3.46436625065073
30
0
41
1
10
15.9068538840863
20
-3.69717743064797
30
0
41
1
10
16.2491694274916
20
-3.8040924372977
30
0
41
1
10
16.9345364890504
20
-3.99437380023372
30
0
41
1
10
17.2772687707655
20
-4.07824771833401
30
0
41
1
10
17.7903689117771
20
-4.18783961270526
30
0
41
1
10
17.9613040248754
20
-4.22157973798454
30
0
41
1
10
18.3040654383583
20
-4.2828205639685
30
0
41
1
10
18.4757292373863
20
-4.3104369865645
30
0
41
1
10
18.81947425402
20
-4.35974179322722
30
0
41
1
10
18.991558502554
20
-4.38142876685214
30
0
41
1
10
19.3360205275219
20
-4.41880875454137
30
0
41
1
10
19.5082743541618
20
-4.43451795701398
30
0
41
1
10
19.8541658990295
20
-4.45949685859105
30
0
41
1
10
20.0280029286642
20
-4.46882573460132
30
0
41
1
10
20.3682460692093
20
-4.48088183362097
30
0
41
1
10
20.5347714145794
20
-4.48385678087871
30
0
41
1
10
20.7008510422781
20
-4.48390894668853
30
0
0
SPLINE
5
B9
100
AcDbEntity
8
1
62
256
6
ByLayer
370
18
48
1
60
0
100
AcDbSpline
70
4
71
3
72
30
73
26
40
0
40
0
40
0
40
0
40
0.084488608096165
40
0.084488608096165
40
0.149882278946437
40
0.149882278946437
40
0.215275949796709
40
0.215275949796709
40
0.280669620646981
40
0.280669620646981
40
0.346063291497253
40
0.346063291497253
40
0.476850633197801
40
0.476850633197801
40
0.607637974898349
40
0.607637974898349
40
0.738425316598897
40
0.738425316598897
40
0.803818987449172
40
0.803818987449172
40
0.869212658299448
40
0.869212658299448
40
0.934606329149724
40
0.934606329149724
40
1
40
1
40
1
40
1
41
1
10
39.6376126295601
20
3.25237074778602
30
0
41
1
10
39.8586940243431
20
3.33843685102187
30
0
41
1
10
40.0800018399279
20
3.4206277162194
30
0
41
1
10
40.4726755680564
20
3.55996122141627
30
0
41
1
10
40.6439012859022
20
3.61868035041417
30
0
41
1
10
40.9869932907093
20
3.73096977790851
30
0
41
1
10
41.1590314051366
20
3.78437229266603
30
0
41
1
10
41.5038785616118
20
3.88593589250826
30
0
41
1
10
41.6766907030421
20
3.93409302329442
30
0
41
1
10
42.0229690734958
20
4.02519734284303
30
0
41
1
10
42.1964546364804
20
4.06819228836795
30
0
41
1
10
42.7143714601237
20
4.18814311197218
30
0
41
1
10
43.0589515366867
20
4.25538695527669
30
0
41
1
10
43.7456336699567
20
4.36616451213618
30
0
41
1
10
44.0871215252646
20
4.40977582651288
30
0
41
1
10
44.7713003968733
20
4.47166568058128
30
0
41
1
10
45.113545237081
20
4.49030352158937
30
0
41
1
10
45.6263386489363
20
4.49969658264243
30
0
41
1
10
45.797210830778
20
4.49968945044731
30
0
41
1
10
46.1399662589387
20
4.49342012897088
30
0
41
1
10
46.3116865984142
20
4.48717397513943
30
0
41
1
10
46.6556181622347
20
4.46842553053474
30
0
41
1
10
46.8278419773
20
4.45592551362617
30
0
41
1
10
47.1726373557455
20
4.42448163784664
30
0
41
1
10
47.3451399592016
20
4.40548554743961
30
0
41
1
10
47.5183964550496
20
4.38341273149052
30
0
0
SPLINE
5
BA
100
AcDbEntity
8
1
62
256
6
ByLayer
370
18
48
1
60
0
100
AcDbSpline
70
4
71
3
72
8
73
4
40
0
40
0
40
0
40
0
40
1
40
1
40
1
40
1
41
1
10
47.4986556745981
20
-4.26923773807937
30
0
41
1
10
47.4750207788795
20
-4.28634770905154
30
0
41
1
10
47.4543763435324
20
-4.29496006780863
30
0
41
1
10
47.4367736100995
20
-4.29492920774709
30
0
0
SPLINE
5
BB
100
AcDbEntity
8
1
62
256
6
ByLayer
370
18
48
1
60
0
100
AcDbSpline
70
4
71
3
72
8
73
4
40
0
40
0
40
0
40
0
40
1
40
1
40
1
40
1
41
1
10
8.89142055367199
20
-4.27185053303418
30
0
41
1
10
8.91205089500983
20
-4.27198779334609
30
0
41
1
10
8.93267966632834
20
-4.27208465086954
30
0
41
1
10
8.95330683327902
20
-4.27214075233937
30
0
0
SPLINE
5
BC
100
AcDbEntity
8
1
62
256
6
ByLayer
370
18
48
1
60
0
100
AcDbSpline
70
4
71
3
72
22
73
18
40
0
40
0
40
0
40
0
40
0.171735962654496
40
0.171735962654496
40
0.269258151631471
40
0.269258151631471
40
0.366780340608446
40
0.366780340608446
40
0.561824718562395
40
0.561824718562395
40
0.756869096516345
40
0.756869096516345
40
0.85439128549332
40
0.85439128549332
40
0.951913474470296
40
0.951913474470296
40
1
40
1
40
1
40
1
41
1
10
9.02230355658602
20
-4.27217590688917
30
0
41
1
10
9.34369803981642
20
-4.27162688417019
30
0
41
1
10
9.6646935897428
20
-4.26108431369789
30
0
41
1
10
10.167140766368
20
-4.22679032616051
30
0
41
1
10
10.3489097709885
20
-4.2108395575753
30
0
41
1
10
10.7127099747409
20
-4.17234359087576
30
0
41
1
10
10.8948537311361
20
-4.14986131121191
30
0
41
1
10
11.441599135915
20
-4.0730816538657
30
0
41
1
10
11.8069293148303
20
-4.009866718892
30
0
41
1
10
12.5354412743963
20
-3.85820224786036
30
0
41
1
10
12.8994302036523
20
-3.76923242539314
30
0
41
1
10
13.4452125852873
20
-3.6187573943773
30
0
41
1
10
13.6269841839274
20
-3.56550296752042
30
0
41
1
10
13.9909913131848
20
-3.4535468524445
30
0
41
1
10
14.1732945384948
20
-3.39497923558295
30
0
41
1
10
14.4457550902075
20
-3.30372763852458
30
0
41
1
10
14.5357504586383
20
-3.27297177860461
30
0
41
1
10
14.6257061469457
20
-3.24158782904857
30
0
0
SPLINE
5
BD
100
AcDbEntity
8
1
62
256
6
ByLayer
370
18
48
1
60
0
100
AcDbSpline
70
4
71
3
72
34
73
30
40
0
40
0
40
0
40
0
40
0.0522912585013195
40
0.0522912585013195
40
0.108038831530651
40
0.108038831530651
40
0.219533977589315
40
0.219533977589315
40
0.275281550618649
40
0.275281550618649
40
0.331029123647983
40
0.331029123647983
40
0.386776696677317
40
0.386776696677317
40
0.44252426970665
40
0.44252426970665
40
0.554019415765321
40
0.554019415765321
40
0.609766988794656
40
0.609766988794656
40
0.665514561823992
40
0.665514561823992
40
0.777009707882662
40
0.777009707882662
40
0.888504853941333
40
0.888504853941333
40
0.944252426970666
40
0.944252426970666
40
1
40
1
40
1
40
1
41
1
10
34.0556420745532
20
4.28582291419769
30
0
41
1
10
34.226838929682
20
4.28492994636872
30
0
41
1
10
34.3978164662651
20
4.28143199984208
30
0
41
1
10
34.7506510654516
20
4.26758315514263
30
0
41
1
10
34.932535120518
20
4.25675642957219
30
0
41
1
10
35.4782035453516
20
4.21454836685251
30
0
41
1
10
35.8422482769358
20
4.17459957900496
30
0
41
1
10
36.3886625606906
20
4.09253661678127
30
0
41
1
10
36.5708084791263
20
4.0617126407588
30
0
41
1
10
36.9358222250291
20
3.99441953636807
30
0
41
1
10
37.1181925091864
20
3.95783367529802
30
0
41
1
10
37.4825798893058
20
3.87818049950025
30
0
41
1
10
37.664595260226
20
3.8351616558133
30
0
41
1
10
38.0283742913047
20
3.74360326484066
30
0
41
1
10
38.2101768113466
20
3.69519469724213
30
0
41
1
10
38.75581094698
20
3.54108525170835
30
0
41
1
10
39.120279591152
20
3.42608977485554
30
0
41
1
10
39.6678213085141
20
3.23688993695365
30
0
41
1
10
39.8499666264518
20
3.17106118767882
30
0
41
1
10
40.21435052654
20
3.03540209391119
30
0
41
1
10
40.3964983963551
20
2.96542265780664
30
0
41
1
10
40.9426676093528
20
2.74919417267921
30
0
41
1
10
41.3061617244383
20
2.59605243074509
30
0
41
1
10
42.0345922401356
20
2.27236360551572
30
0
41
1
10
42.4004408738377
20
2.10309421969754
30
0
41
1
10
42.9469399974896
20
1.83954775388693
30
0
41
1
10
43.1287662428853
20
1.74994007003468
30
0
41
1
10
43.4927304572903
20
1.56903099227389
30
0
41
1
10
43.6747370695461
20
1.47751717145385
30
0
41
1
10
43.8567351379232
20
1.38482238874951
30
0
0
SPLINE
5
BE
100
AcDbEntity
8
1
62
256
6
ByLayer
370
18
48
1
60
0
100
AcDbSpline
70
4
71
3
72
64
73
60
40
0
40
0
40
0
40
0
40
0.0520033859014427
40
0.0520033859014427
40
0.0780050788521646
40
0.0780050788521646
40
0.104006771802887
40
0.104006771802887
40
0.15601015770433
40
0.15601015770433
40
0.182011850655052
40
0.182011850655052
40
0.208013543605774
40
0.208013543605774
40
0.260016929507217
40
0.260016929507217
40
0.286018622457939
40
0.286018622457939
40
0.312020315408661
40
0.312020315408661
40
0.364023701310105
40
0.364023701310105
40
0.390025394260826
40
0.390025394260826
40
0.416027087211548
40
0.416027087211548
40
0.468030473112991
40
0.468030473112991
40
0.494032166063713
40
0.494032166063713
40
0.520033859014435
40
0.520033859014435
40
0.572037244915879
40
0.572037244915879
40
0.598038937866601
40
0.598038937866601
40
0.624040630817324
40
0.624040630817324
40
0.676044016718768
40
0.676044016718768
40
0.70204570966949
40
0.70204570966949
40
0.728047402620212
40
0.728047402620212
40
0.780050788521654
40
0.780050788521654
40
0.806052481472376
40
0.806052481472376
40
0.832054174423098
40
0.832054174423098
40
0.884057560324543
40
0.884057560324543
40
0.910059253275267
40
0.910059253275267
40
0.93606094622599
40
0.93606094622599
40
0.988064332127436
40
0.988064332127436
40
1
40
1
40
1
40
1
41
1
10
47.4399298569094
20
-4.46303339497197
30
0
41
1
10
46.9883863264291
20
-4.49546011577223
30
0
41
1
10
46.5374648732269
20
-4.50616892358701
30
0
41
1
10
45.8598835884154
20
-4.48965557902645
30
0
41
1
10
45.6335996022272
20
-4.47869697441541
30
0
41
1
10
45.1818519226342
20
-4.44603019675162
30
0
41
1
10
44.9562899878924
20
-4.42433147264552
30
0
41
1
10
44.2799782778162
20
-4.3433918907476
30
0
41
1
10
43.8295852248455
20
-4.26830361075602
30
0
41
1
10
43.1522491143191
20
-4.12514939923125
30
0
41
1
10
42.9259388533899
20
-4.07227388421228
30
0
41
1
10
42.4741810044515
20
-3.95699700979259
30
0
41
1
10
42.2486206244524
20
-3.89458284452277
30
0
41
1
10
41.5723054843975
20
-3.69359301664383
30
0
41
1
10
41.1218988616728
20
-3.54127772846331
30
0
41
1
10
40.4444961016496
20
-3.28787974935423
30
0
41
1
10
40.2181666494518
20
-3.19914846467515
30
0
41
1
10
39.7663843589878
20
-3.01452302331444
30
0
41
1
10
39.5407982852801
20
-2.91858817115408
30
0
41
1
10
38.8643785998586
20
-2.62074367107468
30
0
41
1
10
38.4138377908935
20
-2.4088578211385
30
0
41
1
10
37.7363229455412
20
-2.07438385100897
30
0
41
1
10
37.5099924308229
20
-1.95996125717232
30
0
41
1
10
37.0582072856087
20
-1.72717606644736
30
0
41
1
10
36.8325960514997
20
-1.60875318707335
30
0
41
1
10
36.1561095941944
20
-1.2482456607876
30
0
41
1
10
35.7055175799105
20
-1.00102895228449
30
0
41
1
10
35.027946877768
20
-0.623775209886247
30
0
41
1
10
34.8016000680434
20
-0.496809701528406
30
0
41
1
10
34.349790612664
20
-0.242614106659971
30
0
41
1
10
34.1241628709716
20
-0.115284535183264
30
0
41
1
10
33.4476541703809
20
0.266588642257403
30
0
41
1
10
32.9970211788379
20
0.520791004263145
30
0
41
1
10
32.3193782899465
20
0.897519481349576
30
0
41
1
10
32.0930108376416
20
1.02244975026306
30
0
41
1
10
31.6411898418998
20
1.26891206224036
30
0
41
1
10
31.4155551925418
20
1.39055619274237
30
0
41
1
10
30.7389794080706
20
1.74990959665558
30
0
41
1
10
30.2883219382113
20
1.98196257058564
30
0
41
1
10
29.6105815313352
20
2.31490381745573
30
0
41
1
10
29.3841854259094
20
2.42345192140007
30
0
41
1
10
28.9323469142368
20
2.63390144234222
30
0
41
1
10
28.7067244365119
20
2.73593408355214
30
0
41
1
10
28.0301622596927
20
3.03166783708608
30
0
41
1
10
27.5794244983834
20
3.21486349900908
30
0
41
1
10
26.9014841524863
20
3.46571774440594
30
0
41
1
10
26.6750475380792
20
3.54543052105544
30
0
41
1
10
26.2232154884238
20
3.6957703468872
30
0
41
1
10
25.9975841869079
20
3.76645633917224
30
0
41
1
10
25.320943569543
20
3.96454412494566
30
0
41
1
10
24.8701697643623
20
4.07796096596439
30
0
41
1
10
24.1921778003394
20
4.2181697270679
30
0
41
1
10
23.9657192411452
20
4.2599412596295
30
0
41
1
10
23.5138760563742
20
4.33291755178414
30
0
41
1
10
23.2882477970848
20
4.36416270348198
30
0
41
1
10
22.611579501013
20
4.44196186686435
30
0
41
1
10
22.1607421888855
20
4.47258340329341
30
0
41
1
10
21.6049079552466
20
4.48361711023333
30
0
41
1
10
21.5010564261679
20
4.48453341539926
30
0
41
1
10
21.3972081717492
20
4.48430640221619
30
0
0
SPLINE
5
BF
100
AcDbEntity
8
1
62
256
6
ByLayer
370
18
48
1
60
0
100
AcDbSpline
70
4
71
3
72
16
73
12
40
0
40
0
40
0
40
0
40
0.0907350345487858
40
0.0907350345487858
40
0.218351518887351
40
0.218351518887351
40
0.345968003225917
40
0.345968003225917
40
0.856433940580179
40
0.856433940580179
40
1
40
1
40
1
40
1
41
1
10
46.623620922063
20
-4.2945992904931
30
0
41
1
10
46.462848626897
20
-4.2944685442578
30
0
41
1
10
46.3021023379503
20
-4.29169946207173
30
0
41
1
10
45.915186645606
20
-4.27870997526017
30
0
41
1
10
45.6889812887674
20
-4.26591369255911
30
0
41
1
10
45.2360658529973
20
-4.22999076374359
30
0
41
1
10
45.0089728741946
20
-4.20681324184474
30
0
41
1
10
43.876969637966
20
-4.06585552770909
30
0
41
1
10
42.9825940246483
20
-3.87341958992784
30
0
41
1
10
41.8365819957541
20
-3.53902585836519
30
0
41
1
10
41.5850055014246
20
-3.46020888550359
30
0
41
1
10
41.3331596217374
20
-3.37624489511603
30
0
0
SPLINE
5
C0
100
AcDbEntity
8
1
62
256
6
ByLayer
370
13
48
1
60
0
100
AcDbSpline
70
4
71
3
72
24
73
20
40
0
40
0
40
0
40
0
40
0.171663053607346
40
0.171663053607346
40
0.231371537337641
40
0.231371537337641
40
0.291080021067936
40
0.291080021067936
40
0.410496988528523
40
0.410496988528523
40
0.6493309234497
40
0.6493309234497
40
0.709039407179996
40
0.709039407179996
40
0.768747890910292
40
0.768747890910292
40
0.88816485837088
40
0.88816485837088
40
1
40
1
40
1
40
1
41
1
10
41.3331596217282
20
-3.37624489511296
30
0
41
1
10
40.6895379824043
20
-3.16166508461677
30
0
41
1
10
40.0441569391395
20
-2.91346918229337
30
0
41
1
10
39.1662315702832
20
-2.53965294400985
30
0
41
1
10
38.9393147000396
20
-2.43980656149626
30
0
41
1
10
38.4876211888892
20
-2.23551587741724
30
0
41
1
10
38.2623711477133
20
-2.13088865390023
30
0
41
1
10
37.588011793651
20
-1.81029088097199
30
0
41
1
10
37.140266530899
20
-1.58765133305744
30
0
41
1
10
35.7979291458103
20
-0.901291794739223
30
0
41
1
10
34.9044526292423
20
-0.418745647763643
30
0
41
1
10
33.775158693258
20
0.189572284570289
30
0
41
1
10
33.5482404103209
20
0.311758646969793
30
0
41
1
10
33.0949785031223
20
0.554641720764494
30
0
41
1
10
32.869032362946
20
0.675111873534888
30
0
41
1
10
32.1928608442203
20
1.03298050445434
30
0
41
1
10
31.7441543044815
20
1.26651947931904
30
0
41
1
10
30.8764914498349
20
1.70430962220351
30
0
41
1
10
30.4574594557098
20
1.90945600433417
30
0
41
1
10
30.0378509259477
20
2.10607087934244
30
0
0
SPLINE
5
C1
100
AcDbEntity
8
1
62
256
6
ByLayer
370
18
48
1
60
0
100
AcDbSpline
70
4
71
3
72
10
73
6
40
0
40
0
40
0
40
0
40
0.5
40
0.5
40
1
40
1
40
1
40
1
41
1
10
4.01112350632741
20
2.65182148805772
30
0
41
1
10
4.0202471800705
20
2.61780352145132
30
0
41
1
10
4.03460041911478
20
2.58601616793257
30
0
41
1
10
4.07447749324285
20
2.5282812226211
30
0
41
1
10
4.09946284691375
20
2.50327698811319
30
0
41
1
10
4.12935405843206
20
2.48421601509281
30
0
0
SPLINE
5
C2
100
AcDbEntity
8
1
62
256
6
ByLayer
370
18
48
1
60
0
100
AcDbSpline
70
4
71
3
72
98
73
94
40
0
40
0
40
0
40
0
40
0.0302648993095191
40
0.0302648993095191
40
0.0634318828138314
40
0.0634318828138314
40
0.0965988663181437
40
0.0965988663181437
40
0.1131823580703
40
0.1131823580703
40
0.129765849822456
40
0.129765849822456
40
0.146349341574612
40
0.146349341574612
40
0.162932833326768
40
0.162932833326768
40
0.179516325078924
40
0.179516325078924
40
0.19609981683108
40
0.19609981683108
40
0.212683308583237
40
0.212683308583237
40
0.229266800335393
40
0.229266800335393
40
0.262433783839705
40
0.262433783839705
40
0.295600767344017
40
0.295600767344017
40
0.328767750848329
40
0.328767750848329
40
0.345351242600485
40
0.345351242600485
40
0.361934734352641
40
0.361934734352641
40
0.378518226104798
40
0.378518226104798
40
0.395101717856954
40
0.395101717856954
40
0.41168520960911
40
0.41168520960911
40
0.428268701361266
40
0.428268701361266
40
0.461435684865578
40
0.461435684865578
40
0.478019176617734
40
0.478019176617734
40
0.49460266836989
40
0.49460266836989
40
0.511186160122046
40
0.511186160122046
40
0.527769651874203
40
0.527769651874203
40
0.560936635378514
40
0.560936635378514
40
0.594103618882825
40
0.594103618882825
40
0.627270602387137
40
0.627270602387137
40
0.660437585891448
40
0.660437585891448
40
0.677021077643604
40
0.677021077643604
40
0.69360456939576
40
0.69360456939576
40
0.710188061147916
40
0.710188061147916
40
0.726771552900072
40
0.726771552900072
40
0.743355044652229
40
0.743355044652229
40
0.759938536404385
40
0.759938536404385
40
0.776522028156541
40
0.776522028156541
40
0.793105519908697
40
0.793105519908697
40
0.826272503413009
40
0.826272503413009
40
0.842855995165166
40
0.842855995165166
40
0.859439486917322
40
0.859439486917322
40
0.876022978669479
40
0.876022978669479
40
0.892606470421636
40
0.892606470421636
40
0.92577345392595
40
0.92577345392595
40
0.958940437430264
40
0.958940437430264
40
0.992107420934578
40
0.992107420934578
40
1
40
1
40
1
40
1
41
1
10
14.616760010208
20
3.23628288176778
30
0
41
1
10
14.9328759220018
20
3.36006502855346
30
0
41
1
10
15.2482868239003
20
3.47455164549908
30
0
41
1
10
15.9068538840863
20
3.69717743064794
30
0
41
1
10
16.2491694274916
20
3.8040924372977
30
0
41
1
10
16.9345364890504
20
3.99437380023372
30
0
41
1
10
17.2772687707655
20
4.07824771833401
30
0
41
1
10
17.7903689117771
20
4.18783961270526
30
0
41
1
10
17.9613040248754
20
4.22157973798454
30
0
41
1
10
18.3040654383583
20
4.2828205639685
30
0
41
1
10
18.4757292373863
20
4.3104369865645
30
0
41
1
10
18.81947425402
20
4.35974179322722
30
0
41
1
10
18.991558502554
20
4.38142876685214
30
0
41
1
10
19.336020527522
20
4.41880875454137
30
0
41
1
10
19.5082743541619
20
4.43451795701398
30
0
41
1
10
19.8541658990296
20
4.45949685859105
30
0
41
1
10
20.0280029286642
20
4.46882573460132
30
0
41
1
10
20.3746593384625
20
4.48110907996318
30
0
41
1
10
20.5475674399696
20
4.48408105050041
30
0
41
1
10
20.8924177385944
20
4.48372298172703
30
0
41
1
10
21.0642113767964
20
4.48036755553741
30
0
41
1
10
21.4076241517106
20
4.4673927162759
30
0
41
1
10
21.5793220800489
20
4.45781038731428
30
0
41
1
10
22.0939709744994
20
4.41990019430418
30
0
41
1
10
22.4363285967775
20
4.38237405612227
30
0
41
1
10
23.1199288846118
20
4.28261914202372
30
0
41
1
10
23.4627408028829
20
4.22119476673615
30
0
41
1
10
24.1489426962984
20
4.07464610304751
30
0
41
1
10
24.4918499250377
20
3.98894163525014
30
0
41
1
10
25.0096250456001
20
3.84440304427855
30
0
41
1
10
25.1826513668756
20
3.79347609863902
30
0
41
1
10
25.5294531314827
20
3.68592919468352
30
0
41
1
10
25.7030045887473
20
3.62936592631181
30
0
41
1
10
26.0483242414139
20
3.51110421375748
30
0
41
1
10
26.2205405299861
20
3.44950590984826
30
0
41
1
10
26.5648901427104
20
3.32242174825862
30
0
41
1
10
26.7368857964332
20
3.25677965303999
30
0
41
1
10
27.0803384470394
20
3.12111953337694
30
0
41
1
10
27.2518150883719
20
3.05112725986012
30
0
41
1
10
27.5940391553986
20
2.90648232551877
30
0
41
1
10
27.7648328746705
20
2.8318768842837
30
0
41
1
10
28.2779830560872
20
2.60367285557913
30
0
41
1
10
28.6204589481731
20
2.444858612242
30
0
41
1
10
29.1338871337267
20
2.19529493750321
30
0
41
1
10
29.304843909643
20
2.1099727744741
30
0
41
1
10
29.6477039338025
20
1.93714120703143
30
0
41
1
10
29.8195374244782
20
1.84953540877817
30
0
41
1
10
30.1638061837981
20
1.67161367007512
30
0
41
1
10
30.3362391184558
20
1.58129294725651
30
0
41
1
10
30.6815874801931
20
1.3976601013772
30
0
41
1
10
30.8544290749144
20
1.30404323466277
30
0
41
1
10
31.3742881395351
20
1.0206516355355
30
0
41
1
10
31.7199016330983
20
0.830900687061302
30
0
41
1
10
32.4078877321509
20
0.447250422746095
30
0
41
1
10
32.7499340162538
20
0.252771504827763
30
0
41
1
10
33.4349853378915
20
-0.132679137466766
30
0
41
1
10
33.7772581105577
20
-0.324994727107423
30
0
41
1
10
34.460594782637
20
-0.71004797169698
30
0
41
1
10
34.8031933928734
20
-0.900024714174037
30
0
41
1
10
35.3183488005482
20
-1.18142200314816
30
0
41
1
10
35.4902372975106
20
-1.27469631993341
30
0
41
1
10
35.8342294217713
20
-1.46040628509638
30
0
41
1
10
36.0064276692368
20
-1.55267252386005
30
0
41
1
10
36.3522191051177
20
-1.73427470946891
30
0
41
1
10
36.5259642117931
20
-1.82404439152981
30
0
41
1
10
36.8725047530289
20
-2.00058535512812
30
0
41
1
10
37.0453182364184
20
-2.08733501410853
30
0
41
1
10
37.3898261215045
20
-2.25813659926837
30
0
41
1
10
37.5615128698646
20
-2.34218048301241
30
0
41
1
10
37.9049861440879
20
-2.50565817608904
30
0
41
1
10
38.0766245955156
20
-2.58534128903034
30
0
41
1
10
38.4195346213968
20
-2.74092223368848
30
0
41
1
10
38.5908131954274
20
-2.81680917171224
30
0
41
1
10
38.9328790043473
20
-2.96495278979415
30
0
41
1
10
39.1035163361122
20
-3.03739821308909
30
0
41
1
10
39.6161587172274
20
-3.247262014055
30
0
41
1
10
39.9587046695096
20
-3.37758750569804
30
0
41
1
10
40.4726755680564
20
-3.5599612214163
30
0
41
1
10
40.6439012859022
20
-3.61868035041419
30
0
41
1
10
40.9869932907094
20
-3.73096977790848
30
0
41
1
10
41.1590314051367
20
-3.78437229266603
30
0
41
1
10
41.5038785616118
20
-3.88593589250826
30
0
41
1
10
41.676690703042
20
-3.93409302329442
30
0
41
1
10
42.0229690734958
20
-4.02519734284303
30
0
41
1
10
42.1964546364804
20
-4.06819228836795
30
0
41
1
10
42.7143714601238
20
-4.18814311197218
30
0
41
1
10
43.0589515366867
20
-4.25538695527669
30
0
41
1
10
43.7456336699567
20
-4.36616451213618
30
0
41
1
10
44.0871215252646
20
-4.40977582651288
30
0
41
1
10
44.7713003968734
20
-4.47166568058128
30
0
41
1
10
45.113545237081
20
-4.49030352158937
30
0
41
1
10
45.5367587455124
20
-4.49805570839848
30
0
41
1
10
45.6180966254209
20
-4.49883503395515
30
0
41
1
10
45.6994820045675
20
-4.49890468425568
30
0
0
SPLINE
5
C3
100
AcDbEntity
8
1
62
256
6
ByLayer
370
18
48
1
60
0
100
AcDbSpline
70
4
71
3
72
16
73
12
40
0
40
0
40
0
40
0
40
0.214638883238162
40
0.214638883238162
40
0.467004530095054
40
0.467004530095054
40
0.5931873535235
40
0.5931873535235
40
0.719370176951945
40
0.719370176951945
40
1
40
1
40
1
40
1
41
1
10
21.6141322090966
20
-4.27937517364362
30
0
41
1
10
21.232802145294
20
-4.27880828005715
30
0
41
1
10
20.8520412203618
20
-4.26351005508644
30
0
41
1
10
20.0230073546771
20
-4.19850266999498
30
0
41
1
10
19.5744915722585
20
-4.14317099484234
30
0
41
1
10
18.8989010554654
20
-4.03040003466694
30
0
41
1
10
18.6732264599335
20
-3.98783690555601
30
0
41
1
10
18.2206434404861
20
-3.89292770163055
30
0
41
1
10
17.9933069764517
20
-3.8404318222529
30
0
41
1
10
17.2633991827392
20
-3.65708657461912
30
0
41
1
10
16.7631163098488
20
-3.50874946966081
30
0
41
1
10
16.2641339861577
20
-3.34117182831895
30
0
0
SPLINE
5
C4
100
AcDbEntity
8
1
62
256
6
ByLayer
370
13
48
1
60
0
100
AcDbSpline
70
4
71
3
72
24
73
20
40
0
40
0
40
0
40
0
40
0.104140120789515
40
0.104140120789515
40
0.221414625310198
40
0.221414625310198
40
0.280051877570539
40
0.280051877570539
40
0.33868912983088
40
0.33868912983088
40
0.573238138872244
40
0.573238138872244
40
0.807787147913607
40
0.807787147913607
40
0.866424400173948
40
0.866424400173948
40
0.92506165243429
40
0.92506165243429
40
1
40
1
40
1
40
1
41
1
10
16.2641339867091
20
-3.34117182850409
30
0
41
1
10
15.8656636052913
20
-3.20735000058269
30
0
41
1
10
15.4680225943187
20
-3.06125833140948
30
0
41
1
10
14.6222674858017
20
-2.72739948961205
30
0
41
1
10
14.17404142512
20
-2.53673256076118
30
0
41
1
10
13.4993874712593
20
-2.23282025928671
30
0
41
1
10
13.2740927382085
20
-2.12855287602764
30
0
41
1
10
12.8223057797661
20
-1.91462298308087
30
0
41
1
10
12.5955382841383
20
-1.80482212381372
30
0
41
1
10
11.4607922228998
20
-1.2451376232024
30
0
41
1
10
10.564936966218
20
-0.769754906397026
30
0
41
1
10
8.77251709034974
20
0.189742868662165
30
0
41
1
10
7.8767570983924
20
0.675371348410295
30
0
41
1
10
6.74269364812147
20
1.26135833155035
30
0
41
1
10
6.51540873190578
20
1.37731497175614
30
0
41
1
10
6.06209045468853
20
1.60517454585897
30
0
41
1
10
5.8357156246594
20
1.71726370901905
30
0
41
1
10
5.32012715793769
20
1.96742688007089
30
0
41
1
10
5.03091272974527
20
2.10400306465283
30
0
41
1
10
4.7413751065701
20
2.23618538122986
30
0
0
SPLINE
5
C5
100
AcDbEntity
8
1
62
256
6
ByLayer
370
18
48
1
60
0
100
AcDbSpline
70
4
71
3
72
10
73
6
40
0
40
0
40
0
40
0
40
0.5
40
0.5
40
1
40
1
40
1
40
1
41
1
10
4.1275069558684
20
2.53435141548104
30
0
41
1
10
4.09966997865243
20
2.5472356924958
30
0
41
1
10
4.07536296052956
20
2.56416353340094
30
0
41
1
10
4.03551351195955
20
2.60446765021007
30
0
41
1
10
4.02043727557336
20
2.62751292378553
30
0
41
1
10
4.01112350632795
20
2.65182148805155
30
0
0
SPLINE
5
C6
100
AcDbEntity
8
1
62
256
6
ByLayer
370
18
48
1
60
0
100
AcDbSpline
70
4
71
3
72
18
73
14
40
0
40
0
40
0
40
0
40
0.108383898649464
40
0.108383898649464
40
0.256986582207887
40
0.256986582207887
40
0.405589265766309
40
0.405589265766309
40
0.702794632883154
40
0.702794632883154
40
0.851397316441577
40
0.851397316441577
40
1
40
1
40
1
40
1
41
1
10
4.00418295927079
20
-4.47389117498352
30
0
41
1
10
4.00418454977364
20
-4.47337109918973
30
0
41
1
10
4.00418627800511
20
-4.46887720873434
30
0
41
1
10
4.00419073109916
20
-4.44881504308492
30
0
41
1
10
4.00419360136698
20
-4.42954294100059
30
0
41
1
10
4.00419982794537
20
-4.37610760618406
30
0
41
1
10
4.00420317012677
20
-4.34213127770434
30
0
41
1
10
4.00421378481576
20
-4.21903465381726
30
0
41
1
10
4.0042216642363
20
-4.1089601191365
30
0
41
1
10
4.00423399514003
20
-3.9003714152756
30
0
41
1
10
4.00423814475309
20
-3.8241785822334
30
0
41
1
10
4.00424625687023
20
-3.66041734641919
30
0
41
1
10
4.00425023332383
20
-3.57261850397717
30
0
41
1
10
4.00425402848123
20
-3.47895417902922
30
0
0
SPLINE
5
C7
100
AcDbEntity
8
1
62
256
6
ByLayer
370
18
48
1
60
0
100
AcDbSpline
70
4
71
3
72
22
73
18
40
0
40
0
40
0
40
0
40
0.0057707922322252
40
0.0057707922322252
40
0.0705372919514555
40
0.0705372919514555
40
0.329603290828376
40
0.329603290828376
40
0.459136290266837
40
0.459136290266837
40
0.588669289705298
40
0.588669289705298
40
0.718202289143759
40
0.718202289143759
40
0.84773528858222
40
0.84773528858222
40
1
40
1
40
1
40
1
41
1
10
11.9130124287155
20
-2.1289621861026
30
0
41
1
10
11.9073920580421
20
-2.13360867647509
30
0
41
1
10
11.9017718753962
20
-2.13825956636131
30
0
41
1
10
11.8330772908221
20
-2.19516097757449
30
0
41
1
10
11.7699563240982
20
-2.24800764633565
30
0
41
1
10
11.4549038553851
20
-2.51374499368291
30
0
41
1
10
11.2048361187426
20
-2.73130309799714
30
0
41
1
10
10.8225070463467
20
-3.05339740927485
30
0
41
1
10
10.6945471008078
20
-3.15936353379115
30
0
41
1
10
10.4384196171304
20
-3.36385745399434
30
0
41
1
10
10.3098444796131
20
-3.46272449709076
30
0
41
1
10
10.0497383554832
20
-3.65126272890504
30
0
41
1
10
9.91820238901789
20
-3.74092569314556
30
0
41
1
10
9.65025950537461
20
-3.90871895191441
30
0
41
1
10
9.51333515598549
20
-3.98700043173935
30
0
41
1
10
9.21592431173991
20
-4.13919219682856
30
0
41
1
10
9.05437834241394
20
-4.21055575759488
30
0
41
1
10
8.89143088762398
20
-4.2718466460463
30
0
0
SPLINE
5
C8
100
AcDbEntity
8
1
62
256
6
ByLayer
370
18
48
1
60
0
100
AcDbSpline
70
4
71
3
72
94
73
90
40
0
40
0
40
0
40
0
40
0.0045936852170032
40
0.0045936852170032
40
0.0402024117932601
40
0.0402024117932601
40
0.058006775081388
40
0.058006775081388
40
0.0758111383695159
40
0.0758111383695159
40
0.0936155016576438
40
0.0936155016576438
40
0.111419864945772
40
0.111419864945772
40
0.147028591522029
40
0.147028591522029
40
0.164832954810157
40
0.164832954810157
40
0.182637318098284
40
0.182637318098284
40
0.200441681386412
40
0.200441681386412
40
0.21824604467454
40
0.21824604467454
40
0.253854771250796
40
0.253854771250796
40
0.271659134538923
40
0.271659134538923
40
0.289463497827051
40
0.289463497827051
40
0.307267861115178
40
0.307267861115178
40
0.325072224403306
40
0.325072224403306
40
0.342876587691433
40
0.342876587691433
40
0.36068095097956
40
0.36068095097956
40
0.396289677555815
40
0.396289677555815
40
0.414094040843942
40
0.414094040843942
40
0.431898404132069
40
0.431898404132069
40
0.467507130708322
40
0.467507130708322
40
0.503115857284574
40
0.503115857284574
40
0.5209202205727
40
0.5209202205727
40
0.538724583860827
40
0.538724583860827
40
0.574333310437081
40
0.574333310437081
40
0.592137673725207
40
0.592137673725207
40
0.609942037013334
40
0.609942037013334
40
0.62774640030146
40
0.62774640030146
40
0.645550763589587
40
0.645550763589587
40
0.68115949016584
40
0.68115949016584
40
0.698963853453966
40
0.698963853453966
40
0.716768216742093
40
0.716768216742093
40
0.734572580030219
40
0.734572580030219
40
0.752376943318345
40
0.752376943318345
40
0.787985669894598
40
0.787985669894598
40
0.823594396470851
40
0.823594396470851
40
0.841398759758977
40
0.841398759758977
40
0.859203123047103
40
0.859203123047103
40
0.894811849623356
40
0.894811849623356
40
0.930420576199608
40
0.930420576199608
40
0.948224939487734
40
0.948224939487734
40
0.96602930277586
40
0.96602930277586
40
1
40
1
40
1
40
1
41
1
10
39.6253517473816
20
-3.25101226871266
30
0
41
1
10
39.5783504824493
20
-3.26761924704579
30
0
41
1
10
39.5313338739524
20
-3.28405495399701
30
0
41
1
10
39.1196504084282
20
-3.42628692160031
30
0
41
1
10
38.7538143566521
20
-3.54170083640079
30
0
41
1
10
38.2075903001057
20
-3.69589914600468
30
0
41
1
10
38.0256655006892
20
-3.74431305705051
30
0
41
1
10
37.6617644674481
20
-3.83584567399277
30
0
41
1
10
37.4797527596523
20
-3.87883061789407
30
0
41
1
10
37.1155223062535
20
-3.95838475659173
30
0
41
1
10
36.9333065477525
20
-3.9949079263605
30
0
41
1
10
36.5687416875414
20
-4.06206875304656
30
0
41
1
10
36.3863708534919
20
-4.09291389492961
30
0
41
1
10
35.8389317552761
20
-4.17503074916431
30
0
41
1
10
35.4745353240209
20
-4.21492098955542
30
0
41
1
10
34.9287274133141
20
-4.25700582663021
30
0
41
1
10
34.7468680534938
20
-4.26778081527746
30
0
41
1
10
34.3829510119067
20
-4.28196529187633
30
0
41
1
10
34.2008390238729
20
-4.28542514986228
30
0
41
1
10
33.8362420724173
20
-4.28652654411371
30
0
41
1
10
33.6536786563782
20
-4.28392980419136
30
0
41
1
10
33.2886519778656
20
-4.27164673775761
30
0
41
1
10
33.1066095597906
20
-4.26178204001582
30
0
41
1
10
32.5602482320522
20
-4.22232764507044
30
0
41
1
10
32.1960903979244
20
-4.18412256502589
30
0
41
1
10
31.6502745074341
20
-4.10482609634974
30
0
41
1
10
31.4683077025699
20
-4.07499040878571
30
0
41
1
10
31.1040049492998
20
-4.0099813889845
30
0
41
1
10
30.9216194306509
20
-3.97443937500663
30
0
41
1
10
30.5563501678003
20
-3.89699553771894
30
0
41
1
10
30.3739494230796
20
-3.85519160209913
30
0
41
1
10
30.0096687617286
20
-3.76540760432323
30
0
41
1
10
29.8278781097997
20
-3.71738180180563
30
0
41
1
10
29.4639817590393
20
-3.61592105383255
30
0
41
1
10
29.2819846808689
20
-3.56231288568861
30
0
41
1
10
28.9178700553885
20
-3.44868096584153
30
0
41
1
10
28.7358318278639
20
-3.38898498526231
30
0
41
1
10
28.1894938818093
20
-3.20341819261378
30
0
41
1
10
27.8242333462347
20
-3.06953984185856
30
0
41
1
10
27.2775074124034
20
-2.85578502503037
30
0
41
1
10
27.0954132218913
20
-2.7823758917672
30
0
41
1
10
26.7316145149712
20
-2.63053240399515
30
0
41
1
10
26.549996718501
20
-2.55165599590597
30
0
41
1
10
26.0042945355163
20
-2.31022778564687
30
0
41
1
10
25.6399000178902
20
-2.14332793993864
30
0
41
1
10
24.9103568039473
20
-1.79488801388715
30
0
41
1
10
24.546031483603
20
-1.61468161238764
30
0
41
1
10
24.0001287455748
20
-1.33804616694317
30
0
41
1
10
23.8182408353954
20
-1.24439909807151
30
0
41
1
10
23.4545815812178
20
-1.05526035682686
30
0
41
1
10
23.2728702316466
20
-0.959703298617285
30
0
41
1
10
22.7267681058644
20
-0.672170062047257
30
0
41
1
10
22.3612587143997
20
-0.477941997466388
30
0
41
1
10
21.8149529998813
20
-0.18443956465876
30
0
41
1
10
21.6330814172657
20
-0.0863769694454106
30
0
41
1
10
21.2694430483012
20
0.109443175930011
30
0
41
1
10
21.0876448431606
20
0.207115881044245
30
0
41
1
10
20.7238789903521
20
0.401850615849298
30
0
41
1
10
20.541945201541
20
0.498950589792145
30
0
41
1
10
20.1781450615182
20
0.692864677624016
30
0
41
1
10
19.9962824200778
20
0.789684904410308
30
0
41
1
10
19.4494757634227
20
1.07728706448583
30
0
41
1
10
19.0844509236425
20
1.26601910186719
30
0
41
1
10
18.5390353307359
20
1.54210836312996
30
0
41
1
10
18.357378393881
20
1.63275927260773
30
0
41
1
10
17.9938614981492
20
1.81158377154574
30
0
41
1
10
17.8120115060763
20
1.89963253758734
30
0
41
1
10
17.4480777031814
20
2.07250112209496
30
0
41
1
10
17.2659833087442
20
2.1573227603549
30
0
41
1
10
16.9017078239585
20
2.32423032128608
30
0
41
1
10
16.7193859354882
20
2.40635339539662
30
0
41
1
10
16.1728018110836
20
2.64538802478813
30
0
41
1
10
15.8089295334337
20
2.79561512479651
30
0
41
1
10
15.0819860595951
20
3.07986057027492
30
0
41
1
10
14.7185415453092
20
3.2123978176165
30
0
41
1
10
14.1718528891224
20
3.39544649668758
30
0
41
1
10
13.9892717253343
20
3.4540918605496
30
0
41
1
10
13.6249361412375
20
3.56611658578083
30
0
41
1
10
13.4430533410082
20
3.61937673898783
30
0
41
1
10
12.8971133638258
20
3.76982268982388
30
0
41
1
10
12.5332398289417
20
3.85870526201299
30
0
41
1
10
11.80545443799
20
4.01012882947796
30
0
41
1
10
11.440504081339
20
4.07325927084591
30
0
41
1
10
10.8938168460105
20
4.1499949504468
30
0
41
1
10
10.7117084098994
20
4.17246050223523
30
0
41
1
10
10.3480156073468
20
4.21092318794075
30
0
41
1
10
10.166315001029
20
4.22685615453915
30
0
41
1
10
9.63736950564407
20
4.26293117107323
30
0
41
1
10
9.28976438424991
20
4.27330798910609
30
0
41
1
10
8.94176388797979
20
4.27210511520349
30
0
0
SPLINE
5
C9
100
AcDbEntity
8
1
62
256
6
ByLayer
370
18
48
1
60
0
100
AcDbSpline
70
4
71
3
72
8
73
4
40
0
40
0
40
0
40
0
40
1
40
1
40
1
40
1
41
1
10
47.4399298569094
20
-4.46303339497194
30
0
41
1
10
47.4533458310565
20
-4.42710483964063
30
0
41
1
10
47.46674838555
20
-4.39115471739697
30
0
41
1
10
47.4801365223615
20
-4.35518571222383
30
0
0
SPLINE
5
CA
100
AcDbEntity
8
1
62
256
6
ByLayer
370
18
48
1
60
0
100
AcDbSpline
70
4
71
3
72
22
73
18
40
0
40
0
40
0
40
0
40
0.125
40
0.125
40
0.187499999999999
40
0.187499999999999
40
0.249999999999999
40
0.249999999999999
40
0.499999999999998
40
0.499999999999998
40
0.624999999999999
40
0.624999999999999
40
0.749999999999999
40
0.749999999999999
40
0.875
40
0.875
40
1
40
1
40
1
40
1
41
1
10
47.4367736100958
20
-4.29492920774709
30
0
41
1
10
47.3713896906989
20
-4.29485875416808
30
0
41
1
10
47.3093021862653
20
-4.28483752206998
30
0
41
1
10
47.2213748537896
20
-4.25409676061062
30
0
41
1
10
47.1929354340493
20
-4.24122453249078
30
0
41
1
10
47.1378721787581
20
-4.20999943247423
30
0
41
1
10
47.1112193496382
20
-4.191593963229
30
0
41
1
10
46.9845811400947
20
-4.08688940363146
30
0
41
1
10
46.9025385417419
20
-3.96243046660283
30
0
41
1
10
46.8103164741971
20
-3.71060197406177
30
0
41
1
10
46.7847081026205
20
-3.61482024125309
30
0
41
1
10
46.7460503233006
20
-3.40637756259474
30
0
41
1
10
46.7327280915463
20
-3.29331591161846
30
0
41
1
10
46.7180622356269
20
-3.04956306827185
30
0
41
1
10
46.7167165837653
20
-2.91887486016833
30
0
41
1
10
46.7265567863559
20
-2.63905517268415
30
0
41
1
10
46.7376761098005
20
-2.49255834793948
30
0
41
1
10
46.7546885436852
20
-2.34066355419441
30
0
0
SPLINE
5
CB
100
AcDbEntity
8
1
62
256
6
ByLayer
370
13
48
1
60
0
100
AcDbSpline
70
4
71
3
72
16
73
12
40
0
40
0
40
0
40
0
40
0.0879880103206247
40
0.0879880103206247
40
0.391992006880416
40
0.391992006880416
40
0.695996003440208
40
0.695996003440208
40
0.847998001720104
40
0.847998001720104
40
1
40
1
40
1
40
1
41
1
10
4.25044625475886
20
-4.26942813278933
30
0
41
1
10
4.25045213642591
20
-4.26927257673006
30
0
41
1
10
4.25045849129901
20
-4.26661627445358
30
0
41
1
10
4.25048898587252
20
-4.24367866254948
30
0
41
1
10
4.25051882769705
20
-4.19542950629275
30
0
41
1
10
4.25058666797111
20
-4.04345212189452
30
0
41
1
10
4.2506247323827
20
-3.94007826341055
30
0
41
1
10
4.25068432810505
20
-3.74362219604296
30
0
41
1
10
4.25070466863349
20
-3.6708379126012
30
0
41
1
10
4.25074456677999
20
-3.51344055553827
30
0
41
1
10
4.25076418142726
20
-3.4286890441436
30
0
41
1
10
4.25078293166547
20
-3.33788123686512
30
0
0
SPLINE
5
CC
100
AcDbEntity
8
1
62
256
6
ByLayer
370
18
48
1
60
0
100
AcDbSpline
70
4
71
3
72
18
73
14
40
0
40
0
40
0
40
0
40
0.0061205866800066
40
0.0061205866800066
40
0.3947711877595
40
0.3947711877595
40
0.58909648829925
40
0.58909648829925
40
0.686259138569126
40
0.686259138569126
40
0.783421788839003
40
0.783421788839003
40
1
40
1
40
1
40
1
41
1
10
33.9312412533021
20
-0.0062370665042408
30
0
41
1
10
33.9454855878707
20
-0.0140884461000894
30
0
41
1
10
33.9597260268722
20
-0.0219375554156898
30
0
41
1
10
34.8779477172198
20
-0.528030510446314
30
0
41
1
10
35.7716773094392
20
-1.02002711241445
30
0
41
1
10
37.1146532620931
20
-1.71703043698395
30
0
41
1
10
37.562646845783
20
-1.94264322466455
30
0
41
1
10
38.2375084157451
20
-2.26679589890821
30
0
41
1
10
38.462945008362
20
-2.3724615457576
30
0
41
1
10
38.9150835605985
20
-2.57849976743955
30
0
41
1
10
39.1423056950125
20
-2.67907562660832
30
0
41
1
10
39.8743744249206
20
-2.99215445767223
30
0
41
1
10
40.3760114695163
20
-3.18986292218497
30
0
41
1
10
40.8759937369318
20
-3.36711280159614
30
0
0
SPLINE
5
CD
100
AcDbEntity
8
1
62
256
6
ByLayer
370
13
48
1
60
0
100
AcDbSpline
70
4
71
3
72
16
73
12
40
0
40
0
40
0
40
0
40
0.18124834237188
40
0.18124834237188
40
0.590624171185935
40
0.590624171185935
40
0.692968128389451
40
0.692968128389451
40
0.795312085592965
40
0.795312085592965
40
1
40
1
40
1
40
1
41
1
10
40.8759937374632
20
-3.36711280178454
30
0
41
1
10
41.2732319599571
20
-3.50793865025494
30
0
41
1
10
41.6694256248843
20
-3.6358502706735
30
0
41
1
10
42.9604464977042
20
-4.00724257192911
30
0
41
1
10
43.8553015845893
20
-4.19350062792617
30
0
41
1
10
44.9885997694242
20
-4.32357334967716
30
0
41
1
10
45.2158766111019
20
-4.34440299758856
30
0
41
1
10
45.6691399848573
20
-4.37535499337596
30
0
41
1
10
45.8955157473005
20
-4.38552405977359
30
0
41
1
10
46.5744161588817
20
-4.40002154638952
30
0
41
1
10
47.0267412807406
20
-4.38804895870948
30
0
41
1
10
47.4801365223616
20
-4.35518571222383
30
0
0
SPLINE
5
CE
100
AcDbEntity
8
1
62
256
6
ByLayer
370
18
48
1
60
0
100
AcDbSpline
70
4
71
3
72
14
73
10
40
0
40
0
40
0
40
0
40
0.25
40
0.25
40
0.5
40
0.5
40
0.75
40
0.75
40
1
40
1
40
1
40
1
41
1
10
47.0685454102062
20
1.038094625083
30
0
41
1
10
47.0593343629933
20
1.06770488971651
30
0
41
1
10
47.0532658545569
20
1.09803793561053
30
0
41
1
10
47.0491844641734
20
1.16059779012383
30
0
41
1
10
47.050986625423
20
1.19339825079228
30
0
41
1
10
47.0688976783044
20
1.25509988625163
30
0
41
1
10
47.0864383305104
20
1.28353792543479
30
0
41
1
10
47.1351412155358
20
1.3254322499163
30
0
41
1
10
47.1657894668882
20
1.33896328481333
30
0
41
1
10
47.1973520042923
20
1.3461717429758
30
0
0
SPLINE
5
CF
100
AcDbEntity
8
1
62
256
6
ByLayer
370
13
48
1
60
0
100
AcDbSpline
70
4
71
3
72
21
73
17
40
0
40
0
40
0
40
0
40
0.212266710882772
40
0.212266710882772
40
0.318400066324158
40
0.318400066324158
40
0.424533421765543
40
0.530666777206929
40
0.530666777206929
40
0.636800132648315
40
0.636800132648315
40
0.849066843531086
40
0.849066843531086
40
0.955200198972471
40
0.955200198972471
40
1
40
1
40
1
40
1
41
1
10
4.25028034459422
20
2.45589358555202
30
0
41
1
10
4.25031171319486
20
2.69497759983037
30
0
41
1
10
4.25033197031121
20
2.91418157054389
30
0
41
1
10
4.25035267723922
20
3.21339450827341
30
0
41
1
10
4.25035792456092
20
3.30777853965316
30
0
41
1
10
4.25036620783982
20
3.48316052479322
30
0
41
1
10
4.25037234402987
20
3.64606804370797
30
0
41
1
10
4.25037652865294
20
3.78433257026344
30
0
41
1
10
4.25038081984502
20
3.91004410225409
30
0
41
1
10
4.25038303507716
20
3.96683422476357
30
0
41
1
10
4.25039120597549
20
4.11459837185785
30
0
41
1
10
4.25039877739374
20
4.18431217535485
30
0
41
1
10
4.25041763368247
20
4.24626226066252
30
0
41
1
10
4.25042517570819
20
4.25976850166742
30
0
41
1
10
4.25043795575166
20
4.26833666980119
30
0
41
1
10
4.25044199421407
20
4.26954687064716
30
0
41
1
10
4.25044628431442
20
4.26942733017697
30
0
0
SPLINE
5
D0
100
AcDbEntity
8
1
62
256
6
ByLayer
370
18
48
1
60
0
100
AcDbSpline
70
4
71
3
72
12
73
8
40
0
40
0
40
0
40
0
40
0.249999999999998
40
0.249999999999998
40
0.499999999999996
40
0.499999999999996
40
1
40
1
40
1
40
1
41
1
10
47.4801365223366
20
-4.35518571222565
30
0
41
1
10
47.4850393748393
20
-4.34201354872641
30
0
41
1
10
47.4896780891683
20
-4.32858143905628
30
0
41
1
10
47.4971461545199
20
-4.30449179304819
30
0
41
1
10
47.4999562103295
20
-4.29385312181975
30
0
41
1
10
47.5045832638741
20
-4.27046946381117
30
0
41
1
10
47.5028494591917
20
-4.26620173853382
30
0
41
1
10
47.4986556745981
20
-4.26923773807937
30
0
0
SPLINE
5
D1
100
AcDbEntity
8
1
62
256
6
ByLayer
370
13
48
1
60
0
100
AcDbSpline
70
4
71
3
72
8
73
4
40
0
40
0
40
0
40
0
40
1
40
1
40
1
40
1
41
1
10
4.00413953688576
20
2.68858359418184
30
0
41
1
10
4.00859787660769
20
2.66297150316373
30
0
41
1
10
4.0166173093196
20
2.63808568699906
30
0
41
1
10
4.0280954693356
20
2.61474305748342
30
0
0
SPLINE
5
D2
100
AcDbEntity
8
1
62
256
6
ByLayer
370
18
48
1
60
0
100
AcDbSpline
70
2053
71
3
72
62
73
58
40
0
40
0
40
0
40
0
40
0.0312500000000009
40
0.0312500000000009
40
0.0625000000000018
40
0.0625000000000018
40
0.0937500000000027
40
0.0937500000000027
40
0.125000000000004
40
0.125000000000004
40
0.156250000000004
40
0.156250000000004
40
0.187500000000005
40
0.187500000000005
40
0.218750000000006
40
0.218750000000006
40
0.250000000000007
40
0.250000000000007
40
0.281250000000008
40
0.281250000000008
40
0.312500000000009
40
0.312500000000009
40
0.375000000000008
40
0.375000000000008
40
0.437500000000007
40
0.437500000000007
40
0.468750000000006
40
0.468750000000006
40
0.500000000000006
40
0.500000000000006
40
0.531250000000005
40
0.531250000000005
40
0.562500000000005
40
0.562500000000005
40
0.593750000000005
40
0.593750000000005
40
0.625000000000004
40
0.625000000000004
40
0.656250000000004
40
0.656250000000004
40
0.687500000000003
40
0.687500000000003
40
0.718750000000003
40
0.718750000000003
40
0.750000000000002
40
0.750000000000002
40
0.812500000000003
40
0.812500000000003
40
0.843750000000003
40
0.843750000000003
40
0.875000000000003
40
0.875000000000003
40
0.906250000000004
40
0.906250000000004
40
0.937500000000004
40
0.937500000000004
40
1
40
1
40
1
40
1
41
1
10
47.7398158564685
20
-1.55120070724045
30
0
41
1
10
47.7170603989454
20
-1.58348406453382
30
0
41
1
10
47.6947643591189
20
-1.61810251263498
30
0
41
1
10
47.6511670427956
20
-1.69239551684083
30
0
41
1
10
47.6296334972226
20
-1.73254991924546
30
0
41
1
10
47.589018558454
20
-1.81639813368821
30
0
41
1
10
47.5700132556888
20
-1.85982378522405
30
0
41
1
10
47.5349760298562
20
-1.95010372892838
30
0
41
1
10
47.5192845181369
20
-1.99623923467405
30
0
41
1
10
47.4930378639648
20
-2.08685157554379
30
0
41
1
10
47.482157305398
20
-2.13260960413254
30
0
41
1
10
47.4665703934252
20
-2.21877821380949
30
0
41
1
10
47.4617094233175
20
-2.25957270974124
30
0
41
1
10
47.4578835961615
20
-2.33526380470502
30
0
41
1
10
47.4589392198126
20
-2.36903776039097
30
0
41
1
10
47.4663428686151
20
-2.42932670990106
30
0
41
1
10
47.4726879870078
20
-2.45534384452176
30
0
41
1
10
47.4896314554693
20
-2.49881543086391
30
0
41
1
10
47.500385292656
20
-2.51658763900895
30
0
41
1
10
47.5251262686456
20
-2.54374238468188
30
0
41
1
10
47.5391439651596
20
-2.5533126961528
30
0
41
1
10
47.5857272400804
20
-2.57100333131217
30
0
41
1
10
47.6216830748685
20
-2.56789643397087
30
0
41
1
10
47.7011507822909
20
-2.53520752776529
30
0
41
1
10
47.743289905158
20
-2.5062480759448
30
0
41
1
10
47.8097283710425
20
-2.4442631355663
30
0
41
1
10
47.8323520537199
20
-2.42046433790145
30
0
41
1
10
47.8772638242347
20
-2.36782439156406
30
0
41
1
10
47.8997304430158
20
-2.33882885392634
30
0
41
1
10
47.9446870635762
20
-2.27500905601329
30
0
41
1
10
47.967407201062
20
-2.23977276783711
30
0
41
1
10
48.0112390274807
20
-2.16511798454201
30
0
41
1
10
48.0324471338554
20
-2.12563908984441
30
0
41
1
10
48.0732418240748
20
-2.04175239824193
30
0
41
1
10
48.0926750922978
20
-1.99754226655901
30
0
41
1
10
48.1277094414841
20
-1.90788384484122
30
0
41
1
10
48.1437492977379
20
-1.861226178116
30
0
41
1
10
48.1704800349223
20
-1.76993508529682
30
0
41
1
10
48.1812925044406
20
-1.72520949785428
30
0
41
1
10
48.1974393393541
20
-1.63773240453864
30
0
41
1
10
48.2024111974443
20
-1.59683819799534
30
0
41
1
10
48.2064462286301
20
-1.52128116677483
30
0
41
1
10
48.2054347749125
20
-1.48671900531943
30
0
41
1
10
48.1980705875896
20
-1.4266316645338
30
0
41
1
10
48.1916441501363
20
-1.40042076139244
30
0
41
1
10
48.1659767447798
20
-1.33541131494459
30
0
41
1
10
48.140092944221
20
-1.30893406022167
30
0
41
1
10
48.0935140350552
20
-1.29182391657994
30
0
41
1
10
48.0764618743164
20
-1.28981548470514
30
0
41
1
10
48.0405664484306
20
-1.29277384450452
30
0
41
1
10
48.0216945497257
20
-1.29767262577863
30
0
41
1
10
47.9821973575696
20
-1.31395796527698
30
0
41
1
10
47.9614133635802
20
-1.32547291226439
30
0
41
1
10
47.9190957420683
20
-1.35446897029723
30
0
41
1
10
47.8975189694899
20
-1.37192263627026
30
0
41
1
10
47.8315257014421
20
-1.43321464754382
30
0
41
1
10
47.7853267715147
20
-1.48663399265371
30
0
41
1
10
47.7398158564685
20
-1.55120070724045
30
0
0
SPLINE
5
D3
100
AcDbEntity
8
1
62
256
6
ByLayer
370
18
48
1
60
0
100
AcDbSpline
70
4
71
3
72
18
73
14
40
0
40
0
40
0
40
0
40
0.250000000000005
40
0.250000000000005
40
0.375000000000007
40
0.375000000000007
40
0.500000000000009
40
0.500000000000009
40
0.750000000000007
40
0.750000000000007
40
0.875000000000004
40
0.875000000000004
40
1
40
1
40
1
40
1
41
1
10
48.3485424173861
20
-2.1988232076387
30
0
41
1
10
48.2800373999491
20
-2.38282754583975
30
0
41
1
10
48.2114697517677
20
-2.56674520995725
30
0
41
1
10
48.1082496508523
20
-2.84211156450789
30
0
41
1
10
48.073769938102
20
-2.93383811070007
30
0
41
1
10
48.0047504856431
20
-3.11695431026587
30
0
41
1
10
47.9701799376452
20
-3.20822218120134
30
0
41
1
10
47.8664293099025
20
-3.48183977165215
30
0
41
1
10
47.7972386540218
20
-3.66413902404406
30
0
41
1
10
47.6929472060717
20
-3.93517593277969
30
0
41
1
10
47.6581098708722
20
-4.02517075059373
30
0
41
1
10
47.5883767164964
20
-4.20488131283059
30
0
41
1
10
47.5534591591539
20
-4.29449332723789
30
0
41
1
10
47.5183964550563
20
-4.38341273147373
30
0
0
SPLINE
5
D4
100
AcDbEntity
8
1
62
256
6
ByLayer
370
18
48
1
60
0
100
AcDbSpline
70
4
71
3
72
24
73
20
40
0
40
0
40
0
40
0
40
0.124999999999994
40
0.124999999999994
40
0.187499999999993
40
0.187499999999993
40
0.249999999999991
40
0.249999999999991
40
0.374999999999993
40
0.374999999999993
40
0.499999999999994
40
0.499999999999994
40
0.562499999999995
40
0.562499999999995
40
0.624999999999996
40
0.624999999999996
40
0.749999999999997
40
0.749999999999997
40
1
40
1
40
1
40
1
41
1
10
43.856735137923
20
1.38482238874914
30
0
41
1
10
43.9119687594294
20
1.19767588360753
30
0
41
1
10
43.9815141636161
20
1.01226872268973
30
0
41
1
10
44.104155351535
20
0.736384828024512
30
0
41
1
10
44.1481098468196
20
0.644797132239262
30
0
41
1
10
44.241834629365
20
0.46232854738912
30
0
41
1
10
44.2915790349022
20
0.371562101047374
30
0
41
1
10
44.4461593489203
20
0.105068754888322
30
0
41
1
10
44.5571684923687
20
-0.066633981858871
30
0
41
1
10
44.7922716758545
20
-0.400237635817064
30
0
41
1
10
44.9163801255171
20
-0.562127758862033
30
0
41
1
10
45.1112203692634
20
-0.798462627034553
30
0
41
1
10
45.1777141381898
20
-0.876242956934618
30
0
41
1
10
45.3119644406253
20
-1.02805202115306
30
0
41
1
10
45.3798972246131
20
-1.10230069738589
30
0
41
1
10
45.5859307387169
20
-1.32046406611565
30
0
41
1
10
45.7262505607779
20
-1.45982904669739
30
0
41
1
10
46.1548214388276
20
-1.86231862727584
30
0
41
1
10
46.4505418529718
20
-2.11012911292164
30
0
41
1
10
46.7546885436852
20
-2.34066355419441
30
0
0
SPLINE
5
D5
100
AcDbEntity
8
1
62
256
6
ByLayer
370
18
48
1
60
0
100
AcDbSpline
70
4
71
3
72
36
73
32
40
0
40
0
40
0
40
0
40
0.250000000000016
40
0.250000000000016
40
0.375000000000024
40
0.375000000000024
40
0.500000000000032
40
0.500000000000032
40
0.62500000000004
40
0.62500000000004
40
0.687500000000041
40
0.687500000000041
40
0.718750000000041
40
0.718750000000041
40
0.734375000000042
40
0.734375000000042
40
0.750000000000042
40
0.750000000000042
40
0.781250000000037
40
0.781250000000037
40
0.812500000000031
40
0.812500000000031
40
0.875000000000021
40
0.875000000000021
40
0.906250000000016
40
0.906250000000016
40
0.937500000000011
40
0.937500000000011
40
0.968750000000005
40
0.968750000000005
40
1
40
1
40
1
40
1
41
1
10
43.8567351379232
20
1.38482238874954
30
0
41
1
10
44.172926665716
20
1.15966163708705
30
0
41
1
10
44.4927244511688
20
0.95744767119254
30
0
41
1
10
44.9799512304906
20
0.70204110729594
30
0
41
1
10
45.1436606799446
20
0.62482953258808
30
0
41
1
10
45.4738302654156
20
0.489324780719471
30
0
41
1
10
45.6376656741659
20
0.432072568364703
30
0
41
1
10
45.9625399861766
20
0.341070738091702
30
0
41
1
10
46.1238665603679
20
0.307229350019071
30
0
41
1
10
46.3625274398254
20
0.277021346206396
30
0
41
1
10
46.4411498941686
20
0.270430896315162
30
0
41
1
10
46.5576124216935
20
0.266041493209997
30
0
41
1
10
46.5961996223696
20
0.265495723660195
30
0
41
1
10
46.6536599966428
20
0.266093904737602
30
0
41
1
10
46.6727573236682
20
0.266489720419997
30
0
41
1
10
46.7102770545809
20
0.26920396147105
30
0
41
1
10
46.7288314375391
20
0.271172460264666
30
0
41
1
10
46.783617166426
20
0.27897280549135
30
0
41
1
10
46.8189992601348
20
0.286690759777088
30
0
41
1
10
46.8869380747768
20
0.308357158005634
30
0
41
1
10
46.9195398955483
20
0.322439182826088
30
0
41
1
10
47.0081358682599
20
0.377297960942968
30
0
41
1
10
47.0562981112965
20
0.43254965899223
30
0
41
1
10
47.1003497695547
20
0.538144681950342
30
0
41
1
10
47.1107215012996
20
0.577791313555906
30
0
41
1
10
47.1228803748548
20
0.661777331392585
30
0
41
1
10
47.1247223666692
20
0.705864259460895
30
0
41
1
10
47.120645783828
20
0.797872973368499
30
0
41
1
10
47.1147109629584
20
0.845412457253389
30
0
41
1
10
47.0966104098584
20
0.940886753444005
30
0
41
1
10
47.0836984806564
20
0.989382853699084
30
0
41
1
10
47.0685454102062
20
1.03809462508298
30
0
0
SPLINE
5
D6
100
AcDbEntity
8
1
62
256
6
ByLayer
370
18
48
1
60
0
100
AcDbSpline
70
4
71
3
72
8
73
4
40
0
40
0
40
0
40
0
40
1
40
1
40
1
40
1
41
1
10
4.01112350633383
20
2.65182148803379
30
0
41
1
10
4.00651795073571
20
2.66384180346748
30
0
41
1
10
4.0041391641123
20
2.67609175451611
30
0
41
1
10
4.00413953688584
20
2.68858359417263
30
0
0
SPLINE
5
D7
100
AcDbEntity
8
1
62
256
6
ByLayer
370
18
48
1
60
0
100
AcDbSpline
70
4
71
3
72
14
73
10
40
0
40
0
40
0
40
0
40
0.25
40
0.25
40
0.5
40
0.5
40
0.75
40
0.75
40
1
40
1
40
1
40
1
41
1
10
4.25078293166547
20
-3.33788123686259
30
0
41
1
10
4.22568353635864
20
-3.32608442892362
30
0
41
1
10
4.19952499982998
20
-3.31827911522802
30
0
41
1
10
4.14557138999808
20
-3.31507361387185
30
0
41
1
10
4.11821136208448
20
-3.32021492317449
30
0
41
1
10
4.0700056006292
20
-3.34628113135008
30
0
41
1
10
4.04912113545396
20
-3.36736214823526
30
0
41
1
10
4.01870738617083
20
-3.41894265422178
30
0
41
1
10
4.00919002395301
20
-3.44858830947729
30
0
41
1
10
4.00425402848367
20
-3.47895417901955
30
0
0
SPLINE
5
D8
100
AcDbEntity
8
1
62
256
6
ByLayer
370
18
48
1
60
0
100
AcDbSpline
70
4
71
3
72
22
73
18
40
0
40
0
40
0
40
0
40
0.25
40
0.25
40
0.500000000000001
40
0.500000000000001
40
0.625000000000001
40
0.625000000000001
40
0.687500000000001
40
0.687500000000001
40
0.750000000000001
40
0.750000000000001
40
0.812500000000001
40
0.812500000000001
40
0.875000000000001
40
0.875000000000001
40
1
40
1
40
1
40
1
41
1
10
47.1973520042923
20
1.34617174297577
30
0
41
1
10
47.3247846941051
20
1.37527565186886
30
0
41
1
10
47.4512857258093
20
1.40827030130964
30
0
41
1
10
47.7001439653598
20
1.48800385961485
30
0
41
1
10
47.8216229674014
20
1.53402300504234
30
0
41
1
10
47.994452304958
20
1.62327281255512
30
0
41
1
10
48.0508795945866
20
1.65674937786514
30
0
41
1
10
48.1299118629369
20
1.71483080467522
30
0
41
1
10
48.1552100755265
20
1.73543505481607
30
0
41
1
10
48.2031024852307
20
1.77988563208808
30
0
41
1
10
48.2258311231478
20
1.80392465624411
30
0
41
1
10
48.2665212725419
20
1.85486200830212
30
0
41
1
10
48.2846003466526
20
1.88182603119225
30
0
41
1
10
48.3152604763683
20
1.93941523439062
30
0
41
1
10
48.3279059304227
20
1.97047632900294
30
0
41
1
10
48.3545688102469
20
2.06551209744461
30
0
41
1
10
48.3575681493564
20
2.13328137526554
30
0
41
1
10
48.3485424173866
20
2.19882320763844
30
0
0
SPLINE
5
D9
100
AcDbEntity
8
1
62
256
6
ByLayer
370
18
48
1
60
0
100
AcDbSpline
70
4
71
3
72
64
73
60
40
0
40
0
40
0
40
0
40
0.0625000000000127
40
0.0625000000000127
40
0.125000000000025
40
0.125000000000025
40
0.250000000000052
40
0.250000000000052
40
0.375000000000078
40
0.375000000000078
40
0.500000000000105
40
0.500000000000105
40
0.562500000000118
40
0.562500000000118
40
0.625000000000132
40
0.625000000000132
40
0.65625000000014
40
0.65625000000014
40
0.671875000000143
40
0.671875000000143
40
0.675781250000145
40
0.675781250000145
40
0.679687500000146
40
0.679687500000146
40
0.681640625000146
40
0.681640625000146
40
0.683593750000146
40
0.683593750000146
40
0.687500000000145
40
0.687500000000145
40
0.703125000000138
40
0.703125000000138
40
0.718750000000131
40
0.718750000000131
40
0.750000000000116
40
0.750000000000116
40
0.765625000000109
40
0.765625000000109
40
0.781250000000102
40
0.781250000000102
40
0.796875000000094
40
0.796875000000094
40
0.804687500000091
40
0.804687500000091
40
0.812500000000087
40
0.812500000000087
40
0.82812500000008
40
0.82812500000008
40
0.843750000000072
40
0.843750000000072
40
0.859375000000065
40
0.859375000000065
40
0.875000000000058
40
0.875000000000058
40
0.906250000000043
40
0.906250000000043
40
0.937500000000028
40
0.937500000000028
40
1
40
1
40
1
40
1
41
1
10
14.5258197722245
20
-3.20044913475414
30
0
41
1
10
14.2063080617503
20
-3.07393777972933
30
0
41
1
10
13.8849927271688
20
-2.94259776220355
30
0
41
1
10
13.2379191460495
20
-2.67323670792271
30
0
41
1
10
12.9115998855336
20
-2.53497504908799
30
0
41
1
10
11.9282444035149
20
-2.11710397726912
30
0
41
1
10
11.2691824085652
20
-1.83543818373681
30
0
41
1
10
9.93448513225292
20
-1.29784218521405
30
0
41
1
10
9.25876065933605
20
-1.04216263196128
30
0
41
1
10
7.88265983860998
20
-0.58665220694698
30
0
41
1
10
7.18228429158577
20
-0.386904100906037
30
0
41
1
10
6.10965016818329
20
-0.145688670813143
30
0
41
1
10
5.74821224974832
20
-0.0749519483155154
30
0
41
1
10
5.02300832099479
20
0.0443991403274424
30
0
41
1
10
4.65834462446747
20
0.0932061560419015
30
0
41
1
10
4.10995617587201
20
0.149049694352698
30
0
41
1
10
3.92689876129467
20
0.16477923116193
30
0
41
1
10
3.65191127851173
20
0.18394688422552
30
0
41
1
10
3.56018187677822
20
0.189598154346413
30
0
41
1
10
3.44543535476521
20
0.195727685254837
30
0
41
1
10
3.42248022811828
20
0.197334864949539
30
0
41
1
10
3.37658381195607
20
0.198585185544602
30
0
41
1
10
3.35321157178544
20
0.196783050516643
30
0
41
1
10
3.31988791591559
20
0.1887601365394
30
0
41
1
10
3.30913519698564
20
0.185224290884463
30
0
41
1
10
3.28870002113638
20
0.175555844609022
30
0
41
1
10
3.2788298481639
20
0.169878523777101
30
0
41
1
10
3.24883847996898
20
0.153769297196789
30
0
41
1
10
3.22890556771142
20
0.142883192318493
30
0
41
1
10
3.12970269876163
20
0.0877652724889799
30
0
41
1
10
3.05169511082363
20
0.0414223783672298
30
0
41
1
10
2.89892833403593
20
-0.0566573248156601
30
0
41
1
10
2.8241739594136
20
-0.108415150091247
30
0
41
1
10
2.60833768917675
20
-0.271747046773953
30
0
41
1
10
2.47454632713007
20
-0.391468060855516
30
0
41
1
10
2.29834530025988
20
-0.597137902978403
30
0
41
1
10
2.24372520653992
20
-0.670467430200489
30
0
41
1
10
2.14931291102442
20
-0.822951551584765
30
0
41
1
10
2.10898222979569
20
-0.902631956029154
30
0
41
1
10
2.04531973428106
20
-1.07039785690057
30
0
41
1
10
2.02324739081806
20
-1.15533649177712
30
0
41
1
10
2.00502277957901
20
-1.28414082065245
30
0
41
1
10
2.00142876209043
20
-1.32731428349786
30
0
41
1
10
1.99926631001892
20
-1.41412712902601
30
0
41
1
10
2.00073900637901
20
-1.45768738623087
30
0
41
1
10
2.01223105271501
20
-1.58571270514824
30
0
41
1
10
2.02922898235874
20
-1.66868095743857
30
0
41
1
10
2.07888299702978
20
-1.83047445827293
30
0
41
1
10
2.11116587355545
20
-1.90794131502318
30
0
41
1
10
2.18606574972617
20
-2.05528468112459
30
0
41
1
10
2.22884575039356
20
-2.12559258149912
30
0
41
1
10
2.32275662288612
20
-2.26081700303851
30
0
41
1
10
2.37404944255684
20
-2.32583694481454
30
0
41
1
10
2.53498657040319
20
-2.51080217248162
30
0
41
1
10
2.65243172917838
20
-2.62227075259375
30
0
41
1
10
2.9001629808435
20
-2.82948623004603
30
0
41
1
10
3.03085373675776
20
-2.92529641941385
30
0
41
1
10
3.43507250894478
20
-3.19348608832866
30
0
41
1
10
3.71645516292827
20
-3.34479031849287
30
0
41
1
10
4.00425402845124
20
-3.47895417901955
30
0
0
SPLINE
5
DA
100
AcDbEntity
8
1
62
256
6
ByLayer
370
18
48
1
60
0
100
AcDbSpline
70
4
71
3
72
20
73
16
40
0
40
0
40
0
40
0
40
0.107865623624025
40
0.107865623624025
40
0.215731247248049
40
0.215731247248049
40
0.431462494496098
40
0.431462494496098
40
0.647193741744147
40
0.647193741744147
40
0.755059365368172
40
0.755059365368172
40
0.862924988992196
40
0.862924988992196
40
1
40
1
40
1
40
1
41
1
10
4.00413953688587
20
2.68858359418258
30
0
41
1
10
4.00414313514199
20
2.80916264519263
30
0
41
1
10
4.00414620721119
20
2.92550574506294
30
0
41
1
10
4.00415143327115
20
3.14632256516367
30
0
41
1
10
4.00415359250565
20
3.25084859085538
30
0
41
1
10
4.00415908185511
20
3.54722713957776
30
0
41
1
10
4.00416142626105
20
3.72205555856101
30
0
41
1
10
4.004165288081
20
4.02436614729135
30
0
41
1
10
4.00416676118411
20
4.14695046380342
30
0
41
1
10
4.00416952378015
20
4.2890831709534
30
0
41
1
10
4.00417053313615
20
4.32948949774215
30
0
41
1
10
4.00417289999703
20
4.3960241061838
30
0
41
1
10
4.00417426328525
20
4.42209424095611
30
0
41
1
10
4.00417783572124
20
4.46364505342177
30
0
41
1
10
4.00418018891691
20
4.47479982203532
30
0
41
1
10
4.00418296023767
20
4.47389085833066
30
0
0
SPLINE
5
DB
100
AcDbEntity
8
1
62
256
6
ByLayer
370
18
48
1
60
0
100
AcDbSpline
70
4
71
3
72
16
73
12
40
0
40
0
40
0
40
0
40
0.25
40
0.25
40
0.375
40
0.375
40
0.5
40
0.5
40
0.75
40
0.75
40
1
40
1
40
1
40
1
41
1
10
8.89147266215502
20
-4.27185016573321
30
0
41
1
10
8.49067872370753
20
-4.26919120351465
30
0
41
1
10
8.0928194324261
20
-4.251271211871
30
0
41
1
10
7.49838943253658
20
-4.19633654928626
30
0
41
1
10
7.30044749277562
20
-4.17356595175454
30
0
41
1
10
6.90753889411093
20
-4.11835689972315
30
0
41
1
10
6.71236633749089
20
-4.08562406606973
30
0
41
1
10
6.13022073146098
20
-3.97313068124347
30
0
41
1
10
5.74638058254928
20
-3.88000254094189
30
0
41
1
10
4.9892004773406
20
-3.64766165586477
30
0
41
1
10
4.61559193499318
20
-3.50934280758895
30
0
41
1
10
4.25078293340158
20
-3.33788123767857
30
0
0
SPLINE
5
DC
100
AcDbEntity
8
SK1
62
256
6
ByLayer
370
18
48
1
60
0
100
AcDbSpline
70
4
71
3
72
10
73
6
40
0
40
0
40
0
40
0
40
0.5
40
0.5
40
1
40
1
40
1
40
1
41
1
10
-40
20
0.0773628614480515
30
0
41
1
10
-39.8300550395376
20
0.219825282071184
30
0
41
1
10
-39.6562362217553
20
0.36137299074494
30
0
41
1
10
-39.3053142529543
20
0.643692897120133
30
0
41
1
10
-39.1281046064878
20
0.784439948655688
30
0
41
1
10
-38.95
20
0.924975678359232
30
0
0
SPLINE
5
DD
100
AcDbEntity
8
SK1
62
256
6
ByLayer
370
18
48
1
60
0
100
AcDbSpline
70
4
71
3
72
14
73
10
40
0
40
0
40
0
40
0
40
0.5
40
0.5
40
0.750000000000002
40
0.750000000000002
40
0.875000000000001
40
0.875000000000001
40
1
40
1
40
1
40
1
41
1
10
-38.9500000000001
20
0.924975678359175
30
0
41
1
10
-38.9287234691649
20
0.94176419857456
30
0
41
1
10
-38.9083432483059
20
0.964033750197586
30
0
41
1
10
-38.880223151313
20
1.00772221266351
30
0
41
1
10
-38.8713218079587
20
1.02401231126603
30
0
41
1
10
-38.8602667834558
20
1.05150800984055
30
0
41
1
10
-38.8569157654531
20
1.06130376181326
30
0
41
1
10
-38.851744720606
20
1.08244225566114
30
0
41
1
10
-38.8499999999999
20
1.09369630193225
30
0
41
1
10
-38.8499999999999
20
1.10448130855474
30
0
0
SPLINE
5
DE
100
AcDbEntity
8
SK1
62
256
6
ByLayer
370
18
48
1
60
0
100
AcDbSpline
70
4
71
3
72
10
73
6
40
0
40
0
40
0
40
0
40
0.5
40
0.5
40
1
40
1
40
1
40
1
41
1
10
-38.95
20
3.17000614809979
30
0
41
1
10
-39.1281021891728
20
3.02947232580973
30
0
41
1
10
-39.3053148246314
20
2.88872291224479
30
0
41
1
10
-39.6562371270631
20
2.60640272685362
30
0
41
1
10
-39.8300558091376
20
2.46485510666719
30
0
41
1
10
-40
20
2.32239333118861
30
0
0
SPLINE
5
DF
100
AcDbEntity
8
SK1
62
256
6
ByLayer
370
18
48
1
60
0
100
AcDbSpline
70
4
71
3
72
14
73
10
40
0
40
0
40
0
40
0
40
0.124999999999999
40
0.124999999999999
40
0.249999999999997
40
0.249999999999997
40
0.499999999999998
40
0.499999999999998
40
1
40
1
40
1
40
1
41
1
10
-38.85
20
3.16990934071603
30
0
41
1
10
-38.85
20
3.1784322436242
30
0
41
1
10
-38.8517453396944
20
3.1848781531782
30
0
41
1
10
-38.8568901241517
20
3.19423716920718
30
0
41
1
10
-38.860211966304
20
3.19723334125655
30
0
41
1
10
-38.8714485682308
20
3.20336702311764
30
0
41
1
10
-38.8802054040538
20
3.20352485640325
30
0
41
1
10
-38.9082792076556
20
3.19813843693129
30
0
41
1
10
-38.9286347141249
20
3.18686470162063
30
0
41
1
10
-38.95
20
3.17000614809979
30
0
0
LINE
5
76
100
AcDbEntity
8
81
62
256
6
ByLayer
370
18
48
1
60
0
100
AcDbLine
10
49
20
0
30
0
11
54
21
0
31
0
39
0
210
0
220
0
230
1
0
LINE
5
77
100
AcDbEntity
8
1
62
256
6
ByLayer
370
18
48
1
60
0
100
AcDbLine
10
4.004179
20
4.473891
30
0
11
1.188076
21
4.472202
31
0
39
0
210
0
220
0
230
1
0
LINE
5
79
100
AcDbEntity
8
1
62
256
6
ByLayer
370
18
48
1
60
0
100
AcDbLine
10
21.41953
20
4.484341
30
0
11
20.694829
21
4.483906
31
0
39
0
210
0
220
0
230
1
0
LINE
5
7A
100
AcDbEntity
8
1
62
256
6
ByLayer
370
18
48
1
60
0
100
AcDbLine
10
20.694829
20
-4.483906
30
0
11
21.419716
21
-4.484341
31
0
39
0
210
0
220
0
230
1
0
LINE
5
7B
100
AcDbEntity
8
1
62
256
6
ByLayer
370
18
48
1
60
0
100
AcDbLine
10
1.188076
20
-4.472202
30
0
11
4.004179
21
-4.473891
31
0
39
0
210
0
220
0
230
1
0
LINE
5
7C
100
AcDbEntity
8
1
62
256
6
ByLayer
370
18
48
1
60
0
100
AcDbLine
10
46.419808
20
4.499341
30
0
11
45.703063
21
4.498911
31
0
39
0
210
0
220
0
230
1
0
LINE
5
7D
100
AcDbEntity
8
1
62
256
6
ByLayer
370
18
48
1
60
0
100
AcDbLine
10
45.703063
20
-4.498911
30
0
11
46.419772
21
-4.499341
31
0
39
0
210
0
220
0
230
1
0
LINE
5
7E
100
AcDbEntity
8
SK1
62
256
6
ByLayer
370
18
48
1
60
0
100
AcDbLine
10
-38.845299
20
5
30
0
11
-40
21
3
31
0
39
0
210
0
220
0
230
1
0
LINE
5
80
100
AcDbEntity
8
SK1
62
256
6
ByLayer
370
18
48
1
60
0
100
AcDbLine
10
-40
20
-3
30
0
11
-38.845299
21
-5
31
0
39
0
210
0
220
0
230
1
0
LINE
5
81
100
AcDbEntity
8
SK1
62
256
6
ByLayer
370
18
48
1
60
0
100
AcDbLine
10
0
20
5
30
0
11
-38.845299
21
5
31
0
39
0
210
0
220
0
230
1
0
LINE
5
82
100
AcDbEntity
8
SK1
62
256
6
ByLayer
370
18
48
1
60
0
100
AcDbLine
10
-38.845299
20
-5
30
0
11
0
21
-5
31
0
39
0
210
0
220
0
230
1
0
LINE
5
83
100
AcDbEntity
8
4
62
256
6
ByLayer
370
18
48
0.05
60
0
100
AcDbLine
10
49
20
0
30
0
11
0
21
0
31
0
39
0
210
0
220
0
230
1
0
LINE
5
85
100
AcDbEntity
8
SK4
62
256
6
ByLayer
370
18
48
0.05
60
0
100
AcDbLine
10
54
20
0
30
0
11
-45
21
0
31
0
39
0
210
0
220
0
230
1
0
LINE
5
87
100
AcDbEntity
8
80
62
256
6
ByLayer
370
18
48
1
60
0
100
AcDbLine
10
0
20
0
30
0
11
-5
21
0
31
0
39
0
210
0
220
0
230
1
0
LINE
5
88
100
AcDbEntity
8
1
62
256
6
ByLayer
370
18
48
1
60
0
100
AcDbLine
10
21.111873
20
0.194076
30
0
11
21.111656
21
0.194151
31
0
39
0
210
0
220
0
230
1
0
LINE
5
89
100
AcDbEntity
8
1
62
256
6
ByLayer
370
18
48
1
60
0
100
AcDbLine
10
48.914976
20
0.305865
30
0
11
48.778295
21
0.84799
31
0
39
0
210
0
220
0
230
1
0
LINE
5
8A
100
AcDbEntity
8
1
62
256
6
ByLayer
370
18
48
1
60
0
100
AcDbLine
10
49
20
0
30
0
11
47.436774
21
-4.294929
31
0
39
0
210
0
220
0
230
1
0
LINE
5
8B
100
AcDbEntity
8
1
62
256
6
ByLayer
370
13
48
1
60
0
100
AcDbLine
10
0.593798
20
4.736101
30
0
11
0.593798
21
-4.736101
31
0
39
0
210
0
220
0
230
1
0
LINE
5
8C
100
AcDbEntity
8
1
62
256
6
ByLayer
370
13
48
1
60
0
100
AcDbLine
10
48.778295
20
0.84799
30
0
11
48.001281
21
0.84799
31
0
39
0
210
0
220
0
230
1
0
LINE
5
8D
100
AcDbEntity
8
1
62
256
6
ByLayer
370
18
48
1
60
0
100
AcDbLine
10
48.991168
20
0.043971
30
0
11
49
21
0
31
0
39
0
210
0
220
0
230
1
0
LINE
5
8E
100
AcDbEntity
8
1
62
256
6
ByLayer
370
13
48
1
60
0
100
AcDbLine
10
48.001281
20
0.84799
30
0
11
48.914976
21
0.305865
31
0
39
0
210
0
220
0
230
1
0
LINE
5
8F
100
AcDbEntity
8
1
62
256
6
ByLayer
370
13
48
1
60
0
100
AcDbLine
10
47.811375
20
0.512661
30
0
11
48.894632
21
-0.130072
31
0
39
0
210
0
220
0
230
1
0
LINE
5
90
100
AcDbEntity
8
1
62
256
6
ByLayer
370
18
48
1
60
0
100
AcDbLine
10
0
20
-5
30
0
11
0
21
5
31
0
39
0
210
0
220
0
230
1
0
LINE
5
91
100
AcDbEntity
8
1
62
256
6
ByLayer
370
18
48
1
60
0
100
AcDbLine
10
48.914976
20
-0.305865
30
0
11
48.778295
21
-0.84799
31
0
39
0
210
0
220
0
230
1
0
LINE
5
92
100
AcDbEntity
8
1
62
256
6
ByLayer
370
18
48
1
60
0
100
AcDbLine
10
46.754689
20
-2.340664
30
0
11
48.894632
21
-0.130072
31
0
39
0
210
0
220
0
230
1
0
LINE
5
93
100
AcDbEntity
8
1
62
256
6
ByLayer
370
13
48
1
60
0
100
AcDbLine
10
1.188076
20
4.472202
30
0
11
1.188076
21
-4.472202
31
0
39
0
210
0
220
0
230
1
0
LINE
5
94
100
AcDbEntity
8
1
62
256
6
ByLayer
370
18
48
1
60
0
100
AcDbLine
10
49
20
0
30
0
11
48.991168
21
-0.043971
31
0
39
0
210
0
220
0
230
1
0
LINE
5
95
100
AcDbEntity
8
SK1
62
256
6
ByLayer
370
18
48
1
60
0
100
AcDbLine
10
-38.845299
20
5
30
0
11
-38.845299
21
-5
31
0
39
0
210
0
220
0
230
1
0
LINE
5
96
100
AcDbEntity
8
SK1
62
256
6
ByLayer
370
18
48
1
60
0
100
AcDbLine
10
-40
20
2.322393
30
0
11
-40
21
0.077384
31
0
39
0
210
0
220
0
230
1
0
LINE
5
97
100
AcDbEntity
8
SK1
62
256
6
ByLayer
370
13
48
1
60
0
100
AcDbLine
10
-38.95
20
3.170006
30
0
11
-38.95
21
0.924996
31
0
39
0
210
0
220
0
230
1
0
LINE
5
98
100
AcDbEntity
8
SK1
62
256
6
ByLayer
370
18
48
1
60
0
100
AcDbLine
10
0
20
-5
30
0
11
0
21
5
31
0
39
0
210
0
220
0
230
1
0
LINE
5
99
100
AcDbEntity
8
SK1
62
256
6
ByLayer
370
18
48
1
60
0
100
AcDbLine
10
-38.85
20
1.104481
30
0
11
-38.85
21
3.169909
31
0
39
0
210
0
220
0
230
1
0
LINE
5
9A
100
AcDbEntity
8
SK1
62
256
6
ByLayer
370
18
48
1
60
0
100
AcDbLine
10
-40
20
3
30
0
11
-40
21
2.322393
31
0
39
0
210
0
220
0
230
1
0
LINE
5
9B
100
AcDbEntity
8
SK1
62
256
6
ByLayer
370
18
48
1
60
0
100
AcDbLine
10
-40
20
0.077363
30
0
11
-40
21
-3
31
0
39
0
210
0
220
0
230
1
0
MTEXT
5
E0
100
AcDbEntity
8
SK6
62
256
6
ByLayer
370
13
48
1
60
0
100
AcDbMText
10
6.629169
20
36.882694
30
0
210
0
220
0
230
1
1
\W0.7542;R840-0900-30-A1A1220
40
3.5
41
0
44
1.084337
50
0
71
8
72
5
7
iso_b_vert
0
DIMENSION
5
ED
100
AcDbEntity
8
SK2
62
256
6
ByLayer
370
13
48
1
60
0
100
AcDbDimension
2
DimnDraft3D1
10
47.46
20
-14.713398
30
0
11
22.210059
21
-14.713398
31
0
70
32
71
5
72
1
41
1
210
0
220
0
230
1
3
Standard
100
AcDbAlignedDimension
13
0
23
-1.5875
33
0
14
47.46
24
-6.0875
34
0
50
0
100
AcDbRotatedDimension
1001
ACAD
1000
DSTYLE
1002
{
1070
   279
1070
     0
1070
   172
1070
     1
1070
   173
1070
     1
1070
   340
1005
E1
1070
   271
1070
     2
1070
   272
1070
     2
1070
    77
1070
     1
1070
    73
1070
     0
1070
   171
1070
     3
1070
   274
1070
     4
1070
   177
1070
    35
1070
   176
1070
    35
1070
   178
1070
    35
1070
    48
1040
-0.005
1070
    41
1041
3.5
1070
   147
1041
1.75
1070
    42
1041
1.5875
1070
    44
1041
2.0
1070
   140
1041
3.5
1070
   343
1005
0
1070
   344
1005
0
1002
}
0
DIMENSION
5
F7
100
AcDbEntity
8
SK2
62
256
6
ByLayer
370
13
48
1
60
0
100
AcDbDimension
2
DimnDraft3D2
10
49
20
-33.692985
30
0
11
4.3013
21
-33.692985
31
0
70
32
71
5
72
1
41
1
210
0
220
0
230
1
3
Standard
100
AcDbAlignedDimension
13
-40
23
-6.5875
33
0
14
49
24
-1.5875
34
0
50
0
100
AcDbRotatedDimension
1001
ACAD
1000
DSTYLE
1002
{
1070
   279
1070
     0
1070
   172
1070
     1
1070
   173
1070
     1
1070
   340
1005
E1
1070
   271
1070
     2
1070
   272
1070
     2
1070
    77
1070
     1
1070
    73
1070
     0
1070
   171
1070
     3
1070
   274
1070
     4
1070
   177
1070
    35
1070
   176
1070
    35
1070
   178
1070
    35
1070
    48
1040
-0.005
1070
    41
1041
3.5
1070
   147
1041
1.75
1070
    42
1041
1.5875
1070
    44
1041
2.0
1070
   140
1041
3.5
1070
   343
1005
0
1070
   344
1005
0
1002
}
0
DIMENSION
5
101
100
AcDbEntity
8
SK2
62
256
6
ByLayer
370
13
48
1
60
0
100
AcDbDimension
2
DimnDraft3D3
10
49
20
16.109119
30
0
11
34.73
21
16.109119
31
0
70
32
71
5
72
1
41
1
210
0
220
0
230
1
3
Standard
100
AcDbAlignedDimension
13
20.46
23
6.0875
33
0
14
49
24
1.5875
34
0
50
0
100
AcDbRotatedDimension
1001
ACAD
1000
DSTYLE
1002
{
1070
   279
1070
     0
1070
   172
1070
     1
1070
   173
1070
     1
1070
   340
1005
E1
1070
   271
1070
     2
1070
   272
1070
     2
1070
    77
1070
     1
1070
    73
1070
     0
1070
   171
1070
     3
1070
   274
1070
     4
1070
   177
1070
    35
1070
   176
1070
    35
1070
   178
1070
    35
1070
    48
1040
-0.005
1070
    41
1041
3.5
1070
   147
1041
1.75
1070
    42
1041
1.5875
1070
    44
1041
2.0
1070
   140
1041
3.5
1070
   343
1005
0
1070
   344
1005
0
1002
}
0
DIMENSION
5
10B
100
AcDbEntity
8
SK2
62
256
6
ByLayer
370
13
48
1
60
0
100
AcDbDimension
2
DimnDraft3D4
10
47.46
20
-17.302503
30
0
11
58.981425
21
-17.302503
31
0
70
32
71
5
72
1
41
1
210
0
220
0
230
1
3
Standard
100
AcDbAlignedDimension
13
49
23
-1.5875
33
0
14
47.46
24
-6.0875
34
0
50
0
100
AcDbRotatedDimension
1001
ACAD
1000
DSTYLE
1002
{
1070
   279
1070
     0
1070
   172
1070
     1
1070
   173
1070
     1
1070
   340
1005
E1
1070
   271
1070
     2
1070
   272
1070
     2
1070
    77
1070
     1
1070
    73
1070
     0
1070
   171
1070
     3
1070
   274
1070
     4
1070
   177
1070
    35
1070
   176
1070
    35
1070
   178
1070
    35
1070
    48
1040
-0.005
1070
    41
1041
3.5
1070
   147
1041
1.75
1070
    42
1041
1.5875
1070
    44
1041
2.0
1070
   140
1041
3.5
1070
   343
1005
0
1070
   344
1005
0
1002
}
0
DIMENSION
5
115
100
AcDbEntity
8
SK2
62
256
6
ByLayer
370
13
48
1
60
0
100
AcDbDimension
2
DimnDraft3D5
10
47.46
20
-23.343428
30
0
11
1.220676
21
-23.343428
31
0
70
32
71
5
72
1
41
1
210
0
220
0
230
1
3
Standard
100
AcDbAlignedDimension
13
-40
23
-6.5875
33
0
14
47.46
24
-6.0875
34
0
50
0
100
AcDbRotatedDimension
1001
ACAD
1000
DSTYLE
1002
{
1070
   279
1070
     0
1070
   172
1070
     1
1070
   173
1070
     1
1070
   340
1005
E1
1070
   271
1070
     2
1070
   272
1070
     2
1070
    77
1070
     1
1070
    73
1070
     0
1070
   171
1070
     3
1070
   274
1070
     4
1070
   177
1070
    35
1070
   176
1070
    35
1070
   178
1070
    35
1070
    48
1040
-0.005
1070
    41
1041
3.5
1070
   147
1041
1.75
1070
    42
1041
1.5875
1070
    44
1041
2.0
1070
   140
1041
3.5
1070
   343
1005
0
1070
   344
1005
0
1002
}
0
DIMENSION
5
120
100
AcDbEntity
8
SK2
62
256
6
ByLayer
370
13
48
1
60
0
100
AcDbDimension
2
DimnDraft3D6
10
-50.625163
20
5
30
0
11
-51.250163
21
23.47418
31
0
70
33
71
5
72
1
41
1
210
0
220
0
230
1
3
Standard
100
AcDbAlignedDimension
13
-41.5875
23
-5
33
0
14
-41.5875
24
5
34
0
1001
ACAD
1000
DSTYLE
1002
{
1070
   279
1070
     0
1070
    74
1070
     0
1070
   173
1070
     1
1070
   340
1005
E1
1070
   271
1070
     3
1070
   272
1070
     2
1070
    77
1070
     1
1070
    73
1070
     0
1070
   171
1070
     3
1070
   274
1070
     4
1070
   177
1070
    35
1070
   176
1070
    35
1070
   178
1070
    35
1070
    48
1040
-0.005
1070
    41
1041
3.5
1070
   147
1041
1.75
1070
    42
1041
1.5875
1070
    44
1041
2.0
1070
   140
1041
3.5
1070
   343
1005
0
1070
   344
1005
0
1002
}
0
DIMENSION
5
12B
100
AcDbEntity
8
2
62
256
6
ByLayer
370
13
48
1
60
0
100
AcDbDimension
2
DimnDraft3D7
10
63.083343
20
4.5
30
0
11
58.458343
21
21.567266
31
0
70
33
71
5
72
1
41
1
210
0
220
0
230
1
3
Standard
100
AcDbAlignedDimension
13
49.0475
23
-4.5
33
0
14
49.0475
24
4.5
34
0
1001
ACAD
1000
DSTYLE
1002
{
1070
   279
1070
     0
1070
    74
1070
     0
1070
   173
1070
     1
1070
   340
1005
E1
1070
   271
1070
     3
1070
   272
1070
     2
1070
    77
1070
     1
1070
    73
1070
     0
1070
   171
1070
     3
1070
   274
1070
     4
1070
   177
1070
    35
1070
   176
1070
    35
1070
   178
1070
    35
1070
    48
1040
-0.005
1070
    41
1041
3.5
1070
   147
1041
1.75
1070
    42
1041
1.5875
1070
    44
1041
2.0
1070
   140
1041
3.5
1070
   343
1005
0
1070
   344
1005
0
1002
}
0
ENDSEC
0
SECTION
2
OBJECTS
0
DICTIONARY
5
196
330
0
100
AcDbDictionary
280
0
281
1
3
ACAD_GROUP
350
197
3
ACAD_MLINESTYLE
350
198
0
DICTIONARY
5
197
330
0
100
AcDbDictionary
280
0
281
1
0
DICTIONARY
5
198
330
0
100
AcDbDictionary
280
0
281
1
3
Standard
350
18
0
MLINESTYLE
5
18
330
198
100
AcDbMlineStyle
2
Standard
70
0
3

62
256
51
90
52
90
71
2
49
-0.5
62
256
6
ByLayer
49
0.5
62
256
6
ByLayer
0
RASTERVARIABLES
5
184
330

100
AcDbRasterVariables
90
0
70
1
71
1
72
1
0
ENDSEC
0
EOF
