0
SECTION
2
HEADER
9
$ACADVER
1
AC1015
9
$DWGCODEPAGE
3
ANSI_1252
9
$HANDSEED
5
1aa
9
$ANGBASE
50
0
9
$ANGDIR
70
0
9
$ATTMODE
70
1
9
$AUNITS
70
0
9
$AUPREC
70
0
9
$CECOLOR
62
256
9
$CELTSCALE
40
1
9
$CELTYPE
6
ByLayer
9
$CELWEIGHT
370
18
9
$CLAYER
8
0
9
$CMLJUST
70
0
9
$CMLSCALE
40
1
9
$CMLSTYLE
2
Standard
9
$DIMSTYLE
2
Standard
9
$TEXTSIZE
40
0.2
9
$TEXTSTYLE
7
Standard
9
$LUNITS
70
2
9
$LUPREC
70
4
9
$EXTNAMES
290
1
9
$INSUNITS
70
4
9
$LTSCALE
40
1
9
$LWDISPLAY
290
1
9
$PDMODE
70
0
9
$PDSIZE
40
0
9
$PLINEGEN
70
0
0
ENDSEC
0
SECTION
2
CLASSES
0
CLASS
1
RASTERVARIABLES
2
AcDbRasterVariables
3
ISM
90
0
280
0
281
0
0
ENDSEC
0
SECTION
2
TABLES
0
TABLE
2
VPORT
5
1a0
100
AcDbSymbolTable
0
VPORT
5
1
100
AcDbSymbolTableRecord
100
AcDbViewportTableRecord
2
*Active
70
0
10
0
20
0
11
1
21
1
12
-1
22
1
13
0
23
0
14
0.5
24
0.5
15
10
25
10
16
0
26
0
36
1
17
0
27
0
37
0
0
ENDTAB
0
TABLE
2
LTYPE
5
1a1
100
AcDbSymbolTable
0
LTYPE
5
14
100
AcDbSymbolTableRecord
100
AcDbLinetypeTableRecord
70
0
2
ByBlock
3

72
65
73
0
40
0
0
LTYPE
5
15
100
AcDbSymbolTableRecord
100
AcDbLinetypeTableRecord
70
0
2
ByLayer
3

72
65
73
0
40
0
0
LTYPE
5
16
100
AcDbSymbolTableRecord
100
AcDbLinetypeTableRecord
70
0
2
CONTINUOUS
3
Solid line
72
65
73
0
40
0
0
LTYPE
5
6A
100
AcDbSymbolTableRecord
100
AcDbLinetypeTableRecord
70
0
2
CENTER
3
____ _ ____ _ ____ _ ____
72
65
73
4
40
47.5
49
22
74
0
49
-8.5
74
0
49
8.5
74
0
49
-8.5
74
0
0
LTYPE
5
6B
100
AcDbSymbolTableRecord
100
AcDbLinetypeTableRecord
70
0
2
DASHED
3
__ __ __ __ __ __ __ __ __
72
65
73
2
40
25.72
49
12.86
74
0
49
-12.86
74
0
0
ENDTAB
0
TABLE
2
LAYER
5
1a2
100
AcDbSymbolTable
0
LAYER
5
10
100
AcDbSymbolTableRecord
100
AcDbLayerTableRecord
2
0
70
0
62
7
6
CONTINUOUS
290
1
370
-3
390
0
0
LAYER
5
6D
100
AcDbSymbolTableRecord
100
AcDbLayerTableRecord
2
81
70
0
62
-3
6
CONTINUOUS
290
1
370
-3
390
0
0
LAYER
5
6F
100
AcDbSymbolTableRecord
100
AcDbLayerTableRecord
2
80
70
0
62
-6
6
CONTINUOUS
290
1
370
-3
390
0
0
LAYER
5
74
100
AcDbSymbolTableRecord
100
AcDbLayerTableRecord
2
2
70
0
62
7
6
CONTINUOUS
290
1
370
-3
390
0
0
LAYER
5
78
100
AcDbSymbolTableRecord
100
AcDbLayerTableRecord
2
1
70
0
62
4
6
CONTINUOUS
290
1
370
-3
390
0
0
LAYER
5
88
100
AcDbSymbolTableRecord
100
AcDbLayerTableRecord
2
4
70
0
62
-2
6
CENTER
290
1
370
-3
390
0
0
LAYER
5
18c
100
AcDbSymbolTableRecord
100
AcDbLayerTableRecord
2
SK2
70
0
62
7
6
CONTINUOUS
290
1
370
-3
390
0
0
LAYER
5
18d
100
AcDbSymbolTableRecord
100
AcDbLayerTableRecord
2
SK1
70
0
62
4
6
CONTINUOUS
290
1
370
-3
390
0
0
LAYER
5
18e
100
AcDbSymbolTableRecord
100
AcDbLayerTableRecord
2
SK4
70
0
62
2
6
CENTER
290
1
370
-3
390
0
0
LAYER
5
18f
100
AcDbSymbolTableRecord
100
AcDbLayerTableRecord
2
SK6
70
0
62
5
6
CONTINUOUS
290
1
370
-3
390
0
0
ENDTAB
0
TABLE
2
STYLE
5
1a3
100
AcDbSymbolTable
0
STYLE
5
11
100
AcDbSymbolTableRecord
100
AcDbTextStyleTableRecord
2
Standard
3
txt
70
0
71
0
40
0
41
1
42
0
50
0
0
STYLE
5
E8
100
AcDbSymbolTableRecord
100
AcDbTextStyleTableRecord
2
iso_b_vert
3
simplex.shx
70
0
71
0
40
0
41
1
42
0
50
0
0
STYLE
5
E9
100
AcDbSymbolTableRecord
100
AcDbTextStyleTableRecord
2
DWGDirectTextStyle
3
simplex
70
0
71
0
40
0
41
1
42
0
50
0
0
ENDTAB
0
TABLE
2
DIMSTYLE
5
1a4
100
AcDbSymbolTable
100
AcDbDimStyleTable
0
DIMSTYLE
105
27
100
AcDbSymbolTableRecord
100
AcDbDimStyleTableRecord
2
Standard
70
0
3
<>
41
0.18
42
0.0625
44
0.18
140
0.18
147
0.09
73
0
74
0
77
1
271
2
275
0
278
52
280
0
340
11
0
ENDTAB
0
TABLE
2
VIEW
5
1a5
100
AcDbSymbolTable
0
ENDTAB
0
TABLE
2
UCS
5
1a6
100
AcDbSymbolTable
0
ENDTAB
0
TABLE
2
APPID
5
1a7
100
AcDbSymbolTable
0
APPID
5
12
100
AcDbSymbolTableRecord
100
AcDbRegAppTableRecord
2
ACAD
70
0
0
ENDTAB
0
TABLE
2
BLOCK_RECORD
5
1a8
100
AcDbSymbolTable
0
BLOCK_RECORD
5
1F
100
AcDbSymbolTableRecord
100
AcDbBlockTableRecord
2
*Model_Space
340
0
70
0
0
BLOCK_RECORD
5
1B
100
AcDbSymbolTableRecord
100
AcDbBlockTableRecord
2
*Paper_Space
340
0
70
0
0
BLOCK_RECORD
5
23
100
AcDbSymbolTableRecord
100
AcDbBlockTableRecord
2
*Paper_Space0
340
0
70
0
0
BLOCK_RECORD
5
EB
100
AcDbSymbolTableRecord
100
AcDbBlockTableRecord
2
DimnDraft3D1
340
0
70
0
0
BLOCK_RECORD
5
F5
100
AcDbSymbolTableRecord
100
AcDbBlockTableRecord
2
DimnDraft3D2
340
0
70
0
0
BLOCK_RECORD
5
FF
100
AcDbSymbolTableRecord
100
AcDbBlockTableRecord
2
DimnDraft3D3
340
0
70
0
0
BLOCK_RECORD
5
109
100
AcDbSymbolTableRecord
100
AcDbBlockTableRecord
2
DimnDraft3D4
340
0
70
0
0
BLOCK_RECORD
5
113
100
AcDbSymbolTableRecord
100
AcDbBlockTableRecord
2
DimnDraft3D5
340
0
70
0
0
BLOCK_RECORD
5
11D
100
AcDbSymbolTableRecord
100
AcDbBlockTableRecord
2
DimnDraft3D6
340
0
70
0
0
BLOCK_RECORD
5
128
100
AcDbSymbolTableRecord
100
AcDbBlockTableRecord
2
DimnDraft3D7
340
0
70
0
0
ENDTAB
0
ENDSEC
0
SECTION
2
BLOCKS
0
BLOCK
5
20
100
AcDbEntity
8
0
100
AcDbBlockBegin
2
*Model_Space
70
0
10
0
20
0
30
0
3
*Model_Space
0
ENDBLK
5
21
100
AcDbEntity
8
0
100
AcDbBlockEnd
0
BLOCK
5
1C
100
AcDbEntity
8
0
100
AcDbBlockBegin
2
*Paper_Space
70
0
10
0
20
0
30
0
3
*Paper_Space
0
ENDBLK
5
1D
100
AcDbEntity
8
0
100
AcDbBlockEnd
0
BLOCK
5
24
100
AcDbEntity
8
0
100
AcDbBlockBegin
2
*Paper_Space0
70
0
10
0
20
0
30
0
3
*Paper_Space0
0
ENDBLK
5
25
100
AcDbEntity
8
0
100
AcDbBlockEnd
0
BLOCK
5
F2
100
AcDbEntity
8
0
100
AcDbBlockBegin
2
DimnDraft3D1
70
0
10
0
20
0
30
0
3
DimnDraft3D1
0
MTEXT
5
EC
100
AcDbEntity
8
SK2
62
256
6
ByLayer
370
13
48
1
60
0
100
AcDbMText
10
25.034664
20
-13.788398
30
0
210
0
220
0
230
1
1
\W0.6977;61,48
40
3.5
41
0
44
1.084337
50
0
71
7
72
5
7
iso_b_vert
0
LINE
5
ED
100
AcDbEntity
8
SK2
62
256
6
ByLayer
370
13
48
1
60
0
100
AcDbLine
10
0
20
-1.5875
30
0
11
0
21
-16.663398
31
0
39
0
210
0
220
0
230
1
0
LINE
5
EE
100
AcDbEntity
8
SK2
62
256
6
ByLayer
370
13
48
1
60
0
100
AcDbLine
10
61.48
20
-6.0375
30
0
11
61.48
21
-16.663398
31
0
39
0
210
0
220
0
230
1
0
LINE
5
EF
100
AcDbEntity
8
SK2
62
256
6
ByLayer
370
13
48
1
60
0
100
AcDbLine
10
0
20
-14.663398
30
0
11
61.48
21
-14.663398
31
0
39
0
210
0
220
0
230
1
0
SOLID
5
F0
100
AcDbEntity
8
SK2
62
256
6
ByLayer
370
13
48
1
60
0
100
AcDbTrace
10
0
20
-14.663398
30
0
11
3.499998
21
-14.202615
31
0
12
3.500002
22
-15.124182
32
0
13
0
23
-14.663398
33
0
39
0
210
0
220
0
230
1
0
SOLID
5
F1
100
AcDbEntity
8
SK2
62
256
6
ByLayer
370
13
48
1
60
0
100
AcDbTrace
10
61.48
20
-14.663398
30
0
11
57.980002
21
-15.124182
31
0
12
57.979998
22
-14.202615
32
0
13
61.48
23
-14.663398
33
0
39
0
210
0
220
0
230
1
0
ENDBLK
5
F3
100
AcDbEntity
8
0
100
AcDbBlockEnd
0
BLOCK
5
FC
100
AcDbEntity
8
0
100
AcDbBlockBegin
2
DimnDraft3D2
70
0
10
0
20
0
30
0
3
DimnDraft3D2
0
MTEXT
5
F6
100
AcDbEntity
8
SK2
62
256
6
ByLayer
370
13
48
1
60
0
100
AcDbMText
10
6.002221
20
-32.817985
30
0
210
0
220
0
230
1
1
\W0.6930;103,00
40
3.5
41
0
44
1.084337
50
0
71
7
72
5
7
iso_b_vert
0
LINE
5
F7
100
AcDbEntity
8
SK2
62
256
6
ByLayer
370
13
48
1
60
0
100
AcDbLine
10
-40
20
-6.5875
30
0
11
-40
21
-35.692985
31
0
39
0
210
0
220
0
230
1
0
LINE
5
F8
100
AcDbEntity
8
SK2
62
256
6
ByLayer
370
13
48
1
60
0
100
AcDbLine
10
63
20
-1.5875
30
0
11
63
21
-35.692985
31
0
39
0
210
0
220
0
230
1
0
LINE
5
F9
100
AcDbEntity
8
SK2
62
256
6
ByLayer
370
13
48
1
60
0
100
AcDbLine
10
-40
20
-33.692985
30
0
11
63
21
-33.692985
31
0
39
0
210
0
220
0
230
1
0
SOLID
5
FA
100
AcDbEntity
8
SK2
62
256
6
ByLayer
370
13
48
1
60
0
100
AcDbTrace
10
-40
20
-33.692985
30
0
11
-36.500002
21
-33.232202
31
0
12
-36.499998
22
-34.153769
32
0
13
-40
23
-33.692985
33
0
39
0
210
0
220
0
230
1
0
SOLID
5
FB
100
AcDbEntity
8
SK2
62
256
6
ByLayer
370
13
48
1
60
0
100
AcDbTrace
10
63
20
-33.692985
30
0
11
59.500002
21
-34.153769
31
0
12
59.499998
22
-33.232202
32
0
13
63
23
-33.692985
33
0
39
0
210
0
220
0
230
1
0
ENDBLK
5
FD
100
AcDbEntity
8
0
100
AcDbBlockEnd
0
BLOCK
5
106
100
AcDbEntity
8
0
100
AcDbBlockBegin
2
DimnDraft3D3
70
0
10
0
20
0
30
0
3
DimnDraft3D3
0
MTEXT
5
100
100
AcDbEntity
8
SK2
62
256
6
ByLayer
370
13
48
1
60
0
100
AcDbMText
10
35.357105
20
16.934119
30
0
210
0
220
0
230
1
1
\W0.7581;46,02
40
3.5
41
0
44
1.084337
50
0
71
7
72
5
7
iso_b_vert
0
LINE
5
101
100
AcDbEntity
8
SK2
62
256
6
ByLayer
370
13
48
1
60
0
100
AcDbLine
10
16.98
20
6.0375
30
0
11
16.98
21
18.059119
31
0
39
0
210
0
220
0
230
1
0
LINE
5
102
100
AcDbEntity
8
SK2
62
256
6
ByLayer
370
13
48
1
60
0
100
AcDbLine
10
63
20
1.5875
30
0
11
63
21
18.059119
31
0
39
0
210
0
220
0
230
1
0
LINE
5
103
100
AcDbEntity
8
SK2
62
256
6
ByLayer
370
13
48
1
60
0
100
AcDbLine
10
16.98
20
16.059119
30
0
11
63
21
16.059119
31
0
39
0
210
0
220
0
230
1
0
SOLID
5
104
100
AcDbEntity
8
SK2
62
256
6
ByLayer
370
13
48
1
60
0
100
AcDbTrace
10
16.98
20
16.059119
30
0
11
20.479998
21
16.519903
31
0
12
20.480002
22
15.598335
32
0
13
16.98
23
16.059119
33
0
39
0
210
0
220
0
230
1
0
SOLID
5
105
100
AcDbEntity
8
SK2
62
256
6
ByLayer
370
13
48
1
60
0
100
AcDbTrace
10
63
20
16.059119
30
0
11
59.500002
21
15.598335
31
0
12
59.499998
22
16.519903
32
0
13
63
23
16.059119
33
0
39
0
210
0
220
0
230
1
0
ENDBLK
5
107
100
AcDbEntity
8
0
100
AcDbBlockEnd
0
BLOCK
5
110
100
AcDbEntity
8
0
100
AcDbBlockBegin
2
DimnDraft3D4
70
0
10
0
20
0
30
0
3
DimnDraft3D4
0
MTEXT
5
10A
100
AcDbEntity
8
SK2
62
256
6
ByLayer
370
13
48
1
60
0
100
AcDbMText
10
70.278136
20
-16.377503
30
0
210
0
220
0
230
1
1
\W0.6367;1,52
40
3.5
41
0
44
1.084337
50
0
71
7
72
5
7
iso_b_vert
0
LINE
5
10B
100
AcDbEntity
8
SK2
62
256
6
ByLayer
370
13
48
1
60
0
100
AcDbLine
10
63
20
-1.5875
30
0
11
63
21
-19.252503
31
0
39
0
210
0
220
0
230
1
0
LINE
5
10C
100
AcDbEntity
8
SK2
62
256
6
ByLayer
370
13
48
1
60
0
100
AcDbLine
10
61.48
20
-6.0375
30
0
11
61.48
21
-19.252503
31
0
39
0
210
0
220
0
230
1
0
LINE
5
10D
100
AcDbEntity
8
SK2
62
256
6
ByLayer
370
13
48
1
60
0
100
AcDbLine
10
52.73
20
-17.252503
30
0
11
76.559715
21
-17.252503
31
0
39
0
210
0
220
0
230
1
0
SOLID
5
10E
100
AcDbEntity
8
SK2
62
256
6
ByLayer
370
13
48
1
60
0
100
AcDbTrace
10
63
20
-17.252503
30
0
11
66.499998
21
-16.791719
31
0
12
66.500002
22
-17.713287
32
0
13
63
23
-17.252503
33
0
39
0
210
0
220
0
230
1
0
SOLID
5
10F
100
AcDbEntity
8
SK2
62
256
6
ByLayer
370
13
48
1
60
0
100
AcDbTrace
10
61.48
20
-17.252503
30
0
11
57.980002
21
-17.713287
31
0
12
57.979998
22
-16.791719
32
0
13
61.48
23
-17.252503
33
0
39
0
210
0
220
0
230
1
0
ENDBLK
5
111
100
AcDbEntity
8
0
100
AcDbBlockEnd
0
BLOCK
5
11A
100
AcDbEntity
8
0
100
AcDbBlockBegin
2
DimnDraft3D5
70
0
10
0
20
0
30
0
3
DimnDraft3D5
0
MTEXT
5
114
100
AcDbEntity
8
SK2
62
256
6
ByLayer
370
13
48
1
60
0
100
AcDbMText
10
3.174887
20
-22.468428
30
0
210
0
220
0
230
1
1
\W0.6654;101,48
40
3.5
41
0
44
1.084337
50
0
71
7
72
5
7
iso_b_vert
0
LINE
5
115
100
AcDbEntity
8
SK2
62
256
6
ByLayer
370
13
48
1
60
0
100
AcDbLine
10
-40
20
-6.5875
30
0
11
-40
21
-25.343428
31
0
39
0
210
0
220
0
230
1
0
LINE
5
116
100
AcDbEntity
8
SK2
62
256
6
ByLayer
370
13
48
1
60
0
100
AcDbLine
10
61.48
20
-6.0375
30
0
11
61.48
21
-25.343428
31
0
39
0
210
0
220
0
230
1
0
LINE
5
117
100
AcDbEntity
8
SK2
62
256
6
ByLayer
370
13
48
1
60
0
100
AcDbLine
10
-40
20
-23.343428
30
0
11
61.48
21
-23.343428
31
0
39
0
210
0
220
0
230
1
0
SOLID
5
118
100
AcDbEntity
8
SK2
62
256
6
ByLayer
370
13
48
1
60
0
100
AcDbTrace
10
-40
20
-23.343428
30
0
11
-36.500002
21
-22.882645
31
0
12
-36.499998
22
-23.804212
32
0
13
-40
23
-23.343428
33
0
39
0
210
0
220
0
230
1
0
SOLID
5
119
100
AcDbEntity
8
SK2
62
256
6
ByLayer
370
13
48
1
60
0
100
AcDbTrace
10
61.48
20
-23.343428
30
0
11
57.980002
21
-23.804212
31
0
12
57.979998
22
-22.882645
32
0
13
61.48
23
-23.343428
33
0
39
0
210
0
220
0
230
1
0
ENDBLK
5
11B
100
AcDbEntity
8
0
100
AcDbBlockEnd
0
BLOCK
5
125
100
AcDbEntity
8
0
100
AcDbBlockBegin
2
DimnDraft3D6
70
0
10
0
20
0
30
0
3
DimnDraft3D6
0
MTEXT
5
11E
100
AcDbEntity
8
SK2
62
256
6
ByLayer
370
13
48
1
60
0
100
AcDbMText
10
-50.375163
20
24.34918
30
0
210
0
220
0
230
1
1
\W0.6930;10,000
40
3.5
41
0
44
1.084337
50
90
71
7
72
5
7
iso_b_vert
0
MTEXT
5
11F
100
AcDbEntity
8
SK2
62
256
6
ByLayer
370
13
48
1
60
0
100
AcDbMText
10
-50.375163
20
19.126524
30
0
210
0
220
0
230
1
1
%%c
40
3.5
41
0
44
1.084337
50
90
71
7
72
5
7
iso_b_vert
0
LINE
5
120
100
AcDbEntity
8
SK2
62
256
6
ByLayer
370
13
48
1
60
0
100
AcDbLine
10
-41.5875
20
-5
30
0
11
-50.625163
21
-5
31
0
39
0
210
0
220
0
230
1
0
LINE
5
121
100
AcDbEntity
8
SK2
62
256
6
ByLayer
370
13
48
1
60
0
100
AcDbLine
10
-41.5875
20
5
30
0
11
-50.625163
21
5
31
0
39
0
210
0
220
0
230
1
0
LINE
5
122
100
AcDbEntity
8
SK2
62
256
6
ByLayer
370
13
48
1
60
0
100
AcDbLine
10
-48.625163
20
-5
30
0
11
-48.625163
21
35.862338
31
0
39
0
210
0
220
0
230
1
0
SOLID
5
123
100
AcDbEntity
8
SK2
62
256
6
ByLayer
370
13
48
1
60
0
100
AcDbTrace
10
-48.625163
20
-5
30
0
11
-49.085946
21
-1.500002
31
0
12
-48.164379
22
-1.499998
32
0
13
-48.625163
23
-5
33
0
39
0
210
0
220
0
230
1
0
SOLID
5
124
100
AcDbEntity
8
SK2
62
256
6
ByLayer
370
13
48
1
60
0
100
AcDbTrace
10
-48.625163
20
5
30
0
11
-48.164379
21
1.500002
31
0
12
-49.085946
22
1.499998
32
0
13
-48.625163
23
5
33
0
39
0
210
0
220
0
230
1
0
ENDBLK
5
126
100
AcDbEntity
8
0
100
AcDbBlockEnd
0
BLOCK
5
130
100
AcDbEntity
8
0
100
AcDbBlockBegin
2
DimnDraft3D7
70
0
10
0
20
0
30
0
3
DimnDraft3D7
0
MTEXT
5
129
100
AcDbEntity
8
2
62
256
6
ByLayer
370
13
48
1
60
0
100
AcDbMText
10
73.333343
20
22.392266
30
0
210
0
220
0
230
1
1
\W0.7317;8,900
40
3.5
41
0
44
1.084337
50
90
71
7
72
5
7
iso_b_vert
0
MTEXT
5
12A
100
AcDbEntity
8
2
62
256
6
ByLayer
370
13
48
1
60
0
100
AcDbMText
10
73.333343
20
17.16961
30
0
210
0
220
0
230
1
1
%%c
40
3.5
41
0
44
1.084337
50
90
71
7
72
5
7
iso_b_vert
0
LINE
5
12B
100
AcDbEntity
8
2
62
256
6
ByLayer
370
13
48
1
60
0
100
AcDbLine
10
63.0675
20
-4.45
30
0
11
77.083343
21
-4.45
31
0
39
0
210
0
220
0
230
1
0
LINE
5
12C
100
AcDbEntity
8
2
62
256
6
ByLayer
370
13
48
1
60
0
100
AcDbLine
10
63.0675
20
4.45
30
0
11
77.083343
21
4.45
31
0
39
0
210
0
220
0
230
1
0
LINE
5
12D
100
AcDbEntity
8
2
62
256
6
ByLayer
370
13
48
1
60
0
100
AcDbLine
10
75.083343
20
-4.45
30
0
11
75.083343
21
32.164635
31
0
39
0
210
0
220
0
230
1
0
SOLID
5
12E
100
AcDbEntity
8
2
62
256
6
ByLayer
370
13
48
1
60
0
100
AcDbTrace
10
75.083343
20
-4.45
30
0
11
74.622559
21
-0.950002
31
0
12
75.544126
22
-0.949998
32
0
13
75.083343
23
-4.45
33
0
39
0
210
0
220
0
230
1
0
SOLID
5
12F
100
AcDbEntity
8
2
62
256
6
ByLayer
370
13
48
1
60
0
100
AcDbTrace
10
75.083343
20
4.45
30
0
11
75.544126
21
0.950002
31
0
12
74.622559
22
0.949998
32
0
13
75.083343
23
4.45
33
0
39
0
210
0
220
0
230
1
0
ENDBLK
5
131
100
AcDbEntity
8
0
100
AcDbBlockEnd
0
ENDSEC
0
SECTION
2
ENTITIES
0
ARC
5
9D
100
AcDbEntity
8
1
62
256
6
ByLayer
370
18
48
1
60
0
100
AcDbCircle
39
0
10
0
20
4.2
30
0
40
0.800000000000002
210
0
220
0
230
1
100
AcDbArc
50
39.319082
51
90
0
ARC
5
9E
100
AcDbEntity
8
1
62
256
6
ByLayer
370
18
48
1
60
0
100
AcDbCircle
39
0
10
0
20
-4.2
30
0
40
0.800000000000002
210
0
220
0
230
1
100
AcDbArc
50
270
51
320.680918
0
ARC
5
9F
100
AcDbEntity
8
1
62
256
6
ByLayer
370
18
48
1
60
0
100
AcDbCircle
39
0
10
-1.237807
20
-5.213822
30
0
40
0.799999999999999
210
0
220
0
230
-1
100
AcDbArc
50
39.319082
51
90.034377
0
ARC
5
A0
100
AcDbEntity
8
1
62
256
6
ByLayer
370
18
48
1
60
0
100
AcDbCircle
39
0
10
-1.237807
20
5.213822
30
0
40
0.799999999999999
210
0
220
0
230
-1
100
AcDbArc
50
269.965623
51
320.680918
0
ELLIPSE
5
A1
100
AcDbEntity
8
1
62
256
6
ByLayer
370
18
48
1
60
0
100
AcDbEllipse
10
63.033885
20
-0.02245
30
0
11
0.140634105003106
21
0.431000092771999
31
0
210
0
220
0
230
-1
40
0.07518
41
-2.31001430909116
42
-1.64412291785337
0
ELLIPSE
5
A2
100
AcDbEntity
8
1
62
256
6
ByLayer
370
13
48
1
60
0
100
AcDbEllipse
10
4.178276
20
-2.978452
30
0
11
0.00127041234769986
21
0.0999919299367045
31
0
210
0
220
0
230
1
40
0.60614
41
0.929726558285204
42
2.25378144242338
0
ELLIPSE
5
A3
100
AcDbEntity
8
1
62
256
6
ByLayer
370
18
48
1
60
0
100
AcDbEllipse
10
62.860126
20
0.125547
30
0
11
0.0727819104939558
21
0.301917195709105
31
0
210
0
220
0
230
-1
40
0.478434
41
1.72938918955621
42
2.45976119972438
0
ELLIPSE
5
A4
100
AcDbEntity
8
1
62
256
6
ByLayer
370
13
48
1
60
0
100
AcDbEllipse
10
62.414552
20
2.040788
30
0
11
2.48969656298029
21
-1.7142268815527
31
0
210
0
220
0
230
-1
40
0.533762
41
1.44484622741673
42
1.74258491550934
0
ELLIPSE
5
A5
100
AcDbEntity
8
1
62
256
6
ByLayer
370
18
48
1
60
0
100
AcDbEllipse
10
63.000387
20
0.000972
30
0
11
1.63698119637948
21
4.44794941765824
31
0
210
0
220
0
230
-1
40
0.098637
41
2.87686927207427
42
2.97690843803476
0
ELLIPSE
5
A6
100
AcDbEntity
8
1
62
256
6
ByLayer
370
18
48
1
60
0
100
AcDbEllipse
10
62.150869
20
-2.163986
30
0
11
0.687396291231775
21
1.8677697386817
31
0
210
0
220
0
230
-1
40
0.098637
41
0.74911268471906
42
1.53792064171541
0
ELLIPSE
5
A7
100
AcDbEntity
8
1
62
256
6
ByLayer
370
13
48
1
60
0
100
AcDbEllipse
10
4.250208
20
-2.993809
30
0
11
0.0364224901364948
21
0.0931311022819817
31
0
210
0
220
0
230
1
40
0.330069
41
0.866894061375079
42
2.4203482939893
0
ELLIPSE
5
A8
100
AcDbEntity
8
1
62
256
6
ByLayer
370
18
48
1
60
0
100
AcDbEllipse
10
62.150869
20
2.163986
30
0
11
0.687396291239491
21
-1.86776973869878
31
0
210
0
220
0
230
-1
40
0.098637
41
-1.53792064170799
42
-0.749112684717864
0
ELLIPSE
5
A9
100
AcDbEntity
8
1
62
256
6
ByLayer
370
18
48
1
60
0
100
AcDbEllipse
10
63.000387
20
-0.000972
30
0
11
1.63698117996184
21
-4.44794936996893
31
0
210
0
220
0
230
-1
40
0.098637
41
-2.97690843715078
42
-2.87686927064576
0
ELLIPSE
5
AA
100
AcDbEntity
8
1
62
256
6
ByLayer
370
13
48
1
60
0
100
AcDbEllipse
10
62.604458
20
2.163986
30
0
11
2.56393292235157
21
-1.36435857013439
31
0
210
0
220
0
230
-1
40
0.498209
41
1.53788148771094
42
1.8631798552756
0
ELLIPSE
5
AB
100
AcDbEntity
8
1
62
256
6
ByLayer
370
13
48
1
60
0
100
AcDbEllipse
10
62.009467
20
0.630271
30
0
11
0.153082081612418
21
0.258003636193774
31
0
210
0
220
0
230
1
40
0.454519
41
0.917105603404793
42
2.31336900500027
0
ELLIPSE
5
AC
100
AcDbEntity
8
1
62
256
6
ByLayer
370
18
48
1
60
0
100
AcDbEllipse
10
63.033885
20
0.02245
30
0
11
0.140634104968415
21
-0.4310000926832
31
0
210
0
220
0
230
-1
40
0.07518
41
1.64412291769522
42
2.31001430904926
0
POINT
5
6C
100
AcDbEntity
8
81
62
256
6
ByLayer
370
18
48
1
60
0
100
AcDbPoint
10
63
20
0
30
0
39
0
210
0
220
0
230
1
50
360
0
POINT
5
6E
100
AcDbEntity
8
80
62
256
6
ByLayer
370
18
48
1
60
0
100
AcDbPoint
10
0
20
0
30
0
39
0
210
0
220
0
230
1
50
360
0
POINT
5
70
100
AcDbEntity
8
SK2
62
256
6
ByLayer
370
18
48
1
60
1
100
AcDbPoint
10
-40
20
-5
30
0
39
0
210
0
220
0
230
1
50
360
0
POINT
5
72
100
AcDbEntity
8
SK2
62
256
6
ByLayer
370
18
48
1
60
1
100
AcDbPoint
10
-40
20
5
30
0
39
0
210
0
220
0
230
1
50
360
0
POINT
5
73
100
AcDbEntity
8
2
62
256
6
ByLayer
370
18
48
1
60
1
100
AcDbPoint
10
61.48
20
-4.45
30
0
39
0
210
0
220
0
230
1
50
360
0
POINT
5
75
100
AcDbEntity
8
2
62
256
6
ByLayer
370
18
48
1
60
1
100
AcDbPoint
10
61.48
20
4.45
30
0
39
0
210
0
220
0
230
1
50
360
0
SPLINE
5
AD
100
AcDbEntity
8
1
62
256
6
ByLayer
370
18
48
1
60
0
100
AcDbSpline
70
4
71
3
72
28
73
24
40
0
40
0
40
0
40
0
40
0.0161238901294016
40
0.0752135920236583
40
0.122010179190422
40
0.160061813163843
40
0.1908285957863
40
0.225027104236889
40
0.266145105879872
40
0.344073711503992
40
0.419616687007737
40
0.512965730187283
40
0.583693197206239
40
0.640762841097704
40
0.683100135207608
40
0.727648956402203
40
0.781622528618861
40
0.819821282338497
40
0.852926034666397
40
0.878387138092828
40
0.906720945691468
40
0.954679886265846
40
1
40
1
40
1
40
1
41
1
10
48.0866616153462
20
4.23765477775063
30
0
41
1
10
48.0318834873933
20
4.23760777750269
30
0
41
1
10
47.7763103688779
20
4.23743898667072
30
0
41
1
10
47.3532762859496
20
4.23632800345746
30
0
41
1
10
46.8707034256482
20
4.23822829169103
30
0
41
1
10
46.4754518767021
20
4.23822395198678
30
0
41
1
10
46.1222641043242
20
4.23834511659109
30
0
41
1
10
45.7591426745204
20
4.23725204819152
30
0
41
1
10
45.2337126806527
20
4.23633043979922
30
0
41
1
10
44.5667648443745
20
4.23758992742879
30
0
41
1
10
43.7206854981534
20
4.23513151257092
30
0
41
1
10
42.899320941326
20
4.2367190144368
30
0
41
1
10
42.1412702873096
20
4.23502632952733
30
0
41
1
10
41.558080057909
20
4.23489903476627
30
0
41
1
10
41.0646250546986
20
4.23523411575536
30
0
41
1
10
40.5817862803873
20
4.23455985213849
30
0
41
1
10
40.1131279779752
20
4.23405197721212
30
0
41
1
10
39.6837080547765
20
4.23440803785468
30
0
41
1
10
39.3520178389555
20
4.23430155115781
30
0
41
1
10
39.0541348561895
20
4.23408495188102
30
0
41
1
10
38.7053728244061
20
4.23345310543868
30
0
41
1
10
38.2886728433646
20
4.23319562011429
30
0
41
1
10
37.9689839711249
20
4.23309442964776
30
0
41
1
10
37.8136477733336
20
4.23302673463854
30
0
0
SPLINE
5
AE
100
AcDbEntity
8
1
62
256
6
ByLayer
370
18
48
1
60
0
100
AcDbSpline
70
4
71
3
72
29
73
25
40
0
40
0
40
0
40
0
40
0.05090539581224
40
0.0917216326886585
40
0.125775084257946
40
0.153715190892946
40
0.181432965812481
40
0.214029301104196
40
0.250262557729802
40
0.286934341871509
40
0.363050589023065
40
0.431911466516687
40
0.503816258229364
40
0.547809849412929
40
0.583366814695282
40
0.628793485509726
40
0.677570896362713
40
0.71199147026868
40
0.740966577700093
40
0.77660652646428
40
0.8217034371003
40
0.882373501134448
40
0.959179909331075
40
1
40
1
40
1
40
1
41
1
10
10.5767405890466
20
-4.21659758916846
30
0
41
1
10
10.7829183709702
20
-4.21576004773198
30
0
41
1
10
11.1557489680585
20
-4.21500370881617
30
0
41
1
10
11.6837891084545
20
-4.21664683510141
30
0
41
1
10
12.0974054639122
20
-4.21800078351612
30
0
41
1
10
12.4720762779424
20
-4.21793846679049
30
0
41
1
10
12.8382494271226
20
-4.21839126221064
30
0
41
1
10
13.2396581003985
20
-4.21877101330403
30
0
41
1
10
13.6780590256681
20
-4.21896812822396
30
0
41
1
10
14.297395689825
20
-4.21954395392902
30
0
41
1
10
15.0522291233007
20
-4.22032119729644
30
0
41
1
10
15.9535448269504
20
-4.22053757985273
30
0
41
1
10
16.7213853653111
20
-4.22182223570809
30
0
41
1
10
17.3507608483436
20
-4.22111244929818
30
0
41
1
10
17.8703118914982
20
-4.222602500623
30
0
41
1
10
18.4088276990702
20
-4.2233474786911
30
0
41
1
10
18.944026277065
20
-4.22181554451768
30
0
41
1
10
19.4080494704532
20
-4.22264806729075
30
0
41
1
10
19.8202103029802
20
-4.2245740956198
30
0
41
1
10
20.274336682523
20
-4.2241673150763
30
0
41
1
10
20.8587739849527
20
-4.22158648595661
30
0
41
1
10
21.6189294057418
20
-4.2253628133102
30
0
41
1
10
22.3589348945695
20
-4.22373478896972
30
0
41
1
10
22.8472459611425
20
-4.2248936374593
30
0
41
1
10
23.0166504651249
20
-4.22531572559362
30
0
0
SPLINE
5
AF
100
AcDbEntity
8
1
62
256
6
ByLayer
370
18
48
1
60
0
100
AcDbSpline
70
4
71
3
72
30
73
26
40
0
40
0
40
0
40
0
40
0.0816115115308361
40
0.149890132559811
40
0.204930824557986
40
0.248503560012168
40
0.28347719047813
40
0.311196379385432
40
0.345074033665727
40
0.388895866544172
40
0.41680749548037
40
0.434830384182921
40
0.452053068709916
40
0.476657794911249
40
0.508652973323337
40
0.592702872607537
40
0.666552099901936
40
0.738607720455355
40
0.794435209734784
40
0.85273775247135
40
0.871568962308061
40
0.890064526820871
40
0.915549370164291
40
0.952277331228352
40
1
40
1
40
1
40
1
41
1
10
35.5787597363474
20
-4.2316287739396
30
0
41
1
10
35.91424034947
20
-4.231651575603
30
0
41
1
10
36.5310989230878
20
-4.23175566081332
30
0
41
1
10
37.3744864505536
20
-4.2312917915695
30
0
41
1
10
38.0650948532985
20
-4.23214004826443
30
0
41
1
10
38.6088415926678
20
-4.23336836756252
30
0
41
1
10
39.0480747877182
20
-4.23412245043332
30
0
41
1
10
39.4443152934811
20
-4.23428544811819
30
0
41
1
10
39.8794979946209
20
-4.23409933125475
30
0
41
1
10
40.3144072838352
20
-4.23396233882181
30
0
41
1
10
40.6841699401193
20
-4.23480878293165
30
0
41
1
10
40.9445765506951
20
-4.23506884274218
30
0
41
1
10
41.1913992297521
20
-4.23510676195824
30
0
41
1
10
41.4958295552296
20
-4.23498430182838
30
0
41
1
10
42.0758481890761
20
-4.23483197746901
30
0
41
1
10
42.8589399281371
20
-4.23673771674677
30
0
41
1
10
43.8072348028045
20
-4.23525086052112
30
0
41
1
10
44.6391540509594
20
-4.23751680585309
30
0
41
1
10
45.4069425550499
20
-4.23611149236336
30
0
41
1
10
45.9552502808144
20
-4.23812962656299
30
0
41
1
10
46.349610976281
20
-4.23842511745676
30
0
41
1
10
46.6086377994792
20
-4.23827692260534
30
0
41
1
10
46.9414618452014
20
-4.23784310642779
30
0
41
1
10
47.3948148139478
20
-4.23778686398452
30
0
41
1
10
47.7430763221841
20
-4.23814800462586
30
0
41
1
10
47.9398782952135
20
-4.23849603146903
30
0
0
SPLINE
5
B0
100
AcDbEntity
8
1
62
256
6
ByLayer
370
18
48
1
60
0
100
AcDbSpline
70
4
71
3
72
11
73
7
40
0
40
0
40
0
40
0
40
0.0480485729185215
40
0.464473410923719
40
0.91814304028172
40
1
40
1
40
1
40
1
41
1
10
24.245494917721
20
-1.1284093341788
30
0
41
1
10
24.245449205462
20
-1.12841204862789
30
0
41
1
10
24.2465157799546
20
-1.12909551140101
30
0
41
1
10
24.2812903258448
20
-1.14478425940544
30
0
41
1
10
24.3127038880707
20
-1.1603217193416
30
0
41
1
10
24.3107230718508
20
-1.15934184984809
30
0
41
1
10
24.3101086809509
20
-1.15903858622372
30
0
0
SPLINE
5
B1
100
AcDbEntity
8
1
62
256
6
ByLayer
370
18
48
1
60
0
100
AcDbSpline
70
4
71
3
72
11
73
7
40
0
40
0
40
0
40
0
40
0.131706042842243
40
0.286222432441396
40
0.508131275523146
40
1
40
1
40
1
40
1
41
1
10
24.2959644570104
20
-1.15218687507499
30
0
41
1
10
24.2960130019087
20
-1.15224467662728
30
0
41
1
10
24.2980370153771
20
-1.15333633795177
30
0
41
1
10
24.3125586874418
20
-1.1607611757947
30
0
41
1
10
24.3654060217063
20
-1.18799862904095
30
0
41
1
10
24.4152594121007
20
-1.21448029879349
30
0
41
1
10
24.4568569770349
20
-1.23676523935853
30
0
0
SPLINE
5
B2
100
AcDbEntity
8
1
62
256
6
ByLayer
370
18
48
1
60
0
100
AcDbSpline
70
4
71
2
72
6
73
3
40
0
40
0
40
0
40
1
40
1
40
1
41
1
10
60.6472444825912
20
-4.2466138904571
30
0
41
1
10
61.0504750031103
20
-4.24473500714947
30
0
41
1
10
61.4535015119169
20
-4.24839739552988
30
0
0
SPLINE
5
B3
100
AcDbEntity
8
1
62
256
6
ByLayer
370
18
48
1
60
0
100
AcDbSpline
70
4
71
3
72
11
73
7
40
0
40
0
40
0
40
0
40
0.0889550645772734
40
0.31513950802665
40
0.538915456204558
40
1
40
1
40
1
40
1
41
1
10
49.2123214981709
20
-1.11252337539616
30
0
41
1
10
49.2122298935472
20
-1.11251551436294
30
0
41
1
10
49.2177260843749
20
-1.11519436742427
30
0
41
1
10
49.266349044643
20
-1.13870024856561
30
0
41
1
10
49.3952547115398
20
-1.20396260431761
30
0
41
1
10
49.5043125507882
20
-1.26111302411081
30
0
41
1
10
49.5878545722716
20
-1.30561401379202
30
0
0
SPLINE
5
B4
100
AcDbEntity
8
1
62
256
6
ByLayer
370
18
48
1
60
0
100
AcDbSpline
70
4
71
3
72
25
73
21
40
0
40
0
40
0
40
0
40
0.0036789021837976
40
0.0473802663541188
40
0.0921986724160308
40
0.139168202174993
40
0.225482352593081
40
0.297006459259086
40
0.347110155231268
40
0.402273017969705
40
0.475707891390029
40
0.534962403965473
40
0.602354487031863
40
0.677950871227769
40
0.743429592230131
40
0.79834875347838
40
0.857097597410945
40
0.924163630369548
40
0.986307074253663
40
1
40
1
40
1
40
1
41
1
10
23.287460876384
20
4.222127876645
30
0
41
1
10
23.2758165835192
20
4.22200089909549
30
0
41
1
10
23.1253099095692
20
4.22030615059373
30
0
41
1
10
22.8076684086265
20
4.21138937092721
30
0
41
1
10
22.3370453849678
20
4.2064908067741
30
0
41
1
10
21.708864231767
20
4.2098806381357
30
0
41
1
10
21.0114996026411
20
4.22019856219379
30
0
41
1
10
20.299004247262
20
4.22446764455142
30
0
41
1
10
19.6799345498962
20
4.22415418669084
30
0
41
1
10
19.0534713779624
20
4.2215099026607
30
0
41
1
10
18.3950994953835
20
4.22379547351161
30
0
41
1
10
17.6938148923664
20
4.2217928795321
30
0
41
1
10
16.98496145359
20
4.22123049985163
30
0
41
1
10
16.2543032447327
20
4.22176141281719
30
0
41
1
10
15.5674014705014
20
4.21996514392194
30
0
41
1
10
14.9394922566285
20
4.22043207505934
30
0
41
1
10
14.3060459238303
20
4.2196577620519
30
0
41
1
10
13.6472600703544
20
4.21892682529153
30
0
41
1
10
13.1464199671533
20
4.21866241147012
30
0
41
1
10
12.8805904843939
20
4.2184279120965
30
0
41
1
10
12.8325986470254
20
4.21838399256481
30
0
0
SPLINE
5
B5
100
AcDbEntity
8
1
62
256
6
ByLayer
370
18
48
1
60
0
100
AcDbSpline
70
4
71
3
72
86
73
82
40
0
40
0
40
0
40
0
40
0.010158314685461
40
0.010158314685461
40
0.0354248515096818
40
0.0354248515096818
40
0.0606913883339026
40
0.0606913883339026
40
0.0859579251581235
40
0.0859579251581235
40
0.111224461982344
40
0.111224461982344
40
0.136490998806565
40
0.136490998806565
40
0.161757535630786
40
0.161757535630786
40
0.187024072455007
40
0.187024072455007
40
0.212290609279228
40
0.212290609279228
40
0.237557146103448
40
0.237557146103448
40
0.262823682927669
40
0.262823682927669
40
0.313356756576112
40
0.313356756576112
40
0.338623293400333
40
0.338623293400333
40
0.363889830224554
40
0.363889830224554
40
0.389156367048774
40
0.389156367048774
40
0.414422903872995
40
0.414422903872995
40
0.439689440697216
40
0.439689440697216
40
0.464955977521437
40
0.464955977521437
40
0.490222514345658
40
0.490222514345658
40
0.515489051169879
40
0.515489051169879
40
0.5407555879941
40
0.5407555879941
40
0.56602212481832
40
0.56602212481832
40
0.591288661642541
40
0.591288661642541
40
0.616555198466762
40
0.616555198466762
40
0.641821735290983
40
0.641821735290983
40
0.667088272115204
40
0.667088272115204
40
0.692354808939424
40
0.692354808939424
40
0.717621345763645
40
0.717621345763645
40
0.742887882587866
40
0.742887882587866
40
0.768154419412087
40
0.768154419412087
40
0.793420956236308
40
0.793420956236308
40
0.818687493060528
40
0.818687493060528
40
0.843954029884749
40
0.843954029884749
40
0.86922056670897
40
0.86922056670897
40
0.894487103533191
40
0.894487103533191
40
0.919753640357412
40
0.919753640357412
40
0.945020177181633
40
0.945020177181633
40
0.970286714005854
40
0.970286714005854
40
0.995553250830074
40
0.995553250830074
40
1
40
1
40
1
40
1
41
1
10
53.6370335717562
20
-3.20546247958862
30
0
41
1
10
53.5345719147804
20
-3.24117531039977
30
0
41
1
10
53.432208413863
20
-3.27606849688408
30
0
41
1
10
53.0755813688751
20
-3.39486912953006
30
0
41
1
10
52.8216796867062
20
-3.47395301659702
30
0
41
1
10
52.3134314368217
20
-3.6208047533072
30
0
41
1
10
52.0592213934078
20
-3.68897263981205
30
0
41
1
10
51.5507085728655
20
-3.81493992439647
30
0
41
1
10
51.2966282191319
20
-3.87280458139071
30
0
41
1
10
50.7873086096437
20
-3.97643397403158
30
0
41
1
10
50.5320594136224
20
-4.0222736011373
30
0
41
1
10
50.0201982847385
20
-4.10115401985647
30
0
41
1
10
49.7635966459032
20
-4.13405490339264
30
0
41
1
10
49.2487791178264
20
-4.18560142625262
30
0
41
1
10
48.9911828713944
20
-4.20449446849193
30
0
41
1
10
48.4778277465333
20
-4.23109463960225
30
0
41
1
10
48.2217499376509
20
-4.23832378046484
30
0
41
1
10
47.7110653097981
20
-4.23868525698629
30
0
41
1
10
47.4565818092153
20
-4.2317167716121
30
0
41
1
10
46.9473896366304
20
-4.20607571211019
30
0
41
1
10
46.6928434289136
20
-4.18733219885473
30
0
41
1
10
46.1838636357219
20
-4.13632287691325
30
0
41
1
10
45.9295375615972
20
-4.10348645043058
30
0
41
1
10
45.1659799446652
20
-3.98660484826138
30
0
41
1
10
44.6549385064354
20
-3.88687580958936
30
0
41
1
10
43.8846039108186
20
-3.6959360522246
30
0
41
1
10
43.6265941386837
20
-3.62617300704082
30
0
41
1
10
43.1114114191736
20
-3.47716716756284
30
0
41
1
10
42.854587610645
20
-3.3976410151927
30
0
41
1
10
42.3425855951714
20
-3.22749804121125
30
0
41
1
10
42.087588738586
20
-3.13667698606946
30
0
41
1
10
41.5779205634226
20
-2.94754307661137
30
0
41
1
10
41.3232406287875
20
-2.84904441690696
30
0
41
1
10
40.8141813835797
20
-2.6432331505828
30
0
41
1
10
40.5598010055428
20
-2.53556923922264
30
0
41
1
10
40.0513153078474
20
-2.3127704458671
30
0
41
1
10
39.7969030182666
20
-2.19816522917753
30
0
41
1
10
39.2869657951503
20
-1.96227550992327
30
0
41
1
10
39.0315059723549
20
-1.84090245283218
30
0
41
1
10
38.5195089253972
20
-1.59137758034754
30
0
41
1
10
38.2632710774124
20
-1.46349231018377
30
0
41
1
10
37.7484917572652
20
-1.20355417135539
30
0
41
1
10
37.4900190056328
20
-1.07127742117154
30
0
41
1
10
36.976240161962
20
-0.804996480776481
30
0
41
1
10
36.7202748739401
20
-0.670580608010454
30
0
41
1
10
36.2095309788123
20
-0.400317700477615
30
0
41
1
10
35.9545042929164
20
-0.265016613719297
30
0
41
1
10
35.4449066920234
20
0.0054113512185836
30
0
41
1
10
35.1903336372253
20
0.140507764209076
30
0
41
1
10
34.6816337494302
20
0.410709690489711
30
0
41
1
10
34.4275406028175
20
0.545852393095259
30
0
41
1
10
33.9183046513155
20
0.813054665385323
30
0
41
1
10
33.6632878110943
20
0.945350018648725
30
0
41
1
10
33.1524149604064
20
1.20738309070688
30
0
41
1
10
32.8968214824635
20
1.3376767685653
30
0
41
1
10
32.38404050865
20
1.59419742105595
30
0
41
1
10
32.1262688504333
20
1.72027241710649
30
0
41
1
10
31.6102303919835
20
1.96603984295354
30
0
41
1
10
31.3529781038581
20
2.0858346520715
30
0
41
1
10
30.8403604557454
20
2.31935565921469
30
0
41
1
10
30.5847204419292
20
2.43252821154033
30
0
41
1
10
30.0740150960449
20
2.64867389668774
30
0
41
1
10
29.8189463914428
20
2.75226146786863
30
0
41
1
10
29.3092917140638
20
2.95217275091989
30
0
41
1
10
29.0549644113651
20
3.04853738929975
30
0
41
1
10
28.5456605289263
20
3.23002488213021
30
0
41
1
10
28.2906993521967
20
3.31483438077123
30
0
41
1
10
27.7801116997403
20
3.47576296528965
30
0
41
1
10
27.5245882926265
20
3.55184076061991
30
0
41
1
10
27.0127364503585
20
3.69294608736132
30
0
41
1
10
26.7559189430181
20
3.75675652851365
30
0
41
1
10
26.2403711484414
20
3.8736172309284
30
0
41
1
10
25.9816197850468
20
3.926882072121
30
0
41
1
10
25.4673806979386
20
4.02079363649955
30
0
41
1
10
25.2114267349227
20
4.0610840492366
30
0
41
1
10
24.7001201417569
20
4.12686088638171
30
0
41
1
10
24.4447589084629
20
4.15391697899514
30
0
41
1
10
23.9347319811793
20
4.19619538926707
30
0
41
1
10
23.6802607259177
20
4.21148030629865
30
0
41
1
10
23.3810781918074
20
4.22046749390094
30
0
41
1
10
23.3362980145507
20
4.22158554334376
30
0
41
1
10
23.2915114899515
20
4.22248695878838
30
0
0
SPLINE
5
B6
100
AcDbEntity
8
1
62
256
6
ByLayer
370
18
48
1
60
0
100
AcDbSpline
70
2053
71
3
72
62
73
58
40
0
40
0
40
0
40
0
40
0.0312499999999997
40
0.0312499999999997
40
0.0624999999999993
40
0.0624999999999993
40
0.093749999999999
40
0.093749999999999
40
0.124999999999999
40
0.124999999999999
40
0.156249999999998
40
0.156249999999998
40
0.187499999999998
40
0.187499999999998
40
0.218749999999998
40
0.218749999999998
40
0.249999999999997
40
0.249999999999997
40
0.281249999999997
40
0.281249999999997
40
0.312499999999996
40
0.312499999999996
40
0.374999999999993
40
0.374999999999993
40
0.437499999999989
40
0.437499999999989
40
0.46874999999999
40
0.46874999999999
40
0.49999999999999
40
0.49999999999999
40
0.53124999999999
40
0.53124999999999
40
0.56249999999999
40
0.56249999999999
40
0.59374999999999
40
0.59374999999999
40
0.624999999999991
40
0.624999999999991
40
0.656249999999991
40
0.656249999999991
40
0.687499999999991
40
0.687499999999991
40
0.718749999999991
40
0.718749999999991
40
0.749999999999991
40
0.749999999999991
40
0.812499999999994
40
0.812499999999994
40
0.843749999999995
40
0.843749999999995
40
0.874999999999996
40
0.874999999999996
40
0.906249999999997
40
0.906249999999997
40
0.937499999999998
40
0.937499999999998
40
1
40
1
40
1
40
1
41
1
10
61.7398299022261
20
-1.55116121839061
30
0
41
1
10
61.717078154329
20
-1.58343644638543
30
0
41
1
10
61.6947859319291
20
-1.61804828372323
30
0
41
1
10
61.6511965482879
20
-1.69233164497305
30
0
41
1
10
61.6296667356624
20
-1.73248407641231
30
0
41
1
10
61.5890641001162
20
-1.81632286016733
30
0
41
1
10
61.5700653767415
20
-1.85974467025207
30
0
41
1
10
61.5350421630252
20
-1.95001878410943
30
0
41
1
10
61.5193614146985
20
-1.99614248710287
30
0
41
1
10
61.4931326230533
20
-2.08673859266781
30
0
41
1
10
61.4822612510242
20
-2.13248770046056
30
0
41
1
10
61.4666916252176
20
-2.21862764426317
30
0
41
1
10
61.4618368928065
20
-2.25941573960603
30
0
41
1
10
61.4580207219472
20
-2.33507766255906
30
0
41
1
10
61.4590782219981
20
-2.36884259854728
30
0
41
1
10
61.4664820256201
20
-2.42912115031814
30
0
41
1
10
61.4728244807453
20
-2.45513338281063
30
0
41
1
10
61.4897604771267
20
-2.49860588793538
30
0
41
1
10
61.5005091331341
20
-2.51638174251346
30
0
41
1
10
61.5252380664018
20
-2.54354813524242
30
0
41
1
10
61.5392492001512
20
-2.55312676592726
30
0
41
1
10
61.5858123280759
20
-2.57084671686277
30
0
41
1
10
61.6217540140404
20
-2.56776433789994
30
0
41
1
10
61.7011962693187
20
-2.53512478887228
30
0
41
1
10
61.7433246404914
20
-2.50618899158877
30
0
41
1
10
61.809748274511
20
-2.44423563848713
30
0
41
1
10
61.8323677344929
20
-2.42044620936102
30
0
41
1
10
61.8772710521343
20
-2.36782347228674
30
0
41
1
10
61.8997335857437
20
-2.3388357210269
30
0
41
1
10
61.9446823447358
20
-2.27502946010264
30
0
41
1
10
61.9673986856748
20
-2.23979886231743
30
0
41
1
10
62.0112218395868
20
-2.16515531361549
30
0
41
1
10
62.0324255045434
20
-2.12568133856397
30
0
41
1
10
62.0732110004477
20
-2.04180267349736
30
0
41
1
10
62.092637856221
20
-1.99759927640676
30
0
41
1
10
62.1276596706839
20
-1.90795277609331
30
0
41
1
10
62.1436927001752
20
-1.86130117837052
30
0
41
1
10
62.1704077206974
20
-1.77003030231626
30
0
41
1
10
62.1812127433658
20
-1.72531440160702
30
0
41
1
10
62.1973454089535
20
-1.63785583410257
30
0
41
1
10
62.2023096198096
20
-1.59698021892805
30
0
41
1
10
62.2063340951374
20
-1.52144566247978
30
0
41
1
10
62.2053188393102
20
-1.48689707527166
30
0
41
1
10
62.1979510358236
20
-1.42682772230569
30
0
41
1
10
62.191524648046
20
-1.40062348759787
30
0
41
1
10
62.1658628464859
20
-1.3356251369936
30
0
41
1
10
62.1399890531651
20
-1.30914119894246
30
0
41
1
10
62.0934286986924
20
-1.29200656764456
30
0
41
1
10
62.076383368056
20
-1.28998746838624
30
0
41
1
10
62.0405017011415
20
-1.29292149400197
30
0
41
1
10
62.0216368198766
20
-1.2978066212907
30
0
41
1
10
61.9821536442072
20
-1.31406286803497
30
0
41
1
10
61.9613764742661
20
-1.32556231834164
30
0
41
1
10
61.9190707655288
20
-1.3545285624831
30
0
41
1
10
61.8974998260515
20
-1.37196740171615
30
0
41
1
10
61.8315235058352
20
-1.43321644016766
30
0
41
1
10
61.7853333980203
20
-1.48661076240097
30
0
41
1
10
61.7398299022261
20
-1.55116121839061
30
0
0
SPLINE
5
B7
100
AcDbEntity
8
1
62
256
6
ByLayer
370
13
48
1
60
0
100
AcDbSpline
70
4
71
3
72
8
73
4
40
0
40
0
40
0
40
0
40
1
40
1
40
1
40
1
41
1
10
4.13046016779771
20
-3.04096098676734
30
0
41
1
10
4.15302689306515
20
-3.04111046185852
30
0
41
1
10
4.17754667432496
20
-3.04622811712764
30
0
41
1
10
4.20255745449873
20
-3.05581068694073
30
0
0
SPLINE
5
B8
100
AcDbEntity
8
1
62
256
6
ByLayer
370
13
48
1
60
0
100
AcDbSpline
70
4
71
3
72
12
73
8
40
0
40
0
40
0
40
0
40
0.25000000000001
40
0.25000000000001
40
0.50000000000002
40
0.50000000000002
40
1
40
1
40
1
40
1
41
1
10
4.13046016779771
20
-2.91803461455598
30
0
41
1
10
4.11317415298566
20
-2.92057389211871
30
0
41
1
10
4.09763555735378
20
-2.92354124442463
30
0
41
1
10
4.06959444756578
20
-2.93017561847813
30
0
41
1
10
4.05701864674649
20
-2.93388913025413
30
0
41
1
10
4.02531633465554
20
-2.94543667105231
30
0
41
1
10
4.01123911542282
20
-2.95391992427338
30
0
41
1
10
4.00453069116912
20
-2.96249835457149
30
0
0
SPLINE
5
B9
100
AcDbEntity
8
1
62
256
6
ByLayer
370
18
48
1
60
0
100
AcDbSpline
70
4
71
3
72
16
73
12
40
0
40
0
40
0
40
0
40
0.0107718778136925
40
0.0107718778136925
40
0.187353656070098
40
0.187353656070098
40
0.54051721258291
40
0.54051721258291
40
0.893680769095723
40
0.893680769095723
40
1
40
1
40
1
40
1
41
1
10
35.6492246840711
20
-4.23167648194922
30
0
41
1
10
35.6309063522216
20
-4.23167188609239
30
0
41
1
10
35.6125891518712
20
-4.23163353895919
30
0
41
1
10
35.2940288388286
20
-4.23037878243605
30
0
41
1
10
34.9943282293825
20
-4.22016105871444
30
0
41
1
10
34.0958275334269
20
-4.16274488115127
30
0
41
1
10
33.4973877089658
20
-4.08879853406413
30
0
41
1
10
32.2951129169701
20
-3.87172169344933
30
0
41
1
10
31.6954840989083
20
-3.72940641382544
30
0
41
1
10
30.9140804982399
20
-3.50429143003623
30
0
41
1
10
30.7330279270955
20
-3.44936482672017
30
0
41
1
10
30.5522275798425
20
-3.39190823326749
30
0
0
SPLINE
5
BA
100
AcDbEntity
8
1
62
256
6
ByLayer
370
13
48
1
60
0
100
AcDbSpline
70
4
71
3
72
26
73
22
40
0
40
0
40
0
40
0
40
0.0306904153985398
40
0.0306904153985398
40
0.107820669441885
40
0.107820669441885
40
0.416341685615264
40
0.416341685615264
40
0.454906812636935
40
0.454906812636935
40
0.493471939658606
40
0.493471939658606
40
0.570602193701949
40
0.570602193701949
40
0.724862701788636
40
0.724862701788636
40
0.879123209875322
40
0.879123209875322
40
0.956253463918665
40
0.956253463918665
40
1
40
1
40
1
40
1
41
1
10
30.5522275798095
20
-3.39190823325694
30
0
41
1
10
30.4327431473985
20
-3.35393724171126
30
0
41
1
10
30.3133688715441
20
-3.31486129932335
30
0
41
1
10
29.8948772586057
20
-3.17401076177779
30
0
41
1
10
29.5965912996826
20
-3.06665671577389
30
0
41
1
10
28.1083451873724
20
-2.50016782055064
30
0
41
1
10
26.9277927796226
20
-1.95213890158695
30
0
41
1
10
25.5825195110646
20
-1.27459790816223
30
0
41
1
10
25.4328096375824
20
-1.19846510903122
30
0
41
1
10
25.1327528097652
20
-1.04478951278682
30
0
41
1
10
24.9822217951735
20
-0.96715670621893
30
0
41
1
10
24.5319734707046
20
-0.73349969374064
30
0
41
1
10
24.2330375016158
20
-0.576421581141148
30
0
41
1
10
23.3386228683615
20
-0.103749399208596
30
0
41
1
10
22.7454007853156
20
0.213014216808091
30
0
41
1
10
21.5587642044123
20
0.837746962393624
30
0
41
1
10
20.9654091907683
20
1.14584916770303
30
0
41
1
10
20.0702528457734
20
1.59191343066598
30
0
41
1
10
19.7710462602479
20
1.73798566710522
30
0
41
1
10
19.3001964425018
20
1.96157277892541
30
0
41
1
10
19.1298430034498
20
2.0411453790062
30
0
41
1
10
18.9597764979687
20
2.119119657911
30
0
0
SPLINE
5
BB
100
AcDbEntity
8
1
62
256
6
ByLayer
370
18
48
1
60
0
100
AcDbSpline
70
4
71
3
72
14
73
10
40
0
40
0
40
0
40
0
40
0.25
40
0.25
40
0.5
40
0.5
40
0.75
40
0.75
40
1
40
1
40
1
40
1
41
1
10
4.25144398179486
20
3.19357073276382
30
0
41
1
10
4.22644723292512
20
3.20559537702428
30
0
41
1
10
4.20039009331038
20
3.21899715333493
30
0
41
1
10
4.14664147969552
20
3.24907550931334
30
0
41
1
10
4.11938296428559
20
3.26559963512685
30
0
41
1
10
4.07126463818562
20
3.29822475917274
30
0
41
1
10
4.05037485197181
20
3.31438951599043
30
0
41
1
10
4.01968349948478
20
3.34288052087194
30
0
41
1
10
4.00995756126753
20
3.35497720736009
30
0
41
1
10
4.00476475076613
20
3.36495002808977
30
0
0
SPLINE
5
BC
100
AcDbEntity
8
1
62
256
6
ByLayer
370
18
48
1
60
0
100
AcDbSpline
70
4
71
3
72
56
73
52
40
0
40
0
40
0
40
0
40
0.0727560530493254
40
0.0727560530493254
40
0.109134079573988
40
0.109134079573988
40
0.145512106098651
40
0.145512106098651
40
0.181890132623314
40
0.181890132623314
40
0.218268159147976
40
0.218268159147976
40
0.254646185672639
40
0.254646185672639
40
0.291024212197302
40
0.291024212197302
40
0.363780265246628
40
0.363780265246628
40
0.400158291771291
40
0.400158291771291
40
0.436536318295954
40
0.436536318295954
40
0.472914344820617
40
0.472914344820617
40
0.50929237134528
40
0.50929237134528
40
0.545670397869943
40
0.545670397869943
40
0.582048424394607
40
0.582048424394607
40
0.61842645091927
40
0.61842645091927
40
0.654804477443933
40
0.654804477443933
40
0.727560530493259
40
0.727560530493259
40
0.763938557017922
40
0.763938557017922
40
0.800316583542585
40
0.800316583542585
40
0.836694610067248
40
0.836694610067248
40
0.873072636591911
40
0.873072636591911
40
0.909450663116574
40
0.909450663116574
40
0.945828689641238
40
0.945828689641238
40
0.982206716165901
40
0.982206716165901
40
1
40
1
40
1
40
1
41
1
10
14.4954519379615
20
3.64364799906031
30
0
41
1
10
14.9893294829299
20
3.48702940186274
30
0
41
1
10
15.4819092387027
20
3.31315813539246
30
0
41
1
10
16.2160273243163
20
3.02426311946556
30
0
41
1
10
16.4596735554714
20
2.922819367995
30
0
41
1
10
16.947917116786
20
2.71390829386698
30
0
41
1
10
17.1922003984309
20
2.60605386031944
30
0
41
1
10
17.6806151753484
20
2.3829238118067
30
0
41
1
10
17.9246892216498
20
2.2675534721742
30
0
41
1
10
18.4125784789131
20
2.02899981978746
30
0
41
1
10
18.6571739345016
20
1.90707262963608
30
0
41
1
10
19.1479397737139
20
1.65847925615097
30
0
41
1
10
19.3939725494191
20
1.53158891953683
30
0
41
1
10
19.8869631276022
20
1.27176795811738
30
0
41
1
10
20.1341123164212
20
1.13791067395016
30
0
41
1
10
20.8737320678877
20
0.737277009003861
30
0
41
1
10
21.364947546512
20
0.468635543756051
30
0
41
1
10
22.096825809722
20
0.0593151433213279
30
0
41
1
10
22.3407555724423
20
-0.0767108258463622
30
0
41
1
10
22.8290829760663
20
-0.346990894981047
30
0
41
1
10
23.0733068388187
20
-0.481565500554382
30
0
41
1
10
23.5614703686894
20
-0.750315207662027
30
0
41
1
10
23.8050493995421
20
-0.885140124712791
30
0
41
1
10
24.2941293755579
20
-1.15036612808646
30
0
41
1
10
24.539492283594
20
-1.2810241838236
30
0
41
1
10
25.0313246571726
20
-1.53940201258146
30
0
41
1
10
25.2777967285538
20
-1.66711675830075
30
0
41
1
10
25.7715898200887
20
-1.92002501878457
30
0
41
1
10
26.018118865738
20
-2.04327040576175
30
0
41
1
10
26.5101453063986
20
-2.28150284581127
30
0
41
1
10
26.7556187017289
20
-2.39698711066427
30
0
41
1
10
27.2450908492786
20
-2.62139067902814
30
0
41
1
10
27.4887173544764
20
-2.73081628865714
30
0
41
1
10
28.2204488511212
20
-3.04461880480667
30
0
41
1
10
28.7091232186803
20
-3.23539654970887
30
0
41
1
10
29.4406466989171
20
-3.49722807207337
30
0
41
1
10
29.6848117152346
20
-3.57968565785538
30
0
41
1
10
30.1750952546174
20
-3.73359621908026
30
0
41
1
10
30.4209287238291
20
-3.80538565307865
30
0
41
1
10
30.9135948423931
20
-3.93883665992519
30
0
41
1
10
31.1606871509999
20
-4.00089104734067
30
0
41
1
10
31.6536517820721
20
-4.11204821735879
30
0
41
1
10
31.8997692946573
20
-4.16123875064872
30
0
41
1
10
32.3906992851265
20
-4.24767829310392
30
0
41
1
10
32.6355465908957
20
-4.28490050654969
30
0
41
1
10
33.123541297733
20
-4.34744452114788
30
0
41
1
10
33.3671418535276
20
-4.37251712123154
30
0
41
1
10
33.8551770877773
20
-4.41001711863959
30
0
41
1
10
34.0992892412228
20
-4.42258199447269
30
0
41
1
10
34.4626364937646
20
-4.43210576207073
30
0
41
1
10
34.5818757153708
20
-4.43374762291566
30
0
41
1
10
34.7011344320812
20
-4.43388827954442
30
0
0
SPLINE
5
BD
100
AcDbEntity
8
1
62
256
6
ByLayer
370
18
48
1
60
0
100
AcDbSpline
70
4
71
3
72
24
73
20
40
0
40
0
40
0
40
0
40
0.06968252150595
40
0.06968252150595
40
0.162714269355356
40
0.162714269355356
40
0.255746017204763
40
0.255746017204763
40
0.441809512903572
40
0.441809512903572
40
0.627873008602382
40
0.627873008602382
40
0.720904756451786
40
0.720904756451786
40
0.81393650430119
40
0.81393650430119
40
0.906968252150595
40
0.906968252150595
40
1
40
1
40
1
40
1
41
1
10
53.6330177510168
20
3.20946205432335
30
0
41
1
10
53.8174919992739
20
3.28104062689206
30
0
41
1
10
54.0017108969127
20
3.3495530686078
30
0
41
1
10
54.4312291082192
20
3.50269980611537
30
0
41
1
10
54.6762467581979
20
3.58512651739977
30
0
41
1
10
55.1647614668642
20
3.74017591418706
30
0
41
1
10
55.4079910351255
20
3.81298875000852
30
0
41
1
10
56.1392475613641
20
4.01292936676629
30
0
41
1
10
56.6272846316228
20
4.12352730134305
30
0
41
1
10
57.6020476260496
20
4.30016187389538
30
0
41
1
10
58.0926532508136
20
4.3639064298136
30
0
41
1
10
58.8317352330179
20
4.4229331923822
30
0
41
1
10
59.0785036481769
20
4.4364284341996
30
0
41
1
10
59.5712509668912
20
4.45022784270861
30
0
41
1
10
59.8174750632464
20
4.45071533847187
30
0
41
1
10
60.3091301666113
20
4.43911942165263
30
0
41
1
10
60.5545198169793
20
4.42702086953739
30
0
41
1
10
61.044324687396
20
4.38994259382633
30
0
41
1
10
61.2895211600347
20
4.36514047965952
30
0
41
1
10
61.5352212995071
20
4.33427918104252
30
0
0
SPLINE
5
BE
100
AcDbEntity
8
1
62
256
6
ByLayer
370
18
48
1
60
0
100
AcDbSpline
70
4
71
3
72
64
73
60
40
0
40
0
40
0
40
0
40
0.0625000000000025
40
0.0625000000000025
40
0.125000000000005
40
0.125000000000005
40
0.250000000000009
40
0.250000000000009
40
0.375000000000013
40
0.375000000000013
40
0.500000000000017
40
0.500000000000017
40
0.562500000000019
40
0.562500000000019
40
0.625000000000021
40
0.625000000000021
40
0.656250000000021
40
0.656250000000021
40
0.671875000000021
40
0.671875000000021
40
0.67578125000002
40
0.67578125000002
40
0.67968750000002
40
0.67968750000002
40
0.683593750000019
40
0.683593750000019
40
0.687500000000018
40
0.687500000000018
40
0.718750000000017
40
0.718750000000017
40
0.734375000000016
40
0.734375000000016
40
0.750000000000015
40
0.750000000000015
40
0.765625000000013
40
0.765625000000013
40
0.773437500000013
40
0.773437500000013
40
0.781250000000012
40
0.781250000000012
40
0.796875000000012
40
0.796875000000012
40
0.812500000000011
40
0.812500000000011
40
0.82812500000001
40
0.82812500000001
40
0.843750000000009
40
0.843750000000009
40
0.859375000000009
40
0.859375000000009
40
0.875000000000008
40
0.875000000000008
40
0.906250000000006
40
0.906250000000006
40
0.921875000000005
40
0.921875000000005
40
0.937500000000004
40
0.937500000000004
40
1
40
1
40
1
40
1
41
1
10
14.4954616762329
20
3.64362495026984
30
0
41
1
10
14.1751810793403
20
3.74469843179008
30
0
41
1
10
13.8530645085021
20
3.83442795303117
30
0
41
1
10
13.2043535405541
20
3.99288126559674
30
0
41
1
10
12.8771602248168
20
4.06168038661349
30
0
41
1
10
11.8916576657937
20
4.23778420466718
30
0
41
1
10
11.2311233010715
20
4.31441730416151
30
0
41
1
10
9.89374110203659
20
4.40582500388362
30
0
41
1
10
9.21680798731992
20
4.42063247025922
30
0
41
1
10
7.83889129024158
20
4.41533055696721
30
0
41
1
10
7.13791027641588
20
4.39549725259658
30
0
41
1
10
6.06499768745786
20
4.36164467412766
30
0
41
1
10
5.70349623786342
20
4.34965823931671
30
0
41
1
10
4.97821675477701
20
4.32755694280138
30
0
41
1
10
4.613651295381
20
4.31742488527419
30
0
41
1
10
4.06524919748114
20
4.30537612992805
30
0
41
1
10
3.88212057091508
20
4.30187627429979
30
0
41
1
10
3.60715056497418
20
4.2975580951159
30
0
41
1
10
3.51544793496635
20
4.29627345920693
30
0
41
1
10
3.40076146917156
20
4.29487350392017
30
0
41
1
10
3.37778989467839
20
4.29455700127093
30
0
41
1
10
3.33246715350481
20
4.29558785314879
30
0
41
1
10
3.30955103793883
20
4.29675742727582
30
0
41
1
10
3.26944197324201
20
4.30128792668515
30
0
41
1
10
3.24990994200925
20
4.30375014010914
30
0
41
1
10
3.21054974354402
20
4.3084641044853
30
0
41
1
10
3.19094100721782
20
4.31081379846762
30
0
41
1
10
3.01513368859645
20
4.33188000099437
30
0
41
1
10
2.86487976067082
20
4.34992967364468
30
0
41
1
10
2.65348301808456
20
4.37391838115803
30
0
41
1
10
2.58533202937451
20
4.38139448888555
30
0
41
1
10
2.45493743043707
20
4.39471455918377
30
0
41
1
10
2.39232550190729
20
4.40058709111963
30
0
41
1
10
2.27794106504572
20
4.409542391911
30
0
41
1
10
2.22590145673837
20
4.41266485965005
30
0
41
1
10
2.15760532371075
20
4.41444004928579
30
0
41
1
10
2.13637790983367
20
4.41453751485068
30
0
41
1
10
2.0983826142344
20
4.41357878015046
30
0
41
1
10
2.08155265347406
20
4.41252992738029
30
0
41
1
10
2.03784389582506
20
4.40750950878646
30
0
41
1
10
2.01772646779924
20
4.40167281272909
30
0
41
1
10
1.9974302599347
20
4.38396223537194
30
0
41
1
10
1.99769017545219
20
4.37232520899931
30
0
41
1
10
2.01665554208799
20
4.34406003794797
30
0
41
1
10
2.03564197541056
20
4.32717031202122
30
0
41
1
10
2.08774629405994
20
4.28985723272768
30
0
41
1
10
2.12073181435764
20
4.26941240161739
30
0
41
1
10
2.19741707377449
20
4.2254557557483
30
0
41
1
10
2.24143545939145
20
4.20179053643099
30
0
41
1
10
2.33639571973217
20
4.15262448484043
30
0
41
1
10
2.38730923202391
20
4.12712355451498
30
0
41
1
10
2.54791585861449
20
4.04822653464987
30
0
41
1
10
2.66535189772469
20
3.99245549103475
30
0
41
1
10
2.85173708845866
20
3.90483271432782
30
0
41
1
10
2.91558405240144
20
3.87497168755209
30
0
41
1
10
3.04483636066922
20
3.8146465979348
30
0
41
1
10
3.11042494911524
20
3.78409702305163
30
0
41
1
10
3.44234048551613
20
3.62949255511848
30
0
41
1
10
3.7201156269204
20
3.49991126074272
30
0
41
1
10
4.00476475076312
20
3.36495002809397
30
0
0
SPLINE
5
BF
100
AcDbEntity
8
1
62
256
6
ByLayer
370
18
48
1
60
0
100
AcDbSpline
70
4
71
3
72
58
73
54
40
0
40
0
40
0
40
0
40
0.0387822446245921
40
0.0387822446245921
40
0.0775644892491842
40
0.0775644892491842
40
0.116346733873776
40
0.116346733873776
40
0.155128978498369
40
0.155128978498369
40
0.193911223122961
40
0.193911223122961
40
0.232693467747553
40
0.232693467747553
40
0.271475712372145
40
0.271475712372145
40
0.310257956996737
40
0.310257956996737
40
0.349040201621329
40
0.349040201621329
40
0.387822446245921
40
0.387822446245921
40
0.426604690870513
40
0.426604690870513
40
0.465386935495105
40
0.465386935495105
40
0.504169180119698
40
0.504169180119698
40
0.54295142474429
40
0.54295142474429
40
0.581733669368882
40
0.581733669368882
40
0.620515913993474
40
0.620515913993474
40
0.659298158618066
40
0.659298158618066
40
0.698080403242658
40
0.698080403242658
40
0.73686264786725
40
0.73686264786725
40
0.775644892491842
40
0.775644892491842
40
0.814427137116434
40
0.814427137116434
40
0.853209381741026
40
0.853209381741026
40
0.891991626365619
40
0.891991626365619
40
0.930773870990211
40
0.930773870990211
40
0.969556115614803
40
0.969556115614803
40
1
40
1
40
1
40
1
41
1
10
8.84600538219649
20
0.847839282487826
30
0
41
1
10
9.10410103281578
20
0.713593918721983
30
0
41
1
10
9.36148807282149
20
0.578997071489056
30
0
41
1
10
9.87468110364847
20
0.308926985006764
30
0
41
1
10
10.1304834215083
20
0.173459446635633
30
0
41
1
10
10.6410039432822
20
-0.0975856594406252
30
0
41
1
10
10.8956737109772
20
-0.233284675334488
30
0
41
1
10
11.4052488328491
20
-0.502169541120963
30
0
41
1
10
11.6599424378015
20
-0.635729666774893
30
0
41
1
10
12.1692156891942
20
-0.900980072794681
30
0
41
1
10
12.4236578512937
20
-1.03296423235392
30
0
41
1
10
12.9333093703224
20
-1.29350706413422
30
0
41
1
10
13.1887248316392
20
-1.42165220508954
30
0
41
1
10
13.7006434033736
20
-1.67373129953822
30
0
41
1
10
13.9571520860119
20
-1.79769022369652
30
0
41
1
10
14.4712170913901
20
-2.04171962806319
30
0
41
1
10
14.7296401956729
20
-2.16123133753644
30
0
41
1
10
15.2442355239117
20
-2.39055274750726
30
0
41
1
10
15.5007557717915
20
-2.50109983870726
30
0
41
1
10
16.0123842453507
20
-2.71485413808722
30
0
41
1
10
16.2673307079206
20
-2.81843820144158
30
0
41
1
10
16.7770960215898
20
-3.01405660113662
30
0
41
1
10
17.0318555694553
20
-3.10669869856832
30
0
41
1
10
17.5410740028236
20
-3.28307177492104
30
0
41
1
10
17.7954612781491
20
-3.36723605562139
30
0
41
1
10
18.3042895312412
20
-3.52469875950391
30
0
41
1
10
18.5591895604015
20
-3.59696016372794
30
0
41
1
10
19.0699864428262
20
-3.73098903812692
30
0
41
1
10
19.3258219995929
20
-3.7927936290973
30
0
41
1
10
19.8382727033528
20
-3.90640831979951
30
0
41
1
10
20.0950583746345
20
-3.95681350718794
30
0
41
1
10
20.6114144047186
20
-4.04406761772117
30
0
41
1
10
20.8689187149035
20
-4.08124222074278
30
0
41
1
10
21.3822427894988
20
-4.14427342109423
30
0
41
1
10
21.6379670867655
20
-4.1701032632588
30
0
41
1
10
22.1484502509802
20
-4.2056834907338
30
0
41
1
10
22.403549763518
20
-4.21670874531162
30
0
41
1
10
22.9132897031167
20
-4.2270641837334
30
0
41
1
10
23.1679108912488
20
-4.22679944340786
30
0
41
1
10
23.676811732841
20
-4.21165435161359
30
0
41
1
10
23.9313417113119
20
-4.19642350026314
30
0
41
1
10
24.4415300164878
20
-4.15423687774839
30
0
41
1
10
24.6969920868157
20
-4.12721286884457
30
0
41
1
10
25.2085360555015
20
-4.06150575446628
30
0
41
1
10
25.4646294744186
20
-4.02125531648733
30
0
41
1
10
25.9791897446547
20
-3.92736619857882
30
0
41
1
10
26.238009800513
20
-3.87411550603693
30
0
41
1
10
26.7530351163175
20
-3.75744681755433
30
0
41
1
10
27.0096167141485
20
-3.69375289258224
30
0
41
1
10
27.5210443567438
20
-3.55287028183343
30
0
41
1
10
27.7763748189602
20
-3.47689236825548
30
0
41
1
10
28.2317697659546
20
-3.33344532496994
30
0
41
1
10
28.431848316306
20
-3.26768735364649
30
0
41
1
10
28.6317483538219
20
-3.19848447885539
30
0
0
SPLINE
5
C0
100
AcDbEntity
8
1
62
256
6
ByLayer
370
18
48
1
60
0
100
AcDbSpline
70
4
71
3
72
32
73
28
40
0
40
0
40
0
40
0
40
0.0651292722186167
40
0.0651292722186167
40
0.104082219209508
40
0.104082219209508
40
0.143035166200399
40
0.143035166200399
40
0.220941060182181
40
0.220941060182181
40
0.298846954163963
40
0.298846954163963
40
0.376752848145745
40
0.376752848145745
40
0.454658742127527
40
0.454658742127527
40
0.532564636109309
40
0.532564636109309
40
0.688376424072873
40
0.688376424072873
40
0.766282318054655
40
0.766282318054655
40
0.844188212036436
40
0.844188212036436
40
0.922094106018219
40
0.922094106018219
40
1
40
1
40
1
40
1
41
1
10
48.0863702190463
20
4.2379052081547
30
0
41
1
10
48.3001468684143
20
4.23592821081329
30
0
41
1
10
48.5144444324898
20
4.22912665846673
30
0
41
1
10
48.8576117423645
20
4.21145649859781
30
0
41
1
10
48.9861975205143
20
4.20333262392438
30
0
41
1
10
49.2436588100866
20
4.18414598226363
30
0
41
1
10
49.3726233672366
20
4.17315370255005
30
0
41
1
10
49.7583531573245
20
4.13467262380317
30
0
41
1
10
50.0147271546939
20
4.10189867409559
30
0
41
1
10
50.5261980364017
20
4.02327318659871
30
0
41
1
10
50.7812813083123
20
3.97756005068214
30
0
41
1
10
51.2903229121659
20
3.87418537510311
30
0
41
1
10
51.5442825398683
20
3.8164402496059
30
0
41
1
10
52.0526077975487
20
3.6907001349542
30
0
41
1
10
52.3067506517852
20
3.62263769784207
30
0
41
1
10
52.8149156365099
20
3.47600223927307
30
0
41
1
10
53.068805104113
20
3.3970350073979
30
0
41
1
10
53.8319010785985
20
3.14310102063809
30
0
41
1
10
54.3431819194287
20
2.95330352698599
30
0
41
1
10
55.1138870703844
20
2.63908295556198
30
0
41
1
10
55.3718419903727
20
2.52950877171088
30
0
41
1
10
55.88535859417
20
2.30496933547656
30
0
41
1
10
56.1414174727055
20
2.18953527043666
30
0
41
1
10
56.6521277104395
20
1.95224491597668
30
0
41
1
10
56.9066170272516
20
1.8300412545259
30
0
41
1
10
57.4156048630133
20
1.58157219058572
30
0
41
1
10
57.6700317369467
20
1.4552829590053
30
0
41
1
10
57.9243251964688
20
1.32684667165876
30
0
0
SPLINE
5
C1
100
AcDbEntity
8
1
62
256
6
ByLayer
370
18
48
1
60
0
100
AcDbSpline
70
4
71
3
72
16
73
12
40
0
40
0
40
0
40
0
40
0.25
40
0.25
40
0.5
40
0.5
40
0.75
40
0.75
40
0.875
40
0.875
40
1
40
1
40
1
40
1
41
1
10
8.84605907970032
20
0.847876980993334
30
0
41
1
10
8.45073004786281
20
1.05238949589702
30
0
41
1
10
8.05940683637255
20
1.25808783674168
30
0
41
1
10
7.28276726346343
20
1.6647438007318
30
0
41
1
10
6.89717132023299
20
1.86642583752044
30
0
41
1
10
6.1303818802148
20
2.26229913112508
30
0
41
1
10
5.74915856435794
20
2.45643360004337
30
0
41
1
10
5.18122950132573
20
2.73998546581396
30
0
41
1
10
4.99217482143388
20
2.83343382979246
30
0
41
1
10
4.61788338807506
20
3.0166422416084
30
0
41
1
10
4.43312120580555
20
3.10617520782969
30
0
41
1
10
4.25144398453563
20
3.19357073144539
30
0
0
SPLINE
5
C2
100
AcDbEntity
8
1
62
256
6
ByLayer
370
18
48
1
60
0
100
AcDbSpline
70
4
71
3
72
10
73
6
40
0
40
0
40
0
40
0
40
0.874904582518374
40
0.874904582518374
40
1
40
1
40
1
40
1
41
1
10
61.4574802082996
20
4.41326835959669
30
0
41
1
10
61.1572413755582
20
4.43465036033609
30
0
41
1
10
60.8570611616159
20
4.44653097403918
30
0
41
1
10
60.513583405358
20
4.44923923549976
30
0
41
1
10
60.4706017108713
20
4.44938284314571
30
0
41
1
10
60.4276099690149
20
4.44933152952461
30
0
0
SPLINE
5
C3
100
AcDbEntity
8
1
62
256
6
ByLayer
370
18
48
1
60
0
100
AcDbSpline
70
4
71
3
72
46
73
42
40
0
40
0
40
0
40
0
40
0.0032383457803137
40
0.0032383457803137
40
0.0195969367445128
40
0.0195969367445128
40
0.0523141186729123
40
0.0523141186729123
40
0.183182846386509
40
0.183182846386509
40
0.215900028314907
40
0.215900028314907
40
0.248617210243306
40
0.248617210243306
40
0.314051574100104
40
0.314051574100104
40
0.379485937956901
40
0.379485937956901
40
0.395844528921101
40
0.395844528921101
40
0.4122031198853
40
0.4122031198853
40
0.444920301813697
40
0.444920301813697
40
0.575789029527287
40
0.575789029527287
40
0.608506211455685
40
0.608506211455685
40
0.641223393384082
40
0.641223393384082
40
0.706657757240878
40
0.706657757240878
40
0.772092121097674
40
0.772092121097674
40
0.804809303026072
40
0.804809303026072
40
0.837526484954471
40
0.837526484954471
40
0.968395212668063
40
0.968395212668063
40
1
40
1
40
1
40
1
41
1
10
37.7847689252728
20
-4.24375587663309
30
0
41
1
10
37.7550014926952
20
-4.24856874155074
30
0
41
1
10
37.7252474088099
20
-4.25329024004049
30
0
41
1
10
37.5453147098601
20
-4.28130001815327
30
0
41
1
10
37.3954230705075
20
-4.30235339986282
30
0
41
1
10
36.9465075575308
20
-4.35853817823372
30
0
41
1
10
36.6482470317522
20
-4.38669571814739
30
0
41
1
10
35.1598327626837
20
-4.48105005620891
30
0
41
1
10
33.9781592292706
20
-4.40776877947553
30
0
41
1
10
32.4775417840448
20
-4.13296037131087
30
0
41
1
10
32.1757576062475
20
-4.0686987797186
30
0
41
1
10
31.5761358499968
20
-3.92396148343562
30
0
41
1
10
31.2774643086627
20
-3.84334473713093
30
0
41
1
10
30.3834100158331
20
-3.57846050183812
30
0
41
1
10
29.7900275076712
20
-3.37112526090468
30
0
41
1
10
28.6016564530477
20
-2.90342428088994
30
0
41
1
10
28.0066720939749
20
-2.6430527495167
30
0
41
1
10
27.2575535321324
20
-2.28990947312013
30
0
41
1
10
27.1074569484436
20
-2.21790233704476
30
0
41
1
10
26.8065895215462
20
-2.0713021817451
30
0
41
1
10
26.6558500718682
20
-1.99671946732008
30
0
41
1
10
26.2052289714183
20
-1.77071718196782
30
0
41
1
10
25.9060466285031
20
-1.61655942457909
30
0
41
1
10
24.4142282940139
20
-0.832062097940252
30
0
41
1
10
23.2328499520845
20
-0.162384746190469
30
0
41
1
10
21.7365929843364
20
0.664287182860079
30
0
41
1
10
21.4358717181457
20
0.82944524400304
30
0
41
1
10
20.8338406944309
20
1.15571912106265
30
0
41
1
10
20.5341225739268
20
1.31592540846722
30
0
41
1
10
19.6375746434498
20
1.78576079668372
30
0
41
1
10
19.0434666543527
20
2.08478654791301
30
0
41
1
10
17.8549816580214
20
2.64277541942658
30
0
41
1
10
17.2608438666359
20
2.90211041133838
30
0
41
1
10
16.3642191937281
20
3.25307631466251
30
0
41
1
10
16.0645127298257
20
3.36382271288775
30
0
41
1
10
15.4623902891746
20
3.5712658846559
30
0
41
1
10
15.1615491313277
20
3.66738204900011
30
0
41
1
10
13.6649126712835
20
4.10572687244246
30
0
41
1
10
12.4833186140037
20
4.32407393169456
30
0
41
1
10
11.0008639926465
20
4.41140326971026
30
0
41
1
10
10.7117739639935
20
4.41977346583741
30
0
41
1
10
10.4215381455347
20
4.41932540158786
30
0
0
SPLINE
5
C4
100
AcDbEntity
8
1
62
256
6
ByLayer
370
13
48
1
60
0
100
AcDbSpline
70
4
71
3
72
8
73
4
40
0
40
0
40
0
40
0
40
1
40
1
40
1
40
1
41
1
10
4.25034719481627
20
-2.92437018392542
30
0
41
1
10
4.20850724353903
20
-2.91476330762052
30
0
41
1
10
4.16764263750417
20
-2.91257259152224
30
0
41
1
10
4.13046016779771
20
-2.91803461455598
30
0
0
SPLINE
5
C5
100
AcDbEntity
8
1
62
256
6
ByLayer
370
18
48
1
60
0
100
AcDbSpline
70
4
71
3
72
14
73
10
40
0
40
0
40
0
40
0
40
0.183932306573132
40
0.183932306573132
40
0.362855551948252
40
0.362855551948252
40
0.541778797323372
40
0.541778797323372
40
1
40
1
40
1
40
1
41
1
10
60.641930028592
20
-4.24659343626754
30
0
41
1
10
60.3342319006267
20
-4.24637581998633
30
0
41
1
10
60.0266645315161
20
-4.23660387348161
30
0
41
1
10
59.4193925852349
20
-4.1986078968157
30
0
41
1
10
59.1197028240984
20
-4.17090957692147
30
0
41
1
10
58.5189145662444
20
-4.09771119570715
30
0
41
1
10
58.2196500350261
20
-4.05242625531491
30
0
41
1
10
57.157747576741
20
-3.86183703023127
30
0
41
1
10
56.4000124114714
20
-3.67049365013318
30
0
41
1
10
55.6414583453137
20
-3.4322628288636
30
0
0
SPLINE
5
C6
100
AcDbEntity
8
1
62
256
6
ByLayer
370
13
48
1
60
0
100
AcDbSpline
70
4
71
3
72
20
73
16
40
0
40
0
40
0
40
0
40
0.110057806904602
40
0.110057806904602
40
0.186539587083719
40
0.186539587083719
40
0.263021367262835
40
0.263021367262835
40
0.415984927621072
40
0.415984927621072
40
0.721912048337547
40
0.721912048337547
40
0.874875608695785
40
0.874875608695785
40
1
40
1
40
1
40
1
41
1
10
55.6414583453079
20
-3.4322628288617
30
0
41
1
10
55.215231309968
20
-3.29840234190817
30
0
41
1
10
54.7887457271849
20
-3.14973831986393
30
0
41
1
10
54.0634076731357
20
-2.87489477488066
30
0
41
1
10
53.7653088731286
20
-2.75570441023268
30
0
41
1
10
53.1668559744857
20
-2.50523111628598
30
0
41
1
10
52.8657943205988
20
-2.3736117913561
30
0
41
1
10
51.9680968060928
20
-1.96653275819654
30
0
41
1
10
51.374059137274
20
-1.67835119243722
30
0
41
1
10
49.5951658799781
20
-0.782048403713645
30
0
41
1
10
48.4140520917592
20
-0.140918327511344
30
0
41
1
10
46.6111598703142
20
0.813252441084131
30
0
41
1
10
46.0151542919058
20
1.12368478240106
30
0
41
1
10
44.9354676452691
20
1.66549809056068
30
0
41
1
10
44.4507459259727
20
1.90029726473435
30
0
41
1
10
43.9656251090669
20
2.12365823533204
30
0
0
SPLINE
5
C7
100
AcDbEntity
8
1
62
256
6
ByLayer
370
18
48
1
60
0
100
AcDbSpline
70
4
71
3
72
16
73
12
40
0
40
0
40
0
40
0
40
0.205024194632773
40
0.205024194632773
40
0.388409690145445
40
0.388409690145445
40
0.571795185658117
40
0.571795185658117
40
0.938566176683463
40
0.938566176683463
40
1
40
1
40
1
40
1
41
1
10
10.6339880401347
20
-4.21665056089014
30
0
41
1
10
10.3022023514429
20
-4.2162029887314
30
0
41
1
10
9.97029230628766
20
-4.20475917527691
30
0
41
1
10
9.34018096012304
20
-4.16222401380534
30
0
41
1
10
9.04212468278027
20
-4.13332917895647
30
0
41
1
10
8.44420705160778
20
-4.05799930580235
30
0
41
1
10
8.14380735547735
20
-4.01146193194083
30
0
41
1
10
7.24206214058111
20
-3.84621616731189
30
0
41
1
10
6.64434477898951
20
-3.70271167391971
30
0
41
1
10
5.94652738282122
20
-3.50064479945661
30
0
41
1
10
5.84641176862075
20
-3.4708242618012
30
0
41
1
10
5.74628071712107
20
-3.44018631864762
30
0
0
SPLINE
5
C8
100
AcDbEntity
8
1
62
256
6
ByLayer
370
13
48
1
60
0
100
AcDbSpline
70
4
71
3
72
8
73
4
40
0
40
0
40
0
40
0
40
1
40
1
40
1
40
1
41
1
10
5.7462797609889
20
-3.44018602609177
30
0
41
1
10
5.24861071705729
20
-3.28791000158623
30
0
41
1
10
4.75056032964881
20
-3.11544188893876
30
0
41
1
10
4.25034719481641
20
-2.92437018392545
30
0
0
SPLINE
5
C9
100
AcDbEntity
8
1
62
256
6
ByLayer
370
18
48
1
60
0
100
AcDbSpline
70
4
71
3
72
22
73
18
40
0
40
0
40
0
40
0
40
0.25
40
0.25
40
0.5
40
0.5
40
0.625
40
0.625
40
0.75
40
0.75
40
0.8125
40
0.8125
40
0.875
40
0.875
40
0.9375
40
0.9375
40
1
40
1
40
1
40
1
41
1
10
61.214554281486
20
1.33407961453335
30
0
41
1
10
61.3402891527674
20
1.36287541592355
30
0
41
1
10
61.4653134188373
20
1.39562888828442
30
0
41
1
10
61.7100649311659
20
1.47418622985563
30
0
41
1
10
61.830132661561
20
1.51960179004581
30
0
41
1
10
62.0019584065162
20
1.60804204339664
30
0
41
1
10
62.0571690525315
20
1.64067545083799
30
0
41
1
10
62.1609864465465
20
1.71619009169012
30
0
41
1
10
62.2095307702978
20
1.75914648553061
30
0
41
1
10
62.270470217318
20
1.83339812013929
30
0
41
1
10
62.2890590811603
20
1.86020763672312
30
0
41
1
10
62.3203431445709
20
1.91669904375681
30
0
41
1
10
62.3330422240925
20
1.94625790891951
30
0
41
1
10
62.3518939859952
20
2.00832619223334
30
0
41
1
10
62.3579043307365
20
2.04070361108234
30
0
41
1
10
62.3627907160465
20
2.10518520092918
30
0
41
1
10
62.3617669707316
20
2.13792114256216
30
0
41
1
10
62.3575947461878
20
2.17035864440692
30
0
0
SPLINE
5
CA
100
AcDbEntity
8
1
62
256
6
ByLayer
370
13
48
1
60
0
100
AcDbSpline
70
4
71
3
72
8
73
4
40
0
40
0
40
0
40
0
40
1
40
1
40
1
40
1
41
1
10
4.12862614060381
20
-3.10021072659663
30
0
41
1
10
4.12923328463336
20
-3.08046386823483
30
0
41
1
10
4.12984462294801
20
-3.06071398524739
30
0
41
1
10
4.13046016779768
20
-3.04096098676732
30
0
0
SPLINE
5
CB
100
AcDbEntity
8
1
62
256
6
ByLayer
370
18
48
1
60
0
100
AcDbSpline
70
4
71
3
72
48
73
44
40
0
40
0
40
0
40
0
40
0.0344044692253123
40
0.0344044692253123
40
0.0688089384506246
40
0.0688089384506246
40
0.137617876901248
40
0.137617876901248
40
0.17202234612656
40
0.17202234612656
40
0.206426815351871
40
0.206426815351871
40
0.275235753802496
40
0.275235753802496
40
0.344044692253121
40
0.344044692253121
40
0.378449161478432
40
0.378449161478432
40
0.412853630703744
40
0.412853630703744
40
0.481662569154368
40
0.481662569154368
40
0.550471507604991
40
0.550471507604991
40
0.584875976830303
40
0.584875976830303
40
0.602078211442959
40
0.602078211442959
40
0.619280446055615
40
0.619280446055615
40
0.688089384506242
40
0.688089384506242
40
0.756898322956869
40
0.756898322956869
40
0.791302792182183
40
0.791302792182183
40
0.825707261407497
40
0.825707261407497
40
0.963325138308751
40
0.963325138308751
40
0.997729607534064
40
0.997729607534064
40
1
40
1
40
1
40
1
41
1
10
61.4574802082995
20
-4.41326835959669
30
0
41
1
10
61.1573306340351
20
-4.43464400364732
30
0
41
1
10
60.8573766731941
20
-4.44651414832913
30
0
41
1
10
60.2570832921666
20
-4.45127599915622
30
0
41
1
10
59.9564699871871
20
-4.44415022565829
30
0
41
1
10
59.0547362656654
20
-4.39432397952984
30
0
41
1
10
58.456033574188
20
-4.32340250797307
30
0
41
1
10
57.5564540907254
20
-4.16272852849562
30
0
41
1
10
57.2559293550329
20
-4.10004010721164
30
0
41
1
10
56.6550346975395
20
-3.95746294097836
30
0
41
1
10
56.355882227519
20
-3.87790044066887
30
0
41
1
10
55.4610109088739
20
-3.6160443379419
30
0
41
1
10
54.8678931506212
20
-3.4105530319882
30
0
41
1
10
53.6814593237771
20
-2.94672892042507
30
0
41
1
10
53.0881107839427
20
-2.6884722989744
30
0
41
1
10
52.1930679920723
20
-2.26763765501082
30
0
41
1
10
51.8938033156192
20
-2.121903597548
30
0
41
1
10
51.2925017505664
20
-1.82079145423265
30
0
41
1
10
50.992600474878
20
-1.66646553922192
30
0
41
1
10
50.096576720079
20
-1.19605086609036
30
0
41
1
10
49.5029978336997
20
-0.87181038323962
30
0
41
1
10
48.3168211734264
20
-0.213971588482252
30
0
41
1
10
47.7237326617649
20
0.118731691884278
30
0
41
1
10
46.8296536387651
20
0.6153754639775
30
0
41
1
10
46.5307855685073
20
0.78033622184816
30
0
41
1
10
46.0805506687239
20
1.02567096975085
30
0
41
1
10
45.9299391262145
20
1.107202689877
30
0
41
1
10
45.6296382360501
20
1.26857705974675
30
0
41
1
10
45.4798387425979
20
1.34851068197793
30
0
41
1
10
44.732163318794
20
1.74368596166872
30
0
41
1
10
44.1379281580145
20
2.04491636988092
30
0
41
1
10
42.951315091515
20
2.6086443887537
30
0
41
1
10
42.3583744599647
20
2.8702686074098
30
0
41
1
10
41.4652154401423
20
3.22581549295592
30
0
41
1
10
41.1667722858558
20
3.33803954443573
30
0
41
1
10
40.5674991490753
20
3.54853650158384
30
0
41
1
10
40.2659551070207
20
3.64699539932801
30
0
41
1
10
38.7675716826791
20
4.09665401034817
30
0
41
1
10
37.5871774112042
20
4.32324439469215
30
0
41
1
10
36.0996064226303
20
4.42236370787018
30
0
41
1
10
35.8014940774993
20
4.43299121739577
30
0
41
1
10
35.4825637884108
20
4.43430282344613
30
0
41
1
10
35.4628125825224
20
4.4343429129701
30
0
41
1
10
35.4430544313957
20
4.43434188443771
30
0
0
SPLINE
5
CC
100
AcDbEntity
8
1
62
256
6
ByLayer
370
18
48
1
60
0
100
AcDbSpline
70
4
71
3
72
16
73
12
40
0
40
0
40
0
40
0
40
0.176451096194287
40
0.176451096194287
40
0.27939470917
40
0.27939470917
40
0.382338322145714
40
0.382338322145714
40
0.588225548097143
40
0.588225548097143
40
1
40
1
40
1
40
1
41
1
10
12.8152114520686
20
-4.22440673712382
30
0
41
1
10
12.3062928430405
20
-4.30745659609559
30
0
41
1
10
11.7974826868029
20
-4.36456999231493
30
0
41
1
10
10.9884904659803
20
-4.41207669907752
30
0
41
1
10
10.6897095608339
20
-4.4203693946551
30
0
41
1
10
10.0897958502185
20
-4.41811277403045
30
0
41
1
10
9.78796048690413
20
-4.40747369596039
30
0
41
1
10
8.88828001255752
20
-4.34768457120086
30
0
41
1
10
8.2935059758077
20
-4.27077482442627
30
0
41
1
10
6.51331476976364
20
-3.93672202255746
30
0
41
1
10
5.33182751677811
20
-3.57650500513788
30
0
41
1
10
4.12862614060398
20
-3.10021072659777
30
0
0
SPLINE
5
CD
100
AcDbEntity
8
1
62
256
6
ByLayer
370
18
48
1
60
0
100
AcDbSpline
70
4
71
3
72
8
73
4
40
0
40
0
40
0
40
0
40
1
40
1
40
1
40
1
41
1
10
61.5154279973857
20
-4.22152922491435
30
0
41
1
10
61.4920599277539
20
-4.23844512123776
30
0
41
1
10
61.4716457310236
20
-4.24696723235692
30
0
41
1
10
61.4542371356932
20
-4.24694856551454
30
0
0
SPLINE
5
CE
100
AcDbEntity
8
1
62
256
6
ByLayer
370
18
48
1
60
0
100
AcDbSpline
70
4
71
3
72
18
73
14
40
0
40
0
40
0
40
0
40
0.250000000000009
40
0.250000000000009
40
0.375000000000011
40
0.375000000000011
40
0.500000000000013
40
0.500000000000013
40
0.75000000000001
40
0.75000000000001
40
0.875000000000005
40
0.875000000000005
40
1
40
1
40
1
40
1
41
1
10
62.3575947461878
20
-2.17035864440689
30
0
41
1
10
62.2898042873479
20
-2.35259206112201
30
0
41
1
10
62.2219504153325
20
-2.53472581168043
30
0
41
1
10
62.1198250708486
20
-2.80738493136289
30
0
41
1
10
62.0857270366496
20
-2.89818289250869
30
0
41
1
10
62.0173592327558
20
-3.07950889901909
30
0
41
1
10
61.9830611172914
20
-3.17000228332037
30
0
41
1
10
61.8801712532097
20
-3.44125592970559
30
0
41
1
10
61.8115493589926
20
-3.6219305721643
30
0
41
1
10
61.7082120984553
20
-3.89066828285379
30
0
41
1
10
61.6736605022535
20
-3.97965231297766
30
0
41
1
10
61.6045225068602
20
-4.15742465847938
30
0
41
1
10
61.569922048037
20
-4.24613390946291
30
0
41
1
10
61.5352212995285
20
-4.33427918101432
30
0
0
SPLINE
5
CF
100
AcDbEntity
8
1
62
256
6
ByLayer
370
13
48
1
60
0
100
AcDbSpline
70
4
71
3
72
18
73
14
40
0
40
0
40
0
40
0
40
0.226423526456332
40
0.226423526456332
40
0.452847052912664
40
0.452847052912664
40
0.566058816140831
40
0.566058816140831
40
0.679270579368998
40
0.679270579368998
40
0.90569410582533
40
0.90569410582533
40
1
40
1
40
1
40
1
41
1
10
4.20255745449873
20
-3.05581068694073
30
0
41
1
10
4.80403612983031
20
-3.28625977159118
30
0
41
1
10
5.40226250664782
20
-3.48862324937579
30
0
41
1
10
6.59856127938741
20
-3.8319381920881
30
0
41
1
10
7.19667059335359
20
-3.97287247650692
30
0
41
1
10
8.09914290606775
20
-4.13255566198654
30
0
41
1
10
8.39975757748925
20
-4.17695758381737
30
0
41
1
10
8.99800812497998
20
-4.24751199892734
30
0
41
1
10
9.2961921831108
20
-4.27376070693731
30
0
41
1
10
10.1890589047897
20
-4.32538613517377
30
0
41
1
10
10.7819882479392
20
-4.32366273494492
30
0
41
1
10
11.623430127274
20
-4.27031456765604
30
0
41
1
10
11.8710348073321
20
-4.24839745312192
30
0
41
1
10
12.1190730343729
20
-4.22027757611747
30
0
0
SPLINE
5
D0
100
AcDbEntity
8
1
62
256
6
ByLayer
370
18
48
1
60
0
100
AcDbSpline
70
4
71
3
72
16
73
12
40
0
40
0
40
0
40
0
40
0.438783453352692
40
0.438783453352692
40
0.716407219178465
40
0.716407219178465
40
0.855219102091355
40
0.855219102091355
40
0.994030985004244
40
0.994030985004244
40
1
40
1
40
1
40
1
41
1
10
47.9412014780286
20
-0.0034886814088395
30
0
41
1
10
48.8853706635295
20
-0.518235198197175
30
0
41
1
10
49.8195698340043
20
-1.02738129038866
30
0
41
1
10
51.3502756239493
20
-1.810037041172
30
0
41
1
10
51.9446003659247
20
-2.10178042799413
30
0
41
1
10
52.8430240681312
20
-2.51260904112885
30
0
41
1
10
53.1443260155316
20
-2.64515657276755
30
0
41
1
10
53.7430298571548
20
-2.89675408689249
30
0
41
1
10
54.0412290874206
20
-3.01619048405723
30
0
41
1
10
54.3514943053371
20
-3.13366894565993
30
0
41
1
10
54.3642845625425
20
-3.13849973381809
30
0
41
1
10
54.3770735212608
20
-3.14331788332501
30
0
0
SPLINE
5
D1
100
AcDbEntity
8
1
62
256
6
ByLayer
370
13
48
1
60
0
100
AcDbSpline
70
4
71
3
72
14
73
10
40
0
40
0
40
0
40
0
40
0.497297995507418
40
0.497297995507418
40
0.622973496630564
40
0.622973496630564
40
0.748648997753708
40
0.748648997753708
40
1
40
1
40
1
40
1
41
1
10
54.3770725859061
20
-3.14331753093671
30
0
41
1
10
55.5539337891619
20
-3.58669169831353
30
0
41
1
10
56.7197994146678
20
-3.92304195454128
30
0
41
1
10
58.199019732572
20
-4.17672278673251
30
0
41
1
10
58.4986727271461
20
-4.21937863524246
30
0
41
1
10
59.0998531955316
20
-4.28672625654738
30
0
41
1
10
59.3997183769516
20
-4.31124647928965
30
0
41
1
10
60.2985508695797
20
-4.3571874176954
30
0
41
1
10
60.8967597842529
20
-4.35055152251556
30
0
41
1
10
61.4968897516015
20
-4.30747491198571
30
0
0
SPLINE
5
D2
100
AcDbEntity
8
1
62
256
6
ByLayer
370
18
48
1
60
0
100
AcDbSpline
70
4
71
3
72
12
73
8
40
0
40
0
40
0
40
0
40
0.25
40
0.25
40
0.5
40
0.5
40
1
40
1
40
1
40
1
41
1
10
61.4968897515873
20
-4.30747491198673
30
0
41
1
10
61.5017829127879
20
-4.29431881427473
30
0
41
1
10
61.506410407907
20
-4.28091189423734
30
0
41
1
10
61.5138672569985
20
-4.25685830288799
30
0
41
1
10
61.5166778989761
20
-4.24623092469542
30
0
41
1
10
61.5213292208832
20
-4.22280506680531
30
0
41
1
10
61.5196157538201
20
-4.21849775270516
30
0
41
1
10
61.5154279973857
20
-4.22152922491435
30
0
0
SPLINE
5
D3
100
AcDbEntity
8
1
62
256
6
ByLayer
370
18
48
1
60
0
100
AcDbSpline
70
4
71
3
72
10
73
6
40
0
40
0
40
0
40
0
40
0.5
40
0.5
40
1
40
1
40
1
40
1
41
1
10
4.12862614060379
20
-3.10021072659768
30
0
41
1
10
4.10104095231335
20
-3.0892909690115
30
0
41
1
10
4.07689695189163
20
-3.07487386836215
30
0
41
1
10
4.03702833250881
20
-3.03990038704691
30
0
41
1
10
4.02182103348741
20
-3.01967300901785
30
0
41
1
10
4.01218965820283
20
-2.99785024955378
30
0
0
SPLINE
5
D4
100
AcDbEntity
8
1
62
256
6
ByLayer
370
13
48
1
60
0
100
AcDbSpline
70
4
71
3
72
10
73
6
40
0
40
0
40
0
40
0
40
0.5
40
0.5
40
1
40
1
40
1
40
1
41
1
10
4.01218965820328
20
-2.99785024956679
30
0
41
1
10
4.0216196981651
20
-3.00676622158102
30
0
41
1
10
4.03610819265671
20
-3.01498565755421
30
0
41
1
10
4.07602173618986
20
-3.02980883746619
30
0
41
1
10
4.10085480937829
20
-3.0361482911201
30
0
41
1
10
4.13046016779771
20
-3.04096098676734
30
0
0
SPLINE
5
D5
100
AcDbEntity
8
1
62
256
6
ByLayer
370
18
48
1
60
0
100
AcDbSpline
70
4
71
3
72
18
73
14
40
0
40
0
40
0
40
0
40
0.154106332640412
40
0.154106332640412
40
0.294971237514496
40
0.294971237514496
40
0.36540368995154
40
0.36540368995154
40
0.435836142388584
40
0.435836142388584
40
0.999295761884964
40
0.999295761884964
40
1
40
1
40
1
40
1
41
1
10
22.9206958697839
20
0.0077847440425671
30
0
41
1
10
23.2456579538546
20
-0.168738966432841
30
0
41
1
10
23.571038074184
20
-0.345549310364788
30
0
41
1
10
24.1956903054877
20
-0.68255512553921
30
0
41
1
10
24.4948259106683
20
-0.842829230157832
30
0
41
1
10
24.9454369751506
20
-1.08100657901616
30
0
41
1
10
25.0960840318911
20
-1.16009253145106
30
0
41
1
10
25.3963224052417
20
-1.31649438971058
30
0
41
1
10
25.5461172378714
20
-1.3939129801353
30
0
41
1
10
26.8920919409307
20
-2.08238610329951
30
0
41
1
10
28.0727010989306
20
-2.63573449489431
30
0
41
1
10
29.2653959371176
20
-3.09026871828013
30
0
41
1
10
29.2668847784212
20
-3.09083595200468
30
0
41
1
10
29.2683736362476
20
-3.09140303044532
30
0
0
SPLINE
5
D6
100
AcDbEntity
8
1
62
256
6
ByLayer
370
13
48
1
60
0
100
AcDbSpline
70
4
71
3
72
20
73
16
40
0
40
0
40
0
40
0
40
0.11388339320675
40
0.11388339320675
40
0.228339114537731
40
0.228339114537731
40
0.457250557199688
40
0.457250557199688
40
0.686161999861645
40
0.686161999861645
40
0.800617721192625
40
0.800617721192625
40
0.915073442523605
40
0.915073442523605
40
1
40
1
40
1
40
1
41
1
10
29.2683745708187
20
-3.09140338640611
30
0
41
1
10
29.5646935044189
20
-3.20426578049935
30
0
41
1
10
29.8616669178389
20
-3.31097727141568
30
0
41
1
10
30.4593424657079
20
-3.51128442109996
30
0
41
1
10
30.7605947572542
20
-3.60495878284189
30
0
41
1
10
31.6621585945396
20
-3.86157747133768
30
0
41
1
10
32.2622641091339
20
-4.00080149613834
30
0
41
1
10
33.4654235157194
20
-4.20933780295775
30
0
41
1
10
34.0641905413436
20
-4.2779277837611
30
0
41
1
10
34.9633230989152
20
-4.32582938150677
30
0
41
1
10
35.2632380898293
20
-4.33262677177248
30
0
41
1
10
35.8642210420441
20
-4.32769321924485
30
0
41
1
10
36.1650870369796
20
-4.31591798302961
30
0
41
1
10
36.6861948462885
20
-4.27962796975436
30
0
41
1
10
36.9075891661287
20
-4.25919211211991
30
0
41
1
10
37.1285845827131
20
-4.23390207789294
30
0
0
SPLINE
5
D7
100
AcDbEntity
8
1
62
256
6
ByLayer
370
18
48
1
60
0
100
AcDbSpline
70
4
71
3
72
22
73
18
40
0
40
0
40
0
40
0
40
0.125000000000001
40
0.125000000000001
40
0.187500000000001
40
0.187500000000001
40
0.250000000000002
40
0.250000000000002
40
0.500000000000001
40
0.500000000000001
40
0.625000000000001
40
0.625000000000001
40
0.750000000000001
40
0.750000000000001
40
0.875
40
0.875
40
1
40
1
40
1
40
1
41
1
10
61.4542371356895
20
-4.24694856551454
30
0
41
1
10
61.3895922334922
20
-4.24690003561591
30
0
41
1
10
61.3282011653549
20
-4.23702875209085
30
0
41
1
10
61.241256479003
20
-4.20669928580321
30
0
41
1
10
61.2131342169046
20
-4.19399538785043
30
0
41
1
10
61.1586840952984
20
-4.16317060563648
30
0
41
1
10
61.1323257403716
20
-4.14499660114427
30
0
41
1
10
61.0070843278907
20
-4.04158960632935
30
0
41
1
10
60.9259468596043
20
-3.91862347960998
30
0
41
1
10
60.8347271551161
20
-3.66979484782632
30
0
41
1
10
60.8093899602646
20
-3.57514363626268
30
0
41
1
10
60.7711252718656
20
-3.36913637841971
30
0
41
1
10
60.7579302954149
20
-3.25739669709023
30
0
41
1
10
60.7433752242502
20
-3.01650386915929
30
0
41
1
10
60.7420131461494
20
-2.88735364084982
30
0
41
1
10
60.7516650048673
20
-2.61084351295631
30
0
41
1
10
60.7626175592142
20
-2.46603174489155
30
0
41
1
10
60.7793932002008
20
-2.31590167928803
30
0
0
SPLINE
5
D8
100
AcDbEntity
8
1
62
256
6
ByLayer
370
13
48
1
60
0
100
AcDbSpline
70
4
71
3
72
30
73
26
40
0
40
0
40
0
40
0
40
0.0624999999999999
40
0.0624999999999999
40
0.125
40
0.1875
40
0.1875
40
0.25
40
0.25
40
0.375
40
0.375
40
0.4375
40
0.4375
40
0.5
40
0.5
40
0.625
40
0.625
40
0.6875
40
0.6875
40
0.75
40
0.8125
40
0.8125
40
0.875
40
0.875
40
1
40
1
40
1
40
1
41
1
10
4.25034719481627
20
-2.92437018392542
30
0
41
1
10
4.25038739387259
20
-2.82066651999602
30
0
41
1
10
4.25042564978105
20
-2.71163018435647
30
0
41
1
10
4.25049797154668
20
-2.48632813745456
30
0
41
1
10
4.25056627901847
20
-2.25346801964153
30
0
41
1
10
4.25062829256925
20
-2.00582540761508
30
0
41
1
10
4.25068793405211
20
-1.75072822870249
30
0
41
1
10
4.25071666175918
20
-1.61899202309601
30
0
41
1
10
4.25079973508622
20
-1.21521497093153
30
0
41
1
10
4.25085000910977
20
-0.94005855365495
30
0
41
1
10
4.25092212025373
20
-0.518663909831048
30
0
41
1
10
4.2509455865511
20
-0.376744433582303
30
0
41
1
10
4.25099189698938
20
-0.0899084186909249
30
0
41
1
10
4.25101461034888
20
0.0542166170946814
30
0
41
1
10
4.25108095088791
20
0.481578017003557
30
0
41
1
10
4.2511233227039
20
0.762651226948009
30
0
41
1
10
4.25118517050367
20
1.1784596214107
30
0
41
1
10
4.2512055604515
20
1.31665146521715
30
0
41
1
10
4.25124487290151
20
1.58576978681893
30
0
41
1
10
4.25128287498654
20
1.84866698375433
30
0
41
1
10
4.25131783990383
20
2.09926046462391
30
0
41
1
10
4.25135087120219
20
2.34357752686728
30
0
41
1
10
4.25136632078909
20
2.46192318530444
30
0
41
1
10
4.25140810245966
20
2.80061304865859
30
0
41
1
10
4.25143026469186
20
3.0069222437761
30
0
41
1
10
4.25144398179478
20
3.19357073151798
30
0
0
SPLINE
5
D9
100
AcDbEntity
8
1
62
256
6
ByLayer
370
18
48
1
60
0
100
AcDbSpline
70
4
71
3
72
8
73
4
40
0
40
0
40
0
40
0
40
1
40
1
40
1
40
1
41
1
10
4.01218965821096
20
-2.99785024956461
30
0
41
1
10
4.00715559316166
20
-2.98644407054823
30
0
41
1
10
4.00452976298445
20
-2.97461078366777
30
0
41
1
10
4.00453069116918
20
-2.96249835457056
30
0
0
SPLINE
5
DA
100
AcDbEntity
8
1
62
256
6
ByLayer
370
18
48
1
60
0
100
AcDbSpline
70
4
71
3
72
78
73
74
40
0
40
0
40
0
40
0
40
0.0368252499136699
40
0.0368252499136699
40
0.114612476906734
40
0.114612476906734
40
0.153506090403267
40
0.153506090403267
40
0.192399703899799
40
0.192399703899799
40
0.270186930892863
40
0.270186930892863
40
0.309080544389395
40
0.309080544389395
40
0.347974157885927
40
0.347974157885927
40
0.425761384878992
40
0.425761384878992
40
0.464654998375524
40
0.464654998375524
40
0.48410180512379
40
0.48410180512379
40
0.488963506810856
40
0.491394357654389
40
0.491394357654389
40
0.49154628583211
40
0.49154628583211
40
0.491698214009831
40
0.491698214009831
40
0.492002070365273
40
0.492002070365273
40
0.492609783076156
40
0.492609783076156
40
0.493825208497923
40
0.493825208497923
40
0.503548611872056
40
0.503548611872056
40
0.522995418620323
40
0.522995418620323
40
0.542442225368589
40
0.542442225368589
40
0.581335838865122
40
0.581335838865122
40
0.659123065858188
40
0.659123065858188
40
0.736910292851254
40
0.736910292851254
40
0.756357099599521
40
0.756357099599521
40
0.766080502973654
40
0.766080502973654
40
0.770942204660721
40
0.770942204660721
40
0.773373055504254
40
0.773373055504254
40
0.774588480926021
40
0.774588480926021
40
0.775196193636904
40
0.775196193636904
40
0.775348121814625
40
0.775348121814625
40
0.775500049992346
40
0.775500049992346
40
0.775803906347787
40
0.814697519844317
40
0.814697519844317
40
0.853591133340847
40
0.853591133340847
40
0.892484746837376
40
0.892484746837376
40
0.970271973830436
40
0.970271973830436
40
1
40
1
40
1
40
1
41
1
10
14.4954628391749
20
3.64364793362981
30
0
41
1
10
14.3565889911139
20
3.64448157911053
30
0
41
1
10
14.2177952979999
20
3.64123956774751
30
0
41
1
10
13.785775735609
20
3.6168799534799
30
0
41
1
10
13.4925283759636
20
3.5797943061049
30
0
41
1
10
13.0494731684719
20
3.48706904102986
30
0
41
1
10
12.9018661343462
20
3.45007761104239
30
0
41
1
10
12.6097336014207
20
3.36496106177108
30
0
41
1
10
12.4646862824727
20
3.31673472409486
30
0
41
1
10
12.0314351787328
20
3.15608143967847
30
0
41
1
10
11.7451506062363
20
3.02758134742555
30
0
41
1
10
11.3140260669787
20
2.80927966808133
30
0
41
1
10
11.1700262683706
20
2.73228191431002
30
0
41
1
10
10.8804537252399
20
2.57116149079695
30
0
41
1
10
10.7363917303369
20
2.48788681426976
30
0
41
1
10
10.3065139921062
20
2.23347645004355
30
0
41
1
10
10.022224790524
20
2.0574087256399
30
0
41
1
10
9.59381130488197
20
1.79256494833143
30
0
41
1
10
9.45068813661061
20
1.70414141713317
30
0
41
1
10
9.23491411729526
20
1.57229837140216
30
0
41
1
10
9.162761272892
20
1.52845401480914
30
0
41
1
10
9.07241322912319
20
1.47399544037666
30
0
41
1
10
9.0453071311176
20
1.45768991964348
30
0
41
1
10
9.01819889596521
20
1.4414364114356
30
0
41
1
10
9.00859780513071
20
1.43568631358778
30
0
41
1
10
9.00786025198931
20
1.43545133546348
30
0
41
1
10
9.00733373764118
20
1.43433612380073
30
0
41
1
10
9.0076399442533
20
1.43371850283069
30
0
41
1
10
9.00853842567943
20
1.43220425347837
30
0
41
1
10
9.00938886377676
20
1.43134206472925
30
0
41
1
10
9.011959428518
20
1.42886100463812
30
0
41
1
10
9.01383909758863
20
1.42736524263256
30
0
41
1
10
9.01958400363765
20
1.42297911955254
30
0
41
1
10
9.02357737856215
20
1.42024568870278
30
0
41
1
10
9.05986977410231
20
1.396124575367
30
0
41
1
10
9.09415715978696
20
1.37725626616407
30
0
41
1
10
9.19635998064635
20
1.32013782235001
30
0
41
1
10
9.26535774329463
20
1.28335211414415
30
0
41
1
10
9.40361796551994
20
1.21039842039994
30
0
41
1
10
9.47298033165359
20
1.1743504830134
30
0
41
1
10
9.68140767817849
20
1.0669599094586
30
0
41
1
10
9.82082010137884
20
0.996373835298044
30
0
41
1
10
10.2396066398134
20
0.786522671518952
30
0
41
1
10
10.5192026705933
20
0.648859903514733
30
0
41
1
10
11.0785002444679
20
0.377328178827014
30
0
41
1
10
11.3579589201127
20
0.242859491743331
30
0
41
1
10
11.704753890971
20
0.0751522781515916
30
0
41
1
10
11.7739847856734
20
0.0416270148008948
30
0
41
1
10
11.8772062929303
20
-0.0088498799717058
30
0
41
1
10
11.9115236281834
20
-0.0257027064695592
30
0
41
1
10
11.9625336615296
20
-0.0511754498497226
30
0
41
1
10
11.9794724984451
20
-0.059695333350021
30
0
41
1
10
12.0045118265539
20
-0.0726315391341927
30
0
41
1
10
12.0128114080762
20
-0.0769667057813024
30
0
41
1
10
12.0249350484236
20
-0.0835942891174852
30
0
41
1
10
12.0289457770263
20
-0.0858199001718845
30
0
41
1
10
12.0345941364377
20
-0.0892710671040788
30
0
41
1
10
12.0365643796208
20
-0.0904341970489213
30
0
41
1
10
12.0381775290297
20
-0.0919915481381679
30
0
41
1
10
12.0385242374769
20
-0.092361916466615
30
0
41
1
10
12.0380238739937
20
-0.0927740179012915
30
0
41
1
10
12.0373602751063
20
-0.0927522172794113
30
0
41
1
10
12.0358735075168
20
-0.0929535629932445
30
0
41
1
10
11.908012641848
20
-0.110212672005673
30
0
41
1
10
11.7801103222857
20
-0.120135790196969
30
0
41
1
10
11.5268240798027
20
-0.124965134392482
30
0
41
1
10
11.4004007099139
20
-0.119985014185119
30
0
41
1
10
11.1464361378656
20
-0.0950873762060951
30
0
41
1
10
11.018368486533
20
-0.07503610231322
30
0
41
1
10
10.6343250260021
20
0.0068383910382295
30
0
41
1
10
10.3787567192195
20
0.0900997385631399
30
0
41
1
10
10.0160107193559
20
0.239776195388686
30
0
41
1
10
9.91469859726766
20
0.284809146064873
30
0
41
1
10
9.81196458986207
20
0.33322367862047
30
0
0
SPLINE
5
DB
100
AcDbEntity
8
1
62
256
6
ByLayer
370
18
48
1
60
0
100
AcDbSpline
70
4
71
3
72
32
73
28
40
0
40
0
40
0
40
0
40
0.249999999999991
40
0.249999999999991
40
0.374999999999987
40
0.374999999999987
40
0.499999999999983
40
0.499999999999983
40
0.624999999999978
40
0.624999999999978
40
0.687499999999979
40
0.687499999999979
40
0.718749999999983
40
0.718749999999983
40
0.749999999999986
40
0.749999999999986
40
0.812499999999993
40
0.812499999999993
40
0.843749999999994
40
0.843749999999994
40
0.874999999999995
40
0.874999999999995
40
0.906249999999997
40
0.906249999999997
40
0.937499999999998
40
0.937499999999998
40
1
40
1
40
1
40
1
41
1
10
57.9243251964688
20
1.32684667165879
30
0
41
1
10
58.2376383700985
20
1.10864871778225
30
0
41
1
10
58.5541393490495
20
0.912823498055673
30
0
41
1
10
59.0356297988322
20
0.666381354092323
30
0
41
1
10
59.1972446400104
20
0.592080520557971
30
0
41
1
10
59.5231031925151
20
0.461928854983341
30
0
41
1
10
59.684885306397
20
0.407150596314295
30
0
41
1
10
60.0052538122072
20
0.320622771575415
30
0
41
1
10
60.1640579479827
20
0.288848954172408
30
0
41
1
10
60.3992879373078
20
0.261225327065262
30
0
41
1
10
60.4767555886762
20
0.255428961701142
30
0
41
1
10
60.5914775811093
20
0.252090495221125
30
0
41
1
10
60.6294812546083
20
0.251871582104542
30
0
41
1
10
60.7049328269841
20
0.253283512885815
30
0
41
1
10
60.7419749523137
20
0.255830954156835
30
0
41
1
10
60.8494765643232
20
0.272273101620186
30
0
41
1
10
60.9172744221263
20
0.293738931187136
30
0
41
1
10
61.0034441969649
20
0.349062182287696
30
0
41
1
10
61.0298679085598
20
0.371891856753194
30
0
41
1
10
61.0748430415638
20
0.427091456252015
30
0
41
1
10
61.0932548342327
20
0.458618524217087
30
0
41
1
10
61.1220132497847
20
0.529443965978004
30
0
41
1
10
61.1322031962595
20
0.568946815190259
30
0
41
1
10
61.1436258388112
20
0.651917038880498
30
0
41
1
10
61.1450600321417
20
0.6961050714294
30
0
41
1
10
61.1375482744324
20
0.833398719785578
30
0
41
1
10
61.117449674538
20
0.928268374448976
30
0
41
1
10
61.0874302189092
20
1.02448279646802
30
0
0
SPLINE
5
DC
100
AcDbEntity
8
1
62
256
6
ByLayer
370
18
48
1
60
0
100
AcDbSpline
70
4
71
3
72
16
73
12
40
0
40
0
40
0
40
0
40
0.249999999999986
40
0.249999999999986
40
0.499999999999972
40
0.499999999999972
40
0.624999999999979
40
0.624999999999979
40
0.749999999999986
40
0.749999999999986
40
1
40
1
40
1
40
1
41
1
10
61.0874302189092
20
1.02448279646802
30
0
41
1
10
61.0781747478165
20
1.05414721852529
30
0
41
1
10
61.0719535551867
20
1.08454722648324
30
0
41
1
10
61.0672911301341
20
1.14722025714298
30
0
41
1
10
61.0684552364901
20
1.17985264907566
30
0
41
1
10
61.0815916800337
20
1.22650922033122
30
0
41
1
10
61.0878578342326
20
1.24124405500194
30
0
41
1
10
61.1048319959132
20
1.26879506042369
30
0
41
1
10
61.1155073076623
20
1.28135134092145
30
0
41
1
10
61.1520824264584
20
1.31316728368259
30
0
41
1
10
61.182844494561
20
1.32681743883685
30
0
41
1
10
61.214554281486
20
1.33407961453335
30
0
0
SPLINE
5
DD
100
AcDbEntity
8
1
62
256
6
ByLayer
370
18
48
1
60
0
100
AcDbSpline
70
4
71
3
72
8
73
4
40
0
40
0
40
0
40
0
40
1
40
1
40
1
40
1
41
1
10
61.4574802082995
20
-4.41326835959669
30
0
41
1
10
61.470630072065
20
-4.37802326593985
30
0
41
1
10
61.4837668970345
20
-4.34275794270297
30
0
41
1
10
61.4968897516018
20
-4.30747491198568
30
0
0
SPLINE
5
DE
100
AcDbEntity
8
1
62
256
6
ByLayer
370
18
48
1
60
0
100
AcDbSpline
70
4
71
3
72
24
73
20
40
0
40
0
40
0
40
0
40
0.124999999999991
40
0.124999999999991
40
0.187499999999989
40
0.187499999999989
40
0.249999999999986
40
0.249999999999986
40
0.374999999999986
40
0.374999999999986
40
0.499999999999985
40
0.499999999999985
40
0.562499999999985
40
0.562499999999985
40
0.624999999999984
40
0.624999999999984
40
0.74999999999999
40
0.74999999999999
40
1
40
1
40
1
40
1
41
1
10
57.9243251964685
20
1.32684667165842
30
0
41
1
10
57.980591575873
20
1.14349332954055
30
0
41
1
10
58.0504618447903
20
0.962118513567361
30
0
41
1
10
58.172739013943
20
0.692597352980499
30
0
41
1
10
58.216434967797
20
0.603184103402782
30
0
41
1
10
58.3093912282089
20
0.425166874073682
30
0
41
1
10
58.358741325111
20
0.336458169288534
30
0
41
1
10
58.5118940465951
20
0.0760936027705839
30
0
41
1
10
58.6215737590002
20
-0.0914971444277057
30
0
41
1
10
58.8532997059732
20
-0.41691056973886
30
0
41
1
10
58.9753772959968
20
-0.574708480802855
30
0
41
1
10
59.1666189924709
20
-0.80498732603192
30
0
41
1
10
59.2319029016337
20
-0.880865296585597
30
0
41
1
10
59.3639516040387
20
-1.02935858646015
30
0
41
1
10
59.4307366697326
20
-1.10201586084972
30
0
41
1
10
59.6331847903314
20
-1.31561491205812
30
0
41
1
10
59.7709320717125
20
-1.45220208775697
30
0
41
1
10
60.1914319742574
20
-1.84679926030381
30
0
41
1
10
60.4813493114821
20
-2.0898399239519
30
0
41
1
10
60.7793932002009
20
-2.31590167928803
30
0
0
SPLINE
5
DF
100
AcDbEntity
8
1
62
256
6
ByLayer
370
18
48
1
60
0
100
AcDbSpline
70
4
71
3
72
18
73
14
40
0
40
0
40
0
40
0
40
0.249999999999997
40
0.249999999999997
40
0.374999999999998
40
0.374999999999998
40
0.5
40
0.5
40
0.750000000000003
40
0.750000000000003
40
0.875000000000002
40
0.875000000000002
40
1
40
1
40
1
40
1
41
1
10
62.3575947461878
20
2.17035864440689
30
0
41
1
10
62.289804287348
20
2.35259206112198
30
0
41
1
10
62.2219504153325
20
2.53472581168037
30
0
41
1
10
62.1198250708487
20
2.80738493136281
30
0
41
1
10
62.0857270366497
20
2.89818289250857
30
0
41
1
10
62.0173592327559
20
3.07950889901895
30
0
41
1
10
61.9830611172914
20
3.17000228332023
30
0
41
1
10
61.8801712532097
20
3.44125592970542
30
0
41
1
10
61.8115493589926
20
3.62193057216408
30
0
41
1
10
61.7082120984554
20
3.8906682828536
30
0
41
1
10
61.6736605022535
20
3.97965231297746
30
0
41
1
10
61.6045225068603
20
4.15742465847916
30
0
41
1
10
61.5699220480371
20
4.24613390946266
30
0
41
1
10
61.5352212995286
20
4.3342791810141
30
0
0
SPLINE
5
E0
100
AcDbEntity
8
1
62
256
6
ByLayer
370
18
48
1
60
0
100
AcDbSpline
70
4
71
3
72
38
73
34
40
0
40
0
40
0
40
0
40
0.0063768080235891
40
0.0063768080235891
40
0.317442965992491
40
0.317442965992491
40
0.472976044976942
40
0.472976044976942
40
0.628509123961393
40
0.628509123961393
40
0.706275663453618
40
0.706275663453618
40
0.74515893319973
40
0.74515893319973
40
0.754879750636257
40
0.754879750636257
40
0.764600568072784
40
0.764600568072784
40
0.774321385509311
40
0.774321385509311
40
0.784042202945838
40
0.784042202945838
40
0.861808742438073
40
0.861808742438073
40
0.900692012184192
40
0.900692012184192
40
0.939575281930311
40
0.939575281930311
40
0.97845855167643
40
0.97845855167643
40
0.99790018654949
40
0.99790018654949
40
1
40
1
40
1
40
1
41
1
10
8.5702051288597
20
-4.4181224200731
30
0
41
1
10
8.55609166396613
20
-4.41808286522252
30
0
41
1
10
8.54197317813663
20
-4.41803585781352
30
0
41
1
10
7.83889129023964
20
-4.41533055696715
30
0
41
1
10
7.13791027641366
20
-4.3954972525965
30
0
41
1
10
6.06499768745536
20
-4.36164467412758
30
0
41
1
10
5.70349623786078
20
-4.34965823931663
30
0
41
1
10
4.97821675477414
20
-4.32755694280129
30
0
41
1
10
4.61365129537808
20
-4.31742488527408
30
0
41
1
10
4.06524919747801
20
-4.30537612992799
30
0
41
1
10
3.88212057091189
20
-4.30187627429973
30
0
41
1
10
3.60715056497091
20
-4.29755809511585
30
0
41
1
10
3.51544793496308
20
-4.29627345920687
30
0
41
1
10
3.40076146916826
20
-4.29487350392012
30
0
41
1
10
3.37778989467506
20
-4.29455700127093
30
0
41
1
10
3.33246715350148
20
-4.2955878531489
30
0
41
1
10
3.30955103793565
20
-4.29675742727602
30
0
41
1
10
3.26944197323934
20
-4.3012879266856
30
0
41
1
10
3.24990994200635
20
-4.30375014010949
30
0
41
1
10
3.21054974354112
20
-4.30846410448561
30
0
41
1
10
3.19094100721495
20
-4.31081379846796
30
0
41
1
10
3.01513368859361
20
-4.33188000099469
30
0
41
1
10
2.86487976066803
20
-4.34992967364499
30
0
41
1
10
2.65348301808171
20
-4.37391838115832
30
0
41
1
10
2.58533202937164
20
-4.38139448888583
30
0
41
1
10
2.45493743043409
20
-4.39471455918405
30
0
41
1
10
2.39232550190445
20
-4.40058709111989
30
0
41
1
10
2.27794106504351
20
-4.40954239191112
30
0
41
1
10
2.22590145673632
20
-4.41266485965014
30
0
41
1
10
2.15760532370891
20
-4.41444004928582
30
0
41
1
10
2.13637790983188
20
-4.41453751485068
30
0
41
1
10
2.11532840185518
20
-4.41400637294473
30
0
41
1
10
2.11330182839458
20
-4.41394795517144
30
0
41
1
10
2.11130065843011
20
-4.41388282471524
30
0
0
SPLINE
5
E1
100
AcDbEntity
8
1
62
256
6
ByLayer
370
18
48
1
60
0
100
AcDbSpline
70
4
71
3
72
30
73
26
40
0
40
0
40
0
40
0
40
0.0625
40
0.0625
40
0.125
40
0.125
40
0.25
40
0.25
40
0.375
40
0.375
40
0.4375
40
0.4375
40
0.5
40
0.5
40
0.625
40
0.625
40
0.6875
40
0.6875
40
0.75
40
0.75
40
0.875
40
0.875
40
0.9375
40
0.9375
40
1
40
1
40
1
40
1
41
1
10
4.00453069116915
20
-2.96249835457087
30
0
41
1
10
4.00453912961029
20
-2.85238002167563
30
0
41
1
10
4.00454719409805
20
-2.73685087640302
30
0
41
1
10
4.00456249113503
20
-2.49846950268659
30
0
41
1
10
4.00456972526911
20
-2.37570137800918
30
0
41
1
10
4.00459044555015
20
-1.99694145468806
30
0
41
1
10
4.00460295438029
20
-1.73059992027928
30
0
41
1
10
4.00462655954758
20
-1.16917181101334
30
0
41
1
10
4.00463730614368
20
-0.882600223638178
30
0
41
1
10
4.00465265336973
20
-0.44655916159698
30
0
41
1
10
4.00465764131806
20
-0.300047342157313
30
0
41
1
10
4.00466746996582
20
-0.0046402948570972
30
0
41
1
10
4.00467232280261
20
0.144660014791811
30
0
41
1
10
4.00468647006142
20
0.586269679068721
30
0
41
1
10
4.00469547908722
20
0.875490491810211
30
0
41
1
10
4.00470861143722
20
1.30159450355921
30
0
41
1
10
4.00471294127271
20
1.44300689560504
30
0
41
1
10
4.00472135028159
20
1.71982382312561
30
0
41
1
10
4.00472540842935
20
1.85452891390844
30
0
41
1
10
4.00473709434957
20
2.24785754113293
30
0
41
1
10
4.00474425567634
20
2.49580200753527
30
0
41
1
10
4.00475348183096
20
2.845625234484
30
0
41
1
10
4.00475627335899
20
2.9576390303292
30
0
41
1
10
4.00476109635269
20
3.16957659915275
30
0
41
1
10
4.00476314139513
20
3.27000473233508
30
0
41
1
10
4.00476475076391
20
3.3649500280971
30
0
0
SPLINE
5
E2
100
AcDbEntity
8
1
62
256
6
ByLayer
370
18
48
1
60
0
100
AcDbSpline
70
4
71
3
72
86
73
82
40
0
40
0
40
0
40
0
40
0.0186238904569084
40
0.0186238904569084
40
0.0422578372473166
40
0.0422578372473166
40
0.0658917840377248
40
0.0658917840377248
40
0.0895257308281332
40
0.0895257308281332
40
0.113159677618541
40
0.113159677618541
40
0.13679362440895
40
0.13679362440895
40
0.160427571199358
40
0.160427571199358
40
0.184061517989766
40
0.184061517989766
40
0.207695464780175
40
0.207695464780175
40
0.254963358360991
40
0.254963358360991
40
0.266780331756195
40
0.266780331756195
40
0.278597305151399
40
0.278597305151399
40
0.302231251941807
40
0.302231251941807
40
0.325865198732214
40
0.325865198732214
40
0.349499145522622
40
0.349499145522622
40
0.37313309231303
40
0.37313309231303
40
0.396767039103438
40
0.396767039103438
40
0.420400985893846
40
0.420400985893846
40
0.43221795928905
40
0.43221795928905
40
0.444034932684254
40
0.444034932684254
40
0.491302826265072
40
0.491302826265072
40
0.51493677305548
40
0.51493677305548
40
0.538570719845888
40
0.538570719845888
40
0.562204666636297
40
0.562204666636297
40
0.585838613426705
40
0.585838613426705
40
0.609472560217113
40
0.609472560217113
40
0.633106507007522
40
0.633106507007522
40
0.65674045379793
40
0.65674045379793
40
0.680374400588338
40
0.680374400588338
40
0.727642294169155
40
0.727642294169155
40
0.751276240959563
40
0.751276240959563
40
0.774910187749971
40
0.774910187749971
40
0.798544134540379
40
0.798544134540379
40
0.822178081330788
40
0.822178081330788
40
0.845812028121196
40
0.845812028121196
40
0.869445974911604
40
0.869445974911604
40
0.916713868492422
40
0.916713868492422
40
0.963981762073239
40
0.963981762073239
40
0.987615708863648
40
0.987615708863648
40
1
40
1
40
1
40
1
41
1
10
28.620005356814
20
3.19593364680483
30
0
41
1
10
28.8123508396476
20
3.26988101026589
30
0
41
1
10
29.0046551927928
20
3.34117522774147
30
0
41
1
10
29.4406466989171
20
3.49722807207343
30
0
41
1
10
29.6848117152346
20
3.57968565785541
30
0
41
1
10
30.1750952546175
20
3.73359621908028
30
0
41
1
10
30.4209287238291
20
3.80538565307865
30
0
41
1
10
30.9135948423932
20
3.93883665992522
30
0
41
1
10
31.1606871510001
20
4.00089104734067
30
0
41
1
10
31.6536517820722
20
4.11204821735879
30
0
41
1
10
31.8997692946573
20
4.16123875064872
30
0
41
1
10
32.3906992851264
20
4.24767829310392
30
0
41
1
10
32.6355465908957
20
4.28490050654969
30
0
41
1
10
33.1235412977331
20
4.34744452114785
30
0
41
1
10
33.3671418535277
20
4.37251712123154
30
0
41
1
10
33.8551770877775
20
4.41001711863959
30
0
41
1
10
34.0992892412229
20
4.42258199447269
30
0
41
1
10
34.5872913184513
20
4.43537311464317
30
0
41
1
10
34.8308451396902
20
4.43555589192258
30
0
41
1
10
35.5634077328451
20
4.41708496962505
30
0
41
1
10
36.0552360174729
20
4.38013351393047
30
0
41
1
10
36.671949733669
20
4.30148123404842
30
0
41
1
10
36.7954095616691
20
4.28406997178561
30
0
41
1
10
37.0418781961349
20
4.24638888063169
30
0
41
1
10
37.1650430793422
20
4.22611278688404
30
0
41
1
10
37.5341377030054
20
4.16097492586147
30
0
41
1
10
37.7796896677098
20
4.11182880847244
30
0
41
1
10
38.2693748910108
20
4.00196980954863
30
0
41
1
10
38.5132009033348
20
3.94097120117661
30
0
41
1
10
39.0006636637474
20
3.80827779244351
30
0
41
1
10
39.2447156715055
20
3.7370152495472
30
0
41
1
10
39.7327539439682
20
3.58421900971507
30
0
41
1
10
39.9767826207809
20
3.50272296061573
30
0
41
1
10
40.4644221783715
20
3.3288304010286
30
0
41
1
10
40.7081603102306
20
3.23651556566602
30
0
41
1
10
41.1979020649919
20
3.04421146757889
30
0
41
1
10
41.443498822845
20
2.94375462974861
30
0
41
1
10
41.8126835121288
20
2.78608490505286
30
0
41
1
10
41.9358793224496
20
2.73236424376097
30
0
41
1
10
42.1824833004551
20
2.62244594295729
30
0
41
1
10
42.3059624837603
20
2.56611146228011
30
0
41
1
10
42.9221255323157
20
2.28131539852194
30
0
41
1
10
43.4136907582251
20
2.0440026474964
30
0
41
1
10
44.146100023087
20
1.66945466117269
30
0
41
1
10
44.3894511630528
20
1.54152476478581
30
0
41
1
10
44.8772458525257
20
1.28412416449066
30
0
41
1
10
45.1212733701859
20
1.15395449109678
30
0
41
1
10
45.6091685828058
20
0.889946519631621
30
0
41
1
10
45.8528319822528
20
0.755733313615139
30
0
41
1
10
46.3405993052854
20
0.484616288591155
30
0
41
1
10
46.5853957530599
20
0.348991006353799
30
0
41
1
10
47.0762553093606
20
0.0766151698861393
30
0
41
1
10
47.3223240857784
20
-0.0601254285687105
30
0
41
1
10
47.8153615391798
20
-0.335547963864769
30
0
41
1
10
48.0621406412977
20
-0.47436248162424
30
0
41
1
10
48.554309301311
20
-0.746108667514306
30
0
41
1
10
48.7999176641489
20
-0.880186870710759
30
0
41
1
10
49.2897808810761
20
-1.14559961323684
30
0
41
1
10
49.533867593423
20
-1.27722515100598
30
0
41
1
10
50.2646664646471
20
-1.66684660692147
30
0
41
1
10
50.7529532623875
20
-1.91447786265181
30
0
41
1
10
51.4843673476271
20
-2.27237603515647
30
0
41
1
10
51.7278051302595
20
-2.38966265378747
30
0
41
1
10
52.2169939307018
20
-2.6154049818486
30
0
41
1
10
52.4623606526347
20
-2.72449155756274
30
0
41
1
10
52.9542067970299
20
-2.93570213426153
30
0
41
1
10
53.2009785541655
20
-3.03814310771131
30
0
41
1
10
53.6940046833869
20
-3.23479765031797
30
0
41
1
10
53.9400757497671
20
-3.32757676713169
30
0
41
1
10
54.4312291082193
20
-3.5026998061154
30
0
41
1
10
54.676246758198
20
-3.5851265173998
30
0
41
1
10
55.1647614668643
20
-3.74017591418709
30
0
41
1
10
55.4079910351257
20
-3.81298875000854
30
0
41
1
10
56.1392475613642
20
-4.01292936676634
30
0
41
1
10
56.6272846316229
20
-4.12352730134302
30
0
41
1
10
57.6020476260497
20
-4.30016187389543
30
0
41
1
10
58.0926532508138
20
-4.3639064298136
30
0
41
1
10
58.8317352330181
20
-4.4229331923822
30
0
41
1
10
59.078503648177
20
-4.4364284341996
30
0
41
1
10
59.4539781789572
20
-4.44694361355863
30
0
41
1
10
59.5830379832862
20
-4.44879842081252
30
0
41
1
10
59.712021184449
20
-4.44891079780641
30
0
0
SPLINE
5
E3
100
AcDbEntity
8
SK1
62
256
6
ByLayer
370
18
48
1
60
0
100
AcDbSpline
70
4
71
3
72
10
73
6
40
0
40
0
40
0
40
0
40
0.5
40
0.5
40
1
40
1
40
1
40
1
41
1
10
-39.9999999999999
20
-2.93138539848471
30
0
41
1
10
-39.8301257758578
20
-3.19020861896084
30
0
41
1
10
-39.6563253118241
20
-3.44745352007379
30
0
41
1
10
-39.3053898261476
20
-3.96060285483264
30
0
41
1
10
-39.1281394681189
20
-4.21647553398668
30
0
41
1
10
-38.95
20
-4.47195469065008
30
0
0
SPLINE
5
E4
100
AcDbEntity
8
SK1
62
256
6
ByLayer
370
18
48
1
60
0
100
AcDbSpline
70
4
71
3
72
14
73
10
40
0
40
0
40
0
40
0
40
0.499999999999999
40
0.499999999999999
40
0.749999999999998
40
0.749999999999998
40
0.874999999999999
40
0.874999999999999
40
1
40
1
40
1
40
1
41
1
10
-38.9500000000001
20
-4.47195469065016
30
0
41
1
10
-38.9287234691649
20
-4.50246847971607
30
0
41
1
10
-38.9083432483059
20
-4.52933514092845
30
0
41
1
10
-38.880223151313
20
-4.56115691475966
30
0
41
1
10
-38.8713218079587
20
-4.57023385889445
30
0
41
1
10
-38.8602667834558
20
-4.57852251006133
30
0
41
1
10
-38.8569157654531
20
-4.58043450661742
30
0
41
1
10
-38.851744720606
20
-4.58090995271473
30
0
41
1
10
-38.8499999999999
20
-4.57937559625341
30
0
41
1
10
-38.8499999999999
20
-4.57495113076931
30
0
0
SPLINE
5
E5
100
AcDbEntity
8
SK1
62
256
6
ByLayer
370
18
48
1
60
0
100
AcDbSpline
70
4
71
3
72
14
73
10
40
0
40
0
40
0
40
0
40
0.125000000000003
40
0.125000000000003
40
0.250000000000005
40
0.250000000000005
40
0.500000000000005
40
0.500000000000005
40
1
40
1
40
1
40
1
41
1
10
-38.85
20
-3.19392027561525
30
0
41
1
10
-38.85
20
-3.18544127474408
30
0
41
1
10
-38.8517453396944
20
-3.17513574003735
30
0
41
1
10
-38.8568901241517
20
-3.15433583171935
30
0
41
1
10
-38.860211966304
20
-3.14393339473531
30
0
41
1
10
-38.8714485682308
20
-3.11272189013099
30
0
41
1
10
-38.8802054040538
20
-3.0929923328413
30
0
41
1
10
-38.9082792076556
20
-3.03565583135188
30
0
41
1
10
-38.9286347141249
20
-3.00147527324251
30
0
41
1
10
-38.95
20
-2.97083419591758
30
0
0
SPLINE
5
E6
100
AcDbEntity
8
SK1
62
256
6
ByLayer
370
18
48
1
60
0
100
AcDbSpline
70
4
71
3
72
10
73
6
40
0
40
0
40
0
40
0
40
0.5
40
0.5
40
1
40
1
40
1
40
1
41
1
10
-38.95
20
-2.97083419591758
30
0
41
1
10
-39.1281002653425
20
-2.71541126201242
30
0
41
1
10
-39.3053068773952
20
-2.459602471615
30
0
41
1
10
-39.6562276857791
20
-1.9464769555895
30
0
41
1
10
-39.8300482945171
20
-1.68920617610013
30
0
41
1
10
-40
20
-1.430264903752
30
0
0
LINE
5
76
100
AcDbEntity
8
81
62
256
6
ByLayer
370
18
48
1
60
0
100
AcDbLine
10
63
20
0
30
0
11
68
21
0
31
0
39
0
210
0
220
0
230
1
0
LINE
5
77
100
AcDbEntity
8
1
62
256
6
ByLayer
370
18
48
1
60
0
100
AcDbLine
10
2.142859
20
4.414365
30
0
11
1.238287
21
4.413822
31
0
39
0
210
0
220
0
230
1
0
LINE
5
79
100
AcDbEntity
8
1
62
256
6
ByLayer
370
18
48
1
60
0
100
AcDbLine
10
60.435068
20
4.44934
30
0
11
59.717789
21
4.44891
31
0
39
0
210
0
220
0
230
1
0
LINE
5
7A
100
AcDbEntity
8
1
62
256
6
ByLayer
370
18
48
1
60
0
100
AcDbLine
10
59.717789
20
-4.44891
30
0
11
60.434875
21
-4.44934
31
0
39
0
210
0
220
0
230
1
0
LINE
5
7B
100
AcDbEntity
8
1
62
256
6
ByLayer
370
18
48
1
60
0
100
AcDbLine
10
1.238287
20
-4.413822
30
0
11
2.142859
21
-4.414365
31
0
39
0
210
0
220
0
230
1
0
LINE
5
7C
100
AcDbEntity
8
1
62
256
6
ByLayer
370
18
48
1
60
0
100
AcDbLine
10
10.434591
20
4.41934
30
0
11
8.603054
21
4.418241
31
0
39
0
210
0
220
0
230
1
0
LINE
5
7D
100
AcDbEntity
8
1
62
256
6
ByLayer
370
18
48
1
60
0
100
AcDbLine
10
35.434669
20
4.43434
30
0
11
34.707787
21
4.433904
31
0
39
0
210
0
220
0
230
1
0
LINE
5
7E
100
AcDbEntity
8
1
62
256
6
ByLayer
370
18
48
1
60
0
100
AcDbLine
10
34.707787
20
-4.433904
30
0
11
35.434566
21
-4.43434
31
0
39
0
210
0
220
0
230
1
0
LINE
5
7F
100
AcDbEntity
8
1
62
256
6
ByLayer
370
18
48
1
60
0
100
AcDbLine
10
8.603054
20
-4.418241
30
0
11
10.434645
21
-4.41934
31
0
39
0
210
0
220
0
230
1
0
LINE
5
80
100
AcDbEntity
8
SK1
62
256
6
ByLayer
370
18
48
1
60
0
100
AcDbLine
10
-38.845299
20
5
30
0
11
-40
21
3
31
0
39
0
210
0
220
0
230
1
0
LINE
5
82
100
AcDbEntity
8
SK1
62
256
6
ByLayer
370
18
48
1
60
0
100
AcDbLine
10
-40
20
-3
30
0
11
-38.845299
21
-5
31
0
39
0
210
0
220
0
230
1
0
LINE
5
83
100
AcDbEntity
8
SK1
62
256
6
ByLayer
370
18
48
1
60
0
100
AcDbLine
10
0
20
5
30
0
11
-38.845299
21
5
31
0
39
0
210
0
220
0
230
1
0
LINE
5
84
100
AcDbEntity
8
SK1
62
256
6
ByLayer
370
18
48
1
60
0
100
AcDbLine
10
-38.845299
20
-5
30
0
11
0
21
-5
31
0
39
0
210
0
220
0
230
1
0
LINE
5
85
100
AcDbEntity
8
SK4
62
256
6
ByLayer
370
18
48
0.05
60
0
100
AcDbLine
10
68
20
0
30
0
11
-45
21
0
31
0
39
0
210
0
220
0
230
1
0
LINE
5
87
100
AcDbEntity
8
4
62
256
6
ByLayer
370
18
48
0.05
60
0
100
AcDbLine
10
63
20
0
30
0
11
0
21
0
31
0
39
0
210
0
220
0
230
1
0
LINE
5
89
100
AcDbEntity
8
80
62
256
6
ByLayer
370
18
48
1
60
0
100
AcDbLine
10
0
20
0
30
0
11
-5
21
0
31
0
39
0
210
0
220
0
230
1
0
LINE
5
8A
100
AcDbEntity
8
1
62
256
6
ByLayer
370
18
48
1
60
0
100
AcDbLine
10
62.915193
20
0.305006
30
0
11
62.779704
21
0.842403
31
0
39
0
210
0
220
0
230
1
0
LINE
5
8B
100
AcDbEntity
8
1
62
256
6
ByLayer
370
18
48
1
60
0
100
AcDbLine
10
0
20
-5
30
0
11
0
21
5
31
0
39
0
210
0
220
0
230
1
0
LINE
5
8C
100
AcDbEntity
8
1
62
256
6
ByLayer
370
13
48
1
60
0
100
AcDbLine
10
1.238287
20
4.413822
30
0
11
1.238287
21
-4.413822
31
0
39
0
210
0
220
0
230
1
0
LINE
5
8D
100
AcDbEntity
8
1
62
256
6
ByLayer
370
13
48
1
60
0
100
AcDbLine
10
0.618903
20
4.706911
30
0
11
0.618903
21
-4.706911
31
0
39
0
210
0
220
0
230
1
0
LINE
5
8E
100
AcDbEntity
8
1
62
256
6
ByLayer
370
18
48
1
60
0
100
AcDbLine
10
60.779393
20
-2.315902
30
0
11
62.89465
21
-0.130813
31
0
39
0
210
0
220
0
230
1
0
LINE
5
8F
100
AcDbEntity
8
1
62
256
6
ByLayer
370
18
48
1
60
0
100
AcDbLine
10
62.991266
20
0.043481
30
0
11
63
21
0
31
0
39
0
210
0
220
0
230
1
0
LINE
5
90
100
AcDbEntity
8
1
62
256
6
ByLayer
370
18
48
1
60
0
100
AcDbLine
10
63
20
0
30
0
11
61.454237
21
-4.246949
31
0
39
0
210
0
220
0
230
1
0
LINE
5
91
100
AcDbEntity
8
1
62
256
6
ByLayer
370
13
48
1
60
0
100
AcDbLine
10
62.009467
20
0.842403
30
0
11
62.915193
21
0.305006
31
0
39
0
210
0
220
0
230
1
0
LINE
5
92
100
AcDbEntity
8
1
62
256
6
ByLayer
370
13
48
1
60
0
100
AcDbLine
10
61.81956
20
0.507074
30
0
11
62.89465
21
-0.130813
31
0
39
0
210
0
220
0
230
1
0
LINE
5
93
100
AcDbEntity
8
1
62
256
6
ByLayer
370
18
48
1
60
0
100
AcDbLine
10
62.915193
20
-0.305006
30
0
11
62.779704
21
-0.842403
31
0
39
0
210
0
220
0
230
1
0
LINE
5
94
100
AcDbEntity
8
1
62
256
6
ByLayer
370
13
48
1
60
0
100
AcDbLine
10
62.779704
20
0.842403
30
0
11
62.009467
21
0.842403
31
0
39
0
210
0
220
0
230
1
0
LINE
5
95
100
AcDbEntity
8
1
62
256
6
ByLayer
370
18
48
1
60
0
100
AcDbLine
10
63
20
0
30
0
11
62.991266
21
-0.043481
31
0
39
0
210
0
220
0
230
1
0
LINE
5
96
100
AcDbEntity
8
SK1
62
256
6
ByLayer
370
18
48
1
60
0
100
AcDbLine
10
-38.85
20
-4.574951
30
0
11
-38.85
21
-3.19392
31
0
39
0
210
0
220
0
230
1
0
LINE
5
97
100
AcDbEntity
8
SK1
62
256
6
ByLayer
370
18
48
1
60
0
100
AcDbLine
10
-40
20
-3
30
0
11
-40
21
-2.931385
31
0
39
0
210
0
220
0
230
1
0
LINE
5
98
100
AcDbEntity
8
SK1
62
256
6
ByLayer
370
13
48
1
60
0
100
AcDbLine
10
-38.95
20
-2.970721
30
0
11
-38.95
21
-4.471955
31
0
39
0
210
0
220
0
230
1
0
LINE
5
99
100
AcDbEntity
8
SK1
62
256
6
ByLayer
370
18
48
1
60
0
100
AcDbLine
10
-40
20
3
30
0
11
-40
21
-1.430265
31
0
39
0
210
0
220
0
230
1
0
LINE
5
9A
100
AcDbEntity
8
SK1
62
256
6
ByLayer
370
18
48
1
60
0
100
AcDbLine
10
-40
20
-1.430228
30
0
11
-40
21
-2.931385
31
0
39
0
210
0
220
0
230
1
0
LINE
5
9B
100
AcDbEntity
8
SK1
62
256
6
ByLayer
370
18
48
1
60
0
100
AcDbLine
10
-38.845299
20
5
30
0
11
-38.845299
21
-5
31
0
39
0
210
0
220
0
230
1
0
LINE
5
9C
100
AcDbEntity
8
SK1
62
256
6
ByLayer
370
18
48
1
60
0
100
AcDbLine
10
0
20
-5
30
0
11
0
21
5
31
0
39
0
210
0
220
0
230
1
0
MTEXT
5
E7
100
AcDbEntity
8
SK6
62
256
6
ByLayer
370
13
48
1
60
0
100
AcDbMText
10
13.629169
20
36.832694
30
0
210
0
220
0
230
1
1
\W0.7542;R840-0890-50-A1A1220
40
3.5
41
0
44
1.084337
50
0
71
8
72
5
7
iso_b_vert
0
DIMENSION
5
F4
100
AcDbEntity
8
SK2
62
256
6
ByLayer
370
13
48
1
60
0
100
AcDbDimension
2
DimnDraft3D1
10
61.48
20
-14.663398
30
0
11
29.230059
21
-14.663398
31
0
70
32
71
5
72
1
41
1
210
0
220
0
230
1
3
Standard
100
AcDbAlignedDimension
13
0
23
-1.5875
33
0
14
61.48
24
-6.0375
34
0
50
0
100
AcDbRotatedDimension
1001
ACAD
1000
DSTYLE
1002
{
1070
   279
1070
     0
1070
   172
1070
     1
1070
   173
1070
     1
1070
   340
1005
E8
1070
   271
1070
     2
1070
   272
1070
     2
1070
    77
1070
     1
1070
    73
1070
     0
1070
   171
1070
     3
1070
   274
1070
     4
1070
   177
1070
    35
1070
   176
1070
    35
1070
   178
1070
    35
1070
    48
1040
-0.005
1070
    41
1041
3.5
1070
   147
1041
1.75
1070
    42
1041
1.5875
1070
    44
1041
2.0
1070
   140
1041
3.5
1070
   343
1005
0
1070
   344
1005
0
1002
}
0
DIMENSION
5
FE
100
AcDbEntity
8
SK2
62
256
6
ByLayer
370
13
48
1
60
0
100
AcDbDimension
2
DimnDraft3D2
10
63
20
-33.692985
30
0
11
11.3213
21
-33.692985
31
0
70
32
71
5
72
1
41
1
210
0
220
0
230
1
3
Standard
100
AcDbAlignedDimension
13
-40
23
-6.5875
33
0
14
63
24
-1.5875
34
0
50
0
100
AcDbRotatedDimension
1001
ACAD
1000
DSTYLE
1002
{
1070
   279
1070
     0
1070
   172
1070
     1
1070
   173
1070
     1
1070
   340
1005
E8
1070
   271
1070
     2
1070
   272
1070
     2
1070
    77
1070
     1
1070
    73
1070
     0
1070
   171
1070
     3
1070
   274
1070
     4
1070
   177
1070
    35
1070
   176
1070
    35
1070
   178
1070
    35
1070
    48
1040
-0.005
1070
    41
1041
3.5
1070
   147
1041
1.75
1070
    42
1041
1.5875
1070
    44
1041
2.0
1070
   140
1041
3.5
1070
   343
1005
0
1070
   344
1005
0
1002
}
0
DIMENSION
5
108
100
AcDbEntity
8
SK2
62
256
6
ByLayer
370
13
48
1
60
0
100
AcDbDimension
2
DimnDraft3D3
10
63
20
16.059119
30
0
11
39.99
21
16.059119
31
0
70
32
71
5
72
1
41
1
210
0
220
0
230
1
3
Standard
100
AcDbAlignedDimension
13
16.98
23
6.0375
33
0
14
63
24
1.5875
34
0
50
0
100
AcDbRotatedDimension
1001
ACAD
1000
DSTYLE
1002
{
1070
   279
1070
     0
1070
   172
1070
     1
1070
   173
1070
     1
1070
   340
1005
E8
1070
   271
1070
     2
1070
   272
1070
     2
1070
    77
1070
     1
1070
    73
1070
     0
1070
   171
1070
     3
1070
   274
1070
     4
1070
   177
1070
    35
1070
   176
1070
    35
1070
   178
1070
    35
1070
    48
1040
-0.005
1070
    41
1041
3.5
1070
   147
1041
1.75
1070
    42
1041
1.5875
1070
    44
1041
2.0
1070
   140
1041
3.5
1070
   343
1005
0
1070
   344
1005
0
1002
}
0
DIMENSION
5
112
100
AcDbEntity
8
SK2
62
256
6
ByLayer
370
13
48
1
60
0
100
AcDbDimension
2
DimnDraft3D4
10
61.48
20
-17.252503
30
0
11
72.981425
21
-17.252503
31
0
70
32
71
5
72
1
41
1
210
0
220
0
230
1
3
Standard
100
AcDbAlignedDimension
13
63
23
-1.5875
33
0
14
61.48
24
-6.0375
34
0
50
0
100
AcDbRotatedDimension
1001
ACAD
1000
DSTYLE
1002
{
1070
   279
1070
     0
1070
   172
1070
     1
1070
   173
1070
     1
1070
   340
1005
E8
1070
   271
1070
     2
1070
   272
1070
     2
1070
    77
1070
     1
1070
    73
1070
     0
1070
   171
1070
     3
1070
   274
1070
     4
1070
   177
1070
    35
1070
   176
1070
    35
1070
   178
1070
    35
1070
    48
1040
-0.005
1070
    41
1041
3.5
1070
   147
1041
1.75
1070
    42
1041
1.5875
1070
    44
1041
2.0
1070
   140
1041
3.5
1070
   343
1005
0
1070
   344
1005
0
1002
}
0
DIMENSION
5
11C
100
AcDbEntity
8
SK2
62
256
6
ByLayer
370
13
48
1
60
0
100
AcDbDimension
2
DimnDraft3D5
10
61.48
20
-23.343428
30
0
11
8.240676
21
-23.343428
31
0
70
32
71
5
72
1
41
1
210
0
220
0
230
1
3
Standard
100
AcDbAlignedDimension
13
-40
23
-6.5875
33
0
14
61.48
24
-6.0375
34
0
50
0
100
AcDbRotatedDimension
1001
ACAD
1000
DSTYLE
1002
{
1070
   279
1070
     0
1070
   172
1070
     1
1070
   173
1070
     1
1070
   340
1005
E8
1070
   271
1070
     2
1070
   272
1070
     2
1070
    77
1070
     1
1070
    73
1070
     0
1070
   171
1070
     3
1070
   274
1070
     4
1070
   177
1070
    35
1070
   176
1070
    35
1070
   178
1070
    35
1070
    48
1040
-0.005
1070
    41
1041
3.5
1070
   147
1041
1.75
1070
    42
1041
1.5875
1070
    44
1041
2.0
1070
   140
1041
3.5
1070
   343
1005
0
1070
   344
1005
0
1002
}
0
DIMENSION
5
127
100
AcDbEntity
8
SK2
62
256
6
ByLayer
370
13
48
1
60
0
100
AcDbDimension
2
DimnDraft3D6
10
-50.625163
20
5
30
0
11
-51.250163
21
23.47418
31
0
70
33
71
5
72
1
41
1
210
0
220
0
230
1
3
Standard
100
AcDbAlignedDimension
13
-41.5875
23
-5
33
0
14
-41.5875
24
5
34
0
1001
ACAD
1000
DSTYLE
1002
{
1070
   279
1070
     0
1070
    74
1070
     0
1070
   173
1070
     1
1070
   340
1005
E8
1070
   271
1070
     3
1070
   272
1070
     2
1070
    77
1070
     1
1070
    73
1070
     0
1070
   171
1070
     3
1070
   274
1070
     4
1070
   177
1070
    35
1070
   176
1070
    35
1070
   178
1070
    35
1070
    48
1040
-0.005
1070
    41
1041
3.5
1070
   147
1041
1.75
1070
    42
1041
1.5875
1070
    44
1041
2.0
1070
   140
1041
3.5
1070
   343
1005
0
1070
   344
1005
0
1002
}
0
DIMENSION
5
132
100
AcDbEntity
8
2
62
256
6
ByLayer
370
13
48
1
60
0
100
AcDbDimension
2
DimnDraft3D7
10
77.083343
20
4.45
30
0
11
72.458343
21
21.517266
31
0
70
33
71
5
72
1
41
1
210
0
220
0
230
1
3
Standard
100
AcDbAlignedDimension
13
63.0675
23
-4.45
33
0
14
63.0675
24
4.45
34
0
1001
ACAD
1000
DSTYLE
1002
{
1070
   279
1070
     0
1070
    74
1070
     0
1070
   173
1070
     1
1070
   340
1005
E8
1070
   271
1070
     3
1070
   272
1070
     2
1070
    77
1070
     1
1070
    73
1070
     0
1070
   171
1070
     3
1070
   274
1070
     4
1070
   177
1070
    35
1070
   176
1070
    35
1070
   178
1070
    35
1070
    48
1040
-0.005
1070
    41
1041
3.5
1070
   147
1041
1.75
1070
    42
1041
1.5875
1070
    44
1041
2.0
1070
   140
1041
3.5
1070
   343
1005
0
1070
   344
1005
0
1002
}
0
ENDSEC
0
SECTION
2
OBJECTS
0
DICTIONARY
5
19d
330
0
100
AcDbDictionary
280
0
281
1
3
ACAD_GROUP
350
19e
3
ACAD_MLINESTYLE
350
19f
0
DICTIONARY
5
19e
330
0
100
AcDbDictionary
280
0
281
1
0
DICTIONARY
5
19f
330
0
100
AcDbDictionary
280
0
281
1
3
Standard
350
18
0
MLINESTYLE
5
18
330
19f
100
AcDbMlineStyle
2
Standard
70
0
3

62
256
51
90
52
90
71
2
49
-0.5
62
256
6
ByLayer
49
0.5
62
256
6
ByLayer
0
RASTERVARIABLES
5
18b
330

100
AcDbRasterVariables
90
0
70
1
71
1
72
1
0
ENDSEC
0
EOF
