0
SECTION
2
HEADER
9
$ACADVER
1
AC1015
9
$DWGCODEPAGE
3
ANSI_1252
9
$HANDSEED
5
1a1
9
$ANGBASE
50
0
9
$ANGDIR
70
0
9
$ATTMODE
70
1
9
$AUNITS
70
0
9
$AUPREC
70
0
9
$CECOLOR
62
256
9
$CELTSCALE
40
1
9
$CELTYPE
6
ByLayer
9
$CELWEIGHT
370
18
9
$CLAYER
8
0
9
$CMLJUST
70
0
9
$CMLSCALE
40
1
9
$CMLSTYLE
2
Standard
9
$DIMSTYLE
2
Standard
9
$TEXTSIZE
40
0.2
9
$TEXTSTYLE
7
Standard
9
$LUNITS
70
2
9
$LUPREC
70
4
9
$EXTNAMES
290
1
9
$INSUNITS
70
4
9
$LTSCALE
40
1
9
$LWDISPLAY
290
1
9
$PDMODE
70
0
9
$PDSIZE
40
0
9
$PLINEGEN
70
0
0
ENDSEC
0
SECTION
2
CLASSES
0
CLASS
1
RASTERVARIABLES
2
AcDbRasterVariables
3
ISM
90
0
280
0
281
0
0
ENDSEC
0
SECTION
2
TABLES
0
TABLE
2
VPORT
5
197
100
AcDbSymbolTable
0
VPORT
5
1
100
AcDbSymbolTableRecord
100
AcDbViewportTableRecord
2
*Active
70
0
10
0
20
0
11
1
21
1
12
-1
22
1
13
0
23
0
14
0.5
24
0.5
15
10
25
10
16
0
26
0
36
1
17
0
27
0
37
0
0
ENDTAB
0
TABLE
2
LTYPE
5
198
100
AcDbSymbolTable
0
LTYPE
5
14
100
AcDbSymbolTableRecord
100
AcDbLinetypeTableRecord
70
0
2
ByBlock
3

72
65
73
0
40
0
0
LTYPE
5
15
100
AcDbSymbolTableRecord
100
AcDbLinetypeTableRecord
70
0
2
ByLayer
3

72
65
73
0
40
0
0
LTYPE
5
16
100
AcDbSymbolTableRecord
100
AcDbLinetypeTableRecord
70
0
2
CONTINUOUS
3
Solid line
72
65
73
0
40
0
0
LTYPE
5
6A
100
AcDbSymbolTableRecord
100
AcDbLinetypeTableRecord
70
0
2
CENTER
3
____ _ ____ _ ____ _ ____
72
65
73
4
40
47.5
49
22
74
0
49
-8.5
74
0
49
8.5
74
0
49
-8.5
74
0
0
LTYPE
5
6B
100
AcDbSymbolTableRecord
100
AcDbLinetypeTableRecord
70
0
2
DASHED
3
__ __ __ __ __ __ __ __ __
72
65
73
2
40
25.72
49
12.86
74
0
49
-12.86
74
0
0
ENDTAB
0
TABLE
2
LAYER
5
199
100
AcDbSymbolTable
0
LAYER
5
10
100
AcDbSymbolTableRecord
100
AcDbLayerTableRecord
2
0
70
0
62
7
6
CONTINUOUS
290
1
370
-3
390
0
0
LAYER
5
6D
100
AcDbSymbolTableRecord
100
AcDbLayerTableRecord
2
81
70
0
62
-3
6
CONTINUOUS
290
1
370
-3
390
0
0
LAYER
5
6F
100
AcDbSymbolTableRecord
100
AcDbLayerTableRecord
2
80
70
0
62
-6
6
CONTINUOUS
290
1
370
-3
390
0
0
LAYER
5
74
100
AcDbSymbolTableRecord
100
AcDbLayerTableRecord
2
2
70
0
62
7
6
CONTINUOUS
290
1
370
-3
390
0
0
LAYER
5
78
100
AcDbSymbolTableRecord
100
AcDbLayerTableRecord
2
1
70
0
62
4
6
CONTINUOUS
290
1
370
-3
390
0
0
LAYER
5
84
100
AcDbSymbolTableRecord
100
AcDbLayerTableRecord
2
4
70
0
62
-2
6
CENTER
290
1
370
-3
390
0
0
LAYER
5
183
100
AcDbSymbolTableRecord
100
AcDbLayerTableRecord
2
SK2
70
0
62
7
6
CONTINUOUS
290
1
370
-3
390
0
0
LAYER
5
184
100
AcDbSymbolTableRecord
100
AcDbLayerTableRecord
2
SK1
70
0
62
4
6
CONTINUOUS
290
1
370
-3
390
0
0
LAYER
5
185
100
AcDbSymbolTableRecord
100
AcDbLayerTableRecord
2
SK4
70
0
62
2
6
CENTER
290
1
370
-3
390
0
0
LAYER
5
186
100
AcDbSymbolTableRecord
100
AcDbLayerTableRecord
2
SK6
70
0
62
5
6
CONTINUOUS
290
1
370
-3
390
0
0
ENDTAB
0
TABLE
2
STYLE
5
19a
100
AcDbSymbolTable
0
STYLE
5
11
100
AcDbSymbolTableRecord
100
AcDbTextStyleTableRecord
2
Standard
3
txt
70
0
71
0
40
0
41
1
42
0
50
0
0
STYLE
5
DF
100
AcDbSymbolTableRecord
100
AcDbTextStyleTableRecord
2
iso_b_vert
3
simplex.shx
70
0
71
0
40
0
41
1
42
0
50
0
0
STYLE
5
E0
100
AcDbSymbolTableRecord
100
AcDbTextStyleTableRecord
2
DWGDirectTextStyle
3
simplex
70
0
71
0
40
0
41
1
42
0
50
0
0
ENDTAB
0
TABLE
2
DIMSTYLE
5
19b
100
AcDbSymbolTable
100
AcDbDimStyleTable
0
DIMSTYLE
105
27
100
AcDbSymbolTableRecord
100
AcDbDimStyleTableRecord
2
Standard
70
0
3
<>
41
0.18
42
0.0625
44
0.18
140
0.18
147
0.09
73
0
74
0
77
1
271
2
275
0
278
52
280
0
340
11
0
ENDTAB
0
TABLE
2
VIEW
5
19c
100
AcDbSymbolTable
0
ENDTAB
0
TABLE
2
UCS
5
19d
100
AcDbSymbolTable
0
ENDTAB
0
TABLE
2
APPID
5
19e
100
AcDbSymbolTable
0
APPID
5
12
100
AcDbSymbolTableRecord
100
AcDbRegAppTableRecord
2
ACAD
70
0
0
ENDTAB
0
TABLE
2
BLOCK_RECORD
5
19f
100
AcDbSymbolTable
0
BLOCK_RECORD
5
1F
100
AcDbSymbolTableRecord
100
AcDbBlockTableRecord
2
*Model_Space
340
0
70
0
0
BLOCK_RECORD
5
1B
100
AcDbSymbolTableRecord
100
AcDbBlockTableRecord
2
*Paper_Space
340
0
70
0
0
BLOCK_RECORD
5
23
100
AcDbSymbolTableRecord
100
AcDbBlockTableRecord
2
*Paper_Space0
340
0
70
0
0
BLOCK_RECORD
5
E2
100
AcDbSymbolTableRecord
100
AcDbBlockTableRecord
2
DimnDraft3D1
340
0
70
0
0
BLOCK_RECORD
5
EC
100
AcDbSymbolTableRecord
100
AcDbBlockTableRecord
2
DimnDraft3D2
340
0
70
0
0
BLOCK_RECORD
5
F6
100
AcDbSymbolTableRecord
100
AcDbBlockTableRecord
2
DimnDraft3D3
340
0
70
0
0
BLOCK_RECORD
5
100
100
AcDbSymbolTableRecord
100
AcDbBlockTableRecord
2
DimnDraft3D4
340
0
70
0
0
BLOCK_RECORD
5
10A
100
AcDbSymbolTableRecord
100
AcDbBlockTableRecord
2
DimnDraft3D5
340
0
70
0
0
BLOCK_RECORD
5
114
100
AcDbSymbolTableRecord
100
AcDbBlockTableRecord
2
DimnDraft3D6
340
0
70
0
0
BLOCK_RECORD
5
11F
100
AcDbSymbolTableRecord
100
AcDbBlockTableRecord
2
DimnDraft3D7
340
0
70
0
0
ENDTAB
0
ENDSEC
0
SECTION
2
BLOCKS
0
BLOCK
5
20
100
AcDbEntity
8
0
100
AcDbBlockBegin
2
*Model_Space
70
0
10
0
20
0
30
0
3
*Model_Space
0
ENDBLK
5
21
100
AcDbEntity
8
0
100
AcDbBlockEnd
0
BLOCK
5
1C
100
AcDbEntity
8
0
100
AcDbBlockBegin
2
*Paper_Space
70
0
10
0
20
0
30
0
3
*Paper_Space
0
ENDBLK
5
1D
100
AcDbEntity
8
0
100
AcDbBlockEnd
0
BLOCK
5
24
100
AcDbEntity
8
0
100
AcDbBlockBegin
2
*Paper_Space0
70
0
10
0
20
0
30
0
3
*Paper_Space0
0
ENDBLK
5
25
100
AcDbEntity
8
0
100
AcDbBlockEnd
0
BLOCK
5
E9
100
AcDbEntity
8
0
100
AcDbBlockBegin
2
DimnDraft3D1
70
0
10
0
20
0
30
0
3
DimnDraft3D1
0
MTEXT
5
E3
100
AcDbEntity
8
SK2
62
256
6
ByLayer
370
13
48
1
60
0
100
AcDbMText
10
17.412954
20
-13.788398
30
0
210
0
220
0
230
1
1
\W0.7845;47,48
40
3.5
41
0
44
1.084337
50
0
71
7
72
5
7
iso_b_vert
0
LINE
5
E4
100
AcDbEntity
8
SK2
62
256
6
ByLayer
370
13
48
1
60
0
100
AcDbLine
10
0
20
-1.5875
30
0
11
0
21
-16.663398
31
0
39
0
210
0
220
0
230
1
0
LINE
5
E5
100
AcDbEntity
8
SK2
62
256
6
ByLayer
370
13
48
1
60
0
100
AcDbLine
10
47.48
20
-6.0375
30
0
11
47.48
21
-16.663398
31
0
39
0
210
0
220
0
230
1
0
LINE
5
E6
100
AcDbEntity
8
SK2
62
256
6
ByLayer
370
13
48
1
60
0
100
AcDbLine
10
0
20
-14.663398
30
0
11
47.48
21
-14.663398
31
0
39
0
210
0
220
0
230
1
0
SOLID
5
E7
100
AcDbEntity
8
SK2
62
256
6
ByLayer
370
13
48
1
60
0
100
AcDbTrace
10
0
20
-14.663398
30
0
11
3.499998
21
-14.202615
31
0
12
3.500002
22
-15.124182
32
0
13
0
23
-14.663398
33
0
39
0
210
0
220
0
230
1
0
SOLID
5
E8
100
AcDbEntity
8
SK2
62
256
6
ByLayer
370
13
48
1
60
0
100
AcDbTrace
10
47.48
20
-14.663398
30
0
11
43.980002
21
-15.124182
31
0
12
43.979998
22
-14.202615
32
0
13
47.48
23
-14.663398
33
0
39
0
210
0
220
0
230
1
0
ENDBLK
5
EA
100
AcDbEntity
8
0
100
AcDbBlockEnd
0
BLOCK
5
F3
100
AcDbEntity
8
0
100
AcDbBlockBegin
2
DimnDraft3D2
70
0
10
0
20
0
30
0
3
DimnDraft3D2
0
MTEXT
5
ED
100
AcDbEntity
8
SK2
62
256
6
ByLayer
370
13
48
1
60
0
100
AcDbMText
10
-0.127384
20
-32.817985
30
0
210
0
220
0
230
1
1
\W0.7317;89,00
40
3.5
41
0
44
1.084337
50
0
71
7
72
5
7
iso_b_vert
0
LINE
5
EE
100
AcDbEntity
8
SK2
62
256
6
ByLayer
370
13
48
1
60
0
100
AcDbLine
10
-40
20
-6.5875
30
0
11
-40
21
-35.692985
31
0
39
0
210
0
220
0
230
1
0
LINE
5
EF
100
AcDbEntity
8
SK2
62
256
6
ByLayer
370
13
48
1
60
0
100
AcDbLine
10
49
20
-1.5875
30
0
11
49
21
-35.692985
31
0
39
0
210
0
220
0
230
1
0
LINE
5
F0
100
AcDbEntity
8
SK2
62
256
6
ByLayer
370
13
48
1
60
0
100
AcDbLine
10
-40
20
-33.692985
30
0
11
49
21
-33.692985
31
0
39
0
210
0
220
0
230
1
0
SOLID
5
F1
100
AcDbEntity
8
SK2
62
256
6
ByLayer
370
13
48
1
60
0
100
AcDbTrace
10
-40
20
-33.692985
30
0
11
-36.500002
21
-33.232202
31
0
12
-36.499998
22
-34.153769
32
0
13
-40
23
-33.692985
33
0
39
0
210
0
220
0
230
1
0
SOLID
5
F2
100
AcDbEntity
8
SK2
62
256
6
ByLayer
370
13
48
1
60
0
100
AcDbTrace
10
49
20
-33.692985
30
0
11
45.500002
21
-34.153769
31
0
12
45.499998
22
-33.232202
32
0
13
49
23
-33.692985
33
0
39
0
210
0
220
0
230
1
0
ENDBLK
5
F4
100
AcDbEntity
8
0
100
AcDbBlockEnd
0
BLOCK
5
FD
100
AcDbEntity
8
0
100
AcDbBlockBegin
2
DimnDraft3D3
70
0
10
0
20
0
30
0
3
DimnDraft3D3
0
MTEXT
5
F7
100
AcDbEntity
8
SK2
62
256
6
ByLayer
370
13
48
1
60
0
100
AcDbMText
10
30.441316
20
16.934119
30
0
210
0
220
0
230
1
1
\W0.7317;28,22
40
3.5
41
0
44
1.084337
50
0
71
7
72
5
7
iso_b_vert
0
LINE
5
F8
100
AcDbEntity
8
SK2
62
256
6
ByLayer
370
13
48
1
60
0
100
AcDbLine
10
20.78
20
6.0375
30
0
11
20.78
21
18.059119
31
0
39
0
210
0
220
0
230
1
0
LINE
5
F9
100
AcDbEntity
8
SK2
62
256
6
ByLayer
370
13
48
1
60
0
100
AcDbLine
10
49
20
1.5875
30
0
11
49
21
18.059119
31
0
39
0
210
0
220
0
230
1
0
LINE
5
FA
100
AcDbEntity
8
SK2
62
256
6
ByLayer
370
13
48
1
60
0
100
AcDbLine
10
20.78
20
16.059119
30
0
11
49
21
16.059119
31
0
39
0
210
0
220
0
230
1
0
SOLID
5
FB
100
AcDbEntity
8
SK2
62
256
6
ByLayer
370
13
48
1
60
0
100
AcDbTrace
10
20.78
20
16.059119
30
0
11
24.279998
21
16.519903
31
0
12
24.280002
22
15.598335
32
0
13
20.78
23
16.059119
33
0
39
0
210
0
220
0
230
1
0
SOLID
5
FC
100
AcDbEntity
8
SK2
62
256
6
ByLayer
370
13
48
1
60
0
100
AcDbTrace
10
49
20
16.059119
30
0
11
45.500002
21
15.598335
31
0
12
45.499998
22
16.519903
32
0
13
49
23
16.059119
33
0
39
0
210
0
220
0
230
1
0
ENDBLK
5
FE
100
AcDbEntity
8
0
100
AcDbBlockEnd
0
BLOCK
5
107
100
AcDbEntity
8
0
100
AcDbBlockBegin
2
DimnDraft3D4
70
0
10
0
20
0
30
0
3
DimnDraft3D4
0
MTEXT
5
101
100
AcDbEntity
8
SK2
62
256
6
ByLayer
370
13
48
1
60
0
100
AcDbMText
10
56.278136
20
-16.377503
30
0
210
0
220
0
230
1
1
\W0.6367;1,52
40
3.5
41
0
44
1.084337
50
0
71
7
72
5
7
iso_b_vert
0
LINE
5
102
100
AcDbEntity
8
SK2
62
256
6
ByLayer
370
13
48
1
60
0
100
AcDbLine
10
49
20
-1.5875
30
0
11
49
21
-19.252503
31
0
39
0
210
0
220
0
230
1
0
LINE
5
103
100
AcDbEntity
8
SK2
62
256
6
ByLayer
370
13
48
1
60
0
100
AcDbLine
10
47.48
20
-6.0375
30
0
11
47.48
21
-19.252503
31
0
39
0
210
0
220
0
230
1
0
LINE
5
104
100
AcDbEntity
8
SK2
62
256
6
ByLayer
370
13
48
1
60
0
100
AcDbLine
10
38.73
20
-17.252503
30
0
11
62.559715
21
-17.252503
31
0
39
0
210
0
220
0
230
1
0
SOLID
5
105
100
AcDbEntity
8
SK2
62
256
6
ByLayer
370
13
48
1
60
0
100
AcDbTrace
10
49
20
-17.252503
30
0
11
52.499998
21
-16.791719
31
0
12
52.500002
22
-17.713287
32
0
13
49
23
-17.252503
33
0
39
0
210
0
220
0
230
1
0
SOLID
5
106
100
AcDbEntity
8
SK2
62
256
6
ByLayer
370
13
48
1
60
0
100
AcDbTrace
10
47.48
20
-17.252503
30
0
11
43.980002
21
-17.713287
31
0
12
43.979998
22
-16.791719
32
0
13
47.48
23
-17.252503
33
0
39
0
210
0
220
0
230
1
0
ENDBLK
5
108
100
AcDbEntity
8
0
100
AcDbBlockEnd
0
BLOCK
5
111
100
AcDbEntity
8
0
100
AcDbBlockBegin
2
DimnDraft3D5
70
0
10
0
20
0
30
0
3
DimnDraft3D5
0
MTEXT
5
10B
100
AcDbEntity
8
SK2
62
256
6
ByLayer
370
13
48
1
60
0
100
AcDbMText
10
-3.392218
20
-22.468428
30
0
210
0
220
0
230
1
1
\W0.7581;87,48
40
3.5
41
0
44
1.084337
50
0
71
7
72
5
7
iso_b_vert
0
LINE
5
10C
100
AcDbEntity
8
SK2
62
256
6
ByLayer
370
13
48
1
60
0
100
AcDbLine
10
-40
20
-6.5875
30
0
11
-40
21
-25.343428
31
0
39
0
210
0
220
0
230
1
0
LINE
5
10D
100
AcDbEntity
8
SK2
62
256
6
ByLayer
370
13
48
1
60
0
100
AcDbLine
10
47.48
20
-6.0375
30
0
11
47.48
21
-25.343428
31
0
39
0
210
0
220
0
230
1
0
LINE
5
10E
100
AcDbEntity
8
SK2
62
256
6
ByLayer
370
13
48
1
60
0
100
AcDbLine
10
-40
20
-23.343428
30
0
11
47.48
21
-23.343428
31
0
39
0
210
0
220
0
230
1
0
SOLID
5
10F
100
AcDbEntity
8
SK2
62
256
6
ByLayer
370
13
48
1
60
0
100
AcDbTrace
10
-40
20
-23.343428
30
0
11
-36.500002
21
-22.882645
31
0
12
-36.499998
22
-23.804212
32
0
13
-40
23
-23.343428
33
0
39
0
210
0
220
0
230
1
0
SOLID
5
110
100
AcDbEntity
8
SK2
62
256
6
ByLayer
370
13
48
1
60
0
100
AcDbTrace
10
47.48
20
-23.343428
30
0
11
43.980002
21
-23.804212
31
0
12
43.979998
22
-22.882645
32
0
13
47.48
23
-23.343428
33
0
39
0
210
0
220
0
230
1
0
ENDBLK
5
112
100
AcDbEntity
8
0
100
AcDbBlockEnd
0
BLOCK
5
11C
100
AcDbEntity
8
0
100
AcDbBlockBegin
2
DimnDraft3D6
70
0
10
0
20
0
30
0
3
DimnDraft3D6
0
MTEXT
5
115
100
AcDbEntity
8
SK2
62
256
6
ByLayer
370
13
48
1
60
0
100
AcDbMText
10
-50.375163
20
24.34918
30
0
210
0
220
0
230
1
1
\W0.6930;10,000
40
3.5
41
0
44
1.084337
50
90
71
7
72
5
7
iso_b_vert
0
MTEXT
5
116
100
AcDbEntity
8
SK2
62
256
6
ByLayer
370
13
48
1
60
0
100
AcDbMText
10
-50.375163
20
19.126524
30
0
210
0
220
0
230
1
1
%%c
40
3.5
41
0
44
1.084337
50
90
71
7
72
5
7
iso_b_vert
0
LINE
5
117
100
AcDbEntity
8
SK2
62
256
6
ByLayer
370
13
48
1
60
0
100
AcDbLine
10
-41.5875
20
-5
30
0
11
-50.625163
21
-5
31
0
39
0
210
0
220
0
230
1
0
LINE
5
118
100
AcDbEntity
8
SK2
62
256
6
ByLayer
370
13
48
1
60
0
100
AcDbLine
10
-41.5875
20
5
30
0
11
-50.625163
21
5
31
0
39
0
210
0
220
0
230
1
0
LINE
5
119
100
AcDbEntity
8
SK2
62
256
6
ByLayer
370
13
48
1
60
0
100
AcDbLine
10
-48.625163
20
-5
30
0
11
-48.625163
21
35.862338
31
0
39
0
210
0
220
0
230
1
0
SOLID
5
11A
100
AcDbEntity
8
SK2
62
256
6
ByLayer
370
13
48
1
60
0
100
AcDbTrace
10
-48.625163
20
-5
30
0
11
-49.085946
21
-1.500002
31
0
12
-48.164379
22
-1.499998
32
0
13
-48.625163
23
-5
33
0
39
0
210
0
220
0
230
1
0
SOLID
5
11B
100
AcDbEntity
8
SK2
62
256
6
ByLayer
370
13
48
1
60
0
100
AcDbTrace
10
-48.625163
20
5
30
0
11
-48.164379
21
1.500002
31
0
12
-49.085946
22
1.499998
32
0
13
-48.625163
23
5
33
0
39
0
210
0
220
0
230
1
0
ENDBLK
5
11D
100
AcDbEntity
8
0
100
AcDbBlockEnd
0
BLOCK
5
127
100
AcDbEntity
8
0
100
AcDbBlockBegin
2
DimnDraft3D7
70
0
10
0
20
0
30
0
3
DimnDraft3D7
0
MTEXT
5
120
100
AcDbEntity
8
2
62
256
6
ByLayer
370
13
48
1
60
0
100
AcDbMText
10
59.333343
20
22.392266
30
0
210
0
220
0
230
1
1
\W0.7317;8,900
40
3.5
41
0
44
1.084337
50
90
71
7
72
5
7
iso_b_vert
0
MTEXT
5
121
100
AcDbEntity
8
2
62
256
6
ByLayer
370
13
48
1
60
0
100
AcDbMText
10
59.333343
20
17.16961
30
0
210
0
220
0
230
1
1
%%c
40
3.5
41
0
44
1.084337
50
90
71
7
72
5
7
iso_b_vert
0
LINE
5
122
100
AcDbEntity
8
2
62
256
6
ByLayer
370
13
48
1
60
0
100
AcDbLine
10
49.0675
20
-4.45
30
0
11
63.083343
21
-4.45
31
0
39
0
210
0
220
0
230
1
0
LINE
5
123
100
AcDbEntity
8
2
62
256
6
ByLayer
370
13
48
1
60
0
100
AcDbLine
10
49.0675
20
4.45
30
0
11
63.083343
21
4.45
31
0
39
0
210
0
220
0
230
1
0
LINE
5
124
100
AcDbEntity
8
2
62
256
6
ByLayer
370
13
48
1
60
0
100
AcDbLine
10
61.083343
20
-4.45
30
0
11
61.083343
21
32.164635
31
0
39
0
210
0
220
0
230
1
0
SOLID
5
125
100
AcDbEntity
8
2
62
256
6
ByLayer
370
13
48
1
60
0
100
AcDbTrace
10
61.083343
20
-4.45
30
0
11
60.622559
21
-0.950002
31
0
12
61.544126
22
-0.949998
32
0
13
61.083343
23
-4.45
33
0
39
0
210
0
220
0
230
1
0
SOLID
5
126
100
AcDbEntity
8
2
62
256
6
ByLayer
370
13
48
1
60
0
100
AcDbTrace
10
61.083343
20
4.45
30
0
11
61.544126
21
0.950002
31
0
12
60.622559
22
0.949998
32
0
13
61.083343
23
4.45
33
0
39
0
210
0
220
0
230
1
0
ENDBLK
5
128
100
AcDbEntity
8
0
100
AcDbBlockEnd
0
ENDSEC
0
SECTION
2
ENTITIES
0
ARC
5
9B
100
AcDbEntity
8
1
62
256
6
ByLayer
370
18
48
1
60
0
100
AcDbCircle
39
0
10
0
20
4.2
30
0
40
0.799999999999998
210
0
220
0
230
1
100
AcDbArc
50
39.708799
51
90
0
ARC
5
9C
100
AcDbEntity
8
1
62
256
6
ByLayer
370
18
48
1
60
0
100
AcDbCircle
39
0
10
0
20
-4.2
30
0
40
0.799999999999998
210
0
220
0
230
1
100
AcDbArc
50
270
51
320.291201
0
ARC
5
9D
100
AcDbEntity
8
1
62
256
6
ByLayer
370
18
48
1
60
0
100
AcDbCircle
39
0
10
-1.230882
20
-5.222218
30
0
40
0.800000000000003
210
0
220
0
230
-1
100
AcDbArc
50
39.708799
51
90.034377
0
ARC
5
9E
100
AcDbEntity
8
1
62
256
6
ByLayer
370
18
48
1
60
0
100
AcDbCircle
39
0
10
-1.230882
20
5.222218
30
0
40
0.800000000000003
210
0
220
0
230
-1
100
AcDbArc
50
269.965623
51
320.291201
0
ELLIPSE
5
9F
100
AcDbEntity
8
1
62
256
6
ByLayer
370
18
48
1
60
0
100
AcDbEllipse
10
4.25
20
-4.471417
30
0
11
-0.25
21
3.06151588455594E-17
31
0
210
0
220
0
230
1
40
0.999995
41
-1.56385348489404
42
-0.21461159756353
0
ELLIPSE
5
A0
100
AcDbEntity
8
1
62
256
6
ByLayer
370
18
48
1
60
0
100
AcDbEllipse
10
4.25
20
4.471417
30
0
11
-0.25
21
3.06151588455594E-17
31
0
210
0
220
0
230
1
40
0.999995
41
0.214283698475204
42
1.58142115299336
0
ELLIPSE
5
A1
100
AcDbEntity
8
1
62
256
6
ByLayer
370
18
48
1
60
0
100
AcDbEllipse
10
48.150704
20
-2.164637
30
0
11
0.687396291243593
21
1.86776973870834
31
0
210
0
220
0
230
-1
40
0.098637
41
0.749112684720263
42
1.54096841734074
0
ELLIPSE
5
A2
100
AcDbEntity
8
1
62
256
6
ByLayer
370
13
48
1
60
0
100
AcDbEllipse
10
48.413454
20
2.04144
30
0
11
2.48969656291642
21
-1.71422688149987
31
0
210
0
220
0
230
-1
40
0.533762
41
1.44484622741779
42
1.74268811946158
0
ELLIPSE
5
A3
100
AcDbEntity
8
1
62
256
6
ByLayer
370
18
48
1
60
0
100
AcDbEllipse
10
48.150704
20
2.164637
30
0
11
0.687396291245199
21
-1.86776973871196
31
0
210
0
220
0
230
-1
40
0.098637
41
-1.54096841733944
42
-0.74911268472041
0
ELLIPSE
5
A4
100
AcDbEntity
8
1
62
256
6
ByLayer
370
18
48
1
60
0
100
AcDbEllipse
10
49.033885
20
-0.02245
30
0
11
0.140634104903609
21
0.431000092514327
31
0
210
0
220
0
230
-1
40
0.07518
41
-2.31001430902138
42
-1.6441229174349
0
ELLIPSE
5
A5
100
AcDbEntity
8
1
62
256
6
ByLayer
370
18
48
1
60
0
100
AcDbEllipse
10
49.033885
20
0.02245
30
0
11
0.140634104950223
21
-0.431000092635636
31
0
210
0
220
0
230
-1
40
0.07518
41
1.64412291762391
42
2.31001430904378
0
ELLIPSE
5
A6
100
AcDbEntity
8
1
62
256
6
ByLayer
370
18
48
1
60
0
100
AcDbEllipse
10
49.000387
20
-0.000972
30
0
11
1.63698115531538
21
-4.44794929835385
31
0
210
0
220
0
230
-1
40
0.098637
41
-2.9769025315364
42
-2.87677113027867
0
ELLIPSE
5
A7
100
AcDbEntity
8
1
62
256
6
ByLayer
370
13
48
1
60
0
100
AcDbEllipse
10
48.008369
20
0.630922
30
0
11
0.15308208161242
21
0.258003636193772
31
0
210
0
220
0
230
1
40
0.454519
41
0.917105603404795
42
2.31336900500019
0
ELLIPSE
5
A8
100
AcDbEntity
8
1
62
256
6
ByLayer
370
18
48
1
60
0
100
AcDbEllipse
10
49.000387
20
0.000972
30
0
11
1.63698114888067
21
4.44794927948722
31
0
210
0
220
0
230
-1
40
0.098637
41
2.8767711297149
42
2.97690253118935
0
ELLIPSE
5
A9
100
AcDbEntity
8
1
62
256
6
ByLayer
370
18
48
1
60
0
100
AcDbEllipse
10
48.860126
20
0.125547
30
0
11
0.0727819104914244
21
0.30191719572207
31
0
210
0
220
0
230
-1
40
0.478434
41
1.72938918959062
42
2.4597611997358
0
ELLIPSE
5
AA
100
AcDbEntity
8
1
62
256
6
ByLayer
370
13
48
1
60
0
100
AcDbEllipse
10
48.603361
20
2.164637
30
0
11
2.56393292213392
21
-1.36435857005988
31
0
210
0
220
0
230
-1
40
0.498209
41
1.53788148768316
42
1.86326672181885
0
POINT
5
6C
100
AcDbEntity
8
81
62
256
6
ByLayer
370
18
48
1
60
0
100
AcDbPoint
10
49
20
0
30
0
39
0
210
0
220
0
230
1
50
360
0
POINT
5
6E
100
AcDbEntity
8
80
62
256
6
ByLayer
370
18
48
1
60
0
100
AcDbPoint
10
0
20
0
30
0
39
0
210
0
220
0
230
1
50
360
0
POINT
5
70
100
AcDbEntity
8
SK2
62
256
6
ByLayer
370
18
48
1
60
1
100
AcDbPoint
10
-40
20
-5
30
0
39
0
210
0
220
0
230
1
50
360
0
POINT
5
72
100
AcDbEntity
8
SK2
62
256
6
ByLayer
370
18
48
1
60
1
100
AcDbPoint
10
-40
20
5
30
0
39
0
210
0
220
0
230
1
50
360
0
POINT
5
73
100
AcDbEntity
8
2
62
256
6
ByLayer
370
18
48
1
60
1
100
AcDbPoint
10
47.48
20
-4.45
30
0
39
0
210
0
220
0
230
1
50
360
0
POINT
5
75
100
AcDbEntity
8
2
62
256
6
ByLayer
370
18
48
1
60
1
100
AcDbPoint
10
47.48
20
4.45
30
0
39
0
210
0
220
0
230
1
50
360
0
SPLINE
5
AB
100
AcDbEntity
8
1
62
256
6
ByLayer
370
18
48
1
60
0
100
AcDbSpline
70
4
71
1
72
4
73
2
40
0
40
0
40
1
40
1
41
1
10
8.93066541752455
20
0.0022961232316447
30
0
41
1
10
8.93065522196144
20
0.0023011654272977
30
0
0
SPLINE
5
AC
100
AcDbEntity
8
1
62
256
6
ByLayer
370
18
48
1
60
0
100
AcDbSpline
70
4
71
3
72
18
73
14
40
0
40
0
40
0
40
0
40
0.156628607296743
40
0.312220245366676
40
0.386273431923624
40
0.44538276471007
40
0.494936627881987
40
0.535407334438476
40
0.593345061536048
40
0.684664993295106
40
0.809033079339033
40
0.966031945791277
40
1
40
1
40
1
40
1
41
1
10
4.2504438436815
20
-4.22121296144672
30
0
41
1
10
4.49494113920645
20
-4.22163387564496
30
0
41
1
10
4.98231632394311
20
-4.22234003068399
30
0
41
1
10
5.58528092523829
20
-4.2224757587276
30
0
41
1
10
6.03602540567479
20
-4.22284960569507
30
0
41
1
10
6.32124499816288
20
-4.22288898258654
30
0
41
1
10
6.55404222774405
20
-4.22326989647945
30
0
41
1
10
6.78500366056343
20
-4.22392981272048
30
0
41
1
10
7.08115011446117
20
-4.22428137799005
30
0
41
1
10
7.50826064686771
20
-4.22392854824872
30
0
41
1
10
8.09000783966738
20
-4.22417220791067
30
0
41
1
10
8.58227471178273
20
-4.22348842481208
30
0
41
1
10
8.88034294120939
20
-4.22412027991803
30
0
41
1
10
8.93336094545904
20
-4.22424561054868
30
0
0
SPLINE
5
AD
100
AcDbEntity
8
1
62
256
6
ByLayer
370
18
48
1
60
0
100
AcDbSpline
70
4
71
3
72
11
73
7
40
0
40
0
40
0
40
0
40
0.149612543863892
40
0.384153637173509
40
0.656436117531618
40
1
40
1
40
1
40
1
41
1
10
35.2155478841236
20
-1.114232857095
30
0
41
1
10
35.2156448330603
20
-1.1143005144896
30
0
41
1
10
35.2247550254366
20
-1.11859341916494
30
0
41
1
10
35.2771205357791
20
-1.14417283179938
30
0
41
1
10
35.3983170561159
20
-1.20545293691086
30
0
41
1
10
35.5052472685056
20
-1.26186143458372
30
0
41
1
10
35.5735158083264
20
-1.29828926006249
30
0
0
SPLINE
5
AE
100
AcDbEntity
8
1
62
256
6
ByLayer
370
18
48
1
60
0
100
AcDbSpline
70
4
71
3
72
31
73
27
40
0
40
0
40
0
40
0
40
0.0613782049842176
40
0.106641762743926
40
0.135879327437249
40
0.160410569956605
40
0.188509900743949
40
0.252868810207335
40
0.312523998803915
40
0.345818502427012
40
0.375684936843969
40
0.402411529001535
40
0.432732247940392
40
0.473320106212896
40
0.517920181484517
40
0.551068898856777
40
0.592342039733164
40
0.648747652781976
40
0.701304207030944
40
0.736364439164149
40
0.775712114853264
40
0.813921153840335
40
0.858924608098587
40
0.910919113773767
40
0.97245551320205
40
1
40
1
40
1
40
1
41
1
10
21.5777205554729
20
-4.23139078778507
30
0
41
1
10
21.8332975295663
20
-4.23165001148209
30
0
41
1
10
22.2773507533334
20
-4.23197196615089
30
0
41
1
10
22.8430650532748
20
-4.2319767479913
30
0
41
1
10
23.255472843002
20
-4.23198075072915
30
0
41
1
10
23.5961392865831
20
-4.23217406879601
30
0
41
1
10
24.0832243695218
20
-4.23341402429034
30
0
41
1
10
24.716629709723
20
-4.23372016258887
30
0
41
1
10
25.3716142896267
20
-4.23344255087591
30
0
41
1
10
25.8829923497346
20
-4.23318929721299
30
0
41
1
10
26.2572694345487
20
-4.23361437176968
30
0
41
1
10
26.6191670280116
20
-4.23501986622452
30
0
41
1
10
27.0257000504155
20
-4.23542040970264
30
0
41
1
10
27.5066667383738
20
-4.23454311571993
30
0
41
1
10
27.9993997428301
20
-4.23411715564512
30
0
41
1
10
28.494988325081
20
-4.23369245984964
30
0
41
1
10
29.0397369652627
20
-4.23510089042134
30
0
41
1
10
29.6652941111977
20
-4.2365068839706
30
0
41
1
10
30.2649877234441
20
-4.23632939925562
30
0
41
1
10
30.7936473027306
20
-4.23647800919557
30
0
41
1
10
31.2625565154825
20
-4.23589860621951
30
0
41
1
10
31.7728771205765
20
-4.23695285567823
30
0
41
1
10
32.3358980076458
20
-4.23770539556207
30
0
41
1
10
32.9924282148231
20
-4.23699204679139
30
0
41
1
10
33.5817123197164
20
-4.2367549744304
30
0
41
1
10
33.9506074489652
20
-4.23746609536028
30
0
41
1
10
34.0645893291878
20
-4.2377423533492
30
0
0
SPLINE
5
AF
100
AcDbEntity
8
1
62
256
6
ByLayer
370
18
48
1
60
0
100
AcDbSpline
70
4
71
3
72
17
73
13
40
0
40
0
40
0
40
0
40
0.0039789297934996
40
0.133888568637333
40
0.231946588109007
40
0.297839123944891
40
0.341771099207823
40
0.394970408446412
40
0.49623211970682
40
0.633204933249097
40
0.818637851643878
40
1
40
1
40
1
40
1
41
1
10
8.9243820529469
20
4.2240943103254
30
0
41
1
10
8.91818404482885
20
4.2240804722683
30
0
41
1
10
8.70962410127115
20
4.22362299751575
30
0
41
1
10
8.34820731723295
20
4.22400137695524
30
0
41
1
10
7.89037475170267
20
4.22396312594489
30
0
41
1
10
7.56649009829633
20
4.22397726707644
30
0
41
1
10
7.31259944359408
20
4.22411085605006
30
0
41
1
10
7.00351306663299
20
4.22429543950867
30
0
41
1
10
6.54945481642264
20
4.22318671349367
30
0
41
1
10
5.88936972443247
20
4.22267909464966
30
0
41
1
10
5.10449280888372
20
4.22238633748233
30
0
41
1
10
4.53301343863365
20
4.2216308020715
30
0
41
1
10
4.25044413469362
20
4.22119028944363
30
0
0
SPLINE
5
B0
100
AcDbEntity
8
1
62
256
6
ByLayer
370
18
48
1
60
0
100
AcDbSpline
70
4
71
2
72
6
73
3
40
0
40
0
40
0
40
1
40
1
40
1
41
1
10
46.6456987618732
20
-4.24660019973803
30
0
41
1
10
47.0487737678655
20
-4.24563579234959
30
0
41
1
10
47.451340456478
20
-4.24787056674734
30
0
0
SPLINE
5
B1
100
AcDbEntity
8
1
62
256
6
ByLayer
370
18
48
1
60
0
100
AcDbSpline
70
4
71
3
72
29
73
25
40
0
40
0
40
0
40
0
40
0.0263413437259678
40
0.0965768489741033
40
0.155965515205423
40
0.208277717794509
40
0.253621694953288
40
0.292380040460074
40
0.324699663079938
40
0.357269135984067
40
0.402936895450803
40
0.460390593928153
40
0.509418362669822
40
0.547570902655559
40
0.587968130496085
40
0.642320743363682
40
0.691783802215729
40
0.728734643412369
40
0.761305443088614
40
0.797702663003763
40
0.83827755565198
40
0.899157102819253
40
0.966962271923926
40
1
40
1
40
1
40
1
41
1
10
34.0693556488246
20
4.23768471901505
30
0
41
1
10
33.9799526934543
20
4.2374635720829
30
0
41
1
10
33.651935078158
20
4.23678475190485
30
0
41
1
10
33.11664836469
20
4.23708867139274
30
0
41
1
10
32.4990389079551
20
4.23733474178539
30
0
41
1
10
31.9627923193872
20
4.23766755801486
30
0
41
1
10
31.4966842346684
20
4.23594637775383
30
0
41
1
10
31.0989102350267
20
4.23625619979993
30
0
41
1
10
30.7447820373108
20
4.23639098887696
30
0
41
1
10
30.367041206645
20
4.23644651820072
30
0
41
1
10
29.9034190231022
20
4.23611596083293
30
0
41
1
10
29.383562787822
20
4.23661458665759
30
0
41
1
10
28.889390658403
20
4.23428579894417
30
0
41
1
10
28.4534897054304
20
4.23382109389837
30
0
41
1
10
27.999399868794
20
4.23408155344623
30
0
41
1
10
27.5066667035638
20
4.23455285417629
30
0
41
1
10
27.0257000582728
20
4.23541862683237
30
0
41
1
10
26.6191670233936
20
4.2350201411862
30
0
41
1
10
26.2572694466307
20
4.2336145871283
30
0
41
1
10
25.8829922976712
20
4.23318790190635
30
0
41
1
10
25.412000258011
20
4.23342981194719
30
0
41
1
10
24.8337053560904
20
4.23362741320616
30
0
41
1
10
24.2811403378574
20
4.23369375700022
30
0
41
1
10
23.9365761672941
20
4.23293568411822
30
0
41
1
10
23.8237077355213
20
4.23270240029748
30
0
0
SPLINE
5
B2
100
AcDbEntity
8
1
62
256
6
ByLayer
370
18
48
1
60
0
100
AcDbSpline
70
4
71
3
72
24
73
20
40
0
40
0
40
0
40
0
40
0.167224089042042
40
0.167224089042042
40
0.334448178084083
40
0.334448178084083
40
0.501672267126125
40
0.501672267126125
40
0.585284311647147
40
0.585284311647147
40
0.668896356168169
40
0.668896356168169
40
0.752508400689192
40
0.752508400689192
40
0.836120445210214
40
0.836120445210214
40
0.919732489731236
40
0.919732489731236
40
1
40
1
40
1
40
1
41
1
10
14.53869971849
20
-3.16488760170017
30
0
41
1
10
14.8853389456223
20
-3.30099348527588
30
0
41
1
10
15.2311917253357
20
-3.42592848931713
30
0
41
1
10
15.9200503597785
20
-3.65616646092818
30
0
41
1
10
16.262461351049
20
-3.76190723343939
30
0
41
1
10
16.9479883772915
20
-3.95006714857868
30
0
41
1
10
17.2907862114529
20
-4.03299697729301
30
0
41
1
10
17.8039660247134
20
-4.14135529240551
30
0
41
1
10
17.9749312505088
20
-4.17470979346743
30
0
41
1
10
18.3177287230074
20
-4.23524542966859
30
0
41
1
10
18.4894013324895
20
-4.26254130141143
30
0
41
1
10
18.8331481751794
20
-4.31126960753176
30
0
41
1
10
19.0052249734629
20
-4.33270087070517
30
0
41
1
10
19.3496555642601
20
-4.36963655544864
30
0
41
1
10
19.5218899391317
20
-4.38515593491877
30
0
41
1
10
19.8677206275412
20
-4.40982497815739
30
0
41
1
10
20.0415136884789
20
-4.41903690925531
30
0
41
1
10
20.381447452514
20
-4.43092268557729
30
0
41
1
10
20.5475535915531
20
-4.43385240298954
30
0
41
1
10
20.7132108243943
20
-4.43390629812126
30
0
0
SPLINE
5
B3
100
AcDbEntity
8
1
62
256
6
ByLayer
370
18
48
1
60
0
100
AcDbSpline
70
4
71
3
72
30
73
26
40
0
40
0
40
0
40
0
40
0.0874129033632612
40
0.0874129033632612
40
0.152597695980171
40
0.152597695980171
40
0.21778248859708
40
0.21778248859708
40
0.282967281213989
40
0.282967281213989
40
0.348152073830898
40
0.348152073830898
40
0.478521659064717
40
0.478521659064717
40
0.608891244298535
40
0.608891244298535
40
0.739260829532354
40
0.739260829532354
40
0.804445622149266
40
0.804445622149266
40
0.869630414766177
40
0.869630414766177
40
0.934815207383089
40
0.934815207383089
40
1
40
1
40
1
40
1
41
1
10
39.6309379748898
20
3.20871561651509
30
0
41
1
10
39.860387942705
20
3.29727033374329
30
0
41
1
10
40.0900086753157
20
3.38167925911912
30
0
41
1
10
40.4908037925848
20
3.52223911171595
30
0
41
1
10
40.6618620490678
20
3.58023836391635
30
0
41
1
10
41.0046280635185
20
3.691029719753
30
0
41
1
10
41.1764655262573
20
3.74370059923368
30
0
41
1
10
41.5207955924044
20
3.84388231201837
30
0
41
1
10
41.6933001547321
20
3.89137987962985
30
0
41
1
10
42.0388630622627
20
3.98123260264029
30
0
41
1
10
42.2120735418482
20
4.02369533052374
30
0
41
1
10
42.7313342539537
20
4.14248556638961
30
0
41
1
10
43.0766743529508
20
4.20897884288277
30
0
41
1
10
43.7644469018164
20
4.31847202718956
30
0
41
1
10
44.1063486838401
20
4.36149772085062
30
0
41
1
10
44.7910577157111
20
4.42241586407653
30
0
41
1
10
45.1333658159743
20
4.4406869037939
30
0
41
1
10
45.6459499913216
20
4.4497261123833
30
0
41
1
10
45.8167711578667
20
4.44963318157221
30
0
41
1
10
46.1592877466192
20
4.44328249590833
30
0
41
1
10
46.3308299624752
20
4.43703769823116
30
0
41
1
10
46.6742919738325
20
4.41837920635689
30
0
41
1
10
46.8462276863262
20
4.40596892634983
30
0
41
1
10
47.190316283743
20
4.37479213245163
30
0
41
1
10
47.3624574099574
20
4.35599205018744
30
0
41
1
10
47.5353048960295
20
4.33418024375078
30
0
0
SPLINE
5
B4
100
AcDbEntity
8
1
62
256
6
ByLayer
370
18
48
1
60
0
100
AcDbSpline
70
4
71
3
72
62
73
58
40
0
40
0
40
0
40
0
40
0.0520169221015867
40
0.0520169221015867
40
0.0780253831523801
40
0.0780253831523801
40
0.104033844203173
40
0.104033844203173
40
0.15605076630476
40
0.15605076630476
40
0.182059227355553
40
0.182059227355553
40
0.208067688406347
40
0.208067688406347
40
0.260084610507934
40
0.260084610507934
40
0.286093071558727
40
0.286093071558727
40
0.31210153260952
40
0.31210153260952
40
0.364118454711107
40
0.364118454711107
40
0.3901269157619
40
0.3901269157619
40
0.416135376812694
40
0.416135376812694
40
0.468152298914282
40
0.468152298914282
40
0.494160759965076
40
0.494160759965076
40
0.520169221015871
40
0.520169221015871
40
0.572186143117461
40
0.572186143117461
40
0.598194604168256
40
0.598194604168256
40
0.624203065219052
40
0.624203065219052
40
0.676219987320642
40
0.676219987320642
40
0.702228448371437
40
0.702228448371437
40
0.728236909422232
40
0.728236909422232
40
0.780253831523822
40
0.780253831523822
40
0.806262292574616
40
0.806262292574616
40
0.83227075362541
40
0.83227075362541
40
0.884287675726999
40
0.884287675726999
40
0.936304597828588
40
0.936304597828588
40
0.988321519930177
40
0.988321519930177
40
1
40
1
40
1
40
1
41
1
10
47.4574843482014
20
-4.41326499455872
30
0
41
1
10
47.0060701696122
20
-4.44539805019051
30
0
41
1
10
46.555270237062
20
-4.45606733660949
30
0
41
1
10
45.8778952225133
20
-4.43987501383205
30
0
41
1
10
45.6516852061648
20
-4.42908756829289
30
0
41
1
10
45.2000689485964
20
-4.3968877119903
30
0
41
1
10
44.9745710458573
20
-4.37548494288393
30
0
41
1
10
44.2984591891009
20
-4.29561767520701
30
0
41
1
10
43.8482097379285
20
-4.22148929655552
30
0
41
1
10
43.1711450216576
20
-4.08014476708766
30
0
41
1
10
42.9449253015973
20
-4.02793380463228
30
0
41
1
10
42.4932546117288
20
-3.91407066611228
30
0
41
1
10
42.2677435362658
20
-3.85241840418641
30
0
41
1
10
41.5916041557144
20
-3.65387711397315
30
0
41
1
10
41.1413512655502
20
-3.50341142041492
30
0
41
1
10
40.4642763903685
20
-3.25311613168904
30
0
41
1
10
40.2380533594127
20
-3.1654682330954
30
0
41
1
10
39.7863140908297
20
-2.98301825780143
30
0
41
1
10
39.5607625191187
20
-2.88821465081503
30
0
41
1
10
38.8844952909338
20
-2.59389218249396
30
0
41
1
10
38.4341217867295
20
-2.38452498608106
30
0
41
1
10
37.7569929709677
20
-2.05408879543052
30
0
41
1
10
37.5307847817045
20
-1.9410416555545
30
0
41
1
10
37.0789989268423
20
-1.7109181244175
30
0
41
1
10
36.8534073781184
20
-1.59385554359179
30
0
41
1
10
36.1770475119532
20
-1.23751626589981
30
0
41
1
10
35.7266338365707
20
-0.993189237274322
30
0
41
1
10
35.0495068020202
20
-0.62043212374067
30
0
41
1
10
34.8232988585674
20
-0.4949695421804
30
0
41
1
10
34.3714456190608
20
-0.243591840529462
30
0
41
1
10
34.1458217560979
20
-0.117686908218957
30
0
41
1
10
33.4694132082569
20
0.259877106775093
30
0
41
1
10
33.0189698463482
20
0.511165561926816
30
0
41
1
10
32.3418288233076
20
0.883478631009922
30
0
41
1
10
32.115616647158
20
1.00695970938597
30
0
41
1
10
31.6637078548722
20
1.2507897697769
30
0
41
1
10
31.4380620698398
20
1.37111891225052
30
0
41
1
10
30.7615620507477
20
1.72654565326235
30
0
41
1
10
30.3111030506157
20
1.95600792808523
30
0
41
1
10
29.633924333215
20
2.28515503991599
30
0
41
1
10
29.4076998788691
20
2.3924847893359
30
0
41
1
10
28.9557291843226
20
2.60080271284286
30
0
41
1
10
28.7300782560152
20
2.70178474279385
30
0
41
1
10
28.0535676828592
20
2.99444861395958
30
0
41
1
10
27.6030417519395
20
3.17569657967633
30
0
41
1
10
26.9257242299683
20
3.42384761534007
30
0
41
1
10
26.6994725051097
20
3.50272067853592
30
0
41
1
10
26.2474628897024
20
3.65168009330438
30
0
41
1
10
26.0217900103564
20
3.72170953643618
30
0
41
1
10
25.3451772535927
20
3.91794973675914
30
0
41
1
10
24.8946258249354
20
4.03029686706665
30
0
41
1
10
23.9915420789392
20
4.21554702752726
30
0
41
1
10
23.5388595549849
20
4.28842016413327
30
0
41
1
10
22.6366413235456
20
4.39161015393532
30
0
41
1
10
22.1860385960337
20
4.42217465693071
30
0
41
1
10
21.6330685316792
20
4.43344025460885
30
0
41
1
10
21.5316253732138
20
4.43442158160576
30
0
41
1
10
21.4301560090108
20
4.43432182316513
30
0
0
SPLINE
5
B5
100
AcDbEntity
8
1
62
256
6
ByLayer
370
18
48
1
60
0
100
AcDbSpline
70
4
71
3
72
38
73
34
40
0
40
0
40
0
40
0
40
0.250000000000006
40
0.250000000000006
40
0.375000000000013
40
0.375000000000013
40
0.437500000000016
40
0.437500000000016
40
0.500000000000019
40
0.500000000000019
40
0.625000000000026
40
0.625000000000026
40
0.687500000000029
40
0.687500000000029
40
0.718750000000031
40
0.718750000000031
40
0.734375000000032
40
0.734375000000032
40
0.750000000000032
40
0.750000000000032
40
0.812500000000024
40
0.812500000000024
40
0.84375000000002
40
0.84375000000002
40
0.875000000000016
40
0.875000000000016
40
0.906250000000012
40
0.906250000000012
40
0.937500000000008
40
0.937500000000008
40
0.968750000000004
40
0.968750000000004
40
1
40
1
40
1
40
1
41
1
10
43.9257841503866
20
1.32559185264915
30
0
41
1
10
44.2384745863383
20
1.10804997903639
30
0
41
1
10
44.5536092124727
20
0.913297750855861
30
0
41
1
10
45.0313884592122
20
0.668510257648791
30
0
41
1
10
45.1914880062709
20
0.594744710043983
30
0
41
1
10
45.4331150622535
20
0.497874803229848
30
0
41
1
10
45.5139012765218
20
0.467858607748042
30
0
41
1
10
45.6760148083683
20
0.412871467625536
30
0
41
1
10
45.7575785411584
20
0.38786459023504
30
0
41
1
10
45.999748396272
20
0.322063447888894
30
0
41
1
10
46.158704504086
20
0.290110302081246
30
0
41
1
10
46.392966398234
20
0.26214056227613
30
0
41
1
10
46.4703557556065
20
0.256156238920511
30
0
41
1
10
46.5853194010709
20
0.252539662435027
30
0
41
1
10
46.6234664233251
20
0.252229246644532
30
0
41
1
10
46.6803547305435
20
0.253157357669664
30
0
41
1
10
46.6992602121502
20
0.253656153815342
30
0
41
1
10
46.736420122091
20
0.25650378434085
30
0
41
1
10
46.7547758298114
20
0.258516346798245
30
0
41
1
10
46.8452033462879
20
0.271739399802385
30
0
41
1
10
46.9140505684218
20
0.291768046993212
30
0
41
1
10
47.0008785324999
20
0.346659990491872
30
0
41
1
10
47.0273125608413
20
0.369463906468354
30
0
41
1
10
47.0732869905227
20
0.424260856070561
30
0
41
1
10
47.0921378940097
20
0.455609397141842
30
0
41
1
10
47.1211339387065
20
0.526620248483056
30
0
41
1
10
47.1312756850429
20
0.566449960738822
30
0
41
1
10
47.142939965632
20
0.649859359005234
30
0
41
1
10
47.1445664502994
20
0.694169759546753
30
0
41
1
10
47.1399203119454
20
0.786133824940634
30
0
41
1
10
47.1338503046557
20
0.832987335163892
30
0
41
1
10
47.1149841388484
20
0.928258750179367
30
0
41
1
10
47.1013342295629
20
0.977054051525499
30
0
41
1
10
47.0860955989145
20
1.02533180289589
30
0
0
SPLINE
5
B6
100
AcDbEntity
8
1
62
256
6
ByLayer
370
18
48
1
60
0
100
AcDbSpline
70
4
71
3
72
8
73
4
40
0
40
0
40
0
40
0
40
1
40
1
40
1
40
1
41
1
10
47.4574843482014
20
4.41326499455872
30
0
41
1
10
47.1163396551173
20
4.43754872759436
30
0
41
1
10
46.7754278613062
20
4.44958249927245
30
0
41
1
10
46.4341450648067
20
4.44934065457258
30
0
0
SPLINE
5
B7
100
AcDbEntity
8
1
62
256
6
ByLayer
370
18
48
1
60
0
100
AcDbSpline
70
4
71
3
72
48
73
44
40
0
40
0
40
0
40
0
40
0.0006547377781446
40
0.0006547377781446
40
0.035114919234071
40
0.035114919234071
40
0.104035282145924
40
0.104035282145924
40
0.13849546360185
40
0.13849546360185
40
0.172955645057776
40
0.172955645057776
40
0.241876007969628
40
0.241876007969628
40
0.276336189425554
40
0.276336189425554
40
0.310796370881479
40
0.310796370881479
40
0.37971673379333
40
0.37971673379333
40
0.414176915249256
40
0.414176915249256
40
0.448637096705181
40
0.448637096705181
40
0.517557459617033
40
0.517557459617033
40
0.552017641072959
40
0.552017641072959
40
0.586477822528885
40
0.586477822528885
40
0.655398185440737
40
0.655398185440737
40
0.689858366896663
40
0.689858366896663
40
0.724318548352589
40
0.724318548352589
40
0.793238911264442
40
0.793238911264442
40
0.827699092720368
40
0.827699092720368
40
0.862159274176294
40
0.862159274176294
40
1
40
1
40
1
40
1
41
1
10
23.7767589061847
20
-4.2450231965789
30
0
41
1
10
23.772466934756
20
-4.24571493653457
30
0
41
1
10
23.7681751459614
20
-4.24640479521588
30
0
41
1
10
23.5380079434178
20
-4.28330230758408
30
0
41
1
10
23.3124281928483
20
-4.31433066977186
30
0
41
1
10
22.635926144906
20
-4.39166643197166
30
0
41
1
10
22.1852255098909
20
-4.42222650001068
30
0
41
1
10
21.5073926648195
20
-4.43598293045423
30
0
41
1
10
21.2809694651408
20
-4.43520828543785
30
0
41
1
10
20.8291676303464
20
-4.42292890928874
30
0
41
1
10
20.6035852749978
20
-4.41143383694558
30
0
41
1
10
19.9270458181335
20
-4.36108718143677
30
0
41
1
10
19.476301341762
20
-4.30639178742885
30
0
41
1
10
18.7984415276311
20
-4.19342170105253
30
0
41
1
10
18.5719948630645
20
-4.15055532962441
30
0
41
1
10
18.1201133658342
20
-4.05502441344407
30
0
41
1
10
17.8944931048515
20
-4.00233970933073
30
0
41
1
10
17.2178464387372
20
-3.83016866962396
30
0
41
1
10
16.7671059774822
20
-3.6965182018468
30
0
41
1
10
16.0892860566382
20
-3.46978130374239
30
0
41
1
10
15.8628213682087
20
-3.38976161886063
30
0
41
1
10
15.4108528994148
20
-3.22200295161696
30
0
41
1
10
15.1851865320363
20
-3.13421361045729
30
0
41
1
10
14.5084332189127
20
-2.86006665676862
30
0
41
1
10
14.0576589291913
20
-2.66285006616226
30
0
41
1
10
13.3798577385411
20
-2.34840209328331
30
0
41
1
10
13.1534047674857
20
-2.24039124080187
30
0
41
1
10
12.7013681558235
20
-2.01968464756678
30
0
41
1
10
12.4756383169663
20
-1.90692728441101
30
0
41
1
10
11.7987532097277
20
-1.56239087291652
30
0
41
1
10
11.3480285400785
20
-1.32413375039135
30
0
41
1
10
10.670269674194
20
-0.958043096937104
30
0
41
1
10
10.4438071537638
20
-0.834478443882858
30
0
41
1
10
9.99169980266791
20
-0.586191764174515
30
0
41
1
10
9.76592729001712
20
-0.461403827371214
30
0
41
1
10
9.08890503889464
20
-0.0860968759051559
30
0
41
1
10
8.63808562915705
20
0.165609176279332
30
0
41
1
10
7.9602286048335
20
0.541048993388387
30
0
41
1
10
7.73368452557762
20
0.665948359791912
30
0
41
1
10
7.28176455323106
20
0.913180112450249
30
0
41
1
10
7.05626111273818
20
1.03558510216402
30
0
41
1
10
5.92996800508348
20
1.63976076936885
30
0
41
1
10
5.03335813463434
20
2.09883260574173
30
0
41
1
10
4.12855054455702
20
2.51243715002332
30
0
0
SPLINE
5
B8
100
AcDbEntity
8
1
62
256
6
ByLayer
370
18
48
1
60
0
100
AcDbSpline
70
2053
71
3
72
62
73
58
40
0
40
0
40
0
40
0
40
0.0312499999999991
40
0.0312499999999991
40
0.0624999999999982
40
0.0624999999999982
40
0.0937499999999973
40
0.0937499999999973
40
0.124999999999996
40
0.124999999999996
40
0.156249999999996
40
0.156249999999996
40
0.187499999999995
40
0.187499999999995
40
0.218749999999994
40
0.218749999999994
40
0.249999999999993
40
0.249999999999993
40
0.281249999999992
40
0.281249999999992
40
0.312499999999991
40
0.312499999999991
40
0.374999999999992
40
0.374999999999992
40
0.437499999999994
40
0.437499999999994
40
0.468749999999994
40
0.468749999999994
40
0.499999999999995
40
0.499999999999995
40
0.531249999999996
40
0.531249999999996
40
0.562499999999996
40
0.562499999999996
40
0.593749999999997
40
0.593749999999997
40
0.624999999999997
40
0.624999999999997
40
0.656249999999998
40
0.656249999999998
40
0.687499999999999
40
0.687499999999999
40
0.718749999999999
40
0.718749999999999
40
0.75
40
0.75
40
0.812500000000001
40
0.812500000000001
40
0.843750000000001
40
0.843750000000001
40
0.875000000000002
40
0.875000000000002
40
0.906250000000002
40
0.906250000000002
40
0.937500000000003
40
0.937500000000003
40
1
40
1
40
1
40
1
41
1
10
47.7398158564684
20
-1.55120070724044
30
0
41
1
10
47.7170603989453
20
-1.58348406453382
30
0
41
1
10
47.6947643591189
20
-1.61810251263501
30
0
41
1
10
47.6511670427955
20
-1.69239551684086
30
0
41
1
10
47.6296334972225
20
-1.73254991924546
30
0
41
1
10
47.5890185584539
20
-1.81639813368821
30
0
41
1
10
47.5700132556887
20
-1.85982378522408
30
0
41
1
10
47.5349760298561
20
-1.95010372892838
30
0
41
1
10
47.5192845181367
20
-1.99623923467405
30
0
41
1
10
47.4930378639647
20
-2.08685157554382
30
0
41
1
10
47.4821573053979
20
-2.13260960413257
30
0
41
1
10
47.4665703934252
20
-2.21877821380951
30
0
41
1
10
47.4617094233174
20
-2.25957270974126
30
0
41
1
10
47.4578835961615
20
-2.33526380470502
30
0
41
1
10
47.4589392198126
20
-2.36903776039097
30
0
41
1
10
47.466342868615
20
-2.42932670990109
30
0
41
1
10
47.4726879870078
20
-2.45534384452179
30
0
41
1
10
47.4896314554692
20
-2.49881543086394
30
0
41
1
10
47.5003852926559
20
-2.51658763900898
30
0
41
1
10
47.5251262686456
20
-2.54374238468191
30
0
41
1
10
47.5391439651596
20
-2.55331269615286
30
0
41
1
10
47.5857272400804
20
-2.5710033313122
30
0
41
1
10
47.6216830748685
20
-2.5678964339709
30
0
41
1
10
47.7011507822908
20
-2.53520752776532
30
0
41
1
10
47.7432899051578
20
-2.50624807594482
30
0
41
1
10
47.8097283710425
20
-2.44426313556633
30
0
41
1
10
47.8323520537198
20
-2.42046433790148
30
0
41
1
10
47.8772638242347
20
-2.36782439156411
30
0
41
1
10
47.8997304430157
20
-2.33882885392637
30
0
41
1
10
47.9446870635761
20
-2.27500905601332
30
0
41
1
10
47.967407201062
20
-2.23977276783714
30
0
41
1
10
48.0112390274806
20
-2.16511798454204
30
0
41
1
10
48.0324471338553
20
-2.12563908984444
30
0
41
1
10
48.0732418240747
20
-2.04175239824193
30
0
41
1
10
48.0926750922978
20
-1.99754226655904
30
0
41
1
10
48.1277094414841
20
-1.90788384484122
30
0
41
1
10
48.1437492977379
20
-1.861226178116
30
0
41
1
10
48.1704800349222
20
-1.76993508529682
30
0
41
1
10
48.1812925044406
20
-1.72520949785428
30
0
41
1
10
48.197439339354
20
-1.63773240453864
30
0
41
1
10
48.2024111974442
20
-1.59683819799534
30
0
41
1
10
48.2064462286299
20
-1.52128116677485
30
0
41
1
10
48.2054347749124
20
-1.48671900531943
30
0
41
1
10
48.1980705875895
20
-1.4266316645338
30
0
41
1
10
48.1916441501362
20
-1.40042076139244
30
0
41
1
10
48.1659767447798
20
-1.33541131494462
30
0
41
1
10
48.1400929442209
20
-1.3089340602217
30
0
41
1
10
48.093514035055
20
-1.29182391657997
30
0
41
1
10
48.0764618743163
20
-1.28981548470517
30
0
41
1
10
48.0405664484305
20
-1.29277384450455
30
0
41
1
10
48.0216945497256
20
-1.29767262577866
30
0
41
1
10
47.9821973575695
20
-1.31395796527701
30
0
41
1
10
47.96141336358
20
-1.32547291226442
30
0
41
1
10
47.9190957420682
20
-1.35446897029726
30
0
41
1
10
47.8975189694899
20
-1.37192263627028
30
0
41
1
10
47.831525701442
20
-1.43321464754385
30
0
41
1
10
47.7853267715147
20
-1.48663399265368
30
0
41
1
10
47.7398158564684
20
-1.55120070724044
30
0
0
SPLINE
5
B9
100
AcDbEntity
8
1
62
256
6
ByLayer
370
18
48
1
60
0
100
AcDbSpline
70
4
71
3
72
20
73
16
40
0
40
0
40
0
40
0
40
0.25
40
0.25
40
0.5
40
0.5
40
0.625
40
0.625
40
0.75
40
0.75
40
0.8125
40
0.8125
40
0.875
40
0.875
40
1
40
1
40
1
40
1
41
1
10
47.2132604332447
20
1.33487633314149
30
0
41
1
10
47.3396157241292
20
1.36365797515717
30
0
41
1
10
47.4652691084401
20
1.39635943267948
30
0
41
1
10
47.7112769119416
20
1.47491447995708
30
0
41
1
10
47.8321236562461
20
1.52043335939325
30
0
41
1
10
48.0046036332863
20
1.60923514167896
30
0
41
1
10
48.0600169847247
20
1.64205007666038
30
0
41
1
10
48.1641199547541
20
1.7182394699372
30
0
41
1
10
48.2126104323864
20
1.76157405611585
30
0
41
1
10
48.2731870736172
20
1.83680013673097
30
0
41
1
10
48.2915841515903
20
1.86401548305102
30
0
41
1
10
48.322151134699
20
1.92108871236459
30
0
41
1
10
48.3344349990217
20
1.95098945659126
30
0
41
1
10
48.3612184783462
20
2.04531767487364
30
0
41
1
10
48.3642498755841
20
2.11179650737159
30
0
41
1
10
48.3553541554805
20
2.17670611088192
30
0
0
SPLINE
5
BA
100
AcDbEntity
8
1
62
256
6
ByLayer
370
18
48
1
60
0
100
AcDbSpline
70
4
71
3
72
14
73
10
40
0
40
0
40
0
40
0
40
0.25
40
0.25
40
0.5
40
0.5
40
0.75
40
0.75
40
1
40
1
40
1
40
1
41
1
10
4.25078856568103
20
-3.30679145397204
30
0
41
1
10
4.22577579860652
20
-3.29518534961872
30
0
41
1
10
4.19969971710213
20
-3.28756120788444
30
0
41
1
10
4.14596416264718
20
-3.28465642585255
30
0
41
1
10
4.11872652520967
20
-3.28990566996501
30
0
41
1
10
4.07071536364757
20
-3.31595442445502
30
0
41
1
10
4.04990215460512
20
-3.33688275846276
30
0
41
1
10
4.01939954598177
20
-3.388064641623
30
0
41
1
10
4.00975645302657
20
-3.41744887783091
30
0
41
1
10
4.00463749381163
20
-3.44757627428578
30
0
0
SPLINE
5
BB
100
AcDbEntity
8
1
62
256
6
ByLayer
370
18
48
1
60
0
100
AcDbSpline
70
4
71
3
72
16
73
12
40
0
40
0
40
0
40
0
40
0.249999999999998
40
0.249999999999998
40
0.374999999999998
40
0.374999999999998
40
0.499999999999998
40
0.499999999999998
40
0.749999999999999
40
0.749999999999999
40
1
40
1
40
1
40
1
41
1
10
8.84674188928113
20
-4.22363146861244
30
0
41
1
10
8.44996636592475
20
-4.22040133777654
30
0
41
1
10
8.05595278232073
20
-4.20223397792984
30
0
41
1
10
7.46716119649901
20
-4.14782354975912
30
0
41
1
10
7.27121172907462
20
-4.12537220159422
30
0
41
1
10
6.88228145916162
20
-4.07102087619856
30
0
41
1
10
6.68906498588552
20
-4.03882193614854
30
0
41
1
10
6.11264968832182
20
-3.92854651771424
30
0
41
1
10
5.73252136667548
20
-3.83734523901816
30
0
41
1
10
4.98251201497334
20
-3.60993010816344
30
0
41
1
10
4.61237507814619
20
-3.47457020395893
30
0
41
1
10
4.25078856737895
20
-3.30679145475989
30
0
0
SPLINE
5
BC
100
AcDbEntity
8
1
62
256
6
ByLayer
370
18
48
1
60
0
100
AcDbSpline
70
4
71
3
72
22
73
18
40
0
40
0
40
0
40
0
40
0.124999999999998
40
0.124999999999998
40
0.187499999999997
40
0.187499999999997
40
0.249999999999996
40
0.249999999999996
40
0.499999999999997
40
0.499999999999997
40
0.624999999999998
40
0.624999999999998
40
0.749999999999999
40
0.749999999999999
40
0.874999999999999
40
0.874999999999999
40
1
40
1
40
1
40
1
41
1
10
47.4542441394362
20
-4.24692932287823
30
0
41
1
10
47.3896113229552
20
-4.24685928011459
30
0
41
1
10
47.3282358823233
20
-4.23695583087314
30
0
41
1
10
47.2413149290354
20
-4.20657729696202
30
0
41
1
10
47.2132006540808
20
-4.19385682367343
30
0
41
1
10
47.1587661266042
20
-4.16300005999958
30
0
41
1
10
47.1324172096603
20
-4.14481181393597
30
0
41
1
10
47.0072197199246
20
-4.04134267309982
30
0
41
1
10
46.9261007856843
20
-3.91835141896499
30
0
41
1
10
46.8348974194234
20
-3.66949253696106
30
0
41
1
10
46.8095671529404
20
-3.57484010744449
30
0
41
1
10
46.7713167885233
20
-3.36885068509608
30
0
41
1
10
46.7581272361008
20
-3.25711878735976
30
0
41
1
10
46.7435849086312
20
-3.01623137620342
30
0
41
1
10
46.7422301331945
20
-2.88707880733722
30
0
41
1
10
46.7519031511772
20
-2.61054665442347
30
0
41
1
10
46.7628668444953
20
-2.46575431149708
30
0
41
1
10
46.7796546935764
20
-2.31563155302661
30
0
0
SPLINE
5
BD
100
AcDbEntity
8
1
62
256
6
ByLayer
370
13
48
1
60
0
100
AcDbSpline
70
4
71
3
72
16
73
12
40
0
40
0
40
0
40
0
40
0.0871829456505907
40
0.0871829456505907
40
0.391455297100394
40
0.391455297100394
40
0.695727648550197
40
0.695727648550197
40
0.847863824275099
40
0.847863824275099
40
1
40
1
40
1
40
1
41
1
10
4.25046017498471
20
-4.22143435107571
30
0
41
1
10
4.25046601864864
20
-4.22128076818467
30
0
41
1
10
4.25047229763331
20
-4.21871705691251
30
0
41
1
10
4.25050251869081
20
-4.19642512846013
30
0
41
1
10
4.2505318550935
20
-4.14914719425889
30
0
41
1
10
4.25059818926073
20
-3.99992346443531
30
0
41
1
10
4.25063522971351
20
-3.89838381452913
30
0
41
1
10
4.25069304920694
20
-3.705505656909
30
0
41
1
10
4.25071276516246
20
-3.63403121733501
30
0
41
1
10
4.2507514378996
20
-3.47931333803865
30
0
41
1
10
4.25077042840769
20
-3.3960167059262
30
0
41
1
10
4.25078856568101
20
-3.30679145397386
30
0
0
SPLINE
5
BE
100
AcDbEntity
8
1
62
256
6
ByLayer
370
13
48
1
60
0
100
AcDbSpline
70
4
71
3
72
8
73
4
40
0
40
0
40
0
40
0
40
1
40
1
40
1
40
1
41
1
10
4.00451620921069
20
2.66592319707306
30
0
41
1
10
4.00926110445596
20
2.63983986698824
30
0
41
1
10
4.01770397587609
20
2.6145298701019
30
0
41
1
10
4.02973467786975
20
2.59086748692417
30
0
0
SPLINE
5
BF
100
AcDbEntity
8
1
62
256
6
ByLayer
370
18
48
1
60
0
100
AcDbSpline
70
4
71
3
72
10
73
6
40
0
40
0
40
0
40
0
40
0.5
40
0.5
40
1
40
1
40
1
40
1
41
1
10
4.01215304437099
20
2.62759368043353
30
0
41
1
10
4.02157072706771
20
2.59411535249148
30
0
41
1
10
4.03604883373239
20
2.56293479184816
30
0
41
1
10
4.07594656080568
20
2.50627060095704
30
0
41
1
10
4.10077394412727
20
2.48179617329524
30
0
41
1
10
4.13037698040296
20
2.46313062787792
30
0
0
SPLINE
5
C0
100
AcDbEntity
8
1
62
256
6
ByLayer
370
18
48
1
60
0
100
AcDbSpline
70
4
71
3
72
98
73
94
40
0
40
0
40
0
40
0
40
0.0307667282590221
40
0.0307667282590221
40
0.0639205211915171
40
0.0639205211915171
40
0.097074314124012
40
0.097074314124012
40
0.11365121059026
40
0.11365121059026
40
0.130228107056507
40
0.130228107056507
40
0.146805003522755
40
0.146805003522755
40
0.163381899989003
40
0.163381899989003
40
0.179958796455251
40
0.179958796455251
40
0.196535692921498
40
0.196535692921498
40
0.213112589387746
40
0.213112589387746
40
0.229689485853994
40
0.229689485853994
40
0.262843278786489
40
0.262843278786489
40
0.295997071718984
40
0.295997071718984
40
0.32915086465148
40
0.32915086465148
40
0.345727761117727
40
0.345727761117727
40
0.362304657583974
40
0.362304657583974
40
0.378881554050221
40
0.378881554050221
40
0.395458450516468
40
0.395458450516468
40
0.412035346982715
40
0.412035346982715
40
0.428612243448963
40
0.428612243448963
40
0.461766036381457
40
0.461766036381457
40
0.478342932847704
40
0.478342932847704
40
0.494919829313951
40
0.494919829313951
40
0.511496725780199
40
0.511496725780199
40
0.528073622246446
40
0.528073622246446
40
0.544650518712693
40
0.544650518712693
40
0.56122741517894
40
0.56122741517894
40
0.594381208111434
40
0.594381208111434
40
0.627535001043927
40
0.627535001043927
40
0.66068879397642
40
0.66068879397642
40
0.677265690442667
40
0.677265690442667
40
0.693842586908914
40
0.693842586908914
40
0.726996379841407
40
0.726996379841407
40
0.743573276307654
40
0.743573276307654
40
0.760150172773902
40
0.760150172773902
40
0.776727069240149
40
0.776727069240149
40
0.793303965706396
40
0.793303965706396
40
0.826457758638889
40
0.826457758638889
40
0.843034655105136
40
0.843034655105136
40
0.859611551571382
40
0.859611551571382
40
0.876188448037629
40
0.876188448037629
40
0.892765344503876
40
0.892765344503876
40
0.925919137436369
40
0.925919137436369
40
0.959072930368863
40
0.959072930368863
40
0.992226723301356
40
0.992226723301356
40
1
40
1
40
1
40
1
41
1
10
14.613561059012
20
3.19411314628235
30
0
41
1
10
14.9351341911012
20
3.31893317653677
30
0
41
1
10
15.2559905487259
20
3.43421702706669
30
0
41
1
10
15.9200503597785
20
3.65616646092815
30
0
41
1
10
16.262461351049
20
3.76190723343939
30
0
41
1
10
16.9479883772914
20
3.95006714857865
30
0
41
1
10
17.2907862114529
20
4.03299697729298
30
0
41
1
10
17.8039660247134
20
4.14135529240551
30
0
41
1
10
17.9749312505087
20
4.17470979346743
30
0
41
1
10
18.3177287230073
20
4.23524542966857
30
0
41
1
10
18.4894013324894
20
4.2625413014114
30
0
41
1
10
18.8331481751794
20
4.31126960753176
30
0
41
1
10
19.0052249734628
20
4.33270087070517
30
0
41
1
10
19.34965556426
20
4.36963655544864
30
0
41
1
10
19.5218899391317
20
4.38515593491877
30
0
41
1
10
19.8677206275411
20
4.40982497815736
30
0
41
1
10
20.0415136884788
20
4.41903690925528
30
0
41
1
10
20.3883849873319
20
4.43116525632428
30
0
41
1
10
20.5613953154889
20
4.43409152929871
30
0
41
1
10
20.9064366338342
20
4.43370458580978
30
0
41
1
10
21.0783223994817
20
4.43036535250874
30
0
41
1
10
21.4219221313953
20
4.41749011215725
30
0
41
1
10
21.5937007673075
20
4.40799000593563
30
0
41
1
10
22.1085602535441
20
4.37042290633747
30
0
41
1
10
22.4509990873016
20
4.33324431545469
30
0
41
1
10
23.1347595376627
20
4.23448722905897
30
0
41
1
10
23.4775944713449
20
4.17370167144099
30
0
41
1
10
24.1637098016012
20
4.02869986898639
30
0
41
1
10
24.5065347817037
20
3.94391908458871
30
0
41
1
10
25.0240740005656
20
3.80100996420057
30
0
41
1
10
25.197000880957
20
3.75066344259392
30
0
41
1
10
25.543561171569
20
3.64435329401061
30
0
41
1
10
25.7173114048216
20
3.58833731379278
30
0
41
1
10
26.0629760947905
20
3.47121498626967
30
0
41
1
10
26.2353767127515
20
3.41024097548535
30
0
41
1
10
26.5800380001779
20
3.28443551798554
30
0
41
1
10
26.7521702453087
20
3.21945564739184
30
0
41
1
10
27.0958605002915
20
3.08516512347634
30
0
41
1
10
27.2674371509071
20
3.01587927894451
30
0
41
1
10
27.6098248030065
20
2.87268815034616
30
0
41
1
10
27.7807106507078
20
2.79887127554693
30
0
41
1
10
28.294056957624
20
2.57309968748461
30
0
41
1
10
28.6365661124387
20
2.41599306702585
30
0
41
1
10
29.1499128555197
20
2.16913272419279
30
0
41
1
10
29.3208303687482
20
2.08474900166405
30
0
41
1
10
29.6635908313191
20
1.91390296751317
30
0
41
1
10
29.8353450303722
20
1.82731160600844
30
0
41
1
10
30.1793978302437
20
1.65146252286289
30
0
41
1
10
30.3516951104013
20
1.56220179099512
30
0
41
1
10
30.6967124586575
20
1.3807304818757
30
0
41
1
10
30.8692903938111
20
1.2882511195574
30
0
41
1
10
31.2156112104614
20
1.10159817578835
30
0
41
1
10
31.389223062996
20
1.00773806538487
30
0
41
1
10
31.7351474454326
20
0.819516200406184
30
0
41
1
10
31.9077545248424
20
0.725037077146993
30
0
41
1
10
32.4243151234336
20
0.440123990688619
30
0
41
1
10
32.7666910776938
20
0.247639269538041
30
0
41
1
10
33.4521775715523
20
-0.133706736978212
30
0
41
1
10
33.7945154677483
20
-0.324008107947179
30
0
41
1
10
34.4778657732657
20
-0.704775212005273
30
0
41
1
10
34.8204041029171
20
-0.892466626392803
30
0
41
1
10
35.3352039661352
20
-1.17052835117954
30
0
41
1
10
35.5069384537325
20
-1.26269082056652
30
0
41
1
10
35.8505505394485
20
-1.44617773632407
30
0
41
1
10
36.0225702042999
20
-1.53724668488806
30
0
41
1
10
36.5405579009147
20
-1.80613904155732
30
0
41
1
10
36.8888443506593
20
-1.98117614604371
30
0
41
1
10
37.4064493436892
20
-2.23500116782105
30
0
41
1
10
37.5784276776253
20
-2.31818741283971
30
0
41
1
10
37.9224048366902
20
-2.47996351175399
30
0
41
1
10
38.0942501710616
20
-2.55881430073404
30
0
41
1
10
38.4375022209819
20
-2.71274627284441
30
0
41
1
10
38.6089131276218
20
-2.78782078733178
30
0
41
1
10
38.9511669883236
20
-2.93436590265691
30
0
41
1
10
39.1218733342853
20
-3.00600794985223
30
0
41
1
10
39.6346984763907
20
-3.21336958757885
30
0
41
1
10
39.9771837192293
20
-3.34211126411748
30
0
41
1
10
40.4908037925843
20
-3.5222391117158
30
0
41
1
10
40.6618620490673
20
-3.58023836391621
30
0
41
1
10
41.004628063518
20
-3.69102971975283
30
0
41
1
10
41.1764655262568
20
-3.74370059923356
30
0
41
1
10
41.5207955924039
20
-3.84388231201822
30
0
41
1
10
41.6933001547317
20
-3.89137987962971
30
0
41
1
10
42.0388630622623
20
-3.98123260264018
30
0
41
1
10
42.2120735418476
20
-4.02369533052365
30
0
41
1
10
42.7313342539532
20
-4.1424855663895
30
0
41
1
10
43.0766743529502
20
-4.20897884288266
30
0
41
1
10
43.7644469018159
20
-4.3184720271895
30
0
41
1
10
44.1063486838397
20
-4.36149772085057
30
0
41
1
10
44.7910577157106
20
-4.4224158640765
30
0
41
1
10
45.1333658159738
20
-4.44068690379387
30
0
41
1
10
45.5552093192491
20
-4.4481259383985
30
0
41
1
10
45.6353211939069
20
-4.44885586130781
30
0
41
1
10
45.7154734436045
20
-4.44890524378386
30
0
0
SPLINE
5
C1
100
AcDbEntity
8
1
62
256
6
ByLayer
370
18
48
1
60
0
100
AcDbSpline
70
4
71
3
72
18
73
14
40
0
40
0
40
0
40
0
40
0.0059555185217276
40
0.0059555185217276
40
0.423883651957696
40
0.423883651957696
40
0.632847718675679
40
0.632847718675679
40
0.73732975203467
40
0.73732975203467
40
0.84181178539366
40
0.84181178539366
40
1
40
1
40
1
40
1
41
1
10
33.9503099865387
20
-0.0083575882576952
30
0
41
1
10
33.9631490328256
20
-0.0153568481299544
30
0
41
1
10
33.9759864340111
20
-0.0223550981323797
30
0
41
1
10
34.889573445614
20
-0.520377837304579
30
0
41
1
10
35.7822093619505
20
-1.00646278365335
30
0
41
1
10
37.126313269807
20
-1.69654084237516
30
0
41
1
10
37.5751507587763
20
-1.92015908354131
30
0
41
1
10
38.2519602511179
20
-2.24171925314042
30
0
41
1
10
38.4781601176863
20
-2.34658667293448
30
0
41
1
10
38.9320522135784
20
-2.55114564080657
30
0
41
1
10
39.1592592624476
20
-2.65058544742945
30
0
41
1
10
39.7276540433032
20
-2.89098046927487
30
0
41
1
10
40.0684495880002
20
-3.02748073084027
30
0
41
1
10
40.408364823182
20
-3.15504362442132
30
0
0
SPLINE
5
C2
100
AcDbEntity
8
1
62
256
6
ByLayer
370
13
48
1
60
0
100
AcDbSpline
70
4
71
3
72
14
73
10
40
0
40
0
40
0
40
0
40
0.237076225241517
40
0.237076225241517
40
0.618538112620756
40
0.618538112620756
40
0.809269056310378
40
0.809269056310378
40
1
40
1
40
1
40
1
41
1
10
40.4083657588453
20
-3.15504397555563
30
0
41
1
10
40.966495238075
20
-3.36449796637157
30
0
41
1
10
41.5222513564334
20
-3.54985632439025
30
0
41
1
10
42.9733087148552
20
-3.96292310932586
30
0
41
1
10
43.8693455080819
20
-4.14761099630363
30
0
41
1
10
45.2325741767229
20
-4.30226546120585
30
0
41
1
10
45.6854816345067
20
-4.33287532236776
30
0
41
1
10
46.5907807340847
20
-4.35192404465775
30
0
41
1
10
47.0432593121447
20
-4.34005966879542
30
0
41
1
10
47.4968919660091
20
-4.30747327077361
30
0
0
SPLINE
5
C3
100
AcDbEntity
8
1
62
256
6
ByLayer
370
18
48
1
60
0
100
AcDbSpline
70
4
71
3
72
65
73
61
40
0
40
0
40
0
40
0
40
0.0625000000000004
40
0.0625000000000004
40
0.125000000000001
40
0.125000000000001
40
0.250000000000003
40
0.250000000000003
40
0.375000000000004
40
0.375000000000004
40
0.500000000000006
40
0.500000000000006
40
0.562500000000007
40
0.562500000000007
40
0.625000000000009
40
0.625000000000009
40
0.65625000000001
40
0.65625000000001
40
0.671875000000009
40
0.671875000000009
40
0.675781250000009
40
0.675781250000009
40
0.679687500000009
40
0.679687500000009
40
0.681640625000009
40
0.681640625000009
40
0.683593750000009
40
0.687500000000009
40
0.687500000000009
40
0.718750000000009
40
0.718750000000009
40
0.734375000000009
40
0.734375000000009
40
0.750000000000008
40
0.750000000000008
40
0.765625000000008
40
0.765625000000008
40
0.781250000000008
40
0.781250000000008
40
0.796875000000008
40
0.796875000000008
40
0.804687500000007
40
0.804687500000007
40
0.812500000000007
40
0.812500000000007
40
0.828125000000007
40
0.828125000000007
40
0.843750000000007
40
0.843750000000007
40
0.859375000000006
40
0.859375000000006
40
0.875000000000006
40
0.875000000000006
40
0.906250000000005
40
0.906250000000005
40
0.921875000000005
40
0.921875000000005
40
0.937500000000004
40
0.937500000000004
40
1
40
1
40
1
40
1
41
1
10
14.5387094417388
20
-3.16491567250276
30
0
41
1
10
14.2178418995645
20
-3.03928426983168
30
0
41
1
10
13.8951498522144
20
-2.90889594406536
30
0
41
1
10
13.2453131439775
20
-2.64158719223622
30
0
41
1
10
12.9175963078106
20
-2.50442444547286
30
0
41
1
10
11.9302194469909
20
-2.0900969561099
30
0
41
1
10
11.2684908475676
20
-1.81102200790323
30
0
41
1
10
9.92874679958115
20
-1.27882991245832
30
0
41
1
10
9.25064435778663
20
-1.02596141324941
30
0
41
1
10
7.87031328856972
20
-0.575973503988649
30
0
41
1
10
7.1680860349814
20
-0.378934648341357
30
0
41
1
10
6.09319511023224
20
-0.141453106893351
30
0
41
1
10
5.73098101460309
20
-0.0718824329728136
30
0
41
1
10
5.00423819913846
20
0.0453050043287533
30
0
41
1
10
4.63892219718767
20
0.0930988199631315
30
0
41
1
10
4.0893623549961
20
0.147572702132578
30
0
41
1
10
3.90584689679506
20
0.162871241588704
30
0
41
1
10
3.63028495674661
20
0.181412321045599
30
0
41
1
10
3.53838469641875
20
0.186858303267087
30
0
41
1
10
3.42345079373533
20
0.192736796228502
30
0
41
1
10
3.40039285255196
20
0.194706111846244
30
0
41
1
10
3.3546924290543
20
0.193398361107484
30
0
41
1
10
3.33153253734306
20
0.190220704120009
30
0
41
1
10
3.29915307570093
20
0.179257231221556
30
0
41
1
10
3.28915097734094
20
0.17409497930953
30
0
41
1
10
3.26926696002531
20
0.163540792120216
30
0
41
1
10
3.23949417843789
20
0.147607211110511
30
0
41
1
10
3.20988444742633
20
0.131360312153617
30
0
41
1
10
3.03290712902054
20
0.0325698112166606
30
0
41
1
10
2.88103748403765
20
-0.0640128985008914
30
0
41
1
10
2.6676499507488
20
-0.226187341330871
30
0
41
1
10
2.59884266513259
20
-0.283216376833025
30
0
41
1
10
2.46712849218863
20
-0.404810515144135
30
0
41
1
10
2.40381449167995
20
-0.469868150972388
30
0
41
1
10
2.28774476557314
20
-0.60678332891186
30
0
41
1
10
2.2348433930934
20
-0.678649595723584
30
0
41
1
10
2.14196656637404
20
-0.830898062928298
30
0
41
1
10
2.1020836778988
20
-0.91169085111224
30
0
41
1
10
2.04162453239235
20
-1.07566357641605
30
0
41
1
10
2.02045565945639
20
-1.15965559622225
30
0
41
1
10
2.00364389531237
20
-1.28885416073365
30
0
41
1
10
2.00058659365959
20
-1.33244478499094
30
0
41
1
10
1.99957039042832
20
-1.41815290266914
30
0
41
1
10
2.00155732294974
20
-1.46059394395914
30
0
41
1
10
2.01449174157935
20
-1.58673280945919
30
0
41
1
10
2.03271164851998
20
-1.67006318847697
30
0
41
1
10
2.08376981594185
20
-1.82894857229789
30
0
41
1
10
2.11636546778354
20
-1.9046190680385
30
0
41
1
10
2.19241028601167
20
-2.05002886967196
30
0
41
1
10
2.23615427431747
20
-2.12012005477766
30
0
41
1
10
2.33101737118861
20
-2.25350427929979
30
0
41
1
10
2.38193765833103
20
-2.31664888333836
30
0
41
1
10
2.54265360617836
20
-2.49781432318699
30
0
41
1
10
2.66027781256335
20
-2.60768709629724
30
0
41
1
10
2.84699460082612
20
-2.76128893549742
30
0
41
1
10
2.91108288843918
20
-2.81063339847171
30
0
41
1
10
3.04086403912231
20
-2.90507106096169
30
0
41
1
10
3.10672254271
20
-2.95030586429328
30
0
41
1
10
3.44000055152048
20
-3.16805319753155
30
0
41
1
10
3.71889812885797
20
-3.31612165464063
30
0
41
1
10
4.00463749374089
20
-3.44757627426571
30
0
0
SPLINE
5
C4
100
AcDbEntity
8
1
62
256
6
ByLayer
370
18
48
1
60
0
100
AcDbSpline
70
4
71
3
72
16
73
12
40
0
40
0
40
0
40
0
40
0.0896631743138563
40
0.0896631743138563
40
0.266513545343491
40
0.266513545343491
40
0.443363916373126
40
0.443363916373126
40
0.797064658432397
40
0.797064658432397
40
1
40
1
40
1
40
1
41
1
10
8.94522898634233
20
-0.0054922551021264
30
0
41
1
10
9.17274448121088
20
-0.129071572789314
30
0
41
1
10
9.40012489499634
20
-0.252558157083001
30
0
41
1
10
10.0761752991708
20
-0.618223628711689
30
0
41
1
10
10.5248790084022
20
-0.859334954452805
30
0
41
1
10
11.425320624629
20
-1.33317169905655
30
0
41
1
10
11.8774486014444
20
-1.56577116676488
30
0
41
1
10
13.2418610209808
20
-2.24085612164714
30
0
41
1
10
14.1391036580659
20
-2.64992162478768
30
0
41
1
10
15.5505111836816
20
-3.20321889300831
30
0
41
1
10
16.0649243380214
20
-3.38608232816392
30
0
41
1
10
16.5813579394829
20
-3.54719739315354
30
0
0
SPLINE
5
C5
100
AcDbEntity
8
1
62
256
6
ByLayer
370
13
48
1
60
0
100
AcDbSpline
70
4
71
3
72
16
73
12
40
0
40
0
40
0
40
0
40
0.180175826696745
40
0.180175826696745
40
0.285850476506953
40
0.285850476506953
40
0.391525126317161
40
0.391525126317161
40
0.60287442593758
40
0.60287442593758
40
1
40
1
40
1
40
1
41
1
10
16.5813579394473
20
-3.5471973931424
30
0
41
1
10
16.9650285123137
20
-3.66689353434515
30
0
41
1
10
17.3498142408235
20
-3.77458598712369
30
0
41
1
10
17.9634612865732
20
-3.9245145466528
30
0
41
1
10
18.1910875481962
20
-3.97540338939171
30
0
41
1
10
18.6440832100387
20
-4.06687009845871
30
0
41
1
10
18.8699682656404
20
-4.10759653303339
30
0
41
1
10
19.5462069788831
20
-4.21458104456411
30
0
41
1
10
19.9951561795207
20
-4.26569898982777
30
0
41
1
10
21.2862730312991
20
-4.35370412902788
30
0
41
1
10
22.1277262385075
20
-4.33882272361191
30
0
41
1
10
22.9772349985759
20
-4.25022793785541
30
0
0
SPLINE
5
C6
100
AcDbEntity
8
1
62
256
6
ByLayer
370
18
48
1
60
0
100
AcDbSpline
70
4
71
3
72
8
73
4
40
0
40
0
40
0
40
0
40
1
40
1
40
1
40
1
41
1
10
4.01215304437852
20
2.62759368040045
30
0
41
1
10
4.00713378785156
20
2.64007145208396
30
0
41
1
10
4.00451578572199
20
2.65290701605363
30
0
41
1
10
4.00451620921069
20
2.66592319707394
30
0
0
SPLINE
5
C7
100
AcDbEntity
8
1
62
256
6
ByLayer
370
18
48
1
60
0
100
AcDbSpline
70
4
71
3
72
8
73
4
40
0
40
0
40
0
40
0
40
1
40
1
40
1
40
1
41
1
10
47.515432030627
20
-4.22152721374658
30
0
41
1
10
47.4920623589303
20
-4.23844462453465
30
0
41
1
10
47.4716495105536
20
-4.24695997339253
30
0
41
1
10
47.45424413944
20
-4.24692932287826
30
0
0
SPLINE
5
C8
100
AcDbEntity
8
1
62
256
6
ByLayer
370
18
48
1
60
0
100
AcDbSpline
70
4
71
3
72
22
73
18
40
0
40
0
40
0
40
0
40
0.189805942974028
40
0.189805942974028
40
0.284708914461043
40
0.284708914461043
40
0.379611885948058
40
0.379611885948058
40
0.569417828922088
40
0.569417828922088
40
0.759223771896118
40
0.759223771896118
40
0.854126743383134
40
0.854126743383134
40
0.949029714870148
40
0.949029714870148
40
1
40
1
40
1
40
1
41
1
10
8.84670381809198
20
-4.22363218548088
30
0
41
1
10
9.21306944126675
20
-4.22662452630433
30
0
41
1
10
9.57895325950369
20
-4.2172118660439
30
0
41
1
10
10.1267531097199
20
-4.18117384243172
30
0
41
1
10
10.3091373908265
20
-4.16563190210636
30
0
41
1
10
10.6741844374999
20
-4.1279624545289
30
0
41
1
10
10.8569357572353
20
-4.10588829755656
30
0
41
1
10
11.4055147722798
20
-4.03034717252834
30
0
41
1
10
11.7720798168753
20
-3.96793517113881
30
0
41
1
10
12.5031385583992
20
-3.81830969625929
30
0
41
1
10
12.8683881290903
20
-3.73037305729014
30
0
41
1
10
13.4160069871851
20
-3.58145658940845
30
0
41
1
10
13.5983757616569
20
-3.52872845001255
30
0
41
1
10
13.9636336024116
20
-3.41790290383568
30
0
41
1
10
14.1465318588799
20
-3.35987339518917
30
0
41
1
10
14.4279351510252
20
-3.26679279112622
30
0
41
1
10
14.526300862085
20
-3.23353189924339
30
0
41
1
10
14.6246193973884
20
-3.19952856396188
30
0
0
SPLINE
5
C9
100
AcDbEntity
8
1
62
256
6
ByLayer
370
18
48
1
60
0
100
AcDbSpline
70
4
71
3
72
32
73
28
40
0
40
0
40
0
40
0
40
0.0549780559377672
40
0.0549780559377672
40
0.110567582059076
40
0.110567582059076
40
0.221746634301691
40
0.221746634301691
40
0.277336160423
40
0.277336160423
40
0.332925686544309
40
0.332925686544309
40
0.388515212665618
40
0.388515212665618
40
0.444104738786927
40
0.444104738786927
40
0.555283791029541
40
0.555283791029541
40
0.610873317150848
40
0.610873317150848
40
0.666462843272156
40
0.666462843272156
40
0.77764189551477
40
0.77764189551477
40
0.888820947757385
40
0.888820947757385
40
1
40
1
40
1
40
1
41
1
10
34.0666846703142
20
4.23762808315385
30
0
41
1
10
34.247760681069
20
4.23632898053964
30
0
41
1
10
34.4287670440314
20
4.23218213209896
30
0
41
1
10
34.7921165790194
20
4.21659208641395
30
0
41
1
10
34.9746238287581
20
4.20511425327899
30
0
41
1
10
35.5220878157473
20
4.16110347684713
30
0
41
1
10
35.8872257931854
20
4.12002091649779
30
0
41
1
10
36.4349257790763
20
4.03632065331692
30
0
41
1
10
36.6175129541565
20
4.0050816121167
30
0
41
1
10
36.9834947426206
20
3.93696210505254
30
0
41
1
10
37.1666932591524
20
3.89987370430776
30
0
41
1
10
37.5323300853564
20
3.81930194477349
30
0
41
1
10
37.7149140865673
20
3.77585663253296
30
0
41
1
10
38.0798262794399
20
3.68360637851254
30
0
41
1
10
38.2621948555836
20
3.63489636128784
30
0
41
1
10
38.8094644167278
20
3.47989777576694
30
0
41
1
10
39.1748763411611
20
3.36444114396389
30
0
41
1
10
39.7234521721166
20
3.17474022161073
30
0
41
1
10
39.9064633749293
20
3.10876384867214
30
0
41
1
10
40.2722101814724
20
2.97295909705562
30
0
41
1
10
40.4549789983174
20
2.90292157821349
30
0
41
1
10
41.0028446561381
20
2.6865549977567
30
0
41
1
10
41.3673164675673
20
2.53326601124132
30
0
41
1
10
42.0976786072282
20
2.21033100724435
30
0
41
1
10
42.4643466889604
20
2.04164295733469
30
0
41
1
10
43.1955166405016
20
1.69071546274981
30
0
41
1
10
43.5606534400146
20
1.51026319124432
30
0
41
1
10
43.9257841503865
20
1.32559185264921
30
0
0
SPLINE
5
CA
100
AcDbEntity
8
1
62
256
6
ByLayer
370
18
48
1
60
0
100
AcDbSpline
70
4
71
3
72
10
73
6
40
0
40
0
40
0
40
0
40
0.5
40
0.5
40
1
40
1
40
1
40
1
41
1
10
4.12855054455684
20
2.5124371500234
30
0
41
1
10
4.10096592040981
20
2.52504659983865
30
0
41
1
10
4.07682505210562
20
2.54159723065845
30
0
41
1
10
4.0369698036211
20
2.58110705483125
30
0
41
1
10
4.02177186483061
20
2.60368148447648
30
0
41
1
10
4.01215304437056
20
2.62759368042623
30
0
0
SPLINE
5
CB
100
AcDbEntity
8
1
62
256
6
ByLayer
370
18
48
1
60
0
100
AcDbSpline
70
4
71
3
72
20
73
16
40
0
40
0
40
0
40
0
40
0.125
40
0.125
40
0.25
40
0.25
40
0.375
40
0.375
40
0.5
40
0.5
40
0.75
40
0.75
40
0.875
40
0.875
40
1
40
1
40
1
40
1
41
1
10
48.3553541554809
20
-2.17670611088184
30
0
41
1
10
48.3215328594742
20
-2.26759799658606
30
0
41
1
10
48.2876662939121
20
-2.35842347370672
30
0
41
1
10
48.2199141539528
20
-2.540046542765
30
0
41
1
10
48.1860003074829
20
-2.63080266072984
30
0
41
1
10
48.1180465515739
20
-2.81212996744705
30
0
41
1
10
48.0840013050181
20
-2.90270609572656
30
0
41
1
10
48.0158043694934
20
-3.0836489035984
30
0
41
1
10
47.9816508163679
20
-3.17383669641552
30
0
41
1
10
47.8791302795156
20
-3.44409179119793
30
0
41
1
10
47.8107647999378
20
-3.62416683738749
30
0
41
1
10
47.7077337671265
20
-3.89179360548437
30
0
41
1
10
47.6733132016734
20
-3.98060666533178
30
0
41
1
10
47.6044252471625
20
-4.15799171019015
30
0
41
1
10
47.569930629329
20
-4.24642350581038
30
0
41
1
10
47.5353048960489
20
-4.33418024373205
30
0
0
SPLINE
5
CC
100
AcDbEntity
8
1
62
256
6
ByLayer
370
18
48
1
60
0
100
AcDbSpline
70
4
71
3
72
14
73
10
40
0
40
0
40
0
40
0
40
0.25
40
0.25
40
0.5
40
0.5
40
0.75
40
0.75
40
1
40
1
40
1
40
1
41
1
10
47.0860955989145
20
1.02533180289589
30
0
41
1
10
47.0767309401681
20
1.05500012920822
30
0
41
1
10
47.0704789665078
20
1.08539665236924
30
0
41
1
10
47.065945124258
20
1.1480889270494
30
0
41
1
10
47.0673520186502
20
1.18078335907359
30
0
41
1
10
47.0847064198069
20
1.2428672379132
30
0
41
1
10
47.1020058454191
20
1.27160129257166
30
0
41
1
10
47.1507960771324
20
1.31404748776885
30
0
41
1
10
47.1815554525262
20
1.32765446377007
30
0
41
1
10
47.2132604332447
20
1.33487633314149
30
0
0
SPLINE
5
CD
100
AcDbEntity
8
1
62
256
6
ByLayer
370
18
48
1
60
0
100
AcDbSpline
70
4
71
3
72
20
73
16
40
0
40
0
40
0
40
0
40
0.125000000000001
40
0.125000000000001
40
0.250000000000003
40
0.250000000000003
40
0.375000000000005
40
0.375000000000005
40
0.500000000000006
40
0.500000000000006
40
0.750000000000003
40
0.750000000000003
40
0.875000000000001
40
0.875000000000001
40
1
40
1
40
1
40
1
41
1
10
48.3553541554808
20
2.17670611088184
30
0
41
1
10
48.3215328594741
20
2.26759799658606
30
0
41
1
10
48.287666293912
20
2.35842347370675
30
0
41
1
10
48.2199141539528
20
2.540046542765
30
0
41
1
10
48.1860003074828
20
2.63080266072984
30
0
41
1
10
48.1180465515739
20
2.81212996744705
30
0
41
1
10
48.0840013050181
20
2.90270609572656
30
0
41
1
10
48.0158043694935
20
3.08364890359843
30
0
41
1
10
47.9816508163679
20
3.17383669641552
30
0
41
1
10
47.8791302795156
20
3.44409179119793
30
0
41
1
10
47.8107647999379
20
3.62416683738746
30
0
41
1
10
47.7077337671264
20
3.89179360548434
30
0
41
1
10
47.6733132016734
20
3.98060666533178
30
0
41
1
10
47.6044252471624
20
4.15799171019015
30
0
41
1
10
47.569930629329
20
4.24642350581036
30
0
41
1
10
47.5353048960489
20
4.33418024373202
30
0
0
SPLINE
5
CE
100
AcDbEntity
8
1
62
256
6
ByLayer
370
18
48
1
60
0
100
AcDbSpline
70
4
71
3
72
20
73
16
40
0
40
0
40
0
40
0
40
0.107794504362634
40
0.107794504362634
40
0.215589008725268
40
0.215589008725268
40
0.431178017450535
40
0.431178017450535
40
0.646767026175802
40
0.646767026175802
40
0.754561530538435
40
0.754561530538435
40
0.862356034901069
40
0.862356034901069
40
1
40
1
40
1
40
1
41
1
10
4.00451620921072
20
2.66592319707377
30
0
41
1
10
4.00452007057277
20
2.78460482752376
30
0
41
1
10
4.00452339870992
20
2.89910746809392
30
0
41
1
10
4.00452911867939
20
3.11648529030657
30
0
41
1
10
4.00453151474687
20
3.21937255665915
30
0
41
1
10
4.00453768831972
20
3.51107857497027
30
0
41
1
10
4.00454045407528
20
3.68311294815825
30
0
41
1
10
4.00454510424359
20
3.98057110019914
30
0
41
1
10
4.00454693507271
20
4.1013940263052
30
0
41
1
10
4.00455018569431
20
4.24137681810637
30
0
41
1
10
4.00455135009139
20
4.28117895207089
30
0
41
1
10
4.00455401331351
20
4.34675033751117
30
0
41
1
10
4.00455551934675
20
4.37249022034939
30
0
41
1
10
4.0045594080064
20
4.4136868677775
30
0
41
1
10
4.00456193369561
20
4.42476870858715
30
0
41
1
10
4.00456487085822
20
4.42388155884467
30
0
0
SPLINE
5
CF
100
AcDbEntity
8
1
62
256
6
ByLayer
370
18
48
1
60
0
100
AcDbSpline
70
4
71
3
72
12
73
8
40
0
40
0
40
0
40
0
40
0.365559820481627
40
0.365559820481627
40
0.9047074415429
40
0.9047074415429
40
1
40
1
40
1
40
1
41
1
10
46.6407334877824
20
-4.24658903384943
30
0
41
1
10
46.0271976758289
20
-4.24610017702295
30
0
41
1
10
45.4141932093642
20
-4.20763399550043
30
0
41
1
10
43.8910609153536
20
-4.02002030533862
30
0
41
1
10
42.9955541379849
20
-3.82918999827476
30
0
41
1
10
41.9429673839304
20
-3.5252535751743
30
0
41
1
10
41.7848969069335
20
-3.47749891606526
30
0
41
1
10
41.6267927490514
20
-3.42770918620965
30
0
0
SPLINE
5
D0
100
AcDbEntity
8
1
62
256
6
ByLayer
370
13
48
1
60
0
100
AcDbSpline
70
4
71
3
72
24
73
20
40
0
40
0
40
0
40
0
40
0.18967837540092
40
0.18967837540092
40
0.247278622351385
40
0.247278622351385
40
0.304878869301849
40
0.304878869301849
40
0.420079363202781
40
0.420079363202781
40
0.650480351004645
40
0.650480351004645
40
0.708080597955109
40
0.708080597955109
40
0.765680844905573
40
0.765680844905573
40
0.880881338806501
40
0.880881338806501
40
1
40
1
40
1
40
1
41
1
10
41.6267927490367
20
-3.42770918620502
30
0
41
1
10
40.8903729064964
20
-3.19579785944634
30
0
41
1
10
40.1532223492
20
-2.91973519232118
30
0
41
1
10
39.1832113610472
20
-2.51130600774107
30
0
41
1
10
38.956140649669
20
-2.41252085638652
30
0
41
1
10
38.5027671291693
20
-2.20974841789982
30
0
41
1
10
38.276786060069
20
-2.10593876950762
30
0
41
1
10
37.6005613508893
20
-1.78798759840544
30
0
41
1
10
37.1520089642034
20
-1.56737286907068
30
0
41
1
10
35.8086065073944
20
-0.887996635677439
30
0
41
1
10
34.9162032134882
20
-0.411355163249141
30
0
41
1
10
33.7908378485764
20
0.188052148997429
30
0
41
1
10
33.5652866800473
20
0.308142046586596
30
0
41
1
10
33.1127908834497
20
0.547903573380353
30
0
41
1
10
32.8853704294088
20
0.667805489726845
30
0
41
1
10
32.2059458956115
20
1.02335192346493
30
0
41
1
10
31.7556414423011
20
1.25506077887701
30
0
41
1
10
30.8421888974568
20
1.71065001704636
30
0
41
1
10
30.3791306722119
20
1.93396444764554
30
0
41
1
10
29.9158564566702
20
2.14645644464198
30
0
0
SPLINE
5
D1
100
AcDbEntity
8
1
62
256
6
ByLayer
370
18
48
1
60
0
100
AcDbSpline
70
4
71
3
72
24
73
20
40
0
40
0
40
0
40
0
40
0.0118091592764207
40
0.0118091592764207
40
0.0761713892433767
40
0.0761713892433767
40
0.333620309111203
40
0.333620309111203
40
0.462344769045115
40
0.462344769045115
40
0.591069228979028
40
0.591069228979028
40
0.719793688912941
40
0.719793688912941
40
0.784155918879898
40
0.784155918879898
40
0.848518148846854
40
0.848518148846854
40
1
40
1
40
1
40
1
41
1
10
11.9330789615947
20
-2.0868741798142
30
0
41
1
10
11.9213376681907
20
-2.09638844745973
30
0
41
1
10
11.9095971634423
20
-2.10592120660184
30
0
41
1
10
11.833874415752
20
-2.16752174508594
30
0
41
1
10
11.7698597417467
20
-2.22013846383621
30
0
41
1
10
11.4499066619051
20
-2.48497124088542
30
0
41
1
10
11.1961897581194
20
-2.70119401172164
30
0
41
1
10
10.8088719713006
20
-3.02002441186858
30
0
41
1
10
10.6781501185623
20
-3.12567500552657
30
0
41
1
10
10.4170022540201
20
-3.32885892834449
30
0
41
1
10
10.286108719883
20
-3.42678375413527
30
0
41
1
10
10.0218362256585
20
-3.61296115306854
30
0
41
1
10
9.88845248660306
20
-3.701205490624
30
0
41
1
10
9.68519121842763
20
-3.82472258412642
30
0
41
1
10
9.61690769244541
20
-3.86442259979054
30
0
41
1
10
9.47908429330423
20
-3.94065734124999
30
0
41
1
10
9.40942143563342
20
-3.97724159655257
30
0
41
1
10
9.17617327066057
20
-4.09301936114022
30
0
41
1
10
9.01196983035584
20
-4.16332798088774
30
0
41
1
10
8.84670381505811
20
-4.22363218658793
30
0
0
SPLINE
5
D2
100
AcDbEntity
8
1
62
256
6
ByLayer
370
18
48
1
60
0
100
AcDbSpline
70
4
71
3
72
92
73
88
40
0
40
0
40
0
40
0
40
0.0024466206636958
40
0.0024466206636958
40
0.0381640983436653
40
0.0381640983436653
40
0.0560228371836505
40
0.0560228371836505
40
0.0738815760236358
40
0.0738815760236358
40
0.091740314863621
40
0.091740314863621
40
0.109599053703606
40
0.109599053703606
40
0.145316531383578
40
0.145316531383578
40
0.163175270223564
40
0.163175270223564
40
0.18103400906355
40
0.18103400906355
40
0.198892747903537
40
0.198892747903537
40
0.216751486743523
40
0.216751486743523
40
0.252468964423497
40
0.252468964423497
40
0.270327703263483
40
0.270327703263483
40
0.28818644210347
40
0.28818644210347
40
0.306045180943457
40
0.306045180943457
40
0.323903919783444
40
0.323903919783444
40
0.341762658623431
40
0.341762658623431
40
0.359621397463418
40
0.359621397463418
40
0.39533887514339
40
0.39533887514339
40
0.413197613983377
40
0.413197613983377
40
0.431056352823363
40
0.431056352823363
40
0.466773830503334
40
0.466773830503334
40
0.502491308183306
40
0.502491308183306
40
0.520350047023292
40
0.520350047023292
40
0.538208785863277
40
0.538208785863277
40
0.573926263543249
40
0.573926263543249
40
0.591785002383234
40
0.591785002383234
40
0.60964374122322
40
0.60964374122322
40
0.627502480063205
40
0.627502480063205
40
0.645361218903191
40
0.645361218903191
40
0.681078696583161
40
0.681078696583161
40
0.698937435423146
40
0.698937435423146
40
0.716796174263131
40
0.716796174263131
40
0.734654913103116
40
0.734654913103116
40
0.752513651943101
40
0.752513651943101
40
0.78823112962307
40
0.78823112962307
40
0.82394860730304
40
0.82394860730304
40
0.841807346143025
40
0.841807346143025
40
0.859666084983009
40
0.859666084983009
40
0.895383562662979
40
0.895383562662979
40
0.931101040342948
40
0.931101040342948
40
0.966818518022918
40
0.966818518022918
40
1
40
1
40
1
40
1
41
1
10
39.6112889927348
20
-3.21339466518899
30
0
41
1
10
39.5862343607043
20
-3.22215198732118
30
0
41
1
10
39.5611761537842
20
-3.23086180235742
30
0
41
1
10
39.1702298320289
20
-3.36595877360938
30
0
41
1
10
38.802812854301
20
-3.48194048268934
30
0
41
1
10
38.2542274211671
20
-3.63707101283472
30
0
41
1
10
38.0715437709335
20
-3.68578126558958
30
0
41
1
10
37.7062083602481
20
-3.77797253627585
30
0
41
1
10
37.523516479304
20
-3.82134410605241
30
0
41
1
10
37.1579128298159
20
-3.90170363683202
30
0
41
1
10
36.9750092441549
20
-3.93863101296188
30
0
41
1
10
36.609050038565
20
-4.00656303563818
30
0
41
1
10
36.4261221840181
20
-4.03778160280328
30
0
41
1
10
35.8763344359631
20
-4.12144498390342
30
0
41
1
10
35.5103522723398
20
-4.1623255232704
30
0
41
1
10
34.9622669639422
20
-4.2059612522267
30
0
41
1
10
34.7796667676213
20
-4.2172860071629
30
0
41
1
10
34.4143760419249
20
-4.23262862009338
30
0
41
1
10
34.2316143180419
20
-4.2366348539696
30
0
41
1
10
33.8657069161012
20
-4.23886055990474
30
0
41
1
10
33.6825817977976
20
-4.23685465129324
30
0
41
1
10
33.3160230992981
20
-4.22580201708348
30
0
41
1
10
33.1330522465709
20
-4.21657679491275
30
0
41
1
10
32.5844007009359
20
-4.17891750946126
30
0
41
1
10
32.2186845219493
20
-4.14196645031834
30
0
41
1
10
31.6706985596322
20
-4.06466527192237
30
0
41
1
10
31.4880294853827
20
-4.0354721221191
30
0
41
1
10
31.1224151275388
20
-3.97176981833931
30
0
41
1
10
30.9394130805879
20
-3.93689722064408
30
0
41
1
10
30.5728753486022
20
-3.86082436123942
30
0
41
1
10
30.3894886323455
20
-3.81964743714562
30
0
41
1
10
30.023532903966
20
-3.73122065448101
30
0
41
1
10
29.8409416163202
20
-3.68386743249766
30
0
41
1
10
29.4755613444516
20
-3.5836990350158
30
0
41
1
10
29.2928476529013
20
-3.53074080781471
30
0
41
1
10
28.9273016315699
20
-3.41847732368422
30
0
41
1
10
28.7445274661962
20
-3.35952754721151
30
0
41
1
10
28.1961403300543
20
-3.17612509273761
30
0
41
1
10
27.8295647128449
20
-3.0436384010321
30
0
41
1
10
27.2803916695604
20
-2.83184667366589
30
0
41
1
10
27.0974932107229
20
-2.75911724844602
30
0
41
1
10
26.7321106796095
20
-2.60867338404117
30
0
41
1
10
26.5497530056721
20
-2.53046891563997
30
0
41
1
10
26.0019688130078
20
-2.29105584529586
30
0
41
1
10
25.6361987748053
20
-2.12568651333336
30
0
41
1
10
24.9041442192838
20
-1.78030370934013
30
0
41
1
10
24.5379060823217
20
-1.60123242829366
30
0
41
1
10
23.9896889048646
20
-1.32656951259654
30
0
41
1
10
23.8070619502373
20
-1.23359537948482
30
0
41
1
10
23.4419229700172
20
-1.0459636409613
30
0
41
1
10
23.2595203679039
20
-0.951122968699565
30
0
41
1
10
22.7114369256963
20
-0.665727917678055
30
0
41
1
10
22.3447374158345
20
-0.473120672298194
30
0
41
1
10
21.795880223397
20
-0.181571770438524
30
0
41
1
10
21.6131837024847
20
-0.0841744388956727
30
0
41
1
10
21.247994942201
20
0.110321407336272
30
0
41
1
10
21.0654537699738
20
0.207308803139398
30
0
41
1
10
20.7002305212885
20
0.400629782805282
30
0
41
1
10
20.5175947695665
20
0.49701169181364
30
0
41
1
10
20.1524036181072
20
0.68937407798586
30
0
41
1
10
19.9699030143542
20
0.785458533411372
30
0
41
1
10
19.4212601155306
20
1.07077879761729
30
0
41
1
10
19.0543988495052
20
1.25824795747545
30
0
41
1
10
18.5066244041357
20
1.53215630013392
30
0
41
1
10
18.3242089531988
20
1.62210881666559
30
0
41
1
10
17.9592348394783
20
1.79951965154021
30
0
41
1
10
17.7766847384437
20
1.88682732767651
30
0
41
1
10
17.4114110503395
20
2.0581558095071
30
0
41
1
10
17.2286821680058
20
2.14220672864627
30
0
41
1
10
16.8631694218152
20
2.30752130159951
30
0
41
1
10
16.6802604878853
20
2.38886908185043
30
0
41
1
10
16.1311038524018
20
2.62584353744816
30
0
41
1
10
15.7656401174608
20
2.77464127197965
30
0
41
1
10
15.0357440503468
20
3.05594826589282
30
0
41
1
10
14.6709506197768
20
3.18683443670039
30
0
41
1
10
14.1224463878144
20
3.3676059853212
30
0
41
1
10
13.9393648836793
20
3.42546771145456
30
0
41
1
10
13.5733719232639
20
3.53608462143026
30
0
41
1
10
13.3908844731047
20
3.58853964768557
30
0
41
1
10
12.8438688206248
20
3.7364826177371
30
0
41
1
10
12.4802049293362
20
3.82346694145829
30
0
41
1
10
11.7548905525396
20
3.9709634784281
30
0
41
1
10
11.3926839573486
20
4.03232867916714
30
0
41
1
10
10.667416231656
20
4.13176524818985
30
0
41
1
10
10.3050743776388
20
4.16951006996865
30
0
41
1
10
9.6037359166103
20
4.215518382521
30
0
41
1
10
9.26471760658333
20
4.22521383862735
30
0
41
1
10
8.92468545176507
20
4.22408096011353
30
0
0
SPLINE
5
D3
100
AcDbEntity
8
1
62
256
6
ByLayer
370
18
48
1
60
0
100
AcDbSpline
70
4
71
3
72
18
73
14
40
0
40
0
40
0
40
0
40
0.107534742365563
40
0.107534742365563
40
0.256278951971303
40
0.256278951971303
40
0.405023161577042
40
0.405023161577042
40
0.702511580788521
40
0.702511580788521
40
0.851255790394261
40
0.851255790394261
40
1
40
1
40
1
40
1
41
1
10
4.00456487181353
20
-4.42388126988283
30
0
41
1
10
4.00456653480248
20
-4.4233775214405
30
0
41
1
10
4.00456832969169
20
-4.41903710986509
30
0
41
1
10
4.00457295045129
20
-4.39957209066878
30
0
41
1
10
4.00457591986225
20
-4.3807627653986
30
0
41
1
10
4.00458234408009
20
-4.32841307592506
30
0
41
1
10
4.00458577829045
20
-4.29509734657992
30
0
41
1
10
4.00459665024178
20
-4.17435455899437
30
0
41
1
10
4.00460467621662
20
-4.06633894352083
30
0
41
1
10
4.00461719060371
20
-3.86173795957498
30
0
41
1
10
4.00462140732753
20
-3.78679056736269
30
0
41
1
10
4.00462963087702
20
-3.62586748566781
30
0
41
1
10
4.00463365632007
20
-3.53959593801918
30
0
41
1
10
4.00463749380936
20
-3.44757627429371
30
0
0
SPLINE
5
D4
100
AcDbEntity
8
1
62
256
6
ByLayer
370
18
48
1
60
0
100
AcDbSpline
70
4
71
3
72
16
73
12
40
0
40
0
40
0
40
0
40
0.215552759179535
40
0.215552759179535
40
0.466777162091537
40
0.466777162091537
40
0.592389363547538
40
0.592389363547538
40
0.71800156500354
40
0.71800156500354
40
1
40
1
40
1
40
1
41
1
10
21.6343431741503
20
-4.23137504053855
30
0
41
1
10
21.2493833206677
20
-4.23089421158161
30
0
41
1
10
20.8650220349759
20
-4.21556952000876
30
0
41
1
10
20.0321535001372
20
-4.15058000490836
30
0
41
1
10
19.5834194649459
20
-4.09560915334194
30
0
41
1
10
18.90758996452
20
-3.98371500562752
30
0
41
1
10
18.6818505299986
20
-3.94150003069379
30
0
41
1
10
18.2291727223493
20
-3.84740386100017
30
0
41
1
10
18.0017569355032
20
-3.79536566960229
30
0
41
1
10
17.2663184263839
20
-3.61232564721843
30
0
41
1
10
16.76085001074
20
-3.46364400494124
30
0
41
1
10
16.2567628089994
20
-3.29561569447367
30
0
0
SPLINE
5
D5
100
AcDbEntity
8
1
62
256
6
ByLayer
370
13
48
1
60
0
100
AcDbSpline
70
4
71
3
72
20
73
16
40
0
40
0
40
0
40
0
40
0.103053848764037
40
0.103053848764037
40
0.337933395793247
40
0.337933395793247
40
0.572812942822457
40
0.572812942822457
40
0.807692489851668
40
0.807692489851668
40
0.86641237660897
40
0.86641237660897
40
0.925132263366273
40
0.925132263366273
40
1
40
1
40
1
40
1
41
1
10
16.2567628091058
20
-3.29561569450911
30
0
41
1
10
15.8626960457049
20
-3.16426069831806
30
0
41
1
10
15.4694733731929
20
-3.02108251796142
30
0
41
1
10
14.179732225679
20
-2.51703598643584
30
0
41
1
10
13.282883177169
20
-2.11182008097879
30
0
41
1
10
11.4652954309995
20
-1.2248698668235
30
0
41
1
10
10.5679778185544
20
-0.753860061911695
30
0
41
1
10
8.77439219919691
20
0.195584868377864
30
0
41
1
10
7.87852228877901
20
0.675713520046941
30
0
41
1
10
6.74519842825012
20
1.25444164457949
30
0
41
1
10
6.51763904457587
20
1.36916596581855
30
0
41
1
10
6.06377471671908
20
1.59457180276422
30
0
41
1
10
5.83714194499396
20
1.70543493641188
30
0
41
1
10
5.32168891830858
20
1.95248860898829
30
0
41
1
10
5.03287953043869
20
2.08720056978859
30
0
41
1
10
4.74378507415258
20
2.21755129110116
30
0
0
SPLINE
5
D6
100
AcDbEntity
8
1
62
256
6
ByLayer
370
18
48
1
60
0
100
AcDbSpline
70
4
71
3
72
8
73
4
40
0
40
0
40
0
40
0
40
1
40
1
40
1
40
1
41
1
10
47.4574843482013
20
-4.41326499455872
30
0
41
1
10
47.4706336139377
20
-4.37802051403648
30
0
41
1
10
47.4837697998674
20
-4.34275576197166
30
0
41
1
10
47.4968919660092
20
-4.30747327077361
30
0
0
SPLINE
5
D7
100
AcDbEntity
8
1
62
256
6
ByLayer
370
18
48
1
60
0
100
AcDbSpline
70
4
71
3
72
24
73
20
40
0
40
0
40
0
40
0
40
0.124999999999995
40
0.124999999999995
40
0.187499999999994
40
0.187499999999994
40
0.249999999999993
40
0.249999999999993
40
0.374999999999991
40
0.374999999999991
40
0.49999999999999
40
0.49999999999999
40
0.562499999999989
40
0.562499999999989
40
0.624999999999988
40
0.624999999999988
40
0.749999999999992
40
0.749999999999992
40
1
40
1
40
1
40
1
41
1
10
43.9257841503863
20
1.32559185264879
30
0
41
1
10
43.9821755638531
20
1.14230467633541
30
0
41
1
10
44.0521805000122
20
0.961021940404464
30
0
41
1
10
44.1745491383112
20
0.691654085864883
30
0
41
1
10
44.2182512483337
20
0.602293643785458
30
0
41
1
10
44.3111536665433
20
0.424382308387834
30
0
41
1
10
44.3604609139977
20
0.335695929819479
30
0
41
1
10
44.5134507142679
20
0.075327091372003
30
0
41
1
10
44.6229496348666
20
-0.0923094929040644
30
0
41
1
10
44.8542709583111
20
-0.417825565379275
30
0
41
1
10
44.9761144599764
20
-0.575688348624226
30
0
41
1
10
45.1670469067945
20
-0.80601616130113
30
0
41
1
10
45.2322368427094
20
-0.881905476429239
30
0
41
1
10
45.3642273629169
20
-1.03049068816239
30
0
41
1
10
45.4309937977845
20
-1.10316290035686
30
0
41
1
10
45.6334212302576
20
-1.31670791118563
30
0
41
1
10
45.7711950919837
20
-1.45314115628204
30
0
41
1
10
46.1917695840473
20
-1.84720107178711
30
0
41
1
10
46.4816931502132
20
-2.08986101780894
30
0
41
1
10
46.7796546935764
20
-2.31563155302661
30
0
0
SPLINE
5
D8
100
AcDbEntity
8
1
62
256
6
ByLayer
370
18
48
1
60
0
100
AcDbSpline
70
4
71
3
72
12
73
8
40
0
40
0
40
0
40
0
40
0.25
40
0.25
40
0.500000000000001
40
0.500000000000001
40
1
40
1
40
1
40
1
41
1
10
47.4968919659884
20
-4.30747327077509
30
0
41
1
10
47.5017845160712
20
-4.29431832719575
30
0
41
1
10
47.5064113766053
20
-4.28091301123936
30
0
41
1
10
47.5138677717932
20
-4.25686138863054
30
0
41
1
10
47.5166786165009
20
-4.24623443118011
30
0
41
1
10
47.5213317646626
20
-4.22280530610931
30
0
41
1
10
47.519619413463
20
-4.2184959484176
30
0
41
1
10
47.515432030627
20
-4.22152721374658
30
0
0
SPLINE
5
D9
100
AcDbEntity
8
1
62
256
6
ByLayer
370
13
48
1
60
0
100
AcDbSpline
70
4
71
3
72
21
73
17
40
0
40
0
40
0
40
0
40
0.212141678299791
40
0.212141678299791
40
0.318212517449686
40
0.318212517449686
40
0.424283356599582
40
0.530354195749477
40
0.530354195749477
40
0.636425034899373
40
0.636425034899373
40
0.848566713199164
40
0.848566713199164
40
0.954637552349059
40
0.954637552349059
40
1
40
1
40
1
40
1
41
1
10
4.25027985087812
20
2.43557176224482
30
0
41
1
10
4.2503120955835
20
2.67095917506185
30
0
41
1
10
4.25033352846879
20
2.88675287294407
30
0
41
1
10
4.25035620571083
20
3.18128038697901
30
0
41
1
10
4.25036214381657
20
3.27420152782418
30
0
41
1
10
4.25037180952444
20
3.44685500537051
30
0
41
1
10
4.25037933383317
20
3.60722459894555
30
0
41
1
10
4.25038484847329
20
3.74333278985131
30
0
41
1
10
4.25039040006331
20
3.86708788010773
30
0
41
1
10
4.25039321433658
20
3.92300686857601
30
0
41
1
10
4.25040299888403
20
4.06856820281581
30
0
41
1
10
4.25041140639539
20
4.13726362670567
30
0
41
1
10
4.25043103506567
20
4.19839960343623
30
0
41
1
10
4.25043875083881
20
4.21175305114235
30
0
41
1
10
4.25045171583673
20
4.22032976314389
30
0
41
1
10
4.25045583520341
20
4.22155289847407
30
0
41
1
10
4.25046019702603
20
4.22143376041365
30
0
0
SPLINE
5
DA
100
AcDbEntity
8
SK1
62
256
6
ByLayer
370
18
48
1
60
0
100
AcDbSpline
70
4
71
3
72
14
73
10
40
0
40
0
40
0
40
0
40
0.124999999999999
40
0.124999999999999
40
0.249999999999997
40
0.249999999999997
40
0.499999999999998
40
0.499999999999998
40
1
40
1
40
1
40
1
41
1
10
-38.85
20
3.16990934071603
30
0
41
1
10
-38.85
20
3.1784322436242
30
0
41
1
10
-38.8517453396944
20
3.1848781531782
30
0
41
1
10
-38.8568901241517
20
3.19423716920718
30
0
41
1
10
-38.860211966304
20
3.19723334125655
30
0
41
1
10
-38.8714485682308
20
3.20336702311764
30
0
41
1
10
-38.8802054040538
20
3.20352485640325
30
0
41
1
10
-38.9082792076556
20
3.19813843693129
30
0
41
1
10
-38.9286347141249
20
3.18686470162063
30
0
41
1
10
-38.95
20
3.17000614809979
30
0
0
SPLINE
5
DB
100
AcDbEntity
8
SK1
62
256
6
ByLayer
370
18
48
1
60
0
100
AcDbSpline
70
4
71
3
72
10
73
6
40
0
40
0
40
0
40
0
40
0.5
40
0.5
40
1
40
1
40
1
40
1
41
1
10
-40
20
0.0773628614480515
30
0
41
1
10
-39.8300550395376
20
0.219825282071184
30
0
41
1
10
-39.6562362217553
20
0.36137299074494
30
0
41
1
10
-39.3053142529543
20
0.643692897120133
30
0
41
1
10
-39.1281046064878
20
0.784439948655688
30
0
41
1
10
-38.95
20
0.924975678359232
30
0
0
SPLINE
5
DC
100
AcDbEntity
8
SK1
62
256
6
ByLayer
370
18
48
1
60
0
100
AcDbSpline
70
4
71
3
72
14
73
10
40
0
40
0
40
0
40
0
40
0.5
40
0.5
40
0.750000000000002
40
0.750000000000002
40
0.875000000000001
40
0.875000000000001
40
1
40
1
40
1
40
1
41
1
10
-38.9500000000001
20
0.924975678359175
30
0
41
1
10
-38.9287234691649
20
0.94176419857456
30
0
41
1
10
-38.9083432483059
20
0.964033750197586
30
0
41
1
10
-38.880223151313
20
1.00772221266351
30
0
41
1
10
-38.8713218079587
20
1.02401231126603
30
0
41
1
10
-38.8602667834558
20
1.05150800984055
30
0
41
1
10
-38.8569157654531
20
1.06130376181326
30
0
41
1
10
-38.851744720606
20
1.08244225566114
30
0
41
1
10
-38.8499999999999
20
1.09369630193225
30
0
41
1
10
-38.8499999999999
20
1.10448130855474
30
0
0
SPLINE
5
DD
100
AcDbEntity
8
SK1
62
256
6
ByLayer
370
18
48
1
60
0
100
AcDbSpline
70
4
71
3
72
10
73
6
40
0
40
0
40
0
40
0
40
0.5
40
0.5
40
1
40
1
40
1
40
1
41
1
10
-38.95
20
3.17000614809979
30
0
41
1
10
-39.1281021891728
20
3.02947232580973
30
0
41
1
10
-39.3053148246314
20
2.88872291224479
30
0
41
1
10
-39.6562371270631
20
2.60640272685362
30
0
41
1
10
-39.8300558091376
20
2.46485510666719
30
0
41
1
10
-40
20
2.32239333118861
30
0
0
LINE
5
76
100
AcDbEntity
8
81
62
256
6
ByLayer
370
18
48
1
60
0
100
AcDbLine
10
49
20
0
30
0
11
54
21
0
31
0
39
0
210
0
220
0
230
1
0
LINE
5
77
100
AcDbEntity
8
1
62
256
6
ByLayer
370
18
48
1
60
0
100
AcDbLine
10
4.004562
20
4.423882
30
0
11
1.231362
21
4.422218
31
0
39
0
210
0
220
0
230
1
0
LINE
5
79
100
AcDbEntity
8
1
62
256
6
ByLayer
370
18
48
1
60
0
100
AcDbLine
10
21.434326
20
4.434339
30
0
11
20.707309
21
4.433903
31
0
39
0
210
0
220
0
230
1
0
LINE
5
7A
100
AcDbEntity
8
1
62
256
6
ByLayer
370
18
48
1
60
0
100
AcDbLine
10
20.707309
20
-4.433903
30
0
11
21.434517
21
-4.43434
31
0
39
0
210
0
220
0
230
1
0
LINE
5
7B
100
AcDbEntity
8
1
62
256
6
ByLayer
370
18
48
1
60
0
100
AcDbLine
10
1.231362
20
-4.422218
30
0
11
4.004562
21
-4.423882
31
0
39
0
210
0
220
0
230
1
0
LINE
5
7C
100
AcDbEntity
8
SK1
62
256
6
ByLayer
370
18
48
1
60
0
100
AcDbLine
10
-38.845299
20
5
30
0
11
-40
21
3
31
0
39
0
210
0
220
0
230
1
0
LINE
5
7E
100
AcDbEntity
8
SK1
62
256
6
ByLayer
370
18
48
1
60
0
100
AcDbLine
10
-40
20
-3
30
0
11
-38.845299
21
-5
31
0
39
0
210
0
220
0
230
1
0
LINE
5
7F
100
AcDbEntity
8
SK1
62
256
6
ByLayer
370
18
48
1
60
0
100
AcDbLine
10
0
20
5
30
0
11
-38.845299
21
5
31
0
39
0
210
0
220
0
230
1
0
LINE
5
80
100
AcDbEntity
8
SK1
62
256
6
ByLayer
370
18
48
1
60
0
100
AcDbLine
10
-38.845299
20
-5
30
0
11
0
21
-5
31
0
39
0
210
0
220
0
230
1
0
LINE
5
81
100
AcDbEntity
8
1
62
256
6
ByLayer
370
18
48
1
60
0
100
AcDbLine
10
46.434861
20
4.44934
30
0
11
45.71608
21
4.448909
31
0
39
0
210
0
220
0
230
1
0
LINE
5
82
100
AcDbEntity
8
1
62
256
6
ByLayer
370
18
48
1
60
0
100
AcDbLine
10
45.71608
20
-4.448909
30
0
11
46.434824
21
-4.44934
31
0
39
0
210
0
220
0
230
1
0
LINE
5
83
100
AcDbEntity
8
4
62
256
6
ByLayer
370
18
48
0.05
60
0
100
AcDbLine
10
49
20
0
30
0
11
0
21
0
31
0
39
0
210
0
220
0
230
1
0
LINE
5
85
100
AcDbEntity
8
SK4
62
256
6
ByLayer
370
18
48
0.05
60
0
100
AcDbLine
10
54
20
0
30
0
11
-45
21
0
31
0
39
0
210
0
220
0
230
1
0
LINE
5
87
100
AcDbEntity
8
80
62
256
6
ByLayer
370
18
48
1
60
0
100
AcDbLine
10
0
20
0
30
0
11
-5
21
0
31
0
39
0
210
0
220
0
230
1
0
LINE
5
88
100
AcDbEntity
8
1
62
256
6
ByLayer
370
18
48
1
60
0
100
AcDbLine
10
49
20
0
30
0
11
47.454244
21
-4.246929
31
0
39
0
210
0
220
0
230
1
0
LINE
5
89
100
AcDbEntity
8
1
62
256
6
ByLayer
370
18
48
1
60
0
100
AcDbLine
10
46.779655
20
-2.315632
30
0
11
48.89465
21
-0.130813
31
0
39
0
210
0
220
0
230
1
0
LINE
5
8A
100
AcDbEntity
8
1
62
256
6
ByLayer
370
13
48
1
60
0
100
AcDbLine
10
48.77954
20
0.843054
30
0
11
48.008369
21
0.843054
31
0
39
0
210
0
220
0
230
1
0
LINE
5
8B
100
AcDbEntity
8
1
62
256
6
ByLayer
370
13
48
1
60
0
100
AcDbLine
10
48.008369
20
0.843054
30
0
11
48.915193
21
0.305006
31
0
39
0
210
0
220
0
230
1
0
LINE
5
8C
100
AcDbEntity
8
1
62
256
6
ByLayer
370
18
48
1
60
0
100
AcDbLine
10
48.991266
20
0.043481
30
0
11
49
21
0
31
0
39
0
210
0
220
0
230
1
0
LINE
5
8D
100
AcDbEntity
8
1
62
256
6
ByLayer
370
13
48
1
60
0
100
AcDbLine
10
0.615441
20
4.711109
30
0
11
0.615441
21
-4.711109
31
0
39
0
210
0
220
0
230
1
0
LINE
5
8E
100
AcDbEntity
8
1
62
256
6
ByLayer
370
18
48
1
60
0
100
AcDbLine
10
49
20
0
30
0
11
48.991266
21
-0.043481
31
0
39
0
210
0
220
0
230
1
0
LINE
5
8F
100
AcDbEntity
8
1
62
256
6
ByLayer
370
13
48
1
60
0
100
AcDbLine
10
1.231362
20
4.422218
30
0
11
1.231362
21
-4.422218
31
0
39
0
210
0
220
0
230
1
0
LINE
5
90
100
AcDbEntity
8
1
62
256
6
ByLayer
370
13
48
1
60
0
100
AcDbLine
10
47.818462
20
0.507725
30
0
11
48.89465
21
-0.130813
31
0
39
0
210
0
220
0
230
1
0
LINE
5
91
100
AcDbEntity
8
1
62
256
6
ByLayer
370
18
48
1
60
0
100
AcDbLine
10
0
20
-5
30
0
11
0
21
5
31
0
39
0
210
0
220
0
230
1
0
LINE
5
92
100
AcDbEntity
8
1
62
256
6
ByLayer
370
18
48
1
60
0
100
AcDbLine
10
48.915193
20
-0.305006
30
0
11
48.77954
21
-0.843054
31
0
39
0
210
0
220
0
230
1
0
LINE
5
93
100
AcDbEntity
8
1
62
256
6
ByLayer
370
18
48
1
60
0
100
AcDbLine
10
48.915193
20
0.305006
30
0
11
48.77954
21
0.843054
31
0
39
0
210
0
220
0
230
1
0
LINE
5
94
100
AcDbEntity
8
SK1
62
256
6
ByLayer
370
18
48
1
60
0
100
AcDbLine
10
-38.85
20
1.104481
30
0
11
-38.85
21
3.169909
31
0
39
0
210
0
220
0
230
1
0
LINE
5
95
100
AcDbEntity
8
SK1
62
256
6
ByLayer
370
18
48
1
60
0
100
AcDbLine
10
-40
20
3
30
0
11
-40
21
2.322393
31
0
39
0
210
0
220
0
230
1
0
LINE
5
96
100
AcDbEntity
8
SK1
62
256
6
ByLayer
370
18
48
1
60
0
100
AcDbLine
10
-40
20
0.077363
30
0
11
-40
21
-3
31
0
39
0
210
0
220
0
230
1
0
LINE
5
97
100
AcDbEntity
8
SK1
62
256
6
ByLayer
370
13
48
1
60
0
100
AcDbLine
10
-38.95
20
3.170006
30
0
11
-38.95
21
0.924996
31
0
39
0
210
0
220
0
230
1
0
LINE
5
98
100
AcDbEntity
8
SK1
62
256
6
ByLayer
370
18
48
1
60
0
100
AcDbLine
10
-40
20
2.322393
30
0
11
-40
21
0.077384
31
0
39
0
210
0
220
0
230
1
0
LINE
5
99
100
AcDbEntity
8
SK1
62
256
6
ByLayer
370
18
48
1
60
0
100
AcDbLine
10
0
20
-5
30
0
11
0
21
5
31
0
39
0
210
0
220
0
230
1
0
LINE
5
9A
100
AcDbEntity
8
SK1
62
256
6
ByLayer
370
18
48
1
60
0
100
AcDbLine
10
-38.845299
20
5
30
0
11
-38.845299
21
-5
31
0
39
0
210
0
220
0
230
1
0
MTEXT
5
DE
100
AcDbEntity
8
SK6
62
256
6
ByLayer
370
13
48
1
60
0
100
AcDbMText
10
6.629169
20
36.832694
30
0
210
0
220
0
230
1
1
\W0.7542;R840-0890-30-A1A1220
40
3.5
41
0
44
1.084337
50
0
71
8
72
5
7
iso_b_vert
0
DIMENSION
5
EB
100
AcDbEntity
8
SK2
62
256
6
ByLayer
370
13
48
1
60
0
100
AcDbDimension
2
DimnDraft3D1
10
47.48
20
-14.663398
30
0
11
22.230059
21
-14.663398
31
0
70
32
71
5
72
1
41
1
210
0
220
0
230
1
3
Standard
100
AcDbAlignedDimension
13
0
23
-1.5875
33
0
14
47.48
24
-6.0375
34
0
50
0
100
AcDbRotatedDimension
1001
ACAD
1000
DSTYLE
1002
{
1070
   279
1070
     0
1070
   172
1070
     1
1070
   173
1070
     1
1070
   340
1005
DF
1070
   271
1070
     2
1070
   272
1070
     2
1070
    77
1070
     1
1070
    73
1070
     0
1070
   171
1070
     3
1070
   274
1070
     4
1070
   177
1070
    35
1070
   176
1070
    35
1070
   178
1070
    35
1070
    48
1040
-0.005
1070
    41
1041
3.5
1070
   147
1041
1.75
1070
    42
1041
1.5875
1070
    44
1041
2.0
1070
   140
1041
3.5
1070
   343
1005
0
1070
   344
1005
0
1002
}
0
DIMENSION
5
F5
100
AcDbEntity
8
SK2
62
256
6
ByLayer
370
13
48
1
60
0
100
AcDbDimension
2
DimnDraft3D2
10
49
20
-33.692985
30
0
11
4.3213
21
-33.692985
31
0
70
32
71
5
72
1
41
1
210
0
220
0
230
1
3
Standard
100
AcDbAlignedDimension
13
-40
23
-6.5875
33
0
14
49
24
-1.5875
34
0
50
0
100
AcDbRotatedDimension
1001
ACAD
1000
DSTYLE
1002
{
1070
   279
1070
     0
1070
   172
1070
     1
1070
   173
1070
     1
1070
   340
1005
DF
1070
   271
1070
     2
1070
   272
1070
     2
1070
    77
1070
     1
1070
    73
1070
     0
1070
   171
1070
     3
1070
   274
1070
     4
1070
   177
1070
    35
1070
   176
1070
    35
1070
   178
1070
    35
1070
    48
1040
-0.005
1070
    41
1041
3.5
1070
   147
1041
1.75
1070
    42
1041
1.5875
1070
    44
1041
2.0
1070
   140
1041
3.5
1070
   343
1005
0
1070
   344
1005
0
1002
}
0
DIMENSION
5
FF
100
AcDbEntity
8
SK2
62
256
6
ByLayer
370
13
48
1
60
0
100
AcDbDimension
2
DimnDraft3D3
10
49
20
16.059119
30
0
11
34.89
21
16.059119
31
0
70
32
71
5
72
1
41
1
210
0
220
0
230
1
3
Standard
100
AcDbAlignedDimension
13
20.78
23
6.0375
33
0
14
49
24
1.5875
34
0
50
0
100
AcDbRotatedDimension
1001
ACAD
1000
DSTYLE
1002
{
1070
   279
1070
     0
1070
   172
1070
     1
1070
   173
1070
     1
1070
   340
1005
DF
1070
   271
1070
     2
1070
   272
1070
     2
1070
    77
1070
     1
1070
    73
1070
     0
1070
   171
1070
     3
1070
   274
1070
     4
1070
   177
1070
    35
1070
   176
1070
    35
1070
   178
1070
    35
1070
    48
1040
-0.005
1070
    41
1041
3.5
1070
   147
1041
1.75
1070
    42
1041
1.5875
1070
    44
1041
2.0
1070
   140
1041
3.5
1070
   343
1005
0
1070
   344
1005
0
1002
}
0
DIMENSION
5
109
100
AcDbEntity
8
SK2
62
256
6
ByLayer
370
13
48
1
60
0
100
AcDbDimension
2
DimnDraft3D4
10
47.48
20
-17.252503
30
0
11
58.981425
21
-17.252503
31
0
70
32
71
5
72
1
41
1
210
0
220
0
230
1
3
Standard
100
AcDbAlignedDimension
13
49
23
-1.5875
33
0
14
47.48
24
-6.0375
34
0
50
0
100
AcDbRotatedDimension
1001
ACAD
1000
DSTYLE
1002
{
1070
   279
1070
     0
1070
   172
1070
     1
1070
   173
1070
     1
1070
   340
1005
DF
1070
   271
1070
     2
1070
   272
1070
     2
1070
    77
1070
     1
1070
    73
1070
     0
1070
   171
1070
     3
1070
   274
1070
     4
1070
   177
1070
    35
1070
   176
1070
    35
1070
   178
1070
    35
1070
    48
1040
-0.005
1070
    41
1041
3.5
1070
   147
1041
1.75
1070
    42
1041
1.5875
1070
    44
1041
2.0
1070
   140
1041
3.5
1070
   343
1005
0
1070
   344
1005
0
1002
}
0
DIMENSION
5
113
100
AcDbEntity
8
SK2
62
256
6
ByLayer
370
13
48
1
60
0
100
AcDbDimension
2
DimnDraft3D5
10
47.48
20
-23.343428
30
0
11
1.240676
21
-23.343428
31
0
70
32
71
5
72
1
41
1
210
0
220
0
230
1
3
Standard
100
AcDbAlignedDimension
13
-40
23
-6.5875
33
0
14
47.48
24
-6.0375
34
0
50
0
100
AcDbRotatedDimension
1001
ACAD
1000
DSTYLE
1002
{
1070
   279
1070
     0
1070
   172
1070
     1
1070
   173
1070
     1
1070
   340
1005
DF
1070
   271
1070
     2
1070
   272
1070
     2
1070
    77
1070
     1
1070
    73
1070
     0
1070
   171
1070
     3
1070
   274
1070
     4
1070
   177
1070
    35
1070
   176
1070
    35
1070
   178
1070
    35
1070
    48
1040
-0.005
1070
    41
1041
3.5
1070
   147
1041
1.75
1070
    42
1041
1.5875
1070
    44
1041
2.0
1070
   140
1041
3.5
1070
   343
1005
0
1070
   344
1005
0
1002
}
0
DIMENSION
5
11E
100
AcDbEntity
8
SK2
62
256
6
ByLayer
370
13
48
1
60
0
100
AcDbDimension
2
DimnDraft3D6
10
-50.625163
20
5
30
0
11
-51.250163
21
23.47418
31
0
70
33
71
5
72
1
41
1
210
0
220
0
230
1
3
Standard
100
AcDbAlignedDimension
13
-41.5875
23
-5
33
0
14
-41.5875
24
5
34
0
1001
ACAD
1000
DSTYLE
1002
{
1070
   279
1070
     0
1070
    74
1070
     0
1070
   173
1070
     1
1070
   340
1005
DF
1070
   271
1070
     3
1070
   272
1070
     2
1070
    77
1070
     1
1070
    73
1070
     0
1070
   171
1070
     3
1070
   274
1070
     4
1070
   177
1070
    35
1070
   176
1070
    35
1070
   178
1070
    35
1070
    48
1040
-0.005
1070
    41
1041
3.5
1070
   147
1041
1.75
1070
    42
1041
1.5875
1070
    44
1041
2.0
1070
   140
1041
3.5
1070
   343
1005
0
1070
   344
1005
0
1002
}
0
DIMENSION
5
129
100
AcDbEntity
8
2
62
256
6
ByLayer
370
13
48
1
60
0
100
AcDbDimension
2
DimnDraft3D7
10
63.083343
20
4.45
30
0
11
58.458343
21
21.517266
31
0
70
33
71
5
72
1
41
1
210
0
220
0
230
1
3
Standard
100
AcDbAlignedDimension
13
49.0675
23
-4.45
33
0
14
49.0675
24
4.45
34
0
1001
ACAD
1000
DSTYLE
1002
{
1070
   279
1070
     0
1070
    74
1070
     0
1070
   173
1070
     1
1070
   340
1005
DF
1070
   271
1070
     3
1070
   272
1070
     2
1070
    77
1070
     1
1070
    73
1070
     0
1070
   171
1070
     3
1070
   274
1070
     4
1070
   177
1070
    35
1070
   176
1070
    35
1070
   178
1070
    35
1070
    48
1040
-0.005
1070
    41
1041
3.5
1070
   147
1041
1.75
1070
    42
1041
1.5875
1070
    44
1041
2.0
1070
   140
1041
3.5
1070
   343
1005
0
1070
   344
1005
0
1002
}
0
ENDSEC
0
SECTION
2
OBJECTS
0
DICTIONARY
5
194
330
0
100
AcDbDictionary
280
0
281
1
3
ACAD_GROUP
350
195
3
ACAD_MLINESTYLE
350
196
0
DICTIONARY
5
195
330
0
100
AcDbDictionary
280
0
281
1
0
DICTIONARY
5
196
330
0
100
AcDbDictionary
280
0
281
1
3
Standard
350
18
0
MLINESTYLE
5
18
330
196
100
AcDbMlineStyle
2
Standard
70
0
3

62
256
51
90
52
90
71
2
49
-0.5
62
256
6
ByLayer
49
0.5
62
256
6
ByLayer
0
RASTERVARIABLES
5
182
330

100
AcDbRasterVariables
90
0
70
1
71
1
72
1
0
ENDSEC
0
EOF
