0
SECTION
2
HEADER
9
$ACADVER
1
AC1015
9
$DWGCODEPAGE
3
ANSI_1252
9
$HANDSEED
5
1ac
9
$ANGBASE
50
0
9
$ANGDIR
70
0
9
$ATTMODE
70
1
9
$AUNITS
70
0
9
$AUPREC
70
0
9
$CECOLOR
62
256
9
$CELTSCALE
40
1
9
$CELTYPE
6
ByLayer
9
$CELWEIGHT
370
18
9
$CLAYER
8
0
9
$CMLJUST
70
0
9
$CMLSCALE
40
1
9
$CMLSTYLE
2
Standard
9
$DIMSTYLE
2
Standard
9
$TEXTSIZE
40
0.2
9
$TEXTSTYLE
7
Standard
9
$LUNITS
70
2
9
$LUPREC
70
4
9
$EXTNAMES
290
1
9
$INSUNITS
70
4
9
$LTSCALE
40
1
9
$LWDISPLAY
290
1
9
$PDMODE
70
0
9
$PDSIZE
40
0
9
$PLINEGEN
70
0
0
ENDSEC
0
SECTION
2
CLASSES
0
CLASS
1
RASTERVARIABLES
2
AcDbRasterVariables
3
ISM
90
0
280
0
281
0
0
ENDSEC
0
SECTION
2
TABLES
0
TABLE
2
VPORT
5
1a2
100
AcDbSymbolTable
0
VPORT
5
1
100
AcDbSymbolTableRecord
100
AcDbViewportTableRecord
2
*Active
70
0
10
0
20
0
11
1
21
1
12
-1
22
1
13
0
23
0
14
0.5
24
0.5
15
10
25
10
16
0
26
0
36
1
17
0
27
0
37
0
0
ENDTAB
0
TABLE
2
LTYPE
5
1a3
100
AcDbSymbolTable
0
LTYPE
5
14
100
AcDbSymbolTableRecord
100
AcDbLinetypeTableRecord
70
0
2
ByBlock
3

72
65
73
0
40
0
0
LTYPE
5
15
100
AcDbSymbolTableRecord
100
AcDbLinetypeTableRecord
70
0
2
ByLayer
3

72
65
73
0
40
0
0
LTYPE
5
16
100
AcDbSymbolTableRecord
100
AcDbLinetypeTableRecord
70
0
2
CONTINUOUS
3
Solid line
72
65
73
0
40
0
0
LTYPE
5
6A
100
AcDbSymbolTableRecord
100
AcDbLinetypeTableRecord
70
0
2
CENTER
3
____ _ ____ _ ____ _ ____
72
65
73
4
40
47.5
49
22
74
0
49
-8.5
74
0
49
8.5
74
0
49
-8.5
74
0
0
LTYPE
5
6B
100
AcDbSymbolTableRecord
100
AcDbLinetypeTableRecord
70
0
2
DASHED
3
__ __ __ __ __ __ __ __ __
72
65
73
2
40
25.72
49
12.86
74
0
49
-12.86
74
0
0
ENDTAB
0
TABLE
2
LAYER
5
1a4
100
AcDbSymbolTable
0
LAYER
5
10
100
AcDbSymbolTableRecord
100
AcDbLayerTableRecord
2
0
70
0
62
7
6
CONTINUOUS
290
1
370
-3
390
0
0
LAYER
5
6D
100
AcDbSymbolTableRecord
100
AcDbLayerTableRecord
2
81
70
0
62
-3
6
CONTINUOUS
290
1
370
-3
390
0
0
LAYER
5
6F
100
AcDbSymbolTableRecord
100
AcDbLayerTableRecord
2
80
70
0
62
-6
6
CONTINUOUS
290
1
370
-3
390
0
0
LAYER
5
74
100
AcDbSymbolTableRecord
100
AcDbLayerTableRecord
2
2
70
0
62
7
6
CONTINUOUS
290
1
370
-3
390
0
0
LAYER
5
78
100
AcDbSymbolTableRecord
100
AcDbLayerTableRecord
2
1
70
0
62
4
6
CONTINUOUS
290
1
370
-3
390
0
0
LAYER
5
88
100
AcDbSymbolTableRecord
100
AcDbLayerTableRecord
2
4
70
0
62
-2
6
CENTER
290
1
370
-3
390
0
0
LAYER
5
18e
100
AcDbSymbolTableRecord
100
AcDbLayerTableRecord
2
SK2
70
0
62
7
6
CONTINUOUS
290
1
370
-3
390
0
0
LAYER
5
18f
100
AcDbSymbolTableRecord
100
AcDbLayerTableRecord
2
SK1
70
0
62
4
6
CONTINUOUS
290
1
370
-3
390
0
0
LAYER
5
190
100
AcDbSymbolTableRecord
100
AcDbLayerTableRecord
2
SK4
70
0
62
2
6
CENTER
290
1
370
-3
390
0
0
LAYER
5
191
100
AcDbSymbolTableRecord
100
AcDbLayerTableRecord
2
SK6
70
0
62
5
6
CONTINUOUS
290
1
370
-3
390
0
0
ENDTAB
0
TABLE
2
STYLE
5
1a5
100
AcDbSymbolTable
0
STYLE
5
11
100
AcDbSymbolTableRecord
100
AcDbTextStyleTableRecord
2
Standard
3
txt
70
0
71
0
40
0
41
1
42
0
50
0
0
STYLE
5
EA
100
AcDbSymbolTableRecord
100
AcDbTextStyleTableRecord
2
iso_b_vert
3
simplex.shx
70
0
71
0
40
0
41
1
42
0
50
0
0
STYLE
5
EB
100
AcDbSymbolTableRecord
100
AcDbTextStyleTableRecord
2
DWGDirectTextStyle
3
simplex
70
0
71
0
40
0
41
1
42
0
50
0
0
ENDTAB
0
TABLE
2
DIMSTYLE
5
1a6
100
AcDbSymbolTable
100
AcDbDimStyleTable
0
DIMSTYLE
105
27
100
AcDbSymbolTableRecord
100
AcDbDimStyleTableRecord
2
Standard
70
0
3
<>
41
0.18
42
0.0625
44
0.18
140
0.18
147
0.09
73
0
74
0
77
1
271
2
275
0
278
52
280
0
340
11
0
ENDTAB
0
TABLE
2
VIEW
5
1a7
100
AcDbSymbolTable
0
ENDTAB
0
TABLE
2
UCS
5
1a8
100
AcDbSymbolTable
0
ENDTAB
0
TABLE
2
APPID
5
1a9
100
AcDbSymbolTable
0
APPID
5
12
100
AcDbSymbolTableRecord
100
AcDbRegAppTableRecord
2
ACAD
70
0
0
ENDTAB
0
TABLE
2
BLOCK_RECORD
5
1aa
100
AcDbSymbolTable
0
BLOCK_RECORD
5
1F
100
AcDbSymbolTableRecord
100
AcDbBlockTableRecord
2
*Model_Space
340
0
70
0
0
BLOCK_RECORD
5
1B
100
AcDbSymbolTableRecord
100
AcDbBlockTableRecord
2
*Paper_Space
340
0
70
0
0
BLOCK_RECORD
5
23
100
AcDbSymbolTableRecord
100
AcDbBlockTableRecord
2
*Paper_Space0
340
0
70
0
0
BLOCK_RECORD
5
ED
100
AcDbSymbolTableRecord
100
AcDbBlockTableRecord
2
DimnDraft3D1
340
0
70
0
0
BLOCK_RECORD
5
F7
100
AcDbSymbolTableRecord
100
AcDbBlockTableRecord
2
DimnDraft3D2
340
0
70
0
0
BLOCK_RECORD
5
101
100
AcDbSymbolTableRecord
100
AcDbBlockTableRecord
2
DimnDraft3D3
340
0
70
0
0
BLOCK_RECORD
5
10B
100
AcDbSymbolTableRecord
100
AcDbBlockTableRecord
2
DimnDraft3D4
340
0
70
0
0
BLOCK_RECORD
5
115
100
AcDbSymbolTableRecord
100
AcDbBlockTableRecord
2
DimnDraft3D5
340
0
70
0
0
BLOCK_RECORD
5
11F
100
AcDbSymbolTableRecord
100
AcDbBlockTableRecord
2
DimnDraft3D6
340
0
70
0
0
BLOCK_RECORD
5
12A
100
AcDbSymbolTableRecord
100
AcDbBlockTableRecord
2
DimnDraft3D7
340
0
70
0
0
ENDTAB
0
ENDSEC
0
SECTION
2
BLOCKS
0
BLOCK
5
20
100
AcDbEntity
8
0
100
AcDbBlockBegin
2
*Model_Space
70
0
10
0
20
0
30
0
3
*Model_Space
0
ENDBLK
5
21
100
AcDbEntity
8
0
100
AcDbBlockEnd
0
BLOCK
5
1C
100
AcDbEntity
8
0
100
AcDbBlockBegin
2
*Paper_Space
70
0
10
0
20
0
30
0
3
*Paper_Space
0
ENDBLK
5
1D
100
AcDbEntity
8
0
100
AcDbBlockEnd
0
BLOCK
5
24
100
AcDbEntity
8
0
100
AcDbBlockBegin
2
*Paper_Space0
70
0
10
0
20
0
30
0
3
*Paper_Space0
0
ENDBLK
5
25
100
AcDbEntity
8
0
100
AcDbBlockEnd
0
BLOCK
5
F4
100
AcDbEntity
8
0
100
AcDbBlockBegin
2
DimnDraft3D1
70
0
10
0
20
0
30
0
3
DimnDraft3D1
0
MTEXT
5
EE
100
AcDbEntity
8
SK2
62
256
6
ByLayer
370
13
48
1
60
0
100
AcDbMText
10
33.301375
20
-13.738398
30
0
210
0
220
0
230
1
1
\W0.7317;78,50
40
3.5
41
0
44
1.084337
50
0
71
7
72
5
7
iso_b_vert
0
LINE
5
EF
100
AcDbEntity
8
SK2
62
256
6
ByLayer
370
13
48
1
60
0
100
AcDbLine
10
0
20
-1.5875
30
0
11
0
21
-16.613398
31
0
39
0
210
0
220
0
230
1
0
LINE
5
F0
100
AcDbEntity
8
SK2
62
256
6
ByLayer
370
13
48
1
60
0
100
AcDbLine
10
78.5
20
-5.9875
30
0
11
78.5
21
-16.613398
31
0
39
0
210
0
220
0
230
1
0
LINE
5
F1
100
AcDbEntity
8
SK2
62
256
6
ByLayer
370
13
48
1
60
0
100
AcDbLine
10
0
20
-14.613398
30
0
11
78.5
21
-14.613398
31
0
39
0
210
0
220
0
230
1
0
SOLID
5
F2
100
AcDbEntity
8
SK2
62
256
6
ByLayer
370
13
48
1
60
0
100
AcDbTrace
10
0
20
-14.613398
30
0
11
3.499998
21
-14.152615
31
0
12
3.500002
22
-15.074182
32
0
13
0
23
-14.613398
33
0
39
0
210
0
220
0
230
1
0
SOLID
5
F3
100
AcDbEntity
8
SK2
62
256
6
ByLayer
370
13
48
1
60
0
100
AcDbTrace
10
78.5
20
-14.613398
30
0
11
75.000002
21
-15.074182
31
0
12
74.999998
22
-14.152615
32
0
13
78.5
23
-14.613398
33
0
39
0
210
0
220
0
230
1
0
ENDBLK
5
F5
100
AcDbEntity
8
0
100
AcDbBlockEnd
0
BLOCK
5
FE
100
AcDbEntity
8
0
100
AcDbBlockBegin
2
DimnDraft3D2
70
0
10
0
20
0
30
0
3
DimnDraft3D2
0
MTEXT
5
F8
100
AcDbEntity
8
SK2
62
256
6
ByLayer
370
13
48
1
60
0
100
AcDbMText
10
14.522221
20
-32.817985
30
0
210
0
220
0
230
1
1
\W0.6930;120,00
40
3.5
41
0
44
1.084337
50
0
71
7
72
5
7
iso_b_vert
0
LINE
5
F9
100
AcDbEntity
8
SK2
62
256
6
ByLayer
370
13
48
1
60
0
100
AcDbLine
10
-40
20
-6.5875
30
0
11
-40
21
-35.692985
31
0
39
0
210
0
220
0
230
1
0
LINE
5
FA
100
AcDbEntity
8
SK2
62
256
6
ByLayer
370
13
48
1
60
0
100
AcDbLine
10
80
20
-1.5875
30
0
11
80
21
-35.692985
31
0
39
0
210
0
220
0
230
1
0
LINE
5
FB
100
AcDbEntity
8
SK2
62
256
6
ByLayer
370
13
48
1
60
0
100
AcDbLine
10
-40
20
-33.692985
30
0
11
80
21
-33.692985
31
0
39
0
210
0
220
0
230
1
0
SOLID
5
FC
100
AcDbEntity
8
SK2
62
256
6
ByLayer
370
13
48
1
60
0
100
AcDbTrace
10
-40
20
-33.692985
30
0
11
-36.500002
21
-33.232202
31
0
12
-36.499998
22
-34.153769
32
0
13
-40
23
-33.692985
33
0
39
0
210
0
220
0
230
1
0
SOLID
5
FD
100
AcDbEntity
8
SK2
62
256
6
ByLayer
370
13
48
1
60
0
100
AcDbTrace
10
80
20
-33.692985
30
0
11
76.500002
21
-34.153769
31
0
12
76.499998
22
-33.232202
32
0
13
80
23
-33.692985
33
0
39
0
210
0
220
0
230
1
0
ENDBLK
5
FF
100
AcDbEntity
8
0
100
AcDbBlockEnd
0
BLOCK
5
108
100
AcDbEntity
8
0
100
AcDbBlockBegin
2
DimnDraft3D3
70
0
10
0
20
0
30
0
3
DimnDraft3D3
0
MTEXT
5
102
100
AcDbEntity
8
SK2
62
256
6
ByLayer
370
13
48
1
60
0
100
AcDbMText
10
40.038816
20
16.884119
30
0
210
0
220
0
230
1
1
\W0.6713;71,90
40
3.5
41
0
44
1.084337
50
0
71
7
72
5
7
iso_b_vert
0
LINE
5
103
100
AcDbEntity
8
SK2
62
256
6
ByLayer
370
13
48
1
60
0
100
AcDbLine
10
8.1
20
5.9875
30
0
11
8.1
21
18.009119
31
0
39
0
210
0
220
0
230
1
0
LINE
5
104
100
AcDbEntity
8
SK2
62
256
6
ByLayer
370
13
48
1
60
0
100
AcDbLine
10
80
20
1.5875
30
0
11
80
21
18.009119
31
0
39
0
210
0
220
0
230
1
0
LINE
5
105
100
AcDbEntity
8
SK2
62
256
6
ByLayer
370
13
48
1
60
0
100
AcDbLine
10
8.1
20
16.009119
30
0
11
80
21
16.009119
31
0
39
0
210
0
220
0
230
1
0
SOLID
5
106
100
AcDbEntity
8
SK2
62
256
6
ByLayer
370
13
48
1
60
0
100
AcDbTrace
10
8.1
20
16.009119
30
0
11
11.599998
21
16.469903
31
0
12
11.600002
22
15.548335
32
0
13
8.1
23
16.009119
33
0
39
0
210
0
220
0
230
1
0
SOLID
5
107
100
AcDbEntity
8
SK2
62
256
6
ByLayer
370
13
48
1
60
0
100
AcDbTrace
10
80
20
16.009119
30
0
11
76.500002
21
15.548335
31
0
12
76.499998
22
16.469903
32
0
13
80
23
16.009119
33
0
39
0
210
0
220
0
230
1
0
ENDBLK
5
109
100
AcDbEntity
8
0
100
AcDbBlockEnd
0
BLOCK
5
112
100
AcDbEntity
8
0
100
AcDbBlockBegin
2
DimnDraft3D4
70
0
10
0
20
0
30
0
3
DimnDraft3D4
0
MTEXT
5
10C
100
AcDbEntity
8
SK2
62
256
6
ByLayer
370
13
48
1
60
0
100
AcDbMText
10
87.278136
20
-16.327503
30
0
210
0
220
0
230
1
1
\W0.6367;1,50
40
3.5
41
0
44
1.084337
50
0
71
7
72
5
7
iso_b_vert
0
LINE
5
10D
100
AcDbEntity
8
SK2
62
256
6
ByLayer
370
13
48
1
60
0
100
AcDbLine
10
80
20
-1.5875
30
0
11
80
21
-19.202503
31
0
39
0
210
0
220
0
230
1
0
LINE
5
10E
100
AcDbEntity
8
SK2
62
256
6
ByLayer
370
13
48
1
60
0
100
AcDbLine
10
78.5
20
-5.9875
30
0
11
78.5
21
-19.202503
31
0
39
0
210
0
220
0
230
1
0
LINE
5
10F
100
AcDbEntity
8
SK2
62
256
6
ByLayer
370
13
48
1
60
0
100
AcDbLine
10
69.75
20
-17.202503
30
0
11
93.559715
21
-17.202503
31
0
39
0
210
0
220
0
230
1
0
SOLID
5
110
100
AcDbEntity
8
SK2
62
256
6
ByLayer
370
13
48
1
60
0
100
AcDbTrace
10
80
20
-17.202503
30
0
11
83.499998
21
-16.741719
31
0
12
83.500002
22
-17.663287
32
0
13
80
23
-17.202503
33
0
39
0
210
0
220
0
230
1
0
SOLID
5
111
100
AcDbEntity
8
SK2
62
256
6
ByLayer
370
13
48
1
60
0
100
AcDbTrace
10
78.5
20
-17.202503
30
0
11
75.000002
21
-17.663287
31
0
12
74.999998
22
-16.741719
32
0
13
78.5
23
-17.202503
33
0
39
0
210
0
220
0
230
1
0
ENDBLK
5
113
100
AcDbEntity
8
0
100
AcDbBlockEnd
0
BLOCK
5
11C
100
AcDbEntity
8
0
100
AcDbBlockBegin
2
DimnDraft3D5
70
0
10
0
20
0
30
0
3
DimnDraft3D5
0
MTEXT
5
116
100
AcDbEntity
8
SK2
62
256
6
ByLayer
370
13
48
1
60
0
100
AcDbMText
10
11.879097
20
-22.468428
30
0
210
0
220
0
230
1
1
\W0.6440;118,50
40
3.5
41
0
44
1.084337
50
0
71
7
72
5
7
iso_b_vert
0
LINE
5
117
100
AcDbEntity
8
SK2
62
256
6
ByLayer
370
13
48
1
60
0
100
AcDbLine
10
-40
20
-6.5875
30
0
11
-40
21
-25.343428
31
0
39
0
210
0
220
0
230
1
0
LINE
5
118
100
AcDbEntity
8
SK2
62
256
6
ByLayer
370
13
48
1
60
0
100
AcDbLine
10
78.5
20
-5.9875
30
0
11
78.5
21
-25.343428
31
0
39
0
210
0
220
0
230
1
0
LINE
5
119
100
AcDbEntity
8
SK2
62
256
6
ByLayer
370
13
48
1
60
0
100
AcDbLine
10
-40
20
-23.343428
30
0
11
78.5
21
-23.343428
31
0
39
0
210
0
220
0
230
1
0
SOLID
5
11A
100
AcDbEntity
8
SK2
62
256
6
ByLayer
370
13
48
1
60
0
100
AcDbTrace
10
-40
20
-23.343428
30
0
11
-36.500002
21
-22.882645
31
0
12
-36.499998
22
-23.804212
32
0
13
-40
23
-23.343428
33
0
39
0
210
0
220
0
230
1
0
SOLID
5
11B
100
AcDbEntity
8
SK2
62
256
6
ByLayer
370
13
48
1
60
0
100
AcDbTrace
10
78.5
20
-23.343428
30
0
11
75.000002
21
-23.804212
31
0
12
74.999998
22
-22.882645
32
0
13
78.5
23
-23.343428
33
0
39
0
210
0
220
0
230
1
0
ENDBLK
5
11D
100
AcDbEntity
8
0
100
AcDbBlockEnd
0
BLOCK
5
127
100
AcDbEntity
8
0
100
AcDbBlockBegin
2
DimnDraft3D6
70
0
10
0
20
0
30
0
3
DimnDraft3D6
0
MTEXT
5
120
100
AcDbEntity
8
SK2
62
256
6
ByLayer
370
13
48
1
60
0
100
AcDbMText
10
-50.375163
20
24.34918
30
0
210
0
220
0
230
1
1
\W0.6930;10,000
40
3.5
41
0
44
1.084337
50
90
71
7
72
5
7
iso_b_vert
0
MTEXT
5
121
100
AcDbEntity
8
SK2
62
256
6
ByLayer
370
13
48
1
60
0
100
AcDbMText
10
-50.375163
20
19.126524
30
0
210
0
220
0
230
1
1
%%c
40
3.5
41
0
44
1.084337
50
90
71
7
72
5
7
iso_b_vert
0
LINE
5
122
100
AcDbEntity
8
SK2
62
256
6
ByLayer
370
13
48
1
60
0
100
AcDbLine
10
-41.5875
20
-5
30
0
11
-50.625163
21
-5
31
0
39
0
210
0
220
0
230
1
0
LINE
5
123
100
AcDbEntity
8
SK2
62
256
6
ByLayer
370
13
48
1
60
0
100
AcDbLine
10
-41.5875
20
5
30
0
11
-50.625163
21
5
31
0
39
0
210
0
220
0
230
1
0
LINE
5
124
100
AcDbEntity
8
SK2
62
256
6
ByLayer
370
13
48
1
60
0
100
AcDbLine
10
-48.625163
20
-5
30
0
11
-48.625163
21
35.862338
31
0
39
0
210
0
220
0
230
1
0
SOLID
5
125
100
AcDbEntity
8
SK2
62
256
6
ByLayer
370
13
48
1
60
0
100
AcDbTrace
10
-48.625163
20
-5
30
0
11
-49.085946
21
-1.500002
31
0
12
-48.164379
22
-1.499998
32
0
13
-48.625163
23
-5
33
0
39
0
210
0
220
0
230
1
0
SOLID
5
126
100
AcDbEntity
8
SK2
62
256
6
ByLayer
370
13
48
1
60
0
100
AcDbTrace
10
-48.625163
20
5
30
0
11
-48.164379
21
1.500002
31
0
12
-49.085946
22
1.499998
32
0
13
-48.625163
23
5
33
0
39
0
210
0
220
0
230
1
0
ENDBLK
5
128
100
AcDbEntity
8
0
100
AcDbBlockEnd
0
BLOCK
5
132
100
AcDbEntity
8
0
100
AcDbBlockBegin
2
DimnDraft3D7
70
0
10
0
20
0
30
0
3
DimnDraft3D7
0
MTEXT
5
12B
100
AcDbEntity
8
2
62
256
6
ByLayer
370
13
48
1
60
0
100
AcDbMText
10
90.333343
20
22.342266
30
0
210
0
220
0
230
1
1
\W0.7317;8,800
40
3.5
41
0
44
1.084337
50
90
71
7
72
5
7
iso_b_vert
0
MTEXT
5
12C
100
AcDbEntity
8
2
62
256
6
ByLayer
370
13
48
1
60
0
100
AcDbMText
10
90.333343
20
17.11961
30
0
210
0
220
0
230
1
1
%%c
40
3.5
41
0
44
1.084337
50
90
71
7
72
5
7
iso_b_vert
0
LINE
5
12D
100
AcDbEntity
8
2
62
256
6
ByLayer
370
13
48
1
60
0
100
AcDbLine
10
80.0875
20
-4.4
30
0
11
94.083343
21
-4.4
31
0
39
0
210
0
220
0
230
1
0
LINE
5
12E
100
AcDbEntity
8
2
62
256
6
ByLayer
370
13
48
1
60
0
100
AcDbLine
10
80.0875
20
4.4
30
0
11
94.083343
21
4.4
31
0
39
0
210
0
220
0
230
1
0
LINE
5
12F
100
AcDbEntity
8
2
62
256
6
ByLayer
370
13
48
1
60
0
100
AcDbLine
10
92.083343
20
-4.4
30
0
11
92.083343
21
32.114635
31
0
39
0
210
0
220
0
230
1
0
SOLID
5
130
100
AcDbEntity
8
2
62
256
6
ByLayer
370
13
48
1
60
0
100
AcDbTrace
10
92.083343
20
-4.4
30
0
11
91.622559
21
-0.900002
31
0
12
92.544126
22
-0.899998
32
0
13
92.083343
23
-4.4
33
0
39
0
210
0
220
0
230
1
0
SOLID
5
131
100
AcDbEntity
8
2
62
256
6
ByLayer
370
13
48
1
60
0
100
AcDbTrace
10
92.083343
20
4.4
30
0
11
92.544126
21
0.900002
31
0
12
91.622559
22
0.899998
32
0
13
92.083343
23
4.4
33
0
39
0
210
0
220
0
230
1
0
ENDBLK
5
133
100
AcDbEntity
8
0
100
AcDbBlockEnd
0
ENDSEC
0
SECTION
2
ENTITIES
0
ARC
5
9C
100
AcDbEntity
8
1
62
256
6
ByLayer
370
18
48
1
60
0
100
AcDbCircle
39
0
10
0
20
4.2
30
0
40
0.800000000000001
210
0
220
0
230
1
100
AcDbArc
50
36.585726
51
90
0
ARC
5
9D
100
AcDbEntity
8
1
62
256
6
ByLayer
370
18
48
1
60
0
100
AcDbCircle
39
0
10
-1.284746
20
-5.15364
30
0
40
0.8
210
0
220
0
230
-1
100
AcDbArc
50
36.585726
51
90.034377
0
ARC
5
9E
100
AcDbEntity
8
1
62
256
6
ByLayer
370
18
48
1
60
0
100
AcDbCircle
39
0
10
0
20
-4.2
30
0
40
0.800000000000001
210
0
220
0
230
1
100
AcDbArc
50
270
51
323.414274
0
ARC
5
9F
100
AcDbEntity
8
1
62
256
6
ByLayer
370
18
48
1
60
0
100
AcDbCircle
39
0
10
-1.284746
20
5.15364
30
0
40
0.8
210
0
220
0
230
-1
100
AcDbArc
50
269.965623
51
323.414274
0
ELLIPSE
5
A0
100
AcDbEntity
8
1
62
256
6
ByLayer
370
18
48
1
60
0
100
AcDbEllipse
10
7.25
20
4.406986
30
0
11
0.25
21
0
31
0
210
0
220
0
230
1
40
0.999992
41
-2.9024988520554
42
-1.56532054352601
0
ELLIPSE
5
A1
100
AcDbEntity
8
1
62
256
6
ByLayer
370
18
48
1
60
0
100
AcDbEllipse
10
7.25
20
-4.406986
30
0
11
0.25
21
0
31
0
210
0
220
0
230
1
40
0.999992
41
1.56895885023082
42
2.90211146044845
0
ELLIPSE
5
A2
100
AcDbEntity
8
1
62
256
6
ByLayer
370
18
48
1
60
0
100
AcDbEllipse
10
80.000383
20
0.000961
30
0
11
1.61858808383435
21
4.39797228389328
31
0
210
0
220
0
230
-1
40
0.098637
41
2.87643871393148
42
2.97661392386955
0
ELLIPSE
5
A3
100
AcDbEntity
8
1
62
256
6
ByLayer
370
13
48
1
60
0
100
AcDbEllipse
10
79.016355
20
0.625454
30
0
11
0.15308208161242
21
0.258003636193772
31
0
210
0
220
0
230
1
40
0.454519
41
0.917105603404795
42
2.31336900500038
0
ELLIPSE
5
A4
100
AcDbEntity
8
1
62
256
6
ByLayer
370
13
48
1
60
0
100
AcDbEllipse
10
79.415679
20
2.021122
30
0
11
2.46559161712868
21
-1.6976299408529
31
0
210
0
220
0
230
-1
40
0.533762
41
1.44484622743479
42
1.74083328004167
0
ELLIPSE
5
A5
100
AcDbEntity
8
1
62
256
6
ByLayer
370
13
48
1
60
0
100
AcDbEllipse
10
79.605586
20
2.144319
30
0
11
2.5396885213467
21
-1.34793951535097
31
0
210
0
220
0
230
-1
40
0.497772
41
1.53874345337461
42
1.86279609982036
0
ELLIPSE
5
A6
100
AcDbEntity
8
1
62
256
6
ByLayer
370
18
48
1
60
0
100
AcDbEllipse
10
80.034101
20
-0.021591
30
0
11
0.140634104899309
21
0.431000092502249
31
0
210
0
220
0
230
-1
40
0.07518
41
-2.31001430903619
42
-1.64498006141503
0
ELLIPSE
5
A7
100
AcDbEntity
8
1
62
256
6
ByLayer
370
18
48
1
60
0
100
AcDbEllipse
10
79.159149
20
-2.144319
30
0
11
0.6796727374056
21
1.84678356186047
31
0
210
0
220
0
230
-1
40
0.098637
41
0.74911268472048
42
1.5314206659706
0
ELLIPSE
5
A8
100
AcDbEntity
8
1
62
256
6
ByLayer
370
18
48
1
60
0
100
AcDbEllipse
10
80.000383
20
-0.000961
30
0
11
1.61858806889515
21
-4.39797224037201
31
0
210
0
220
0
230
-1
40
0.098637
41
-2.97661392305433
42
-2.87643871261215
0
ELLIPSE
5
A9
100
AcDbEntity
8
1
62
256
6
ByLayer
370
18
48
1
60
0
100
AcDbEllipse
10
80.034101
20
0.021591
30
0
11
0.140634104925084
21
-0.431000092569456
31
0
210
0
220
0
230
-1
40
0.07518
41
1.64498006151923
42
2.31001430904098
0
ELLIPSE
5
AA
100
AcDbEntity
8
1
62
256
6
ByLayer
370
18
48
1
60
0
100
AcDbEllipse
10
79.159149
20
2.144319
30
0
11
0.679672737408098
21
-1.84678356186595
31
0
210
0
220
0
230
-1
40
0.098637
41
-1.53142066596781
42
-0.749112684719514
0
ELLIPSE
5
AB
100
AcDbEntity
8
1
62
256
6
ByLayer
370
18
48
1
60
0
100
AcDbEllipse
10
79.860143
20
0.124806
30
0
11
0.0727819104943838
21
0.301917195706511
31
0
210
0
220
0
230
-1
40
0.478434
41
1.72853204555906
42
2.45976119972448
0
POINT
5
6C
100
AcDbEntity
8
81
62
256
6
ByLayer
370
18
48
1
60
0
100
AcDbPoint
10
80
20
0
30
0
39
0
210
0
220
0
230
1
50
360
0
POINT
5
6E
100
AcDbEntity
8
80
62
256
6
ByLayer
370
18
48
1
60
0
100
AcDbPoint
10
0
20
0
30
0
39
0
210
0
220
0
230
1
50
360
0
POINT
5
70
100
AcDbEntity
8
SK2
62
256
6
ByLayer
370
18
48
1
60
1
100
AcDbPoint
10
-40
20
-5
30
0
39
0
210
0
220
0
230
1
50
360
0
POINT
5
72
100
AcDbEntity
8
SK2
62
256
6
ByLayer
370
18
48
1
60
1
100
AcDbPoint
10
-40
20
5
30
0
39
0
210
0
220
0
230
1
50
360
0
POINT
5
73
100
AcDbEntity
8
2
62
256
6
ByLayer
370
18
48
1
60
1
100
AcDbPoint
10
78.5
20
-4.4
30
0
39
0
210
0
220
0
230
1
50
360
0
POINT
5
75
100
AcDbEntity
8
2
62
256
6
ByLayer
370
18
48
1
60
1
100
AcDbPoint
10
78.5
20
4.4
30
0
39
0
210
0
220
0
230
1
50
360
0
SPLINE
5
AC
100
AcDbEntity
8
1
62
256
6
ByLayer
370
18
48
1
60
0
100
AcDbSpline
70
4
71
3
72
17
73
13
40
0
40
0
40
0
40
0
40
0.0737988077659593
40
0.156546136317374
40
0.221337839513117
40
0.28351504465563
40
0.343567020469742
40
0.583628570816926
40
0.726396910270611
40
0.871720672766239
40
0.945260130468745
40
1
40
1
40
1
40
1
41
1
10
7.25091229231299
20
-4.15694726313006
30
0
41
1
10
7.42755222905774
20
-4.15765772196562
30
0
41
1
10
7.8022518063205
20
-4.15896245155835
30
0
41
1
10
8.33204918363214
20
-4.16026514419411
30
0
41
1
10
8.83401019809833
20
-4.16084805996465
30
0
41
1
10
9.28155441954968
20
-4.16103259672389
30
0
41
1
10
10.1471020372012
20
-4.16019027702649
30
0
41
1
10
11.2098309542644
20
-4.16174384095416
30
0
41
1
10
12.4691444970688
20
-4.16411734227947
30
0
41
1
10
13.3192480130886
20
-4.15963275267248
30
0
41
1
10
13.954829882084
20
-4.14628691017933
30
0
41
1
10
14.2635435495029
20
-4.14561120434362
30
0
41
1
10
14.3949232441711
20
-4.14639742379097
30
0
0
SPLINE
5
AD
100
AcDbEntity
8
1
62
256
6
ByLayer
370
18
48
1
60
0
100
AcDbSpline
70
4
71
3
72
9
73
5
40
0
40
0
40
0
40
0
40
0.511744429017495
40
1
40
1
40
1
40
1
41
1
10
14.8936702897292
20
-4.15375210444023
30
0
41
1
10
14.9577200442418
20
-4.15499657221611
30
0
41
1
10
15.0811713801158
20
-4.15736841060371
30
0
41
1
10
15.2000900885036
20
-4.158975834084
30
0
41
1
10
15.2574178028557
20
-4.15976567494704
30
0
0
SPLINE
5
AE
100
AcDbEntity
8
1
62
256
6
ByLayer
370
18
48
1
60
0
100
AcDbSpline
70
4
71
3
72
31
73
27
40
0
40
0
40
0
40
0
40
0.0378220897622709
40
0.0752912904832108
40
0.124887020283338
40
0.17681615591973
40
0.222771883655032
40
0.259335533018445
40
0.288965097194678
40
0.321281490425197
40
0.355562711803751
40
0.394605437603302
40
0.438614681040807
40
0.486926028897048
40
0.527799146416511
40
0.558117106460158
40
0.579334171786119
40
0.611501758635405
40
0.656833541844884
40
0.697734675146923
40
0.72838338055328
40
0.757926664730129
40
0.811325304150454
40
0.878147468981586
40
0.954832668389523
40
1
40
1
40
1
40
1
41
1
10
52.5960031073172
20
-4.18375950740162
30
0
41
1
10
52.7420882917431
20
-4.18314676174433
30
0
41
1
10
53.0388535137748
20
-4.18153631886665
30
0
41
1
10
53.5536653263578
20
-4.17446419551726
30
0
41
1
10
54.1444758541456
20
-4.17297812016398
30
0
41
1
10
54.7517658304003
20
-4.18265499749961
30
0
41
1
10
55.3051138075331
20
-4.18568885538988
30
0
41
1
10
55.7739430926113
20
-4.18561619026573
30
0
41
1
10
56.188798585777
20
-4.18541430482244
30
0
41
1
10
56.5924904029421
20
-4.18551299454259
30
0
41
1
10
57.034287348283
20
-4.18616337409824
30
0
41
1
10
57.5280576986047
20
-4.18619673207328
30
0
41
1
10
58.0806986546555
20
-4.1859611457522
30
0
41
1
10
58.6398115523155
20
-4.18601904825047
30
0
41
1
10
59.1413618095697
20
-4.18861079975952
30
0
41
1
10
59.5296006182225
20
-4.18935571920494
30
0
41
1
10
59.8817508744194
20
-4.18904765453837
30
0
41
1
10
60.2969442012446
20
-4.18851828504589
30
0
41
1
10
60.7949491693708
20
-4.18705028173065
30
0
41
1
10
61.2866570102932
20
-4.18967378616696
30
0
41
1
10
61.711663235087
20
-4.18886881590419
30
0
41
1
10
62.1900089932755
20
-4.18813692881329
30
0
41
1
10
62.811871608797
20
-4.18605000052978
30
0
41
1
10
63.6271074066162
20
-4.18345768571655
30
0
41
1
10
64.4282748680474
20
-4.18869442990859
30
0
41
1
10
64.9314105378593
20
-4.18940213376749
30
0
41
1
10
65.117286592115
20
-4.18966362741736
30
0
0
SPLINE
5
AF
100
AcDbEntity
8
1
62
256
6
ByLayer
370
18
48
1
60
0
100
AcDbSpline
70
4
71
3
72
27
73
23
40
0
40
0
40
0
40
0
40
0.0056495943392177
40
0.0448156157944408
40
0.0852073239700658
40
0.151454030793472
40
0.217143808296193
40
0.278420296202136
40
0.334745315261289
40
0.37923994291739
40
0.406637712440581
40
0.451915866470099
40
0.507078461062904
40
0.550279891046316
40
0.581043410246815
40
0.610290855251618
40
0.682432584417902
40
0.757274130901335
40
0.822365250612208
40
0.889981137224878
40
0.96475752197376
40
1
40
1
40
1
40
1
41
1
10
40.3462231615741
20
4.17240115554728
30
0
41
1
10
40.3301326976374
20
4.17210736435965
30
0
41
1
10
40.2005517750359
20
4.16970414040657
30
0
41
1
10
39.9019259285795
20
4.15884486631467
30
0
41
1
10
39.3817098187705
20
4.15498299799981
30
0
41
1
10
38.7946569831744
20
4.17140367425131
30
0
41
1
10
38.1314175350577
20
4.17771969945034
30
0
41
1
10
37.4847812199908
20
4.17778164202463
30
0
41
1
10
36.9100964341618
20
4.17512278536665
30
0
41
1
10
36.4560382212696
20
4.17561257939187
30
0
41
1
10
36.0409921400043
20
4.17577111882045
30
0
41
1
10
35.5881816308624
20
4.17667006503873
30
0
41
1
10
35.0793909138705
20
4.17381991711935
30
0
41
1
10
34.6220088282205
20
4.17280381614077
30
0
41
1
10
34.2564204346492
20
4.17334974295164
30
0
41
1
10
33.7883236693622
20
4.17420167628458
30
0
41
1
10
33.1641379893939
20
4.17506517448797
30
0
41
1
10
32.4129873683086
20
4.1707546164217
30
0
41
1
10
31.6777433867877
20
4.17274950389884
30
0
41
1
10
30.9432894256049
20
4.17223365888361
30
0
41
1
10
30.3124731142937
20
4.17062275246144
30
0
41
1
10
29.9260900402481
20
4.17025935033945
30
0
41
1
10
29.8030985548715
20
4.16987638591988
30
0
0
SPLINE
5
B0
100
AcDbEntity
8
1
62
256
6
ByLayer
370
18
48
1
60
0
100
AcDbSpline
70
4
71
3
72
12
73
8
40
0
40
0
40
0
40
0
40
0.0723730876231582
40
0.322064703586664
40
0.456927107228291
40
0.682866786053761
40
1
40
1
40
1
40
1
41
1
10
66.2682163903282
20
-1.12397505569623
30
0
41
1
10
66.2677373846563
20
-1.12384827044218
30
0
41
1
10
66.2693159888407
20
-1.12490859595707
30
0
41
1
10
66.2998333234445
20
-1.13908762739291
30
0
41
1
10
66.3791545064026
20
-1.1774366177377
30
0
41
1
10
66.4552367186528
20
-1.21412992594793
30
0
41
1
10
66.5214383876335
20
-1.24848910881107
30
0
41
1
10
66.5599131057265
20
-1.26903746782472
30
0
0
SPLINE
5
B1
100
AcDbEntity
8
1
62
256
6
ByLayer
370
18
48
1
60
0
100
AcDbSpline
70
4
71
3
72
25
73
21
40
0
40
0
40
0
40
0
40
0.015008020440198
40
0.0638202094262318
40
0.108071247944367
40
0.168345040100516
40
0.227130570321718
40
0.283153822852753
40
0.337022177579959
40
0.388270243395267
40
0.451924593758588
40
0.515908935736949
40
0.571083850216379
40
0.646945852726145
40
0.731095814996994
40
0.818430094193751
40
0.863727651864143
40
0.908778673831156
40
0.955765292680376
40
1
40
1
40
1
40
1
41
1
10
65.2782114977795
20
4.18637483757001
30
0
41
1
10
65.2310728527602
20
4.18596355087544
30
0
41
1
10
65.028190505463
20
4.18381775148856
30
0
41
1
10
64.6616408779421
20
4.17240317728249
30
0
41
1
10
64.1202388324219
20
4.1636134461578
30
0
41
1
10
63.5464055101993
20
4.17678923404409
30
0
41
1
10
62.9655684299986
20
4.18512015133652
30
0
41
1
10
62.3765845185624
20
4.1874671691015
30
0
41
1
10
61.8082525203308
20
4.18881119977064
30
0
41
1
10
61.2119884753831
20
4.18942573240361
30
0
41
1
10
60.5797870022988
20
4.18722173104447
30
0
41
1
10
59.9338783521588
20
4.18929317557993
30
0
41
1
10
59.2443737611552
20
4.18923643114093
30
0
41
1
10
58.4857608907777
20
4.1862991139962
30
0
41
1
10
57.6261563249066
20
4.18096201870068
30
0
41
1
10
56.8546248420634
20
4.18418357239014
30
0
41
1
10
56.2422829636753
20
4.18547858190504
30
0
41
1
10
55.7534223111248
20
4.1856476201574
30
0
41
1
10
55.2758044063593
20
4.1853252510688
30
0
41
1
10
54.953271651341
20
4.18475633175666
30
0
41
1
10
54.7967944301803
20
4.1845367546164
30
0
0
SPLINE
5
B2
100
AcDbEntity
8
1
62
256
6
ByLayer
370
18
48
1
60
0
100
AcDbSpline
70
4
71
3
72
29
73
25
40
0
40
0
40
0
40
0
40
0.0371429117703412
40
0.0727950071541877
40
0.113096023972137
40
0.156386963265083
40
0.197369697770696
40
0.235791549009734
40
0.291834105049228
40
0.343216855543298
40
0.401778578765079
40
0.469034592920916
40
0.534396662850124
40
0.564907054692911
40
0.600977962434196
40
0.653281722687408
40
0.706866747050493
40
0.737617216447923
40
0.767362721603468
40
0.804087782093888
40
0.877000112039797
40
0.957153819777939
40
0.996504466352132
40
1
40
1
40
1
40
1
41
1
10
27.591978567798
20
-4.16847809096919
30
0
41
1
10
27.7155442688909
20
-4.16695420108655
30
0
41
1
10
27.9704803690644
20
-4.16414259051902
30
0
41
1
10
28.4168647034432
20
-4.15391340101314
30
0
41
1
10
28.9045662651109
20
-4.15807632133541
30
0
41
1
10
29.3791275040515
20
-4.16824688453281
30
0
41
1
10
29.8636413537904
20
-4.17017104404994
30
0
41
1
10
30.4050072715803
20
-4.17072414303249
30
0
41
1
10
30.9932267124016
20
-4.17232679908892
30
0
41
1
10
31.6609048793755
20
-4.17274486556067
30
0
41
1
10
32.3741286423944
20
-4.17073898591389
30
0
41
1
10
33.1435178280951
20
-4.17497714433139
30
0
41
1
10
33.7999946988512
20
-4.17418649625461
30
0
41
1
10
34.3310117465532
20
-4.17323469608044
30
0
41
1
10
34.8094756077374
20
-4.17247264988615
30
0
41
1
10
35.3807913845509
20
-4.17677689315198
30
0
41
1
10
35.9307168513103
20
-4.17585564670372
30
0
41
1
10
36.3898232842993
20
-4.17562197090123
30
0
41
1
10
36.7811675870311
20
-4.17536662885149
30
0
41
1
10
37.3416852300839
20
-4.17637365181551
30
0
41
1
10
38.1090302972503
20
-4.17969422082763
30
0
41
1
10
38.8498165111227
20
-4.1686541250269
30
0
41
1
10
39.3330806547418
20
-4.15817613533505
30
0
41
1
10
39.5043520910045
20
-4.15738232847627
30
0
41
1
10
39.5183414503923
20
-4.15733664755692
30
0
0
SPLINE
5
B3
100
AcDbEntity
8
1
62
256
6
ByLayer
370
18
48
1
60
0
100
AcDbSpline
70
4
71
3
72
9
73
5
40
0
40
0
40
0
40
0
40
0.620556674083626
40
1
40
1
40
1
40
1
41
1
10
40.2109877140688
20
-4.1693297385674
30
0
41
1
10
40.2406726504282
20
-4.17013804653064
30
0
41
1
10
40.2870306942397
20
-4.17130810881508
30
0
41
1
10
40.3303165895475
20
-4.1721111065024
30
0
41
1
10
40.3464942056529
20
-4.17240640190983
30
0
0
SPLINE
5
B4
100
AcDbEntity
8
1
62
256
6
ByLayer
370
18
48
1
60
0
100
AcDbSpline
70
4
71
3
72
20
73
16
40
0
40
0
40
0
40
0
40
0.0235085715596988
40
0.0933560029879869
40
0.172188600856405
40
0.250671195191748
40
0.328215804606167
40
0.404885155912951
40
0.480855406248066
40
0.618473877903054
40
0.751741106072341
40
0.806168647390022
40
0.863011616557101
40
0.935888999578039
40
1
40
1
40
1
40
1
41
1
10
15.2574578644924
20
4.15976625836555
30
0
41
1
10
15.2001171374567
20
4.15897624606711
30
0
41
1
10
14.9694863486917
20
4.15587471551652
30
0
41
1
10
14.5126957458838
20
4.14461960384955
30
0
41
1
10
13.8931879314772
20
4.14659809506469
30
0
41
1
10
13.2847822205938
20
4.15941573591391
30
0
41
1
10
12.668151013171
20
4.16255661410412
30
0
41
1
10
12.0546424428191
20
4.16388774830622
30
0
41
1
10
11.2759244312817
20
4.16179373897867
30
0
41
1
10
10.3413465622279
20
4.15922835962385
30
0
41
1
10
9.46732523695789
20
4.16115525035843
30
0
41
1
10
8.80943009558712
20
4.16082375278427
30
0
41
1
10
8.31380740937536
20
4.16023054439262
30
0
41
1
10
7.79213652184612
20
4.15892829128956
30
0
41
1
10
7.42345500436835
20
4.15764204525297
30
0
41
1
10
7.25091228664695
20
4.15694928860032
30
0
0
SPLINE
5
B5
100
AcDbEntity
8
1
62
256
6
ByLayer
370
18
48
1
60
0
100
AcDbSpline
70
4
71
2
72
6
73
3
40
0
40
0
40
0
40
1
40
1
40
1
41
1
10
77.6651463423925
20
-4.19866484015304
30
0
41
1
10
78.0698573238244
20
-4.1955651651829
30
0
41
1
10
78.4745577513794
20
-4.20067708512855
30
0
0
SPLINE
5
B6
100
AcDbEntity
8
1
62
256
6
ByLayer
370
18
48
1
60
0
100
AcDbSpline
70
4
71
3
72
12
73
8
40
0
40
0
40
0
40
0
40
0.0152168990338866
40
0.379593974547416
40
0.500105694604855
40
0.706333473062152
40
1
40
1
40
1
40
1
41
1
10
41.2751162469204
20
-1.12717627843097
30
0
41
1
10
41.27509620154
20
-1.12719084529545
30
0
41
1
10
41.2761096906358
20
-1.12823417161624
30
0
41
1
10
41.3319560011094
20
-1.15427925145215
30
0
41
1
10
41.3874248052841
20
-1.18070325987503
30
0
41
1
10
41.4495637014119
20
-1.21094192502
30
0
41
1
10
41.5049736453709
20
-1.24004321198527
30
0
41
1
10
41.5403634943565
20
-1.25910603294017
30
0
0
SPLINE
5
B7
100
AcDbEntity
8
1
62
256
6
ByLayer
370
18
48
1
60
0
100
AcDbSpline
70
4
71
3
72
16
73
12
40
0
40
0
40
0
40
0
40
0.0488129856073625
40
0.0488129856073625
40
0.159751756946562
40
0.159751756946562
40
0.270690528285762
40
0.270690528285762
40
0.714445613642561
40
0.714445613642561
40
1
40
1
40
1
40
1
41
1
10
77.658511027625
20
-4.19865689976589
30
0
41
1
10
77.5763351867773
20
-4.1985966877491
30
0
41
1
10
77.4941418917521
20
-4.19786173241368
30
0
41
1
10
77.2250675076081
20
-4.19324973310771
30
0
41
1
10
77.0380038642638
20
-4.18655202463066
30
0
41
1
10
76.6651576185414
20
-4.16632830104564
30
0
41
1
10
76.4791695338585
20
-4.15280262733026
30
0
41
1
10
75.5509438652784
20
-4.06848167812615
30
0
41
1
10
74.8139553338947
20
-3.94758196264087
30
0
41
1
10
73.6015622325091
20
-3.66860229920221
30
0
41
1
10
73.1265343636259
20
-3.5391085690386
30
0
41
1
10
72.6495238852599
20
-3.39075596318432
30
0
0
SPLINE
5
B8
100
AcDbEntity
8
1
62
256
6
ByLayer
370
13
48
1
60
0
100
AcDbSpline
70
4
71
3
72
28
73
24
40
0
40
0
40
0
40
0
40
0.0678603179033427
40
0.0678603179033427
40
0.115447593675449
40
0.115447593675449
40
0.163034869447554
40
0.163034869447554
40
0.258209420991766
40
0.258209420991766
40
0.305796696763874
40
0.305796696763874
40
0.353383972535981
40
0.353383972535981
40
0.448558524080195
40
0.448558524080195
40
0.638907627168621
40
0.638907627168621
40
0.734082178712836
40
0.734082178712836
40
0.82925673025705
40
0.82925673025705
40
1
40
1
40
1
40
1
41
1
10
72.6495238852875
20
-3.39075596319285
30
0
41
1
10
72.3852541184218
20
-3.30856676538502
30
0
41
1
10
72.1203758295283
20
-3.22058921572147
30
0
41
1
10
71.6682364259565
20
-3.06147551337523
30
0
41
1
10
71.4811816860602
20
-2.99306760805933
30
0
41
1
10
71.1075748806092
20
-2.85159778363865
30
0
41
1
10
70.9209877662519
20
-2.77853369527318
30
0
41
1
10
70.3615588240681
20
-2.55284282074049
30
0
41
1
10
69.989031103158
20
-2.3937374711258
30
0
41
1
10
69.4297232455941
20
-2.14391513835005
30
0
41
1
10
69.2432037938929
20
-2.0587774725476
30
0
41
1
10
68.8698029126703
20
-1.88507616976321
30
0
41
1
10
68.6826703219796
20
-1.79639090399144
30
0
41
1
10
68.1226165427664
20
-1.52675494432359
30
0
41
1
10
67.7510774796977
20
-1.34230996506719
30
0
41
1
10
66.639913588114
20
-0.778901253146074
30
0
41
1
10
65.9033053535153
20
-0.390652997292761
30
0
41
1
10
64.7953301043636
20
0.192644461976215
30
0
41
1
10
64.4255368538578
20
0.387310716553458
30
0
41
1
10
63.6834533971262
20
0.774116964878459
30
0
41
1
10
63.3106219785538
20
0.966403161157331
30
0
41
1
10
62.2665460117155
20
1.49520853177066
30
0
41
1
10
61.6020684522916
20
1.81838613398651
30
0
41
1
10
60.939499147898
20
2.11911529154551
30
0
0
SPLINE
5
B9
100
AcDbEntity
8
1
62
256
6
ByLayer
370
18
48
1
60
0
100
AcDbSpline
70
4
71
3
72
18
73
14
40
0
40
0
40
0
40
0
40
0.0866549405797038
40
0.0866549405797038
40
0.471787640206551
40
0.471787640206551
40
0.664353990019975
40
0.664353990019975
40
0.760637164926688
40
0.760637164926688
40
0.8569203398334
40
0.8569203398334
40
1
40
1
40
1
40
1
41
1
10
27.7969304542041
20
-4.16802581627476
30
0
41
1
10
27.6301959800266
20
-4.16940948983137
30
0
41
1
10
27.463657529563
20
-4.16804484512443
30
0
41
1
10
26.5576316531549
20
-4.1457436736132
30
0
41
1
10
25.8203109071137
20
-4.07371021137791
30
0
41
1
10
24.7089905774925
20
-3.88744012899576
30
0
41
1
10
24.3376048584393
20
-3.81240384662684
30
0
41
1
10
23.7779779378943
20
-3.68085410566351
30
0
41
1
10
23.5907061529739
20
-3.63374545872514
30
0
41
1
10
23.2166937013162
20
-3.53370657169222
30
0
41
1
10
23.0301653388186
20
-3.48084353335162
30
0
41
1
10
22.5673828499971
20
-3.34269806414204
30
0
41
1
10
22.291563429113
20
-3.25419455965647
30
0
41
1
10
22.0162512893186
20
-3.16020780123739
30
0
0
SPLINE
5
BA
100
AcDbEntity
8
1
62
256
6
ByLayer
370
13
48
1
60
0
100
AcDbSpline
70
4
71
3
72
24
73
20
40
0
40
0
40
0
40
0
40
0.126305050283
40
0.126305050283
40
0.327270116101809
40
0.327270116101809
40
0.427752649011214
40
0.427752649011214
40
0.528235181920618
40
0.528235181920618
40
0.729200247739429
40
0.729200247739429
40
0.829682780648834
40
0.829682780648834
40
0.879924047103536
40
0.879924047103536
40
0.930165313558237
40
0.930165313558237
40
1
40
1
40
1
40
1
41
1
10
22.0162512888942
20
-3.16020780109253
30
0
41
1
10
21.550495778016
20
-3.00120700033358
30
0
41
1
10
21.0861920910783
20
-2.82651328395676
30
0
41
1
10
19.8830970354488
20
-2.33876460861174
30
0
41
1
10
19.1440795469844
20
-2.00532539540006
30
0
41
1
10
18.0262834683631
20
-1.46789329723063
30
0
41
1
10
17.6509145605163
20
-1.28209410343803
30
0
41
1
10
16.9051443881185
20
-0.905567256677841
30
0
41
1
10
16.5338860829545
20
-0.714548208312522
30
0
41
1
10
15.4226209974175
20
-0.137868730376397
30
0
41
1
10
14.6852292751413
20
0.251626530577511
30
0
41
1
10
13.5749212499505
20
0.825061505038093
30
0
41
1
10
13.2041567203183
20
1.01448723367758
30
0
41
1
10
12.6458788422679
20
1.29382804861333
30
0
41
1
10
12.459425268047
20
1.38613069010515
30
0
41
1
10
12.0855781159829
20
1.56868803618781
30
0
41
1
10
11.898059925761
20
1.65899731515344
30
0
41
1
10
11.4515139936603
20
1.87052742013537
30
0
41
1
10
11.1925789421601
20
1.99047415957176
30
0
41
1
10
10.9341278516781
20
2.10690517745121
30
0
0
SPLINE
5
BB
100
AcDbEntity
8
1
62
256
6
ByLayer
370
18
48
1
60
0
100
AcDbSpline
70
4
71
3
72
8
73
4
40
0
40
0
40
0
40
0
40
1
40
1
40
1
40
1
41
1
10
78.4750162202309
20
4.36351469438642
30
0
41
1
10
78.1313984796647
20
4.38780374538172
30
0
41
1
10
77.7876870918853
20
4.39973787152991
30
0
41
1
10
77.4433674522126
20
4.39933270067158
30
0
0
SPLINE
5
BC
100
AcDbEntity
8
1
62
256
6
ByLayer
370
18
48
1
60
0
100
AcDbSpline
70
4
71
3
72
44
73
40
40
0
40
0
40
0
40
0
40
0.0120035649855329
40
0.0120035649855329
40
0.032344427827174
40
0.032344427827174
40
0.113707879193738
40
0.113707879193738
40
0.195071330560302
40
0.195071330560302
40
0.215412193401943
40
0.215412193401943
40
0.235753056243584
40
0.235753056243584
40
0.276434781926866
40
0.276434781926866
40
0.35779823329343
40
0.35779823329343
40
0.398479958976713
40
0.398479958976713
40
0.418820821818354
40
0.418820821818354
40
0.439161684659996
40
0.439161684659996
40
0.601888587393131
40
0.601888587393131
40
0.642570313076415
40
0.642570313076415
40
0.6832520387597
40
0.6832520387597
40
0.764615490126268
40
0.764615490126268
40
0.805297215809552
40
0.805297215809552
40
0.845978941492836
40
0.845978941492836
40
0.927342392859404
40
0.927342392859404
40
1
40
1
40
1
40
1
41
1
10
54.8537624191689
20
-4.18720927365391
30
0
41
1
10
54.7432451769362
20
-4.20524892402818
30
0
41
1
10
54.6326481348933
20
-4.22209425898069
30
0
41
1
10
54.335234789639
20
-4.26411032170156
30
0
41
1
10
54.148736934418
20
-4.28697856584472
30
0
41
1
10
53.2181633327162
20
-4.38341057065938
30
0
41
1
10
52.479280866008
20
-4.40322560524092
30
0
41
1
10
51.001171970934
20
-4.32974397697694
30
0
41
1
10
50.2611314144245
20
-4.2365583548623
30
0
41
1
10
49.3274332976649
20
-4.05051121821546
30
0
41
1
10
49.1398763079964
20
-4.009752903563
30
0
41
1
10
48.7655832712947
20
-3.92185403434306
30
0
41
1
10
48.5789201487879
20
-3.87474673270617
30
0
41
1
10
48.0200687601956
20
-3.72435592977732
30
0
41
1
10
47.6491010028711
20
-3.61192470237907
30
0
41
1
10
46.5384827665601
20
-3.24122388372527
30
0
41
1
10
45.8006313596379
20
-2.95015172199575
30
0
41
1
10
44.6886781740105
20
-2.45935075617334
30
0
41
1
10
44.3170071431433
20
-2.28694645599128
30
0
41
1
10
43.7568374969783
20
-2.01664346542555
30
0
41
1
10
43.5693722329758
20
-1.92443767071524
30
0
41
1
10
43.194833291572
20
-1.73708937862563
30
0
41
1
10
43.0080899114776
20
-1.64212330136937
30
0
41
1
10
41.3309202781155
20
-0.778025193204144
30
0
41
1
10
39.865085505129
20
0.0568413896056938
30
0
41
1
10
37.9987529490895
20
1.06320689391623
30
0
41
1
10
37.622859197664
20
1.26280281270988
30
0
41
1
10
36.8768457181232
20
1.64926756163038
30
0
41
1
10
36.5055350585877
20
1.83692749814833
30
0
41
1
10
35.3940906692757
20
2.37910319893149
30
0
41
1
10
34.6561850545091
20
2.71238082247064
30
0
41
1
10
33.5441260794331
20
3.15535864061303
30
0
41
1
10
33.1726148966161
20
3.29358913366727
30
0
41
1
10
32.4263154184013
20
3.54872549175371
30
0
41
1
10
32.0503036204094
20
3.66568473481266
30
0
41
1
10
30.9306756465204
20
3.97671968487276
30
0
41
1
10
30.1909589917466
20
4.13234247483223
30
0
41
1
10
28.7908582703239
20
4.32294884964605
30
0
41
1
10
28.1303555901833
20
4.36903461268454
30
0
41
1
10
27.4652492556627
20
4.36934012404976
30
0
0
SPLINE
5
BD
100
AcDbEntity
8
1
62
256
6
ByLayer
370
18
48
1
60
0
100
AcDbSpline
70
4
71
3
72
23
73
19
40
0
40
0
40
0
40
0
40
0.0520676625518267
40
0.146860896296644
40
0.146860896296644
40
0.241654130041461
40
0.241654130041461
40
0.431240597531096
40
0.431240597531096
40
0.526033831275913
40
0.526033831275913
40
0.62082706502073
40
0.62082706502073
40
0.810413532510365
40
0.810413532510365
40
0.905206766255183
40
0.905206766255183
40
1
40
1
40
1
40
1
41
1
10
7.00504076702387
20
-4.35707507417766
30
0
41
1
10
7.00504339589415
20
-4.35707013032467
30
0
41
1
10
7.00505069221489
20
-4.35094215133918
30
0
41
1
10
7.0050577729709
20
-4.32764553719372
30
0
41
1
10
7.00506688237661
20
-4.28295234646455
30
0
41
1
10
7.00507143765861
20
-4.2530946901152
30
0
41
1
10
7.00508493807905
20
-4.1432960950695
30
0
41
1
10
7.00509383002594
20
-4.04309151304065
30
0
41
1
10
7.00510732945605
20
-3.85263995588988
30
0
41
1
10
7.00511186968234
20
-3.78209047110781
30
0
41
1
10
7.00512089396179
20
-3.62846068629466
30
0
41
1
10
7.00512534416998
20
-3.54601385061235
30
0
41
1
10
7.00513842709594
20
-3.28229178474896
30
0
41
1
10
7.00514681782235
20
-3.08479652979253
30
0
41
1
10
7.00515814871312
20
-2.75510351403693
30
0
41
1
10
7.00516168886747
20
-2.64003358969137
30
0
41
1
10
7.00516800753101
20
-2.40371717185309
30
0
41
1
10
7.00517080578513
20
-2.28191939191274
30
0
41
1
10
7.00517314760594
20
-2.15652609635058
30
0
0
SPLINE
5
BE
100
AcDbEntity
8
1
62
256
6
ByLayer
370
18
48
1
60
0
100
AcDbSpline
70
4
71
3
72
82
73
78
40
0
40
0
40
0
40
0
40
0.0185198185021492
40
0.0185198185021492
40
0.0511217175934478
40
0.0511217175934478
40
0.0837236166847464
40
0.0837236166847464
40
0.116325515776045
40
0.116325515776045
40
0.148927414867344
40
0.148927414867344
40
0.181529313958642
40
0.181529313958642
40
0.214131213049941
40
0.214131213049941
40
0.23043216259559
40
0.23043216259559
40
0.246733112141239
40
0.246733112141239
40
0.279335011232535
40
0.279335011232535
40
0.311936910323832
40
0.311936910323832
40
0.344538809415128
40
0.344538809415128
40
0.377140708506425
40
0.377140708506425
40
0.393441658052072
40
0.393441658052072
40
0.40974260759772
40
0.40974260759772
40
0.442344506689014
40
0.442344506689014
40
0.474946405780309
40
0.474946405780309
40
0.507548304871603
40
0.507548304871603
40
0.540150203962897
40
0.540150203962897
40
0.572752103054192
40
0.572752103054192
40
0.589053052599839
40
0.589053052599839
40
0.605354002145486
40
0.605354002145486
40
0.63795590123678
40
0.63795590123678
40
0.670557800328075
40
0.670557800328075
40
0.703159699419369
40
0.703159699419369
40
0.735761598510663
40
0.735761598510663
40
0.75206254805631
40
0.75206254805631
40
0.768363497601958
40
0.768363497601958
40
0.800965396693253
40
0.800965396693253
40
0.833567295784548
40
0.833567295784548
40
0.866169194875844
40
0.866169194875844
40
0.898771093967139
40
0.898771093967139
40
0.915072043512787
40
0.915072043512787
40
0.931372993058435
40
0.931372993058435
40
0.947673942604082
40
0.947673942604082
40
0.96397489214973
40
0.96397489214973
40
0.996576791241027
40
0.996576791241027
40
1
40
1
40
1
40
1
41
1
10
70.6190082232665
20
-3.16859782984457
30
0
41
1
10
70.4318633975441
20
-3.23317178022603
30
0
41
1
10
70.2445736720111
20
-3.29518036286433
30
0
41
1
10
69.7274737113474
20
-3.45892883339619
30
0
41
1
10
69.3990640789941
20
-3.55506713439493
30
0
41
1
10
68.7415656676431
20
-3.72735365177383
30
0
41
1
10
68.412734525993
20
-3.80384574483978
30
0
41
1
10
67.7546776298697
20
-3.93548139444224
30
0
41
1
10
67.4253373403948
20
-3.99047787066323
30
0
41
1
10
66.7663005188409
20
-4.08199414820638
30
0
41
1
10
66.4369440923102
20
-4.11805900775187
30
0
41
1
10
65.7787470712755
20
-4.17009461269723
30
0
41
1
10
65.4502864214026
20
-4.1861401065336
30
0
41
1
10
64.7919404285448
20
-4.19591618393386
30
0
41
1
10
64.4614631013742
20
-4.18966393448414
30
0
41
1
10
63.9672729146781
20
-4.16272248916758
30
0
41
1
10
63.8026990427813
20
-4.1509251512102
30
0
41
1
10
63.4739133791164
20
-4.12138547896316
30
0
41
1
10
63.3097821543059
20
-4.10306268782006
30
0
41
1
10
62.8167708155403
20
-4.04267533358987
30
0
41
1
10
62.487563891136
20
-3.99424783392732
30
0
41
1
10
61.8282951047517
20
-3.87693999909635
30
0
41
1
10
61.4983417537368
20
-3.80834815010988
30
0
41
1
10
60.8408262183389
20
-3.64764990645364
30
0
41
1
10
60.5118719216271
20
-3.56001912113234
30
0
41
1
10
59.8538469009902
20
-3.36681125305409
30
0
41
1
10
59.5248587656632
20
-3.26123249899541
30
0
41
1
10
59.0308109841769
20
-3.08722940085354
30
0
41
1
10
58.8658834333132
20
-3.02699894972474
30
0
41
1
10
58.5363001679277
20
-2.90410480255741
30
0
41
1
10
58.3715406610166
20
-2.84121903730889
30
0
41
1
10
57.8774839788425
20
-2.64752254683953
30
0
41
1
10
57.5483917792714
20
-2.51184368940565
30
0
41
1
10
56.8908360706686
20
-2.22461858245566
30
0
41
1
10
56.5612093235657
20
-2.07437678264776
30
0
41
1
10
55.9009186791563
20
-1.76667063893825
30
0
41
1
10
55.5713335217516
20
-1.6088134213274
30
0
41
1
10
54.9137314173814
20
-1.28304553964963
30
0
41
1
10
54.5850560657813
20
-1.1160259365061
30
0
41
1
10
53.9261472732545
20
-0.779108191127847
30
0
41
1
10
53.5956818539089
20
-0.608335618153632
30
0
41
1
10
53.1014671905784
20
-0.349311037436507
30
0
41
1
10
52.9370490376542
20
-0.262447807963383
30
0
41
1
10
52.6080739247572
20
-0.0891793806148655
30
0
41
1
10
52.4435758885224
20
-0.0026629543869205
30
0
41
1
10
51.9499234840583
20
0.256347205838068
30
0
41
1
10
51.6206495067213
20
0.428392939429273
30
0
41
1
10
50.9619598561189
20
0.771504563484314
30
0
41
1
10
50.632153951613
20
0.942720520299304
30
0
41
1
10
49.9732443519768
20
1.27581163213969
30
0
41
1
10
49.6439589358359
20
1.43906476192228
30
0
41
1
10
48.9859465852102
20
1.75896513876347
30
0
41
1
10
48.6574588188624
20
1.91577674046744
30
0
41
1
10
48.1628395402862
20
2.14108977659714
30
0
41
1
10
47.9976270154108
20
2.21474556570709
30
0
41
1
10
47.667618005599
20
2.35929330673542
30
0
41
1
10
47.5027418169879
20
2.43018133950528
30
0
41
1
10
47.0085754819186
20
2.6384328541931
30
0
41
1
10
46.6801135371128
20
2.77182702920078
30
0
41
1
10
46.021773379526
20
3.02079323877624
30
0
41
1
10
45.6920663473608
20
3.13677368249685
30
0
41
1
10
45.0316695854549
20
3.35519509579854
30
0
41
1
10
44.702525145092
20
3.45709710270745
30
0
41
1
10
44.0442536564524
20
3.64018765961856
30
0
41
1
10
43.7150472997132
20
3.72036679816679
30
0
41
1
10
43.2209200831911
20
3.82884765123046
30
0
41
1
10
43.0561696480839
20
3.86291642997747
30
0
41
1
10
42.7266839397607
20
3.92637919450624
30
0
41
1
10
42.5617141794252
20
3.95576007857576
30
0
41
1
10
42.2322074991462
20
4.00879966041629
30
0
41
1
10
42.0677479335723
20
4.03254795078547
30
0
41
1
10
41.7394633405198
20
4.0737081580919
30
0
41
1
10
41.5756158025458
20
4.09124429650186
30
0
41
1
10
41.0846070607793
20
4.13747411306741
30
0
41
1
10
40.7583987474233
20
4.15947132022953
30
0
41
1
10
40.3983246262344
20
4.17176962668194
30
0
41
1
10
40.3641096279999
20
4.17281349686237
30
0
41
1
10
40.3298946883561
20
4.17373261305804
30
0
0
SPLINE
5
BF
100
AcDbEntity
8
1
62
256
6
ByLayer
370
18
48
1
60
0
100
AcDbSpline
70
4
71
3
72
26
73
22
40
0
40
0
40
0
40
0
40
0.0475123136957645
40
0.0475123136957645
40
0.103541001125425
40
0.103541001125425
40
0.215598375984747
40
0.215598375984747
40
0.327655750844069
40
0.327655750844069
40
0.439713125703391
40
0.439713125703391
40
0.551770500562713
40
0.551770500562713
40
0.663827875422035
40
0.663827875422035
40
0.775885250281357
40
0.775885250281357
40
0.887942625140679
40
0.887942625140679
40
1
40
1
40
1
40
1
41
1
10
20.623812609185
20
-3.14911878104041
30
0
41
1
10
20.4841229278664
20
-3.19702819418251
30
0
41
1
10
20.3443805619939
20
-3.24350360210204
30
0
41
1
10
20.0397590415624
20
-3.34143744504036
30
0
41
1
10
19.8749372879403
20
-3.39221689707773
30
0
41
1
10
19.3807249573486
20
-3.5376833049304
30
0
41
1
10
19.0513324018125
20
-3.626142232435
30
0
41
1
10
18.3928855858983
20
-3.7839445514326
30
0
41
1
10
18.0641146005206
20
-3.85340142977824
30
0
41
1
10
17.4053895162035
20
-3.97087206784735
30
0
41
1
10
17.0747554639395
20
-4.0200670409526
30
0
41
1
10
16.4153212972644
20
-4.09810436213854
30
0
41
1
10
16.0863360420632
20
-4.12661041632441
30
0
41
1
10
15.4285852372931
20
-4.16077753201071
30
0
41
1
10
15.0991189687996
20
-4.16679260045538
30
0
41
1
10
14.4389597347925
20
-4.15970329274921
30
0
41
1
10
14.1088236998464
20
-4.1457123985783
30
0
41
1
10
13.4509955399375
20
-4.09494572488217
30
0
41
1
10
13.1220355089387
20
-4.05902682200309
30
0
41
1
10
12.4634399849797
20
-3.96726715509061
30
0
41
1
10
12.1338056757044
20
-3.91146361733019
30
0
41
1
10
11.8038414286421
20
-3.84459322641817
30
0
0
SPLINE
5
C0
100
AcDbEntity
8
1
62
256
6
ByLayer
370
18
48
1
60
0
100
AcDbSpline
70
4
71
3
72
10
73
6
40
0
40
0
40
0
40
0
40
0.5
40
0.5
40
1
40
1
40
1
40
1
41
1
10
7.1297769425482
20
3.62505450573244
30
0
41
1
10
7.10243928155273
20
3.63335967275233
30
0
41
1
10
7.07845734346961
20
3.64422437354955
30
0
41
1
10
7.03857384110881
20
3.67003590812993
30
0
41
1
10
7.02324385279354
20
3.68468401957389
30
0
41
1
10
7.01330391831735
20
3.70012611094947
30
0
0
SPLINE
5
C1
100
AcDbEntity
8
1
62
256
6
ByLayer
370
18
48
1
60
0
100
AcDbSpline
70
4
71
3
72
86
73
82
40
0
40
0
40
0
40
0
40
0.0266485137215762
40
0.0266485137215762
40
0.0588327514866251
40
0.0588327514866251
40
0.091016989251674
40
0.091016989251674
40
0.123201227016723
40
0.123201227016723
40
0.155385464781772
40
0.155385464781772
40
0.171477583664296
40
0.171477583664296
40
0.187569702546821
40
0.187569702546821
40
0.21975394031187
40
0.21975394031187
40
0.251938178076919
40
0.251938178076919
40
0.284122415841968
40
0.284122415841968
40
0.316306653607017
40
0.316306653607017
40
0.348490891372066
40
0.348490891372066
40
0.380675129137115
40
0.380675129137115
40
0.412859366902164
40
0.412859366902164
40
0.445043604667212
40
0.445043604667212
40
0.461135723549737
40
0.461135723549737
40
0.477227842432261
40
0.477227842432261
40
0.50941208019731
40
0.50941208019731
40
0.525504199079835
40
0.525504199079835
40
0.54159631796236
40
0.54159631796236
40
0.573780555727409
40
0.573780555727409
40
0.589872674609933
40
0.589872674609933
40
0.605964793492457
40
0.605964793492457
40
0.638149031257505
40
0.638149031257505
40
0.654241150140029
40
0.654241150140029
40
0.670333269022552
40
0.670333269022552
40
0.702517506787599
40
0.702517506787599
40
0.718609625670123
40
0.718609625670123
40
0.734701744552646
40
0.734701744552646
40
0.766885982317693
40
0.766885982317693
40
0.79907022008274
40
0.79907022008274
40
0.831254457847787
40
0.831254457847787
40
0.863438695612834
40
0.863438695612834
40
0.879530814495356
40
0.879530814495356
40
0.895622933377879
40
0.895622933377879
40
0.911715052260402
40
0.911715052260402
40
0.927807171142925
40
0.927807171142925
40
0.959991408907971
40
0.959991408907971
40
0.992175646673016
40
0.992175646673016
40
1
40
1
40
1
40
1
41
1
10
14.9373616936963
20
4.16422032793037
30
0
41
1
10
15.2104594814183
20
4.16442784199918
30
0
41
1
10
15.4830727595394
20
4.15790381574755
30
0
41
1
10
16.0838690190644
20
4.12679051647785
30
0
41
1
10
16.4125183942
20
4.09836801950584
30
0
41
1
10
17.0710679646301
20
4.0205707894315
30
0
41
1
10
17.4011283897597
20
3.971545120982
30
0
41
1
10
18.0601496065461
20
3.85419426560654
30
0
41
1
10
18.3888790257576
20
3.78482314177401
30
0
41
1
10
19.0469088246073
20
3.62728295656535
30
0
41
1
10
19.3759245029248
20
3.53900135562114
30
0
41
1
10
19.8693486229769
20
3.39390817791949
30
0
41
1
10
20.0337314492642
20
3.34332062166735
30
0
41
1
10
20.3631476204131
20
3.23752276415081
30
0
41
1
10
20.5282230358366
20
3.18234781565175
30
0
41
1
10
21.0226557379427
20
3.01108285321934
30
0
41
1
10
21.3518308567789
20
2.88908935973686
30
0
41
1
10
22.0093345658245
20
2.63110550696658
30
0
41
1
10
22.3375211958249
20
2.49521350518037
30
0
41
1
10
22.9961671194467
20
2.21060305461282
30
0
41
1
10
23.32666511343
20
2.06184589593948
30
0
41
1
10
23.9854645012612
20
1.75497233384354
30
0
41
1
10
24.3137986277981
20
1.59654661412591
30
0
41
1
10
24.9716143700345
20
1.27340813078743
30
0
41
1
10
25.3008037417824
20
1.10825853495814
30
0
41
1
10
25.9597644446827
20
0.772025940456587
30
0
41
1
10
26.2894192710177
20
0.600171123326447
30
0
41
1
10
26.9478705594228
20
0.257047946914639
30
0
41
1
10
27.276885594961
20
0.085100268109187
30
0
41
1
10
27.9347361416916
20
-0.259109797059466
30
0
41
1
10
28.2631953280744
20
-0.432093362689955
30
0
41
1
10
28.7572776428675
20
-0.688877229207293
30
0
41
1
10
28.9223479468436
20
-0.774077802130279
30
0
41
1
10
29.2520349483291
20
-0.942873274190305
30
0
41
1
10
29.4167264208855
20
-1.02650938112214
30
0
41
1
10
29.9104268554346
20
-1.27539395144561
30
0
41
1
10
30.2387279979113
20
-1.43916370386827
30
0
41
1
10
30.7316470728683
20
-1.67908339668969
30
0
41
1
10
30.8960843556826
20
-1.75803503598127
30
0
41
1
10
31.225257011656
20
-1.91316949681598
30
0
41
1
10
31.3900117137353
20
-1.98931293958989
30
0
41
1
10
31.8848224021313
20
-2.21376953003326
30
0
41
1
10
32.214203629653
20
-2.35812206636879
30
0
41
1
10
32.7073934345673
20
-2.56640988438181
30
0
41
1
10
32.8718553271848
20
-2.63450247721283
30
0
41
1
10
33.2007903382399
20
-2.76721371547157
30
0
41
1
10
33.365300145732
20
-2.83112917919894
30
0
41
1
10
33.8590230956481
20
-3.01718875343101
30
0
41
1
10
34.1885080949595
20
-3.1335223590938
30
0
41
1
10
34.6828844006025
20
-3.29703687532378
30
0
41
1
10
34.8476446717651
20
-3.3494215306807
30
0
41
1
10
35.1770820410896
20
-3.45067162962542
30
0
41
1
10
35.34172135473
20
-3.49961823197484
30
0
41
1
10
35.8354497019285
20
-3.63666145793295
30
0
41
1
10
36.1643715208685
20
-3.71816156023698
30
0
41
1
10
36.6576657812522
20
-3.82691939588847
30
0
41
1
10
36.8222548946507
20
-3.86072041701567
30
0
41
1
10
37.1519466055453
20
-3.92380189278029
30
0
41
1
10
37.3170714296147
20
-3.9532770407055
30
0
41
1
10
37.811648917792
20
-4.03348982849352
30
0
41
1
10
38.1406632054898
20
-4.07485411792163
30
0
41
1
10
38.797772459929
20
-4.13742354817137
30
0
41
1
10
39.1264660536597
20
-4.15847183270631
30
0
41
1
10
39.7850498049134
20
-4.18167461756289
30
0
41
1
10
40.1153435268268
20
-4.18169593247936
30
0
41
1
10
40.7735317536034
20
-4.1586837310405
30
0
41
1
10
41.1020947095178
20
-4.13615589151689
30
0
41
1
10
41.5955062661718
20
-4.08919267973542
30
0
41
1
10
41.7599762122446
20
-4.07137478149397
30
0
41
1
10
42.0890004168207
20
-4.02961253397146
30
0
41
1
10
42.2535651178807
20
-4.00558262306888
30
0
41
1
10
42.5828166117999
20
-3.95211201135251
30
0
41
1
10
42.7475578723084
20
-3.92254386532241
30
0
41
1
10
43.0771210908972
20
-3.85867056538996
30
0
41
1
10
43.2418746376754
20
-3.82441386734092
30
0
41
1
10
43.7359157614793
20
-3.71541823823998
30
0
41
1
10
44.0649487626432
20
-3.63484413983431
30
0
41
1
10
44.7225589842061
20
-3.45108593270677
30
0
41
1
10
45.0511238898729
20
-3.34904105630932
30
0
41
1
10
45.4610806065311
20
-3.2130920175039
30
0
41
1
10
45.5412732473867
20
-3.18608915232244
30
0
41
1
10
45.6214643489492
20
-3.15865158606533
30
0
0
SPLINE
5
C2
100
AcDbEntity
8
1
62
256
6
ByLayer
370
18
48
1
60
0
100
AcDbSpline
70
4
71
3
72
28
73
24
40
0
40
0
40
0
40
0
40
0.0860169740825086
40
0.0860169740825086
40
0.187570643628895
40
0.187570643628895
40
0.289124313175282
40
0.289124313175282
40
0.390677982721669
40
0.390677982721669
40
0.492231652268056
40
0.492231652268056
40
0.593785321814443
40
0.593785321814443
40
0.69533899136083
40
0.69533899136083
40
0.796892660907217
40
0.796892660907217
40
0.847669495680412
40
0.847669495680412
40
0.898446330453608
40
0.898446330453608
40
1
40
1
40
1
40
1
41
1
10
65.2763116011029
20
4.18790047671547
30
0
41
1
10
65.5552439077309
20
4.18080713404765
30
0
41
1
10
65.8336367237704
20
4.16583160544158
30
0
41
1
10
66.4413319057572
20
4.11762051300875
30
0
41
1
10
66.7703687505134
20
4.08149795875195
30
0
41
1
10
67.4283102624133
20
3.98999556002249
30
0
41
1
10
67.7575648720718
20
3.93497424719848
30
0
41
1
10
68.4162984467754
20
3.80306172857971
30
0
41
1
10
68.7451783868443
20
3.72647413234051
30
0
41
1
10
69.4022483482426
20
3.55416491802654
30
0
41
1
10
69.7301833400257
20
3.45810353756878
30
0
41
1
10
70.3882448552528
20
3.24965149588323
30
0
41
1
10
70.7184422383084
20
3.13669788457418
30
0
41
1
10
71.376709257891
20
2.89566501044246
30
0
41
1
10
71.7047798045746
20
2.76712566095222
30
0
41
1
10
72.3619956451321
20
2.49828178574381
30
0
41
1
10
72.6909385245881
20
2.35752914368894
30
0
41
1
10
73.1849294523126
20
2.13677495862095
30
0
41
1
10
73.3498071782652
20
2.0615503228984
30
0
41
1
10
73.6789285910184
20
1.90846000840301
30
0
41
1
10
73.843190075268
20
1.83057262804812
30
0
41
1
10
74.3361854788192
20
1.59462033036814
30
0
41
1
10
74.6647485553775
20
1.43331535673016
30
0
41
1
10
74.9932853200784
20
1.26839899873454
30
0
0
SPLINE
5
C3
100
AcDbEntity
8
1
62
256
6
ByLayer
370
18
48
1
60
0
100
AcDbSpline
70
4
71
3
72
8
73
4
40
0
40
0
40
0
40
0
40
1
40
1
40
1
40
1
41
1
10
7.01330391831905
20
3.70012611094631
30
0
41
1
10
7.00781213081834
20
3.70865782557689
30
0
41
1
10
7.00493713569159
20
3.71741876457881
30
0
41
1
10
7.00493813311419
20
3.72626971320355
30
0
0
SPLINE
5
C4
100
AcDbEntity
8
1
62
256
6
ByLayer
370
13
48
1
60
0
100
AcDbSpline
70
4
71
3
72
15
73
11
40
0
40
0
40
0
40
0
40
0.285189016052506
40
0.285189016052506
40
0.479625318007641
40
0.479625318007641
40
0.674061619962776
40
0.868497921917911
40
0.868497921917911
40
1
40
1
40
1
40
1
41
1
10
7.25047551257583
20
3.60254262275382
30
0
41
1
10
7.25053199617545
20
3.7058052335714
30
0
41
1
10
7.25058289242966
20
3.7951958048678
30
0
41
1
10
7.25066197529546
20
3.92233555116832
30
0
41
1
10
7.2506921151614
20
3.96719461465114
30
0
41
1
10
7.25074877739462
20
4.04242390316284
30
0
41
1
10
7.25080211786693
20
4.10365377185229
30
0
41
1
10
7.25085098971647
20
4.137238576546
30
0
41
1
10
7.25089088033022
20
4.15359243278607
30
0
41
1
10
7.25090673651061
20
4.15694089978328
30
0
41
1
10
7.25092231053307
20
4.15700719596947
30
0
0
SPLINE
5
C5
100
AcDbEntity
8
1
62
256
6
ByLayer
370
18
48
1
60
0
100
AcDbSpline
70
4
71
3
72
14
73
10
40
0
40
0
40
0
40
0
40
0.25
40
0.25
40
0.5
40
0.5
40
0.75
40
0.75
40
1
40
1
40
1
40
1
41
1
10
7.00517314760873
20
-2.15652609634532
30
0
41
1
10
7.0105430471728
20
-2.13036517974186
30
0
41
1
10
7.02041085469475
20
-2.10577042565842
30
0
41
1
10
7.05091111730923
20
-2.06585043200667
30
0
41
1
10
7.07180241823721
20
-2.05093834647141
30
0
41
1
10
7.11993981813578
20
-2.0370826695015
30
0
41
1
10
7.1470610162894
20
-2.03797220538118
30
0
41
1
10
7.20077066266455
20
-2.0519929149398
30
0
41
1
10
7.22661775408824
20
-2.06445570277205
30
0
41
1
10
7.25153896549728
20
-2.08041987849026
30
0
0
SPLINE
5
C6
100
AcDbEntity
8
1
62
256
6
ByLayer
370
18
48
1
60
0
100
AcDbSpline
70
4
71
3
72
20
73
16
40
0
40
0
40
0
40
0
40
0.250000000000001
40
0.250000000000001
40
0.375000000000002
40
0.375000000000002
40
0.500000000000002
40
0.500000000000002
40
0.749999999999997
40
0.749999999999997
40
0.812499999999996
40
0.812499999999996
40
0.874999999999996
40
0.874999999999996
40
1
40
1
40
1
40
1
41
1
10
79.3679243415889
20
2.13860834410883
30
0
41
1
10
79.3007673265398
20
2.31953676455456
30
0
41
1
10
79.2335088120139
20
2.50021976769449
30
0
41
1
10
79.1322984667224
20
2.77046431646159
30
0
41
1
10
79.0985060107998
20
2.86041121722431
30
0
41
1
10
79.0307544453154
20
3.03990206409011
30
0
41
1
10
78.9967978239007
20
3.12945202632568
30
0
41
1
10
78.8949360328796
20
3.39812143341533
30
0
41
1
10
78.8269632910527
20
3.57707749425148
30
0
41
1
10
78.7414493539408
20
3.79944752803962
30
0
41
1
10
78.724316283247
20
3.84384831236176
30
0
41
1
10
78.6899575030453
20
3.93242588804634
30
0
41
1
10
78.6727333467749
20
3.9766064350078
30
0
41
1
10
78.6210617441917
20
4.10915017036032
30
0
41
1
10
78.5865616367921
20
4.19746772834367
30
0
41
1
10
78.5520423066748
20
4.28514969654211
30
0
0
SPLINE
5
C7
100
AcDbEntity
8
1
62
256
6
ByLayer
370
18
48
1
60
0
100
AcDbSpline
70
4
71
3
72
8
73
4
40
0
40
0
40
0
40
0
40
1
40
1
40
1
40
1
41
1
10
78.4750162202308
20
-4.36351469438642
30
0
41
1
10
78.4879021011668
20
-4.32895089752898
30
0
41
1
10
78.5007753704597
20
-4.29436816391896
30
0
41
1
10
78.5136351668306
20
-4.2597688512958
30
0
0
SPLINE
5
C8
100
AcDbEntity
8
1
62
256
6
ByLayer
370
18
48
1
60
0
100
AcDbSpline
70
4
71
3
72
61
73
57
40
0
40
0
40
0
40
0
40
0.062499999999992
40
0.062499999999992
40
0.124999999999984
40
0.124999999999984
40
0.249999999999968
40
0.249999999999968
40
0.374999999999952
40
0.374999999999952
40
0.499999999999936
40
0.499999999999936
40
0.562499999999929
40
0.562499999999929
40
0.624999999999921
40
0.624999999999921
40
0.656249999999917
40
0.656249999999917
40
0.671874999999914
40
0.679687499999914
40
0.679687499999914
40
0.683593749999913
40
0.683593749999913
40
0.687499999999913
40
0.687499999999913
40
0.689453124999913
40
0.689453124999913
40
0.691406249999913
40
0.695312499999914
40
0.703124999999916
40
0.703124999999916
40
0.71874999999992
40
0.71874999999992
40
0.749999999999928
40
0.749999999999928
40
0.765624999999932
40
0.765624999999932
40
0.773437499999934
40
0.773437499999934
40
0.781249999999936
40
0.781249999999936
40
0.79687499999994
40
0.79687499999994
40
0.812499999999944
40
0.812499999999944
40
0.828124999999949
40
0.828124999999949
40
0.843749999999953
40
0.843749999999953
40
0.874999999999963
40
0.874999999999963
40
0.906249999999972
40
0.906249999999972
40
0.937499999999981
40
0.937499999999981
40
1
40
1
40
1
40
1
41
1
10
17.4638576857005
20
-1.73500121231379
30
0
41
1
10
17.1478593354207
20
-1.57529920179104
30
0
41
1
10
16.8300520624086
20
-1.41533008618288
30
0
41
1
10
16.1900826362968
20
-1.09707076698623
30
0
41
1
10
15.8673403432205
20
-0.938511344644809
30
0
41
1
10
14.8954076284081
20
-0.471630215133899
30
0
41
1
10
14.2440641556704
20
-0.172897430754603
30
0
41
1
10
12.9260941747027
20
0.377037662285915
30
0
41
1
10
12.2593907552368
20
0.628025383072043
30
0
41
1
10
10.9035412672353
20
1.06427061070585
30
0
41
1
10
10.2143945662138
20
1.24954528410115
30
0
41
1
10
9.16065244075179
20
1.47077826129308
30
0
41
1
10
8.80549801338955
20
1.53521054547426
30
0
41
1
10
8.09250811961661
20
1.64392994233628
30
0
41
1
10
7.73421453342149
20
1.68833665709255
30
0
41
1
10
7.19512065031014
20
1.73972468665082
30
0
41
1
10
7.01515453452063
20
1.75431811441897
30
0
41
1
10
6.74480252811287
20
1.77236786584334
30
0
41
1
10
6.60956752064499
20
1.78042944747116
30
0
41
1
10
6.47424297593071
20
1.78703745285901
30
0
41
1
10
6.40656568585385
20
1.79009818864159
30
0
41
1
10
6.3840469992914
20
1.79176971083118
30
0
41
1
10
6.33867042056107
20
1.7896440075219
30
0
41
1
10
6.31647580585093
20
1.78641067080613
30
0
41
1
10
6.28472008355448
20
1.77548485919038
30
0
41
1
10
6.27461953007673
20
1.77031767995854
30
0
41
1
10
6.25439259570305
20
1.76049452985961
30
0
41
1
10
6.22411117561958
20
1.74565307944644
30
0
41
1
10
6.15387618801734
20
1.71025856264521
30
0
41
1
10
6.09442858397739
20
1.67854863430779
30
0
41
1
10
5.97663654489614
20
1.6131059217683
30
0
41
1
10
5.89977244618797
20
1.56689241160311
30
0
41
1
10
5.67642236885817
20
1.41954491941121
30
0
41
1
10
5.53638388066003
20
1.30993352862663
30
0
41
1
10
5.34824606798281
20
1.11662615385509
30
0
41
1
10
5.2897046086444
20
1.04754347985045
30
0
41
1
10
5.21198951529215
20
0.937653972456815
30
0
41
1
10
5.18767467413574
20
0.899876521279936
30
0
41
1
10
5.14263658517896
20
0.821716237691902
30
0
41
1
10
5.12180707051868
20
0.78108485575882
30
0
41
1
10
5.06631782931993
20
0.65662390610396
30
0
41
1
10
5.0388194120938
20
0.570917174632996
30
0
41
1
10
5.00419757421847
20
0.393569156807587
30
0
41
1
10
4.9973000385931
20
0.300644472676595
30
0
41
1
10
5.00470067262094
20
0.118047771401706
30
0
41
1
10
5.01854884505639
20
0.0276911940447064
30
0
41
1
10
5.0637287840155
20
-0.151413332938517
30
0
41
1
10
5.09431498807058
20
-0.237422457352409
30
0
41
1
10
5.20376607246084
20
-0.486990886150096
30
0
41
1
10
5.30121877982907
20
-0.643608222400786
30
0
41
1
10
5.51679904117748
20
-0.931930695245086
30
0
41
1
10
5.63578313512946
20
-1.06532955886581
30
0
41
1
10
5.88795282626324
20
-1.31818589408499
30
0
41
1
10
6.0214658220186
20
-1.43757824454286
30
0
41
1
10
6.42939454064634
20
-1.77401563195784
30
0
41
1
10
6.71387514288534
20
-1.97287315852628
30
0
41
1
10
7.00517314779808
20
-2.1565260964766
30
0
0
SPLINE
5
C9
100
AcDbEntity
8
1
62
256
6
ByLayer
370
18
48
1
60
0
100
AcDbSpline
70
4
71
3
72
16
73
12
40
0
40
0
40
0
40
0
40
0.0962449378507388
40
0.0962449378507388
40
0.400334790735583
40
0.400334790735583
40
0.704424643620426
40
0.704424643620426
40
0.856469570062849
40
0.856469570062849
40
1
40
1
40
1
40
1
41
1
10
39.9126107728047
20
0.0200929988305347
30
0
41
1
10
40.1481747709383
20
-0.106427057843518
30
0
41
1
10
40.3843312845805
20
-0.233325211883994
30
0
41
1
10
41.369891636616
20
-0.761282332305939
30
0
41
1
10
42.1167351344035
20
-1.15605858231413
30
0
41
1
10
43.6143531458604
20
-1.9082177106927
30
0
41
1
10
44.3591417901618
20
-2.26146472424094
30
0
41
1
10
45.4793618806536
20
-2.74236120836514
30
0
41
1
10
45.8544504445897
20
-2.89472761475596
30
0
41
1
10
46.5796503792388
20
-3.16966391635711
30
0
41
1
10
46.9301853065853
20
-3.29370479582786
30
0
41
1
10
47.2797905396776
20
-3.4076704440115
30
0
0
SPLINE
5
CA
100
AcDbEntity
8
1
62
256
6
ByLayer
370
13
48
1
60
0
100
AcDbSpline
70
4
71
3
72
20
73
16
40
0
40
0
40
0
40
0
40
0.009024965593835
40
0.009024965593835
40
0.331345900219451
40
0.331345900219451
40
0.49250636753226
40
0.49250636753226
40
0.573086601188664
40
0.573086601188664
40
0.653666834845068
40
0.653666834845068
40
0.975987769470699
40
0.975987769470699
40
1
40
1
40
1
40
1
41
1
10
47.2797905399434
20
-3.40767044409816
30
0
41
1
10
47.3005297833497
20
-3.41443110181663
30
0
41
1
10
47.3212657550812
20
-3.4211563039226
30
0
41
1
10
48.0824590059937
20
-3.66676145322782
30
0
41
1
10
48.8194499081471
20
-3.85969357541254
30
0
41
1
10
49.9282715347372
20
-4.07242223797127
30
0
41
1
10
50.2986340195358
20
-4.13053139838476
30
0
41
1
10
50.8562878585295
20
-4.19734564386559
30
0
41
1
10
51.042517056823
20
-4.21624013189836
30
0
41
1
10
51.4158686394462
20
-4.24713111339832
30
0
41
1
10
51.6032780851359
20
-4.25912745603787
30
0
41
1
10
52.5368292027848
20
-4.30128623028622
30
0
41
1
10
53.2766079291467
20
-4.2783827678517
30
0
41
1
10
54.0698380079884
20
-4.19527632305977
30
0
41
1
10
54.1248316003384
20
-4.18921567930971
30
0
41
1
10
54.1798241496145
20
-4.18285726676544
30
0
0
SPLINE
5
CB
100
AcDbEntity
8
1
62
256
6
ByLayer
370
18
48
1
60
0
100
AcDbSpline
70
4
71
3
72
40
73
36
40
0
40
0
40
0
40
0
40
0.125000000000003
40
0.125000000000003
40
0.250000000000006
40
0.250000000000006
40
0.375000000000009
40
0.375000000000009
40
0.43750000000001
40
0.43750000000001
40
0.500000000000012
40
0.500000000000012
40
0.625000000000021
40
0.625000000000021
40
0.687500000000023
40
0.687500000000023
40
0.718750000000021
40
0.718750000000021
40
0.750000000000019
40
0.750000000000019
40
0.781250000000016
40
0.781250000000016
40
0.812500000000014
40
0.812500000000014
40
0.843750000000012
40
0.843750000000012
40
0.87500000000001
40
0.87500000000001
40
0.906250000000007
40
0.906250000000007
40
0.937500000000005
40
0.937500000000005
40
0.968750000000002
40
0.968750000000002
40
1
40
1
40
1
40
1
41
1
10
74.9932853200782
20
1.26839899873434
30
0
41
1
10
75.1492717593349
20
1.162294512323
30
0
41
1
10
75.3063473587951
20
1.06145540711327
30
0
41
1
10
75.6226115345549
20
0.872994960425984
30
0
41
1
10
75.7820515302625
20
0.785332240812977
30
0
41
1
10
76.1005775617906
20
0.626952670688837
30
0
41
1
10
76.2596759795971
20
0.556152638589367
30
0
41
1
10
76.4980448173494
20
0.464162794015408
30
0
41
1
10
76.5774550416461
20
0.435846988077515
30
0
41
1
10
76.7361749443891
20
0.384340317361364
30
0
41
1
10
76.8156954890025
20
0.361091258603892
30
0
41
1
10
77.0521997516841
20
0.300090078270557
30
0
41
1
10
77.2071272609933
20
0.270976644709748
30
0
41
1
10
77.4349749298602
20
0.246451937462894
30
0
41
1
10
77.5101646647325
20
0.241477306102837
30
0
41
1
10
77.6217388594598
20
0.23911567917861
30
0
41
1
10
77.658728289607
20
0.239179507453116
30
0
41
1
10
77.7322890374332
20
0.24106897338325
30
0
41
1
10
77.7687512513454
20
0.243812897493285
30
0
41
1
10
77.8398125006508
20
0.255169249981947
30
0
41
1
10
77.8740345061909
20
0.263486424620765
30
0
41
1
10
77.9392686945034
20
0.286593793472093
30
0
41
1
10
77.9705313142588
20
0.301478879811924
30
0
41
1
10
78.0277485673867
20
0.338909410737728
30
0
41
1
10
78.0536189383558
20
0.361209911927403
30
0
41
1
10
78.0976513177768
20
0.41590357941206
30
0
41
1
10
78.1155717849394
20
0.448611220221494
30
0
41
1
10
78.1428652368519
20
0.519430980897852
30
0
41
1
10
78.1523805160218
20
0.558388976960657
30
0
41
1
10
78.1629030348302
20
0.641993425853741
30
0
41
1
10
78.1638234046195
20
0.685652320934878
30
0
41
1
10
78.1581735832478
20
0.776173948509893
30
0
41
1
10
78.1515337447794
20
0.823245950017736
30
0
41
1
10
78.1324916313355
20
0.917007278935301
30
0
41
1
10
78.1201000438103
20
0.964089173902636
30
0
41
1
10
78.105392732968
20
1.01133340615627
30
0
0
SPLINE
5
CC
100
AcDbEntity
8
1
62
256
6
ByLayer
370
18
48
1
60
0
100
AcDbSpline
70
4
71
3
72
16
73
12
40
0
40
0
40
0
40
0
40
0.250000000000001
40
0.250000000000001
40
0.500000000000002
40
0.500000000000002
40
0.750000000000002
40
0.750000000000002
40
0.875000000000001
40
0.875000000000001
40
1
40
1
40
1
40
1
41
1
10
7.25153896769632
20
-2.08041987989896
30
0
41
1
10
7.60806802452294
20
-2.30880735331746
30
0
41
1
10
7.97457959642145
20
-2.50974259270947
30
0
41
1
10
8.72034385001729
20
-2.87278646641823
30
0
41
1
10
9.10049690974449
20
-3.03472648067958
30
0
41
1
10
9.86360899821915
20
-3.32228753192695
30
0
41
1
10
10.2476092466336
20
-3.44827023772817
30
0
41
1
10
10.8279743875416
20
-3.61412318757027
30
0
41
1
10
11.0221661459774
20
-3.66555104751515
30
0
41
1
10
11.4122280702597
20
-3.76120727990517
30
0
41
1
10
11.6080037132411
20
-3.80512292102406
30
0
41
1
10
11.8038785666174
20
-3.84457138259339
30
0
0
SPLINE
5
CD
100
AcDbEntity
8
1
62
256
6
ByLayer
370
18
48
1
60
0
100
AcDbSpline
70
4
71
3
72
98
73
94
40
0
40
0
40
0
40
0
40
0.0210995442181295
40
0.0210995442181295
40
0.0364558088390987
40
0.0364558088390987
40
0.0518120734600678
40
0.0518120734600678
40
0.0671683380810365
40
0.0671683380810365
40
0.0825246027020051
40
0.0825246027020051
40
0.113237131943942
40
0.113237131943942
40
0.14394966118588
40
0.14394966118588
40
0.159305925806849
40
0.159305925806849
40
0.174662190427818
40
0.174662190427818
40
0.205374719669755
40
0.205374719669755
40
0.220730984290724
40
0.220730984290724
40
0.236087248911692
40
0.236087248911692
40
0.251443513532661
40
0.251443513532661
40
0.26679977815363
40
0.26679977815363
40
0.297512307395566
40
0.297512307395566
40
0.328224836637502
40
0.328224836637502
40
0.358937365879438
40
0.358937365879438
40
0.374293630500406
40
0.374293630500406
40
0.389649895121374
40
0.389649895121374
40
0.42036242436331
40
0.42036242436331
40
0.435718688984278
40
0.435718688984278
40
0.451074953605245
40
0.451074953605245
40
0.48178748284718
40
0.48178748284718
40
0.512500012089115
40
0.512500012089115
40
0.543212541331051
40
0.543212541331051
40
0.558568805952018
40
0.558568805952018
40
0.573925070572985
40
0.573925070572985
40
0.604637599814919
40
0.604637599814919
40
0.619993864435886
40
0.619993864435886
40
0.635350129056853
40
0.635350129056853
40
0.666062658298787
40
0.666062658298787
40
0.696775187540721
40
0.696775187540721
40
0.727487716782656
40
0.727487716782656
40
0.75820024602459
40
0.75820024602459
40
0.773556510645558
40
0.773556510645558
40
0.788912775266525
40
0.788912775266525
40
0.81962530450846
40
0.81962530450846
40
0.834981569129428
40
0.834981569129428
40
0.850337833750396
40
0.850337833750396
40
0.881050362992331
40
0.881050362992331
40
0.911762892234266
40
0.911762892234266
40
0.942475421476201
40
0.942475421476201
40
0.957831686097168
40
0.957831686097168
40
0.973187950718136
40
0.973187950718136
40
0.988544215339103
40
0.988544215339103
40
1
40
1
40
1
40
1
41
1
10
20.6281451968411
20
3.1507776014011
30
0
41
1
10
20.8462698462049
20
3.23322350875875
30
0
41
1
10
21.0644372515886
20
3.31225752012779
30
0
41
1
10
21.441222685676
20
3.44312172834714
30
0
41
1
10
21.5997355991867
20
3.49665207089691
30
0
41
1
10
21.9175797157403
20
3.59907403003584
30
0
41
1
10
22.0769774275417
20
3.64791133907079
30
0
41
1
10
22.3964851803643
20
3.74114604507548
30
0
41
1
10
22.5566024797576
20
3.78553460507192
30
0
41
1
10
22.877444091042
20
3.86994463504209
30
0
41
1
10
23.0384254640865
20
3.91002284400054
30
0
41
1
10
23.5199660672417
20
4.02316908521124
30
0
41
1
10
23.8384367397861
20
4.08937078037056
30
0
41
1
10
24.4758634862511
20
4.19984097316322
30
0
41
1
10
24.7941943640041
20
4.24473684308578
30
0
41
1
10
25.2704125623584
20
4.29714533997068
30
0
41
1
10
25.4289422189285
20
4.31211048910006
30
0
41
1
10
25.7454728116824
20
4.33696692511256
30
0
41
1
10
25.9034966489201
20
4.34682642282343
30
0
41
1
10
26.3787752783656
20
4.36838388445057
30
0
41
1
10
26.69651278464
20
4.37233376364608
30
0
41
1
10
27.1736053501796
20
4.36277786327227
30
0
41
1
10
27.3327257137347
20
4.35699786772639
30
0
41
1
10
27.651047575926
20
4.34011101805527
30
0
41
1
10
27.8101006705749
20
4.32895169247294
30
0
41
1
10
28.1291723613262
20
4.30138508738028
30
0
41
1
10
28.2892713423853
20
4.28503009869615
30
0
41
1
10
28.6103567071779
20
4.24715180142582
30
0
41
1
10
28.7714240988342
20
4.22560912030153
30
0
41
1
10
29.2527353415196
20
4.15357330426599
30
0
41
1
10
29.5719910800683
20
4.09553107844988
30
0
41
1
10
30.2071282074592
20
3.95907835344264
30
0
41
1
10
30.5247555729392
20
3.88196974326547
30
0
41
1
10
31.1596321927217
20
3.7103713264099
30
0
41
1
10
31.4767733436403
20
3.61578923216905
30
0
41
1
10
31.9514037572268
20
3.45975767246506
30
0
41
1
10
32.1094342152085
20
3.40535527290419
30
0
41
1
10
32.426458939771
20
3.29332349379064
30
0
41
1
10
32.5852846960682
20
3.23551490935205
30
0
41
1
10
33.0624250969761
20
3.05643580442043
30
0
41
1
10
33.3814125203478
20
2.92956511192952
30
0
41
1
10
33.8606331454602
20
2.72672247759343
30
0
41
1
10
34.02035261689
20
2.65677171346437
30
0
41
1
10
34.340899507979
20
2.51385964893706
30
0
41
1
10
34.5015987352248
20
2.44116869924287
30
0
41
1
10
34.9822737557562
20
2.22001046795873
30
0
41
1
10
35.30176115437
20
2.06809726583302
30
0
41
1
10
35.937943940771
20
1.75394765268263
30
0
41
1
10
36.25409909042
20
1.5907263372375
30
0
41
1
10
36.8881578650579
20
1.26179075328184
30
0
41
1
10
37.2054563796851
20
1.09507500829437
30
0
41
1
10
37.6810831913946
20
0.840349395722171
30
0
41
1
10
37.83957606781
20
0.754669376850046
30
0
41
1
10
38.1563598877566
20
0.581543435637428
30
0
41
1
10
38.3146287769528
20
0.494049357771814
30
0
41
1
10
38.7911160557908
20
0.232600247384738
30
0
41
1
10
39.1103109661662
20
0.0584014940813233
30
0
41
1
10
39.5905662616551
20
-0.204366017501911
30
0
41
1
10
39.7509049097876
20
-0.292185467542169
30
0
41
1
10
40.0720027584374
20
-0.468497844709418
30
0
41
1
10
40.2319119284841
20
-0.556882476016398
30
0
41
1
10
40.7110229964139
20
-0.819321108792394
30
0
41
1
10
41.0301637538417
20
-0.990051771153674
30
0
41
1
10
41.6666172077288
20
-1.32591164095672
30
0
41
1
10
41.9839011306238
20
-1.49107468744387
30
0
41
1
10
42.6162266397884
20
-1.81627442660312
30
0
41
1
10
42.9329972255247
20
-1.97333411225233
30
0
41
1
10
43.5675259792336
20
-2.27705283474674
30
0
41
1
10
43.8851237451441
20
-2.42398287235122
30
0
41
1
10
44.3614109136315
20
-2.63770125030806
30
0
41
1
10
44.5201134071349
20
-2.70787353360004
30
0
41
1
10
44.8387899722453
20
-2.84398517930819
30
0
41
1
10
44.998606020243
20
-2.91017163203165
30
0
41
1
10
45.4792019372593
20
-3.10355897772823
30
0
41
1
10
45.8015696957443
20
-3.22570452554999
30
0
41
1
10
46.2807058019761
20
-3.39692816547648
30
0
41
1
10
46.439784195153
20
-3.45225313217927
30
0
41
1
10
46.7577290717455
20
-3.55813711833608
30
0
41
1
10
46.9167375540151
20
-3.60855784767105
30
0
41
1
10
47.3935210497797
20
-3.75287242234981
30
0
41
1
10
47.7110704911538
20
-3.83984040818294
30
0
41
1
10
48.3446538439451
20
-3.99618631197447
30
0
41
1
10
48.6600995554849
20
-4.0658327158514
30
0
41
1
10
49.2939224199733
20
-4.18393235080555
30
0
41
1
10
49.6117509650771
20
-4.23295306506446
30
0
41
1
10
50.0891386042956
20
-4.29174384851632
30
0
41
1
10
50.2483804074005
20
-4.30886901953406
30
0
41
1
10
50.5669955178794
20
-4.3380634183745
30
0
41
1
10
50.7263089013049
20
-4.35012349735734
30
0
41
1
10
51.0463638883275
20
-4.36877062069004
30
0
41
1
10
51.2072092524793
20
-4.37542100963029
30
0
41
1
10
51.4873905770406
20
-4.38237745823392
30
0
41
1
10
51.6069330666154
20
-4.3838724694854
30
0
41
1
10
51.726284632068
20
-4.38390425793835
30
0
0
SPLINE
5
CE
100
AcDbEntity
8
1
62
256
6
ByLayer
370
18
48
1
60
0
100
AcDbSpline
70
4
71
3
72
28
73
24
40
0
40
0
40
0
40
0
40
0.0366091075491551
40
0.0366091075491551
40
0.15703296910551
40
0.15703296910551
40
0.277456830661865
40
0.277456830661865
40
0.337668761440043
40
0.337668761440043
40
0.397880692218223
40
0.397880692218223
40
0.518304553774578
40
0.518304553774578
40
0.578516484552756
40
0.578516484552756
40
0.638728415330936
40
0.638728415330936
40
0.75915227688729
40
0.75915227688729
40
0.879576138443645
40
0.879576138443645
40
1
40
1
40
1
40
1
41
1
10
70.638121454078
20
3.16944626301469
30
0
41
1
10
70.7344000522966
20
3.20619460559286
30
0
41
1
10
70.8306312737713
20
3.24229307539554
30
0
41
1
10
71.2431543541664
20
3.39440946344061
30
0
41
1
10
71.5585642017618
20
3.50437869259025
30
0
41
1
10
72.1929201270524
20
3.70475184182462
30
0
41
1
10
72.5111111416811
20
3.79613632992349
30
0
41
1
10
72.9892449184247
20
3.92047190837474
30
0
41
1
10
73.1487645150994
20
3.9597826257598
30
0
41
1
10
73.4680194984842
20
4.03404893818447
30
0
41
1
10
73.62818689546
20
4.0688791291567
30
0
41
1
10
74.1090541837718
20
4.16502821348061
30
0
41
1
10
74.4287881011546
20
4.21846828973671
30
0
41
1
10
74.9064090320201
20
4.28358403305333
30
0
41
1
10
75.0652902954209
20
4.30276420789701
30
0
41
1
10
75.3822948873835
20
4.33605888612666
30
0
41
1
10
75.5402903325983
20
4.35018909519582
30
0
41
1
10
76.0149331871273
20
4.38442570682099
30
0
41
1
10
76.3318424957501
20
4.39665515914248
30
0
41
1
10
76.9653811995994
20
4.40060005406633
30
0
41
1
10
77.2818311459862
20
4.3922520672497
30
0
41
1
10
77.9147108951876
20
4.35414732274114
30
0
41
1
10
78.2328220247608
20
4.32479685519459
30
0
41
1
10
78.5520423066627
20
4.28514969654358
30
0
0
SPLINE
5
CF
100
AcDbEntity
8
1
62
256
6
ByLayer
370
18
48
1
60
0
100
AcDbSpline
70
4
71
3
72
20
73
16
40
0
40
0
40
0
40
0
40
0.25
40
0.25
40
0.499999999999999
40
0.499999999999999
40
0.624999999999999
40
0.624999999999999
40
0.749999999999999
40
0.749999999999999
40
0.8125
40
0.8125
40
0.875
40
0.875
40
1
40
1
40
1
40
1
41
1
10
78.2319268588008
20
1.32167558498355
30
0
41
1
10
78.3559456617601
20
1.34978047771125
30
0
41
1
10
78.4789869651529
20
1.381829879766
30
0
41
1
10
78.7207253939695
20
1.4592328320083
30
0
41
1
10
78.8388686179162
20
1.50394652744492
30
0
41
1
10
79.0077894955496
20
1.58995568703136
30
0
41
1
10
79.0629404238546
20
1.62207307955444
30
0
41
1
10
79.165998219268
20
1.69539733896903
30
0
41
1
10
79.2147534441449
20
1.73728014863517
30
0
41
1
10
79.2761857549356
20
1.80888799057561
30
0
41
1
10
79.2947388465878
20
1.83422453323988
30
0
41
1
10
79.3269144992688
20
1.88868466165627
30
0
41
1
10
79.3406038568562
20
1.91820329810832
30
0
41
1
10
79.3705645861491
20
2.00907065724081
30
0
41
1
10
79.3758875659547
20
2.07485569069289
30
0
41
1
10
79.3679243415889
20
2.13860834410875
30
0
0
SPLINE
5
D0
100
AcDbEntity
8
1
62
256
6
ByLayer
370
18
48
1
60
0
100
AcDbSpline
70
4
71
3
72
79
73
75
40
0
40
0
40
0
40
0
40
0.0819087893635486
40
0.0819087893635486
40
0.125443233147935
40
0.125443233147935
40
0.168977676932321
40
0.168977676932321
40
0.256046564501094
40
0.256046564501094
40
0.299581008285481
40
0.299581008285481
40
0.321348230177674
40
0.321348230177674
40
0.332231841123771
40
0.332231841123771
40
0.332571953965836
40
0.332571953965836
40
0.332912066807902
40
0.332912066807902
40
0.333252179649967
40
0.333252179649967
40
0.333592292492033
40
0.333592292492033
40
0.334952743860295
40
0.334952743860295
40
0.337673646596819
40
0.337673646596819
40
0.343115452069867
40
0.343115452069867
40
0.364882673962058
40
0.364882673962058
40
0.38664989585425
40
0.38664989585425
40
0.430184339638633
40
0.430184339638633
40
0.5172532272074
40
0.5172532272074
40
0.604322114776166
40
0.604322114776166
40
0.626089336668358
40
0.626089336668358
40
0.636972947614454
40
0.636972947614454
40
0.64785655856055
40
0.64785655856055
40
0.649217009928811
40
0.649217009928811
40
0.649897235612942
40
0.649897235612942
40
0.650577461297073
40
0.650577461297073
40
0.650917574139139
40
0.650917574139139
40
0.651257686981204
40
0.651937912665335
40
0.653298364033597
40
0.658740169506645
40
0.658740169506645
40
0.66962378045274
40
0.66962378045274
40
0.69139100234493
40
0.69139100234493
40
0.778459889913689
40
0.778459889913689
40
0.821994333698069
40
0.821994333698069
40
0.865528777482449
40
0.865528777482449
40
0.909063221266829
40
0.909063221266829
40
0.952597665051208
40
0.952597665051208
40
1
40
1
40
1
40
1
41
1
10
15.2725391425315
20
-0.704263699381926
30
0
41
1
10
15.0015364888662
20
-0.606966815708915
30
0
41
1
10
14.7318897856094
20
-0.525900270272246
30
0
41
1
10
14.3165899341548
20
-0.43176152307916
30
0
41
1
10
14.171399924777
20
-0.404547057233913
30
0
41
1
10
13.8830518402114
20
-0.362570155281617
30
0
41
1
10
13.7398206531777
20
-0.347726375109573
30
0
41
1
10
13.3114783635039
20
-0.32147256099617
30
0
41
1
10
13.0276873047792
20
-0.328331759302131
30
0
41
1
10
12.5994478743203
20
-0.37437020650367
30
0
41
1
10
12.4562848044003
20
-0.395675154195033
30
0
41
1
10
12.2403145261048
20
-0.436498111880979
30
0
41
1
10
12.1681403913026
20
-0.45158365261247
30
0
41
1
10
12.0599675139864
20
-0.476301678877661
30
0
41
1
10
12.0239037978902
20
-0.484893176040231
30
0
41
1
10
11.9867060971635
20
-0.494111051293089
30
0
41
1
10
11.9855788914206
20
-0.494390718766084
30
0
41
1
10
11.9833244742355
20
-0.494950729288235
30
0
41
1
10
11.9818156327752
20
-0.494973196042025
30
0
41
1
10
11.9804882232483
20
-0.496182445417901
30
0
41
1
10
11.9816823451345
20
-0.497079647116664
30
0
41
1
10
11.9832591756421
20
-0.498447628133732
30
0
41
1
10
11.984137558021
20
-0.499092596789552
30
0
41
1
10
11.9886358975739
20
-0.502245662402942
30
0
41
1
10
11.992613454272
20
-0.504578090054224
30
0
41
1
10
12.004595922033
20
-0.51149362144713
30
0
41
1
10
12.0128443661106
20
-0.515926629811332
30
0
41
1
10
12.0377616127676
20
-0.529111891366028
30
0
41
1
10
12.0546599790852
20
-0.537701818994861
30
0
41
1
10
12.13949097919
20
-0.580368402169313
30
0
41
1
10
12.2085462963749
20
-0.613658827799952
30
0
41
1
10
12.3468470653784
20
-0.680222291342517
30
0
41
1
10
12.4162563679682
20
-0.713373042823264
30
0
41
1
10
12.6248393737032
20
-0.81279220047972
30
0
41
1
10
12.7643787097999
20
-0.879021462106806
30
0
41
1
10
13.1835891810117
20
-1.07826456262413
30
0
41
1
10
13.4635507799848
20
-1.21223490058406
30
0
41
1
10
14.0234618666597
20
-1.48391763592503
30
0
41
1
10
14.3033230269611
20
-1.62150245931036
30
0
41
1
10
14.6507922262056
20
-1.79921975361253
30
0
41
1
10
14.7201638120648
20
-1.83506171137057
30
0
41
1
10
14.8237290644897
20
-1.88982256598717
30
0
41
1
10
14.8581721322756
20
-1.90823655687737
30
0
41
1
10
14.9266634832984
20
-1.94580832354617
30
0
41
1
10
14.9610496240486
20
-1.96449745023909
30
0
41
1
10
14.9979319054537
20
-1.98819272807299
30
0
41
1
10
15.0019948006357
20
-1.9908755280147
30
0
41
1
10
15.007933341965
20
-1.99512060457275
30
0
41
1
10
15.0098886157587
20
-1.99656999912193
30
0
41
1
10
15.0136622275733
20
-1.99966269794649
30
0
41
1
10
15.0157652739735
20
-2.00117635496969
30
0
41
1
10
15.0173951376747
20
-2.00448034561745
30
0
41
1
10
15.0161891646866
20
-2.0055262359374
30
0
41
1
10
15.0141701152197
20
-2.00721081680876
30
0
41
1
10
15.0111415415527
20
-2.00973764385074
30
0
41
1
10
15.0040748975572
20
-2.01563323042663
30
0
41
1
10
14.9818653872751
20
-2.03416008715806
30
0
41
1
10
14.961675736236
20
-2.05099440701039
30
0
41
1
10
14.9132182843425
20
-2.0913762440228
30
0
41
1
10
14.8809195521905
20
-2.11826240568939
30
0
41
1
10
14.7840215211424
20
-2.19876827537277
30
0
41
1
10
14.7193527268899
20
-2.25229192277621
30
0
41
1
10
14.3963878008298
20
-2.51766467528574
30
0
41
1
10
14.1397494735805
20
-2.72269678548034
30
0
41
1
10
13.7472854719448
20
-3.00703464067769
30
0
41
1
10
13.6153836798351
20
-3.09767729505845
30
0
41
1
10
13.3518088769176
20
-3.2657203940343
30
0
41
1
10
13.2195697102518
20
-3.34353325492168
30
0
41
1
10
12.9524131552628
20
-3.48494987806211
30
0
41
1
10
12.8174910052798
20
-3.54854519060649
30
0
41
1
10
12.5432943729124
20
-3.66003457383002
30
0
41
1
10
12.4032227699436
20
-3.70808518848543
30
0
41
1
10
12.1106563252774
20
-3.78965437806875
30
0
41
1
10
11.9576843584924
20
-3.82175347445238
30
0
41
1
10
11.8038414270625
20
-3.84459322665268
30
0
0
SPLINE
5
D1
100
AcDbEntity
8
1
62
256
6
ByLayer
370
18
48
1
60
0
100
AcDbSpline
70
4
71
3
72
22
73
18
40
0
40
0
40
0
40
0
40
0.125
40
0.125
40
0.1875
40
0.1875
40
0.25
40
0.25
40
0.5
40
0.5
40
0.625
40
0.625
40
0.75
40
0.75
40
0.875
40
0.875
40
1
40
1
40
1
40
1
41
1
10
78.4716989664326
20
-4.19897257986534
30
0
41
1
10
78.4077918282001
20
-4.19894774255636
30
0
41
1
10
78.3470971987033
20
-4.18922426490005
30
0
41
1
10
78.261134739975
20
-4.15930396072073
30
0
41
1
10
78.2333294375001
20
-4.14676782632503
30
0
41
1
10
78.1794917046327
20
-4.11634321451348
30
0
41
1
10
78.1534272653039
20
-4.09840111212321
30
0
41
1
10
78.0295780251567
20
-3.99629641944802
30
0
41
1
10
77.9493366195561
20
-3.87483687789546
30
0
41
1
10
77.8591048786869
20
-3.6290282879697
30
0
41
1
10
77.8340340379936
20
-3.53551412134794
30
0
41
1
10
77.7961545136079
20
-3.33195211513959
30
0
41
1
10
77.7830836933067
20
-3.22153807207729
30
0
41
1
10
77.7686356419844
20
-2.98350906193952
30
0
41
1
10
77.7672564444579
20
-2.85589698753586
30
0
41
1
10
77.776721972236
20
-2.58269180974571
30
0
41
1
10
77.7875107181252
20
-2.43955742333972
30
0
41
1
10
77.8040544675638
20
-2.29118492369832
30
0
0
SPLINE
5
D2
100
AcDbEntity
8
1
62
256
6
ByLayer
370
18
48
1
60
0
100
AcDbSpline
70
4
71
3
72
18
73
14
40
0
40
0
40
0
40
0
40
0.15108447914474
40
0.15108447914474
40
0.254560290109128
40
0.254560290109128
40
0.358036101073515
40
0.358036101073515
40
0.564987723002288
40
0.564987723002288
40
0.978890966859835
40
0.978890966859835
40
1
40
1
40
1
40
1
41
1
10
52.6335942449873
20
-4.18367712378318
30
0
41
1
10
52.3626598732709
20
-4.18301157623392
30
0
41
1
10
52.0910714277905
20
-4.17507683063855
30
0
41
1
10
51.6319404532091
20
-4.14932306677912
30
0
41
1
10
51.4446782338786
20
-4.13537935713313
30
0
41
1
10
51.0716062984434
20
-4.1008021192753
30
0
41
1
10
50.8854971795392
20
-4.08016302972854
30
0
41
1
10
50.3281524605661
20
-4.0084032154613
30
0
41
1
10
49.9579216400057
20
-3.94739225141626
30
0
41
1
10
48.8494131602416
20
-3.72727936234603
30
0
41
1
10
48.112477459024
20
-3.53105616904583
30
0
41
1
10
47.3344184985489
20
-3.27843253342323
30
0
41
1
10
47.2966530171414
20
-3.26606048694617
30
0
41
1
10
47.2588766171747
20
-3.25357580583855
30
0
0
SPLINE
5
D3
100
AcDbEntity
8
1
62
256
6
ByLayer
370
13
48
1
60
0
100
AcDbSpline
70
4
71
3
72
24
73
20
40
0
40
0
40
0
40
0
40
0.0886826271826393
40
0.0886826271826393
40
0.138060473378398
40
0.138060473378398
40
0.187438319574156
40
0.187438319574156
40
0.384949704357191
40
0.384949704357191
40
0.483705396748708
40
0.483705396748708
40
0.582461089140225
40
0.582461089140225
40
0.779972473923259
40
0.779972473923259
40
0.977483858706293
40
0.977483858706293
40
1
40
1
40
1
40
1
41
1
10
47.2588766172127
20
-3.25357580585111
30
0
41
1
10
46.9262955881062
20
-3.1436614652979
30
0
41
1
10
46.592868269126
20
-3.02501689347193
30
0
41
1
10
46.0715601181496
20
-2.82758513275408
30
0
41
1
10
45.8844189765525
20
-2.75433630541681
30
0
41
1
10
45.5104414350534
20
-2.60340570647776
30
0
41
1
10
45.3237245864362
20
-2.52578280895074
30
0
41
1
10
44.3908009181315
20
-2.12795142399588
30
0
41
1
10
43.6463321149959
20
-1.77882931366395
30
0
41
1
10
42.5238185149763
20
-1.22345915311374
30
0
41
1
10
42.150198347449
20
-1.03412526955304
30
0
41
1
10
41.403015818194
20
-0.650097841691888
30
0
41
1
10
41.0291734156639
20
-0.455027420208353
30
0
41
1
10
39.907157719628
20
0.133122883910488
30
0
41
1
10
39.1665967788999
20
0.523781179984979
30
0
41
1
10
37.6889678238972
20
1.2809648433626
30
0
41
1
10
36.9513637971096
20
1.64638987782752
30
0
41
1
10
36.1249419013786
20
2.0275587983902
30
0
41
1
10
36.0403053794566
20
2.06624251388405
30
0
41
1
10
35.9555955566146
20
2.10459050232791
30
0
0
SPLINE
5
D4
100
AcDbEntity
8
1
62
256
6
ByLayer
370
18
48
1
60
0
100
AcDbSpline
70
4
71
3
72
8
73
4
40
0
40
0
40
0
40
0
40
1
40
1
40
1
40
1
41
1
10
78.5321890776302
20
-4.17383085811909
30
0
41
1
10
78.5090908691202
20
-4.19055068402608
30
0
41
1
10
78.4889102096138
20
-4.1989803844011
30
0
41
1
10
78.4716989664291
20
-4.19897257986534
30
0
0
SPLINE
5
D5
100
AcDbEntity
8
1
62
256
6
ByLayer
370
18
48
1
60
0
100
AcDbSpline
70
4
71
3
72
16
73
12
40
0
40
0
40
0
40
0
40
0.183605981004548
40
0.183605981004548
40
0.367211962009095
40
0.367211962009095
40
0.73442392401819
40
0.73442392401819
40
0.918029905022738
40
0.918029905022738
40
1
40
1
40
1
40
1
41
1
10
7.00493813311419
20
3.72626971320926
30
0
41
1
10
7.00494666882122
20
3.80201414648022
30
0
41
1
10
7.004954694623
20
3.87165894818875
30
0
41
1
10
7.00496970607685
20
3.99688213172155
30
0
41
1
10
7.00497669101316
20
4.05247398884279
30
0
41
1
10
7.00499643664824
20
4.19874500681686
30
0
41
1
10
7.00500799380185
20
4.26912537593455
30
0
41
1
10
7.00502414918648
20
4.33248157759013
30
0
41
1
10
7.00502927218832
20
4.34622376878002
30
0
41
1
10
7.0050364032308
20
4.35559588276095
30
0
41
1
10
7.00503856836198
20
4.35705131915608
30
0
41
1
10
7.00504070563761
20
4.35707469258369
30
0
0
SPLINE
5
D6
100
AcDbEntity
8
1
62
256
6
ByLayer
370
18
48
1
60
0
100
AcDbSpline
70
4
71
3
72
20
73
16
40
0
40
0
40
0
40
0
40
0.125000000000004
40
0.125000000000004
40
0.187500000000004
40
0.187500000000004
40
0.250000000000005
40
0.250000000000005
40
0.500000000000001
40
0.500000000000001
40
0.624999999999999
40
0.624999999999999
40
0.749999999999997
40
0.749999999999997
40
1
40
1
40
1
40
1
41
1
10
74.9932853200781
20
1.26839899873417
30
0
41
1
10
75.0508351576718
20
1.08892039200526
30
0
41
1
10
75.1213444447947
20
0.911699319588678
30
0
41
1
10
75.2435532273554
20
0.648732401881176
30
0
41
1
10
75.2870491973433
20
0.561557503593804
30
0
41
1
10
75.3792425606709
20
0.388113794246664
30
0
41
1
10
75.4281229628649
20
0.30156764610993
30
0
41
1
10
75.6807440907238
20
-0.122223466711716
30
0
41
1
10
75.910683431549
20
-0.437955709955389
30
0
41
1
10
76.2852557496897
20
-0.886729588185176
30
0
41
1
10
76.4156408270544
20
-1.03248344385571
30
0
41
1
10
76.6806640146036
20
-1.31133584765999
30
0
41
1
10
76.8158181512422
20
-1.44510268879873
30
0
41
1
10
77.2281838255257
20
-1.83161894360845
30
0
41
1
10
77.5121829525841
20
-2.06983182213787
30
0
41
1
10
77.8040544675638
20
-2.2911849236983
30
0
0
SPLINE
5
D7
100
AcDbEntity
8
1
62
256
6
ByLayer
370
18
48
1
60
0
100
AcDbSpline
70
4
71
3
72
40
73
36
40
0
40
0
40
0
40
0
40
0.0428027247391602
40
0.0428027247391602
40
0.0856054494783204
40
0.0856054494783204
40
0.171210898956641
40
0.171210898956641
40
0.256816348434961
40
0.256816348434961
40
0.299619073174122
40
0.299619073174122
40
0.342421797913282
40
0.342421797913282
40
0.428027247391602
40
0.428027247391602
40
0.470829972130762
40
0.470829972130762
40
0.513632696869923
40
0.513632696869923
40
0.599238146348242
40
0.599238146348242
40
0.684843595826561
40
0.684843595826561
40
0.72764632056572
40
0.72764632056572
40
0.770449045304879
40
0.770449045304879
40
0.856054494783196
40
0.856054494783196
40
0.898857219522354
40
0.898857219522354
40
0.941659944261512
40
0.941659944261512
40
1
40
1
40
1
40
1
41
1
10
78.4750162202308
20
-4.36351469438642
30
0
41
1
10
78.1013819495857
20
-4.3899255014604
30
0
41
1
10
77.7278503184737
20
-4.40171355592651
30
0
41
1
10
76.9796695561923
20
-4.3961840461493
30
0
41
1
10
76.6046539399479
20
-4.37874570589389
30
0
41
1
10
75.4872642349199
20
-4.28400624287733
30
0
41
1
10
74.7488869843188
20
-4.1643047976861
30
0
41
1
10
73.271684011206
20
-3.82128991038394
30
0
41
1
10
72.5326750361949
20
-3.59815120901922
30
0
41
1
10
71.4136492087137
20
-3.1938823017241
30
0
41
1
10
71.0382358514727
20
-3.04718520568667
30
0
41
1
10
70.2932590532147
20
-2.73708520743764
30
0
41
1
10
69.9223567812139
20
-2.57327576636919
30
0
41
1
10
68.8119579036697
20
-2.05964387444715
30
0
41
1
10
68.0747321105533
20
-1.68768546171049
30
0
41
1
10
66.9640285136707
20
-1.10106757487205
30
0
41
1
10
66.5928925165022
20
-0.900904911675497
30
0
41
1
10
65.8470529630748
20
-0.49435073896251
30
0
41
1
10
65.4714675629268
20
-0.287456953708101
30
0
41
1
10
64.3532640869003
20
0.329194307078751
30
0
41
1
10
63.6143178890063
20
0.737455703445534
30
0
41
1
10
62.1369355085846
20
1.52572233078339
30
0
41
1
10
61.3977144556495
20
1.90434394880302
30
0
41
1
10
60.2793377437947
20
2.43338210599333
30
0
41
1
10
59.9036968064829
20
2.60336626437862
30
0
41
1
10
59.1577851587866
20
2.92243010426907
30
0
41
1
10
58.7865619514099
20
3.07219689141908
30
0
41
1
10
57.6756988965037
20
3.48949879789893
30
0
41
1
10
56.9380302294662
20
3.72407523357092
30
0
41
1
10
55.8274234515617
20
4.00157132079156
30
0
41
1
10
55.4563235271801
20
4.08146578959725
30
0
41
1
10
54.7106904607296
20
4.21447175531932
30
0
41
1
10
54.3349724835954
20
4.26769687936687
30
0
41
1
10
53.4535065909105
20
4.3589992637954
30
0
41
1
10
52.9480524706147
20
4.38488263085517
30
0
41
1
10
52.4437485849387
20
4.38435170778845
30
0
0
SPLINE
5
D8
100
AcDbEntity
8
1
62
256
6
ByLayer
370
18
48
1
60
0
100
AcDbSpline
70
4
71
3
72
38
73
34
40
0
40
0
40
0
40
0
40
0.0148268986571189
40
0.0148268986571189
40
0.113344208791408
40
0.113344208791408
40
0.137973536324981
40
0.137973536324981
40
0.162602863858553
40
0.162602863858553
40
0.211861518925697
40
0.211861518925697
40
0.310378829059986
40
0.310378829059986
40
0.35963748412713
40
0.35963748412713
40
0.384266811660702
40
0.384266811660702
40
0.408896139194274
40
0.408896139194274
40
0.605930759462849
40
0.605930759462849
40
0.63056008699642
40
0.63056008699642
40
0.655189414529992
40
0.655189414529992
40
0.704448069597136
40
0.704448069597136
40
0.802965379731424
40
0.802965379731424
40
0.901482689865712
40
0.901482689865712
40
1
40
1
40
1
40
1
41
1
10
29.7827651921517
20
-4.18425115551563
30
0
41
1
10
29.6713718259406
20
-4.20187250407142
30
0
41
1
10
29.560021537933
20
-4.21825628013818
30
0
41
1
10
28.7089603638565
20
-4.33396697966415
30
0
41
1
10
27.9700052164798
20
-4.37944369001804
30
0
41
1
10
27.0392835280866
20
-4.36447182372703
30
0
41
1
10
26.8527850624197
20
-4.35788518009352
30
0
41
1
10
26.4788376693297
20
-4.33746297139041
30
0
41
1
10
26.2910467145727
20
-4.32358974699036
30
0
41
1
10
25.7294677390595
20
-4.27136545064545
30
0
41
1
10
25.357023005833
20
-4.22244654790282
30
0
41
1
10
24.2430443865123
20
-4.03545340168802
30
0
41
1
10
23.5046813456923
20
-3.85723727361636
30
0
41
1
10
22.3938674314207
20
-3.51817388470536
30
0
41
1
10
22.0230184878507
20
-3.39323491778899
30
0
41
1
10
21.4646915380354
20
-3.18903548136618
30
0
41
1
10
21.278238361807
20
-3.11817244732384
30
0
41
1
10
20.9044310982728
20
-2.97105181369864
30
0
41
1
10
20.7167350320272
20
-2.89464431304378
30
0
41
1
10
19.0308224078937
20
-2.18720372305782
30
0
41
1
10
17.5636645628367
20
-1.42302846706406
30
0
41
1
10
15.8892027427036
20
-0.514013930524897
30
0
41
1
10
15.7028247528599
20
-0.412319642128608
30
0
41
1
10
15.3291971177978
20
-0.207929456117228
30
0
41
1
10
15.1416860802724
20
-0.10510341844207
30
0
41
1
10
14.5792417599106
20
0.203223353432009
30
0
41
1
10
14.2062885911062
20
0.407548962348386
30
0
41
1
10
13.0910000920891
20
1.01251472953635
30
0
41
1
10
12.3522928638336
20
1.40523018714413
30
0
41
1
10
10.8710692372873
20
2.14582022790711
30
0
41
1
10
10.1287866463577
20
2.49452539406562
30
0
41
1
10
8.62733291077302
20
3.12257342962752
30
0
41
1
10
7.87986588757565
20
3.39717787907895
30
0
41
1
10
7.12977694254829
20
3.62505450573241
30
0
0
SPLINE
5
D9
100
AcDbEntity
8
1
62
256
6
ByLayer
370
18
48
1
60
0
100
AcDbSpline
70
4
71
3
72
20
73
16
40
0
40
0
40
0
40
0
40
0.250000000000001
40
0.250000000000001
40
0.375000000000002
40
0.375000000000002
40
0.500000000000002
40
0.500000000000002
40
0.749999999999997
40
0.749999999999997
40
0.812499999999996
40
0.812499999999996
40
0.874999999999995
40
0.874999999999995
40
1
40
1
40
1
40
1
41
1
10
79.3679243415888
20
-2.13860834410883
30
0
41
1
10
79.3007673265397
20
-2.31953676455456
30
0
41
1
10
79.233508812014
20
-2.50021976769449
30
0
41
1
10
79.1322984667224
20
-2.77046431646159
30
0
41
1
10
79.0985060107997
20
-2.86041121722431
30
0
41
1
10
79.0307544453154
20
-3.03990206409009
30
0
41
1
10
78.9967978239007
20
-3.12945202632568
30
0
41
1
10
78.8949360328795
20
-3.3981214334153
30
0
41
1
10
78.8269632910526
20
-3.57707749425148
30
0
41
1
10
78.7414493539408
20
-3.79944752803962
30
0
41
1
10
78.7243162832469
20
-3.84384831236176
30
0
41
1
10
78.6899575030453
20
-3.93242588804634
30
0
41
1
10
78.6727333467749
20
-3.9766064350078
30
0
41
1
10
78.6210617441917
20
-4.10915017036032
30
0
41
1
10
78.5865616367922
20
-4.19746772834367
30
0
41
1
10
78.5520423066748
20
-4.28514969654211
30
0
0
SPLINE
5
DA
100
AcDbEntity
8
1
62
256
6
ByLayer
370
18
48
1
60
0
100
AcDbSpline
70
4
71
3
72
34
73
30
40
0
40
0
40
0
40
0
40
0.103273719703006
40
0.103273719703006
40
0.206547439406012
40
0.206547439406012
40
0.258184299257516
40
0.258184299257516
40
0.30982115910902
40
0.30982115910902
40
0.41309487881203
40
0.41309487881203
40
0.464731738663535
40
0.464731738663535
40
0.516368598515039
40
0.516368598515039
40
0.568005458366542
40
0.568005458366542
40
0.619642318218046
40
0.619642318218046
40
0.722916037921048
40
0.722916037921048
40
0.826189757624051
40
0.826189757624051
40
0.877826617475553
40
0.877826617475553
40
0.929463477327054
40
0.929463477327054
40
1
40
1
40
1
40
1
41
1
10
17.4638465689196
20
-1.73496483516192
30
0
41
1
10
17.7845595319149
20
-1.89822986150369
30
0
41
1
10
18.1048819932374
20
-2.05431051478666
30
0
41
1
10
18.7435938739098
20
-2.35506421642816
30
0
41
1
10
19.0619863768817
20
-2.49971561318878
30
0
41
1
10
19.537490499602
20
-2.70894780721483
30
0
41
1
10
19.6956860725749
20
-2.77731272407428
30
0
41
1
10
20.0127003368216
20
-2.90954433286495
30
0
41
1
10
20.1713489759033
20
-2.97366958548278
30
0
41
1
10
20.6474552827811
20
-3.16052379510953
30
0
41
1
10
20.9650831883979
20
-3.27775010652687
30
0
41
1
10
21.441222685676
20
-3.44312172834714
30
0
41
1
10
21.5997355991867
20
-3.49665207089691
30
0
41
1
10
21.9175797157403
20
-3.59907403003581
30
0
41
1
10
22.0769774275417
20
-3.64791133907079
30
0
41
1
10
22.3964851803644
20
-3.74114604507548
30
0
41
1
10
22.5566024797576
20
-3.78553460507192
30
0
41
1
10
22.8774440910421
20
-3.86994463504209
30
0
41
1
10
23.0384254640865
20
-3.91002284400057
30
0
41
1
10
23.5199660672417
20
-4.02316908521121
30
0
41
1
10
23.8384367397861
20
-4.08937078037056
30
0
41
1
10
24.4758634862512
20
-4.19984097316322
30
0
41
1
10
24.7941943640041
20
-4.2447368430858
30
0
41
1
10
25.2704125623584
20
-4.29714533997068
30
0
41
1
10
25.4289422189285
20
-4.31211048910006
30
0
41
1
10
25.7454728116824
20
-4.33696692511256
30
0
41
1
10
25.9034966489201
20
-4.34682642282343
30
0
41
1
10
26.2783348166419
20
-4.36382815384272
30
0
41
1
10
26.49515966443
20
-4.36878234817206
30
0
41
1
10
26.7122186938444
20
-4.36890709693995
30
0
0
SPLINE
5
DB
100
AcDbEntity
8
1
62
256
6
ByLayer
370
18
48
1
60
0
100
AcDbSpline
70
4
71
3
72
96
73
92
40
0
40
0
40
0
40
0
40
0.0159419176957524
40
0.0159419176957524
40
0.0312756554085137
40
0.0312756554085137
40
0.046609393121275
40
0.046609393121275
40
0.0772768685467976
40
0.0772768685467976
40
0.10794434397232
40
0.10794434397232
40
0.138611819397843
40
0.138611819397843
40
0.153945557110604
40
0.153945557110604
40
0.169279294823365
40
0.169279294823365
40
0.184613032536127
40
0.184613032536127
40
0.199946770248888
40
0.199946770248888
40
0.215280507961649
40
0.215280507961649
40
0.230614245674411
40
0.230614245674411
40
0.261281721099933
40
0.261281721099933
40
0.291949196525456
40
0.291949196525456
40
0.322616671950978
40
0.322616671950978
40
0.353284147376501
40
0.353284147376501
40
0.368617885089263
40
0.368617885089263
40
0.383951622802025
40
0.383951622802025
40
0.414619098227548
40
0.414619098227548
40
0.42995283594031
40
0.42995283594031
40
0.445286573653072
40
0.445286573653072
40
0.475954049078597
40
0.475954049078597
40
0.506621524504122
40
0.506621524504122
40
0.537288999929647
40
0.537288999929647
40
0.552622737642409
40
0.552622737642409
40
0.567956475355172
40
0.567956475355172
40
0.598623950780697
40
0.598623950780697
40
0.629291426206221
40
0.629291426206221
40
0.659958901631746
40
0.659958901631746
40
0.690626377057271
40
0.690626377057271
40
0.705960114770033
40
0.705960114770033
40
0.721293852482795
40
0.721293852482795
40
0.751961327908318
40
0.751961327908318
40
0.767295065621081
40
0.767295065621081
40
0.782628803333842
40
0.782628803333842
40
0.813296278759366
40
0.813296278759366
40
0.84396375418489
40
0.84396375418489
40
0.874631229610413
40
0.874631229610413
40
0.889964967323175
40
0.889964967323175
40
0.905298705035936
40
0.905298705035936
40
0.935966180461458
40
0.935966180461458
40
0.951299918174219
40
0.951299918174219
40
0.96663365588698
40
0.96663365588698
40
0.997301131312502
40
0.997301131312502
40
1
40
1
40
1
40
1
41
1
10
45.6211576772814
20
3.15552720795787
30
0
41
1
10
45.7881049644802
20
3.21901620568997
30
0
41
1
10
45.9549470941083
20
3.28051533210112
30
0
41
1
10
46.2807058019762
20
3.39692816547651
30
0
41
1
10
46.4397841951531
20
3.45225313217929
30
0
41
1
10
46.7577290717456
20
3.55813711833611
30
0
41
1
10
46.9167375540152
20
3.60855784767108
30
0
41
1
10
47.3935210497798
20
3.75287242234984
30
0
41
1
10
47.7110704911539
20
3.83984040818296
30
0
41
1
10
48.3446538439452
20
3.9961863119745
30
0
41
1
10
48.660099555485
20
4.06583271585143
30
0
41
1
10
49.2939224199735
20
4.18393235080555
30
0
41
1
10
49.6117509650773
20
4.23295306506449
30
0
41
1
10
50.0891386042957
20
4.29174384851632
30
0
41
1
10
50.2483804074007
20
4.30886901953409
30
0
41
1
10
50.5669955178795
20
4.3380634183745
30
0
41
1
10
50.726308901305
20
4.35012349735734
30
0
41
1
10
51.0463638883276
20
4.36877062069004
30
0
41
1
10
51.2072092524795
20
4.37542100963029
30
0
41
1
10
51.5281499248306
20
4.38338944683971
30
0
41
1
10
51.6883174871776
20
4.38471926584927
30
0
41
1
10
52.007939032639
20
4.3821375286883
30
0
41
1
10
52.1673941990052
20
4.37822563006588
30
0
41
1
10
52.4854884193151
20
4.36512126463444
30
0
41
1
10
52.6439921122259
20
4.35588939059417
30
0
41
1
10
53.1193268040013
20
4.32040110579194
30
0
41
1
10
53.436631782108
20
4.28666787194075
30
0
41
1
10
54.0706893584594
20
4.19929951916248
30
0
41
1
10
54.3874521898921
20
4.14563940167031
30
0
41
1
10
55.0198765934036
20
4.01731783585291
30
0
41
1
10
55.3371931524828
20
3.94375515214634
30
0
41
1
10
55.9742484860224
20
3.7784224903038
30
0
41
1
10
56.2937529175188
20
3.68648490576865
30
0
41
1
10
56.7739138054964
20
3.53336314504708
30
0
41
1
10
56.9341804887594
20
3.47960966002563
30
0
41
1
10
57.2542427086369
20
3.369143239621
30
0
41
1
10
57.4141389352395
20
3.312209506594
30
0
41
1
10
57.893151537682
20
3.13610166691731
30
0
41
1
10
58.2116125988018
20
3.01167258377225
30
0
41
1
10
58.6873405276164
20
2.81363671366202
30
0
41
1
10
58.8454632913224
20
2.74553096485772
30
0
41
1
10
59.1616748223266
20
2.60636048083907
30
0
41
1
10
59.3199807646618
20
2.53562694886438
30
0
41
1
10
59.7951639583733
20
2.31959391313001
30
0
41
1
10
60.1122983613148
20
2.17047346464801
30
0
41
1
10
60.7463453907584
20
1.86050104743001
30
0
41
1
10
61.0626293424891
20
1.69847703020321
30
0
41
1
10
61.699276895667
20
1.36970494128874
30
0
41
1
10
62.0191767703368
20
1.20226959808224
30
0
41
1
10
62.5006733476158
20
0.945078582202967
30
0
41
1
10
62.6612239230865
20
0.858464539129244
30
0
41
1
10
62.9807827841087
20
0.684093145010621
30
0
41
1
10
63.139921380388
20
0.596044219317207
30
0
41
1
10
63.6175923851004
20
0.33343063739764
30
0
41
1
10
63.9358199300363
20
0.159314794573078
30
0
41
1
10
64.5706862404207
20
-0.189248003385984
30
0
41
1
10
64.8870446533892
20
-0.364205774409015
30
0
41
1
10
65.5188417513269
20
-0.71313179867883
30
0
41
1
10
65.8358119771645
20
-0.884300786278772
30
0
41
1
10
66.4705452433224
20
-1.22258298838779
30
0
41
1
10
66.7883299841711
20
-1.38965453171687
30
0
41
1
10
67.2651191925838
20
-1.637985278662
30
0
41
1
10
67.4243004124578
20
-1.71996488532264
30
0
41
1
10
67.7439250460167
20
-1.88099083301051
30
0
41
1
10
67.9042676004029
20
-1.96031055042053
30
0
41
1
10
68.3862862597659
20
-2.19489408545607
30
0
41
1
10
68.7061976190255
20
-2.34546481673991
30
0
41
1
10
69.1832949093144
20
-2.56362102650894
30
0
41
1
10
69.3417553089237
20
-2.63519675527681
30
0
41
1
10
69.6589865855453
20
-2.77389048927264
30
0
41
1
10
69.8176462671137
20
-2.84119640309092
30
0
41
1
10
70.293453892883
20
-3.03757188863429
30
0
41
1
10
70.6104512650603
20
-3.16110249664592
30
0
41
1
10
71.2431543541666
20
-3.3944094634407
30
0
41
1
10
71.5585642017621
20
-3.50437869259031
30
0
41
1
10
72.1929201270526
20
-3.70475184182467
30
0
41
1
10
72.5111111416813
20
-3.79613632992354
30
0
41
1
10
72.9892449184249
20
-3.92047190837476
30
0
41
1
10
73.1487645150996
20
-3.95978262575983
30
0
41
1
10
73.4680194984844
20
-4.0340489381845
30
0
41
1
10
73.6281868954602
20
-4.06887912915673
30
0
41
1
10
74.109054183772
20
-4.16502821348067
30
0
41
1
10
74.4287881011547
20
-4.21846828973673
30
0
41
1
10
74.9064090320203
20
-4.28358403305336
30
0
41
1
10
75.0652902954212
20
-4.30276420789704
30
0
41
1
10
75.3822948873838
20
-4.33605888612669
30
0
41
1
10
75.5402903325985
20
-4.35018909519584
30
0
41
1
10
76.0149331871276
20
-4.38442570682099
30
0
41
1
10
76.3318424957504
20
-4.39665515914248
30
0
41
1
10
76.676488902216
20
-4.39880119039697
30
0
41
1
10
76.7043634830405
20
-4.39889484499619
30
0
41
1
10
76.7322358009816
20
-4.39890830871209
30
0
0
SPLINE
5
DC
100
AcDbEntity
8
1
62
256
6
ByLayer
370
18
48
1
60
0
100
AcDbSpline
70
4
71
3
72
16
73
12
40
0
40
0
40
0
40
0
40
0.170021866777066
40
0.170021866777066
40
0.324868687657771
40
0.324868687657771
40
0.479715508538477
40
0.479715508538477
40
0.789409150299885
40
0.789409150299885
40
1
40
1
40
1
40
1
41
1
10
14.902017178107
20
0.025745458872791
30
0
41
1
10
15.3077730455472
20
-0.191495880887203
30
0
41
1
10
15.713535532614
20
-0.408906511324915
30
0
41
1
10
16.4909169660115
20
-0.820714102628784
30
0
41
1
10
16.862333366787
20
-1.01546689902605
30
0
41
1
10
17.6085337410498
20
-1.3988432136542
30
0
41
1
10
17.984181624844
20
-1.58776587619181
30
0
41
1
10
19.1025229027057
20
-2.13301864435286
30
0
41
1
10
19.8416631056123
20
-2.46992779053176
30
0
41
1
10
21.0830712093424
20
-2.97596700936217
30
0
41
1
10
21.585521182857
20
-3.16416284300584
30
0
41
1
10
22.0898993095451
20
-3.33297219948881
30
0
0
SPLINE
5
DD
100
AcDbEntity
8
1
62
256
6
ByLayer
370
13
48
1
60
0
100
AcDbSpline
70
4
71
3
72
22
73
18
40
0
40
0
40
0
40
0
40
0.100488022188023
40
0.100488022188023
40
0.178993634632135
40
0.178993634632135
40
0.257499247076248
40
0.257499247076248
40
0.414510471964478
40
0.414510471964478
40
0.728532921740942
40
0.728532921740942
40
0.885544146629175
40
0.885544146629175
40
0.964049759073293
40
0.964049759073293
40
1
40
1
40
1
40
1
41
1
10
22.0898993094985
20
-3.33297219947323
30
0
41
1
10
22.3272566338261
20
-3.41241287117651
30
0
41
1
10
22.5650409644886
20
-3.48756023845027
30
0
41
1
10
22.9897156647075
20
-3.61325670472036
30
0
41
1
10
23.1763673837841
20
-3.66557603747887
30
0
41
1
10
23.5506615707436
20
-3.76431685831366
30
0
41
1
10
23.7380493502265
20
-3.81065931692368
30
0
41
1
10
24.2979520768646
20
-3.93957497932905
30
0
41
1
10
24.6694459435925
20
-4.01239928222091
30
0
41
1
10
25.7810825966395
20
-4.19082714366323
30
0
41
1
10
26.5184544341555
20
-4.25605527804402
30
0
41
1
10
27.6281920259563
20
-4.27108419132307
30
0
41
1
10
27.998753288777
20
-4.26228289099959
30
0
41
1
10
28.5567542190002
20
-4.2280501867169
30
0
41
1
10
28.7431152141898
20
-4.21312996399706
30
0
41
1
10
29.01547391154
20
-4.18626799635319
30
0
41
1
10
29.1011773153388
20
-4.17708585586806
30
0
41
1
10
29.186899564798
20
-4.16717856736764
30
0
0
SPLINE
5
DE
100
AcDbEntity
8
1
62
256
6
ByLayer
370
18
48
1
60
0
100
AcDbSpline
70
4
71
3
72
22
73
18
40
0
40
0
40
0
40
0
40
0.0322085691208392
40
0.0322085691208392
40
0.371245686533772
40
0.371245686533772
40
0.540764245240236
40
0.540764245240236
40
0.625523524593468
40
0.625523524593468
40
0.710282803946699
40
0.710282803946699
40
0.879801362653159
40
0.879801362653159
40
0.964560642006386
40
0.964560642006386
40
1
40
1
40
1
40
1
41
1
10
64.9297076362508
20
0.0111357809549872
30
0
41
1
10
64.9999315437428
20
-0.0267009750696729
30
0
41
1
10
65.0701330464391
20
-0.0645276579074903
30
0
41
1
10
65.8791012582121
20
-0.500296153613107
30
0
41
1
10
66.6158399672619
20
-0.896320335080844
30
0
41
1
10
67.7274461327979
20
-1.46934289626702
30
0
41
1
10
68.0991961055781
20
-1.65661533331013
30
0
41
1
10
68.6597255242276
20
-1.92986151817968
30
0
41
1
10
68.8469655266186
20
-2.01961330795601
30
0
41
1
10
69.2205717370625
20
-2.1952122393557
30
0
41
1
10
69.4071915850304
20
-2.28118386088511
30
0
41
1
10
69.9668045557891
20
-2.53316450896631
30
0
41
1
10
70.3395419668665
20
-2.69325083519661
30
0
41
1
10
70.8993382303503
20
-2.91973072355424
30
0
41
1
10
71.0860563654352
20
-2.99294381245298
30
0
41
1
10
71.3511678917304
20
-3.09330201241775
30
0
41
1
10
71.4293666844105
20
-3.12245984810841
30
0
41
1
10
71.5075332010031
20
-3.15115105931761
30
0
0
SPLINE
5
DF
100
AcDbEntity
8
1
62
256
6
ByLayer
370
13
48
1
60
0
100
AcDbSpline
70
4
71
3
72
18
73
14
40
0
40
0
40
0
40
0
40
0.0462476320943846
40
0.0462476320943846
40
0.364165088062925
40
0.364165088062925
40
0.682082544031463
40
0.682082544031463
40
0.761561908023597
40
0.761561908023597
40
0.841041272015732
40
0.841041272015732
40
1
40
1
40
1
40
1
41
1
10
71.5075332021431
20
-3.15115105973601
30
0
41
1
10
71.6163152641238
20
-3.19107978179804
30
0
41
1
10
71.7250348154646
20
-3.23010476995304
30
0
41
1
10
72.5792343830863
20
-3.52954102963162
30
0
41
1
10
73.317771015308
20
-3.74535982233721
30
0
41
1
10
74.7933297452236
20
-4.07573586438352
30
0
41
1
10
75.5305104204385
20
-4.19036626847677
30
0
41
1
10
76.4593130944033
20
-4.26486044365399
30
0
41
1
10
76.6454334027898
20
-4.27631993110282
30
0
41
1
10
77.0185835034109
20
-4.29221390788248
30
0
41
1
10
77.2058079119441
20
-4.29664407934123
30
0
41
1
10
77.7666904590591
20
-4.29919149769623
30
0
41
1
10
78.1401086145233
20
-4.28638598775649
30
0
41
1
10
78.5136351668167
20
-4.25976885129003
30
0
0
SPLINE
5
E0
100
AcDbEntity
8
1
62
256
6
ByLayer
370
13
48
1
60
0
100
AcDbSpline
70
4
71
3
72
23
73
19
40
0
40
0
40
0
40
0
40
0.0308845581965721
40
0.0308845581965721
40
0.224707646557258
40
0.224707646557258
40
0.3216191907376
40
0.3216191907376
40
0.418530734917943
40
0.418530734917943
40
0.515442279098286
40
0.515442279098286
40
0.612353823278629
40
0.709265367458972
40
0.709265367458972
40
0.806176911639314
40
0.806176911639314
40
1
40
1
40
1
40
1
41
1
10
7.25092265501104
20
-4.15700812714274
30
0
41
1
10
7.25092999161868
20
-4.1570165568256
30
0
41
1
10
7.25093726550503
20
-4.15629617674642
30
0
41
1
10
7.25098969833857
20
-4.14572747868249
30
0
41
1
10
7.25103266750349
20
-4.10842311743488
30
0
41
1
10
7.25109759318713
20
-4.0108157308762
30
0
41
1
10
7.25111933343985
20
-3.97118849544651
30
0
41
1
10
7.2511630882166
20
-3.8778112434172
30
0
41
1
10
7.25118491751508
20
-3.82448767273703
30
0
41
1
10
7.25122861033955
20
-3.70466295607207
30
0
41
1
10
7.25125054355402
20
-3.63789594621915
30
0
41
1
10
7.25129374737568
20
-3.49299151746322
30
0
41
1
10
7.25133639405155
20
-3.33650783308815
30
0
41
1
10
7.25137730824565
20
-3.15715692085729
30
0
41
1
10
7.25141680624873
20
-2.96616106292925
30
0
41
1
10
7.25143579702498
20
-2.86494841656656
30
0
41
1
10
7.2514884029415
20
-2.55016975064646
30
0
41
1
10
7.25151818608771
20
-2.32365496010036
30
0
41
1
10
7.25153896549716
20
-2.08041987989074
30
0
0
SPLINE
5
E1
100
AcDbEntity
8
1
62
256
6
ByLayer
370
18
48
1
60
0
100
AcDbSpline
70
2053
71
3
72
62
73
58
40
0
40
0
40
0
40
0
40
0.0312499999999986
40
0.0312499999999986
40
0.0624999999999972
40
0.0624999999999972
40
0.0937499999999958
40
0.0937499999999958
40
0.124999999999994
40
0.124999999999994
40
0.156249999999993
40
0.156249999999993
40
0.187499999999992
40
0.187499999999992
40
0.21874999999999
40
0.21874999999999
40
0.249999999999989
40
0.249999999999989
40
0.281249999999987
40
0.281249999999987
40
0.312499999999986
40
0.312499999999986
40
0.374999999999983
40
0.374999999999983
40
0.43749999999998
40
0.43749999999998
40
0.468749999999981
40
0.468749999999981
40
0.499999999999982
40
0.499999999999982
40
0.531249999999982
40
0.531249999999982
40
0.562499999999983
40
0.562499999999983
40
0.593749999999984
40
0.593749999999984
40
0.624999999999984
40
0.624999999999984
40
0.656249999999985
40
0.656249999999985
40
0.687499999999985
40
0.687499999999985
40
0.718749999999986
40
0.718749999999986
40
0.749999999999987
40
0.749999999999987
40
0.812499999999988
40
0.812499999999988
40
0.84374999999999
40
0.84374999999999
40
0.874999999999992
40
0.874999999999992
40
0.906249999999994
40
0.906249999999994
40
0.937499999999996
40
0.937499999999996
40
1
40
1
40
1
40
1
41
1
10
78.7398886083134
20
-1.55111653267589
30
0
41
1
10
78.7171366703507
20
-1.58339206849706
30
0
41
1
10
78.6948441343312
20
-1.61800349754392
30
0
41
1
10
78.6512537549856
20
-1.69228409399122
30
0
41
1
10
78.6297234812219
20
-1.73243357286734
30
0
41
1
10
78.5891170133187
20
-1.81626927289429
30
0
41
1
10
78.5701159579189
20
-1.85968907737023
30
0
41
1
10
78.5350871171549
20
-1.94995810557623
30
0
41
1
10
78.5194011913638
20
-1.99608425929699
30
0
41
1
10
78.4931633582033
20
-2.08668178518605
30
0
41
1
10
78.48228697245
20
-2.13243223772551
30
0
41
1
10
78.46670718562
20
-2.21858204388383
30
0
41
1
10
78.4618483848078
20
-2.25937093317191
30
0
41
1
10
78.4580249866344
20
-2.33504521421531
30
0
41
1
10
78.459080262471
20
-2.36881372346875
30
0
41
1
10
78.4664810359648
20
-2.42909622770705
30
0
41
1
10
78.4728232735516
20
-2.45511107322787
30
0
41
1
10
78.4897595089703
20
-2.49858396315767
30
0
41
1
10
78.5005088028857
20
-2.5163589453322
30
0
41
1
10
78.5252396367694
20
-2.5435227466615
30
0
41
1
10
78.5392518102245
20
-2.55309940233974
30
0
41
1
10
78.5858175657616
20
-2.57081335315379
30
0
41
1
10
78.6217613396543
20
-2.56772714308803
30
0
41
1
10
78.7012050243922
20
-2.53508415712861
30
0
41
1
10
78.7433343516137
20
-2.50614806216708
30
0
41
1
10
78.8097578828286
20
-2.44419785874336
30
0
41
1
10
78.8323778558865
20
-2.42040932683892
30
0
41
1
10
78.8772817918704
20
-2.36778925910957
30
0
41
1
10
78.8997445437618
20
-2.33880321026842
30
0
41
1
10
78.9446935406654
20
-2.27500131464134
30
0
41
1
10
78.9674101774663
20
-2.23977308812644
30
0
41
1
10
79.0112355577742
20
-2.16513183899062
30
0
41
1
10
79.0324402059927
20
-2.12565932293396
30
0
41
1
10
79.0732275286678
20
-2.04178476425355
30
0
41
1
10
79.0926566614372
20
-1.99758082528209
30
0
41
1
10
79.1276822862538
20
-1.90793523580575
30
0
41
1
10
79.1437173993505
20
-1.8612843842582
30
0
41
1
10
79.1704384280693
20
-1.77000954488037
30
0
41
1
10
79.1812463529909
20
-1.72529206897946
30
0
41
1
10
79.1973853582104
20
-1.63783095171351
30
0
41
1
10
79.2023536810458
20
-1.59694808058339
30
0
41
1
10
79.2063851438452
20
-1.52140583433061
30
0
41
1
10
79.2053733145369
20
-1.48685103212099
30
0
41
1
10
79.1980113730128
20
-1.42677196132894
30
0
41
1
10
79.1915875337884
20
-1.40056289251717
30
0
41
1
10
79.1659311875799
20
-1.33555152693708
30
0
41
1
10
79.1400587867859
20
-1.30906259949407
30
0
41
1
10
79.0934985344716
20
-1.29192631281987
30
0
41
1
10
79.0764529239431
20
-1.28990754386769
30
0
41
1
10
79.0405697274617
20
-1.29284386698706
30
0
41
1
10
79.0217040207677
20
-1.29773093690633
30
0
41
1
10
78.9822192586767
20
-1.31399191117953
30
0
41
1
10
78.9614412712941
20
-1.32549417738713
30
0
41
1
10
78.9191336071505
20
-1.35446658506407
30
0
41
1
10
78.8975617948308
20
-1.37190861082632
30
0
41
1
10
78.8315833327674
20
-1.43316639556565
30
0
41
1
10
78.7853924842387
20
-1.48656546103354
30
0
41
1
10
78.7398886083134
20
-1.55111653267589
30
0
0
SPLINE
5
E2
100
AcDbEntity
8
1
62
256
6
ByLayer
370
18
48
1
60
0
100
AcDbSpline
70
4
71
3
72
12
73
8
40
0
40
0
40
0
40
0
40
0.250000000000006
40
0.250000000000006
40
0.500000000000013
40
0.500000000000013
40
1
40
1
40
1
40
1
41
1
10
78.5136351668168
20
-4.25976885129003
30
0
41
1
10
78.5185193878879
20
-4.246627842919
30
0
41
1
10
78.5231366458413
20
-4.23324414214727
30
0
41
1
10
78.5305831685116
20
-4.20922381913502
30
0
41
1
10
78.5333940540788
20
-4.19860754342972
30
0
41
1
10
78.5380667345733
20
-4.17514511863715
30
0
41
1
10
78.5363712400739
20
-4.17080356585342
30
0
41
1
10
78.5321890776295
20
-4.17383085811963
30
0
0
SPLINE
5
E3
100
AcDbEntity
8
1
62
256
6
ByLayer
370
18
48
1
60
0
100
AcDbSpline
70
4
71
3
72
14
73
10
40
0
40
0
40
0
40
0
40
0.25
40
0.25
40
0.5
40
0.5
40
0.75
40
0.75
40
1
40
1
40
1
40
1
41
1
10
78.105392732968
20
1.01133340615627
30
0
41
1
10
78.0961413680415
20
1.04105152647998
30
0
41
1
10
78.0900027041826
20
1.07150168124943
30
0
41
1
10
78.0853498469341
20
1.13427269191095
30
0
41
1
10
78.0864080040469
20
1.16736686574484
30
0
41
1
10
78.1034843313565
20
1.22930493836944
30
0
41
1
10
78.1205228783444
20
1.25816631641948
30
0
41
1
10
78.1696021454238
20
1.30105636557292
30
0
41
1
10
78.2002117562971
20
1.31448837197678
30
0
41
1
10
78.2319268588009
20
1.32167558498358
30
0
0
SPLINE
5
E4
100
AcDbEntity
8
SK1
62
256
6
ByLayer
370
18
48
1
60
0
100
AcDbSpline
70
4
71
3
72
14
73
10
40
0
40
0
40
0
40
0
40
0.5
40
0.5
40
0.749999999999996
40
0.749999999999996
40
0.874999999999998
40
0.874999999999998
40
1
40
1
40
1
40
1
41
1
10
-38.9500000000001
20
3.9115327590097
30
0
41
1
10
-38.9287234691649
20
3.94722817660511
30
0
41
1
10
-38.9083432483059
20
3.98509317583773
30
0
41
1
10
-38.880223151313
20
4.04482203007967
30
0
41
1
10
-38.8713218079587
20
4.06514987131055
30
0
41
1
10
-38.8602667834558
20
4.0945601594685
30
0
41
1
10
-38.8569157654531
20
4.10431257704167
30
0
41
1
10
-38.851744720606
20
4.12281355702063
30
0
41
1
10
-38.8499999999999
20
4.13141772071663
30
0
41
1
10
-38.8499999999999
20
4.13760462754817
30
0
0
SPLINE
5
E5
100
AcDbEntity
8
SK1
62
256
6
ByLayer
370
18
48
1
60
0
100
AcDbSpline
70
4
71
3
72
8
73
4
40
0
40
0
40
0
40
0
40
1
40
1
40
1
40
1
41
1
10
-39.689321932939
20
-3.53818377991138
30
0
41
1
10
-39.7939660872381
20
-3.35697476501753
30
0
41
1
10
-39.8976885058778
20
-3.17531311575456
30
0
41
1
10
-40
20
-2.99295860740307
30
0
0
SPLINE
5
E6
100
AcDbEntity
8
SK1
62
256
6
ByLayer
370
18
48
1
60
0
100
AcDbSpline
70
4
71
3
72
10
73
6
40
0
40
0
40
0
40
0
40
0.5
40
0.5
40
1
40
1
40
1
40
1
41
1
10
-40
20
2.10935525493881
30
0
41
1
10
-39.8300649358195
20
2.41223838010666
30
0
41
1
10
-39.6562487467819
20
2.71319033742279
30
0
41
1
10
-39.3053250757887
20
3.31345657243682
30
0
41
1
10
-39.1281109768151
20
3.61271779970096
30
0
41
1
10
-38.95
20
3.9115327590097
30
0
0
SPLINE
5
E7
100
AcDbEntity
8
SK1
62
256
6
ByLayer
370
18
48
1
60
0
100
AcDbSpline
70
4
71
3
72
10
73
6
40
0
40
0
40
0
40
0
40
0.5
40
0.5
40
1
40
1
40
1
40
1
41
1
10
-38.95
20
4.79513611147396
30
0
41
1
10
-39.1280976222166
20
4.49634355703822
30
0
41
1
10
-39.305319909025
20
4.1970687845193
30
0
41
1
10
-39.6562567560477
20
3.59677996807733
30
0
41
1
10
-39.830074377284
20
3.29582490461195
30
0
41
1
10
-40
20
2.99295860740307
30
0
0
SPLINE
5
E8
100
AcDbEntity
8
SK1
62
256
6
ByLayer
370
18
48
1
60
0
100
AcDbSpline
70
4
71
3
72
14
73
10
40
0
40
0
40
0
40
0
40
0.125
40
0.125
40
0.25
40
0.25
40
0.5
40
0.5
40
1
40
1
40
1
40
1
41
1
10
-38.85
20
4.95051971181519
30
0
41
1
10
-38.85
20
4.95193665011823
30
0
41
1
10
-38.8517453396942
20
4.95029540749863
30
0
41
1
10
-38.856890124152
20
4.94384469223607
30
0
41
1
10
-38.8602119663042
20
4.9391706886791
30
0
41
1
10
-38.8714485682303
20
4.92269187549132
30
0
41
1
10
-38.8802054040545
20
4.90907817906296
30
0
41
1
10
-38.9082792076545
20
4.86449094332613
30
0
41
1
10
-38.9286347141267
20
4.83098043248674
30
0
41
1
10
-38.95
20
4.79513611147396
30
0
0
LINE
5
76
100
AcDbEntity
8
81
62
256
6
ByLayer
370
18
48
1
60
0
100
AcDbLine
10
80
20
0
30
0
11
85
21
0
31
0
39
0
210
0
220
0
230
1
0
LINE
5
77
100
AcDbEntity
8
1
62
256
6
ByLayer
370
18
48
1
60
0
100
AcDbLine
10
7.005035
20
4.357072
30
0
11
1.285226
21
4.35364
31
0
39
0
210
0
220
0
230
1
0
LINE
5
79
100
AcDbEntity
8
1
62
256
6
ByLayer
370
18
48
1
60
0
100
AcDbLine
10
52.450213
20
4.384339
30
0
11
51.719804
21
4.383901
31
0
39
0
210
0
220
0
230
1
0
LINE
5
7A
100
AcDbEntity
8
1
62
256
6
ByLayer
370
18
48
1
60
0
100
AcDbLine
10
77.450848
20
4.399339
30
0
11
76.729126
21
4.398906
31
0
39
0
210
0
220
0
230
1
0
LINE
5
7B
100
AcDbEntity
8
1
62
256
6
ByLayer
370
18
48
1
60
0
100
AcDbLine
10
76.729126
20
-4.398906
30
0
11
77.450387
21
-4.399339
31
0
39
0
210
0
220
0
230
1
0
LINE
5
7C
100
AcDbEntity
8
1
62
256
6
ByLayer
370
18
48
1
60
0
100
AcDbLine
10
51.719804
20
-4.383901
30
0
11
52.449709
21
-4.384339
31
0
39
0
210
0
220
0
230
1
0
LINE
5
7D
100
AcDbEntity
8
1
62
256
6
ByLayer
370
18
48
1
60
0
100
AcDbLine
10
1.285226
20
-4.35364
30
0
11
7.005035
21
-4.357072
31
0
39
0
210
0
220
0
230
1
0
LINE
5
7E
100
AcDbEntity
8
1
62
256
6
ByLayer
370
18
48
1
60
0
100
AcDbLine
10
27.450029
20
4.369339
30
0
11
26.713856
21
4.368897
31
0
39
0
210
0
220
0
230
1
0
LINE
5
7F
100
AcDbEntity
8
1
62
256
6
ByLayer
370
18
48
1
60
0
100
AcDbLine
10
26.713856
20
-4.368897
30
0
11
27.450209
21
-4.369339
31
0
39
0
210
0
220
0
230
1
0
LINE
5
80
100
AcDbEntity
8
SK1
62
256
6
ByLayer
370
18
48
1
60
0
100
AcDbLine
10
-38.845299
20
5
30
0
11
-39.689168
21
3.538377
31
0
39
0
210
0
220
0
230
1
0
LINE
5
82
100
AcDbEntity
8
SK1
62
256
6
ByLayer
370
18
48
1
60
0
100
AcDbLine
10
-39.689168
20
-3.538377
30
0
11
-38.845299
21
-5
31
0
39
0
210
0
220
0
230
1
0
LINE
5
83
100
AcDbEntity
8
SK1
62
256
6
ByLayer
370
18
48
1
60
0
100
AcDbLine
10
0
20
5
30
0
11
-38.845299
21
5
31
0
39
0
210
0
220
0
230
1
0
LINE
5
84
100
AcDbEntity
8
SK1
62
256
6
ByLayer
370
18
48
1
60
0
100
AcDbLine
10
-38.845299
20
-5
30
0
11
0
21
-5
31
0
39
0
210
0
220
0
230
1
0
LINE
5
85
100
AcDbEntity
8
SK4
62
256
6
ByLayer
370
18
48
0.05
60
0
100
AcDbLine
10
85
20
0
30
0
11
-45
21
0
31
0
39
0
210
0
220
0
230
1
0
LINE
5
87
100
AcDbEntity
8
4
62
256
6
ByLayer
370
18
48
0.05
60
0
100
AcDbLine
10
80
20
0
30
0
11
0
21
0
31
0
39
0
210
0
220
0
230
1
0
LINE
5
89
100
AcDbEntity
8
80
62
256
6
ByLayer
370
18
48
1
60
0
100
AcDbLine
10
0
20
0
30
0
11
-5
21
0
31
0
39
0
210
0
220
0
230
1
0
LINE
5
8A
100
AcDbEntity
8
1
62
256
6
ByLayer
370
18
48
1
60
0
100
AcDbLine
10
80
20
0
30
0
11
78.471699
21
-4.198973
31
0
39
0
210
0
220
0
230
1
0
LINE
5
8B
100
AcDbEntity
8
1
62
256
6
ByLayer
370
18
48
1
60
0
100
AcDbLine
10
0
20
-5
30
0
11
0
21
5
31
0
39
0
210
0
220
0
230
1
0
LINE
5
8C
100
AcDbEntity
8
1
62
256
6
ByLayer
370
18
48
1
60
0
100
AcDbLine
10
80
20
0
30
0
11
79.991365
21
-0.042991
31
0
39
0
210
0
220
0
230
1
0
LINE
5
8D
100
AcDbEntity
8
1
62
256
6
ByLayer
370
18
48
1
60
0
100
AcDbLine
10
79.915409
20
-0.304147
30
0
11
79.780918
21
-0.837586
31
0
39
0
210
0
220
0
230
1
0
LINE
5
8E
100
AcDbEntity
8
1
62
256
6
ByLayer
370
13
48
1
60
0
100
AcDbLine
10
0.642373
20
4.67682
30
0
11
0.642373
21
-4.67682
31
0
39
0
210
0
220
0
230
1
0
LINE
5
8F
100
AcDbEntity
8
1
62
256
6
ByLayer
370
13
48
1
60
0
100
AcDbLine
10
78.826448
20
0.502256
30
0
11
79.894667
21
-0.131553
31
0
39
0
210
0
220
0
230
1
0
LINE
5
90
100
AcDbEntity
8
1
62
256
6
ByLayer
370
13
48
1
60
0
100
AcDbLine
10
79.016355
20
0.837586
30
0
11
79.915409
21
0.304147
31
0
39
0
210
0
220
0
230
1
0
LINE
5
91
100
AcDbEntity
8
1
62
256
6
ByLayer
370
18
48
1
60
0
100
AcDbLine
10
77.804054
20
-2.291185
30
0
11
79.894667
21
-0.131553
31
0
39
0
210
0
220
0
230
1
0
LINE
5
92
100
AcDbEntity
8
1
62
256
6
ByLayer
370
18
48
1
60
0
100
AcDbLine
10
79.991365
20
0.042991
30
0
11
80
21
0
31
0
39
0
210
0
220
0
230
1
0
LINE
5
93
100
AcDbEntity
8
1
62
256
6
ByLayer
370
18
48
1
60
0
100
AcDbLine
10
79.915409
20
0.304147
30
0
11
79.780918
21
0.837586
31
0
39
0
210
0
220
0
230
1
0
LINE
5
94
100
AcDbEntity
8
1
62
256
6
ByLayer
370
13
48
1
60
0
100
AcDbLine
10
79.780918
20
0.837586
30
0
11
79.016355
21
0.837586
31
0
39
0
210
0
220
0
230
1
0
LINE
5
95
100
AcDbEntity
8
1
62
256
6
ByLayer
370
13
48
1
60
0
100
AcDbLine
10
1.285226
20
4.35364
30
0
11
1.285226
21
-4.35364
31
0
39
0
210
0
220
0
230
1
0
LINE
5
96
100
AcDbEntity
8
SK1
62
256
6
ByLayer
370
18
48
1
60
0
100
AcDbLine
10
0
20
-5
30
0
11
0
21
5
31
0
39
0
210
0
220
0
230
1
0
LINE
5
97
100
AcDbEntity
8
SK1
62
256
6
ByLayer
370
18
48
1
60
0
100
AcDbLine
10
-40
20
2.109355
30
0
11
-40
21
-2.992959
31
0
39
0
210
0
220
0
230
1
0
LINE
5
98
100
AcDbEntity
8
SK1
62
256
6
ByLayer
370
18
48
1
60
0
100
AcDbLine
10
-40
20
2.992959
30
0
11
-40
21
2.109302
31
0
39
0
210
0
220
0
230
1
0
LINE
5
99
100
AcDbEntity
8
SK1
62
256
6
ByLayer
370
13
48
1
60
0
100
AcDbLine
10
-38.95
20
4.795136
30
0
11
-38.95
21
3.911409
31
0
39
0
210
0
220
0
230
1
0
LINE
5
9A
100
AcDbEntity
8
SK1
62
256
6
ByLayer
370
18
48
1
60
0
100
AcDbLine
10
-38.85
20
4.137605
30
0
11
-38.85
21
4.95052
31
0
39
0
210
0
220
0
230
1
0
LINE
5
9B
100
AcDbEntity
8
SK1
62
256
6
ByLayer
370
18
48
1
60
0
100
AcDbLine
10
-38.845299
20
5
30
0
11
-38.845299
21
-5
31
0
39
0
210
0
220
0
230
1
0
MTEXT
5
E9
100
AcDbEntity
8
SK6
62
256
6
ByLayer
370
13
48
1
60
0
100
AcDbMText
10
22.129169
20
36.782694
30
0
210
0
220
0
230
1
1
\W0.7542;R840-0880-70-A1A1220
40
3.5
41
0
44
1.084337
50
0
71
8
72
5
7
iso_b_vert
0
DIMENSION
5
F6
100
AcDbEntity
8
SK2
62
256
6
ByLayer
370
13
48
1
60
0
100
AcDbDimension
2
DimnDraft3D1
10
78.5
20
-14.613398
30
0
11
37.750059
21
-14.613398
31
0
70
32
71
5
72
1
41
1
210
0
220
0
230
1
3
Standard
100
AcDbAlignedDimension
13
0
23
-1.5875
33
0
14
78.5
24
-5.9875
34
0
50
0
100
AcDbRotatedDimension
1001
ACAD
1000
DSTYLE
1002
{
1070
   279
1070
     0
1070
   172
1070
     1
1070
   173
1070
     1
1070
   340
1005
EA
1070
   271
1070
     2
1070
   272
1070
     2
1070
    77
1070
     1
1070
    73
1070
     0
1070
   171
1070
     3
1070
   274
1070
     4
1070
   177
1070
    35
1070
   176
1070
    35
1070
   178
1070
    35
1070
    48
1040
-0.005
1070
    41
1041
3.5
1070
   147
1041
1.75
1070
    42
1041
1.5875
1070
    44
1041
2.0
1070
   140
1041
3.5
1070
   343
1005
0
1070
   344
1005
0
1002
}
0
DIMENSION
5
100
100
AcDbEntity
8
SK2
62
256
6
ByLayer
370
13
48
1
60
0
100
AcDbDimension
2
DimnDraft3D2
10
80
20
-33.692985
30
0
11
19.8413
21
-33.692985
31
0
70
32
71
5
72
1
41
1
210
0
220
0
230
1
3
Standard
100
AcDbAlignedDimension
13
-40
23
-6.5875
33
0
14
80
24
-1.5875
34
0
50
0
100
AcDbRotatedDimension
1001
ACAD
1000
DSTYLE
1002
{
1070
   279
1070
     0
1070
   172
1070
     1
1070
   173
1070
     1
1070
   340
1005
EA
1070
   271
1070
     2
1070
   272
1070
     2
1070
    77
1070
     1
1070
    73
1070
     0
1070
   171
1070
     3
1070
   274
1070
     4
1070
   177
1070
    35
1070
   176
1070
    35
1070
   178
1070
    35
1070
    48
1040
-0.005
1070
    41
1041
3.5
1070
   147
1041
1.75
1070
    42
1041
1.5875
1070
    44
1041
2.0
1070
   140
1041
3.5
1070
   343
1005
0
1070
   344
1005
0
1002
}
0
DIMENSION
5
10A
100
AcDbEntity
8
SK2
62
256
6
ByLayer
370
13
48
1
60
0
100
AcDbDimension
2
DimnDraft3D3
10
80
20
16.009119
30
0
11
44.05
21
16.009119
31
0
70
32
71
5
72
1
41
1
210
0
220
0
230
1
3
Standard
100
AcDbAlignedDimension
13
8.1
23
5.9875
33
0
14
80
24
1.5875
34
0
50
0
100
AcDbRotatedDimension
1001
ACAD
1000
DSTYLE
1002
{
1070
   279
1070
     0
1070
   172
1070
     1
1070
   173
1070
     1
1070
   340
1005
EA
1070
   271
1070
     2
1070
   272
1070
     2
1070
    77
1070
     1
1070
    73
1070
     0
1070
   171
1070
     3
1070
   274
1070
     4
1070
   177
1070
    35
1070
   176
1070
    35
1070
   178
1070
    35
1070
    48
1040
-0.005
1070
    41
1041
3.5
1070
   147
1041
1.75
1070
    42
1041
1.5875
1070
    44
1041
2.0
1070
   140
1041
3.5
1070
   343
1005
0
1070
   344
1005
0
1002
}
0
DIMENSION
5
114
100
AcDbEntity
8
SK2
62
256
6
ByLayer
370
13
48
1
60
0
100
AcDbDimension
2
DimnDraft3D4
10
78.5
20
-17.202503
30
0
11
89.981425
21
-17.202503
31
0
70
32
71
5
72
1
41
1
210
0
220
0
230
1
3
Standard
100
AcDbAlignedDimension
13
80
23
-1.5875
33
0
14
78.5
24
-5.9875
34
0
50
0
100
AcDbRotatedDimension
1001
ACAD
1000
DSTYLE
1002
{
1070
   279
1070
     0
1070
   172
1070
     1
1070
   173
1070
     1
1070
   340
1005
EA
1070
   271
1070
     2
1070
   272
1070
     2
1070
    77
1070
     1
1070
    73
1070
     0
1070
   171
1070
     3
1070
   274
1070
     4
1070
   177
1070
    35
1070
   176
1070
    35
1070
   178
1070
    35
1070
    48
1040
-0.005
1070
    41
1041
3.5
1070
   147
1041
1.75
1070
    42
1041
1.5875
1070
    44
1041
2.0
1070
   140
1041
3.5
1070
   343
1005
0
1070
   344
1005
0
1002
}
0
DIMENSION
5
11E
100
AcDbEntity
8
SK2
62
256
6
ByLayer
370
13
48
1
60
0
100
AcDbDimension
2
DimnDraft3D5
10
78.5
20
-23.343428
30
0
11
16.760676
21
-23.343428
31
0
70
32
71
5
72
1
41
1
210
0
220
0
230
1
3
Standard
100
AcDbAlignedDimension
13
-40
23
-6.5875
33
0
14
78.5
24
-5.9875
34
0
50
0
100
AcDbRotatedDimension
1001
ACAD
1000
DSTYLE
1002
{
1070
   279
1070
     0
1070
   172
1070
     1
1070
   173
1070
     1
1070
   340
1005
EA
1070
   271
1070
     2
1070
   272
1070
     2
1070
    77
1070
     1
1070
    73
1070
     0
1070
   171
1070
     3
1070
   274
1070
     4
1070
   177
1070
    35
1070
   176
1070
    35
1070
   178
1070
    35
1070
    48
1040
-0.005
1070
    41
1041
3.5
1070
   147
1041
1.75
1070
    42
1041
1.5875
1070
    44
1041
2.0
1070
   140
1041
3.5
1070
   343
1005
0
1070
   344
1005
0
1002
}
0
DIMENSION
5
129
100
AcDbEntity
8
SK2
62
256
6
ByLayer
370
13
48
1
60
0
100
AcDbDimension
2
DimnDraft3D6
10
-50.625163
20
5
30
0
11
-51.250163
21
23.47418
31
0
70
33
71
5
72
1
41
1
210
0
220
0
230
1
3
Standard
100
AcDbAlignedDimension
13
-41.5875
23
-5
33
0
14
-41.5875
24
5
34
0
1001
ACAD
1000
DSTYLE
1002
{
1070
   279
1070
     0
1070
    74
1070
     0
1070
   173
1070
     1
1070
   340
1005
EA
1070
   271
1070
     3
1070
   272
1070
     2
1070
    77
1070
     1
1070
    73
1070
     0
1070
   171
1070
     3
1070
   274
1070
     4
1070
   177
1070
    35
1070
   176
1070
    35
1070
   178
1070
    35
1070
    48
1040
-0.005
1070
    41
1041
3.5
1070
   147
1041
1.75
1070
    42
1041
1.5875
1070
    44
1041
2.0
1070
   140
1041
3.5
1070
   343
1005
0
1070
   344
1005
0
1002
}
0
DIMENSION
5
134
100
AcDbEntity
8
2
62
256
6
ByLayer
370
13
48
1
60
0
100
AcDbDimension
2
DimnDraft3D7
10
94.083343
20
4.4
30
0
11
89.458343
21
21.467266
31
0
70
33
71
5
72
1
41
1
210
0
220
0
230
1
3
Standard
100
AcDbAlignedDimension
13
80.0875
23
-4.4
33
0
14
80.0875
24
4.4
34
0
1001
ACAD
1000
DSTYLE
1002
{
1070
   279
1070
     0
1070
    74
1070
     0
1070
   173
1070
     1
1070
   340
1005
EA
1070
   271
1070
     3
1070
   272
1070
     2
1070
    77
1070
     1
1070
    73
1070
     0
1070
   171
1070
     3
1070
   274
1070
     4
1070
   177
1070
    35
1070
   176
1070
    35
1070
   178
1070
    35
1070
    48
1040
-0.005
1070
    41
1041
3.5
1070
   147
1041
1.75
1070
    42
1041
1.5875
1070
    44
1041
2.0
1070
   140
1041
3.5
1070
   343
1005
0
1070
   344
1005
0
1002
}
0
ENDSEC
0
SECTION
2
OBJECTS
0
DICTIONARY
5
19f
330
0
100
AcDbDictionary
280
0
281
1
3
ACAD_GROUP
350
1a0
3
ACAD_MLINESTYLE
350
1a1
0
DICTIONARY
5
1a0
330
0
100
AcDbDictionary
280
0
281
1
0
DICTIONARY
5
1a1
330
0
100
AcDbDictionary
280
0
281
1
3
Standard
350
18
0
MLINESTYLE
5
18
330
1a1
100
AcDbMlineStyle
2
Standard
70
0
3

62
256
51
90
52
90
71
2
49
-0.5
62
256
6
ByLayer
49
0.5
62
256
6
ByLayer
0
RASTERVARIABLES
5
18d
330

100
AcDbRasterVariables
90
0
70
1
71
1
72
1
0
ENDSEC
0
EOF
