0
SECTION
2
HEADER
9
$ACADVER
1
AC1015
9
$DWGCODEPAGE
3
ANSI_1252
9
$HANDSEED
5
1a0
9
$ANGBASE
50
0
9
$ANGDIR
70
0
9
$ATTMODE
70
1
9
$AUNITS
70
0
9
$AUPREC
70
0
9
$CECOLOR
62
256
9
$CELTSCALE
40
1
9
$CELTYPE
6
ByLayer
9
$CELWEIGHT
370
18
9
$CLAYER
8
0
9
$CMLJUST
70
0
9
$CMLSCALE
40
1
9
$CMLSTYLE
2
Standard
9
$DIMSTYLE
2
Standard
9
$TEXTSIZE
40
0.2
9
$TEXTSTYLE
7
Standard
9
$LUNITS
70
2
9
$LUPREC
70
4
9
$EXTNAMES
290
1
9
$INSUNITS
70
4
9
$LTSCALE
40
1
9
$LWDISPLAY
290
1
9
$PDMODE
70
0
9
$PDSIZE
40
0
9
$PLINEGEN
70
0
0
ENDSEC
0
SECTION
2
CLASSES
0
CLASS
1
RASTERVARIABLES
2
AcDbRasterVariables
3
ISM
90
0
280
0
281
0
0
ENDSEC
0
SECTION
2
TABLES
0
TABLE
2
VPORT
5
196
100
AcDbSymbolTable
0
VPORT
5
1
100
AcDbSymbolTableRecord
100
AcDbViewportTableRecord
2
*Active
70
0
10
0
20
0
11
1
21
1
12
-1
22
1
13
0
23
0
14
0.5
24
0.5
15
10
25
10
16
0
26
0
36
1
17
0
27
0
37
0
0
ENDTAB
0
TABLE
2
LTYPE
5
197
100
AcDbSymbolTable
0
LTYPE
5
14
100
AcDbSymbolTableRecord
100
AcDbLinetypeTableRecord
70
0
2
ByBlock
3

72
65
73
0
40
0
0
LTYPE
5
15
100
AcDbSymbolTableRecord
100
AcDbLinetypeTableRecord
70
0
2
ByLayer
3

72
65
73
0
40
0
0
LTYPE
5
16
100
AcDbSymbolTableRecord
100
AcDbLinetypeTableRecord
70
0
2
CONTINUOUS
3
Solid line
72
65
73
0
40
0
0
LTYPE
5
6A
100
AcDbSymbolTableRecord
100
AcDbLinetypeTableRecord
70
0
2
CENTER
3
____ _ ____ _ ____ _ ____
72
65
73
4
40
47.5
49
22
74
0
49
-8.5
74
0
49
8.5
74
0
49
-8.5
74
0
0
LTYPE
5
6B
100
AcDbSymbolTableRecord
100
AcDbLinetypeTableRecord
70
0
2
DASHED
3
__ __ __ __ __ __ __ __ __
72
65
73
2
40
25.72
49
12.86
74
0
49
-12.86
74
0
0
ENDTAB
0
TABLE
2
LAYER
5
198
100
AcDbSymbolTable
0
LAYER
5
10
100
AcDbSymbolTableRecord
100
AcDbLayerTableRecord
2
0
70
0
62
7
6
CONTINUOUS
290
1
370
-3
390
0
0
LAYER
5
6D
100
AcDbSymbolTableRecord
100
AcDbLayerTableRecord
2
81
70
0
62
-3
6
CONTINUOUS
290
1
370
-3
390
0
0
LAYER
5
6F
100
AcDbSymbolTableRecord
100
AcDbLayerTableRecord
2
80
70
0
62
-6
6
CONTINUOUS
290
1
370
-3
390
0
0
LAYER
5
74
100
AcDbSymbolTableRecord
100
AcDbLayerTableRecord
2
2
70
0
62
7
6
CONTINUOUS
290
1
370
-3
390
0
0
LAYER
5
78
100
AcDbSymbolTableRecord
100
AcDbLayerTableRecord
2
1
70
0
62
4
6
CONTINUOUS
290
1
370
-3
390
0
0
LAYER
5
88
100
AcDbSymbolTableRecord
100
AcDbLayerTableRecord
2
4
70
0
62
-2
6
CENTER
290
1
370
-3
390
0
0
LAYER
5
182
100
AcDbSymbolTableRecord
100
AcDbLayerTableRecord
2
SK2
70
0
62
7
6
CONTINUOUS
290
1
370
-3
390
0
0
LAYER
5
183
100
AcDbSymbolTableRecord
100
AcDbLayerTableRecord
2
SK1
70
0
62
4
6
CONTINUOUS
290
1
370
-3
390
0
0
LAYER
5
184
100
AcDbSymbolTableRecord
100
AcDbLayerTableRecord
2
SK4
70
0
62
2
6
CENTER
290
1
370
-3
390
0
0
LAYER
5
185
100
AcDbSymbolTableRecord
100
AcDbLayerTableRecord
2
SK6
70
0
62
5
6
CONTINUOUS
290
1
370
-3
390
0
0
ENDTAB
0
TABLE
2
STYLE
5
199
100
AcDbSymbolTable
0
STYLE
5
11
100
AcDbSymbolTableRecord
100
AcDbTextStyleTableRecord
2
Standard
3
txt
70
0
71
0
40
0
41
1
42
0
50
0
0
STYLE
5
DE
100
AcDbSymbolTableRecord
100
AcDbTextStyleTableRecord
2
iso_b_vert
3
simplex.shx
70
0
71
0
40
0
41
1
42
0
50
0
0
STYLE
5
DF
100
AcDbSymbolTableRecord
100
AcDbTextStyleTableRecord
2
DWGDirectTextStyle
3
simplex
70
0
71
0
40
0
41
1
42
0
50
0
0
ENDTAB
0
TABLE
2
DIMSTYLE
5
19a
100
AcDbSymbolTable
100
AcDbDimStyleTable
0
DIMSTYLE
105
27
100
AcDbSymbolTableRecord
100
AcDbDimStyleTableRecord
2
Standard
70
0
3
<>
41
0.18
42
0.0625
44
0.18
140
0.18
147
0.09
73
0
74
0
77
1
271
2
275
0
278
52
280
0
340
11
0
ENDTAB
0
TABLE
2
VIEW
5
19b
100
AcDbSymbolTable
0
ENDTAB
0
TABLE
2
UCS
5
19c
100
AcDbSymbolTable
0
ENDTAB
0
TABLE
2
APPID
5
19d
100
AcDbSymbolTable
0
APPID
5
12
100
AcDbSymbolTableRecord
100
AcDbRegAppTableRecord
2
ACAD
70
0
0
ENDTAB
0
TABLE
2
BLOCK_RECORD
5
19e
100
AcDbSymbolTable
0
BLOCK_RECORD
5
1F
100
AcDbSymbolTableRecord
100
AcDbBlockTableRecord
2
*Model_Space
340
0
70
0
0
BLOCK_RECORD
5
1B
100
AcDbSymbolTableRecord
100
AcDbBlockTableRecord
2
*Paper_Space
340
0
70
0
0
BLOCK_RECORD
5
23
100
AcDbSymbolTableRecord
100
AcDbBlockTableRecord
2
*Paper_Space0
340
0
70
0
0
BLOCK_RECORD
5
E1
100
AcDbSymbolTableRecord
100
AcDbBlockTableRecord
2
DimnDraft3D1
340
0
70
0
0
BLOCK_RECORD
5
EB
100
AcDbSymbolTableRecord
100
AcDbBlockTableRecord
2
DimnDraft3D2
340
0
70
0
0
BLOCK_RECORD
5
F5
100
AcDbSymbolTableRecord
100
AcDbBlockTableRecord
2
DimnDraft3D3
340
0
70
0
0
BLOCK_RECORD
5
FF
100
AcDbSymbolTableRecord
100
AcDbBlockTableRecord
2
DimnDraft3D4
340
0
70
0
0
BLOCK_RECORD
5
109
100
AcDbSymbolTableRecord
100
AcDbBlockTableRecord
2
DimnDraft3D5
340
0
70
0
0
BLOCK_RECORD
5
113
100
AcDbSymbolTableRecord
100
AcDbBlockTableRecord
2
DimnDraft3D6
340
0
70
0
0
BLOCK_RECORD
5
11E
100
AcDbSymbolTableRecord
100
AcDbBlockTableRecord
2
DimnDraft3D7
340
0
70
0
0
ENDTAB
0
ENDSEC
0
SECTION
2
BLOCKS
0
BLOCK
5
20
100
AcDbEntity
8
0
100
AcDbBlockBegin
2
*Model_Space
70
0
10
0
20
0
30
0
3
*Model_Space
0
ENDBLK
5
21
100
AcDbEntity
8
0
100
AcDbBlockEnd
0
BLOCK
5
1C
100
AcDbEntity
8
0
100
AcDbBlockBegin
2
*Paper_Space
70
0
10
0
20
0
30
0
3
*Paper_Space
0
ENDBLK
5
1D
100
AcDbEntity
8
0
100
AcDbBlockEnd
0
BLOCK
5
24
100
AcDbEntity
8
0
100
AcDbBlockBegin
2
*Paper_Space0
70
0
10
0
20
0
30
0
3
*Paper_Space0
0
ENDBLK
5
25
100
AcDbEntity
8
0
100
AcDbBlockEnd
0
BLOCK
5
E8
100
AcDbEntity
8
0
100
AcDbBlockBegin
2
DimnDraft3D1
70
0
10
0
20
0
30
0
3
DimnDraft3D1
0
MTEXT
5
E2
100
AcDbEntity
8
SK2
62
256
6
ByLayer
370
13
48
1
60
0
100
AcDbMText
10
25.238875
20
-13.738398
30
0
210
0
220
0
230
1
1
\W0.6713;61,50
40
3.5
41
0
44
1.084337
50
0
71
7
72
5
7
iso_b_vert
0
LINE
5
E3
100
AcDbEntity
8
SK2
62
256
6
ByLayer
370
13
48
1
60
0
100
AcDbLine
10
0
20
-1.5875
30
0
11
0
21
-16.613398
31
0
39
0
210
0
220
0
230
1
0
LINE
5
E4
100
AcDbEntity
8
SK2
62
256
6
ByLayer
370
13
48
1
60
0
100
AcDbLine
10
61.5
20
-5.9875
30
0
11
61.5
21
-16.613398
31
0
39
0
210
0
220
0
230
1
0
LINE
5
E5
100
AcDbEntity
8
SK2
62
256
6
ByLayer
370
13
48
1
60
0
100
AcDbLine
10
0
20
-14.613398
30
0
11
61.5
21
-14.613398
31
0
39
0
210
0
220
0
230
1
0
SOLID
5
E6
100
AcDbEntity
8
SK2
62
256
6
ByLayer
370
13
48
1
60
0
100
AcDbTrace
10
0
20
-14.613398
30
0
11
3.499998
21
-14.152615
31
0
12
3.500002
22
-15.074182
32
0
13
0
23
-14.613398
33
0
39
0
210
0
220
0
230
1
0
SOLID
5
E7
100
AcDbEntity
8
SK2
62
256
6
ByLayer
370
13
48
1
60
0
100
AcDbTrace
10
61.5
20
-14.613398
30
0
11
58.000002
21
-15.074182
31
0
12
57.999998
22
-14.152615
32
0
13
61.5
23
-14.613398
33
0
39
0
210
0
220
0
230
1
0
ENDBLK
5
E9
100
AcDbEntity
8
0
100
AcDbBlockEnd
0
BLOCK
5
F2
100
AcDbEntity
8
0
100
AcDbBlockBegin
2
DimnDraft3D2
70
0
10
0
20
0
30
0
3
DimnDraft3D2
0
MTEXT
5
EC
100
AcDbEntity
8
SK2
62
256
6
ByLayer
370
13
48
1
60
0
100
AcDbMText
10
6.022221
20
-32.817985
30
0
210
0
220
0
230
1
1
\W0.6930;103,00
40
3.5
41
0
44
1.084337
50
0
71
7
72
5
7
iso_b_vert
0
LINE
5
ED
100
AcDbEntity
8
SK2
62
256
6
ByLayer
370
13
48
1
60
0
100
AcDbLine
10
-40
20
-6.5875
30
0
11
-40
21
-35.692985
31
0
39
0
210
0
220
0
230
1
0
LINE
5
EE
100
AcDbEntity
8
SK2
62
256
6
ByLayer
370
13
48
1
60
0
100
AcDbLine
10
63
20
-1.5875
30
0
11
63
21
-35.692985
31
0
39
0
210
0
220
0
230
1
0
LINE
5
EF
100
AcDbEntity
8
SK2
62
256
6
ByLayer
370
13
48
1
60
0
100
AcDbLine
10
-40
20
-33.692985
30
0
11
63
21
-33.692985
31
0
39
0
210
0
220
0
230
1
0
SOLID
5
F0
100
AcDbEntity
8
SK2
62
256
6
ByLayer
370
13
48
1
60
0
100
AcDbTrace
10
-40
20
-33.692985
30
0
11
-36.500002
21
-33.232202
31
0
12
-36.499998
22
-34.153769
32
0
13
-40
23
-33.692985
33
0
39
0
210
0
220
0
230
1
0
SOLID
5
F1
100
AcDbEntity
8
SK2
62
256
6
ByLayer
370
13
48
1
60
0
100
AcDbTrace
10
63
20
-33.692985
30
0
11
59.500002
21
-34.153769
31
0
12
59.499998
22
-33.232202
32
0
13
63
23
-33.692985
33
0
39
0
210
0
220
0
230
1
0
ENDBLK
5
F3
100
AcDbEntity
8
0
100
AcDbBlockEnd
0
BLOCK
5
FC
100
AcDbEntity
8
0
100
AcDbBlockBegin
2
DimnDraft3D3
70
0
10
0
20
0
30
0
3
DimnDraft3D3
0
MTEXT
5
F6
100
AcDbEntity
8
SK2
62
256
6
ByLayer
370
13
48
1
60
0
100
AcDbMText
10
35.617105
20
16.884119
30
0
210
0
220
0
230
1
1
\W0.7581;45,50
40
3.5
41
0
44
1.084337
50
0
71
7
72
5
7
iso_b_vert
0
LINE
5
F7
100
AcDbEntity
8
SK2
62
256
6
ByLayer
370
13
48
1
60
0
100
AcDbLine
10
17.5
20
5.9875
30
0
11
17.5
21
18.009119
31
0
39
0
210
0
220
0
230
1
0
LINE
5
F8
100
AcDbEntity
8
SK2
62
256
6
ByLayer
370
13
48
1
60
0
100
AcDbLine
10
63
20
1.5875
30
0
11
63
21
18.009119
31
0
39
0
210
0
220
0
230
1
0
LINE
5
F9
100
AcDbEntity
8
SK2
62
256
6
ByLayer
370
13
48
1
60
0
100
AcDbLine
10
17.5
20
16.009119
30
0
11
63
21
16.009119
31
0
39
0
210
0
220
0
230
1
0
SOLID
5
FA
100
AcDbEntity
8
SK2
62
256
6
ByLayer
370
13
48
1
60
0
100
AcDbTrace
10
17.5
20
16.009119
30
0
11
20.999998
21
16.469903
31
0
12
21.000002
22
15.548335
32
0
13
17.5
23
16.009119
33
0
39
0
210
0
220
0
230
1
0
SOLID
5
FB
100
AcDbEntity
8
SK2
62
256
6
ByLayer
370
13
48
1
60
0
100
AcDbTrace
10
63
20
16.009119
30
0
11
59.500002
21
15.548335
31
0
12
59.499998
22
16.469903
32
0
13
63
23
16.009119
33
0
39
0
210
0
220
0
230
1
0
ENDBLK
5
FD
100
AcDbEntity
8
0
100
AcDbBlockEnd
0
BLOCK
5
106
100
AcDbEntity
8
0
100
AcDbBlockBegin
2
DimnDraft3D4
70
0
10
0
20
0
30
0
3
DimnDraft3D4
0
MTEXT
5
100
100
AcDbEntity
8
SK2
62
256
6
ByLayer
370
13
48
1
60
0
100
AcDbMText
10
70.278136
20
-16.327503
30
0
210
0
220
0
230
1
1
\W0.6367;1,50
40
3.5
41
0
44
1.084337
50
0
71
7
72
5
7
iso_b_vert
0
LINE
5
101
100
AcDbEntity
8
SK2
62
256
6
ByLayer
370
13
48
1
60
0
100
AcDbLine
10
63
20
-1.5875
30
0
11
63
21
-19.202503
31
0
39
0
210
0
220
0
230
1
0
LINE
5
102
100
AcDbEntity
8
SK2
62
256
6
ByLayer
370
13
48
1
60
0
100
AcDbLine
10
61.5
20
-5.9875
30
0
11
61.5
21
-19.202503
31
0
39
0
210
0
220
0
230
1
0
LINE
5
103
100
AcDbEntity
8
SK2
62
256
6
ByLayer
370
13
48
1
60
0
100
AcDbLine
10
52.75
20
-17.202503
30
0
11
76.559715
21
-17.202503
31
0
39
0
210
0
220
0
230
1
0
SOLID
5
104
100
AcDbEntity
8
SK2
62
256
6
ByLayer
370
13
48
1
60
0
100
AcDbTrace
10
63
20
-17.202503
30
0
11
66.499998
21
-16.741719
31
0
12
66.500002
22
-17.663287
32
0
13
63
23
-17.202503
33
0
39
0
210
0
220
0
230
1
0
SOLID
5
105
100
AcDbEntity
8
SK2
62
256
6
ByLayer
370
13
48
1
60
0
100
AcDbTrace
10
61.5
20
-17.202503
30
0
11
58.000002
21
-17.663287
31
0
12
57.999998
22
-16.741719
32
0
13
61.5
23
-17.202503
33
0
39
0
210
0
220
0
230
1
0
ENDBLK
5
107
100
AcDbEntity
8
0
100
AcDbBlockEnd
0
BLOCK
5
110
100
AcDbEntity
8
0
100
AcDbBlockBegin
2
DimnDraft3D5
70
0
10
0
20
0
30
0
3
DimnDraft3D5
0
MTEXT
5
10A
100
AcDbEntity
8
SK2
62
256
6
ByLayer
370
13
48
1
60
0
100
AcDbMText
10
3.379097
20
-22.468428
30
0
210
0
220
0
230
1
1
\W0.6440;101,50
40
3.5
41
0
44
1.084337
50
0
71
7
72
5
7
iso_b_vert
0
LINE
5
10B
100
AcDbEntity
8
SK2
62
256
6
ByLayer
370
13
48
1
60
0
100
AcDbLine
10
-40
20
-6.5875
30
0
11
-40
21
-25.343428
31
0
39
0
210
0
220
0
230
1
0
LINE
5
10C
100
AcDbEntity
8
SK2
62
256
6
ByLayer
370
13
48
1
60
0
100
AcDbLine
10
61.5
20
-5.9875
30
0
11
61.5
21
-25.343428
31
0
39
0
210
0
220
0
230
1
0
LINE
5
10D
100
AcDbEntity
8
SK2
62
256
6
ByLayer
370
13
48
1
60
0
100
AcDbLine
10
-40
20
-23.343428
30
0
11
61.5
21
-23.343428
31
0
39
0
210
0
220
0
230
1
0
SOLID
5
10E
100
AcDbEntity
8
SK2
62
256
6
ByLayer
370
13
48
1
60
0
100
AcDbTrace
10
-40
20
-23.343428
30
0
11
-36.500002
21
-22.882645
31
0
12
-36.499998
22
-23.804212
32
0
13
-40
23
-23.343428
33
0
39
0
210
0
220
0
230
1
0
SOLID
5
10F
100
AcDbEntity
8
SK2
62
256
6
ByLayer
370
13
48
1
60
0
100
AcDbTrace
10
61.5
20
-23.343428
30
0
11
58.000002
21
-23.804212
31
0
12
57.999998
22
-22.882645
32
0
13
61.5
23
-23.343428
33
0
39
0
210
0
220
0
230
1
0
ENDBLK
5
111
100
AcDbEntity
8
0
100
AcDbBlockEnd
0
BLOCK
5
11B
100
AcDbEntity
8
0
100
AcDbBlockBegin
2
DimnDraft3D6
70
0
10
0
20
0
30
0
3
DimnDraft3D6
0
MTEXT
5
114
100
AcDbEntity
8
SK2
62
256
6
ByLayer
370
13
48
1
60
0
100
AcDbMText
10
-50.375163
20
24.34918
30
0
210
0
220
0
230
1
1
\W0.6930;10,000
40
3.5
41
0
44
1.084337
50
90
71
7
72
5
7
iso_b_vert
0
MTEXT
5
115
100
AcDbEntity
8
SK2
62
256
6
ByLayer
370
13
48
1
60
0
100
AcDbMText
10
-50.375163
20
19.126524
30
0
210
0
220
0
230
1
1
%%c
40
3.5
41
0
44
1.084337
50
90
71
7
72
5
7
iso_b_vert
0
LINE
5
116
100
AcDbEntity
8
SK2
62
256
6
ByLayer
370
13
48
1
60
0
100
AcDbLine
10
-41.5875
20
-5
30
0
11
-50.625163
21
-5
31
0
39
0
210
0
220
0
230
1
0
LINE
5
117
100
AcDbEntity
8
SK2
62
256
6
ByLayer
370
13
48
1
60
0
100
AcDbLine
10
-41.5875
20
5
30
0
11
-50.625163
21
5
31
0
39
0
210
0
220
0
230
1
0
LINE
5
118
100
AcDbEntity
8
SK2
62
256
6
ByLayer
370
13
48
1
60
0
100
AcDbLine
10
-48.625163
20
-5
30
0
11
-48.625163
21
35.862338
31
0
39
0
210
0
220
0
230
1
0
SOLID
5
119
100
AcDbEntity
8
SK2
62
256
6
ByLayer
370
13
48
1
60
0
100
AcDbTrace
10
-48.625163
20
-5
30
0
11
-49.085946
21
-1.500002
31
0
12
-48.164379
22
-1.499998
32
0
13
-48.625163
23
-5
33
0
39
0
210
0
220
0
230
1
0
SOLID
5
11A
100
AcDbEntity
8
SK2
62
256
6
ByLayer
370
13
48
1
60
0
100
AcDbTrace
10
-48.625163
20
5
30
0
11
-48.164379
21
1.500002
31
0
12
-49.085946
22
1.499998
32
0
13
-48.625163
23
5
33
0
39
0
210
0
220
0
230
1
0
ENDBLK
5
11C
100
AcDbEntity
8
0
100
AcDbBlockEnd
0
BLOCK
5
126
100
AcDbEntity
8
0
100
AcDbBlockBegin
2
DimnDraft3D7
70
0
10
0
20
0
30
0
3
DimnDraft3D7
0
MTEXT
5
11F
100
AcDbEntity
8
2
62
256
6
ByLayer
370
13
48
1
60
0
100
AcDbMText
10
73.333343
20
22.342266
30
0
210
0
220
0
230
1
1
\W0.7317;8,800
40
3.5
41
0
44
1.084337
50
90
71
7
72
5
7
iso_b_vert
0
MTEXT
5
120
100
AcDbEntity
8
2
62
256
6
ByLayer
370
13
48
1
60
0
100
AcDbMText
10
73.333343
20
17.11961
30
0
210
0
220
0
230
1
1
%%c
40
3.5
41
0
44
1.084337
50
90
71
7
72
5
7
iso_b_vert
0
LINE
5
121
100
AcDbEntity
8
2
62
256
6
ByLayer
370
13
48
1
60
0
100
AcDbLine
10
63.0875
20
-4.4
30
0
11
77.083343
21
-4.4
31
0
39
0
210
0
220
0
230
1
0
LINE
5
122
100
AcDbEntity
8
2
62
256
6
ByLayer
370
13
48
1
60
0
100
AcDbLine
10
63.0875
20
4.4
30
0
11
77.083343
21
4.4
31
0
39
0
210
0
220
0
230
1
0
LINE
5
123
100
AcDbEntity
8
2
62
256
6
ByLayer
370
13
48
1
60
0
100
AcDbLine
10
75.083343
20
-4.4
30
0
11
75.083343
21
32.114635
31
0
39
0
210
0
220
0
230
1
0
SOLID
5
124
100
AcDbEntity
8
2
62
256
6
ByLayer
370
13
48
1
60
0
100
AcDbTrace
10
75.083343
20
-4.4
30
0
11
74.622559
21
-0.900002
31
0
12
75.544126
22
-0.899998
32
0
13
75.083343
23
-4.4
33
0
39
0
210
0
220
0
230
1
0
SOLID
5
125
100
AcDbEntity
8
2
62
256
6
ByLayer
370
13
48
1
60
0
100
AcDbTrace
10
75.083343
20
4.4
30
0
11
75.544126
21
0.900002
31
0
12
74.622559
22
0.899998
32
0
13
75.083343
23
4.4
33
0
39
0
210
0
220
0
230
1
0
ENDBLK
5
127
100
AcDbEntity
8
0
100
AcDbBlockEnd
0
ENDSEC
0
SECTION
2
ENTITIES
0
ARC
5
99
100
AcDbEntity
8
1
62
256
6
ByLayer
370
18
48
1
60
0
100
AcDbCircle
39
0
10
0
20
4.2
30
0
40
0.799999999999996
210
0
220
0
230
1
100
AcDbArc
50
37.041763
51
90
0
ARC
5
9A
100
AcDbEntity
8
1
62
256
6
ByLayer
370
18
48
1
60
0
100
AcDbCircle
39
0
10
0
20
-4.2
30
0
40
0.799999999999996
210
0
220
0
230
1
100
AcDbArc
50
270
51
322.958237
0
ARC
5
9B
100
AcDbEntity
8
1
62
256
6
ByLayer
370
18
48
1
60
0
100
AcDbCircle
39
0
10
-1.277115
20
-5.163835
30
0
40
0.800000000000002
210
0
220
0
230
-1
100
AcDbArc
50
37.041763
51
90.034377
0
ARC
5
9C
100
AcDbEntity
8
1
62
256
6
ByLayer
370
18
48
1
60
0
100
AcDbCircle
39
0
10
-1.277115
20
5.163835
30
0
40
0.800000000000002
210
0
220
0
230
-1
100
AcDbArc
50
269.965623
51
322.958237
0
ELLIPSE
5
9D
100
AcDbEntity
8
1
62
256
6
ByLayer
370
18
48
1
60
0
100
AcDbEllipse
10
62.159258
20
-2.143888
30
0
11
0.679672737424469
21
1.84678356190266
31
0
210
0
220
0
230
-1
40
0.098637
41
0.749112684720897
42
1.53782595312489
0
ELLIPSE
5
9E
100
AcDbEntity
8
1
62
256
6
ByLayer
370
18
48
1
60
0
100
AcDbEllipse
10
63.000383
20
-0.000961
30
0
11
1.61858802857828
21
-4.39797212321545
31
0
210
0
220
0
230
-1
40
0.098637
41
-2.97659580341927
42
-2.87644349646767
0
ELLIPSE
5
9F
100
AcDbEntity
8
1
62
256
6
ByLayer
370
18
48
1
60
0
100
AcDbEllipse
10
62.159258
20
2.143888
30
0
11
0.679672737422925
21
-1.84678356189917
31
0
210
0
220
0
230
-1
40
0.098637
41
-1.53782595312614
42
-0.749112684720742
0
ELLIPSE
5
A0
100
AcDbEntity
8
1
62
256
6
ByLayer
370
13
48
1
60
0
100
AcDbEllipse
10
4.178896
20
-2.938845
30
0
11
0.00139891368632429
21
0.0999902147237329
31
0
210
0
220
0
230
1
40
0.601762
41
0.930137667050706
42
2.25794506657141
0
ELLIPSE
5
A1
100
AcDbEntity
8
1
62
256
6
ByLayer
370
18
48
1
60
0
100
AcDbEllipse
10
62.860143
20
0.124806
30
0
11
0.072781910491266
21
0.301917195723046
31
0
210
0
220
0
230
-1
40
0.478434
41
1.72853204560008
42
2.45976119973542
0
ELLIPSE
5
A2
100
AcDbEntity
8
1
62
256
6
ByLayer
370
18
48
1
60
0
100
AcDbEllipse
10
63.034101
20
0.021591
30
0
11
0.140634104982992
21
-0.431000092721324
31
0
210
0
220
0
230
-1
40
0.07518
41
1.64498006174121
42
2.31001430904798
0
ELLIPSE
5
A3
100
AcDbEntity
8
1
62
256
6
ByLayer
370
18
48
1
60
0
100
AcDbEllipse
10
63.034101
20
-0.021591
30
0
11
0.140634104930082
21
0.431000092582384
31
0
210
0
220
0
230
-1
40
0.07518
41
-2.3100143090503
42
-1.64498006154591
0
ELLIPSE
5
A4
100
AcDbEntity
8
1
62
256
6
ByLayer
370
13
48
1
60
0
100
AcDbEllipse
10
62.416406
20
2.02069
30
0
11
2.4655916162497
21
-1.69762994029423
31
0
210
0
220
0
230
-1
40
0.533762
41
1.44484622736677
42
1.74125612703462
0
ELLIPSE
5
A5
100
AcDbEntity
8
1
62
256
6
ByLayer
370
13
48
1
60
0
100
AcDbEllipse
10
4.250209
20
-2.953961
30
0
11
0.0361349636763611
21
0.0932430394190798
31
0
210
0
220
0
230
1
40
0.326488
41
0.867739771816463
42
2.42089955956812
0
ELLIPSE
5
A6
100
AcDbEntity
8
1
62
256
6
ByLayer
370
18
48
1
60
0
100
AcDbEllipse
10
63.000383
20
0.000961
30
0
11
1.61858800564335
21
4.39797205650307
31
0
210
0
220
0
230
-1
40
0.098637
41
2.87644349444423
42
2.97659580216762
0
ELLIPSE
5
A7
100
AcDbEntity
8
1
62
256
6
ByLayer
370
13
48
1
60
0
100
AcDbEllipse
10
62.606313
20
2.143888
30
0
11
2.53968852149932
21
-1.3479395154026
31
0
210
0
220
0
230
-1
40
0.497772
41
1.53874345339447
42
1.8638283412079
0
ELLIPSE
5
A8
100
AcDbEntity
8
1
62
256
6
ByLayer
370
13
48
1
60
0
100
AcDbEllipse
10
62.017082
20
0.625022
30
0
11
0.153082081612423
21
0.258003636193771
31
0
210
0
220
0
230
1
40
0.454519
41
0.917105603404826
42
2.31336900500025
0
POINT
5
6C
100
AcDbEntity
8
81
62
256
6
ByLayer
370
18
48
1
60
0
100
AcDbPoint
10
63
20
0
30
0
39
0
210
0
220
0
230
1
50
360
0
POINT
5
6E
100
AcDbEntity
8
80
62
256
6
ByLayer
370
18
48
1
60
0
100
AcDbPoint
10
0
20
0
30
0
39
0
210
0
220
0
230
1
50
360
0
POINT
5
70
100
AcDbEntity
8
SK2
62
256
6
ByLayer
370
18
48
1
60
1
100
AcDbPoint
10
-40
20
-5
30
0
39
0
210
0
220
0
230
1
50
360
0
POINT
5
72
100
AcDbEntity
8
SK2
62
256
6
ByLayer
370
18
48
1
60
1
100
AcDbPoint
10
-40
20
5
30
0
39
0
210
0
220
0
230
1
50
360
0
POINT
5
73
100
AcDbEntity
8
2
62
256
6
ByLayer
370
18
48
1
60
1
100
AcDbPoint
10
61.5
20
-4.4
30
0
39
0
210
0
220
0
230
1
50
360
0
POINT
5
75
100
AcDbEntity
8
2
62
256
6
ByLayer
370
18
48
1
60
1
100
AcDbPoint
10
61.5
20
4.4
30
0
39
0
210
0
220
0
230
1
50
360
0
SPLINE
5
A9
100
AcDbEntity
8
1
62
256
6
ByLayer
370
18
48
1
60
0
100
AcDbSpline
70
4
71
3
72
25
73
21
40
0
40
0
40
0
40
0
40
0.0028929982540545
40
0.0460649894998866
40
0.0905988321929088
40
0.137480620450432
40
0.223846414001251
40
0.295548426154056
40
0.346099231579294
40
0.401407478511779
40
0.474253890485347
40
0.533708873347815
40
0.600880974345225
40
0.676466311451823
40
0.742274129201164
40
0.797527213116625
40
0.856618772280487
40
0.923831899464583
40
0.985357947193764
40
1
40
1
40
1
40
1
41
1
10
23.2679213715325
20
4.17421006930769
30
0
41
1
10
23.258744374383
20
4.17411053190199
30
0
41
1
10
23.1122067122932
20
4.17248332950021
30
0
41
1
10
22.7998938947192
20
4.16409138578533
30
0
41
1
10
22.333077431916
20
4.15955265674609
30
0
41
1
10
21.7073073488291
20
4.16288141942519
30
0
41
1
10
21.0094554075355
20
4.17237700801044
30
0
41
1
10
20.2944168122736
20
4.1764912099045
30
0
41
1
10
19.6736427031915
20
4.17609236529415
30
0
41
1
10
19.0482462001691
20
4.17355987801022
30
0
41
1
10
18.3918421285242
20
4.17578100461409
30
0
41
1
10
17.6938826044712
20
4.17378757367058
30
0
41
1
10
16.986345512003
20
4.17325203636261
30
0
41
1
10
16.2565905204907
20
4.17375111287038
30
0
41
1
10
15.5685785509305
20
4.17198142540596
30
0
41
1
10
14.9382223616036
20
4.17243158370371
30
0
41
1
10
14.3029737479199
20
4.17164227912372
30
0
41
1
10
13.6457606018274
20
4.17093647580526
30
0
41
1
10
13.1440926269614
20
4.17066371894981
30
0
41
1
10
12.8775625753791
20
4.17042683577171
30
0
41
1
10
12.8263342692995
20
4.1703795002997
30
0
0
SPLINE
5
AA
100
AcDbEntity
8
1
62
256
6
ByLayer
370
18
48
1
60
0
100
AcDbSpline
70
4
71
3
72
29
73
25
40
0
40
0
40
0
40
0
40
0.0499358589162355
40
0.0905048314471953
40
0.124669902658479
40
0.152701815450663
40
0.180523476202085
40
0.213230579574354
40
0.249574213761144
40
0.286379278231816
40
0.362785038480433
40
0.431632956343134
40
0.503645269466362
40
0.547830168118867
40
0.583541335566002
40
0.629155977084472
40
0.678136315549157
40
0.712683279029368
40
0.741780417734903
40
0.777555417330656
40
0.822748312936828
40
0.883266667033727
40
0.959658122685314
40
1
40
1
40
1
40
1
41
1
10
10.5937036737749
20
-4.16859864203317
30
0
41
1
10
10.7950565236917
20
-4.16772822272134
30
0
41
1
10
11.1615181725298
20
-4.16692477068372
30
0
41
1
10
11.6837810503191
20
-4.1685864173671
30
0
41
1
10
12.096140765222
20
-4.1700025476768
30
0
41
1
10
12.471087348043
20
-4.16994077101171
30
0
41
1
10
12.8376547025388
20
-4.17039096771617
30
0
41
1
10
13.2393943628489
20
-4.1707731704291
30
0
41
1
10
13.6781670815505
20
-4.17097350858839
30
0
41
1
10
14.2981593696601
20
-4.17154172503621
30
0
41
1
10
15.0528005761163
20
-4.17232662686061
30
0
41
1
10
15.9534466924673
20
-4.17253893635308
30
0
41
1
10
16.7205466759605
20
-4.17382737807915
30
0
41
1
10
17.3502213647663
20
-4.17313046041417
30
0
41
1
10
17.8706794856499
20
-4.17459007517152
30
0
41
1
10
18.4101087988753
20
-4.17534284386184
30
0
41
1
10
18.9461127524115
20
-4.17383575520142
30
0
41
1
10
19.4108393265544
20
-4.17466190793198
30
0
41
1
10
19.8235879696943
20
-4.17656232822688
30
0
41
1
10
20.2779614565156
20
-4.17615646739031
30
0
41
1
10
20.8612291668423
20
-4.17356618579709
30
0
41
1
10
21.6175298254378
20
-4.17727108315862
30
0
41
1
10
22.351349970737
20
-4.17572028239678
30
0
41
1
10
22.8347000905621
20
-4.17687789752625
30
0
41
1
10
23.0016846153287
20
-4.17729845401479
30
0
0
SPLINE
5
AB
100
AcDbEntity
8
1
62
256
6
ByLayer
370
18
48
1
60
0
100
AcDbSpline
70
4
71
3
72
28
73
24
40
0
40
0
40
0
40
0
40
0.0150230071023335
40
0.0730942616730257
40
0.119874234277668
40
0.157969501448394
40
0.188784600411342
40
0.223131304065812
40
0.264412993976533
40
0.3428056513893
40
0.419355828341949
40
0.512615700115868
40
0.582555388048543
40
0.639289127812572
40
0.681940295369063
40
0.726152013940401
40
0.779768158761596
40
0.818054752986092
40
0.851135692094057
40
0.876451203659673
40
0.904693238627395
40
0.952495698201816
40
1
40
1
40
1
40
1
41
1
10
48.0784298321624
20
4.18943125910081
30
0
41
1
10
48.0274264211116
20
4.18937273624007
30
0
41
1
10
47.779192574407
20
4.18915204970975
30
0
41
1
10
47.3629121630993
20
4.18764647181317
30
0
41
1
10
46.8838862821653
20
4.19028829145725
30
0
41
1
10
46.4882225409426
20
4.1902133769803
30
0
41
1
10
46.1339421437045
20
4.19024337240339
30
0
41
1
10
45.7693245263618
20
4.1891486766618
30
0
41
1
10
45.240908238097
20
4.18826384811535
30
0
41
1
10
44.5679313152067
20
4.18950361400186
30
0
41
1
10
43.7165804426726
20
4.1870301744095
30
0
41
1
10
42.8942526975394
20
4.18865450087063
30
0
41
1
10
42.1398859972599
20
4.18691316039886
30
0
41
1
10
41.5591068103364
20
4.18683270204434
30
0
41
1
10
41.066573881135
20
4.18711752361131
30
0
41
1
10
40.5847368170027
20
4.18636603254342
30
0
41
1
10
40.1178657204848
20
4.18582655650036
30
0
41
1
10
39.6891821360162
20
4.18618209254538
30
0
41
1
10
39.3575633997403
20
4.18610906989517
30
0
41
1
10
39.0603887617564
20
4.18590830400024
30
0
41
1
10
38.7127598968728
20
4.18533955004659
30
0
41
1
10
38.2891548084369
20
4.1850937010567
30
0
41
1
10
37.9623067293647
20
4.18500571217922
30
0
41
1
10
37.7993795667199
20
4.18494155777177
30
0
0
SPLINE
5
AC
100
AcDbEntity
8
1
62
256
6
ByLayer
370
18
48
1
60
0
100
AcDbSpline
70
4
71
3
72
14
73
10
40
0
40
0
40
0
40
0
40
0.0490023709781786
40
0.330172660972254
40
0.48499550487275
40
0.636855029708577
40
0.703612074098152
40
0.787203020337577
40
1
40
1
40
1
40
1
41
1
10
24.2785107596889
20
-1.12809310633315
30
0
41
1
10
24.2784155363485
20
-1.12812661667644
30
0
41
1
10
24.2820389250689
20
-1.13020464839849
30
0
41
1
10
24.3366933759262
20
-1.15490400248606
30
0
41
1
10
24.3702709688379
20
-1.17109036465035
30
0
41
1
10
24.3521110303161
20
-1.16229966223906
30
0
41
1
10
24.3664456288533
20
-1.16949599269677
30
0
41
1
10
24.416960026775
20
-1.19505875907964
30
0
41
1
10
24.469352504784
20
-1.22250428522926
30
0
41
1
10
24.51753125531
20
-1.24794203073185
30
0
0
SPLINE
5
AD
100
AcDbEntity
8
1
62
256
6
ByLayer
370
18
48
1
60
0
100
AcDbSpline
70
4
71
3
72
29
73
25
40
0
40
0
40
0
40
0
40
0.0814570964055024
40
0.149690071641894
40
0.204796138798022
40
0.248499630567822
40
0.283596647482421
40
0.311413067980361
40
0.34539675398649
40
0.389408422010634
40
0.417451286291808
40
0.43554120565567
40
0.452879358944002
40
0.477643806513094
40
0.509840446499065
40
0.594220389050989
40
0.668356788001655
40
0.740668051921131
40
0.853130145183718
40
0.872088470696409
40
0.89109076180781
40
0.917004178601208
40
0.953640184291414
40
1
40
1
40
1
40
1
41
1
10
35.5958723021194
20
-4.18364586263081
30
0
41
1
10
35.9299293452294
20
-4.18368086403612
30
0
41
1
10
36.544499276103
20
-4.18378526514999
30
0
41
1
10
37.3853529688049
20
-4.18327503363955
30
0
41
1
10
38.0748534108729
20
-4.18403803059999
30
0
41
1
10
38.6187758152739
20
-4.18527955471095
30
0
41
1
10
39.0583534411565
20
-4.18594721379222
30
0
41
1
10
39.4550468484105
20
-4.18609167077921
30
0
41
1
10
39.890776947556
20
-4.18585229923013
30
0
41
1
10
40.3264160063926
20
-4.18576525457922
30
0
41
1
10
40.6968962481188
20
-4.18665229415339
30
0
41
1
10
40.9579706109961
20
-4.18693949160317
30
0
41
1
10
41.2056056202324
20
-4.18700038020381
30
0
41
1
10
41.5112634492567
20
-4.18689903118172
30
0
41
1
10
42.0927277383934
20
-4.18676935045738
30
0
41
1
10
42.8773003974568
20
-4.18859721342511
30
0
41
1
10
43.8269011995152
20
-4.18734267338459
30
0
41
1
10
44.8920375220933
20
-4.18936320435159
30
0
41
1
10
45.7301571576731
20
-4.1895213432656
30
0
41
1
10
46.348984099514
20
-4.19039515824787
30
0
41
1
10
46.6117516280703
20
-4.19028017357212
30
0
41
1
10
46.9472501901815
20
-4.18984787500611
30
0
41
1
10
47.3952839706203
20
-4.18927850730529
30
0
41
1
10
47.7367225337307
20
-4.18981965731942
30
0
41
1
10
47.9274439304332
20
-4.19033376066938
30
0
0
SPLINE
5
AE
100
AcDbEntity
8
1
62
256
6
ByLayer
370
18
48
1
60
0
100
AcDbSpline
70
4
71
3
72
12
73
8
40
0
40
0
40
0
40
0
40
0.109912334953794
40
0.260645246455144
40
0.416403851674414
40
0.632941364190523
40
1
40
1
40
1
40
1
41
1
10
49.2710230968348
20
-1.12390542720084
30
0
41
1
10
49.2701820676807
20
-1.12361317188345
30
0
41
1
10
49.2717100356383
20
-1.12454138508994
30
0
41
1
10
49.292461594855
20
-1.13452365313668
30
0
41
1
10
49.3612702056201
20
-1.16820996605023
30
0
41
1
10
49.4963633155329
20
-1.23651984817033
30
0
41
1
10
49.5963128467033
20
-1.28853872189074
30
0
41
1
10
49.6622591165975
20
-1.32344902539956
30
0
0
SPLINE
5
AF
100
AcDbEntity
8
1
62
256
6
ByLayer
370
18
48
1
60
0
100
AcDbSpline
70
4
71
2
72
6
73
3
40
0
40
0
40
0
40
1
40
1
40
1
41
1
10
60.6644488932956
20
-4.19861050269918
30
0
41
1
10
61.0678375936769
20
-4.19675197640282
30
0
41
1
10
61.4710307738133
20
-4.20038466721266
30
0
0
SPLINE
5
B0
100
AcDbEntity
8
1
62
256
6
ByLayer
370
18
48
1
60
0
100
AcDbSpline
70
4
71
3
72
44
73
40
40
0
40
0
40
0
40
0
40
0.0344117384471753
40
0.0344117384471753
40
0.0688234768943506
40
0.0688234768943506
40
0.137646953788701
40
0.137646953788701
40
0.172058692235877
40
0.172058692235877
40
0.206470430683052
40
0.206470430683052
40
0.275293907577404
40
0.275293907577404
40
0.344117384471756
40
0.344117384471756
40
0.378529122918932
40
0.378529122918932
40
0.412940861366108
40
0.412940861366108
40
0.550587815154811
40
0.550587815154811
40
0.584999553601987
40
0.584999553601987
40
0.619411292049162
40
0.619411292049162
40
0.688234768943514
40
0.688234768943514
40
0.757058245837865
40
0.757058245837865
40
0.79146998428504
40
0.79146998428504
40
0.808675853508627
40
0.808675853508627
40
0.825881722732215
40
0.825881722732215
40
0.963528676520909
40
0.963528676520909
40
1
40
1
40
1
40
1
41
1
10
61.4750287891847
20
-4.36350446094079
30
0
41
1
10
61.1746383577246
20
-4.38470656178743
30
0
41
1
10
60.8744409999022
20
-4.3964951540614
30
0
41
1
10
60.2736669302965
20
-4.40127669809075
30
0
41
1
10
59.9728185345156
20
-4.39425253411386
30
0
41
1
10
59.0703935040983
20
-4.34500743227696
30
0
41
1
10
58.4712120654326
20
-4.27483549254328
30
0
41
1
10
57.5709663347216
20
-4.11582555410996
30
0
41
1
10
57.2703000906464
20
-4.05379976446164
30
0
41
1
10
56.6688143599952
20
-3.91264580937815
30
0
41
1
10
56.3693671838077
20
-3.8338725918963
30
0
41
1
10
55.4736359109297
20
-3.5746089114262
30
0
41
1
10
54.8799759877169
20
-3.37114468097019
30
0
41
1
10
53.6926221884729
20
-2.91197517189704
30
0
41
1
10
53.0989279676036
20
-2.65629188281261
30
0
41
1
10
52.2034236884337
20
-2.24003401444745
30
0
41
1
10
51.9040591079764
20
-2.09587936332753
30
0
41
1
10
51.3026733297453
20
-1.79803852472293
30
0
41
1
10
51.0020804717877
20
-1.6450565297196
30
0
41
1
10
49.5069003489835
20
-0.868469445539688
30
0
41
1
10
48.3264572002424
20
-0.205052418913937
30
0
41
1
10
46.8359466648363
20
0.613218913116157
30
0
41
1
10
46.5370839463089
20
0.776298040686896
30
0
41
1
10
45.9369107778776
20
1.0995900843906
30
0
41
1
10
45.6352797936473
20
1.2600287808782
30
0
41
1
10
44.7365398295164
20
1.72949836070288
30
0
41
1
10
44.1414929915952
20
2.0275447763141
30
0
41
1
10
42.9537292336097
20
2.58493254620797
30
0
41
1
10
42.3604619362215
20
2.84341022584442
30
0
41
1
10
41.4672581453327
20
3.19440084087589
30
0
41
1
10
41.1688743926629
20
3.30513300476448
30
0
41
1
10
40.7196454079104
20
3.46084572189761
30
0
41
1
10
40.5696251514148
20
3.51101746216941
30
0
41
1
10
40.2689423478951
20
3.60776109485886
30
0
41
1
10
40.1182411833275
20
3.65434060609363
30
0
41
1
10
38.7667752372342
20
4.05430114236674
30
0
41
1
10
37.584858549364
20
4.27707047025467
30
0
41
1
10
36.0794858286072
20
4.37443229948198
30
0
41
1
10
35.7634973068372
20
4.38459714376569
30
0
41
1
10
35.446466552431
20
4.38433058097138
30
0
0
SPLINE
5
B1
100
AcDbEntity
8
1
62
256
6
ByLayer
370
18
48
1
60
0
100
AcDbSpline
70
4
71
3
72
16
73
12
40
0
40
0
40
0
40
0
40
0.170388371009493
40
0.170388371009493
40
0.377791278257119
40
0.377791278257119
40
0.481492731880932
40
0.481492731880932
40
0.585194185504745
40
0.585194185504745
40
1
40
1
40
1
40
1
41
1
10
12.7686063321311
20
-4.18643073316559
30
0
41
1
10
12.280127174065
20
-4.2632554650927
30
0
41
1
10
11.7923723072928
20
-4.31630815211022
30
0
41
1
10
10.70822279028
20
-4.37937841809097
30
0
41
1
10
10.1112964794016
20
-4.377613759902
30
0
41
1
10
9.20794337530529
20
-4.31862011109365
30
0
41
1
10
8.90690581348849
20
-4.2896171484102
30
0
41
1
10
8.30789383354724
20
-4.21382317831387
30
0
41
1
10
8.00932948862481
20
-4.16699973099111
30
0
41
1
10
6.5188757079074
20
-3.89009088864864
30
0
41
1
10
5.33395067883671
20
-3.53176519670137
30
0
41
1
10
4.12968083818794
20
-3.05962294806326
30
0
0
SPLINE
5
B2
100
AcDbEntity
8
1
62
256
6
ByLayer
370
13
48
1
60
0
100
AcDbSpline
70
4
71
3
72
16
73
12
40
0
40
0
40
0
40
0
40
0.226269793244798
40
0.226269793244798
40
0.339404689867197
40
0.339404689867197
40
0.452539586489596
40
0.452539586489596
40
0.905079172979185
40
0.905079172979185
40
1
40
1
40
1
40
1
41
1
10
4.20296987530503
20
-3.01623345896772
30
0
41
1
10
4.80514646797798
20
-3.2448063205421
30
0
41
1
10
5.40430142088587
20
-3.44567414117256
30
0
41
1
10
6.30320240978276
20
-3.70138452866462
30
0
41
1
10
6.60287242890729
20
-3.77900608910275
30
0
41
1
10
7.20316977876217
20
-3.91812320486557
30
0
41
1
10
7.50409599025579
20
-3.97965144423139
30
0
41
1
10
9.01024339678014
20
-4.24396394734063
30
0
41
1
10
10.1945220899088
20
-4.31279356196495
30
0
41
1
10
11.6338976097658
20
-4.22320822534928
30
0
41
1
10
11.8837095345495
20
-4.20140232978022
30
0
41
1
10
12.1340145755405
20
-4.17334446759165
30
0
0
SPLINE
5
B3
100
AcDbEntity
8
1
62
256
6
ByLayer
370
18
48
1
60
0
100
AcDbSpline
70
4
71
3
72
12
73
8
40
0
40
0
40
0
40
0
40
0.175997600925032
40
0.175997600925032
40
0.479441580346125
40
0.479441580346125
40
1
40
1
40
1
40
1
41
1
10
47.9498625148211
20
0.0001695533929649
30
0
41
1
10
48.2939414497399
20
-0.185302009153986
30
0
41
1
10
48.6381001209608
20
-0.37085404572926
30
0
41
1
10
49.5774275783427
20
-0.873556190512716
30
0
41
1
10
50.1747436951687
20
-1.18811779003454
30
0
41
1
10
51.8093076195204
20
-2.0146722380766
30
0
41
1
10
52.8258583009407
20
-2.49116324385838
30
0
41
1
10
53.843356840054
20
-2.8968402423379
30
0
0
SPLINE
5
B4
100
AcDbEntity
8
1
62
256
6
ByLayer
370
13
48
1
60
0
100
AcDbSpline
70
4
71
3
72
18
73
14
40
0
40
0
40
0
40
0
40
0.0664018374844959
40
0.0664018374844959
40
0.299801378113374
40
0.299801378113374
40
0.416501148427814
40
0.416501148427814
40
0.533200918742252
40
0.533200918742252
40
0.766600459371126
40
0.766600459371126
40
1
40
1
40
1
40
1
41
1
10
53.843357769185
20
-2.89684061278277
30
0
41
1
10
54.0120996731048
20
-2.96411805757046
30
0
41
1
10
54.1808676459912
20
-3.02944791243402
30
0
41
1
10
54.9433158792143
20
-3.31509845986994
30
0
41
1
10
55.5380731858289
20
-3.51228644057295
30
0
41
1
10
56.4371360142455
20
-3.76302511394565
30
0
41
1
10
56.7386870962901
20
-3.83923317320523
30
0
41
1
10
57.3385182129584
20
-3.97418536754412
30
0
41
1
10
57.6373906730822
20
-4.03311698066321
30
0
41
1
10
58.5322638832474
20
-4.18373676007565
30
0
41
1
10
59.1266078129578
20
-4.24932769244049
30
0
41
1
10
60.3171406847706
20
-4.30891596801018
30
0
41
1
10
60.9134578341966
20
-4.30245910828745
30
0
41
1
10
61.513641134386
20
-4.25976552071756
30
0
0
SPLINE
5
B5
100
AcDbEntity
8
1
62
256
6
ByLayer
370
18
48
1
60
0
100
AcDbSpline
70
4
71
3
72
31
73
27
40
0
40
0
40
0
40
0
40
0.0624999999999999
40
0.0624999999999999
40
0.125
40
0.125
40
0.25
40
0.25
40
0.3125
40
0.3125
40
0.375
40
0.4375
40
0.4375
40
0.5
40
0.5
40
0.625
40
0.625
40
0.6875
40
0.6875
40
0.75
40
0.75
40
0.875
40
0.875
40
0.9375
40
0.9375
40
1
40
1
40
1
40
1
41
1
10
4.00492583453587
20
-2.92213940308954
30
0
41
1
10
4.00493477924192
20
-2.81339163970486
30
0
41
1
10
4.00494334544931
20
-2.69934382310396
30
0
41
1
10
4.00495962892367
20
-2.4640043804441
30
0
41
1
10
4.00496734453137
20
-2.34283871336294
30
0
41
1
10
4.0049894763219
20
-1.96912903187805
30
0
41
1
10
4.00500288259883
20
-1.70647477937661
30
0
41
1
10
4.00502187039893
20
-1.29146475511797
30
0
41
1
10
4.00502793518604
20
-1.15124572299925
30
0
41
1
10
4.00503961123684
20
-0.869213836168171
30
0
41
1
10
4.0050508636574
20
-0.584923340857188
30
0
41
1
10
4.00506154130153
20
-0.296151741892601
30
0
41
1
10
4.00507203986672
20
-0.0050904540908618
30
0
41
1
10
4.00507721668041
20
0.142102752198951
30
0
41
1
10
4.00509227462524
20
0.577594289684242
30
0
41
1
10
4.00510180923951
20
0.862721205235488
30
0
41
1
10
4.00511561677411
20
1.28268029352839
30
0
41
1
10
4.0051201504219
20
1.42193618614982
30
0
41
1
10
4.00512894459152
20
1.69511762890403
30
0
41
1
10
4.00513317309742
20
1.82803901571691
30
0
41
1
10
4.0051453076712
20
2.21613033478616
30
0
41
1
10
4.00515268526519
20
2.46073257386178
30
0
41
1
10
4.00516211845948
20
2.8058444136843
30
0
41
1
10
4.00516496658045
20
2.9166549232296
30
0
41
1
10
4.00516985575027
20
3.12615074794275
30
0
41
1
10
4.00517191341652
20
3.22542879438575
30
0
41
1
10
4.00517351606268
20
3.31930351881553
30
0
0
SPLINE
5
B6
100
AcDbEntity
8
1
62
256
6
ByLayer
370
18
48
1
60
0
100
AcDbSpline
70
4
71
3
72
8
73
4
40
0
40
0
40
0
40
0
40
1
40
1
40
1
40
1
41
1
10
4.01327152753723
20
-2.95904192609828
30
0
41
1
10
4.00779266099022
20
-2.94716880445165
30
0
41
1
10
4.00492479216226
20
-2.93481233462893
30
0
41
1
10
4.00492583453587
20
-2.9221394030977
30
0
0
SPLINE
5
B7
100
AcDbEntity
8
1
62
256
6
ByLayer
370
18
48
1
60
0
100
AcDbSpline
70
4
71
3
72
10
73
6
40
0
40
0
40
0
40
0
40
0.873376658666336
40
0.873376658666336
40
1
40
1
40
1
40
1
41
1
10
61.4750287891846
20
4.36350446094079
30
0
41
1
10
61.1749417231986
20
4.38468514970268
30
0
41
1
10
60.8749128611335
20
4.39648081604267
30
0
41
1
10
60.53101520027
20
4.399229994454
30
0
41
1
10
60.4874553376443
20
4.39937989559667
30
0
41
1
10
60.4438853578972
20
4.39933185449644
30
0
0
SPLINE
5
B8
100
AcDbEntity
8
1
62
256
6
ByLayer
370
18
48
1
60
0
100
AcDbSpline
70
4
71
3
72
44
73
40
40
0
40
0
40
0
40
0
40
0.0203757411814414
40
0.0203757411814414
40
0.0530822139247162
40
0.0530822139247162
40
0.183908104897813
40
0.183908104897813
40
0.216614577641088
40
0.216614577641088
40
0.249321050384364
40
0.249321050384364
40
0.282027523127639
40
0.282027523127639
40
0.314733995870914
40
0.314733995870914
40
0.380146941357465
40
0.380146941357465
40
0.41285341410074
40
0.41285341410074
40
0.445559886844016
40
0.445559886844016
40
0.576385777817121
40
0.576385777817121
40
0.609092250560397
40
0.609092250560397
40
0.641798723303673
40
0.641798723303673
40
0.707211668790225
40
0.707211668790225
40
0.772624614276776
40
0.772624614276776
40
0.805331087020052
40
0.805331087020052
40
0.838037559763328
40
0.838037559763328
40
0.968863450736432
40
0.968863450736432
40
1
40
1
40
1
40
1
41
1
10
37.8383954163244
20
-4.18971232623366
30
0
41
1
10
37.6511070169301
20
-4.22011901607431
30
0
41
1
10
37.4636985323923
20
-4.24707393053893
30
0
41
1
10
36.9774028111033
20
-4.30777082537702
30
0
41
1
10
36.6788727747968
20
-4.3359416962613
30
0
41
1
10
35.1897066568638
20
-4.43084534148403
30
0
41
1
10
34.0090522710484
20
-4.35942037399386
30
0
41
1
10
32.5124729188454
20
-4.0902973592207
30
0
41
1
10
32.2114256686707
20
-4.02733685218101
30
0
41
1
10
31.6099698734948
20
-3.88452865936131
30
0
41
1
10
31.3098201029311
20
-3.80477512044723
30
0
41
1
10
30.709719088607
20
-3.62951799211547
30
0
41
1
10
30.4097530963468
20
-3.53403308550207
30
0
41
1
10
29.8091907770521
20
-3.32816742939335
30
0
41
1
10
29.5082200315001
20
-3.21761490775052
30
0
41
1
10
28.6057032964058
20
-2.86626428807946
30
0
41
1
10
28.0063709470002
20
-2.6064191899105
30
0
41
1
10
27.1055786753955
20
-2.18601855754602
30
0
41
1
10
26.8045211591278
20
-2.04057662132854
30
0
41
1
10
26.2030181540732
20
-1.74200274486938
30
0
41
1
10
25.9035657819097
20
-1.58930678570752
30
0
41
1
10
24.4107516645461
20
-0.812542908127938
30
0
41
1
10
23.2297070265175
20
-0.150449109270681
30
0
41
1
10
21.7359403903384
20
0.665326810876763
30
0
41
1
10
21.4363485443194
20
0.827954775754051
30
0
41
1
10
20.8344927684711
20
1.15031027061519
30
0
41
1
10
20.5340536978247
20
1.30900129505702
30
0
41
1
10
19.6368356220118
20
1.77355313966564
30
0
41
1
10
19.042614779749
20
2.06895380990076
30
0
41
1
10
17.8546882126229
20
2.61968410040308
30
0
41
1
10
17.2612173064157
20
2.87538296394223
30
0
41
1
10
16.366298598658
20
3.22112128040743
30
0
41
1
10
16.0672776524807
20
3.3301628088079
30
0
41
1
10
15.4667898382064
20
3.53432718300189
30
0
41
1
10
15.1650895789461
20
3.62945685370173
30
0
41
1
10
13.6665134352643
20
4.06234994179326
30
0
41
1
10
12.4850765732363
20
4.27682827764804
30
0
41
1
10
11.0097341111866
20
4.36163903633513
30
0
41
1
10
10.7255356300962
20
4.36969256901151
30
0
41
1
10
10.4403698497883
20
4.36932969407226
30
0
0
SPLINE
5
B9
100
AcDbEntity
8
1
62
256
6
ByLayer
370
18
48
1
60
0
100
AcDbSpline
70
4
71
3
72
14
73
10
40
0
40
0
40
0
40
0
40
0.497205596764141
40
0.497205596764141
40
0.66135667259552
40
0.66135667259552
40
0.825507748426899
40
0.825507748426899
40
1
40
1
40
1
40
1
41
1
10
60.6607866346707
20
-4.1985878091696
30
0
41
1
10
59.7568789085626
20
-4.19805994432858
30
0
41
1
10
58.8585434242672
20
-4.11601521917609
30
0
41
1
10
57.6570529562456
20
-3.90407997163922
30
0
41
1
10
57.3582781873291
20
-3.84302173922441
30
0
41
1
10
56.7587155526594
20
-3.70439404745539
30
0
41
1
10
56.4574503999679
20
-3.62666648488579
30
0
41
1
10
55.8397339680604
20
-3.45175168751672
30
0
41
1
10
55.5226891937841
20
-3.35347460821748
30
0
41
1
10
55.2063909797703
20
-3.24776962480726
30
0
0
SPLINE
5
BA
100
AcDbEntity
8
1
62
256
6
ByLayer
370
13
48
1
60
0
100
AcDbSpline
70
4
71
3
72
18
73
14
40
0
40
0
40
0
40
0
40
0.0740538158591971
40
0.0740538158591971
40
0.390184305549696
40
0.390184305549696
40
0.706314795240194
40
0.706314795240194
40
0.864380040085443
40
0.864380040085443
40
0.943412662508069
40
0.943412662508069
40
1
40
1
40
1
40
1
41
1
10
55.2063919282162
20
-3.24776994177222
30
0
41
1
10
54.9275838341466
20
-3.15459394717752
30
0
41
1
10
54.6493558127832
20
-3.05564652032393
30
0
41
1
10
53.1846495037954
20
-2.50649243526331
30
0
41
1
10
52.0026490419942
20
-1.96429211051498
30
0
41
1
10
49.5963137096037
20
-0.765390263182098
30
0
41
1
10
48.4137813997922
20
-0.130097309506425
30
0
41
1
10
46.6335673534787
20
0.801059335054333
30
0
41
1
10
46.0388577691087
20
1.10752465121578
30
0
41
1
10
45.1406346700809
20
1.55319491629237
30
0
41
1
10
44.8393060552451
20
1.69965074712204
30
0
41
1
10
44.3247399903922
20
1.9427276583825
30
0
41
1
10
44.110593756763
20
2.04180163263229
30
0
41
1
10
43.8968992027074
20
2.13843555402519
30
0
0
SPLINE
5
BB
100
AcDbEntity
8
1
62
256
6
ByLayer
370
18
48
1
60
0
100
AcDbSpline
70
4
71
3
72
14
73
10
40
0
40
0
40
0
40
0
40
0.575861724630463
40
0.575861724630463
40
0.756269467393759
40
0.756269467393759
40
0.936677210157053
40
0.936677210157053
40
1
40
1
40
1
40
1
41
1
10
10.706716262196
20
-4.16860031526068
30
0
41
1
10
9.75850649009467
20
-4.1707655336246
30
0
41
1
10
8.81042834523541
20
-4.08411176899125
30
0
41
1
10
7.5486775564637
20
-3.85470633904595
30
0
41
1
10
7.24800310353601
20
-3.7916030532019
30
0
41
1
10
6.64817420397031
20
-3.64991250399504
30
0
41
1
10
6.34873114432958
20
-3.57130190495818
30
0
41
1
10
5.9442458855234
20
-3.45519153867804
30
0
41
1
10
5.83916253988494
20
-3.42412351915274
30
0
41
1
10
5.7340672998572
20
-3.39216894465901
30
0
0
SPLINE
5
BC
100
AcDbEntity
8
1
62
256
6
ByLayer
370
13
48
1
60
0
100
AcDbSpline
70
4
71
3
72
8
73
4
40
0
40
0
40
0
40
0
40
1
40
1
40
1
40
1
41
1
10
5.73406624648959
20
-3.39216862437891
30
0
41
1
10
5.24032546017091
20
-3.24204498751564
30
0
41
1
10
4.74632214558588
20
-3.07235375081566
30
0
41
1
10
4.25034847608447
20
-2.88467419241727
30
0
0
SPLINE
5
BD
100
AcDbEntity
8
1
62
256
6
ByLayer
370
13
48
1
60
0
100
AcDbSpline
70
4
71
3
72
10
73
6
40
0
40
0
40
0
40
0
40
0.5
40
0.5
40
1
40
1
40
1
40
1
41
1
10
4.01327152753572
20
-2.95904192609888
30
0
41
1
10
4.02298676860991
20
-2.96787237624508
30
0
41
1
10
4.03759060217124
20
-2.97598594961011
30
0
41
1
10
4.07751148232896
20
-2.99062986805004
30
0
41
1
10
4.10218032139608
20
-2.9968763314603
30
0
41
1
10
4.13149381687725
20
-3.00162126490562
30
0
0
SPLINE
5
BE
100
AcDbEntity
8
1
62
256
6
ByLayer
370
18
48
1
60
0
100
AcDbSpline
70
4
71
3
72
10
73
6
40
0
40
0
40
0
40
0
40
0.5
40
0.5
40
1
40
1
40
1
40
1
41
1
10
4.12968083818774
20
-3.05962294806318
30
0
41
1
10
4.10235108504111
20
-3.04890813094343
30
0
41
1
10
4.07837888641808
20
-3.03477754505414
30
0
41
1
10
4.038517191354
20
-3.00041106956618
30
0
41
1
10
4.02319925787842
20
-2.98055607487552
30
0
41
1
10
4.01327152753567
20
-2.95904192609527
30
0
0
SPLINE
5
BF
100
AcDbEntity
8
1
62
256
6
ByLayer
370
18
48
1
60
0
100
AcDbSpline
70
4
71
3
72
18
73
14
40
0
40
0
40
0
40
0
40
0.249999999999993
40
0.249999999999993
40
0.374999999999993
40
0.374999999999993
40
0.499999999999993
40
0.499999999999993
40
0.749999999999993
40
0.749999999999993
40
0.874999999999997
40
0.874999999999997
40
1
40
1
40
1
40
1
41
1
10
62.3637246435836
20
2.15001395935317
30
0
41
1
10
62.2967962596313
20
2.32996284523222
30
0
41
1
10
62.2297701421614
20
2.50989308479853
30
0
41
1
10
62.1289379134466
20
2.77912568548368
30
0
41
1
10
62.0952799996651
20
2.86876154102438
30
0
41
1
10
62.0278188213084
20
3.04769940233513
30
0
41
1
10
61.9939925789057
20
3.13694863135558
30
0
41
1
10
61.8924444366611
20
3.40453688210786
30
0
41
1
10
61.8246481757341
20
3.58294567157395
30
0
41
1
10
61.7226556197072
20
3.84806090586261
30
0
41
1
10
61.6885736533125
20
3.93579366141839
30
0
41
1
10
61.6203683525198
20
4.11094615392031
30
0
41
1
10
61.5862422710803
20
4.19834510487081
30
0
41
1
10
61.5520382718422
20
4.28515447645913
30
0
0
SPLINE
5
C0
100
AcDbEntity
8
1
62
256
6
ByLayer
370
18
48
1
60
0
100
AcDbSpline
70
4
71
3
72
16
73
12
40
0
40
0
40
0
40
0
40
0.25
40
0.25
40
0.5
40
0.5
40
0.75
40
0.75
40
0.875
40
0.875
40
1
40
1
40
1
40
1
41
1
10
8.80215951076639
20
0.851970330662596
30
0
41
1
10
8.4109468561893
20
1.05191418565042
30
0
41
1
10
8.02355475012638
20
1.25301228875517
30
0
41
1
10
7.25454432149275
20
1.65082239935074
30
0
41
1
10
6.87264299171534
20
1.84827459632746
30
0
41
1
10
6.1131555151778
20
2.23609842006206
30
0
41
1
10
5.73553031728994
20
2.42644670909309
30
0
41
1
10
5.1729135090919
20
2.70475590903058
30
0
41
1
10
4.98563953663739
20
2.79651547171386
30
0
41
1
10
4.61470585446901
20
2.97658346247945
30
0
41
1
10
4.4315744466814
20
3.0646398529328
30
0
41
1
10
4.25145850881643
20
3.15065356959894
30
0
0
SPLINE
5
C1
100
AcDbEntity
8
1
62
256
6
ByLayer
370
18
48
1
60
0
100
AcDbSpline
70
4
71
3
72
35
73
31
40
0
40
0
40
0
40
0
40
0.0054428926173851
40
0.0054428926173851
40
0.31646430843064
40
0.31646430843064
40
0.471975016337269
40
0.471975016337269
40
0.627485724243898
40
0.627485724243898
40
0.705241078197213
40
0.705241078197213
40
0.74411875517387
40
0.753838174418035
40
0.753838174418035
40
0.7635575936622
40
0.7635575936622
40
0.773277012906365
40
0.773277012906365
40
0.78299643215053
40
0.78299643215053
40
0.86075178610385
40
0.86075178610385
40
0.89962946308051
40
0.89962946308051
40
0.93850714005717
40
0.93850714005717
40
0.97738481703383
40
0.97738481703383
40
1
40
1
40
1
40
1
41
1
10
8.61031943271377
20
-4.36820052438705
30
0
41
1
10
8.59835646572628
20
-4.36817786712621
30
0
41
1
10
8.58639000774366
20
-4.3681498567438
30
0
41
1
10
7.89042409537103
20
-4.36621406080732
30
0
41
1
10
7.19496627076592
20
-4.34731929673939
30
0
41
1
10
6.13133030169735
20
-4.31445691481869
30
0
41
1
10
5.77284650697297
20
-4.30272354943625
30
0
41
1
10
5.05336873444247
20
-4.28089407717519
30
0
41
1
10
4.69179137115259
20
-4.27078776711681
30
0
41
1
10
4.14781843418194
20
-4.25858725657696
30
0
41
1
10
3.96620076058508
20
-4.25500631804934
30
0
41
1
10
3.69342936293955
20
-4.25051926953003
30
0
41
1
10
3.57972332171397
20
-4.24883368547776
30
0
41
1
10
3.46595239551633
20
-4.24739379468463
30
0
41
1
10
3.4204388167941
20
-4.24683774483293
30
0
41
1
10
3.39772552955319
20
-4.24638498940965
30
0
41
1
10
3.35204461295558
20
-4.2464975071145
30
0
41
1
10
3.32940885039864
20
-4.24710600781856
30
0
41
1
10
3.28572180808854
20
-4.250145506405
30
0
41
1
10
3.2661249677119
20
-4.25286385598648
30
0
41
1
10
3.08624417895982
20
-4.27428538024847
30
0
41
1
10
2.93088477302058
20
-4.29292133588726
30
0
41
1
10
2.71221671846024
20
-4.31796647153664
30
0
41
1
10
2.64161070304695
20
-4.32583619247018
30
0
41
1
10
2.50614641825302
20
-4.34007465151421
30
0
41
1
10
2.44102446462458
20
-4.34647169140575
30
0
41
1
10
2.31951152173321
20
-4.35680766786211
30
0
41
1
10
2.26382382118663
20
-4.36069169691203
30
0
41
1
10
2.1857615295695
20
-4.36394365262333
30
0
41
1
10
2.15908379670316
20
-4.36450785250182
30
0
41
1
10
2.13512169703549
20
-4.36430708512867
30
0
0
SPLINE
5
C2
100
AcDbEntity
8
1
62
256
6
ByLayer
370
18
48
1
60
0
100
AcDbSpline
70
4
71
3
72
18
73
14
40
0
40
0
40
0
40
0
40
0.25
40
0.25
40
0.374999999999997
40
0.374999999999997
40
0.499999999999994
40
0.499999999999994
40
0.749999999999994
40
0.749999999999994
40
0.874999999999997
40
0.874999999999997
40
1
40
1
40
1
40
1
41
1
10
62.3637246435836
20
-2.15001395935317
30
0
41
1
10
62.2967962596313
20
-2.32996284523222
30
0
41
1
10
62.2297701421614
20
-2.50989308479853
30
0
41
1
10
62.1289379134466
20
-2.77912568548368
30
0
41
1
10
62.0952799996651
20
-2.86876154102438
30
0
41
1
10
62.0278188213084
20
-3.0476994023351
30
0
41
1
10
61.9939925789057
20
-3.13694863135558
30
0
41
1
10
61.8924444366611
20
-3.40453688210783
30
0
41
1
10
61.8246481757341
20
-3.58294567157395
30
0
41
1
10
61.7226556197071
20
-3.84806090586261
30
0
41
1
10
61.6885736533125
20
-3.93579366141842
30
0
41
1
10
61.6203683525198
20
-4.11094615392028
30
0
41
1
10
61.5862422710803
20
-4.19834510487081
30
0
41
1
10
61.5520382718421
20
-4.2851544764591
30
0
0
SPLINE
5
C3
100
AcDbEntity
8
1
62
256
6
ByLayer
370
18
48
1
60
0
100
AcDbSpline
70
4
71
3
72
58
73
54
40
0
40
0
40
0
40
0
40
0.0727613496637352
40
0.0727613496637352
40
0.109142024495603
40
0.109142024495603
40
0.14552269932747
40
0.14552269932747
40
0.181903374159338
40
0.181903374159338
40
0.218284048991206
40
0.218284048991206
40
0.254664723823073
40
0.254664723823073
40
0.291045398654941
40
0.291045398654941
40
0.363806748318675
40
0.363806748318675
40
0.400187423150543
40
0.400187423150543
40
0.43656809798241
40
0.43656809798241
40
0.472948772814277
40
0.472948772814277
40
0.509329447646144
40
0.509329447646144
40
0.545710122478011
40
0.545710122478011
40
0.582090797309879
40
0.582090797309879
40
0.618471472141746
40
0.618471472141746
40
0.654852146973613
40
0.654852146973613
40
0.69123282180548
40
0.69123282180548
40
0.727613496637347
40
0.727613496637347
40
0.763994171469215
40
0.763994171469215
40
0.800374846301082
40
0.800374846301082
40
0.836755521132949
40
0.836755521132949
40
0.873136195964816
40
0.873136195964816
40
0.909516870796684
40
0.909516870796684
40
0.945897545628551
40
0.945897545628551
40
0.982278220460418
40
0.982278220460418
40
1
40
1
40
1
40
1
41
1
10
14.5072489131928
20
3.60274823414622
30
0
41
1
10
14.9977232772323
20
3.44898825989554
30
0
41
1
10
15.4888438870596
20
3.27782779505799
30
0
41
1
10
16.2234627634302
20
2.99222888331963
30
0
41
1
10
16.4677254477212
20
2.89174188527656
30
0
41
1
10
16.9581200830237
20
2.68435961279999
30
0
41
1
10
17.204221558496
20
2.57695880925638
30
0
41
1
10
17.6956844505182
20
2.35496501233968
30
0
41
1
10
17.9408286801004
20
2.24034257831587
30
0
41
1
10
18.4299775935848
20
2.00379921509284
30
0
41
1
10
18.6747768826149
20
1.8831493740073
30
0
41
1
10
19.1650358506564
20
1.63757727248509
30
0
41
1
10
19.4103682709957
20
1.5124493738472
30
0
41
1
10
19.9010291614924
20
1.25672980339604
30
0
41
1
10
20.1462438498876
20
1.12540837337715
30
0
41
1
10
20.8820562053142
20
0.731389209659284
30
0
41
1
10
21.372636729192
20
0.46617838027484
30
0
41
1
10
22.1063300341154
20
0.0604726571523599
30
0
41
1
10
22.3513447066387
20
-0.0745999311808987
30
0
41
1
10
22.8427612860064
20
-0.343502085383307
30
0
41
1
10
23.0887708162361
20
-0.477523952183731
30
0
41
1
10
23.5790826182196
20
-0.744428857720919
30
0
41
1
10
23.8232954721137
20
-0.878091081812698
30
0
41
1
10
24.3128297185688
20
-1.14044634032751
30
0
41
1
10
24.5579766597804
20
-1.2694733599821
30
0
41
1
10
25.0484914554585
20
-1.52420231978877
30
0
41
1
10
25.2939092188092
20
-1.64994277282011
30
0
41
1
10
25.7844515848788
20
-1.89836434009558
30
0
41
1
10
26.0294786275621
20
-2.01944019097834
30
0
41
1
10
26.5198489842454
20
-2.25421389500284
30
0
41
1
10
26.7649788406828
20
-2.36827137918715
30
0
41
1
10
27.2547124931378
20
-2.59034222636174
30
0
41
1
10
27.4989442220219
20
-2.69886482134453
30
0
41
1
10
27.9889946022827
20
-2.90664467537263
30
0
41
1
10
28.2350308879302
20
-3.0061791988345
30
0
41
1
10
28.7263099594313
20
-3.19649189758806
30
0
41
1
10
28.9714933120663
20
-3.28723179764577
30
0
41
1
10
29.460548631206
20
-3.46019291029165
30
0
41
1
10
29.7050432499371
20
-3.54165376308504
30
0
41
1
10
30.1950829193015
20
-3.69352906749739
30
0
41
1
10
30.4403685268488
20
-3.76424545125994
30
0
41
1
10
30.9310588880476
20
-3.89552992918019
30
0
41
1
10
31.1762645953846
20
-3.95638160071218
30
0
41
1
10
31.6663595339114
20
-4.06557183732733
30
0
41
1
10
31.9115534011954
20
-4.11405203426889
30
0
41
1
10
32.4016309170211
20
-4.19942352828383
30
0
41
1
10
32.6465457573576
20
-4.23629274540298
30
0
41
1
10
33.135669208659
20
-4.29833933980086
30
0
41
1
10
33.3803930155518
20
-4.3232497512503
30
0
41
1
10
33.8716307055555
20
-4.36050564768129
30
0
41
1
10
34.1175109458032
20
-4.3729419811786
30
0
41
1
10
34.4820322718782
20
-4.382234741188
30
0
41
1
10
34.6012256101355
20
-4.38380329882449
30
0
41
1
10
34.7203488745756
20
-4.38389063016973
30
0
0
SPLINE
5
C4
100
AcDbEntity
8
1
62
256
6
ByLayer
370
18
48
1
60
0
100
AcDbSpline
70
4
71
3
72
26
73
22
40
0
40
0
40
0
40
0
40
0.0715822061021201
40
0.0715822061021201
40
0.164423985491908
40
0.164423985491908
40
0.257265764881696
40
0.257265764881696
40
0.350107544271484
40
0.350107544271484
40
0.442949323661272
40
0.442949323661272
40
0.628632882440849
40
0.628632882440849
40
0.721474661830636
40
0.721474661830636
40
0.814316441220424
40
0.814316441220424
40
0.907158220610212
40
0.907158220610212
40
1
40
1
40
1
40
1
41
1
10
53.637623034531
20
3.17012053632752
30
0
41
1
10
53.8262726864879
20
3.2425583569518
30
0
41
1
10
54.0150359624828
20
3.31193598026647
30
0
41
1
10
54.4486701900871
20
3.46468004717244
30
0
41
1
10
54.6935328707553
20
3.54610693850108
30
0
41
1
10
55.1828598946835
20
3.69963823418999
30
0
41
1
10
55.4271353291923
20
3.77186112144278
30
0
41
1
10
55.9179613863432
20
3.9042460599492
30
0
41
1
10
56.1634635657349
20
3.96466049986162
30
0
41
1
10
56.6534641744477
20
4.07426435772072
30
0
41
1
10
56.8979581616427
20
4.12355479377931
30
0
41
1
10
57.6305274367208
20
4.25410983467177
30
0
41
1
10
58.1215890961257
20
4.31650604043844
30
0
41
1
10
58.8572908817589
20
4.37397130062465
30
0
41
1
10
59.1015764780097
20
4.38697876575108
30
0
41
1
10
59.5913826597078
20
4.40025097739303
30
0
41
1
10
59.836552077925
20
4.40064673021931
30
0
41
1
10
60.3269535641873
20
4.38904098974629
30
0
41
1
10
60.5723225114315
20
4.37699705293187
30
0
41
1
10
61.0620122602307
20
4.3401809798772
30
0
41
1
10
61.3069580047843
20
4.31563931967111
30
0
41
1
10
61.5520382718184
20
4.28515447648746
30
0
0
SPLINE
5
C5
100
AcDbEntity
8
1
62
256
6
ByLayer
370
18
48
1
60
0
100
AcDbSpline
70
4
71
3
72
14
73
10
40
0
40
0
40
0
40
0
40
0.536237134676556
40
0.536237134676556
40
0.710907325858729
40
0.710907325858729
40
0.885577517040903
40
0.885577517040903
40
1
40
1
40
1
40
1
41
1
10
35.6692971915018
20
-4.18366820435946
30
0
41
1
10
34.7605817547662
20
-4.1835643390296
30
0
41
1
10
33.8503148267685
20
-4.10160151455298
30
0
41
1
10
32.6263539923099
20
-3.8841723192013
30
0
41
1
10
32.3255631515963
20
-3.82227205124275
30
0
41
1
10
31.7247155894616
20
-3.68265299037768
30
0
41
1
10
31.424416544905
20
-3.6048720390649
30
0
41
1
10
30.9269052333329
20
-3.46350055625581
30
0
41
1
10
30.7296869378263
20
-3.40421085782623
30
0
41
1
10
30.5328048974363
20
-3.34197686427058
30
0
0
SPLINE
5
C6
100
AcDbEntity
8
1
62
256
6
ByLayer
370
13
48
1
60
0
100
AcDbSpline
70
4
71
3
72
26
73
22
40
0
40
0
40
0
40
0
40
0.0265796958623359
40
0.0265796958623359
40
0.103639565717452
40
0.103639565717452
40
0.411879045137917
40
0.411879045137917
40
0.488938914993033
40
0.488938914993033
40
0.565998784848149
40
0.565998784848149
40
0.720118524558382
40
0.720118524558382
40
0.874238264268615
40
0.874238264268615
40
0.951298134123731
40
0.951298134123731
40
0.989828069051289
40
0.989828069051289
40
1
40
1
40
1
40
1
41
1
10
30.5328048976439
20
-3.3419768643362
30
0
41
1
10
30.4291391544703
20
-3.30920834375607
30
0
41
1
10
30.3255666351885
20
-3.27562354221337
30
0
41
1
10
29.9224445388772
20
-3.14170924348119
30
0
41
1
10
29.6237928302818
20
-3.03559682107672
30
0
41
1
10
28.1337818503813
20
-2.4755466078947
30
0
41
1
10
26.9519605257504
20
-1.93342495810092
30
0
41
1
10
25.4562849524411
20
-1.18890891364927
30
0
41
1
10
25.1555563771116
20
-1.03641217774015
30
0
41
1
10
24.5542523633798
20
-0.727962175197518
30
0
41
1
10
24.2548508631562
20
-0.572444082357862
30
0
41
1
10
23.3591219021667
20
-0.104484093599098
30
0
41
1
10
22.7651348374285
20
0.209093854174398
30
0
41
1
10
21.5772748406988
20
0.827392874522786
30
0
41
1
10
20.9834559065676
20
1.13223813344038
30
0
41
1
10
20.08792011203
20
1.57343905510948
30
0
41
1
10
19.7886353715341
20
1.71788575069851
30
0
41
1
10
19.3379460755047
20
1.92947670494132
30
0
41
1
10
19.1872560547952
20
1.99920810609498
30
0
41
1
10
18.9973668142467
20
2.08566196785736
30
0
41
1
10
18.9577267577283
20
2.10363152899515
30
0
41
1
10
18.9181061939371
20
2.12151248449928
30
0
0
SPLINE
5
C7
100
AcDbEntity
8
1
62
256
6
ByLayer
370
13
48
1
60
0
100
AcDbSpline
70
4
71
3
72
12
73
8
40
0
40
0
40
0
40
0
40
0.5
40
0.5
40
0.75
40
0.75
40
1
40
1
40
1
40
1
41
1
10
4.00492583453266
20
-2.92213940310256
30
0
41
1
10
4.01188623116084
20
-2.91368615807951
30
0
41
1
10
4.02614582914671
20
-2.90533072292894
30
0
41
1
10
4.05801526675447
20
-2.89397009909061
30
0
41
1
10
4.07062765711845
20
-2.89031953190681
30
0
41
1
10
4.09869985198131
20
-2.88380305186428
30
0
41
1
10
4.11423480512164
20
-2.88089127531799
30
0
41
1
10
4.13149381687725
20
-2.87840328821974
30
0
0
SPLINE
5
C8
100
AcDbEntity
8
1
62
256
6
ByLayer
370
18
48
1
60
0
100
AcDbSpline
70
4
71
3
72
22
73
18
40
0
40
0
40
0
40
0
40
0.25
40
0.25
40
0.499999999999999
40
0.499999999999999
40
0.624999999999999
40
0.624999999999999
40
0.749999999999999
40
0.749999999999999
40
0.812499999999999
40
0.812499999999999
40
0.874999999999999
40
0.874999999999999
40
0.9375
40
0.9375
40
1
40
1
40
1
40
1
41
1
10
61.2303433369365
20
1.32295284048175
30
0
41
1
10
61.3547259267913
20
1.35139650092947
30
0
41
1
10
61.4779775022051
20
1.38359471937383
30
0
41
1
10
61.7206201662043
20
1.46120443322448
30
0
41
1
10
61.840487911318
20
1.50643226623717
30
0
41
1
10
62.0103343684806
20
1.59349919031178
30
0
41
1
10
62.0655229318965
20
1.62600867677398
30
0
41
1
10
62.1677633481282
20
1.69999606624708
30
0
41
1
10
62.2152206083306
20
1.74145752937969
30
0
41
1
10
62.2766970653691
20
1.81570094208035
30
0
41
1
10
62.2950898668571
20
1.84204836538413
30
0
41
1
10
62.3262648419806
20
1.89781921237062
30
0
41
1
10
62.3392399368243
20
1.92776306960675
30
0
41
1
10
62.3580212363895
20
1.98932509776378
30
0
41
1
10
62.3639070945002
20
2.02080794134869
30
0
41
1
10
62.3688656540623
20
2.08515553338475
30
0
41
1
10
62.3678305522153
20
2.11800095045012
30
0
41
1
10
62.363724643584
20
2.15001395935351
30
0
0
SPLINE
5
C9
100
AcDbEntity
8
1
62
256
6
ByLayer
370
13
48
1
60
0
100
AcDbSpline
70
4
71
3
72
8
73
4
40
0
40
0
40
0
40
0
40
1
40
1
40
1
40
1
41
1
10
4.13149381687725
20
-3.00162126490562
30
0
41
1
10
4.15389202361644
20
-3.00179758205218
30
0
41
1
10
4.17818550340323
20
-3.00682586179965
30
0
41
1
10
4.20296987530503
20
-3.01623345896772
30
0
0
SPLINE
5
CA
100
AcDbEntity
8
1
62
256
6
ByLayer
370
18
48
1
60
0
100
AcDbSpline
70
4
71
3
72
80
73
76
40
0
40
0
40
0
40
0
40
0.0364088905615982
40
0.0364088905615982
40
0.0752538550108937
40
0.0752538550108937
40
0.114098819460189
40
0.114098819460189
40
0.19178874835878
40
0.19178874835878
40
0.269478677257371
40
0.269478677257371
40
0.308323641706666
40
0.308323641706666
40
0.347168606155962
40
0.347168606155962
40
0.424858535054553
40
0.424858535054553
40
0.463703499503848
40
0.463703499503848
40
0.483125981728496
40
0.483125981728496
40
0.492837222840819
40
0.492837222840819
40
0.49405112797986
40
0.49465808054938
40
0.49465808054938
40
0.49496155683414
40
0.49496155683414
40
0.4952650331189
40
0.4952650331189
40
0.496478938257941
40
0.496478938257941
40
0.497692843396981
40
0.497692843396981
40
0.502548463953142
40
0.502548463953142
40
0.521970946177788
40
0.521970946177788
40
0.541393428402434
40
0.541393428402434
40
0.580238392851724
40
0.580238392851724
40
0.657928321750307
40
0.657928321750307
40
0.735618250648889
40
0.735618250648889
40
0.755040732873535
40
0.755040732873535
40
0.764751973985857
40
0.764751973985857
40
0.77446321509818
40
0.77446321509818
40
0.776891025376261
40
0.776891025376261
40
0.778104930515301
40
0.778104930515301
40
0.778711883084821
40
0.778711883084821
40
0.779015359369581
40
0.779015359369581
40
0.779318835654341
40
0.779318835654341
40
0.784174456210503
40
0.793885697322826
40
0.793885697322826
40
0.813308179547471
40
0.813308179547471
40
0.890998108446053
40
0.890998108446053
40
0.929843072895344
40
0.929843072895344
40
0.968688037344635
40
0.968688037344635
40
1
40
1
40
1
40
1
41
1
10
14.507260205074
20
3.6027482058947
30
0
41
1
10
14.3705372850926
20
3.60309038304589
30
0
41
1
10
14.23379981767
20
3.59958336970607
30
0
41
1
10
13.9509431306267
20
3.58339359568385
30
0
41
1
10
13.8047951030869
20
3.57010814666066
30
0
41
1
10
13.5117809533958
20
3.53257022455512
30
0
41
1
10
13.3644271951765
20
3.50820869424626
30
0
41
1
10
12.9239734474264
20
3.41798389242118
30
0
41
1
10
12.6346737167452
20
3.33539512001235
30
0
41
1
10
12.0596544794268
20
3.12819259497363
30
0
41
1
10
11.7738980223366
20
3.00363723550191
30
0
41
1
10
11.3427526950886
20
2.79102420212206
30
0
41
1
10
11.1979895196358
20
2.71554176629857
30
0
41
1
10
10.9103353780956
20
2.55930314127599
30
0
41
1
10
10.7674586318427
20
2.47860331401398
30
0
41
1
10
10.3402107212381
20
2.2312079802692
30
0
41
1
10
10.0571905877404
20
2.05926949136312
30
0
41
1
10
9.63020067941287
20
1.79951228217189
30
0
41
1
10
9.4874696266931
20
1.71260361927412
30
0
41
1
10
9.27217502993045
20
1.58275119012927
30
0
41
1
10
9.2001965666027
20
1.53954418279855
30
0
41
1
10
9.09232264262906
20
1.47525943980824
30
0
41
1
10
9.05636106220976
20
1.45390710966709
30
0
41
1
10
9.01589364343971
20
1.42998175285902
30
0
41
1
10
9.00914897570863
20
1.42599626652728
30
0
41
1
10
9.00240422541111
20
1.42201398368047
30
0
41
1
10
8.99903183041187
20
1.42002337720217
30
0
41
1
10
8.99723154922143
20
1.41953209220009
30
0
41
1
10
8.99741578838285
20
1.41717048767896
30
0
41
1
10
8.99837463582753
20
1.4162776999523
30
0
41
1
10
9.00246618984926
20
1.41197328537902
30
0
41
1
10
9.00646537923336
20
1.40924700327176
30
0
41
1
10
9.01435883582738
20
1.4037319331608
30
0
41
1
10
9.01839495675986
20
1.40108776920354
30
0
41
1
10
9.03874980416833
20
1.38808882749274
30
0
41
1
10
9.05554501057546
20
1.37833603976381
30
0
41
1
10
9.13979970363204
20
1.3301084615523
30
0
41
1
10
9.20866424502557
20
1.29367350150588
30
0
41
1
10
9.34649621607574
20
1.22117739098769
30
0
41
1
10
9.41568989116178
20
1.18543265146263
30
0
41
1
10
9.62363757399774
20
1.0789991246219
30
0
41
1
10
9.76277127638019
20
1.00912851745679
30
0
41
1
10
10.1807800360373
20
0.801427799787803
30
0
41
1
10
10.4599912914624
20
0.665335168231223
30
0
41
1
10
11.0183542087905
20
0.396777309820294
30
0
41
1
10
11.2974908535298
20
0.26395607195937
30
0
41
1
10
11.6441629275841
20
0.0983819572966524
30
0
41
1
10
11.7133810357518
20
0.0652917256828687
30
0
41
1
10
11.8167767276761
20
0.0155513921722275
30
0
41
1
10
11.8511712439109
20
-0.0010455549484902
30
0
41
1
10
11.9196475702696
20
-0.0343676903985397
30
0
41
1
10
11.953821000884
20
-0.0510472991805955
30
0
41
1
10
11.9956384459371
20
-0.0723012710195121
30
0
41
1
10
12.0039540124586
20
-0.0765726587285656
30
0
41
1
10
12.0161710534607
20
-0.0830748900914386
30
0
41
1
10
12.0202064630014
20
-0.0852562849240428
30
0
41
1
10
12.0260672413658
20
-0.0886025641885055
30
0
41
1
10
12.0279943276229
20
-0.089728198711839
30
0
41
1
10
12.0307265452433
20
-0.0914780691364854
30
0
41
1
10
12.0316181569156
20
-0.0920698101665494
30
0
41
1
10
12.0331490688584
20
-0.0932950082260504
30
0
41
1
10
12.0336544091903
20
-0.0940370000795951
30
0
41
1
10
12.0164021039839
20
-0.0962772443750737
30
0
41
1
10
11.9676906879112
20
-0.102255577565956
30
0
41
1
10
11.9189794669972
20
-0.107187680145671
30
0
41
1
10
11.8215727878408
20
-0.115643985680521
30
0
41
1
10
11.7566012830174
20
-0.119407728483537
30
0
41
1
10
11.4317466328692
20
-0.128721219810984
30
0
41
1
10
11.1739216982468
20
-0.105808146373732
30
0
41
1
10
10.7801214729602
20
-0.0259054671032573
30
0
41
1
10
10.6473095445554
20
0.0084993557383655
30
0
41
1
10
10.38207665936
20
0.0907685173237383
30
0
41
1
10
10.2491100220764
20
0.138707813321076
30
0
41
1
10
10.0067083805592
20
0.236365710735868
30
0
41
1
10
9.89770739353941
20
0.283937044646109
30
0
41
1
10
9.78745304281642
20
0.335098303650966
30
0
0
SPLINE
5
CB
100
AcDbEntity
8
1
62
256
6
ByLayer
370
13
48
1
60
0
100
AcDbSpline
70
4
71
3
72
8
73
4
40
0
40
0
40
0
40
0
40
1
40
1
40
1
40
1
41
1
10
4.13149381687725
20
-2.87840328821974
30
0
41
1
10
4.1684116450017
20
-2.87308136820602
30
0
41
1
10
4.20889527764146
20
-2.87524494811737
30
0
41
1
10
4.25034847608427
20
-2.88467419241715
30
0
0
SPLINE
5
CC
100
AcDbEntity
8
1
62
256
6
ByLayer
370
18
48
1
60
0
100
AcDbSpline
70
4
71
3
72
61
73
57
40
0
40
0
40
0
40
0
40
0.0624999999999987
40
0.0624999999999987
40
0.124999999999997
40
0.124999999999997
40
0.249999999999995
40
0.249999999999995
40
0.374999999999992
40
0.374999999999992
40
0.499999999999989
40
0.499999999999989
40
0.562499999999987
40
0.562499999999987
40
0.624999999999985
40
0.624999999999985
40
0.656249999999984
40
0.656249999999984
40
0.671874999999984
40
0.675781249999984
40
0.675781249999984
40
0.679687499999983
40
0.679687499999983
40
0.683593749999983
40
0.683593749999983
40
0.687499999999982
40
0.687499999999982
40
0.718749999999983
40
0.718749999999983
40
0.734374999999984
40
0.734374999999984
40
0.749999999999985
40
0.749999999999985
40
0.765624999999986
40
0.765624999999986
40
0.781249999999987
40
0.781249999999987
40
0.796874999999988
40
0.796874999999988
40
0.812499999999988
40
0.812499999999988
40
0.828124999999989
40
0.828124999999989
40
0.84374999999999
40
0.84374999999999
40
0.859374999999991
40
0.859374999999991
40
0.874999999999992
40
0.874999999999992
40
0.890624999999993
40
0.890624999999993
40
0.906249999999994
40
0.906249999999994
40
0.937499999999996
40
0.937499999999996
40
1
40
1
40
1
40
1
41
1
10
14.5072601308636
20
3.60272558036442
30
0
41
1
10
14.1886155331336
20
3.70213184406197
30
0
41
1
10
13.868149296523
20
3.79038856536292
30
0
41
1
10
13.2228227197182
20
3.94630877346054
30
0
41
1
10
12.8973854828864
20
4.01404404652942
30
0
41
1
10
11.9171727915182
20
4.18763433488951
30
0
41
1
10
11.2602881229942
20
4.26348939271202
30
0
41
1
10
9.93094988229637
20
4.35466939444666
30
0
41
1
10
9.25841598360299
20
4.37001906489053
30
0
41
1
10
7.89042409537205
20
4.36621406080735
30
0
41
1
10
7.19496627076705
20
4.34731929673939
30
0
41
1
10
6.13133030169865
20
4.31445691481872
30
0
41
1
10
5.77284650697433
20
4.30272354943631
30
0
41
1
10
5.05336873444395
20
4.28089407717525
30
0
41
1
10
4.69179137115412
20
4.27078776711687
30
0
41
1
10
4.14781843418356
20
4.25858725657699
30
0
41
1
10
3.96620076058673
20
4.25500631804937
30
0
41
1
10
3.69342936294126
20
4.25051926953006
30
0
41
1
10
3.57972332171573
20
4.24883368547779
30
0
41
1
10
3.46595239551803
20
4.24739379468465
30
0
41
1
10
3.42043881679584
20
4.24683774483296
30
0
41
1
10
3.39772552955492
20
4.24638498940968
30
0
41
1
10
3.35204461295731
20
4.24649750711447
30
0
41
1
10
3.32940885040034
20
4.2471060078185
30
0
41
1
10
3.28572180809019
20
4.25014550640486
30
0
41
1
10
3.26612496771344
20
4.2528638559863
30
0
41
1
10
3.08624417896132
20
4.2742853802483
30
0
41
1
10
2.93088477302206
20
4.29292133588712
30
0
41
1
10
2.71221671846161
20
4.31796647153649
30
0
41
1
10
2.64161070304823
20
4.32583619247004
30
0
41
1
10
2.50614641825422
20
4.3400746515141
30
0
41
1
10
2.44102446462563
20
4.34647169140567
30
0
41
1
10
2.31951152173423
20
4.35680766786206
30
0
41
1
10
2.26382382118763
20
4.36069169691197
30
0
41
1
10
2.16511705879688
20
4.36480366971025
30
0
41
1
10
2.12176640044316
20
4.36499259293714
30
0
41
1
10
2.05402518950066
20
4.36028290825405
30
0
41
1
10
2.02931937934523
20
4.35543958004862
30
0
41
1
10
2.00038459870126
20
4.33963036561545
30
0
41
1
10
1.99671202322321
20
4.32884760014784
30
0
41
1
10
2.00911955715131
20
4.30193640255709
30
0
41
1
10
2.02546613675236
20
4.28554545064847
30
0
41
1
10
2.07355623414904
20
4.2489733964714
30
0
41
1
10
2.1051644241532
20
4.22874214960584
30
0
41
1
10
2.18014187415659
20
4.18492627575392
30
0
41
1
10
2.22376770455597
20
4.16122756800348
30
0
41
1
10
2.3180700702049
20
4.1121038896319
30
0
41
1
10
2.36896799012845
20
4.08654504696742
30
0
41
1
10
2.47648865176228
20
4.033698597571
30
0
41
1
10
2.53312370093545
20
4.00640930890688
30
0
41
1
10
2.65099343803962
20
3.95027268959242
30
0
41
1
10
2.71243075229626
20
3.92133269458358
30
0
41
1
10
2.90087959013613
20
3.83309453489932
30
0
41
1
10
3.03164511252584
20
3.77252370194535
30
0
41
1
10
3.43413699613589
20
3.58609276562416
30
0
41
1
10
3.71584750140451
20
3.45553746664993
30
0
41
1
10
4.00517351596224
20
3.3193035188593
30
0
0
SPLINE
5
CD
100
AcDbEntity
8
1
62
256
6
ByLayer
370
18
48
1
60
0
100
AcDbSpline
70
4
71
3
72
22
73
18
40
0
40
0
40
0
40
0
40
0.124999999999998
40
0.124999999999998
40
0.187499999999999
40
0.187499999999999
40
0.249999999999999
40
0.249999999999999
40
0.499999999999999
40
0.499999999999999
40
0.624999999999999
40
0.624999999999999
40
0.75
40
0.75
40
0.875
40
0.875
40
1
40
1
40
1
40
1
41
1
10
61.471708072793
20
-4.19894756034543
30
0
41
1
10
61.4078153272432
20
-4.19889805509987
30
0
41
1
10
61.3471376410159
20
-4.18914238343612
30
0
41
1
10
61.2612014540172
20
-4.15917147675381
30
0
41
1
10
61.2334050689154
20
-4.14661803742621
30
0
41
1
10
61.1795851659661
20
-4.11615892639068
30
0
41
1
10
61.1535316079668
20
-4.0982008529223
30
0
41
1
10
61.029735354633
20
-3.99602313191551
30
0
41
1
10
60.9495246698392
20
-3.87452032553216
30
0
41
1
10
60.859328011068
20
-3.62865489580642
30
0
41
1
10
60.8342705459503
20
-3.53513142406439
30
0
41
1
10
60.7964163951393
20
-3.33157596418172
30
0
41
1
10
60.7833554761182
20
-3.22116537994634
30
0
41
1
10
60.7689264958179
20
-2.9831365663735
30
0
41
1
10
60.7675564780807
20
-2.85552121623303
30
0
41
1
10
60.7770434471242
20
-2.58229680055408
30
0
41
1
10
60.7878412067964
20
-2.43919190976885
30
0
41
1
10
60.8043928631366
20
-2.2908353564068
30
0
0
SPLINE
5
CE
100
AcDbEntity
8
1
62
256
6
ByLayer
370
18
48
1
60
0
100
AcDbSpline
70
4
71
3
72
58
73
54
40
0
40
0
40
0
40
0
40
0.0387627798162778
40
0.0387627798162778
40
0.0775255596325556
40
0.0775255596325556
40
0.116288339448833
40
0.116288339448833
40
0.155051119265111
40
0.155051119265111
40
0.193813899081389
40
0.193813899081389
40
0.232576678897667
40
0.232576678897667
40
0.271339458713945
40
0.271339458713945
40
0.310102238530223
40
0.310102238530223
40
0.3488650183465
40
0.3488650183465
40
0.387627798162778
40
0.387627798162778
40
0.426390577979056
40
0.426390577979056
40
0.465153357795334
40
0.465153357795334
40
0.503916137611612
40
0.503916137611612
40
0.542678917427889
40
0.542678917427889
40
0.581441697244167
40
0.581441697244167
40
0.620204477060445
40
0.620204477060445
40
0.658967256876723
40
0.658967256876723
40
0.697730036693
40
0.697730036693
40
0.736492816509278
40
0.736492816509278
40
0.775255596325556
40
0.775255596325556
40
0.814018376141834
40
0.814018376141834
40
0.852781155958112
40
0.852781155958112
40
0.89154393577439
40
0.89154393577439
40
0.930306715590667
40
0.930306715590667
40
0.969069495406945
40
0.969069495406945
40
1
40
1
40
1
40
1
41
1
10
8.80212474190043
20
0.851912182517168
30
0
41
1
10
9.05895127077008
20
0.719918445809782
30
0
41
1
10
9.315554322927
20
0.587330393607346
30
0
41
1
10
9.82820495866224
20
0.320731053050281
30
0
41
1
10
10.0842535521697
20
0.186717553441753
30
0
41
1
10
10.5961824256366
20
-0.0819656045659372
30
0
41
1
10
10.8520018128309
20
-0.216746996878584
30
0
41
1
10
11.3648392391746
20
-0.484348140238296
30
0
41
1
10
11.6219747548078
20
-0.617713725003284
30
0
41
1
10
12.1354325774942
20
-0.882225701010412
30
0
41
1
10
12.3914923422915
20
-1.01362103358355
30
0
41
1
10
12.9035307630649
20
-1.27248913778735
30
0
41
1
10
13.1596738630115
20
-1.39960216389514
30
0
41
1
10
13.6720607402478
20
-1.64919901723013
30
0
41
1
10
13.9283282699797
20
-1.77170199514148
30
0
41
1
10
14.441032908398
20
-2.01251888608462
30
0
41
1
10
14.697979680591
20
-2.13012082726038
30
0
41
1
10
15.2110323292713
20
-2.35644288406076
30
0
41
1
10
15.467291465611
20
-2.46578193758242
30
0
41
1
10
15.9793073894417
20
-2.67755992027475
30
0
41
1
10
16.2348885023905
20
-2.78043175063712
30
0
41
1
10
16.7471064860073
20
-2.97512089564253
30
0
41
1
10
17.0036150162954
20
-3.0674869800055
30
0
41
1
10
17.5172626680747
20
-3.24356507273154
30
0
41
1
10
17.7739289221254
20
-3.32756072483917
30
0
41
1
10
18.2860255189956
20
-3.48438874264849
30
0
41
1
10
18.5420725122345
20
-3.55612739932653
30
0
41
1
10
19.054293789482
20
-3.68895752638221
30
0
41
1
10
19.3104247191099
20
-3.75005151647395
30
0
41
1
10
19.8226525954373
20
-3.86229367160118
30
0
41
1
10
20.0791024156685
20
-3.91208947187536
30
0
41
1
10
20.5927007368302
20
-3.99787307952167
30
0
41
1
10
20.849210797373
20
-4.03451174707621
30
0
41
1
10
21.3616215654641
20
-4.09673450678181
30
0
41
1
10
21.6173396428457
20
-4.12244073701331
30
0
41
1
10
22.1292439676885
20
-4.15786005498867
30
0
41
1
10
22.3856025486083
20
-4.16881204655434
30
0
41
1
10
22.8988029171591
20
-4.17903513252466
30
0
41
1
10
23.1558772467746
20
-4.17866172846311
30
0
41
1
10
23.6683565264225
20
-4.16342765957035
30
0
41
1
10
23.9242878348882
20
-4.14812783091017
30
0
41
1
10
24.4364608010707
20
-4.10588105804948
30
0
41
1
10
24.6925373614758
20
-4.07885113102401
30
0
41
1
10
25.2045681720018
20
-4.01337037940667
30
0
41
1
10
25.460456402494
20
-3.97340410512555
30
0
41
1
10
25.9738609539972
20
-3.8804517873308
30
0
41
1
10
26.2307388718132
20
-3.82801298528443
30
0
41
1
10
26.7434258784936
20
-3.71286588830299
30
0
41
1
10
26.9993466781532
20
-3.64995786336433
30
0
41
1
10
27.5109932218153
20
-3.51044103328979
30
0
41
1
10
27.7671230295603
20
-3.43504448253009
30
0
41
1
10
28.2281204630222
20
-3.29123229273605
30
0
41
1
10
28.4330318392782
20
-3.22447990669565
30
0
41
1
10
28.6378024281324
20
-3.154125846981
30
0
0
SPLINE
5
CF
100
AcDbEntity
8
1
62
256
6
ByLayer
370
18
48
1
60
0
100
AcDbSpline
70
4
71
3
72
30
73
26
40
0
40
0
40
0
40
0
40
0.0702709624071839
40
0.0702709624071839
40
0.147748382206585
40
0.147748382206585
40
0.225225802005987
40
0.225225802005987
40
0.302703221805388
40
0.302703221805388
40
0.380180641604789
40
0.380180641604789
40
0.457658061404191
40
0.457658061404191
40
0.535135481203592
40
0.535135481203592
40
0.612612901002994
40
0.612612901002994
40
0.690090320802395
40
0.690090320802395
40
0.845045160401198
40
0.845045160401198
40
0.922522580200599
40
0.922522580200599
40
1
40
1
40
1
40
1
41
1
10
48.0755080939612
20
4.18976515511574
30
0
41
1
10
48.308216724276
20
4.18762360485866
30
0
41
1
10
48.5410613150822
20
4.17970347967034
30
0
41
1
10
49.0295431644803
20
4.15290994076616
30
0
41
1
10
49.2851862643346
20
4.13348504255708
30
0
41
1
10
49.7964886591363
20
4.08111245052649
30
0
41
1
10
50.0524395261484
20
4.04789427369047
30
0
41
1
10
50.5648119972113
20
3.96854422413668
30
0
41
1
10
50.8214957950793
20
3.92230348757516
30
0
41
1
10
51.3343320905512
20
3.81741897743075
30
0
41
1
10
51.5903350918243
20
3.7590050995656
30
0
41
1
10
52.1025377379717
20
3.6317927346609
30
0
41
1
10
52.3585566993315
20
3.56294022389463
30
0
41
1
10
52.8703762584324
20
3.41460764422791
30
0
41
1
10
53.1260151012843
20
3.33472378527054
30
0
41
1
10
53.6386351919053
20
3.16422365352301
30
0
41
1
10
53.8957229373998
20
3.0736480773441
30
0
41
1
10
54.4085157262279
20
2.88364105159724
30
0
41
1
10
54.6644738857364
20
2.78403779829353
30
0
41
1
10
55.4316342774607
20
2.47189424015372
30
0
41
1
10
55.9438625435965
20
2.24884778957699
30
0
41
1
10
56.7135746904945
20
1.89295132775126
30
0
41
1
10
56.9696745454559
20
1.77076503879053
30
0
41
1
10
57.4818394076781
20
1.52279808559482
30
0
41
1
10
57.7378200738466
20
1.39669373422694
30
0
41
1
10
57.9936800302851
20
1.26838077317768
30
0
0
SPLINE
5
D0
100
AcDbEntity
8
1
62
256
6
ByLayer
370
18
48
1
60
0
100
AcDbSpline
70
4
71
3
72
22
73
18
40
0
40
0
40
0
40
0
40
0.124999999999998
40
0.124999999999998
40
0.187499999999998
40
0.187499999999998
40
0.249999999999999
40
0.249999999999999
40
0.375
40
0.375
40
0.500000000000001
40
0.500000000000001
40
0.625000000000003
40
0.625000000000003
40
0.750000000000004
40
0.750000000000004
40
1
40
1
40
1
40
1
41
1
10
57.9936800302849
20
1.26838077317723
30
0
41
1
10
58.0509976798114
20
1.08888244440243
30
0
41
1
10
58.1212489206882
20
0.911604114963865
30
0
41
1
10
58.2432066911171
20
0.648532667678637
30
0
41
1
10
58.2866431791779
20
0.561320030216706
30
0
41
1
10
58.3787690841735
20
0.387796399569595
30
0
41
1
10
58.4276378546844
20
0.30121577813415
30
0
41
1
10
58.5791905394977
20
0.0468972689039333
30
0
41
1
10
58.687357896397
20
-0.116697800525145
30
0
41
1
10
58.9153354425042
20
-0.43417402920781
30
0
41
1
10
59.0351753995485
20
-0.588030352400892
30
0
41
1
10
59.2850332916438
20
-0.887251253694245
30
0
41
1
10
59.415483988087
20
-1.03298101201622
30
0
41
1
10
59.6805954976021
20
-1.31169096600127
30
0
41
1
10
59.8158016628743
20
-1.44536889411478
30
0
41
1
10
60.2283369478785
20
-1.83158725643361
30
0
41
1
10
60.5124940800038
20
-2.06950242414172
30
0
41
1
10
60.8043928631366
20
-2.2908353564068
30
0
0
SPLINE
5
D1
100
AcDbEntity
8
1
62
256
6
ByLayer
370
18
48
1
60
0
100
AcDbSpline
70
4
71
3
72
18
73
14
40
0
40
0
40
0
40
0
40
0.149979331986157
40
0.149979331986157
40
0.288464298972169
40
0.288464298972169
40
0.357706782465178
40
0.357706782465178
40
0.426949265958187
40
0.426949265958187
40
0.980889133902255
40
0.980889133902255
40
1
40
1
40
1
40
1
41
1
10
22.9515512555734
20
-0.0007901166147235
30
0
41
1
10
23.2736712156119
20
-0.173828966935247
30
0
41
1
10
23.596247598098
20
-0.347149010780981
30
0
41
1
10
24.2185661361663
20
-0.679128671590547
30
0
41
1
10
24.5181858773419
20
-0.837849889110601
30
0
41
1
10
24.9695576687827
20
-1.07371704408698
30
0
41
1
10
25.1202914359246
20
-1.15194844232491
30
0
41
1
10
25.4206788052715
20
-1.3066453265921
30
0
41
1
10
25.5705595206536
20
-1.38321976972017
30
0
41
1
10
26.9173936566006
20
-2.06418016028056
30
0
41
1
10
28.0993097914613
20
-2.61157569709732
30
0
41
1
10
29.3331259066902
20
-3.0758031153309
30
0
41
1
10
29.3742856699399
20
-3.09116738626216
30
0
41
1
10
29.4154594364782
20
-3.10641250907315
30
0
0
SPLINE
5
D2
100
AcDbEntity
8
1
62
256
6
ByLayer
370
13
48
1
60
0
100
AcDbSpline
70
4
71
3
72
18
73
14
40
0
40
0
40
0
40
0
40
0.101722754289987
40
0.101722754289987
40
0.219730531207648
40
0.219730531207648
40
0.337738308125308
40
0.337738308125308
40
0.455746085042969
40
0.455746085042969
40
0.927777192713615
40
0.927777192713615
40
1
40
1
40
1
40
1
41
1
10
29.4154594363573
20
-3.10641250902844
30
0
41
1
10
29.6726472234681
20
-3.20163963371749
30
0
41
1
10
29.9303813839495
20
-3.29221789609886
30
0
41
1
10
30.4889219475473
20
-3.47691773801262
30
0
41
1
10
30.7905191620649
20
-3.56941341839257
30
0
41
1
10
31.3921821542526
20
-3.7382478209785
30
0
41
1
10
31.6927003229295
20
-3.81474323495687
30
0
41
1
10
32.2940052970688
20
-3.95120669788051
30
0
41
1
10
32.5951167806702
20
-4.01123150920935
30
0
41
1
10
34.0997484571095
20
-4.26748307932371
30
0
41
1
10
35.2806450278079
20
-4.32888388366527
30
0
41
1
10
36.646321844375
20
-4.2361565630975
30
0
41
1
10
36.827631426022
20
-4.22054268668845
30
0
41
1
10
37.0091179405037
20
-4.20163336531522
30
0
0
SPLINE
5
D3
100
AcDbEntity
8
1
62
256
6
ByLayer
370
13
48
1
60
0
100
AcDbSpline
70
4
71
3
72
30
73
26
40
0
40
0
40
0
40
0
40
0.0625000000000001
40
0.0625000000000001
40
0.125
40
0.1875
40
0.1875
40
0.25
40
0.25
40
0.375000000000001
40
0.375000000000001
40
0.437500000000001
40
0.437500000000001
40
0.500000000000001
40
0.500000000000001
40
0.625000000000001
40
0.625000000000001
40
0.687500000000001
40
0.687500000000001
40
0.750000000000001
40
0.8125
40
0.8125
40
0.875
40
0.875
40
1
40
1
40
1
40
1
41
1
10
4.2503484760843
20
-2.88467419241718
30
0
41
1
10
4.25038926791726
20
-2.78222625006933
30
0
41
1
10
4.25042817250318
20
-2.67454561485477
30
0
41
1
10
4.25050185623786
20
-2.45209955168633
30
0
41
1
10
4.25057159047398
20
-2.22224722223606
30
0
41
1
10
4.2506350978432
20
-1.97790992894568
30
0
41
1
10
4.2506962370409
20
-1.72626966216626
30
0
41
1
10
4.25072571138932
20
-1.59637611577659
30
0
41
1
10
4.25081102029122
20
-1.19808503783872
30
0
41
1
10
4.25086268291622
20
-0.926741251250547
30
0
41
1
10
4.25093658950675
20
-0.511296852016528
30
0
41
1
10
4.25096060668787
20
-0.371399681174125
30
0
41
1
10
4.25100790358448
20
-0.088690227770968
30
0
41
1
10
4.25103107053474
20
0.0534733692263956
30
0
41
1
10
4.2510985389624
20
0.474884793699971
30
0
41
1
10
4.25114138408901
20
0.751996227962678
30
0
41
1
10
4.25120351640035
20
1.16187809414632
30
0
41
1
10
4.25122393756664
20
1.29813961306127
30
0
41
1
10
4.25126319521962
20
1.56360479255943
30
0
41
1
10
4.25130100683273
20
1.82290073578508
30
0
41
1
10
4.25133554542759
20
2.0700124555909
30
0
41
1
10
4.2513680563047
20
2.3109190084798
30
0
41
1
10
4.25138324255153
20
2.42793380187348
30
0
41
1
10
4.25142410248725
20
2.76252905429644
30
0
41
1
10
4.25144551677954
20
2.96628724732417
30
0
41
1
10
4.25145850665248
20
3.15065356977979
30
0
0
SPLINE
5
D4
100
AcDbEntity
8
1
62
256
6
ByLayer
370
18
48
1
60
0
100
AcDbSpline
70
4
71
3
72
14
73
10
40
0
40
0
40
0
40
0
40
0.25
40
0.25
40
0.5
40
0.5
40
0.75
40
0.75
40
1
40
1
40
1
40
1
41
1
10
4.25145850665254
20
3.1506535706323
30
0
41
1
10
4.22654945840509
20
3.16254879680528
30
0
41
1
10
4.20057661711741
20
3.17579388761945
30
0
41
1
10
4.14704848892862
20
3.20544698511765
30
0
41
1
10
4.1199137566019
20
3.22170814861079
30
0
41
1
10
4.07199150371915
20
3.25375828019617
30
0
41
1
10
4.05116042702633
20
3.26961649512253
30
0
41
1
10
4.02041076039998
20
3.29757471817598
30
0
41
1
10
4.01054768588193
20
3.30947692343619
30
0
41
1
10
4.00517351606541
20
3.31930351880783
30
0
0
SPLINE
5
D5
100
AcDbEntity
8
1
62
256
6
ByLayer
370
18
48
1
60
0
100
AcDbSpline
70
4
71
3
72
14
73
10
40
0
40
0
40
0
40
0
40
0.25
40
0.25
40
0.5
40
0.5
40
0.75
40
0.75
40
1
40
1
40
1
40
1
41
1
10
61.1051571241748
20
1.0117038139673
30
0
41
1
10
61.0956632618917
20
1.04147005039761
30
0
41
1
10
61.0891932699106
20
1.07197715875861
30
0
41
1
10
61.0839602887276
20
1.13488113054598
30
0
41
1
10
61.0848517779995
20
1.16807100039588
30
0
41
1
10
61.1018058666947
20
1.23009479949948
30
0
41
1
10
61.1188248479493
20
1.2590421324941
30
0
41
1
10
61.1679859988287
20
1.30217807849962
30
0
41
1
10
61.1985796986205
20
1.31568917002824
30
0
41
1
10
61.2303433369365
20
1.32295284048169
30
0
0
SPLINE
5
D6
100
AcDbEntity
8
1
62
256
6
ByLayer
370
18
48
1
60
0
100
AcDbSpline
70
4
71
3
72
86
73
82
40
0
40
0
40
0
40
0
40
0.0080251047986526
40
0.0080251047986526
40
0.0333389849020149
40
0.0333389849020149
40
0.0586528650053772
40
0.0586528650053772
40
0.109280625212103
40
0.109280625212103
40
0.134594505315466
40
0.134594505315466
40
0.159908385418829
40
0.159908385418829
40
0.185222265522191
40
0.185222265522191
40
0.210536145625554
40
0.210536145625554
40
0.235850025728917
40
0.235850025728917
40
0.26116390583228
40
0.26116390583228
40
0.286477785935643
40
0.286477785935643
40
0.311791666039005
40
0.311791666039005
40
0.337105546142368
40
0.337105546142368
40
0.362419426245731
40
0.362419426245731
40
0.387733306349094
40
0.387733306349094
40
0.413047186452457
40
0.413047186452457
40
0.43836106655582
40
0.43836106655582
40
0.463674946659182
40
0.463674946659182
40
0.488988826762545
40
0.488988826762545
40
0.514302706865908
40
0.514302706865908
40
0.539616586969271
40
0.539616586969271
40
0.564930467072634
40
0.564930467072634
40
0.590244347175996
40
0.590244347175996
40
0.615558227279359
40
0.615558227279359
40
0.640872107382722
40
0.640872107382722
40
0.666185987486085
40
0.666185987486085
40
0.691499867589448
40
0.691499867589448
40
0.716813747692811
40
0.716813747692811
40
0.742127627796173
40
0.742127627796173
40
0.767441507899536
40
0.767441507899536
40
0.792755388002899
40
0.792755388002899
40
0.818069268106262
40
0.818069268106262
40
0.843383148209624
40
0.843383148209624
40
0.868697028312987
40
0.868697028312987
40
0.89401090841635
40
0.89401090841635
40
0.919324788519713
40
0.919324788519713
40
0.944638668623076
40
0.944638668623076
40
0.969952548726438
40
0.969952548726438
40
0.995266428829801
40
0.995266428829801
40
1
40
1
40
1
40
1
41
1
10
53.6302952919452
20
-3.16545274286659
30
0
41
1
10
53.5491101758617
20
-3.19346448079307
30
0
41
1
10
53.4679052035867
20
-3.22099090403287
30
0
41
1
10
53.1304608951907
20
-3.33330125580457
30
0
41
1
10
52.8740157059683
20
-3.41350419597612
30
0
41
1
10
52.3616703609689
20
-3.56208588773069
30
0
41
1
10
52.1055968995755
20
-3.63098792136472
30
0
41
1
10
51.3377456744122
20
-3.82182827083219
30
0
41
1
10
50.8268877790367
20
-3.92779379256308
30
0
41
1
10
50.056719647302
20
-4.04731192922173
30
0
41
1
10
49.8002248458483
20
-4.08066404995628
30
0
41
1
10
49.2885975435174
20
-4.13320041815282
30
0
41
1
10
49.0330487890514
20
-4.15265937834479
30
0
41
1
10
48.5213082850308
20
-4.1808443657448
30
0
41
1
10
48.2652961188485
20
-4.18908044352114
30
0
41
1
10
47.7529674492962
20
-4.19135653045691
30
0
41
1
10
47.4965572485482
20
-4.18520982154129
30
0
41
1
10
46.983761623856
20
-4.16183373688745
30
0
41
1
10
46.7275519417116
20
-4.14412390832788
30
0
41
1
10
46.2155262154119
20
-4.09505522392155
30
0
41
1
10
45.9597521225179
20
-4.06329006987232
30
0
41
1
10
45.4483907090813
20
-3.98736911841684
30
0
41
1
10
45.192422217077
20
-3.94386201136905
30
0
41
1
10
44.679526246137
20
-3.8449457448541
30
0
41
1
10
44.4225181627328
20
-3.78924994968207
30
0
41
1
10
43.9102235216504
20
-3.66513725676418
30
0
41
1
10
43.6546487948442
20
-3.59735584152258
30
0
41
1
10
43.1429685557185
20
-3.4522748472541
30
0
41
1
10
42.8870376253608
20
-3.37462060336981
30
0
41
1
10
42.3749089479015
20
-3.20779459198568
30
0
41
1
10
42.1188476275638
20
-3.11843019067155
30
0
41
1
10
41.6058798525631
20
-2.931179570936
30
0
41
1
10
41.3494324479472
20
-2.83356701996749
30
0
41
1
10
40.8371649177613
20
-2.6296945270264
30
0
41
1
10
40.581239161944
20
-2.52308264179123
30
0
41
1
10
40.0698352391153
20
-2.30237275057897
30
0
41
1
10
39.8141709860944
20
-2.18866186371292
30
0
41
1
10
39.3017908830452
20
-1.95483226180167
30
0
41
1
10
39.0448702468226
20
-1.83436788754102
30
0
41
1
10
38.5318158867626
20
-1.587737888828
30
0
41
1
10
38.2759481715964
20
-1.46171910697029
30
0
41
1
10
37.7641163753639
20
-1.20638657379516
30
0
41
1
10
37.508164127471
20
-1.07702158289743
30
0
41
1
10
36.9960341960512
20
-0.814947271904629
30
0
41
1
10
36.73987794993
20
-0.682296986763333
30
0
41
1
10
36.2273673361006
20
-0.414323061341833
30
0
41
1
10
35.9705247623111
20
-0.279485374381892
30
0
41
1
10
35.4578700128459
20
-0.0104940945460328
30
0
41
1
10
35.201792936144
20
0.123871259412255
30
0
41
1
10
34.6900405341388
20
0.392438040358712
30
0
41
1
10
34.4345262985363
20
0.526916775981363
30
0
41
1
10
33.9224964377437
20
0.792782145498961
30
0
41
1
10
33.6660949475721
20
0.924380750358267
30
0
41
1
10
33.1524598393074
20
1.18495211342102
30
0
41
1
10
32.8960877573193
20
1.31406972565034
30
0
41
1
10
32.384111314045
20
1.56762198123599
30
0
41
1
10
32.1281674252391
20
1.69153125672847
30
0
41
1
10
31.6160913426926
20
1.93297450733957
30
0
41
1
10
31.3599221795298
20
2.05105282767656
30
0
41
1
10
30.8476336411724
20
2.28204627368225
30
0
41
1
10
30.5909761988821
20
2.39476440389453
30
0
41
1
10
30.0778750706841
20
2.6099782788998
30
0
41
1
10
29.821576483464
20
2.71311807795314
30
0
41
1
10
29.3093837735454
20
2.91209591035508
30
0
41
1
10
29.0537623851594
20
3.00800861462398
30
0
41
1
10
28.5419451889395
20
3.18874714404564
30
0
41
1
10
28.2856935670026
20
3.27320307122835
30
0
41
1
10
27.7724542043255
20
3.4334486917071
30
0
41
1
10
27.5154459994031
20
3.5091614825734
30
0
41
1
10
27.0032256883026
20
3.64896442996735
30
0
41
1
10
26.7473752475837
20
3.71191926063301
30
0
41
1
10
26.2353389258138
20
3.82703846538445
30
0
41
1
10
25.9792431695429
20
3.8793835254441
30
0
41
1
10
25.4670606800882
20
3.97230003218789
30
0
41
1
10
25.211094179875
20
4.01244032832301
30
0
41
1
10
24.6974745188484
20
4.07831311625176
30
0
41
1
10
24.4408652326952
20
4.10545175211522
30
0
41
1
10
23.9281607806899
20
4.14787331716698
30
0
41
1
10
23.6722259219409
20
4.16322742328259
30
0
41
1
10
23.3684863213656
20
4.1723567733207
30
0
41
1
10
23.3206258157549
20
4.17354168239629
30
0
41
1
10
23.2727545080382
20
4.17448488131581
30
0
0
SPLINE
5
D7
100
AcDbEntity
8
1
62
256
6
ByLayer
370
18
48
1
60
0
100
AcDbSpline
70
4
71
3
72
8
73
4
40
0
40
0
40
0
40
0
40
1
40
1
40
1
40
1
41
1
10
61.5322000903178
20
-4.17382186638255
30
0
41
1
10
61.5090993342577
20
-4.1905429589778
30
0
41
1
10
61.4889182244518
20
-4.19896679753077
30
0
41
1
10
61.4717080727897
20
-4.19894756034543
30
0
0
SPLINE
5
D8
100
AcDbEntity
8
1
62
256
6
ByLayer
370
18
48
1
60
0
100
AcDbSpline
70
4
71
3
72
34
73
30
40
0
40
0
40
0
40
0
40
0.250000000000001
40
0.250000000000001
40
0.375000000000002
40
0.375000000000002
40
0.437500000000002
40
0.437500000000002
40
0.500000000000003
40
0.500000000000003
40
0.625000000000003
40
0.625000000000003
40
0.6875
40
0.6875
40
0.718749999999999
40
0.718749999999999
40
0.749999999999997
40
0.749999999999997
40
0.812499999999995
40
0.812499999999995
40
0.843749999999995
40
0.843749999999995
40
0.874999999999996
40
0.874999999999996
40
0.906249999999997
40
0.906249999999997
40
0.937499999999998
40
0.937499999999998
40
1
40
1
40
1
40
1
41
1
10
57.9936800302852
20
1.26838077317763
30
0
41
1
10
58.3034875553759
20
1.05771829760212
30
0
41
1
10
58.6155274070523
20
0.869116326762679
30
0
41
1
10
59.0883054947229
20
0.632841092544282
30
0
41
1
10
59.2466774925723
20
0.561783971205358
30
0
41
1
10
59.485609923227
20
0.468780847110366
30
0
41
1
10
59.5654808803734
20
0.440021244078821
30
0
41
1
10
59.725726680304
20
0.387481583379554
30
0
41
1
10
59.8059380137933
20
0.363789670205847
30
0
41
1
10
60.0440095381937
20
0.301671995887205
30
0
41
1
10
60.2003458612874
20
0.271825199464047
30
0
41
1
10
60.4308495113296
20
0.246512146208232
30
0
41
1
10
60.5070146692257
20
0.241329896813966
30
0
41
1
10
60.6201862827468
20
0.238790001669287
30
0
41
1
10
60.6577655268361
20
0.238818625337331
30
0
41
1
10
60.7323488591885
20
0.240686116114603
30
0
41
1
10
60.7690349239939
20
0.24344525652603
30
0
41
1
10
60.8756811618953
20
0.260460757580717
30
0
41
1
10
60.9414166274337
20
0.281618594782032
30
0
41
1
10
61.0267591827764
20
0.337626436275258
30
0
41
1
10
61.0529371705345
20
0.361037823650321
30
0
41
1
10
61.0966833573592
20
0.416018001176411
30
0
41
1
10
61.1148312420204
20
0.447532145448207
30
0
41
1
10
61.1431943451668
20
0.518892882685805
30
0
41
1
10
61.1528325434898
20
0.55749724296362
30
0
41
1
10
61.1637102542677
20
0.640111153490949
30
0
41
1
10
61.1648588024032
20
0.68453490746225
30
0
41
1
10
61.1566046975818
20
0.82035831012098
30
0
41
1
10
61.1355821432503
20
0.916311835003825
30
0
41
1
10
61.1051571241749
20
1.01170381396733
30
0
0
SPLINE
5
D9
100
AcDbEntity
8
1
62
256
6
ByLayer
370
18
48
1
60
0
100
AcDbSpline
70
4
71
3
72
86
73
82
40
0
40
0
40
0
40
0
40
0.0190903719832842
40
0.0190903719832842
40
0.042717068502688
40
0.042717068502688
40
0.0663437650220917
40
0.0663437650220917
40
0.0899704615414955
40
0.0899704615414955
40
0.113597158060899
40
0.113597158060899
40
0.137223854580303
40
0.137223854580303
40
0.160850551099707
40
0.160850551099707
40
0.184477247619111
40
0.184477247619111
40
0.208103944138514
40
0.208103944138514
40
0.255357337177322
40
0.255357337177322
40
0.278984033696725
40
0.278984033696725
40
0.302610730216128
40
0.302610730216128
40
0.326237426735532
40
0.326237426735532
40
0.349864123254935
40
0.349864123254935
40
0.373490819774338
40
0.373490819774338
40
0.397117516293741
40
0.397117516293741
40
0.420744212813144
40
0.420744212813144
40
0.444370909332547
40
0.444370909332547
40
0.491624302371354
40
0.491624302371354
40
0.515250998890757
40
0.515250998890757
40
0.53887769541016
40
0.53887769541016
40
0.562504391929564
40
0.562504391929564
40
0.586131088448967
40
0.586131088448967
40
0.609757784968371
40
0.609757784968371
40
0.633384481487774
40
0.633384481487774
40
0.657011178007177
40
0.657011178007177
40
0.68063787452658
40
0.68063787452658
40
0.704264571045983
40
0.704264571045983
40
0.727891267565386
40
0.727891267565386
40
0.75151796408479
40
0.75151796408479
40
0.775144660604193
40
0.775144660604193
40
0.798771357123596
40
0.798771357123596
40
0.822398053642999
40
0.822398053642999
40
0.846024750162402
40
0.846024750162402
40
0.869651446681806
40
0.869651446681806
40
0.893278143201209
40
0.893278143201209
40
0.916904839720612
40
0.916904839720612
40
0.964158232759417
40
0.964158232759417
40
0.987784929278821
40
0.987784929278821
40
1
40
1
40
1
40
1
41
1
10
28.6221068966983
20
3.15565827927591
30
0
41
1
10
28.8204361705729
20
3.23117899366224
30
0
41
1
10
29.0184426103303
20
3.30383606008383
30
0
41
1
10
29.4605486312069
20
3.46019291029191
30
0
41
1
10
29.705043249938
20
3.54165376308529
30
0
41
1
10
30.1950829193024
20
3.69352906749765
30
0
41
1
10
30.4403685268497
20
3.76424545126019
30
0
41
1
10
30.9310588880485
20
3.89552992918044
30
0
41
1
10
31.1762645953855
20
3.95638160071241
30
0
41
1
10
31.6663595339124
20
4.06557183732752
30
0
41
1
10
31.9115534011963
20
4.11405203426907
30
0
41
1
10
32.401630917022
20
4.199423528284
30
0
41
1
10
32.6465457573586
20
4.23629274540315
30
0
41
1
10
33.13566920866
20
4.29833933980098
30
0
41
1
10
33.3803930155528
20
4.32324975125039
30
0
41
1
10
33.8716307055565
20
4.36050564768135
30
0
41
1
10
34.1175109458043
20
4.37294198117866
30
0
41
1
10
34.6077486619037
20
4.38543963527289
30
0
41
1
10
34.8519861815437
20
4.38547076812867
30
0
41
1
10
35.5856638433565
20
4.36675922564103
30
0
41
1
10
36.0768612268543
20
4.32987761412218
30
0
41
1
10
36.8125758473051
20
4.23677061696128
30
0
41
1
10
37.0572545246964
20
4.19956545905913
30
0
41
1
10
37.5473306909129
20
4.11403524169759
30
0
41
1
10
37.7923805295491
20
4.06556563204725
30
0
41
1
10
38.2820828377743
20
3.95693741026665
30
0
41
1
10
38.526403386706
20
3.89646936725956
30
0
41
1
10
39.0160701763888
20
3.76470932048622
30
0
41
1
10
39.262034869506
20
3.69367589342764
30
0
41
1
10
39.7530944574965
20
3.54151399490033
30
0
41
1
10
39.9982465239403
20
3.46043523890725
30
0
41
1
10
40.4873307358522
20
3.28764034816078
30
0
41
1
10
40.7315069036091
20
3.19615469434044
30
0
41
1
10
41.2213010587779
20
3.00582108263481
30
0
41
1
10
41.4665331077045
20
2.9065278943215
30
0
41
1
10
41.95724737414
20
2.69906423325031
30
0
41
1
10
42.2025434203233
20
2.59037740854967
30
0
41
1
10
42.9369191973412
20
2.2548064304477
30
0
41
1
10
43.4273622125054
20
2.02080388232972
30
0
41
1
10
44.161205583074
20
1.64952867500008
30
0
41
1
10
44.4056550381905
20
1.52254475601509
30
0
41
1
10
44.8966983753598
20
1.26638619553597
30
0
41
1
10
45.1424121525311
20
1.13676968794616
30
0
41
1
10
45.6325470999979
20
0.874395277026395
30
0
41
1
10
45.8769083291913
20
0.741077388850755
30
0
41
1
10
46.3655865547635
20
0.472606721768386
30
0
41
1
10
46.6105010218008
20
0.338541219362156
30
0
41
1
10
47.1007989222394
20
0.0695453209056609
30
0
41
1
10
47.3464035888716
20
-0.0654366759883942
30
0
41
1
10
47.8368607312883
20
-0.336508620215426
30
0
41
1
10
48.0812291891236
20
-0.472317457494455
30
0
41
1
10
48.5709741670159
20
-0.739551248100668
30
0
41
1
10
48.8159307653384
20
-0.871752570961831
30
0
41
1
10
49.3055840358128
20
-1.13410051833571
30
0
41
1
10
49.5500715788432
20
-1.26460948782997
30
0
41
1
10
50.0393979279909
20
-1.522424307487
30
0
41
1
10
50.2852233276352
20
-1.6486747287617
30
0
41
1
10
50.7760254257556
20
-1.89560392846505
30
0
41
1
10
51.0211147928609
20
-2.01633118338466
30
0
41
1
10
51.5102375740543
20
-2.25295916476497
30
0
41
1
10
51.7541684170013
20
-2.36897432396921
30
0
41
1
10
52.2436865020239
20
-2.59193237445228
30
0
41
1
10
52.4888561242851
20
-2.69955328990315
30
0
41
1
10
52.979584603215
20
-2.90769972100611
30
0
41
1
10
53.2249919707387
20
-3.00843530403822
30
0
41
1
10
53.7141508658574
20
-3.20109465254441
30
0
41
1
10
53.9589682384592
20
-3.29218658862632
30
0
41
1
10
54.4486701900894
20
-3.46468004717318
30
0
41
1
10
54.6935328707576
20
-3.54610693850182
30
0
41
1
10
55.1828598946859
20
-3.69963823419064
30
0
41
1
10
55.4271353291945
20
-3.77186112144341
30
0
41
1
10
55.9179613863454
20
-3.9042460599498
30
0
41
1
10
56.1634635657372
20
-3.96466049986219
30
0
41
1
10
56.65346417445
20
-4.07426435772121
30
0
41
1
10
56.8979581616451
20
-4.12355479377976
30
0
41
1
10
57.6305274367232
20
-4.25410983467214
30
0
41
1
10
58.1215890961282
20
-4.3165060404387
30
0
41
1
10
58.8572908817614
20
-4.37397130062479
30
0
41
1
10
59.1015764780122
20
-4.38697876575119
30
0
41
1
10
59.4730951781192
20
-4.39704575755528
30
0
41
1
10
59.5997819745529
20
-4.39880864708624
30
0
41
1
10
59.7265074829987
20
-4.3989093068553
30
0
0
SPLINE
5
DA
100
AcDbEntity
8
1
62
256
6
ByLayer
370
18
48
1
60
0
100
AcDbSpline
70
4
71
3
72
8
73
4
40
0
40
0
40
0
40
0
40
1
40
1
40
1
40
1
41
1
10
61.4750287891847
20
-4.36350446094079
30
0
41
1
10
61.4879125624913
20
-4.32894301728575
30
0
41
1
10
61.5007836365315
20
-4.29436257796655
30
0
41
1
10
61.5136411343985
20
-4.25976552072262
30
0
0
SPLINE
5
DB
100
AcDbEntity
8
1
62
256
6
ByLayer
370
13
48
1
60
0
100
AcDbSpline
70
4
71
3
72
8
73
4
40
0
40
0
40
0
40
0
40
1
40
1
40
1
40
1
41
1
10
4.12968083818777
20
-3.05962294806213
30
0
41
1
10
4.1302811186674
20
-3.04029204903006
30
0
41
1
10
4.1308854415303
20
-3.02095818352214
30
0
41
1
10
4.13149381687725
20
-3.00162126490562
30
0
0
SPLINE
5
DC
100
AcDbEntity
8
1
62
256
6
ByLayer
370
18
48
1
60
0
100
AcDbSpline
70
4
71
3
72
12
73
8
40
0
40
0
40
0
40
0
40
0.249999999999995
40
0.249999999999995
40
0.499999999999991
40
0.499999999999991
40
1
40
1
40
1
40
1
41
1
10
61.5136411343843
20
-4.25976552071771
30
0
41
1
10
61.5185240192236
20
-4.24662661546193
30
0
41
1
10
61.5231396952845
20
-4.23324641871221
30
0
41
1
10
61.5305849030093
20
-4.20923060704234
30
0
41
1
10
61.5333961082564
20
-4.19861557751284
30
0
41
1
10
61.5380734547745
20
-4.17514404277458
30
0
41
1
10
61.5363814177276
20
-4.17079528307045
30
0
41
1
10
61.5322000903179
20
-4.17382186638255
30
0
0
LINE
5
76
100
AcDbEntity
8
81
62
256
6
ByLayer
370
18
48
1
60
0
100
AcDbLine
10
63
20
0
30
0
11
68
21
0
31
0
39
0
210
0
220
0
230
1
0
LINE
5
77
100
AcDbEntity
8
1
62
256
6
ByLayer
370
18
48
1
60
0
100
AcDbLine
10
2.148656
20
4.364358
30
0
11
1.277595
21
4.363835
31
0
39
0
210
0
220
0
230
1
0
LINE
5
79
100
AcDbEntity
8
1
62
256
6
ByLayer
370
18
48
1
60
0
100
AcDbLine
10
10.449856
20
4.369339
30
0
11
8.606029
21
4.368232
31
0
39
0
210
0
220
0
230
1
0
LINE
5
7A
100
AcDbEntity
8
1
62
256
6
ByLayer
370
18
48
1
60
0
100
AcDbLine
10
35.450043
20
4.384339
30
0
11
34.720737
21
4.383901
31
0
39
0
210
0
220
0
230
1
0
LINE
5
7B
100
AcDbEntity
8
1
62
256
6
ByLayer
370
18
48
1
60
0
100
AcDbLine
10
60.450131
20
4.399339
30
0
11
59.72893
21
4.398906
31
0
39
0
210
0
220
0
230
1
0
LINE
5
7C
100
AcDbEntity
8
1
62
256
6
ByLayer
370
18
48
1
60
0
100
AcDbLine
10
59.72893
20
-4.398906
30
0
11
60.449936
21
-4.399339
31
0
39
0
210
0
220
0
230
1
0
LINE
5
7D
100
AcDbEntity
8
1
62
256
6
ByLayer
370
18
48
1
60
0
100
AcDbLine
10
34.720737
20
-4.383901
30
0
11
35.449606
21
-4.384339
31
0
39
0
210
0
220
0
230
1
0
LINE
5
7E
100
AcDbEntity
8
1
62
256
6
ByLayer
370
18
48
1
60
0
100
AcDbLine
10
8.606029
20
-4.368232
30
0
11
10.450329
21
-4.369339
31
0
39
0
210
0
220
0
230
1
0
LINE
5
7F
100
AcDbEntity
8
1
62
256
6
ByLayer
370
18
48
1
60
0
100
AcDbLine
10
1.277595
20
-4.363835
30
0
11
2.148656
21
-4.364358
31
0
39
0
210
0
220
0
230
1
0
LINE
5
80
100
AcDbEntity
8
SK1
62
256
6
ByLayer
370
18
48
1
60
0
100
AcDbLine
10
0
20
5
30
0
11
-38.845299
21
5
31
0
39
0
210
0
220
0
230
1
0
LINE
5
82
100
AcDbEntity
8
SK1
62
256
6
ByLayer
370
18
48
1
60
0
100
AcDbLine
10
-38.845299
20
-5
30
0
11
0
21
-5
31
0
39
0
210
0
220
0
230
1
0
LINE
5
83
100
AcDbEntity
8
SK1
62
256
6
ByLayer
370
18
48
1
60
0
100
AcDbLine
10
-38.845299
20
5
30
0
11
-40
21
3
31
0
39
0
210
0
220
0
230
1
0
LINE
5
84
100
AcDbEntity
8
SK1
62
256
6
ByLayer
370
18
48
1
60
0
100
AcDbLine
10
-40
20
-3
30
0
11
-38.845299
21
-5
31
0
39
0
210
0
220
0
230
1
0
LINE
5
85
100
AcDbEntity
8
SK4
62
256
6
ByLayer
370
18
48
0.05
60
0
100
AcDbLine
10
68
20
0
30
0
11
-45
21
0
31
0
39
0
210
0
220
0
230
1
0
LINE
5
87
100
AcDbEntity
8
4
62
256
6
ByLayer
370
18
48
0.05
60
0
100
AcDbLine
10
63
20
0
30
0
11
0
21
0
31
0
39
0
210
0
220
0
230
1
0
LINE
5
89
100
AcDbEntity
8
80
62
256
6
ByLayer
370
18
48
1
60
0
100
AcDbLine
10
0
20
0
30
0
11
-5
21
0
31
0
39
0
210
0
220
0
230
1
0
LINE
5
8A
100
AcDbEntity
8
1
62
256
6
ByLayer
370
18
48
1
60
0
100
AcDbLine
10
62.915409
20
-0.304147
30
0
11
62.781027
21
-0.837154
31
0
39
0
210
0
220
0
230
1
0
LINE
5
8B
100
AcDbEntity
8
1
62
256
6
ByLayer
370
13
48
1
60
0
100
AcDbLine
10
1.277595
20
4.363835
30
0
11
1.277595
21
-4.363835
31
0
39
0
210
0
220
0
230
1
0
LINE
5
8C
100
AcDbEntity
8
1
62
256
6
ByLayer
370
13
48
1
60
0
100
AcDbLine
10
61.827175
20
0.501825
30
0
11
62.894667
21
-0.131553
31
0
39
0
210
0
220
0
230
1
0
LINE
5
8D
100
AcDbEntity
8
1
62
256
6
ByLayer
370
13
48
1
60
0
100
AcDbLine
10
62.017082
20
0.837154
30
0
11
62.915409
21
0.304147
31
0
39
0
210
0
220
0
230
1
0
LINE
5
8E
100
AcDbEntity
8
1
62
256
6
ByLayer
370
13
48
1
60
0
100
AcDbLine
10
62.781027
20
0.837154
30
0
11
62.017082
21
0.837154
31
0
39
0
210
0
220
0
230
1
0
LINE
5
8F
100
AcDbEntity
8
1
62
256
6
ByLayer
370
18
48
1
60
0
100
AcDbLine
10
62.991365
20
0.042991
30
0
11
63
21
0
31
0
39
0
210
0
220
0
230
1
0
LINE
5
90
100
AcDbEntity
8
1
62
256
6
ByLayer
370
18
48
1
60
0
100
AcDbLine
10
0
20
-5
30
0
11
0
21
5
31
0
39
0
210
0
220
0
230
1
0
LINE
5
91
100
AcDbEntity
8
1
62
256
6
ByLayer
370
18
48
1
60
0
100
AcDbLine
10
60.804393
20
-2.290835
30
0
11
62.894667
21
-0.131553
31
0
39
0
210
0
220
0
230
1
0
LINE
5
92
100
AcDbEntity
8
1
62
256
6
ByLayer
370
13
48
1
60
0
100
AcDbLine
10
0.638557
20
4.681918
30
0
11
0.638557
21
-4.681918
31
0
39
0
210
0
220
0
230
1
0
LINE
5
93
100
AcDbEntity
8
1
62
256
6
ByLayer
370
18
48
1
60
0
100
AcDbLine
10
63
20
0
30
0
11
61.471708
21
-4.198948
31
0
39
0
210
0
220
0
230
1
0
LINE
5
94
100
AcDbEntity
8
1
62
256
6
ByLayer
370
18
48
1
60
0
100
AcDbLine
10
63
20
0
30
0
11
62.991365
21
-0.042991
31
0
39
0
210
0
220
0
230
1
0
LINE
5
95
100
AcDbEntity
8
1
62
256
6
ByLayer
370
18
48
1
60
0
100
AcDbLine
10
62.915409
20
0.304147
30
0
11
62.781027
21
0.837154
31
0
39
0
210
0
220
0
230
1
0
LINE
5
96
100
AcDbEntity
8
SK1
62
256
6
ByLayer
370
18
48
1
60
0
100
AcDbLine
10
0
20
-5
30
0
11
0
21
5
31
0
39
0
210
0
220
0
230
1
0
LINE
5
97
100
AcDbEntity
8
SK1
62
256
6
ByLayer
370
18
48
1
60
0
100
AcDbLine
10
-40
20
3
30
0
11
-40
21
-3
31
0
39
0
210
0
220
0
230
1
0
LINE
5
98
100
AcDbEntity
8
SK1
62
256
6
ByLayer
370
18
48
1
60
0
100
AcDbLine
10
-38.845299
20
5
30
0
11
-38.845299
21
-5
31
0
39
0
210
0
220
0
230
1
0
MTEXT
5
DD
100
AcDbEntity
8
SK6
62
256
6
ByLayer
370
13
48
1
60
0
100
AcDbMText
10
13.629169
20
36.782694
30
0
210
0
220
0
230
1
1
\W0.7670;R840-0880-50-A0A1220
40
3.5
41
0
44
1.084337
50
0
71
8
72
5
7
iso_b_vert
0
DIMENSION
5
EA
100
AcDbEntity
8
SK2
62
256
6
ByLayer
370
13
48
1
60
0
100
AcDbDimension
2
DimnDraft3D1
10
61.5
20
-14.613398
30
0
11
29.250059
21
-14.613398
31
0
70
32
71
5
72
1
41
1
210
0
220
0
230
1
3
Standard
100
AcDbAlignedDimension
13
0
23
-1.5875
33
0
14
61.5
24
-5.9875
34
0
50
0
100
AcDbRotatedDimension
1001
ACAD
1000
DSTYLE
1002
{
1070
   279
1070
     0
1070
   172
1070
     1
1070
   173
1070
     1
1070
   340
1005
DE
1070
   271
1070
     2
1070
   272
1070
     2
1070
    77
1070
     1
1070
    73
1070
     0
1070
   171
1070
     3
1070
   274
1070
     4
1070
   177
1070
    35
1070
   176
1070
    35
1070
   178
1070
    35
1070
    48
1040
-0.005
1070
    41
1041
3.5
1070
   147
1041
1.75
1070
    42
1041
1.5875
1070
    44
1041
2.0
1070
   140
1041
3.5
1070
   343
1005
0
1070
   344
1005
0
1002
}
0
DIMENSION
5
F4
100
AcDbEntity
8
SK2
62
256
6
ByLayer
370
13
48
1
60
0
100
AcDbDimension
2
DimnDraft3D2
10
63
20
-33.692985
30
0
11
11.3413
21
-33.692985
31
0
70
32
71
5
72
1
41
1
210
0
220
0
230
1
3
Standard
100
AcDbAlignedDimension
13
-40
23
-6.5875
33
0
14
63
24
-1.5875
34
0
50
0
100
AcDbRotatedDimension
1001
ACAD
1000
DSTYLE
1002
{
1070
   279
1070
     0
1070
   172
1070
     1
1070
   173
1070
     1
1070
   340
1005
DE
1070
   271
1070
     2
1070
   272
1070
     2
1070
    77
1070
     1
1070
    73
1070
     0
1070
   171
1070
     3
1070
   274
1070
     4
1070
   177
1070
    35
1070
   176
1070
    35
1070
   178
1070
    35
1070
    48
1040
-0.005
1070
    41
1041
3.5
1070
   147
1041
1.75
1070
    42
1041
1.5875
1070
    44
1041
2.0
1070
   140
1041
3.5
1070
   343
1005
0
1070
   344
1005
0
1002
}
0
DIMENSION
5
FE
100
AcDbEntity
8
SK2
62
256
6
ByLayer
370
13
48
1
60
0
100
AcDbDimension
2
DimnDraft3D3
10
63
20
16.009119
30
0
11
40.25
21
16.009119
31
0
70
32
71
5
72
1
41
1
210
0
220
0
230
1
3
Standard
100
AcDbAlignedDimension
13
17.5
23
5.9875
33
0
14
63
24
1.5875
34
0
50
0
100
AcDbRotatedDimension
1001
ACAD
1000
DSTYLE
1002
{
1070
   279
1070
     0
1070
   172
1070
     1
1070
   173
1070
     1
1070
   340
1005
DE
1070
   271
1070
     2
1070
   272
1070
     2
1070
    77
1070
     1
1070
    73
1070
     0
1070
   171
1070
     3
1070
   274
1070
     4
1070
   177
1070
    35
1070
   176
1070
    35
1070
   178
1070
    35
1070
    48
1040
-0.005
1070
    41
1041
3.5
1070
   147
1041
1.75
1070
    42
1041
1.5875
1070
    44
1041
2.0
1070
   140
1041
3.5
1070
   343
1005
0
1070
   344
1005
0
1002
}
0
DIMENSION
5
108
100
AcDbEntity
8
SK2
62
256
6
ByLayer
370
13
48
1
60
0
100
AcDbDimension
2
DimnDraft3D4
10
61.5
20
-17.202503
30
0
11
72.981425
21
-17.202503
31
0
70
32
71
5
72
1
41
1
210
0
220
0
230
1
3
Standard
100
AcDbAlignedDimension
13
63
23
-1.5875
33
0
14
61.5
24
-5.9875
34
0
50
0
100
AcDbRotatedDimension
1001
ACAD
1000
DSTYLE
1002
{
1070
   279
1070
     0
1070
   172
1070
     1
1070
   173
1070
     1
1070
   340
1005
DE
1070
   271
1070
     2
1070
   272
1070
     2
1070
    77
1070
     1
1070
    73
1070
     0
1070
   171
1070
     3
1070
   274
1070
     4
1070
   177
1070
    35
1070
   176
1070
    35
1070
   178
1070
    35
1070
    48
1040
-0.005
1070
    41
1041
3.5
1070
   147
1041
1.75
1070
    42
1041
1.5875
1070
    44
1041
2.0
1070
   140
1041
3.5
1070
   343
1005
0
1070
   344
1005
0
1002
}
0
DIMENSION
5
112
100
AcDbEntity
8
SK2
62
256
6
ByLayer
370
13
48
1
60
0
100
AcDbDimension
2
DimnDraft3D5
10
61.5
20
-23.343428
30
0
11
8.260676
21
-23.343428
31
0
70
32
71
5
72
1
41
1
210
0
220
0
230
1
3
Standard
100
AcDbAlignedDimension
13
-40
23
-6.5875
33
0
14
61.5
24
-5.9875
34
0
50
0
100
AcDbRotatedDimension
1001
ACAD
1000
DSTYLE
1002
{
1070
   279
1070
     0
1070
   172
1070
     1
1070
   173
1070
     1
1070
   340
1005
DE
1070
   271
1070
     2
1070
   272
1070
     2
1070
    77
1070
     1
1070
    73
1070
     0
1070
   171
1070
     3
1070
   274
1070
     4
1070
   177
1070
    35
1070
   176
1070
    35
1070
   178
1070
    35
1070
    48
1040
-0.005
1070
    41
1041
3.5
1070
   147
1041
1.75
1070
    42
1041
1.5875
1070
    44
1041
2.0
1070
   140
1041
3.5
1070
   343
1005
0
1070
   344
1005
0
1002
}
0
DIMENSION
5
11D
100
AcDbEntity
8
SK2
62
256
6
ByLayer
370
13
48
1
60
0
100
AcDbDimension
2
DimnDraft3D6
10
-50.625163
20
5
30
0
11
-51.250163
21
23.47418
31
0
70
33
71
5
72
1
41
1
210
0
220
0
230
1
3
Standard
100
AcDbAlignedDimension
13
-41.5875
23
-5
33
0
14
-41.5875
24
5
34
0
1001
ACAD
1000
DSTYLE
1002
{
1070
   279
1070
     0
1070
    74
1070
     0
1070
   173
1070
     1
1070
   340
1005
DE
1070
   271
1070
     3
1070
   272
1070
     2
1070
    77
1070
     1
1070
    73
1070
     0
1070
   171
1070
     3
1070
   274
1070
     4
1070
   177
1070
    35
1070
   176
1070
    35
1070
   178
1070
    35
1070
    48
1040
-0.005
1070
    41
1041
3.5
1070
   147
1041
1.75
1070
    42
1041
1.5875
1070
    44
1041
2.0
1070
   140
1041
3.5
1070
   343
1005
0
1070
   344
1005
0
1002
}
0
DIMENSION
5
128
100
AcDbEntity
8
2
62
256
6
ByLayer
370
13
48
1
60
0
100
AcDbDimension
2
DimnDraft3D7
10
77.083343
20
4.4
30
0
11
72.458343
21
21.467266
31
0
70
33
71
5
72
1
41
1
210
0
220
0
230
1
3
Standard
100
AcDbAlignedDimension
13
63.0875
23
-4.4
33
0
14
63.0875
24
4.4
34
0
1001
ACAD
1000
DSTYLE
1002
{
1070
   279
1070
     0
1070
    74
1070
     0
1070
   173
1070
     1
1070
   340
1005
DE
1070
   271
1070
     3
1070
   272
1070
     2
1070
    77
1070
     1
1070
    73
1070
     0
1070
   171
1070
     3
1070
   274
1070
     4
1070
   177
1070
    35
1070
   176
1070
    35
1070
   178
1070
    35
1070
    48
1040
-0.005
1070
    41
1041
3.5
1070
   147
1041
1.75
1070
    42
1041
1.5875
1070
    44
1041
2.0
1070
   140
1041
3.5
1070
   343
1005
0
1070
   344
1005
0
1002
}
0
ENDSEC
0
SECTION
2
OBJECTS
0
DICTIONARY
5
193
330
0
100
AcDbDictionary
280
0
281
1
3
ACAD_GROUP
350
194
3
ACAD_MLINESTYLE
350
195
0
DICTIONARY
5
194
330
0
100
AcDbDictionary
280
0
281
1
0
DICTIONARY
5
195
330
0
100
AcDbDictionary
280
0
281
1
3
Standard
350
18
0
MLINESTYLE
5
18
330
195
100
AcDbMlineStyle
2
Standard
70
0
3

62
256
51
90
52
90
71
2
49
-0.5
62
256
6
ByLayer
49
0.5
62
256
6
ByLayer
0
RASTERVARIABLES
5
181
330

100
AcDbRasterVariables
90
0
70
1
71
1
72
1
0
ENDSEC
0
EOF
