0
SECTION
2
HEADER
9
$ACADVER
1
AC1015
9
$DWGCODEPAGE
3
ANSI_1252
9
$HANDSEED
5
1b6
9
$ANGBASE
50
0
9
$ANGDIR
70
0
9
$ATTMODE
70
1
9
$AUNITS
70
0
9
$AUPREC
70
0
9
$CECOLOR
62
256
9
$CELTSCALE
40
1
9
$CELTYPE
6
ByLayer
9
$CELWEIGHT
370
18
9
$CLAYER
8
0
9
$CMLJUST
70
0
9
$CMLSCALE
40
1
9
$CMLSTYLE
2
Standard
9
$DIMSTYLE
2
Standard
9
$TEXTSIZE
40
0.2
9
$TEXTSTYLE
7
Standard
9
$LUNITS
70
2
9
$LUPREC
70
4
9
$EXTNAMES
290
1
9
$INSUNITS
70
4
9
$LTSCALE
40
1
9
$LWDISPLAY
290
1
9
$PDMODE
70
0
9
$PDSIZE
40
0
9
$PLINEGEN
70
0
0
ENDSEC
0
SECTION
2
CLASSES
0
CLASS
1
RASTERVARIABLES
2
AcDbRasterVariables
3
ISM
90
0
280
0
281
0
0
ENDSEC
0
SECTION
2
TABLES
0
TABLE
2
VPORT
5
1ac
100
AcDbSymbolTable
0
VPORT
5
1
100
AcDbSymbolTableRecord
100
AcDbViewportTableRecord
2
*Active
70
0
10
0
20
0
11
1
21
1
12
-1
22
1
13
0
23
0
14
0.5
24
0.5
15
10
25
10
16
0
26
0
36
1
17
0
27
0
37
0
0
ENDTAB
0
TABLE
2
LTYPE
5
1ad
100
AcDbSymbolTable
0
LTYPE
5
14
100
AcDbSymbolTableRecord
100
AcDbLinetypeTableRecord
70
0
2
ByBlock
3

72
65
73
0
40
0
0
LTYPE
5
15
100
AcDbSymbolTableRecord
100
AcDbLinetypeTableRecord
70
0
2
ByLayer
3

72
65
73
0
40
0
0
LTYPE
5
16
100
AcDbSymbolTableRecord
100
AcDbLinetypeTableRecord
70
0
2
CONTINUOUS
3
Solid line
72
65
73
0
40
0
0
LTYPE
5
6A
100
AcDbSymbolTableRecord
100
AcDbLinetypeTableRecord
70
0
2
CENTER
3
____ _ ____ _ ____ _ ____
72
65
73
4
40
47.5
49
22
74
0
49
-8.5
74
0
49
8.5
74
0
49
-8.5
74
0
0
LTYPE
5
6B
100
AcDbSymbolTableRecord
100
AcDbLinetypeTableRecord
70
0
2
DASHED
3
__ __ __ __ __ __ __ __ __
72
65
73
2
40
25.72
49
12.86
74
0
49
-12.86
74
0
0
ENDTAB
0
TABLE
2
LAYER
5
1ae
100
AcDbSymbolTable
0
LAYER
5
10
100
AcDbSymbolTableRecord
100
AcDbLayerTableRecord
2
0
70
0
62
7
6
CONTINUOUS
290
1
370
-3
390
0
0
LAYER
5
6D
100
AcDbSymbolTableRecord
100
AcDbLayerTableRecord
2
81
70
0
62
-3
6
CONTINUOUS
290
1
370
-3
390
0
0
LAYER
5
6F
100
AcDbSymbolTableRecord
100
AcDbLayerTableRecord
2
80
70
0
62
-6
6
CONTINUOUS
290
1
370
-3
390
0
0
LAYER
5
74
100
AcDbSymbolTableRecord
100
AcDbLayerTableRecord
2
2
70
0
62
7
6
CONTINUOUS
290
1
370
-3
390
0
0
LAYER
5
78
100
AcDbSymbolTableRecord
100
AcDbLayerTableRecord
2
1
70
0
62
4
6
CONTINUOUS
290
1
370
-3
390
0
0
LAYER
5
88
100
AcDbSymbolTableRecord
100
AcDbLayerTableRecord
2
4
70
0
62
-2
6
CENTER
290
1
370
-3
390
0
0
LAYER
5
198
100
AcDbSymbolTableRecord
100
AcDbLayerTableRecord
2
SK2
70
0
62
7
6
CONTINUOUS
290
1
370
-3
390
0
0
LAYER
5
199
100
AcDbSymbolTableRecord
100
AcDbLayerTableRecord
2
SK1
70
0
62
4
6
CONTINUOUS
290
1
370
-3
390
0
0
LAYER
5
19a
100
AcDbSymbolTableRecord
100
AcDbLayerTableRecord
2
SK4
70
0
62
2
6
CENTER
290
1
370
-3
390
0
0
LAYER
5
19b
100
AcDbSymbolTableRecord
100
AcDbLayerTableRecord
2
SK6
70
0
62
5
6
CONTINUOUS
290
1
370
-3
390
0
0
ENDTAB
0
TABLE
2
STYLE
5
1af
100
AcDbSymbolTable
0
STYLE
5
11
100
AcDbSymbolTableRecord
100
AcDbTextStyleTableRecord
2
Standard
3
txt
70
0
71
0
40
0
41
1
42
0
50
0
0
STYLE
5
F4
100
AcDbSymbolTableRecord
100
AcDbTextStyleTableRecord
2
iso_b_vert
3
simplex.shx
70
0
71
0
40
0
41
1
42
0
50
0
0
STYLE
5
F5
100
AcDbSymbolTableRecord
100
AcDbTextStyleTableRecord
2
DWGDirectTextStyle
3
simplex
70
0
71
0
40
0
41
1
42
0
50
0
0
ENDTAB
0
TABLE
2
DIMSTYLE
5
1b0
100
AcDbSymbolTable
100
AcDbDimStyleTable
0
DIMSTYLE
105
27
100
AcDbSymbolTableRecord
100
AcDbDimStyleTableRecord
2
Standard
70
0
3
<>
41
0.18
42
0.0625
44
0.18
140
0.18
147
0.09
73
0
74
0
77
1
271
2
275
0
278
52
280
0
340
11
0
ENDTAB
0
TABLE
2
VIEW
5
1b1
100
AcDbSymbolTable
0
ENDTAB
0
TABLE
2
UCS
5
1b2
100
AcDbSymbolTable
0
ENDTAB
0
TABLE
2
APPID
5
1b3
100
AcDbSymbolTable
0
APPID
5
12
100
AcDbSymbolTableRecord
100
AcDbRegAppTableRecord
2
ACAD
70
0
0
ENDTAB
0
TABLE
2
BLOCK_RECORD
5
1b4
100
AcDbSymbolTable
0
BLOCK_RECORD
5
1F
100
AcDbSymbolTableRecord
100
AcDbBlockTableRecord
2
*Model_Space
340
0
70
0
0
BLOCK_RECORD
5
1B
100
AcDbSymbolTableRecord
100
AcDbBlockTableRecord
2
*Paper_Space
340
0
70
0
0
BLOCK_RECORD
5
23
100
AcDbSymbolTableRecord
100
AcDbBlockTableRecord
2
*Paper_Space0
340
0
70
0
0
BLOCK_RECORD
5
F7
100
AcDbSymbolTableRecord
100
AcDbBlockTableRecord
2
DimnDraft3D1
340
0
70
0
0
BLOCK_RECORD
5
101
100
AcDbSymbolTableRecord
100
AcDbBlockTableRecord
2
DimnDraft3D2
340
0
70
0
0
BLOCK_RECORD
5
10B
100
AcDbSymbolTableRecord
100
AcDbBlockTableRecord
2
DimnDraft3D3
340
0
70
0
0
BLOCK_RECORD
5
115
100
AcDbSymbolTableRecord
100
AcDbBlockTableRecord
2
DimnDraft3D4
340
0
70
0
0
BLOCK_RECORD
5
11F
100
AcDbSymbolTableRecord
100
AcDbBlockTableRecord
2
DimnDraft3D5
340
0
70
0
0
BLOCK_RECORD
5
129
100
AcDbSymbolTableRecord
100
AcDbBlockTableRecord
2
DimnDraft3D6
340
0
70
0
0
BLOCK_RECORD
5
134
100
AcDbSymbolTableRecord
100
AcDbBlockTableRecord
2
DimnDraft3D7
340
0
70
0
0
ENDTAB
0
ENDSEC
0
SECTION
2
BLOCKS
0
BLOCK
5
20
100
AcDbEntity
8
0
100
AcDbBlockBegin
2
*Model_Space
70
0
10
0
20
0
30
0
3
*Model_Space
0
ENDBLK
5
21
100
AcDbEntity
8
0
100
AcDbBlockEnd
0
BLOCK
5
1C
100
AcDbEntity
8
0
100
AcDbBlockBegin
2
*Paper_Space
70
0
10
0
20
0
30
0
3
*Paper_Space
0
ENDBLK
5
1D
100
AcDbEntity
8
0
100
AcDbBlockEnd
0
BLOCK
5
24
100
AcDbEntity
8
0
100
AcDbBlockBegin
2
*Paper_Space0
70
0
10
0
20
0
30
0
3
*Paper_Space0
0
ENDBLK
5
25
100
AcDbEntity
8
0
100
AcDbBlockEnd
0
BLOCK
5
FE
100
AcDbEntity
8
0
100
AcDbBlockBegin
2
DimnDraft3D1
70
0
10
0
20
0
30
0
3
DimnDraft3D1
0
MTEXT
5
F8
100
AcDbEntity
8
SK2
62
256
6
ByLayer
370
13
48
1
60
0
100
AcDbMText
10
25.686375
20
-13.688398
30
0
210
0
220
0
230
1
1
\W0.6563;61,51
40
3.5
41
0
44
1.084337
50
0
71
7
72
5
7
iso_b_vert
0
LINE
5
F9
100
AcDbEntity
8
SK2
62
256
6
ByLayer
370
13
48
1
60
0
100
AcDbLine
10
0
20
-1.5875
30
0
11
0
21
-16.563398
31
0
39
0
210
0
220
0
230
1
0
LINE
5
FA
100
AcDbEntity
8
SK2
62
256
6
ByLayer
370
13
48
1
60
0
100
AcDbLine
10
61.51
20
-5.9375
30
0
11
61.51
21
-16.563398
31
0
39
0
210
0
220
0
230
1
0
LINE
5
FB
100
AcDbEntity
8
SK2
62
256
6
ByLayer
370
13
48
1
60
0
100
AcDbLine
10
0
20
-14.563398
30
0
11
61.51
21
-14.563398
31
0
39
0
210
0
220
0
230
1
0
SOLID
5
FC
100
AcDbEntity
8
SK2
62
256
6
ByLayer
370
13
48
1
60
0
100
AcDbTrace
10
0
20
-14.563398
30
0
11
3.499998
21
-14.102615
31
0
12
3.500002
22
-15.024182
32
0
13
0
23
-14.563398
33
0
39
0
210
0
220
0
230
1
0
SOLID
5
FD
100
AcDbEntity
8
SK2
62
256
6
ByLayer
370
13
48
1
60
0
100
AcDbTrace
10
61.51
20
-14.563398
30
0
11
58.010002
21
-15.024182
31
0
12
58.009998
22
-14.102615
32
0
13
61.51
23
-14.563398
33
0
39
0
210
0
220
0
230
1
0
ENDBLK
5
FF
100
AcDbEntity
8
0
100
AcDbBlockEnd
0
BLOCK
5
108
100
AcDbEntity
8
0
100
AcDbBlockBegin
2
DimnDraft3D2
70
0
10
0
20
0
30
0
3
DimnDraft3D2
0
MTEXT
5
102
100
AcDbEntity
8
SK2
62
256
6
ByLayer
370
13
48
1
60
0
100
AcDbMText
10
6.032221
20
-32.817985
30
0
210
0
220
0
230
1
1
\W0.6930;103,00
40
3.5
41
0
44
1.084337
50
0
71
7
72
5
7
iso_b_vert
0
LINE
5
103
100
AcDbEntity
8
SK2
62
256
6
ByLayer
370
13
48
1
60
0
100
AcDbLine
10
-40
20
-6.5875
30
0
11
-40
21
-35.692985
31
0
39
0
210
0
220
0
230
1
0
LINE
5
104
100
AcDbEntity
8
SK2
62
256
6
ByLayer
370
13
48
1
60
0
100
AcDbLine
10
63
20
-1.5875
30
0
11
63
21
-35.692985
31
0
39
0
210
0
220
0
230
1
0
LINE
5
105
100
AcDbEntity
8
SK2
62
256
6
ByLayer
370
13
48
1
60
0
100
AcDbLine
10
-40
20
-33.692985
30
0
11
63
21
-33.692985
31
0
39
0
210
0
220
0
230
1
0
SOLID
5
106
100
AcDbEntity
8
SK2
62
256
6
ByLayer
370
13
48
1
60
0
100
AcDbTrace
10
-40
20
-33.692985
30
0
11
-36.500002
21
-33.232202
31
0
12
-36.499998
22
-34.153769
32
0
13
-40
23
-33.692985
33
0
39
0
210
0
220
0
230
1
0
SOLID
5
107
100
AcDbEntity
8
SK2
62
256
6
ByLayer
370
13
48
1
60
0
100
AcDbTrace
10
63
20
-33.692985
30
0
11
59.500002
21
-34.153769
31
0
12
59.499998
22
-33.232202
32
0
13
63
23
-33.692985
33
0
39
0
210
0
220
0
230
1
0
ENDBLK
5
109
100
AcDbEntity
8
0
100
AcDbBlockEnd
0
BLOCK
5
112
100
AcDbEntity
8
0
100
AcDbBlockBegin
2
DimnDraft3D3
70
0
10
0
20
0
30
0
3
DimnDraft3D3
0
MTEXT
5
10C
100
AcDbEntity
8
SK2
62
256
6
ByLayer
370
13
48
1
60
0
100
AcDbMText
10
35.687895
20
16.834119
30
0
210
0
220
0
230
1
1
\W0.7936;44,99
40
3.5
41
0
44
1.084337
50
0
71
7
72
5
7
iso_b_vert
0
LINE
5
10D
100
AcDbEntity
8
SK2
62
256
6
ByLayer
370
13
48
1
60
0
100
AcDbLine
10
18.01
20
5.9375
30
0
11
18.01
21
17.959119
31
0
39
0
210
0
220
0
230
1
0
LINE
5
10E
100
AcDbEntity
8
SK2
62
256
6
ByLayer
370
13
48
1
60
0
100
AcDbLine
10
63
20
1.5875
30
0
11
63
21
17.959119
31
0
39
0
210
0
220
0
230
1
0
LINE
5
10F
100
AcDbEntity
8
SK2
62
256
6
ByLayer
370
13
48
1
60
0
100
AcDbLine
10
18.01
20
15.959119
30
0
11
63
21
15.959119
31
0
39
0
210
0
220
0
230
1
0
SOLID
5
110
100
AcDbEntity
8
SK2
62
256
6
ByLayer
370
13
48
1
60
0
100
AcDbTrace
10
18.01
20
15.959119
30
0
11
21.509998
21
16.419903
31
0
12
21.510002
22
15.498335
32
0
13
18.01
23
15.959119
33
0
39
0
210
0
220
0
230
1
0
SOLID
5
111
100
AcDbEntity
8
SK2
62
256
6
ByLayer
370
13
48
1
60
0
100
AcDbTrace
10
63
20
15.959119
30
0
11
59.500002
21
15.498335
31
0
12
59.499998
22
16.419903
32
0
13
63
23
15.959119
33
0
39
0
210
0
220
0
230
1
0
ENDBLK
5
113
100
AcDbEntity
8
0
100
AcDbBlockEnd
0
BLOCK
5
11C
100
AcDbEntity
8
0
100
AcDbBlockBegin
2
DimnDraft3D4
70
0
10
0
20
0
30
0
3
DimnDraft3D4
0
MTEXT
5
116
100
AcDbEntity
8
SK2
62
256
6
ByLayer
370
13
48
1
60
0
100
AcDbMText
10
70.093925
20
-16.277503
30
0
210
0
220
0
230
1
1
\W0.6811;1,49
40
3.5
41
0
44
1.084337
50
0
71
7
72
5
7
iso_b_vert
0
LINE
5
117
100
AcDbEntity
8
SK2
62
256
6
ByLayer
370
13
48
1
60
0
100
AcDbLine
10
63
20
-1.5875
30
0
11
63
21
-19.152503
31
0
39
0
210
0
220
0
230
1
0
LINE
5
118
100
AcDbEntity
8
SK2
62
256
6
ByLayer
370
13
48
1
60
0
100
AcDbLine
10
61.51
20
-5.9375
30
0
11
61.51
21
-19.152503
31
0
39
0
210
0
220
0
230
1
0
LINE
5
119
100
AcDbEntity
8
SK2
62
256
6
ByLayer
370
13
48
1
60
0
100
AcDbLine
10
52.76
20
-17.152503
30
0
11
76.743925
21
-17.152503
31
0
39
0
210
0
220
0
230
1
0
SOLID
5
11A
100
AcDbEntity
8
SK2
62
256
6
ByLayer
370
13
48
1
60
0
100
AcDbTrace
10
63
20
-17.152503
30
0
11
66.499998
21
-16.691719
31
0
12
66.500002
22
-17.613287
32
0
13
63
23
-17.152503
33
0
39
0
210
0
220
0
230
1
0
SOLID
5
11B
100
AcDbEntity
8
SK2
62
256
6
ByLayer
370
13
48
1
60
0
100
AcDbTrace
10
61.51
20
-17.152503
30
0
11
58.010002
21
-17.613287
31
0
12
58.009998
22
-16.691719
32
0
13
61.51
23
-17.152503
33
0
39
0
210
0
220
0
230
1
0
ENDBLK
5
11D
100
AcDbEntity
8
0
100
AcDbBlockEnd
0
BLOCK
5
126
100
AcDbEntity
8
0
100
AcDbBlockBegin
2
DimnDraft3D5
70
0
10
0
20
0
30
0
3
DimnDraft3D5
0
MTEXT
5
120
100
AcDbEntity
8
SK2
62
256
6
ByLayer
370
13
48
1
60
0
100
AcDbMText
10
3.826597
20
-22.468428
30
0
210
0
220
0
230
1
1
\W0.6303;101,51
40
3.5
41
0
44
1.084337
50
0
71
7
72
5
7
iso_b_vert
0
LINE
5
121
100
AcDbEntity
8
SK2
62
256
6
ByLayer
370
13
48
1
60
0
100
AcDbLine
10
-40
20
-6.5875
30
0
11
-40
21
-25.343428
31
0
39
0
210
0
220
0
230
1
0
LINE
5
122
100
AcDbEntity
8
SK2
62
256
6
ByLayer
370
13
48
1
60
0
100
AcDbLine
10
61.51
20
-5.9375
30
0
11
61.51
21
-25.343428
31
0
39
0
210
0
220
0
230
1
0
LINE
5
123
100
AcDbEntity
8
SK2
62
256
6
ByLayer
370
13
48
1
60
0
100
AcDbLine
10
-40
20
-23.343428
30
0
11
61.51
21
-23.343428
31
0
39
0
210
0
220
0
230
1
0
SOLID
5
124
100
AcDbEntity
8
SK2
62
256
6
ByLayer
370
13
48
1
60
0
100
AcDbTrace
10
-40
20
-23.343428
30
0
11
-36.500002
21
-22.882645
31
0
12
-36.499998
22
-23.804212
32
0
13
-40
23
-23.343428
33
0
39
0
210
0
220
0
230
1
0
SOLID
5
125
100
AcDbEntity
8
SK2
62
256
6
ByLayer
370
13
48
1
60
0
100
AcDbTrace
10
61.51
20
-23.343428
30
0
11
58.010002
21
-23.804212
31
0
12
58.009998
22
-22.882645
32
0
13
61.51
23
-23.343428
33
0
39
0
210
0
220
0
230
1
0
ENDBLK
5
127
100
AcDbEntity
8
0
100
AcDbBlockEnd
0
BLOCK
5
131
100
AcDbEntity
8
0
100
AcDbBlockBegin
2
DimnDraft3D6
70
0
10
0
20
0
30
0
3
DimnDraft3D6
0
MTEXT
5
12A
100
AcDbEntity
8
SK2
62
256
6
ByLayer
370
13
48
1
60
0
100
AcDbMText
10
-50.375163
20
24.34918
30
0
210
0
220
0
230
1
1
\W0.6930;10,000
40
3.5
41
0
44
1.084337
50
90
71
7
72
5
7
iso_b_vert
0
MTEXT
5
12B
100
AcDbEntity
8
SK2
62
256
6
ByLayer
370
13
48
1
60
0
100
AcDbMText
10
-50.375163
20
19.126524
30
0
210
0
220
0
230
1
1
%%c
40
3.5
41
0
44
1.084337
50
90
71
7
72
5
7
iso_b_vert
0
LINE
5
12C
100
AcDbEntity
8
SK2
62
256
6
ByLayer
370
13
48
1
60
0
100
AcDbLine
10
-41.5875
20
-5
30
0
11
-50.625163
21
-5
31
0
39
0
210
0
220
0
230
1
0
LINE
5
12D
100
AcDbEntity
8
SK2
62
256
6
ByLayer
370
13
48
1
60
0
100
AcDbLine
10
-41.5875
20
5
30
0
11
-50.625163
21
5
31
0
39
0
210
0
220
0
230
1
0
LINE
5
12E
100
AcDbEntity
8
SK2
62
256
6
ByLayer
370
13
48
1
60
0
100
AcDbLine
10
-48.625163
20
-5
30
0
11
-48.625163
21
35.862338
31
0
39
0
210
0
220
0
230
1
0
SOLID
5
12F
100
AcDbEntity
8
SK2
62
256
6
ByLayer
370
13
48
1
60
0
100
AcDbTrace
10
-48.625163
20
-5
30
0
11
-49.085946
21
-1.500002
31
0
12
-48.164379
22
-1.499998
32
0
13
-48.625163
23
-5
33
0
39
0
210
0
220
0
230
1
0
SOLID
5
130
100
AcDbEntity
8
SK2
62
256
6
ByLayer
370
13
48
1
60
0
100
AcDbTrace
10
-48.625163
20
5
30
0
11
-48.164379
21
1.500002
31
0
12
-49.085946
22
1.499998
32
0
13
-48.625163
23
5
33
0
39
0
210
0
220
0
230
1
0
ENDBLK
5
132
100
AcDbEntity
8
0
100
AcDbBlockEnd
0
BLOCK
5
13C
100
AcDbEntity
8
0
100
AcDbBlockBegin
2
DimnDraft3D7
70
0
10
0
20
0
30
0
3
DimnDraft3D7
0
MTEXT
5
135
100
AcDbEntity
8
2
62
256
6
ByLayer
370
13
48
1
60
0
100
AcDbMText
10
73.333343
20
22.292266
30
0
210
0
220
0
230
1
1
\W0.7317;8,700
40
3.5
41
0
44
1.084337
50
90
71
7
72
5
7
iso_b_vert
0
MTEXT
5
136
100
AcDbEntity
8
2
62
256
6
ByLayer
370
13
48
1
60
0
100
AcDbMText
10
73.333343
20
17.06961
30
0
210
0
220
0
230
1
1
%%c
40
3.5
41
0
44
1.084337
50
90
71
7
72
5
7
iso_b_vert
0
LINE
5
137
100
AcDbEntity
8
2
62
256
6
ByLayer
370
13
48
1
60
0
100
AcDbLine
10
63.0975
20
-4.35
30
0
11
77.083343
21
-4.35
31
0
39
0
210
0
220
0
230
1
0
LINE
5
138
100
AcDbEntity
8
2
62
256
6
ByLayer
370
13
48
1
60
0
100
AcDbLine
10
63.0975
20
4.35
30
0
11
77.083343
21
4.35
31
0
39
0
210
0
220
0
230
1
0
LINE
5
139
100
AcDbEntity
8
2
62
256
6
ByLayer
370
13
48
1
60
0
100
AcDbLine
10
75.083343
20
-4.35
30
0
11
75.083343
21
32.064635
31
0
39
0
210
0
220
0
230
1
0
SOLID
5
13A
100
AcDbEntity
8
2
62
256
6
ByLayer
370
13
48
1
60
0
100
AcDbTrace
10
75.083343
20
-4.35
30
0
11
74.622559
21
-0.850002
31
0
12
75.544126
22
-0.849998
32
0
13
75.083343
23
-4.35
33
0
39
0
210
0
220
0
230
1
0
SOLID
5
13B
100
AcDbEntity
8
2
62
256
6
ByLayer
370
13
48
1
60
0
100
AcDbTrace
10
75.083343
20
4.35
30
0
11
75.544126
21
0.850002
31
0
12
74.622559
22
0.849998
32
0
13
75.083343
23
4.35
33
0
39
0
210
0
220
0
230
1
0
ENDBLK
5
13D
100
AcDbEntity
8
0
100
AcDbBlockEnd
0
ENDSEC
0
SECTION
2
ENTITIES
0
ARC
5
A1
100
AcDbEntity
8
1
62
256
6
ByLayer
370
18
48
1
60
0
100
AcDbCircle
39
0
10
0
20
4.2
30
0
40
0.800000000000002
210
0
220
0
230
1
100
AcDbArc
50
34.830755
51
90
0
ARC
5
A2
100
AcDbEntity
8
1
62
256
6
ByLayer
370
18
48
1
60
0
100
AcDbCircle
39
0
10
-1.313348
20
-5.113847
30
0
40
0.799999999999999
210
0
220
0
230
-1
100
AcDbArc
50
34.830755
51
90.034377
0
ARC
5
A3
100
AcDbEntity
8
1
62
256
6
ByLayer
370
18
48
1
60
0
100
AcDbCircle
39
0
10
0
20
-4.2
30
0
40
0.800000000000002
210
0
220
0
230
1
100
AcDbArc
50
270
51
325.169245
0
ARC
5
A4
100
AcDbEntity
8
1
62
256
6
ByLayer
370
18
48
1
60
0
100
AcDbCircle
39
0
10
-1.313348
20
5.113847
30
0
40
0.799999999999999
210
0
220
0
230
-1
100
AcDbArc
50
269.965623
51
325.169245
0
ELLIPSE
5
A5
100
AcDbEntity
8
1
62
256
6
ByLayer
370
18
48
1
60
0
100
AcDbEllipse
10
62.86016
20
0.124065
30
0
11
0.0727819104935467
21
0.301917195711269
31
0
210
0
220
0
230
-1
40
0.478434
41
1.72767401358268
42
2.45976119972666
0
ELLIPSE
5
A6
100
AcDbEntity
8
1
62
256
6
ByLayer
370
13
48
1
60
0
100
AcDbEllipse
10
62.608098
20
2.123831
30
0
11
2.51544140392411
21
-1.3315244314984
31
0
210
0
220
0
230
-1
40
0.497324
41
1.53962124161025
42
1.86446013201488
0
ELLIPSE
5
A7
100
AcDbEntity
8
1
62
256
6
ByLayer
370
18
48
1
60
0
100
AcDbEllipse
10
62.167636
20
2.123831
30
0
11
0.671949183574677
21
-1.82579738502801
31
0
210
0
220
0
230
-1
40
0.098637
41
-1.53770172795173
42
-0.749112684719228
0
ELLIPSE
5
A8
100
AcDbEntity
8
1
62
256
6
ByLayer
370
13
48
1
60
0
100
AcDbEllipse
10
4.250209
20
-2.914224
30
0
11
0.0358449924296874
21
0.0933548955208866
31
0
210
0
220
0
230
1
40
0.322894
41
0.868600515257474
42
2.42145886858001
0
ELLIPSE
5
A9
100
AcDbEntity
8
1
62
256
6
ByLayer
370
18
48
1
60
0
100
AcDbEllipse
10
62.167636
20
-2.123831
30
0
11
0.671949183574527
21
1.82579738502762
31
0
210
0
220
0
230
-1
40
0.098637
41
0.749112684718862
42
1.53770172795163
0
ELLIPSE
5
AA
100
AcDbEntity
8
1
62
256
6
ByLayer
370
13
48
1
60
0
100
AcDbEllipse
10
62.024627
20
0.619814
30
0
11
0.153082081612418
21
0.258003636193773
31
0
210
0
220
0
230
1
40
0.454519
41
0.917105603404792
42
2.31336900500028
0
ELLIPSE
5
AB
100
AcDbEntity
8
1
62
256
6
ByLayer
370
18
48
1
60
0
100
AcDbEllipse
10
63.000378
20
-0.00095
30
0
11
1.60019491000971
21
-4.34799497162637
31
0
210
0
220
0
230
-1
40
0.098637
41
-2.97628513905103
42
-2.87598027571138
0
ELLIPSE
5
AC
100
AcDbEntity
8
1
62
256
6
ByLayer
370
18
48
1
60
0
100
AcDbEllipse
10
63.000378
20
0.00095
30
0
11
1.60019490541002
21
4.347994958232
31
0
210
0
220
0
230
-1
40
0.098637
41
2.87598027529966
42
2.97628513879625
0
ELLIPSE
5
AD
100
AcDbEntity
8
1
62
256
6
ByLayer
370
18
48
1
60
0
100
AcDbEllipse
10
63.034318
20
0.020732
30
0
11
0.140634104905733
21
-0.431000092518707
31
0
210
0
220
0
230
-1
40
0.07518
41
1.64583809343787
42
2.31001430904466
0
ELLIPSE
5
AE
100
AcDbEntity
8
1
62
256
6
ByLayer
370
13
48
1
60
0
100
AcDbEllipse
10
4.179521
20
-2.899349
30
0
11
0.0015243871610763
21
0.099988380543857
31
0
210
0
220
0
230
1
40
0.597328
41
0.930541588208253
42
2.26208612623098
0
ELLIPSE
5
AF
100
AcDbEntity
8
1
62
256
6
ByLayer
370
18
48
1
60
0
100
AcDbEllipse
10
63.034318
20
-0.020732
30
0
11
0.140634104910272
21
0.431000092530023
31
0
210
0
220
0
230
-1
40
0.07518
41
-2.31001430905669
42
-1.64583809346348
0
ELLIPSE
5
B0
100
AcDbEntity
8
1
62
256
6
ByLayer
370
13
48
1
60
0
100
AcDbEllipse
10
62.418191
20
2.000633
30
0
11
2.44148667093151
21
-1.68103299994629
31
0
210
0
220
0
230
-1
40
0.533762
41
1.44484622741985
42
1.73988852881361
0
ELLIPSE
5
B1
100
AcDbEntity
8
SK1
62
256
6
ByLayer
370
18
48
1
60
0
100
AcDbEllipse
10
-29.337425
20
0
30
0
11
4.00831715927095
21
-4.53527403456118
31
0
210
0
220
0
230
-1
40
0.525174
41
2.0771584252262
42
3.13371528102883
0
ELLIPSE
5
B2
100
AcDbEntity
8
SK1
62
256
6
ByLayer
370
18
48
1
60
0
100
AcDbEllipse
10
80.226886
20
0
30
0
11
143.18124327208
21
-2.82588485054981
31
0
210
0
220
0
230
-1
40
0.028809
41
2.29163479857443
42
2.47697289974212
0
ELLIPSE
5
B3
100
AcDbEntity
8
SK1
62
256
6
ByLayer
370
18
48
1
60
0
100
AcDbEllipse
10
80.226886
20
0
30
0
11
143.181243266443
21
-2.82588485038513
31
0
210
0
220
0
230
-1
40
0.028809
41
-2.47811005599964
42
-2.29277195482722
0
ELLIPSE
5
B4
100
AcDbEntity
8
SK1
62
256
6
ByLayer
370
18
48
1
60
0
100
AcDbEllipse
10
-17.361844
20
0
30
0
11
4.86348596605069
21
4.29839390145699
31
0
210
0
220
0
230
-1
40
0.525174
41
-0.325533364174379
42
1.19465606325557
0
POINT
5
6C
100
AcDbEntity
8
81
62
256
6
ByLayer
370
18
48
1
60
0
100
AcDbPoint
10
63
20
0
30
0
39
0
210
0
220
0
230
1
50
360
0
POINT
5
6E
100
AcDbEntity
8
80
62
256
6
ByLayer
370
18
48
1
60
0
100
AcDbPoint
10
0
20
0
30
0
39
0
210
0
220
0
230
1
50
360
0
POINT
5
70
100
AcDbEntity
8
SK2
62
256
6
ByLayer
370
18
48
1
60
1
100
AcDbPoint
10
-40
20
-5
30
0
39
0
210
0
220
0
230
1
50
360
0
POINT
5
72
100
AcDbEntity
8
SK2
62
256
6
ByLayer
370
18
48
1
60
1
100
AcDbPoint
10
-40
20
5
30
0
39
0
210
0
220
0
230
1
50
360
0
POINT
5
73
100
AcDbEntity
8
2
62
256
6
ByLayer
370
18
48
1
60
1
100
AcDbPoint
10
61.51
20
-4.35
30
0
39
0
210
0
220
0
230
1
50
360
0
POINT
5
75
100
AcDbEntity
8
2
62
256
6
ByLayer
370
18
48
1
60
1
100
AcDbPoint
10
61.51
20
4.35
30
0
39
0
210
0
220
0
230
1
50
360
0
SPLINE
5
B5
100
AcDbEntity
8
1
62
256
6
ByLayer
370
18
48
1
60
0
100
AcDbSpline
70
4
71
1
72
4
73
2
40
0
40
0
40
1
40
1
41
1
10
47.9644245672384
20
0.0004534798194413
30
0
41
1
10
47.9644094994901
20
0.0004590189678595
30
0
0
SPLINE
5
B6
100
AcDbEntity
8
1
62
256
6
ByLayer
370
18
48
1
60
0
100
AcDbSpline
70
4
71
3
72
29
73
25
40
0
40
0
40
0
40
0
40
0.0489670728606366
40
0.0892907990831094
40
0.123569112522486
40
0.15169489421417
40
0.179622499498638
40
0.212442610431257
40
0.248898483852605
40
0.285836272780567
40
0.362527134798642
40
0.431375236024802
40
0.503503257800309
40
0.547883058564486
40
0.583751145678486
40
0.62955663929396
40
0.67874398027234
40
0.713420059547142
40
0.742641172157145
40
0.778553814985823
40
0.823841856318185
40
0.884202038134575
40
0.960167293166046
40
1
40
1
40
1
40
1
41
1
10
10.6106235626936
20
-4.12059629623707
30
0
41
1
10
10.8071595650447
20
-4.11969366176862
30
0
41
1
10
11.1672567920305
20
-4.11884223927467
30
0
41
1
10
11.6837632139452
20
-4.12052176732041
30
0
41
1
10
12.0948802398958
20
-4.12199896051217
30
0
41
1
10
12.4700976465506
20
-4.12193846803731
30
0
41
1
10
12.8370569215699
20
-4.12238592137953
30
0
41
1
10
13.2391254398782
20
-4.12277030635175
30
0
41
1
10
13.6782538354442
20
-4.12297381963447
30
0
41
1
10
14.2988450047934
20
-4.12353403836275
30
0
41
1
10
15.053279242801
20
-4.12432670963389
30
0
41
1
10
15.9532701537032
20
-4.12453425183924
30
0
41
1
10
16.7196860427386
20
-4.12582608573388
30
0
41
1
10
17.3496772425463
20
-4.12514242762444
30
0
41
1
10
17.8710413970596
20
-4.12657139454384
30
0
41
1
10
18.4113859467711
20
-4.12733182607323
30
0
41
1
10
18.9481940810778
20
-4.12585041868982
30
0
41
1
10
19.4136318296974
20
-4.12666936996143
30
0
41
1
10
19.8269683046557
20
-4.12854443119218
30
0
41
1
10
20.2815703908075
20
-4.12813904577655
30
0
41
1
10
20.8636178632147
20
-4.12553815326396
30
0
41
1
10
21.6159565351479
20
-4.12917059792056
30
0
41
1
10
22.3433734689803
20
-4.12770201413872
30
0
41
1
10
22.8215798710658
20
-4.12885655802961
30
0
41
1
10
22.9860173351659
20
-4.129274523216
30
0
0
SPLINE
5
B7
100
AcDbEntity
8
1
62
256
6
ByLayer
370
18
48
1
60
0
100
AcDbSpline
70
4
71
3
72
13
73
9
40
0
40
0
40
0
40
0
40
0.0414181272023945
40
0.245864436015935
40
0.366881686944334
40
0.50986532598072
40
0.714553544341097
40
1
40
1
40
1
40
1
41
1
10
49.3149771595233
20
-1.12815094734137
30
0
41
1
10
49.3146524583838
20
-1.12803267208807
30
0
41
1
10
49.3137572311339
20
-1.12780099966341
30
0
41
1
10
49.3241351645445
20
-1.13267546746411
30
0
41
1
10
49.3786140464256
20
-1.15879466659285
30
0
41
1
10
49.4570321201966
20
-1.1973386365907
30
0
41
1
10
49.5758341275054
20
-1.25732022043692
30
0
41
1
10
49.6718157331192
20
-1.30681466807758
30
0
41
1
10
49.7300769667296
20
-1.33723447831628
30
0
0
SPLINE
5
B8
100
AcDbEntity
8
1
62
256
6
ByLayer
370
18
48
1
60
0
100
AcDbSpline
70
4
71
3
72
13
73
9
40
0
40
0
40
0
40
0
40
0.146118099233099
40
0.415326643642537
40
0.65880669421598
40
0.718137792614315
40
0.799336260006811
40
1
40
1
40
1
40
1
41
1
10
24.3140245353782
20
-1.12876977997402
30
0
41
1
10
24.313410174044
20
-1.12859620044355
30
0
41
1
10
24.3229810129436
20
-1.1328988322017
30
0
41
1
10
24.4184766697733
20
-1.1768846259865
30
0
41
1
10
24.4054265921411
20
-1.17046222785697
30
0
41
1
10
24.4301925339834
20
-1.18273720709044
30
0
41
1
10
24.4819306191188
20
-1.20862752421385
30
0
41
1
10
24.5329679240241
20
-1.23501386191648
30
0
41
1
10
24.578151317898
20
-1.25857980029809
30
0
0
SPLINE
5
B9
100
AcDbEntity
8
1
62
256
6
ByLayer
370
18
48
1
60
0
100
AcDbSpline
70
4
71
2
72
6
73
3
40
0
40
0
40
0
40
1
40
1
40
1
41
1
10
60.6814831153134
20
-4.15060750708381
30
0
41
1
10
61.085115212952
20
-4.14876878737948
30
0
41
1
10
61.4885601920324
20
-4.15237200799786
30
0
0
SPLINE
5
BA
100
AcDbEntity
8
1
62
256
6
ByLayer
370
18
48
1
60
0
100
AcDbSpline
70
4
71
3
72
29
73
25
40
0
40
0
40
0
40
0
40
0.0813091400731701
40
0.149503144649661
40
0.204677235731885
40
0.248511838195582
40
0.283736616735765
40
0.311653327850886
40
0.345742673269614
40
0.389943246933336
40
0.418120574008322
40
0.436279864843354
40
0.453735537088306
40
0.478662417824187
40
0.511063134109219
40
0.595779172872912
40
0.670207955319446
40
0.742779184699119
40
0.853543718974756
40
0.872645594232986
40
0.892171869618075
40
0.918507920837858
40
0.955041970508574
40
1
40
1
40
1
40
1
41
1
10
35.6129404465683
20
-4.13564566934545
30
0
41
1
10
35.9455826549953
20
-4.13568024509385
30
0
41
1
10
36.5578834028323
20
-4.13578354386908
30
0
41
1
10
37.3962108569217
20
-4.13528999237599
30
0
41
1
10
38.0846005291825
20
-4.13604038888298
30
0
41
1
10
38.6286987198746
20
-4.13726201661041
30
0
41
1
10
39.068620331903
20
-4.13792879507406
30
0
41
1
10
39.4657661958365
20
-4.13807589914632
30
0
41
1
10
39.9020179838064
20
-4.1378390802962
30
0
41
1
10
40.3383552188442
20
-4.13774811698749
30
0
41
1
10
40.7095370037657
20
-4.13863331374506
30
0
41
1
10
40.9712867418682
20
-4.13891938077325
30
0
41
1
10
41.2197413313552
20
-4.13897894156275
30
0
41
1
10
41.5266285441112
20
-4.13887480243812
30
0
41
1
10
42.1095358674638
20
-4.13874568884845
30
0
41
1
10
42.8955819410332
20
-4.14055664609208
30
0
41
1
10
43.8464769296005
20
-4.13932102336344
30
0
41
1
10
44.9042732098852
20
-4.14130873499624
30
0
41
1
10
45.7350139383487
20
-4.14139938556431
30
0
41
1
10
46.3480758027993
20
-4.14234264218115
30
0
41
1
10
46.6146505541747
20
-4.14223966359589
30
0
41
1
10
46.9527917870242
20
-4.14181696804829
30
0
41
1
10
47.3952756359279
20
-4.14124318281478
30
0
41
1
10
47.7296975829428
20
-4.14175367513303
30
0
41
1
10
47.9141933988922
20
-4.14223180938617
30
0
0
SPLINE
5
BB
100
AcDbEntity
8
1
62
256
6
ByLayer
370
18
48
1
60
0
100
AcDbSpline
70
4
71
3
72
26
73
22
40
0
40
0
40
0
40
0
40
0.0235853720879361
40
0.0869248768300776
40
0.137278040783194
40
0.176251327188472
40
0.214533558076417
40
0.262282222467093
40
0.341284867075137
40
0.41897085121305
40
0.512262228566763
40
0.596994287364407
40
0.660890980819285
40
0.713440671244496
40
0.778356001016521
40
0.816816043642484
40
0.849937373612896
40
0.87513992085723
40
0.903319001892502
40
0.951025934256207
40
1
40
1
40
1
40
1
41
1
10
48.0622401313248
20
4.14112386637311
30
0
41
1
10
47.982259349129
20
4.14095317969768
30
0
41
1
10
47.687430653849
20
4.14049027677314
30
0
41
1
10
47.2125095308735
20
4.14051293655169
30
0
41
1
10
46.7018019839649
20
4.14237110296949
30
0
41
1
10
46.2623112399132
20
4.14226638568584
30
0
41
1
10
45.8352172933567
20
4.14132034774821
30
0
41
1
10
45.269307948499
20
4.14013394079936
30
0
41
1
10
44.568949915691
20
4.14147401921772
30
0
41
1
10
43.712294512408
20
4.13897964408631
30
0
41
1
10
42.8360820461435
20
4.14070967606369
30
0
41
1
10
42.0070981278261
20
4.13852063192221
30
0
41
1
10
41.3177265381773
20
4.13909646653988
30
0
41
1
10
40.6962605545126
20
4.1386754263292
30
0
41
1
10
40.1619544805071
20
4.13775494168038
30
0
41
1
10
39.6942329551695
20
4.13817046392589
30
0
41
1
10
39.3625884666087
20
4.13808805597512
30
0
41
1
10
39.0661642190802
20
4.13788504147931
30
0
41
1
10
38.7198031880718
20
4.13731778948795
30
0
41
1
10
38.292110438385
20
4.13707937842076
30
0
41
1
10
37.960866094034
20
4.13699192070465
30
0
41
1
10
37.7930585038427
20
4.13692435318663
30
0
0
SPLINE
5
BC
100
AcDbEntity
8
1
62
256
6
ByLayer
370
18
48
1
60
0
100
AcDbSpline
70
4
71
3
72
27
73
23
40
0
40
0
40
0
40
0
40
0.0028236903438324
40
0.0453548333704109
40
0.0894016500111449
40
0.135964211473418
40
0.222070230524338
40
0.293700433471398
40
0.344483317152268
40
0.399661513327364
40
0.471553056255416
40
0.530934445646567
40
0.597553226841891
40
0.68119338521684
40
0.752731514508694
40
0.813918666092154
40
0.885276039997221
40
0.914856731979618
40
0.94273493268438
40
0.968907327829609
40
0.996478359590564
40
1
40
1
40
1
40
1
41
1
10
23.2548698082774
20
4.12609768237658
30
0
41
1
10
23.245913234367
20
4.12599617330193
30
0
41
1
10
23.1016312841592
20
4.12432544691029
30
0
41
1
10
22.7923978741341
20
4.11593676201008
30
0
41
1
10
22.3291870559227
20
4.11140272470476
30
0
41
1
10
21.7052013732143
20
4.11478607939591
30
0
41
1
10
21.0073907075449
20
4.12436462186702
30
0
41
1
10
20.2900418808431
20
4.12851170858639
30
0
41
1
10
19.6671994105444
20
4.12802302317451
30
0
41
1
10
19.0428086131549
20
4.12560368692354
30
0
41
1
10
18.3883933054092
20
4.12776474053987
30
0
41
1
10
17.693775300903
20
4.1257596254215
30
0
41
1
10
16.9579215693737
20
4.12532190206122
30
0
41
1
10
16.1794258162723
20
4.12546898664095
30
0
41
1
10
15.4199921006762
20
4.12397414559319
30
0
41
1
10
14.7036628919473
20
4.12446074416189
30
0
41
1
10
14.1346011474164
20
4.12327098753613
30
0
41
1
10
13.6824566749718
20
4.12300841321382
30
0
41
1
10
13.3889003312618
20
4.12285368000337
30
0
41
1
10
13.1024182352419
20
4.12263566751813
30
0
41
1
10
12.9013873153167
20
4.12243687092368
30
0
41
1
10
12.7922796647045
20
4.12233512798574
30
0
41
1
10
12.779922402237
20
4.12232366924823
30
0
0
SPLINE
5
BD
100
AcDbEntity
8
1
62
256
6
ByLayer
370
18
48
1
60
0
100
AcDbSpline
70
4
71
3
72
16
73
12
40
0
40
0
40
0
40
0
40
0.0138110638881708
40
0.0138110638881708
40
0.188633520447342
40
0.188633520447342
40
0.538278433565684
40
0.538278433565684
40
0.887923346684027
40
0.887923346684027
40
1
40
1
40
1
40
1
41
1
10
35.6892357094753
20
-4.13569353465493
30
0
41
1
10
35.6655327506134
20
-4.13569665273783
30
0
41
1
10
35.6418224267592
20
-4.13564474864216
30
0
41
1
10
35.3178797992257
20
-4.13418304913833
30
0
41
1
10
35.0168344057359
20
-4.12395368601887
30
0
41
1
10
34.1163286236165
20
-4.06700326108432
30
0
41
1
10
33.516985078429
20
-3.99405233865463
30
0
41
1
10
32.3139619257676
20
-3.78067645100518
30
0
41
1
10
31.7139263797804
20
-3.64094995425015
30
0
41
1
10
30.9203202266831
20
-3.41681510698297
30
0
41
1
10
30.7274099861193
20
-3.35926706911744
30
0
41
1
10
30.5348154055397
20
-3.29893648514886
30
0
0
SPLINE
5
BE
100
AcDbEntity
8
1
62
256
6
ByLayer
370
13
48
1
60
0
100
AcDbSpline
70
4
71
3
72
24
73
20
40
0
40
0
40
0
40
0
40
0.0276041243549123
40
0.0276041243549123
40
0.104514779476499
40
0.104514779476499
40
0.412157399962848
40
0.412157399962848
40
0.489068055084436
40
0.489068055084436
40
0.565978710206023
40
0.565978710206023
40
0.719800020449197
40
0.719800020449197
40
0.873621330692374
40
0.873621330692374
40
0.950531985813961
40
0.950531985813961
40
1
40
1
40
1
40
1
41
1
10
30.5348154053605
20
-3.2989364850927
30
0
41
1
10
30.4269918641099
20
-3.26516057514849
30
0
41
1
10
30.3192672598253
20
-3.23051253480116
30
0
41
1
10
29.912165944699
20
-3.09626504610352
30
0
41
1
10
29.6136560632482
20
-2.99102753110668
30
0
41
1
10
28.1242972890769
20
-2.4358235378607
30
0
41
1
10
26.9428686405214
20
-1.89903554072879
30
0
41
1
10
25.4481430290053
20
-1.16274703353366
30
0
41
1
10
25.1477497263429
20
-1.01205174574773
30
0
41
1
10
24.5465000714024
20
-0.706970314360262
30
0
41
1
10
24.2471298379061
20
-0.553180511380674
30
0
41
1
10
23.3515299592592
20
-0.0905228495756774
30
0
41
1
10
22.7576766351158
20
0.219361038052256
30
0
41
1
10
21.5703024272811
20
0.830057194916378
30
0
41
1
10
20.9768357709982
20
1.13099700773213
30
0
41
1
10
20.0820899756695
20
1.56627183613503
30
0
41
1
10
19.783113750372
20
1.70873604706105
30
0
41
1
10
19.2899938789594
20
1.93726418697241
30
0
41
1
10
19.0964638987207
20
2.02528049979037
30
0
41
1
10
18.903245803506
20
2.11127429996967
30
0
0
SPLINE
5
BF
100
AcDbEntity
8
1
62
256
6
ByLayer
370
18
48
1
60
0
100
AcDbSpline
70
4
71
3
72
44
73
40
40
0
40
0
40
0
40
0
40
0.0344186890459273
40
0.0344186890459273
40
0.0688373780918546
40
0.0688373780918546
40
0.137674756183709
40
0.137674756183709
40
0.172093445229636
40
0.172093445229636
40
0.206512134275563
40
0.206512134275563
40
0.275349512367416
40
0.275349512367416
40
0.344186890459269
40
0.344186890459269
40
0.378605579505197
40
0.378605579505197
40
0.39581492402816
40
0.39581492402816
40
0.413024268551124
40
0.413024268551124
40
0.550699024734832
40
0.550699024734832
40
0.585117713780758
40
0.585117713780758
40
0.619536402826685
40
0.619536402826685
40
0.688373780918538
40
0.688373780918538
40
0.757211159010392
40
0.757211159010392
40
0.791629848056318
40
0.791629848056318
40
0.826048537102245
40
0.826048537102245
40
0.963723293285956
40
0.963723293285956
40
1
40
1
40
1
40
1
41
1
10
61.4925712381018
20
-4.31374525415771
30
0
41
1
10
61.1921220389286
20
-4.33475927307148
30
0
41
1
10
60.8918635938676
20
-4.34646334895854
30
0
41
1
10
60.2909753499775
20
-4.35128196890869
30
0
41
1
10
59.9900809054122
20
-4.34438011524679
30
0
41
1
10
59.0874971365934
20
-4.29581099670824
30
0
41
1
10
58.4881948822923
20
-4.22649647292667
30
0
41
1
10
57.5878339558396
20
-4.06937675896614
30
0
41
1
10
57.2872379670097
20
-4.0081051211852
30
0
41
1
10
56.6854945203519
20
-3.86855733932086
30
0
41
1
10
56.385920120737
20
-3.79067309310284
30
0
41
1
10
55.4898353448621
20
-3.53432345100791
30
0
41
1
10
54.8959767964045
20
-3.33313033119873
30
0
41
1
10
53.7084134090999
20
-2.87914750283497
30
0
41
1
10
53.1147109066981
20
-2.62637588474945
30
0
41
1
10
52.2194247937686
20
-2.21497838200958
30
0
41
1
10
51.9201719672762
20
-2.07252616953917
30
0
41
1
10
51.4693742687698
20
-1.85182162923397
30
0
41
1
10
51.3186740022309
20
-1.77702351170546
30
0
41
1
10
51.0182947258771
20
-1.62614002636559
30
0
41
1
10
50.8684095719028
20
-1.54995455035339
30
0
41
1
10
49.5217131182773
20
-0.858468330664266
30
0
41
1
10
48.3408424688898
20
-0.202335841392625
30
0
41
1
10
46.8509912082469
20
0.606252308491037
30
0
41
1
10
46.5523215569169
20
0.767368542681709
30
0
41
1
10
45.9526778856545
20
1.08670022126555
30
0
41
1
10
45.6509474236009
20
1.2453708821329
30
0
41
1
10
44.751079020038
20
1.71007800270718
30
0
41
1
10
44.1555029291573
20
2.00497173421888
30
0
41
1
10
42.9671985777101
20
2.55619816203227
30
0
41
1
10
42.373930138144
20
2.81167241666242
30
0
41
1
10
41.4812087822452
20
3.15841728069103
30
0
41
1
10
41.1830686575456
20
3.26777922204227
30
0
41
1
10
40.5847696247718
20
3.47278033350469
30
0
41
1
10
40.2840707357583
20
3.56858523984212
30
0
41
1
10
38.7796943349463
20
4.00871508703872
30
0
41
1
10
37.5968087126916
20
4.22870729747999
30
0
41
1
10
36.0939977365496
20
4.32453115919512
30
0
41
1
10
35.780131826795
20
4.3345215259655
30
0
41
1
10
35.4653140512657
20
4.33433852763261
30
0
0
SPLINE
5
C0
100
AcDbEntity
8
1
62
256
6
ByLayer
370
18
48
1
60
0
100
AcDbSpline
70
4
71
3
72
16
73
12
40
0
40
0
40
0
40
0
40
0.172185636614671
40
0.172185636614671
40
0.379139227461003
40
0.379139227461003
40
0.482616022884169
40
0.482616022884169
40
0.586092818307335
40
0.586092818307335
40
1
40
1
40
1
40
1
41
1
10
12.7951091451134
20
-4.13685807216146
30
0
41
1
10
12.2997058057842
20
-4.21421157756043
30
0
41
1
10
11.805579070794
20
-4.26728420217532
30
0
41
1
10
10.7161831888127
20
-4.32936235038588
30
0
41
1
10
10.1206173816048
20
-4.32728440010061
30
0
41
1
10
9.22069687393039
20
-4.26897043209465
30
0
41
1
10
8.91880732896601
20
-4.24020816638767
30
0
41
1
10
8.31744262884314
20
-4.16481132927126
30
0
41
1
10
8.01780547707818
20
-4.11823221727846
30
0
41
1
10
6.52250708696135
20
-3.84286751064877
30
0
41
1
10
5.33532818822786
20
-3.48682011208922
30
0
41
1
10
4.13074339884025
20
-3.0191506303872
30
0
0
SPLINE
5
C1
100
AcDbEntity
8
1
62
256
6
ByLayer
370
18
48
1
60
0
100
AcDbSpline
70
4
71
3
72
66
73
62
40
0
40
0
40
0
40
0
40
0.0624999999999961
40
0.0624999999999961
40
0.124999999999992
40
0.124999999999992
40
0.249999999999986
40
0.249999999999986
40
0.374999999999979
40
0.374999999999979
40
0.499999999999972
40
0.499999999999972
40
0.562499999999969
40
0.562499999999969
40
0.624999999999966
40
0.624999999999966
40
0.656249999999965
40
0.656249999999965
40
0.671874999999965
40
0.675781249999965
40
0.675781249999965
40
0.679687499999966
40
0.679687499999966
40
0.681640624999966
40
0.681640624999966
40
0.683593749999967
40
0.683593749999967
40
0.687499999999968
40
0.687499999999968
40
0.71874999999997
40
0.71874999999997
40
0.734374999999971
40
0.734374999999971
40
0.749999999999973
40
0.749999999999973
40
0.765624999999974
40
0.765624999999974
40
0.781249999999975
40
0.781249999999975
40
0.796874999999977
40
0.796874999999977
40
0.804687499999978
40
0.804687499999978
40
0.812499999999979
40
0.82031249999998
40
0.82031249999998
40
0.82812499999998
40
0.82812499999998
40
0.843749999999982
40
0.843749999999982
40
0.859374999999984
40
0.859374999999984
40
0.874999999999985
40
0.874999999999985
40
0.906249999999989
40
0.906249999999989
40
0.921874999999991
40
0.921874999999991
40
0.937499999999993
40
0.937499999999993
40
1
40
1
40
1
40
1
41
1
10
14.518247434524
20
3.56197928853524
30
0
41
1
10
14.1977103091501
20
3.6608090121664
30
0
41
1
10
13.8753267005588
20
3.74843697555423
30
0
41
1
10
13.2261422653472
20
3.90307190784145
30
0
41
1
10
12.8987513198782
20
3.97015003996844
30
0
41
1
10
11.9128643410589
20
4.14179748401824
30
0
41
1
10
11.2521926715149
20
4.21645382311215
30
0
41
1
10
9.91547581284894
20
4.305715321213
30
0
41
1
10
9.23935196519747
20
4.32034663437898
30
0
41
1
10
7.86457936243207
20
4.31571313725021
30
0
41
1
10
7.16593192768838
20
4.29670977675156
30
0
41
1
10
6.09792716809167
20
4.26407608769577
30
0
41
1
10
5.73797349481626
20
4.25248026187882
30
0
41
1
10
5.01594993524228
20
4.23102493352019
30
0
41
1
10
4.65354596344017
20
4.2211603406181
30
0
41
1
10
4.10774273392457
20
4.20933820641017
30
0
41
1
10
3.92540354277116
20
4.20588681175565
30
0
41
1
10
3.65170016403073
20
4.20160142700922
30
0
41
1
10
3.53759967940545
20
4.20000065884855
30
0
41
1
10
3.42342652770907
20
4.19864613933413
30
0
41
1
10
3.37775143315164
20
4.19812427387913
30
0
41
1
10
3.3549815006437
20
4.1980551659953
30
0
41
1
10
3.32129232492133
20
4.19920346166359
30
0
41
1
10
3.30998575152739
20
4.19977363145108
30
0
41
1
10
3.28838980915322
20
4.20137723236755
30
0
41
1
10
3.27837463461589
20
4.2025104061149
30
0
41
1
10
3.24867620207914
20
4.20602589423697
30
0
41
1
10
3.2289482230716
20
4.20836268987475
30
0
41
1
10
3.05206303477604
20
4.22931737999099
30
0
41
1
10
2.89950595593001
20
4.24745509379375
30
0
41
1
10
2.68501206545653
20
4.27164232564627
30
0
41
1
10
2.61578477418178
20
4.27920835140225
30
0
41
1
10
2.48308194376591
20
4.29279043349842
30
0
41
1
10
2.41922745803168
20
4.29884215606734
30
0
41
1
10
2.30102066319989
20
4.30836045686425
30
0
41
1
10
2.2469820404751
20
4.31181227434396
30
0
41
1
10
2.15165349080777
20
4.31498233885759
30
0
41
1
10
2.11016421774443
20
4.31463898640558
30
0
41
1
10
2.04658690899152
20
4.30889944255489
30
0
41
1
10
2.02396668315242
20
4.30355452037605
30
0
41
1
10
2.00515716244331
20
4.29105318057526
30
0
41
1
10
2.00143513124962
20
4.28609530046373
30
0
41
1
10
1.99927583657802
20
4.27488201516749
30
0
41
1
10
2.00226786014838
20
4.26234037584246
30
0
41
1
10
2.01482623576976
20
4.24721222094925
30
0
41
1
10
2.03185673959376
20
4.23081897030733
30
0
41
1
10
2.04266644875983
20
4.22195573818249
30
0
41
1
10
2.08049924948455
20
4.19411447695643
30
0
41
1
10
2.11299010145191
20
4.17374236938628
30
0
41
1
10
2.189034790416
20
4.12993058060133
30
0
41
1
10
2.23289197420831
20
4.10634590548187
30
0
41
1
10
2.32807283539214
20
4.05718677075893
30
0
41
1
10
2.3791904649253
20
4.0317049403759
30
0
41
1
10
2.5405401571241
20
3.95292058708992
30
0
41
1
10
2.6586394943568
20
3.89729867098396
30
0
41
1
10
2.84605477623683
20
3.81001839664506
30
0
41
1
10
2.91031147202534
20
3.78026449422666
30
0
41
1
10
3.04037333979633
20
3.72019274330287
30
0
41
1
10
3.10636352668692
20
3.68978929492573
30
0
41
1
10
3.44026190679676
20
3.53600639556129
30
0
41
1
10
3.71953582960288
20
3.40736841592249
30
0
41
1
10
4.00559892935533
20
3.27360795862822
30
0
0
SPLINE
5
C2
100
AcDbEntity
8
1
62
256
6
ByLayer
370
18
48
1
60
0
100
AcDbSpline
70
4
71
3
72
8
73
4
40
0
40
0
40
0
40
0
40
1
40
1
40
1
40
1
41
1
10
4.01440283394959
20
-2.92035706536333
30
0
41
1
10
4.00845890565435
20
-2.90802005087195
30
0
41
1
10
4.00533620695927
20
-2.89513845545716
30
0
41
1
10
4.00533737306398
20
-2.88189955015574
30
0
0
SPLINE
5
C3
100
AcDbEntity
8
1
62
256
6
ByLayer
370
13
48
1
60
0
100
AcDbSpline
70
4
71
3
72
8
73
4
40
0
40
0
40
0
40
0
40
1
40
1
40
1
40
1
41
1
10
4.13253477536739
20
-2.96239347234635
30
0
41
1
10
4.15476258268728
20
-2.96259552461106
30
0
41
1
10
4.1788282807388
20
-2.96753472725627
30
0
41
1
10
4.2033847418009
20
-2.97676797720581
30
0
0
SPLINE
5
C4
100
AcDbEntity
8
1
62
256
6
ByLayer
370
13
48
1
60
0
100
AcDbSpline
70
4
71
3
72
8
73
4
40
0
40
0
40
0
40
0
40
1
40
1
40
1
40
1
41
1
10
4.13074339884011
20
-3.01915063038609
30
0
41
1
10
4.13133662957685
20
-3.00023451189827
30
0
41
1
10
4.13193375238296
20
-2.98131548671003
30
0
41
1
10
4.13253477536739
20
-2.96239347234635
30
0
0
SPLINE
5
C5
100
AcDbEntity
8
1
62
256
6
ByLayer
370
18
48
1
60
0
100
AcDbSpline
70
2053
71
3
72
62
73
58
40
0
40
0
40
0
40
0
40
0.0312500000000013
40
0.0312500000000013
40
0.0625000000000026
40
0.0625000000000026
40
0.0937500000000038
40
0.0937500000000038
40
0.125000000000005
40
0.125000000000005
40
0.156250000000006
40
0.156250000000006
40
0.187500000000008
40
0.187500000000008
40
0.218750000000009
40
0.218750000000009
40
0.25000000000001
40
0.25000000000001
40
0.281250000000011
40
0.281250000000011
40
0.312500000000013
40
0.312500000000013
40
0.375000000000012
40
0.375000000000012
40
0.437500000000012
40
0.437500000000012
40
0.468750000000012
40
0.468750000000012
40
0.500000000000012
40
0.500000000000012
40
0.531250000000012
40
0.531250000000012
40
0.562500000000011
40
0.562500000000011
40
0.593750000000011
40
0.593750000000011
40
0.625000000000011
40
0.625000000000011
40
0.656250000000011
40
0.656250000000011
40
0.687500000000011
40
0.687500000000011
40
0.718750000000011
40
0.718750000000011
40
0.750000000000011
40
0.750000000000011
40
0.812500000000009
40
0.812500000000009
40
0.843750000000008
40
0.843750000000008
40
0.875000000000008
40
0.875000000000008
40
0.906250000000007
40
0.906250000000007
40
0.937500000000006
40
0.937500000000006
40
1
40
1
40
1
40
1
41
1
10
61.739829902226
20
-1.55116121839051
30
0
41
1
10
61.717078154329
20
-1.58343644638532
30
0
41
1
10
61.6947859319291
20
-1.61804828372311
30
0
41
1
10
61.651196548288
20
-1.69233164497294
30
0
41
1
10
61.6296667356623
20
-1.73248407641219
30
0
41
1
10
61.5890641001162
20
-1.81632286016722
30
0
41
1
10
61.5700653767416
20
-1.85974467025199
30
0
41
1
10
61.5350421630253
20
-1.95001878410935
30
0
41
1
10
61.5193614146986
20
-1.99614248710276
30
0
41
1
10
61.4931326230534
20
-2.0867385926677
30
0
41
1
10
61.4822612510242
20
-2.13248770046047
30
0
41
1
10
61.4666916252177
20
-2.21862764426305
30
0
41
1
10
61.4618368928065
20
-2.25941573960591
30
0
41
1
10
61.4580207219473
20
-2.33507766255897
30
0
41
1
10
61.4590782219981
20
-2.36884259854719
30
0
41
1
10
61.4664820256201
20
-2.42912115031803
30
0
41
1
10
61.4728244807452
20
-2.45513338281052
30
0
41
1
10
61.4897604771267
20
-2.49860588793527
30
0
41
1
10
61.5005091331342
20
-2.51638174251337
30
0
41
1
10
61.5252380664018
20
-2.5435481352423
30
0
41
1
10
61.5392492001512
20
-2.55312676592715
30
0
41
1
10
61.5858123280759
20
-2.57084671686266
30
0
41
1
10
61.6217540140405
20
-2.56776433789983
30
0
41
1
10
61.7011962693186
20
-2.53512478887217
30
0
41
1
10
61.7433246404916
20
-2.50618899158869
30
0
41
1
10
61.809748274511
20
-2.44423563848702
30
0
41
1
10
61.8323677344929
20
-2.4204462093609
30
0
41
1
10
61.8772710521343
20
-2.36782347228663
30
0
41
1
10
61.8997335857437
20
-2.33883572102678
30
0
41
1
10
61.9446823447358
20
-2.27502946010253
30
0
41
1
10
61.9673986856748
20
-2.23979886231729
30
0
41
1
10
62.0112218395869
20
-2.16515531361534
30
0
41
1
10
62.0324255045433
20
-2.12568133856385
30
0
41
1
10
62.0732110004477
20
-2.04180267349724
30
0
41
1
10
62.0926378562211
20
-1.99759927640668
30
0
41
1
10
62.1276596706839
20
-1.90795277609322
30
0
41
1
10
62.1436927001751
20
-1.86130117837041
30
0
41
1
10
62.1704077206973
20
-1.77003030231617
30
0
41
1
10
62.1812127433658
20
-1.72531440160691
30
0
41
1
10
62.1973454089534
20
-1.63785583410248
30
0
41
1
10
62.2023096198095
20
-1.59698021892797
30
0
41
1
10
62.2063340951374
20
-1.52144566247969
30
0
41
1
10
62.2053188393103
20
-1.48689707527157
30
0
41
1
10
62.1979510358236
20
-1.4268277223056
30
0
41
1
10
62.1915246480459
20
-1.40062348759776
30
0
41
1
10
62.165862846486
20
-1.33562513699351
30
0
41
1
10
62.1399890531652
20
-1.30914119894237
30
0
41
1
10
62.0934286986925
20
-1.29200656764448
30
0
41
1
10
62.076383368056
20
-1.28998746838613
30
0
41
1
10
62.0405017011415
20
-1.29292149400186
30
0
41
1
10
62.0216368198766
20
-1.29780662129059
30
0
41
1
10
61.9821536442072
20
-1.31406286803485
30
0
41
1
10
61.9613764742661
20
-1.32556231834153
30
0
41
1
10
61.9190707655288
20
-1.35452856248298
30
0
41
1
10
61.8974998260516
20
-1.37196740171603
30
0
41
1
10
61.8315235058353
20
-1.43321644016751
30
0
41
1
10
61.7853333980202
20
-1.48661076240089
30
0
41
1
10
61.739829902226
20
-1.55116121839051
30
0
0
SPLINE
5
C6
100
AcDbEntity
8
1
62
256
6
ByLayer
370
18
48
1
60
0
100
AcDbSpline
70
4
71
3
72
32
73
28
40
0
40
0
40
0
40
0
40
0.250000000000008
40
0.250000000000008
40
0.375000000000009
40
0.375000000000009
40
0.50000000000001
40
0.50000000000001
40
0.625000000000011
40
0.625000000000011
40
0.687500000000012
40
0.687500000000012
40
0.750000000000012
40
0.750000000000012
40
0.812500000000012
40
0.812500000000012
40
0.84375000000001
40
0.84375000000001
40
0.875000000000008
40
0.875000000000008
40
0.906250000000006
40
0.906250000000006
40
0.937500000000004
40
0.937500000000004
40
0.968750000000002
40
0.968750000000002
40
1
40
1
40
1
40
1
41
1
10
58.0635081200757
20
1.21015707233673
30
0
41
1
10
58.3711809743497
20
1.00608118854123
30
0
41
1
10
58.6806188822272
20
0.823567676925563
30
0
41
1
10
59.1485635143354
20
0.596069835804485
30
0
41
1
10
59.3051696214602
20
0.527867053703972
30
0
41
1
10
59.6198493569626
20
0.409389126020841
30
0
41
1
10
59.7788679264283
20
0.35887593241614
30
0
41
1
10
60.0912705779176
20
0.281095184093488
30
0
41
1
10
60.245163118605
20
0.253502750200852
30
0
41
1
10
60.4721194165272
20
0.231113010091974
30
0
41
1
10
60.5471234067263
20
0.226821257405533
30
0
41
1
10
60.695732299972
20
0.225084124772366
30
0
41
1
10
60.7700397130481
20
0.225901040481574
30
0
41
1
10
60.9088471363224
20
0.250708909363226
30
0
41
1
10
60.9744264596933
20
0.273578324565847
30
0
41
1
10
61.0561126731378
20
0.331487774332032
30
0
41
1
10
61.0807189509661
20
0.355221197590396
30
0
41
1
10
61.1226744345785
20
0.411330695576794
30
0
41
1
10
61.1396378642839
20
0.442892195940033
30
0
41
1
10
61.1656660564674
20
0.512915173906578
30
0
41
1
10
61.174735442961
20
0.55196241945697
30
0
41
1
10
61.1841689894443
20
0.634352695879613
30
0
41
1
10
61.1846424733693
20
0.677493490023238
30
0
41
1
10
61.1780854190142
20
0.767215863095288
30
0
41
1
10
61.1710304521368
20
0.813518712841272
30
0
41
1
10
61.1510205606764
20
0.905843993504419
30
0
41
1
10
61.1380204445721
20
0.952290834863732
30
0
41
1
10
61.1228451404701
20
0.998944072049454
30
0
0
SPLINE
5
C7
100
AcDbEntity
8
1
62
256
6
ByLayer
370
18
48
1
60
0
100
AcDbSpline
70
4
71
3
72
16
73
12
40
0
40
0
40
0
40
0
40
0.249999999999999
40
0.249999999999999
40
0.499999999999998
40
0.499999999999998
40
0.749999999999998
40
0.749999999999998
40
0.874999999999999
40
0.874999999999999
40
1
40
1
40
1
40
1
41
1
10
8.75896081933911
20
0.855062835350793
30
0
41
1
10
8.37178187396984
20
1.05053899999481
30
0
41
1
10
7.98825362432132
20
1.24713567298971
30
0
41
1
10
7.22674586168549
20
1.63630257545475
30
0
41
1
10
6.84848519801909
20
1.82961141803582
30
0
41
1
10
6.09619599903994
20
2.20954751476972
30
0
41
1
10
5.72212017464776
20
2.39618093147402
30
0
41
1
10
5.16474699653699
20
2.66933779627672
30
0
41
1
10
4.97924118541402
20
2.75943157907673
30
0
41
1
10
4.61159319331466
20
2.93642212344332
30
0
41
1
10
4.43005826886281
20
3.02303013308435
30
0
41
1
10
4.2514719713692
20
3.10768711325039
30
0
0
SPLINE
5
C8
100
AcDbEntity
8
1
62
256
6
ByLayer
370
13
48
1
60
0
100
AcDbSpline
70
4
71
3
72
10
73
6
40
0
40
0
40
0
40
0
40
0.5
40
0.5
40
1
40
1
40
1
40
1
41
1
10
4.0144028339254
20
-2.92035706536626
30
0
41
1
10
4.02439335495419
20
-2.92909858594913
30
0
41
1
10
4.03910385069105
20
-2.93710431579558
30
0
41
1
10
4.07901858779965
20
-2.95156520483707
30
0
41
1
10
4.10351685098829
20
-2.95771720576241
30
0
41
1
10
4.13253477536739
20
-2.96239347234635
30
0
0
SPLINE
5
C9
100
AcDbEntity
8
1
62
256
6
ByLayer
370
18
48
1
60
0
100
AcDbSpline
70
4
71
3
72
22
73
18
40
0
40
0
40
0
40
0
40
0.125000000000002
40
0.125000000000002
40
0.187500000000004
40
0.187500000000004
40
0.250000000000005
40
0.250000000000005
40
0.500000000000005
40
0.500000000000005
40
0.625000000000003
40
0.625000000000003
40
0.750000000000002
40
0.750000000000002
40
0.875000000000001
40
0.875000000000001
40
1
40
1
40
1
40
1
41
1
10
61.4891789776049
20
-4.15094664387755
30
0
41
1
10
61.4260383460403
20
-4.15089625034838
30
0
41
1
10
61.3660739984246
20
-4.14125629566988
30
0
41
1
10
61.2811462527724
20
-4.11164411091542
30
0
41
1
10
61.2536757263949
20
-4.09924118538572
30
0
41
1
10
61.2004860080407
20
-4.06914785732656
30
0
41
1
10
61.1747372090471
20
-4.05140575746859
30
0
41
1
10
61.0523859327223
20
-3.95045748441316
30
0
41
1
10
60.9731019822944
20
-3.83041810038915
30
0
41
1
10
60.8839283204543
20
-3.58751623997085
30
0
41
1
10
60.859150535153
20
-3.49512056639441
30
0
41
1
10
60.8217068161417
20
-3.29401679329638
30
0
41
1
10
60.808779924513
20
-3.18493527628706
30
0
41
1
10
60.7944769882882
20
-2.94977051615146
30
0
41
1
10
60.7930990144882
20
-2.8236901126262
30
0
41
1
10
60.8024210408593
20
-2.55375169975071
30
0
41
1
10
60.8130640027709
20
-2.4123533598904
30
0
41
1
10
60.8293916766572
20
-2.26577020962668
30
0
0
SPLINE
5
CA
100
AcDbEntity
8
1
62
256
6
ByLayer
370
13
48
1
60
0
100
AcDbSpline
70
4
71
3
72
8
73
4
40
0
40
0
40
0
40
0
40
1
40
1
40
1
40
1
41
1
10
4.25034901419701
20
-2.84509093091586
30
0
41
1
10
4.20928477327573
20
-2.83583859420483
30
0
41
1
10
4.16918445965007
20
-2.83370236400469
30
0
41
1
10
4.13253477536739
20
-2.83888600626264
30
0
0
SPLINE
5
CB
100
AcDbEntity
8
1
62
256
6
ByLayer
370
13
48
1
60
0
100
AcDbSpline
70
4
71
3
72
12
73
8
40
0
40
0
40
0
40
0
40
0.249999999999988
40
0.249999999999988
40
0.499999999999977
40
0.499999999999977
40
1
40
1
40
1
40
1
41
1
10
4.13253477536739
20
-2.83888600626261
30
0
41
1
10
4.11530320981618
20
-2.84132319700791
30
0
41
1
10
4.0997724332147
20
-2.8441798886027
30
0
41
1
10
4.07167035969871
20
-2.85057945063164
30
0
41
1
10
4.05902208814575
20
-2.85416755308546
30
0
41
1
10
4.02698773040765
20
-2.8653425486842
30
0
41
1
10
4.01254739336605
20
-2.87357091356401
30
0
41
1
10
4.00533737306401
20
-2.88189955015614
30
0
0
SPLINE
5
CC
100
AcDbEntity
8
1
62
256
6
ByLayer
370
13
48
1
60
0
100
AcDbSpline
70
4
71
3
72
30
73
26
40
0
40
0
40
0
40
0
40
0.0625
40
0.0625
40
0.125
40
0.1875
40
0.1875
40
0.25
40
0.25
40
0.375
40
0.375
40
0.4375
40
0.4375
40
0.5
40
0.5
40
0.625
40
0.625
40
0.6875
40
0.6875
40
0.75
40
0.8125
40
0.8125
40
0.875
40
0.875
40
1
40
1
40
1
40
1
41
1
10
4.25034901419698
20
-2.84509093091586
30
0
41
1
10
4.25039037100234
20
-2.74390282954087
30
0
41
1
10
4.25042989539975
20
-2.63758146892195
30
0
41
1
10
4.25050488310831
20
-2.4179974544918
30
0
41
1
10
4.25057598569407
20
-2.19115787521187
30
0
41
1
10
4.25064092918359
20
-1.95012867922745
30
0
41
1
10
4.25070350953936
20
-1.70194695586724
30
0
41
1
10
4.25073370195082
20
-1.57389734219245
30
0
41
1
10
4.25082116867895
20
-1.18109275802965
30
0
41
1
10
4.25087417404254
20
-0.913559956243006
30
0
41
1
10
4.2509498196566
20
-0.50406018440151
30
0
41
1
10
4.25097437097668
20
-0.366182916153662
30
0
41
1
10
4.25102262560011
20
-0.0875940461079665
30
0
41
1
10
4.25104623453024
20
0.052604572889436
30
0
41
1
10
4.2511148057466
20
0.468074295355507
30
0
41
1
10
4.25115811781319
20
0.741231038771161
30
0
41
1
10
4.25122054130861
20
1.14519943491632
30
0
41
1
10
4.25124099739088
20
1.27952491239827
30
0
41
1
10
4.2512802160652
20
1.54134722066826
30
0
41
1
10
4.25131785650703
20
1.79705253635953
30
0
41
1
10
4.25135199901848
20
2.04069447666819
30
0
41
1
10
4.25138402258762
20
2.27820271023498
30
0
41
1
10
4.25139895713801
20
2.39384176328125
30
0
41
1
10
4.25143895366065
20
2.72436695574766
30
0
41
1
10
4.25145966295429
20
2.92558949492678
30
0
41
1
10
4.25147196965875
20
3.10768711346472
30
0
0
SPLINE
5
CD
100
AcDbEntity
8
1
62
256
6
ByLayer
370
18
48
1
60
0
100
AcDbSpline
70
4
71
3
72
31
73
27
40
0
40
0
40
0
40
0
40
0.0625
40
0.0625
40
0.125
40
0.125
40
0.25
40
0.25
40
0.3125
40
0.3125
40
0.375
40
0.4375
40
0.4375
40
0.5
40
0.5
40
0.625
40
0.625
40
0.6875
40
0.6875
40
0.75
40
0.75
40
0.875
40
0.875
40
0.9375
40
0.9375
40
1
40
1
40
1
40
1
41
1
10
4.00533737306398
20
-2.88189955015531
30
0
41
1
10
4.00534683070256
20
-2.77452589773253
30
0
41
1
10
4.00535590579372
20
-2.66196418700221
30
0
41
1
10
4.00537319205887
20
-2.42967098966238
30
0
41
1
10
4.00538139769071
20
-2.31010926968059
30
0
41
1
10
4.0054049672946
20
-1.94145220053051
30
0
41
1
10
4.00541928942178
20
-1.68248407399594
30
0
41
1
10
4.00543958829823
20
-1.27352801691544
30
0
41
1
10
4.00544608450821
20
-1.1351742081722
30
0
41
1
10
4.0054585783856
20
-0.857123305873387
30
0
41
1
10
4.00547061461543
20
-0.576900355971418
30
0
41
1
10
4.00548200978446
20
-0.292372048126197
30
0
41
1
10
4.00549319327962
20
-0.0056460482748832
30
0
41
1
10
4.00549870094545
20
0.139425481058367
30
0
41
1
10
4.00551469082808
20
0.568812685904135
30
0
41
1
10
4.00552476208441
20
0.849856657512845
30
0
41
1
10
4.00553925699387
20
1.26369015409932
30
0
41
1
10
4.00554399644363
20
1.40076720455775
30
0
41
1
10
4.0055531825397
20
1.67032420050475
30
0
41
1
10
4.00555758395151
20
1.80146753763987
30
0
41
1
10
4.00557017275724
20
2.1843388292412
30
0
41
1
10
4.00557776756921
20
2.42561083514775
30
0
41
1
10
4.00558740708374
20
2.76602900618963
30
0
41
1
10
4.00559031072365
20
2.87560393400611
30
0
41
1
10
4.0055952649613
20
3.082667509202
30
0
41
1
10
4.0055973344119
20
3.18079987502051
30
0
41
1
10
4.00559892945048
20
3.2736079585903
30
0
0
SPLINE
5
CE
100
AcDbEntity
8
1
62
256
6
ByLayer
370
18
48
1
60
0
100
AcDbSpline
70
4
71
3
72
58
73
54
40
0
40
0
40
0
40
0
40
0.0387868359288897
40
0.0387868359288897
40
0.0775736718577794
40
0.0775736718577794
40
0.116360507786669
40
0.116360507786669
40
0.155147343715559
40
0.155147343715559
40
0.193934179644449
40
0.193934179644449
40
0.232721015573338
40
0.232721015573338
40
0.271507851502228
40
0.271507851502228
40
0.310294687431117
40
0.310294687431117
40
0.349081523360007
40
0.349081523360007
40
0.387868359288897
40
0.387868359288897
40
0.426655195217787
40
0.426655195217787
40
0.465442031146676
40
0.465442031146676
40
0.504228867075566
40
0.504228867075566
40
0.543015703004456
40
0.543015703004456
40
0.581802538933345
40
0.581802538933345
40
0.620589374862235
40
0.620589374862235
40
0.659376210791125
40
0.659376210791125
40
0.698163046720015
40
0.698163046720015
40
0.736949882648903
40
0.736949882648903
40
0.775736718577792
40
0.775736718577792
40
0.814523554506681
40
0.814523554506681
40
0.85331039043557
40
0.85331039043557
40
0.892097226364459
40
0.892097226364459
40
0.930884062293348
40
0.930884062293348
40
0.969670898222237
40
0.969670898222237
40
1
40
1
40
1
40
1
41
1
10
8.75892652144321
20
0.854999747971249
30
0
41
1
10
9.01631670661331
20
0.724306579371728
30
0
41
1
10
9.27348868839545
20
0.593015936793421
30
0
41
1
10
9.78728258916166
20
0.328992501449221
30
0
41
1
10
10.0439058996973
20
0.19625654633856
30
0
41
1
10
10.5569729058262
20
-0.0699181173278589
30
0
41
1
10
10.8133640862616
20
-0.203452877282757
30
0
41
1
10
11.3273176052772
20
-0.468602601868582
30
0
41
1
10
11.5849883580072
20
-0.600758556362052
30
0
41
1
10
12.0996219394306
20
-0.862946327329269
30
0
41
1
10
12.3562593753014
20
-0.993204514531925
30
0
41
1
10
12.86946994903
20
-1.24979759449928
30
0
41
1
10
13.1261823159666
20
-1.37582126972649
30
0
41
1
10
13.6396832722128
20
-1.62328232664208
30
0
41
1
10
13.896495562194
20
-1.74472781866086
30
0
41
1
10
14.4102703831767
20
-1.98346911537652
30
0
41
1
10
14.667811637651
20
-2.10010367165953
30
0
41
1
10
15.1820770813206
20
-2.32457626990421
30
0
41
1
10
15.438923756505
20
-2.43300678836346
30
0
41
1
10
15.9520822183846
20
-2.64300211292738
30
0
41
1
10
16.208229533664
20
-2.74502564671954
30
0
41
1
10
16.7215540935554
20
-2.93810807909008
30
0
41
1
10
16.9785849720203
20
-3.02968370383206
30
0
41
1
10
17.4932356609808
20
-3.20422123782941
30
0
41
1
10
17.7505655471007
20
-3.28751253133572
30
0
41
1
10
18.263898135504
20
-3.44311974682785
30
0
41
1
10
18.5205537914638
20
-3.51426625941443
30
0
41
1
10
19.033903524818
20
-3.64592753765589
30
0
41
1
10
19.2905713109685
20
-3.70642656695279
30
0
41
1
10
19.8038123802472
20
-3.81764661692489
30
0
41
1
10
20.060648266463
20
-3.86704657555256
30
0
41
1
10
20.5755735296051
20
-3.95204512736996
30
0
41
1
10
20.8327116806554
20
-3.98831729130239
30
0
41
1
10
21.3463177528316
20
-4.049847881213
30
0
41
1
10
21.6025875308826
20
-4.07533368860888
30
0
41
1
10
22.1156543813775
20
-4.1103432164474
30
0
41
1
10
22.3725401282538
20
-4.12108667246088
30
0
41
1
10
22.8867212158034
20
-4.13099588050034
30
0
41
1
10
23.1443044376582
20
-4.13048313317913
30
0
41
1
10
23.6580573597761
20
-4.11523427371188
30
0
41
1
10
23.9146588160832
20
-4.09996109260109
30
0
41
1
10
24.4280078218338
20
-4.05780321580954
30
0
41
1
10
24.6846274833214
20
-4.03082612710548
30
0
41
1
10
25.1976562549087
20
-3.96559656809995
30
0
41
1
10
25.4540209424632
20
-3.92588190789303
30
0
41
1
10
25.9683464360826
20
-3.83351028640809
30
0
41
1
10
26.2259819899568
20
-3.78131850323456
30
0
41
1
10
26.7399062117391
20
-3.66675521615983
30
0
41
1
10
26.9963708805845
20
-3.60417723612196
30
0
41
1
10
27.5091500158766
20
-3.46555429095568
30
0
41
1
10
27.7658353436898
20
-3.39068882699266
30
0
41
1
10
28.2235696350136
20
-3.2491159927078
30
0
41
1
10
28.4245742625021
20
-3.18425218446313
30
0
41
1
10
28.6256621408434
20
-3.11589409413932
30
0
0
SPLINE
5
CF
100
AcDbEntity
8
1
62
256
6
ByLayer
370
18
48
1
60
0
100
AcDbSpline
70
4
71
3
72
28
73
24
40
0
40
0
40
0
40
0
40
0.0761414020848522
40
0.0761414020848522
40
0.15312961857778
40
0.15312961857778
40
0.230117835070707
40
0.230117835070707
40
0.384094268056562
40
0.384094268056562
40
0.461082484549492
40
0.461082484549492
40
0.538070701042421
40
0.538070701042421
40
0.615058917535351
40
0.615058917535351
40
0.692047134028279
40
0.692047134028279
40
0.846023567014138
40
0.846023567014138
40
0.923011783507069
40
0.923011783507069
40
1
40
1
40
1
40
1
41
1
10
48.0575682143629
20
4.14169064914083
30
0
41
1
10
48.3116637663944
20
4.13942215434159
30
0
41
1
10
48.5664360790928
20
4.13028449321416
30
0
41
1
10
49.0774563638267
20
4.10051995332663
30
0
41
1
10
49.3337214950901
20
4.08023181925049
30
0
41
1
10
49.8464835327018
20
4.02606091540707
30
0
41
1
10
50.1029937156325
20
3.99201478388739
30
0
41
1
10
50.8728538797321
20
3.8707433759385
30
0
41
1
10
51.3872676702726
20
3.76324126032827
30
0
41
1
10
52.1578846536547
20
3.57097983214859
30
0
41
1
10
52.4145423882529
20
3.5017224045032
30
0
41
1
10
52.9273948831258
20
3.35259903941994
30
0
41
1
10
53.1835193822915
20
3.27241314576492
30
0
41
1
10
53.6970340012662
20
3.10175773600582
30
0
41
1
10
53.9544422062873
20
3.01115806584048
30
0
41
1
10
54.468982263395
20
2.82075064002399
30
0
41
1
10
54.7256069140414
20
2.72087218280475
30
0
41
1
10
55.4950032640426
20
2.40900942696535
30
0
41
1
10
56.0083495250838
20
2.18679034178027
30
0
41
1
10
56.7787504284539
20
1.83217384017516
30
0
41
1
10
57.0360614996495
20
1.71044967715397
30
0
41
1
10
57.5501284113778
20
1.46349122774993
30
0
41
1
10
57.8069343344079
20
1.33793079884646
30
0
41
1
10
58.063508120076
20
1.2101570723369
30
0
0
SPLINE
5
D0
100
AcDbEntity
8
1
62
256
6
ByLayer
370
18
48
1
60
0
100
AcDbSpline
70
4
71
3
72
8
73
4
40
0
40
0
40
0
40
0
40
1
40
1
40
1
40
1
41
1
10
61.5489676700979
20
-4.12611778262249
30
0
41
1
10
61.5261353578547
20
-4.1426424556131
30
0
41
1
10
61.5061890174241
20
-4.15096641376689
30
0
41
1
10
61.4891789776014
20
-4.15094664387755
30
0
0
SPLINE
5
D1
100
AcDbEntity
8
1
62
256
6
ByLayer
370
18
48
1
60
0
100
AcDbSpline
70
4
71
3
72
14
73
10
40
0
40
0
40
0
40
0
40
0.25
40
0.25
40
0.5
40
0.5
40
0.75
40
0.75
40
1
40
1
40
1
40
1
41
1
10
4.25147196965875
20
3.10768711406124
30
0
41
1
10
4.22665111934703
20
3.11945318045017
30
0
41
1
10
4.20076392457091
20
3.13254131125558
30
0
41
1
10
4.147458149448
20
3.16176959808468
30
0
41
1
10
4.12044858573327
20
3.17776795192552
30
0
41
1
10
4.07272422226856
20
3.20924486618395
30
0
41
1
10
4.05195225767801
20
3.22479829088749
30
0
41
1
10
4.02114940145219
20
3.2522236423624
30
0
41
1
10
4.01115193018344
20
3.26392958981734
30
0
41
1
10
4.005598929456
20
3.27360795857592
30
0
0
SPLINE
5
D2
100
AcDbEntity
8
1
62
256
6
ByLayer
370
18
48
1
60
0
100
AcDbSpline
70
4
71
3
72
10
73
6
40
0
40
0
40
0
40
0
40
0.5
40
0.5
40
1
40
1
40
1
40
1
41
1
10
4.13074339884011
20
-3.01915063038714
30
0
41
1
10
4.10367219249258
20
-3.00864047190507
30
0
41
1
10
4.07987747425804
20
-2.99479640446083
30
0
41
1
10
4.04003550959303
20
-2.96103835614579
30
0
41
1
10
4.02461817380623
20
-2.94155967575532
30
0
41
1
10
4.01440283394984
20
-2.92035706536305
30
0
0
SPLINE
5
D3
100
AcDbEntity
8
1
62
256
6
ByLayer
370
18
48
1
60
0
100
AcDbSpline
70
4
71
3
72
18
73
14
40
0
40
0
40
0
40
0
40
0.25
40
0.25
40
0.375
40
0.375
40
0.5
40
0.5
40
0.75
40
0.75
40
0.875
40
0.875
40
1
40
1
40
1
40
1
41
1
10
62.3698624104973
20
2.12966030021357
30
0
41
1
10
62.3038129636231
20
2.30728284639392
30
0
41
1
10
62.2376840124457
20
2.48479911886523
30
0
41
1
10
62.1381472346006
20
2.75061456885936
30
0
41
1
10
62.1048951603897
20
2.83917783221941
30
0
41
1
10
62.0382963916173
20
3.01584321406548
30
0
41
1
10
62.0049368948565
20
3.1038685035918
30
0
41
1
10
61.904794828757
20
3.36761925949344
30
0
41
1
10
61.8380037072631
20
3.54330099203705
30
0
41
1
10
61.7373984582682
20
3.80468313298997
30
0
41
1
10
61.7037520727101
20
3.89124133661835
30
0
41
1
10
61.6363956315479
20
4.06403214933198
30
0
41
1
10
61.6026866374297
20
4.1502701866217
30
0
41
1
10
61.5688785775479
20
4.23600162349413
30
0
0
SPLINE
5
D4
100
AcDbEntity
8
1
62
256
6
ByLayer
370
13
48
1
60
0
100
AcDbSpline
70
4
71
3
72
16
73
12
40
0
40
0
40
0
40
0
40
0.226963102623322
40
0.226963102623322
40
0.340444653934983
40
0.340444653934983
40
0.453926205246644
40
0.453926205246644
40
0.907852410493289
40
0.907852410493289
40
1
40
1
40
1
40
1
41
1
10
4.2033847418009
20
-2.97676797720578
30
0
41
1
10
4.80533154630743
20
-3.20310048042228
30
0
41
1
10
5.40449802446159
20
-3.40219206803891
30
0
41
1
10
6.30369405181708
20
-3.65585348026747
30
0
41
1
10
6.60350866407739
20
-3.73289495704844
30
0
41
1
10
7.20417470254736
20
-3.87104710414906
30
0
41
1
10
7.50574836403314
20
-3.93225407246177
30
0
41
1
10
9.00837983215888
20
-4.19432624366388
30
0
41
1
10
10.1915556518727
20
-4.2639429400549
30
0
41
1
10
11.6229126283053
20
-4.17757514828102
30
0
41
1
10
11.8647263930017
20
-4.15718650654418
30
0
41
1
10
12.1070381591433
20
-4.13099603807885
30
0
0
SPLINE
5
D5
100
AcDbEntity
8
1
62
256
6
ByLayer
370
18
48
1
60
0
100
AcDbSpline
70
4
71
3
72
18
73
14
40
0
40
0
40
0
40
0
40
0.359944110917006
40
0.359944110917006
40
0.588045977063285
40
0.588045977063285
40
0.645071443599856
40
0.645071443599856
40
0.702096910136425
40
0.702096910136425
40
0.816147843209565
40
0.816147843209565
40
1
40
1
40
1
40
1
41
1
10
47.9735272746171
20
-0.0044583398993439
30
0
41
1
10
48.9148753966031
20
-0.506276303935465
30
0
41
1
10
49.8475380215571
20
-1.0035201446187
30
0
41
1
10
51.3780359774868
20
-1.76905479616855
30
0
41
1
10
51.9732483741383
20
-2.05479270338409
30
0
41
1
10
52.7234066304984
20
-2.39009061895186
30
0
41
1
10
52.8739791434958
20
-2.45613811013092
30
0
41
1
10
53.1743668524014
20
-2.58517378912609
30
0
41
1
10
53.3242387661463
20
-2.64819738817181
30
0
41
1
10
53.7730369482363
20
-2.83262970730186
30
0
41
1
10
54.0711515510581
20
-2.94939644367292
30
0
41
1
10
54.8480766688544
20
-3.23707588767891
30
0
41
1
10
55.3258216821797
20
-3.39734593452201
30
0
41
1
10
55.8035235159591
20
-3.53853520117406
30
0
0
SPLINE
5
D6
100
AcDbEntity
8
1
62
256
6
ByLayer
370
13
48
1
60
0
100
AcDbSpline
70
4
71
3
72
14
73
10
40
0
40
0
40
0
40
0
40
0.373824159674953
40
0.373824159674953
40
0.530368119756216
40
0.530368119756216
40
0.68691207983748
40
0.68691207983748
40
1
40
1
40
1
40
1
41
1
10
55.8035235133331
20
-3.53853520039792
30
0
41
1
10
56.5111727978576
20
-3.74768759738129
30
0
41
1
10
57.2187273277545
20
-3.91496850052423
30
0
41
1
10
58.2302603672069
20
-4.08455513963659
30
0
41
1
10
58.5299925266209
20
-4.12625932909111
30
0
41
1
10
59.1315810865255
20
-4.19211416698587
30
0
41
1
10
59.4316672834619
20
-4.21608162543851
30
0
41
1
10
60.3311786551462
20
-4.26093638415182
30
0
41
1
10
60.9298560288839
20
-4.25438851665152
30
0
41
1
10
61.5303882647222
20
-4.21205934061894
30
0
0
SPLINE
5
D7
100
AcDbEntity
8
1
62
256
6
ByLayer
370
18
48
1
60
0
100
AcDbSpline
70
4
71
3
72
18
73
14
40
0
40
0
40
0
40
0
40
0.250000000000001
40
0.250000000000001
40
0.375
40
0.375
40
0.5
40
0.5
40
0.75
40
0.75
40
0.875
40
0.875
40
1
40
1
40
1
40
1
41
1
10
62.3698624104973
20
-2.1296603002136
30
0
41
1
10
62.3038129636231
20
-2.30728284639395
30
0
41
1
10
62.2376840124457
20
-2.48479911886525
30
0
41
1
10
62.1381472346007
20
-2.75061456885939
30
0
41
1
10
62.1048951603897
20
-2.83917783221943
30
0
41
1
10
62.0382963916173
20
-3.01584321406551
30
0
41
1
10
62.0049368948566
20
-3.10386850359183
30
0
41
1
10
61.9047948287571
20
-3.36761925949347
30
0
41
1
10
61.8380037072631
20
-3.54330099203705
30
0
41
1
10
61.7373984582682
20
-3.80468313298997
30
0
41
1
10
61.7037520727101
20
-3.89124133661832
30
0
41
1
10
61.6363956315479
20
-4.06403214933195
30
0
41
1
10
61.6026866374296
20
-4.15027018662167
30
0
41
1
10
61.5688785775479
20
-4.23600162349413
30
0
0
SPLINE
5
D8
100
AcDbEntity
8
1
62
256
6
ByLayer
370
18
48
1
60
0
100
AcDbSpline
70
4
71
3
72
76
73
72
40
0
40
0
40
0
40
0
40
0.0351950881712167
40
0.0351950881712167
40
0.112695396299943
40
0.112695396299943
40
0.151445550364305
40
0.151445550364305
40
0.190195704428668
40
0.190195704428668
40
0.267696012557394
40
0.267696012557394
40
0.306446166621757
40
0.306446166621757
40
0.34519632068612
40
0.34519632068612
40
0.422696628814846
40
0.422696628814846
40
0.500196936943572
40
0.500196936943572
40
0.505040706201617
40
0.506251648516129
40
0.506857119673384
40
0.507159855252012
40
0.507159855252012
40
0.50746259083064
40
0.50746259083064
40
0.507765326409268
40
0.507765326409268
40
0.508068061987895
40
0.508068061987895
40
0.508673533145151
40
0.508673533145151
40
0.509884475459662
40
0.509884475459662
40
0.519572013975753
40
0.519572013975753
40
0.538947091007935
40
0.538947091007935
40
0.577697245072298
40
0.577697245072298
40
0.732697861329752
40
0.732697861329752
40
0.771448015394116
40
0.771448015394116
40
0.781135553910206
40
0.781135553910206
40
0.785979323168252
40
0.785979323168252
40
0.788401207797275
40
0.788401207797275
40
0.78900667895453
40
0.78900667895453
40
0.789309414533158
40
0.789309414533158
40
0.789460782322472
40
0.789460782322472
40
0.789612150111786
40
0.789612150111786
40
0.790823092426297
40
0.810198169458481
40
0.810198169458481
40
0.848948323522847
40
0.848948323522847
40
0.887698477587213
40
0.887698477587213
40
0.92644863165158
40
0.92644863165158
40
0.965198785715946
40
0.965198785715946
40
1
40
1
40
1
40
1
41
1
10
14.5182485177499
20
3.561997576751
30
0
41
1
10
14.3889328484631
20
3.56186908932116
30
0
41
1
10
14.2596309621359
20
3.55838593286026
30
0
41
1
10
13.8454063433599
20
3.53527630985909
30
0
41
1
10
13.5602697130657
20
3.50120671030885
30
0
41
1
10
13.1295503068433
20
3.41741387883778
30
0
41
1
10
12.9864106129326
20
3.38420859845775
30
0
41
1
10
12.7023315990271
20
3.30773556531258
30
0
41
1
10
12.5611077787167
20
3.26441475329941
30
0
41
1
10
12.1389746381399
20
3.11986341450157
30
0
41
1
10
11.859636175413
20
3.003941080261
30
0
41
1
10
11.4392932713398
20
2.80563222980598
30
0
41
1
10
11.2989471192627
20
2.73548636291574
30
0
41
1
10
11.0169657005343
20
2.58819323803689
30
0
41
1
10
10.8764060847058
20
2.51160628190195
30
0
41
1
10
10.4575232801877
20
2.27679442215921
30
0
41
1
10
10.180768309178
20
2.11294889973414
30
0
41
1
10
9.62588984751534
20
1.78148881821034
30
0
41
1
10
9.34725381953731
20
1.61352381879783
30
0
41
1
10
9.04870665584878
20
1.43888834783988
30
0
41
1
10
9.02675353036318
20
1.4260709446863
30
0
41
1
10
9.0026035932911
20
1.4120065893697
30
0
41
1
10
8.99491947434612
20
1.40753500275571
30
0
41
1
10
8.99162625844247
20
1.40561934423425
30
0
41
1
10
8.98943077594646
20
1.40434240257466
30
0
41
1
10
8.98817572121368
20
1.40393116735794
30
0
41
1
10
8.98633433363347
20
1.40214324211101
30
0
41
1
10
8.98754003546392
20
1.40082726208343
30
0
41
1
10
8.98909992824164
20
1.39904840150078
30
0
41
1
10
8.98998219226692
20
1.39823745238044
30
0
41
1
10
8.9927019499049
20
1.39588054350176
30
0
41
1
10
8.9946226426793
20
1.39442903074385
30
0
41
1
10
9.00047680143382
20
1.39017720728833
30
0
41
1
10
9.00452288095784
20
1.38749853575254
30
0
41
1
10
9.04126076861297
20
1.36386230463361
30
0
41
1
10
9.07572763587638
20
1.34527932261014
30
0
41
1
10
9.17864638288617
20
1.28910359151914
30
0
41
1
10
9.24806792567188
20
1.25292294089249
30
0
41
1
10
9.45677322599013
20
1.1452729748726
30
0
41
1
10
9.59671061285547
20
1.0750856647403
30
0
41
1
10
10.2975070429289
20
0.727538969872484
30
0
41
1
10
10.8622889932631
20
0.46104105942112
30
0
41
1
10
11.5623427902166
20
0.130842017088838
30
0
41
1
10
11.7022032748523
20
0.0650765188235027
30
0
41
1
10
11.8752464115189
20
-0.0176804321546058
30
0
41
1
10
11.9097614937863
20
-0.0342575741504731
30
0
41
1
10
11.9610234989469
20
-0.0593501544845481
30
0
41
1
10
11.9780541460224
20
-0.067746831648634
30
0
41
1
10
12.0030872522154
20
-0.0805375517609548
30
0
41
1
10
12.0114016861752
20
-0.0848118531476985
30
0
41
1
10
12.0212358798643
20
-0.0903808435716087
30
0
41
1
10
12.0231771014485
20
-0.0915049988968235
30
0
41
1
10
12.0259108324303
20
-0.0932637429016836
30
0
41
1
10
12.0268275537404
20
-0.0938711561873333
30
0
41
1
10
12.0279021412124
20
-0.0948124873865765
30
0
41
1
10
12.0283045025632
20
-0.0951728053979366
30
0
41
1
10
12.0280546566766
20
-0.0956948180789823
30
0
41
1
10
12.0273005142688
20
-0.0956656359823853
30
0
41
1
10
12.022532432128
20
-0.0962569148607315
30
0
41
1
10
11.9504801801768
20
-0.10506063742605
30
0
41
1
10
11.878429535302
20
-0.111627563696857
30
0
41
1
10
11.6749337507245
20
-0.124135215917363
30
0
41
1
10
11.5392398280389
20
-0.124394026396288
30
0
41
1
10
11.2682435217202
20
-0.108736377988691
30
0
41
1
10
11.1326582853082
20
-0.0928419944363839
30
0
41
1
10
10.8594136781195
20
-0.0449689415691523
30
0
41
1
10
10.7211011788279
20
-0.0127820945647841
30
0
41
1
10
10.44372613395
20
0.0665563455144138
30
0
41
1
10
10.3049210162355
20
0.113546999215686
30
0
41
1
10
10.0394221410726
20
0.21516695700339
30
0
41
1
10
9.9129317707287
20
0.268530584428504
30
0
41
1
10
9.78493303463145
20
0.326555917672749
30
0
0
SPLINE
5
D9
100
AcDbEntity
8
1
62
256
6
ByLayer
370
18
48
1
60
0
100
AcDbSpline
70
4
71
3
72
22
73
18
40
0
40
0
40
0
40
0
40
0.250000000000008
40
0.250000000000008
40
0.500000000000017
40
0.500000000000017
40
0.625000000000021
40
0.625000000000021
40
0.750000000000026
40
0.750000000000026
40
0.812500000000019
40
0.812500000000019
40
0.875000000000013
40
0.875000000000013
40
0.937500000000006
40
0.937500000000006
40
1
40
1
40
1
40
1
41
1
10
61.2461255691037
20
1.3118219291577
30
0
41
1
10
61.3694049350473
20
1.33997291865802
30
0
41
1
10
61.4920884843969
20
1.37198408734014
30
0
41
1
10
61.7320983279687
20
1.44858258913001
30
0
41
1
10
61.8495762591204
20
1.49274013015415
30
0
41
1
10
62.0176963808667
20
1.57837720040345
30
0
41
1
10
62.0727012808721
20
1.61050006763352
30
0
41
1
10
62.1751888728191
20
1.68420197036991
30
0
41
1
10
62.2234341407765
20
1.72642617762739
30
0
41
1
10
62.2835851710873
20
1.79890206264957
30
0
41
1
10
62.3016500278729
20
1.82460825636801
30
0
41
1
10
62.3327421985283
20
1.87998160520587
30
0
41
1
10
62.345589996981
20
1.90956954199123
30
0
41
1
10
62.3641652570763
20
1.97022853129422
30
0
41
1
10
62.3701132417083
20
2.00198508108508
30
0
41
1
10
62.3749611875631
20
2.06596992925833
30
0
41
1
10
62.373933362194
20
2.09785956638353
30
0
41
1
10
62.3698624104973
20
2.12966030021354
30
0
0
SPLINE
5
DA
100
AcDbEntity
8
1
62
256
6
ByLayer
370
18
48
1
60
0
100
AcDbSpline
70
4
71
3
72
8
73
4
40
0
40
0
40
0
40
0
40
1
40
1
40
1
40
1
41
1
10
61.4925712381017
20
-4.31374525415771
30
0
41
1
10
61.5051895451694
20
-4.27986701738291
30
0
41
1
10
61.5177954955294
20
-4.24597096652806
30
0
41
1
10
61.5303882647218
20
-4.21205934061896
30
0
0
SPLINE
5
DB
100
AcDbEntity
8
1
62
256
6
ByLayer
370
18
48
1
60
0
100
AcDbSpline
70
4
71
3
72
86
73
82
40
0
40
0
40
0
40
0
40
0.0058092514358518
40
0.0058092514358518
40
0.0311770896320511
40
0.0311770896320511
40
0.0565449278282504
40
0.0565449278282504
40
0.107280604220648
40
0.107280604220648
40
0.132648442416847
40
0.132648442416847
40
0.158016280613046
40
0.158016280613046
40
0.183384118809244
40
0.183384118809244
40
0.208751957005443
40
0.208751957005443
40
0.234119795201642
40
0.234119795201642
40
0.259487633397841
40
0.259487633397841
40
0.28485547159404
40
0.28485547159404
40
0.310223309790238
40
0.310223309790238
40
0.335591147986437
40
0.335591147986437
40
0.360958986182636
40
0.360958986182636
40
0.386326824378835
40
0.386326824378835
40
0.411694662575033
40
0.411694662575033
40
0.437062500771232
40
0.437062500771232
40
0.462430338967431
40
0.462430338967431
40
0.48779817716363
40
0.48779817716363
40
0.513166015359829
40
0.513166015359829
40
0.538533853556027
40
0.538533853556027
40
0.563901691752226
40
0.563901691752226
40
0.589269529948425
40
0.589269529948425
40
0.614637368144624
40
0.614637368144624
40
0.640005206340822
40
0.640005206340822
40
0.665373044537021
40
0.665373044537021
40
0.69074088273322
40
0.69074088273322
40
0.716108720929419
40
0.716108720929419
40
0.741476559125618
40
0.741476559125618
40
0.766844397321816
40
0.766844397321816
40
0.792212235518015
40
0.792212235518015
40
0.817580073714214
40
0.817580073714214
40
0.842947911910413
40
0.842947911910413
40
0.868315750106612
40
0.868315750106612
40
0.89368358830281
40
0.89368358830281
40
0.919051426499009
40
0.919051426499009
40
0.944419264695208
40
0.944419264695208
40
0.969787102891407
40
0.969787102891407
40
0.995154941087605
40
0.995154941087605
40
1
40
1
40
1
40
1
41
1
10
53.6204448233114
20
-3.12638791966359
30
0
41
1
10
53.5616423063435
20
-3.14646488094658
30
0
41
1
10
53.5028297614813
20
-3.16628577138294
30
0
41
1
10
53.1871393601699
20
-3.27125852154529
30
0
41
1
10
52.9299831045544
20
-3.35181640053665
30
0
41
1
10
52.4161264288468
20
-3.50129162159425
30
0
41
1
10
52.1593056038662
20
-3.57060330102581
30
0
41
1
10
51.3891886291573
20
-3.76280583195637
30
0
41
1
10
50.8770082902793
20
-3.86999295987994
30
0
41
1
10
50.1052084020279
20
-3.99171351695259
30
0
41
1
10
49.8476462907346
20
-4.02592311066533
30
0
41
1
10
49.3342177970649
20
-4.08019430380654
30
0
41
1
10
49.0780231345926
20
-4.10047279370119
30
0
41
1
10
48.5649172329265
20
-4.13038705520054
30
0
41
1
10
48.3082304389929
20
-4.13956385301174
30
0
41
1
10
47.7945876337947
20
-4.14392473232917
30
0
41
1
10
47.5376692550481
20
-4.13885130785678
30
0
41
1
10
47.023277577902
20
-4.11755071097721
30
0
41
1
10
46.7662896305486
20
-4.1009286972517
30
0
41
1
10
46.2527441692395
20
-4.05417263836043
30
0
41
1
10
45.99617933172
20
-4.02367562300049
30
0
41
1
10
45.4834585414554
20
-3.95014983715805
30
0
41
1
10
45.2269923708399
20
-3.90778093834686
30
0
41
1
10
44.7130393259937
20
-3.81137847491743
30
0
41
1
10
44.4553271668159
20
-3.75699593445333
30
0
41
1
10
43.9412241702942
20
-3.63549325399342
30
0
41
1
10
43.6848460449365
20
-3.56894933402595
30
0
41
1
10
43.171740401961
20
-3.42635542404227
30
0
41
1
10
42.9151251444287
20
-3.35000389041227
30
0
41
1
10
42.4016925645155
20
-3.18593813392104
30
0
41
1
10
42.1449356511809
20
-3.09809331853896
30
0
41
1
10
41.6309791975865
20
-2.9135643762132
30
0
41
1
10
41.3735202447396
20
-2.81709708923054
30
0
41
1
10
40.859653662506
20
-2.61582026924435
30
0
41
1
10
40.6029743451269
20
-2.51055613053745
30
0
41
1
10
40.0900560398012
20
-2.29270832501723
30
0
41
1
10
39.8338241373075
20
-2.18024513827777
30
0
41
1
10
39.3203419541084
20
-1.9491132751875
30
0
41
1
10
39.0631434357425
20
-1.83017275072021
30
0
41
1
10
38.5482442173921
20
-1.58606413940836
30
0
41
1
10
38.2914520815511
20
-1.46139851087528
30
0
41
1
10
37.7780983314324
20
-1.20842518016119
30
0
41
1
10
37.5214302613765
20
-1.08027869534538
30
0
41
1
10
37.0079522014851
20
-0.820758549303463
30
0
41
1
10
36.7511210794967
20
-0.689517246806588
30
0
41
1
10
36.2374501979588
20
-0.424240559581875
30
0
41
1
10
35.9799540074073
20
-0.290471565631861
30
0
41
1
10
35.4655420279762
20
-0.0236124692102919
30
0
41
1
10
35.208642131879
20
0.109652649998196
30
0
41
1
10
34.6952662515419
20
0.375852518361569
30
0
41
1
10
34.4390279462855
20
0.509207424664311
30
0
41
1
10
33.9257513267634
20
0.772905549999223
30
0
41
1
10
33.6687841482417
20
0.903379804503231
30
0
41
1
10
33.1541067165624
20
1.16161646412769
30
0
41
1
10
32.8965964086603
20
1.28973737601842
30
0
41
1
10
32.3830664479035
20
1.54144482697868
30
0
41
1
10
32.1264276610943
20
1.66443150760864
30
0
41
1
10
31.6130485932923
20
1.90396281257728
30
0
41
1
10
31.3562707983973
20
2.02107468085575
30
0
41
1
10
30.8428195269828
20
2.25000632419292
30
0
41
1
10
30.5860206563423
20
2.36172050889866
30
0
41
1
10
30.0710557834787
20
2.57550703198399
30
0
41
1
10
29.8138703584075
20
2.67796427026235
30
0
41
1
10
29.2999842267801
20
2.87548576477548
30
0
41
1
10
29.0435459952167
20
2.97064027221111
30
0
41
1
10
28.5303721772388
20
3.14996904146091
30
0
41
1
10
28.2735136391826
20
3.23374556207091
30
0
41
1
10
27.759149964254
20
3.39267785148368
30
0
41
1
10
27.501368813842
20
3.46778436005215
30
0
41
1
10
26.9873245221474
20
3.60649206570315
30
0
41
1
10
26.7307030618635
20
3.66892844695141
30
0
41
1
10
26.2171827618502
20
3.78315399679775
30
0
41
1
10
25.9604043400269
20
3.83505062467978
30
0
41
1
10
25.4469673862803
20
3.92703137584027
30
0
41
1
10
25.1904714208212
20
3.96663547749682
30
0
41
1
10
24.6760064575243
20
4.0317929533995
30
0
41
1
10
24.4182337577661
20
4.05876429415531
30
0
41
1
10
23.9039091456727
20
4.10067904176316
30
0
41
1
10
23.6472061879716
20
4.11575731342435
30
0
41
1
10
23.3417010279879
20
4.1245807613287
30
0
41
1
10
23.2927014769889
20
4.12573943368352
30
0
41
1
10
23.2436937881417
20
4.12665260179227
30
0
0
SPLINE
5
DC
100
AcDbEntity
8
1
62
256
6
ByLayer
370
18
48
1
60
0
100
AcDbSpline
70
4
71
3
72
37
73
33
40
0
40
0
40
0
40
0
40
0.0043135595459011
40
0.0043135595459011
40
0.315203457097323
40
0.315203457097323
40
0.470648405873034
40
0.470648405873034
40
0.626093354648745
40
0.626093354648745
40
0.703815829036601
40
0.703815829036601
40
0.742677066230529
40
0.752392375529012
40
0.752392375529012
40
0.762107684827494
40
0.762107684827494
40
0.766965339476737
40
0.766965339476737
40
0.77182299412598
40
0.77182299412598
40
0.781538303424468
40
0.781538303424468
40
0.859260777812388
40
0.859260777812388
40
0.898122015006348
40
0.898122015006348
40
0.936983252200309
40
0.936983252200309
40
0.97584448939427
40
0.97584448939427
40
1
40
1
40
1
40
1
41
1
10
8.58057137285243
20
-4.31811649663902
30
0
41
1
10
8.57103829843899
20
-4.31809091231463
30
0
41
1
10
8.56150306520607
20
-4.31806203041938
30
0
41
1
10
7.86457936242988
20
-4.31571313725019
30
0
41
1
10
7.16593192768599
20
-4.29670977675147
30
0
41
1
10
6.09792716808894
20
-4.26407608769568
30
0
41
1
10
5.73797349481342
20
-4.25248026187876
30
0
41
1
10
5.01594993523918
20
-4.2310249335201
30
0
41
1
10
4.65354596343698
20
-4.22116034061801
30
0
41
1
10
4.10774273392121
20
-4.20933820641008
30
0
41
1
10
3.92540354276773
20
-4.20588681175559
30
0
41
1
10
3.6517001640272
20
-4.20160142700917
30
0
41
1
10
3.53759967940184
20
-4.20000065884852
30
0
41
1
10
3.42342652770543
20
-4.19864613933407
30
0
41
1
10
3.37775143314801
20
-4.19812427387907
30
0
41
1
10
3.35498150064007
20
-4.19805516599536
30
0
41
1
10
3.32129232491775
20
-4.19920346166379
30
0
41
1
10
3.3099857515239
20
-4.19977363145128
30
0
41
1
10
3.28838980914986
20
-4.20137723236786
30
0
41
1
10
3.2783746346127
20
-4.20251040611529
30
0
41
1
10
3.24867620207593
20
-4.20602589423737
30
0
41
1
10
3.22894822306844
20
-4.20836268987509
30
0
41
1
10
3.05206303477291
20
-4.22931737999136
30
0
41
1
10
2.8995059559268
20
-4.24745509379412
30
0
41
1
10
2.68501206545318
20
-4.27164232564664
30
0
41
1
10
2.61578477417839
20
-4.27920835140262
30
0
41
1
10
2.48308194376247
20
-4.29279043349877
30
0
41
1
10
2.4192274580281
20
-4.29884215606765
30
0
41
1
10
2.30102066319708
20
-4.30836045686445
30
0
41
1
10
2.24698204047252
20
-4.31181227434411
30
0
41
1
10
2.16969043055178
20
-4.31438253677501
30
0
41
1
10
2.14244890783019
20
-4.31462270415315
30
0
41
1
10
2.1184399059741
20
-4.31397418532694
30
0
0
SPLINE
5
DD
100
AcDbEntity
8
1
62
256
6
ByLayer
370
18
48
1
60
0
100
AcDbSpline
70
4
71
3
72
12
73
8
40
0
40
0
40
0
40
0
40
0.249999999999998
40
0.249999999999998
40
0.499999999999996
40
0.499999999999996
40
1
40
1
40
1
40
1
41
1
10
61.5303882647052
20
-4.21205934062013
30
0
41
1
10
61.5352609187904
20
-4.19893755461786
30
0
41
1
10
61.5398648262056
20
-4.18558395948361
30
0
41
1
10
61.5472984256013
20
-4.16160562507369
30
0
41
1
10
61.550109943724
20
-4.15100361878106
30
0
41
1
10
61.5548131981501
20
-4.12748624824664
30
0
41
1
10
61.5531425497139
20
-4.12309625244657
30
0
41
1
10
61.548967670098
20
-4.12611778262249
30
0
0
SPLINE
5
DE
100
AcDbEntity
8
1
62
256
6
ByLayer
370
18
48
1
60
0
100
AcDbSpline
70
4
71
3
72
56
73
52
40
0
40
0
40
0
40
0
40
0.0727613660204949
40
0.0727613660204949
40
0.109142049030742
40
0.109142049030742
40
0.14552273204099
40
0.14552273204099
40
0.181903415051237
40
0.181903415051237
40
0.218284098061484
40
0.218284098061484
40
0.254664781071732
40
0.254664781071732
40
0.291045464081979
40
0.291045464081979
40
0.363806830102475
40
0.363806830102475
40
0.400187513112722
40
0.400187513112722
40
0.43656819612297
40
0.43656819612297
40
0.472948879133217
40
0.472948879133217
40
0.509329562143465
40
0.509329562143465
40
0.545710245153712
40
0.545710245153712
40
0.582090928163959
40
0.582090928163959
40
0.618471611174207
40
0.618471611174207
40
0.654852294184454
40
0.654852294184454
40
0.727613660204949
40
0.727613660204949
40
0.763994343215196
40
0.763994343215196
40
0.800375026225443
40
0.800375026225443
40
0.836755709235689
40
0.836755709235689
40
0.873136392245936
40
0.873136392245936
40
0.909517075256183
40
0.909517075256183
40
0.945897758266429
40
0.945897758266429
40
0.982278441276676
40
0.982278441276676
40
1
40
1
40
1
40
1
41
1
10
14.5182401167215
20
3.56199756839905
30
0
41
1
10
15.0087798481506
20
3.41001059603457
30
0
41
1
10
15.4999559790325
20
3.24084226483515
30
0
41
1
10
16.2346547943778
20
2.95852929482456
30
0
41
1
10
16.4789481898436
20
2.85918952977406
30
0
41
1
10
16.9693729183321
20
2.65420193770529
30
0
41
1
10
17.2154562265743
20
2.54805565903101
30
0
41
1
10
17.7070226826029
20
2.32858341030686
30
0
41
1
10
17.9522123251934
20
2.21525373698682
30
0
41
1
10
18.441452376117
20
1.98138270761046
30
0
41
1
10
18.6862903161841
20
1.86211637655666
30
0
41
1
10
19.1765827164714
20
1.61936043411598
30
0
41
1
10
19.4219159360352
20
1.49567260850006
30
0
41
1
10
19.9125463961021
20
1.24289128249913
30
0
41
1
10
20.1577892265702
20
1.11305173954372
30
0
41
1
10
20.8938405269346
20
0.723457348025562
30
0
41
1
10
21.3844846186197
20
0.46123135199349
30
0
41
1
10
22.1181940197593
20
0.0601289563979606
30
0
41
1
10
22.3632044216933
20
-0.0733635000228503
30
0
41
1
10
22.8545273518576
20
-0.339127092674175
30
0
41
1
10
23.100667773991
20
-0.471687384234343
30
0
41
1
10
23.5911388231494
20
-0.735655442448774
30
0
41
1
10
23.8354174107127
20
-0.867845856108147
30
0
41
1
10
24.3250426335758
20
-1.12721328803036
30
0
41
1
10
24.5701957240365
20
-1.25476331476656
30
0
41
1
10
25.0606571519228
20
-1.50656136959384
30
0
41
1
10
25.3059514470362
20
-1.63083228820571
30
0
41
1
10
25.796433062134
20
-1.87642317823196
30
0
41
1
10
26.0417570887813
20
-1.99621940736608
30
0
41
1
10
26.5323069454915
20
-2.2283821597716
30
0
41
1
10
26.7774880763081
20
-2.34116194200234
30
0
41
1
10
27.2672488069481
20
-2.56074042900371
30
0
41
1
10
27.5114634857652
20
-2.66804229189324
30
0
41
1
10
28.2464206236602
20
-2.97603655421369
30
0
41
1
10
28.7395388414584
20
-3.1641854522407
30
0
41
1
10
29.4733534835415
20
-3.42079486262696
30
0
41
1
10
29.7179235481266
20
-3.50130299953952
30
0
41
1
10
30.2079637736009
20
-3.6514241416437
30
0
41
1
10
30.4531961419164
20
-3.72131659613416
30
0
41
1
10
30.9436735710011
20
-3.85106772676221
30
0
41
1
10
31.1888513070847
20
-3.91124475166419
30
0
41
1
10
31.679318370173
20
-4.01923435315035
30
0
41
1
10
31.9246317482983
20
-4.06717581668835
30
0
41
1
10
32.4148407117152
20
-4.15158634390255
30
0
41
1
10
32.6597603923543
20
-4.18803700642692
30
0
41
1
10
33.1487957931836
20
-4.24936776434402
30
0
41
1
10
33.3934759940009
20
-4.27396307616698
30
0
41
1
10
33.8844347356389
20
-4.31076361168996
30
0
41
1
10
34.1305627854787
20
-4.323075471957
30
0
41
1
10
34.4953024686176
20
-4.33226004701049
30
0
41
1
10
34.6145507392417
20
-4.33380673047469
30
0
41
1
10
34.7337199581677
20
-4.33388783488027
30
0
0
SPLINE
5
DF
100
AcDbEntity
8
1
62
256
6
ByLayer
370
18
48
1
60
0
100
AcDbSpline
70
4
71
3
72
26
73
22
40
0
40
0
40
0
40
0
40
0.07544435961756
40
0.07544435961756
40
0.167899923655805
40
0.167899923655805
40
0.26035548769405
40
0.26035548769405
40
0.352811051732295
40
0.352811051732295
40
0.44526661577054
40
0.44526661577054
40
0.630177743847027
40
0.630177743847027
40
0.72263330788527
40
0.72263330788527
40
0.815088871923514
40
0.815088871923514
40
0.907544435961757
40
0.907544435961757
40
1
40
1
40
1
40
1
41
1
10
53.619842692373
20
3.12243005470265
30
0
41
1
10
53.8197631698091
20
3.19864010987172
30
0
41
1
10
54.0197516372294
20
3.27139753219066
30
0
41
1
10
54.4646377728868
20
3.42624226367786
30
0
41
1
10
54.7095018821363
20
3.50672116014141
30
0
41
1
10
55.1985663429508
20
3.65844246061695
30
0
41
1
10
55.442666483587
20
3.72971343293943
30
0
41
1
10
55.9328829926853
20
3.86029998942979
30
0
41
1
10
56.1788523039377
20
3.92011711852376
30
0
41
1
10
56.6694323597941
20
4.02854990205935
30
0
41
1
10
56.9140409401018
20
4.07731729239819
30
0
41
1
10
57.6468803577778
20
4.20624721793021
30
0
41
1
10
58.1371490216508
20
4.26768623412636
30
0
41
1
10
58.8724276404084
20
4.32438917491578
30
0
41
1
10
59.1173074789372
20
4.33723521591816
30
0
41
1
10
59.6076148299173
20
4.35026483763721
30
0
41
1
10
59.8529104224603
20
4.35060483365473
30
0
41
1
10
60.3433406339062
20
4.33902209568291
30
0
41
1
10
60.5883446190077
20
4.32706368186453
30
0
41
1
10
61.0783926571385
20
4.29052817956682
30
0
41
1
10
61.3236369868657
20
4.2662125673836
30
0
41
1
10
61.5688785775347
20
4.23600162349584
30
0
0
SPLINE
5
E0
100
AcDbEntity
8
1
62
256
6
ByLayer
370
18
48
1
60
0
100
AcDbSpline
70
4
71
3
72
84
73
80
40
0
40
0
40
0
40
0
40
0.0195262519558736
40
0.0195262519558736
40
0.0431441577364272
40
0.0431441577364272
40
0.0667620635169807
40
0.0667620635169807
40
0.0903799692975342
40
0.0903799692975342
40
0.113997875078088
40
0.113997875078088
40
0.137615780858641
40
0.137615780858641
40
0.161233686639195
40
0.161233686639195
40
0.184851592419748
40
0.184851592419748
40
0.208469498200302
40
0.208469498200302
40
0.255705309761408
40
0.255705309761408
40
0.279323215541961
40
0.279323215541961
40
0.302941121322515
40
0.302941121322515
40
0.326559027103068
40
0.326559027103068
40
0.350176932883622
40
0.350176932883622
40
0.373794838664175
40
0.373794838664175
40
0.397412744444729
40
0.397412744444729
40
0.421030650225282
40
0.421030650225282
40
0.444648556005836
40
0.444648556005836
40
0.491884367566942
40
0.491884367566942
40
0.515502273347496
40
0.515502273347496
40
0.53912017912805
40
0.53912017912805
40
0.562738084908603
40
0.562738084908603
40
0.586355990689156
40
0.586355990689156
40
0.60997389646971
40
0.60997389646971
40
0.633591802250263
40
0.633591802250263
40
0.657209708030817
40
0.657209708030817
40
0.68082761381137
40
0.68082761381137
40
0.728063425372477
40
0.728063425372477
40
0.751681331153031
40
0.751681331153031
40
0.775299236933585
40
0.775299236933585
40
0.798917142714139
40
0.798917142714139
40
0.822535048494693
40
0.822535048494693
40
0.846152954275247
40
0.846152954275247
40
0.869770860055801
40
0.869770860055801
40
0.893388765836355
40
0.893388765836355
40
0.917006671616909
40
0.917006671616909
40
0.964242483178017
40
0.964242483178017
40
0.987860388958571
40
0.987860388958571
40
1
40
1
40
1
40
1
41
1
10
28.6205574630594
20
3.11434366293147
30
0
41
1
10
28.8236234768924
20
3.190904799518
30
0
41
1
10
29.0265199812937
20
3.26454057853817
30
0
41
1
10
29.4733534835457
20
3.42079486262835
30
0
41
1
10
29.7179235481308
20
3.50130299954088
30
0
41
1
10
30.2079637736053
20
3.65142414164498
30
0
41
1
10
30.4531961419208
20
3.72131659613544
30
0
41
1
10
30.9436735710057
20
3.85106772676335
30
0
41
1
10
31.1888513070894
20
3.91124475166532
30
0
41
1
10
31.6793183701779
20
4.01923435315132
30
0
41
1
10
31.9246317483032
20
4.06717581668926
30
0
41
1
10
32.4148407117203
20
4.15158634390335
30
0
41
1
10
32.6597603923595
20
4.18803700642763
30
0
41
1
10
33.1487957931888
20
4.24936776434461
30
0
41
1
10
33.3934759940063
20
4.27396307616746
30
0
41
1
10
33.8844347356444
20
4.31076361169028
30
0
41
1
10
34.1305627854842
20
4.32307547195722
30
0
41
1
10
34.6210962040025
20
4.33542768151057
30
0
41
1
10
34.865415919267
20
4.33544320205863
30
0
41
1
10
35.5993145302865
20
4.31690958168019
30
0
41
1
10
36.0900786915913
20
4.28046774289558
30
0
41
1
10
36.8255479949395
20
4.18839864565501
30
0
41
1
10
37.0707326751332
20
4.15156431010627
30
0
41
1
10
37.5611226765216
20
4.06694773756775
30
0
41
1
10
37.8062531382527
20
4.01900095963262
30
0
41
1
10
38.2959674716901
20
3.91155611920166
30
0
41
1
10
38.5402036038642
20
3.85172906334242
30
0
41
1
10
39.0296986678154
20
3.72155840454951
30
0
41
1
10
39.2752499723831
20
3.65146375615908
30
0
41
1
10
39.7668335248667
20
3.50086292507328
30
0
41
1
10
40.0121693647598
20
3.42062142191787
30
0
41
1
10
40.5014564515973
20
3.24960565003534
30
0
41
1
10
40.7457414525942
20
3.15917753456037
30
0
41
1
10
41.2355141878682
20
2.97103655146299
30
0
41
1
10
41.4806446320728
20
2.87290457682133
30
0
41
1
10
41.9709756143891
20
2.66790015265957
30
0
41
1
10
42.2161523913865
20
2.56039178701823
30
0
41
1
10
42.9514104163597
20
2.22840436771713
30
0
41
1
10
43.4420393567763
20
1.99696581051225
30
0
41
1
10
44.175606038463
20
1.62982183497712
30
0
41
1
10
44.4199598878914
20
1.50442358355667
30
0
41
1
10
44.910552395368
20
1.25147698253141
30
0
41
1
10
45.1566191953775
20
1.12315696005416
30
0
41
1
10
45.6471905036541
20
0.863470045284942
30
0
41
1
10
45.8916418575623
20
0.731464446984177
30
0
41
1
10
46.38050951883
20
0.466081706830863
30
0
41
1
10
46.625416949378
20
0.333608740282074
30
0
41
1
10
47.1154675599233
20
0.0678211150154766
30
0
41
1
10
47.3606507275704
20
-0.0654205286299714
30
0
41
1
10
47.8508959790438
20
-0.333441222421641
30
0
41
1
10
48.0959064073294
20
-0.467953751670109
30
0
41
1
10
48.5861033242726
20
-0.732286935857672
30
0
41
1
10
48.8311723143632
20
-0.863026836798525
30
0
41
1
10
49.3208291034157
20
-1.12243436574991
30
0
41
1
10
49.5651716894704
20
-1.25153002052639
30
0
41
1
10
50.2987083568469
20
-1.63340744186337
30
0
41
1
10
50.7916201442832
20
-1.87738428920559
30
0
41
1
10
51.5257134543459
20
-2.22864016585365
30
0
41
1
10
51.7697573663532
20
-2.34328709006078
30
0
41
1
10
52.2592417540335
20
-2.56355049674619
30
0
41
1
10
52.5042657916692
20
-2.66984916179285
30
0
41
1
10
52.9944520934725
20
-2.87540358686488
30
0
41
1
10
53.2396688960739
20
-2.97502974001168
30
0
41
1
10
53.729572107744
20
-3.16566776334327
30
0
41
1
10
53.9746768758421
20
-3.25570904751021
30
0
41
1
10
54.4646377728981
20
-3.42624226368167
30
0
41
1
10
54.7095018821476
20
-3.50672116014508
30
0
41
1
10
55.1985663429622
20
-3.65844246062034
30
0
41
1
10
55.4426664835985
20
-3.7297134329427
30
0
41
1
10
55.9328829926971
20
-3.86029998943272
30
0
41
1
10
56.1788523039495
20
-3.92011711852655
30
0
41
1
10
56.669432359806
20
-4.0285499020618
30
0
41
1
10
56.9140409401137
20
-4.07731729240049
30
0
41
1
10
57.64688035779
20
-4.20624721793195
30
0
41
1
10
58.1371490216632
20
-4.26768623412772
30
0
41
1
10
58.8724276404209
20
-4.32438917491652
30
0
41
1
10
59.1173074789498
20
-4.3372352159187
30
0
41
1
10
59.4884702211826
20
-4.34709864162031
30
0
41
1
10
59.6145167818893
20
-4.34881589307284
30
0
41
1
10
59.7405706347823
20
-4.34890768149313
30
0
0
SPLINE
5
E1
100
AcDbEntity
8
1
62
256
6
ByLayer
370
18
48
1
60
0
100
AcDbSpline
70
4
71
3
72
10
73
6
40
0
40
0
40
0
40
0
40
0.87109533770394
40
0.87109533770394
40
1
40
1
40
1
40
1
41
1
10
61.4925712381017
20
4.31374525415771
30
0
41
1
10
61.1923962227326
20
4.33474009610694
30
0
41
1
10
60.8922795743002
20
4.3464512058265
30
0
41
1
10
60.547387809429
20
4.34922705208726
30
0
41
1
10
60.5029148396923
20
4.34938062241278
30
0
41
1
10
60.4584315478629
20
4.34933022088813
30
0
0
SPLINE
5
E2
100
AcDbEntity
8
1
62
256
6
ByLayer
370
18
48
1
60
0
100
AcDbSpline
70
4
71
3
72
48
73
44
40
0
40
0
40
0
40
0
40
0.0519306429301809
40
0.0519306429301809
40
0.0846938967776105
40
0.0846938967776105
40
0.11745715062504
40
0.11745715062504
40
0.182983658319901
40
0.182983658319901
40
0.248510166014761
40
0.248510166014761
40
0.314036673709622
40
0.314036673709622
40
0.346799927557051
40
0.346799927557051
40
0.379563181404481
40
0.379563181404481
40
0.44508968909934
40
0.44508968909934
40
0.5106161967942
40
0.5106161967942
40
0.54337945064163
40
0.54337945064163
40
0.576142704489059
40
0.576142704489059
40
0.707195719878778
40
0.707195719878778
40
0.723577346802493
40
0.723577346802493
40
0.739958973726209
40
0.739958973726209
40
0.77272222757364
40
0.77272222757364
40
0.838248735268503
40
0.838248735268503
40
0.903775242963365
40
0.903775242963365
40
0.936538496810796
40
0.936538496810796
40
0.969301750658228
40
0.969301750658228
40
1
40
1
40
1
40
1
41
1
10
37.8336406781972
20
-4.14506706546743
30
0
41
1
10
37.3630842071488
20
-4.2199978428539
30
0
41
1
10
36.892886158097
20
-4.2731372880076
30
0
41
1
10
36.1238832992562
20
-4.3229013599138
30
0
41
1
10
35.8258820746377
20
-4.33315976695533
30
0
41
1
10
35.227924300188
20
-4.33532868846348
30
0
41
1
10
34.9277129339968
20
-4.3272292028725
30
0
41
1
10
34.0246530528679
20
-4.27497729552383
30
0
41
1
10
33.4251783323009
20
-4.20329289155538
30
0
41
1
10
32.2243926924816
20
-3.98965600359392
30
0
41
1
10
31.6216177903246
20
-3.84715922430303
30
0
41
1
10
30.4206076687835
20
-3.50014488411165
30
0
41
1
10
29.8210662747308
20
-3.29559255792864
30
0
41
1
10
28.9179876585214
20
-2.94788104368075
30
0
41
1
10
28.6175053074882
20
-2.8256703196291
30
0
41
1
10
28.019273370314
20
-2.57081088216853
30
0
41
1
10
27.7211146867911
20
-2.43807295502552
30
0
41
1
10
26.8281837553778
20
-2.02617911943079
30
0
41
1
10
26.2348465991257
20
-1.73353514170677
30
0
41
1
10
25.0459975009698
20
-1.12255293958384
30
0
41
1
10
24.4501799299945
20
-0.80475351885903
30
0
41
1
10
23.549576600172
20
-0.317879285436732
30
0
41
1
10
23.2478685504184
20
-0.153788914584339
30
0
41
1
10
22.6483458248503
20
0.172153794923418
30
0
41
1
10
22.349681421522
20
0.334510124173789
30
0
41
1
10
20.8595454982414
20
1.13902844148612
30
0
41
1
10
19.678123584356
20
1.76023857750332
30
0
41
1
10
18.3303166260458
20
2.37874569897178
30
0
41
1
10
18.1803040396337
20
2.44636016854071
30
0
41
1
10
17.8796797713112
20
2.57921341784137
30
0
41
1
10
17.7289016710428
20
2.64450852697541
30
0
41
1
10
17.2780033526384
20
2.83534669213813
30
0
41
1
10
16.9786167252809
20
2.9561888093597
30
0
41
1
10
16.0828606402137
20
3.29830352489242
30
0
41
1
10
15.4889921370699
20
3.4992576863549
30
0
41
1
10
14.3007470118041
20
3.83956439432015
30
0
41
1
10
13.7065861003178
20
3.97913452811949
30
0
41
1
10
12.8099783166196
20
4.13742724994125
30
0
41
1
10
12.5102254116038
20
4.1816944009941
30
0
41
1
10
11.9080604056354
20
4.25241279269798
30
0
41
1
10
11.6074322220661
20
4.27862858582043
30
0
41
1
10
11.027827729498
20
4.31155330988867
30
0
41
1
10
10.7482776256969
20
4.31942266072264
30
0
41
1
10
10.4692100311541
20
4.31932782091351
30
0
0
SPLINE
5
E3
100
AcDbEntity
8
1
62
256
6
ByLayer
370
18
48
1
60
0
100
AcDbSpline
70
4
71
3
72
20
73
16
40
0
40
0
40
0
40
0
40
0.124999999999999
40
0.124999999999999
40
0.187499999999997
40
0.187499999999997
40
0.249999999999995
40
0.249999999999995
40
0.49999999999999
40
0.49999999999999
40
0.624999999999991
40
0.624999999999991
40
0.749999999999992
40
0.749999999999992
40
1
40
1
40
1
40
1
41
1
10
58.0635081200757
20
1.21015707233656
30
0
41
1
10
58.1217967723629
20
1.03452957255928
30
0
41
1
10
58.1923719257672
20
0.861342050577576
30
0
41
1
10
58.3139352644204
20
0.604678753421751
30
0
41
1
10
58.3570888704219
20
0.51964710817424
30
0
41
1
10
58.4483511641748
20
0.350567847984337
30
0
41
1
10
58.496674915461
20
0.266181403468664
30
0
41
1
10
58.7465331543536
20
-0.147696482277155
30
0
41
1
10
58.9727119226934
20
-0.455643469687686
30
0
41
1
10
59.3399288910306
20
-0.892949640557902
30
0
41
1
10
59.4677109376631
20
-1.03508879520811
30
0
41
1
10
59.7279891192519
20
-1.30771833849633
30
0
41
1
10
59.860650070442
20
-1.43849218366864
30
0
41
1
10
60.2652163779675
20
-1.81634882875963
30
0
41
1
10
60.5436208437929
20
-2.04915205639202
30
0
41
1
10
60.8293916766572
20
-2.26577020962668
30
0
0
SPLINE
5
E4
100
AcDbEntity
8
1
62
256
6
ByLayer
370
18
48
1
60
0
100
AcDbSpline
70
4
71
3
72
16
73
12
40
0
40
0
40
0
40
0
40
0.249999999999994
40
0.249999999999994
40
0.499999999999988
40
0.499999999999988
40
0.624999999999971
40
0.624999999999971
40
0.749999999999954
40
0.749999999999954
40
1
40
1
40
1
40
1
41
1
10
61.1228451404701
20
0.998944072049454
30
0
41
1
10
61.1131326789896
20
1.02880296423797
30
0
41
1
10
61.1064451422768
20
1.05931633710585
30
0
41
1
10
61.1006927315865
20
1.12197216157804
30
0
41
1
10
61.1010224024443
20
1.15493636362356
30
0
41
1
10
61.1134119567377
20
1.20234306441947
30
0
41
1
10
61.1194616356838
20
1.21733822459961
30
0
41
1
10
61.136120865807
20
1.24541698153089
30
0
41
1
10
61.1466735238317
20
1.25819826014381
30
0
41
1
10
61.1831769444363
20
1.29065727987177
30
0
41
1
10
61.2141718360436
20
1.3045252562961
30
0
41
1
10
61.2461255691037
20
1.31182192915773
30
0
0
SPLINE
5
E5
100
AcDbEntity
8
1
62
256
6
ByLayer
370
18
48
1
60
0
100
AcDbSpline
70
4
71
3
72
14
73
10
40
0
40
0
40
0
40
0
40
0.155354032088909
40
0.155354032088909
40
0.306183697665433
40
0.306183697665433
40
0.457013363241956
40
0.457013363241956
40
1
40
1
40
1
40
1
41
1
10
60.67665038016
20
-4.1505872306077
30
0
41
1
10
60.3681245902723
20
-4.15038623725948
30
0
41
1
10
60.0597239356592
20
-4.14079625039878
30
0
41
1
10
59.451400312876
20
-4.10352312755978
30
0
41
1
10
59.1514933780644
20
-4.07639055697462
30
0
41
1
10
58.5503057719757
20
-4.00471078998123
30
0
41
1
10
58.2509546500612
20
-3.96038927909527
30
0
41
1
10
56.8784819628464
20
-3.71939710032379
30
0
41
1
10
55.8160906619697
20
-3.42580531384198
30
0
41
1
10
54.7472344199444
20
-3.04768293476536
30
0
0
SPLINE
5
E6
100
AcDbEntity
8
1
62
256
6
ByLayer
370
13
48
1
60
0
100
AcDbSpline
70
4
71
3
72
22
73
18
40
0
40
0
40
0
40
0
40
0.0328704882595192
40
0.0328704882595192
40
0.11504649190753
40
0.11504649190753
40
0.197222495555541
40
0.197222495555541
40
0.361574502851565
40
0.361574502851565
40
0.690278517443614
40
0.690278517443614
40
0.772454521091628
40
0.772454521091628
40
0.854630524739641
40
0.854630524739641
40
1
40
1
40
1
40
1
41
1
10
54.7472344199438
20
-3.04768293476516
30
0
41
1
10
54.6284722668161
20
-3.00566921381818
30
0
41
1
10
54.5096302991318
20
-2.96261189918431
30
0
41
1
10
54.0933175491857
20
-2.8083572357626
30
0
41
1
10
53.7952961573739
20
-2.69184281399149
30
0
41
1
10
53.1971352685944
20
-2.44706311872241
30
0
41
1
10
52.8961037628791
20
-2.31839308809893
30
0
41
1
10
51.9966953083406
20
-1.91980066213546
30
0
41
1
10
51.4017922197062
20
-1.63763663252348
30
0
41
1
10
49.6214122565167
20
-0.760452592442078
30
0
41
1
10
48.4406943790023
20
-0.13374520611373
30
0
41
1
10
46.9412393959252
20
0.641537246207633
30
0
41
1
10
46.6402381172512
20
0.796122024504086
30
0
41
1
10
46.0418923776826
20
1.09913060993912
30
0
41
1
10
45.7436858139719
20
1.24797892923451
30
0
41
1
10
44.9198882736524
20
1.65184298702189
30
0
41
1
10
44.3952833764943
20
1.89930766780694
30
0
41
1
10
43.870551172121
20
2.13322115804095
30
0
0
SPLINE
5
E7
100
AcDbEntity
8
1
62
256
6
ByLayer
370
18
48
1
60
0
100
AcDbSpline
70
4
71
3
72
14
73
10
40
0
40
0
40
0
40
0
40
0.565326972483811
40
0.565326972483811
40
0.744795665999426
40
0.744795665999426
40
0.924264359515043
40
0.924264359515043
40
1
40
1
40
1
40
1
41
1
10
10.6664615033906
20
-4.1206201186171
30
0
41
1
10
9.73106783747266
20
-4.11923901134358
30
0
41
1
10
8.79638087553505
20
-4.03243160712546
30
0
41
1
10
7.55004789446497
20
-3.80719711028016
30
0
41
1
10
7.24872484846298
20
-3.74441432420167
30
0
41
1
10
6.64851215253734
20
-3.60369134345297
30
0
41
1
10
6.34891482532856
20
-3.52566211365721
30
0
41
1
10
5.92301566933588
20
-3.40442163924683
30
0
41
1
10
5.79663834519226
20
-3.36715636046998
30
0
41
1
10
5.67024742350404
20
-3.32863263395416
30
0
0
SPLINE
5
E8
100
AcDbEntity
8
1
62
256
6
ByLayer
370
13
48
1
60
0
100
AcDbSpline
70
4
71
3
72
8
73
4
40
0
40
0
40
0
40
0
40
1
40
1
40
1
40
1
41
1
10
5.67024838075662
20
-3.32863292572304
30
0
41
1
10
5.19762870411429
20
-3.18457931860809
30
0
41
1
10
4.72481889772865
20
-3.02292918108279
30
0
41
1
10
4.25034901419673
20
-2.84509093091577
30
0
0
SPLINE
5
E9
100
AcDbEntity
8
1
62
256
6
ByLayer
370
18
48
1
60
0
100
AcDbSpline
70
4
71
3
72
14
73
10
40
0
40
0
40
0
40
0
40
0.153945573778162
40
0.153945573778162
40
0.297417583733562
40
0.297417583733562
40
0.440889593688961
40
0.440889593688961
40
1
40
1
40
1
40
1
41
1
10
22.9524164787889
20
0.0067641438660644
30
0
41
1
10
23.27147269141
20
-0.162702371444226
30
0
41
1
10
23.5910054004394
20
-0.332475944154368
30
0
41
1
10
24.2102202511878
20
-0.659206960555338
30
0
41
1
10
24.5097962942502
20
-0.816205562467474
30
0
41
1
10
25.1115472635568
20
-1.12734106107473
30
0
41
1
10
25.4120858530429
20
-1.28076071981423
30
0
41
1
10
26.8767423701393
20
-2.01378753243884
30
0
41
1
10
28.028158904155
20
-2.54338445506633
30
0
41
1
10
29.1890260147997
20
-2.98173957285414
30
0
0
SPLINE
5
EA
100
AcDbEntity
8
1
62
256
6
ByLayer
370
13
48
1
60
0
100
AcDbSpline
70
4
71
3
72
22
73
18
40
0
40
0
40
0
40
0
40
0.0116939022117761
40
0.0116939022117761
40
0.125226806481262
40
0.125226806481262
40
0.238759710750749
40
0.238759710750749
40
0.465825519289725
40
0.465825519289725
40
0.692891327828701
40
0.692891327828701
40
0.80642423209819
40
0.80642423209819
40
0.919957136367679
40
0.919957136367679
40
1
40
1
40
1
40
1
41
1
10
29.1890260145877
20
-2.9817395727741
30
0
41
1
10
29.219708449687
20
-2.99332556942178
30
0
41
1
10
29.2503974867472
20
-3.0048478265916
30
0
41
1
10
29.5791133713407
20
-3.12754654967728
30
0
41
1
10
29.8777938804573
20
-3.23271805045434
30
0
41
1
10
30.4773774965452
20
-3.42960296219559
30
0
41
1
10
30.7788040785952
20
-3.52145326319067
30
0
41
1
10
31.6809256683551
20
-3.77314707139539
30
0
41
1
10
32.2814232559122
20
-3.90979214697319
30
0
41
1
10
33.4853474963029
20
-4.11465632632394
30
0
41
1
10
34.0850429443762
20
-4.18226266836371
30
0
41
1
10
34.9862402307157
20
-4.22969655045372
30
0
41
1
10
35.2875642767804
20
-4.2364933656263
30
0
41
1
10
35.8883505568877
20
-4.23191536450781
30
0
41
1
10
36.1874960935554
20
-4.22059391098534
30
0
41
1
10
36.6961898653093
20
-4.18625402851771
30
0
41
1
10
36.9061352728112
20
-4.16767099274085
30
0
41
1
10
37.1158249776643
20
-4.14479657407739
30
0
0
SPLINE
5
EB
100
AcDbEntity
8
SK1
62
256
6
ByLayer
370
18
48
1
60
0
100
AcDbSpline
70
4
71
3
72
10
73
6
40
0
40
0
40
0
40
0
40
0.5
40
0.5
40
1
40
1
40
1
40
1
41
1
10
-38.95
20
-2.9708341959176
30
0
41
1
10
-39.1281002653425
20
-2.71541126201242
30
0
41
1
10
-39.3053068773951
20
-2.459602471615
30
0
41
1
10
-39.6562276857791
20
-1.94647695558953
30
0
41
1
10
-39.8300482945171
20
-1.68920617610013
30
0
41
1
10
-40
20
-1.430264903752
30
0
0
SPLINE
5
EC
100
AcDbEntity
8
SK1
62
256
6
ByLayer
370
18
48
1
60
0
100
AcDbSpline
70
4
71
3
72
14
73
10
40
0
40
0
40
0
40
0
40
0.124999999999998
40
0.124999999999998
40
0.249999999999996
40
0.249999999999996
40
0.499999999999997
40
0.499999999999997
40
1
40
1
40
1
40
1
41
1
10
-38.85
20
-3.19392027561528
30
0
41
1
10
-38.85
20
-3.18544127474411
30
0
41
1
10
-38.8517453396944
20
-3.17513574003738
30
0
41
1
10
-38.8568901241517
20
-3.15433583171938
30
0
41
1
10
-38.860211966304
20
-3.14393339473531
30
0
41
1
10
-38.8714485682308
20
-3.11272189013101
30
0
41
1
10
-38.8802054040538
20
-3.0929923328413
30
0
41
1
10
-38.9082792076556
20
-3.0356558313519
30
0
41
1
10
-38.9286347141248
20
-3.00147527324251
30
0
41
1
10
-38.95
20
-2.9708341959176
30
0
0
SPLINE
5
ED
100
AcDbEntity
8
SK1
62
256
6
ByLayer
370
18
48
1
60
0
100
AcDbSpline
70
4
71
3
72
16
73
12
40
0
40
0
40
0
40
0
40
0.249999999999988
40
0.249999999999988
40
0.374999999999987
40
0.374999999999987
40
0.499999999999986
40
0.499999999999986
40
0.749999999999993
40
0.749999999999993
40
1
40
1
40
1
40
1
41
1
10
-14.3360135685353
20
-1.23367723920299
30
0
41
1
10
-14.2510493872195
20
-1.23750647124965
30
0
41
1
10
-14.1676548474018
20
-1.22976954155041
30
0
41
1
10
-14.0447948287781
20
-1.20166068610266
30
0
41
1
10
-14.003962644329
20
-1.18938434794271
30
0
41
1
10
-13.9252581667303
20
-1.1599717551081
30
0
41
1
10
-13.8871736929698
20
-1.14282389909482
30
0
41
1
10
-13.7764868166361
20
-1.08445778171264
30
0
41
1
10
-13.7068582487893
20
-1.03567269511979
30
0
41
1
10
-13.5820441018451
20
-0.925538039546353
30
0
41
1
10
-13.5261070970744
20
-0.863971457576469
30
0
41
1
10
-13.4757361404172
20
-0.796667725346367
30
0
0
SPLINE
5
EE
100
AcDbEntity
8
SK1
62
256
6
ByLayer
370
18
48
1
60
0
100
AcDbSpline
70
4
71
3
72
14
73
10
40
0
40
0
40
0
40
0
40
0.25
40
0.25
40
0.5
40
0.5
40
0.75
40
0.75
40
1
40
1
40
1
40
1
41
1
10
-32.5286345040457
20
4.76672674202075
30
0
41
1
10
-32.6239033163762
20
4.76509718044227
30
0
41
1
10
-32.714630762952
20
4.75815902328358
30
0
41
1
10
-32.8880764575988
20
4.73367246731928
30
0
41
1
10
-32.966411748493
20
4.716640887408
30
0
41
1
10
-33.1081691141436
20
4.67329198373179
30
0
41
1
10
-33.1696373812933
20
4.64753466313886
30
0
41
1
10
-33.2773794551564
20
4.58868076341801
30
0
41
1
10
-33.3240781814694
20
4.55526103055092
30
0
41
1
10
-33.3643795499476
20
4.51855112909647
30
0
0
SPLINE
5
EF
100
AcDbEntity
8
SK1
62
256
6
ByLayer
370
18
48
1
60
0
100
AcDbSpline
70
4
71
3
72
10
73
6
40
0
40
0
40
0
40
0
40
0.5
40
0.5
40
1
40
1
40
1
40
1
41
1
10
-39.9999999999999
20
-2.93138539848471
30
0
41
1
10
-39.8301257758578
20
-3.19020861896084
30
0
41
1
10
-39.6563253118241
20
-3.44745352007379
30
0
41
1
10
-39.3053898261476
20
-3.96060285483267
30
0
41
1
10
-39.1281394681189
20
-4.21647553398668
30
0
41
1
10
-38.95
20
-4.47195469065011
30
0
0
SPLINE
5
F0
100
AcDbEntity
8
SK1
62
256
6
ByLayer
370
18
48
1
60
0
100
AcDbSpline
70
4
71
3
72
18
73
14
40
0
40
0
40
0
40
0
40
0.250000000000001
40
0.250000000000001
40
0.500000000000002
40
0.500000000000002
40
0.625000000000001
40
0.625000000000001
40
0.750000000000001
40
0.750000000000001
40
0.875
40
0.875
40
1
40
1
40
1
40
1
41
1
10
-33.3643795499458
20
0.358695359110612
30
0
41
1
10
-33.324131060926
20
0.273286667637365
30
0
41
1
10
-33.2780819433201
20
0.19158319005922
30
0
41
1
10
-33.1705899960984
20
0.0381050561642269
30
0
41
1
10
-33.1081954976225
20
-0.0345130886854292
30
0
41
1
10
-33.0029229156112
20
-0.128267117167667
30
0
41
1
10
-32.9658751168769
20
-0.157085403187693
30
0
41
1
10
-32.8872739578722
20
-0.209128778077286
30
0
41
1
10
-32.845433159134
20
-0.232426184292393
30
0
41
1
10
-32.7595417585925
20
-0.271060112167504
30
0
41
1
10
-32.7152232078404
20
-0.286631233143225
30
0
41
1
10
-32.6235911664282
20
-0.309614416860541
30
0
41
1
10
-32.5762212859739
20
-0.316951080663472
30
0
41
1
10
-32.5286345040457
20
-0.319641872530639
30
0
0
SPLINE
5
F1
100
AcDbEntity
8
SK1
62
256
6
ByLayer
370
18
48
1
60
0
100
AcDbSpline
70
4
71
3
72
14
73
10
40
0
40
0
40
0
40
0
40
0.500000000000001
40
0.500000000000001
40
0.749999999999999
40
0.749999999999999
40
0.875
40
0.875
40
1
40
1
40
1
40
1
41
1
10
-38.9500000000001
20
-4.47195469065019
30
0
41
1
10
-38.9287234691649
20
-4.50246847971607
30
0
41
1
10
-38.9083432483059
20
-4.52933514092848
30
0
41
1
10
-38.880223151313
20
-4.56115691475969
30
0
41
1
10
-38.8713218079587
20
-4.57023385889445
30
0
41
1
10
-38.8602667834558
20
-4.57852251006133
30
0
41
1
10
-38.8569157654531
20
-4.58043450661742
30
0
41
1
10
-38.851744720606
20
-4.58090995271476
30
0
41
1
10
-38.8499999999999
20
-4.57937559625344
30
0
41
1
10
-38.8499999999999
20
-4.57495113076931
30
0
0
SPLINE
5
F2
100
AcDbEntity
8
SK1
62
256
6
ByLayer
370
18
48
1
60
0
100
AcDbSpline
70
4
71
3
72
14
73
10
40
0
40
0
40
0
40
0
40
0.25
40
0.25
40
0.5
40
0.5
40
0.75
40
0.75
40
1
40
1
40
1
40
1
41
1
10
-13.4757361404172
20
4.88950486134269
30
0
41
1
10
-13.5261165975723
20
4.90376073533926
30
0
41
1
10
-13.5820550105882
20
4.91548091984072
30
0
41
1
10
-13.7068358595671
20
4.9348362595903
30
0
41
1
10
-13.7765661763097
20
4.94249917533384
30
0
41
1
10
-13.9236219836565
20
4.95392849343727
30
0
41
1
10
-14.0016396683479
20
4.95785257100286
30
0
41
1
10
-14.1671228399343
20
4.96279233758412
30
0
41
1
10
-14.2509910131883
20
4.96372255791701
30
0
41
1
10
-14.3360135685353
20
4.96324398997675
30
0
0
LINE
5
76
100
AcDbEntity
8
81
62
256
6
ByLayer
370
18
48
1
60
0
100
AcDbLine
10
63
20
0
30
0
11
68
21
0
31
0
39
0
210
0
220
0
230
1
0
LINE
5
77
100
AcDbEntity
8
1
62
256
6
ByLayer
370
18
48
1
60
0
100
AcDbLine
10
2.150845
20
4.314349
30
0
11
1.313828
21
4.313847
31
0
39
0
210
0
220
0
230
1
0
LINE
5
79
100
AcDbEntity
8
1
62
256
6
ByLayer
370
18
48
1
60
0
100
AcDbLine
10
10.465421
20
4.319338
30
0
11
8.608728
21
4.318224
31
0
39
0
210
0
220
0
230
1
0
LINE
5
7A
100
AcDbEntity
8
1
62
256
6
ByLayer
370
18
48
1
60
0
100
AcDbLine
10
35.465388
20
4.334338
30
0
11
34.733628
21
4.333899
31
0
39
0
210
0
220
0
230
1
0
LINE
5
7B
100
AcDbEntity
8
1
62
256
6
ByLayer
370
18
48
1
60
0
100
AcDbLine
10
60.465201
20
4.349338
30
0
11
59.742619
21
4.348904
31
0
39
0
210
0
220
0
230
1
0
LINE
5
7C
100
AcDbEntity
8
1
62
256
6
ByLayer
370
18
48
1
60
0
100
AcDbLine
10
59.742619
20
-4.348904
30
0
11
60.465006
21
-4.349338
31
0
39
0
210
0
220
0
230
1
0
LINE
5
7D
100
AcDbEntity
8
1
62
256
6
ByLayer
370
18
48
1
60
0
100
AcDbLine
10
34.733628
20
-4.333899
30
0
11
35.465038
21
-4.334338
31
0
39
0
210
0
220
0
230
1
0
LINE
5
7E
100
AcDbEntity
8
1
62
256
6
ByLayer
370
18
48
1
60
0
100
AcDbLine
10
8.608728
20
-4.318224
30
0
11
10.465003
21
-4.319338
31
0
39
0
210
0
220
0
230
1
0
LINE
5
7F
100
AcDbEntity
8
1
62
256
6
ByLayer
370
18
48
1
60
0
100
AcDbLine
10
1.313828
20
-4.313847
30
0
11
2.150845
21
-4.314349
31
0
39
0
210
0
220
0
230
1
0
LINE
5
80
100
AcDbEntity
8
SK1
62
256
6
ByLayer
370
18
48
1
60
0
100
AcDbLine
10
0
20
5
30
0
11
-38.845299
21
5
31
0
39
0
210
0
220
0
230
1
0
LINE
5
82
100
AcDbEntity
8
SK1
62
256
6
ByLayer
370
18
48
1
60
0
100
AcDbLine
10
-38.845299
20
-5
30
0
11
0
21
-5
31
0
39
0
210
0
220
0
230
1
0
LINE
5
83
100
AcDbEntity
8
SK1
62
256
6
ByLayer
370
18
48
1
60
0
100
AcDbLine
10
-38.845299
20
5
30
0
11
-40
21
3
31
0
39
0
210
0
220
0
230
1
0
LINE
5
84
100
AcDbEntity
8
SK1
62
256
6
ByLayer
370
18
48
1
60
0
100
AcDbLine
10
-40
20
-3
30
0
11
-38.845299
21
-5
31
0
39
0
210
0
220
0
230
1
0
LINE
5
85
100
AcDbEntity
8
SK4
62
256
6
ByLayer
370
18
48
0.05
60
0
100
AcDbLine
10
68
20
0
30
0
11
-45
21
0
31
0
39
0
210
0
220
0
230
1
0
LINE
5
87
100
AcDbEntity
8
4
62
256
6
ByLayer
370
18
48
0.05
60
0
100
AcDbLine
10
63
20
0
30
0
11
0
21
0
31
0
39
0
210
0
220
0
230
1
0
LINE
5
89
100
AcDbEntity
8
80
62
256
6
ByLayer
370
18
48
1
60
0
100
AcDbLine
10
0
20
0
30
0
11
-5
21
0
31
0
39
0
210
0
220
0
230
1
0
LINE
5
8A
100
AcDbEntity
8
1
62
256
6
ByLayer
370
18
48
1
60
0
100
AcDbLine
10
62.915626
20
-0.303288
30
0
11
62.78234
21
-0.831946
31
0
39
0
210
0
220
0
230
1
0
LINE
5
8B
100
AcDbEntity
8
1
62
256
6
ByLayer
370
13
48
1
60
0
100
AcDbLine
10
0.656674
20
4.656923
30
0
11
0.656674
21
-4.656923
31
0
39
0
210
0
220
0
230
1
0
LINE
5
8C
100
AcDbEntity
8
1
62
256
6
ByLayer
370
13
48
1
60
0
100
AcDbLine
10
62.024627
20
0.831946
30
0
11
62.915626
21
0.303288
31
0
39
0
210
0
220
0
230
1
0
LINE
5
8D
100
AcDbEntity
8
1
62
256
6
ByLayer
370
13
48
1
60
0
100
AcDbLine
10
61.834721
20
0.496617
30
0
11
62.894684
21
-0.132294
31
0
39
0
210
0
220
0
230
1
0
LINE
5
8E
100
AcDbEntity
8
1
62
256
6
ByLayer
370
13
48
1
60
0
100
AcDbLine
10
1.313828
20
4.313847
30
0
11
1.313828
21
-4.313847
31
0
39
0
210
0
220
0
230
1
0
LINE
5
8F
100
AcDbEntity
8
1
62
256
6
ByLayer
370
18
48
1
60
0
100
AcDbLine
10
62.915626
20
0.303288
30
0
11
62.78234
21
0.831946
31
0
39
0
210
0
220
0
230
1
0
LINE
5
90
100
AcDbEntity
8
1
62
256
6
ByLayer
370
18
48
1
60
0
100
AcDbLine
10
60.829392
20
-2.26577
30
0
11
62.894684
21
-0.132294
31
0
39
0
210
0
220
0
230
1
0
LINE
5
91
100
AcDbEntity
8
1
62
256
6
ByLayer
370
18
48
1
60
0
100
AcDbLine
10
63
20
0
30
0
11
61.489179
21
-4.150947
31
0
39
0
210
0
220
0
230
1
0
LINE
5
92
100
AcDbEntity
8
1
62
256
6
ByLayer
370
18
48
1
60
0
100
AcDbLine
10
62.991463
20
0.042501
30
0
11
63
21
0
31
0
39
0
210
0
220
0
230
1
0
LINE
5
93
100
AcDbEntity
8
1
62
256
6
ByLayer
370
13
48
1
60
0
100
AcDbLine
10
62.78234
20
0.831946
30
0
11
62.024627
21
0.831946
31
0
39
0
210
0
220
0
230
1
0
LINE
5
94
100
AcDbEntity
8
1
62
256
6
ByLayer
370
18
48
1
60
0
100
AcDbLine
10
63
20
0
30
0
11
62.991463
21
-0.042501
31
0
39
0
210
0
220
0
230
1
0
LINE
5
95
100
AcDbEntity
8
1
62
256
6
ByLayer
370
18
48
1
60
0
100
AcDbLine
10
0
20
-5
30
0
11
0
21
5
31
0
39
0
210
0
220
0
230
1
0
LINE
5
96
100
AcDbEntity
8
SK1
62
256
6
ByLayer
370
18
48
1
60
0
100
AcDbLine
10
0
20
-5
30
0
11
0
21
5
31
0
39
0
210
0
220
0
230
1
0
LINE
5
97
100
AcDbEntity
8
SK1
62
256
6
ByLayer
370
18
48
1
60
0
100
AcDbLine
10
-40
20
-1.430228
30
0
11
-40
21
-2.931385
31
0
39
0
210
0
220
0
230
1
0
LINE
5
98
100
AcDbEntity
8
SK1
62
256
6
ByLayer
370
18
48
1
60
0
100
AcDbLine
10
-38.845299
20
5
30
0
11
-38.845299
21
-5
31
0
39
0
210
0
220
0
230
1
0
LINE
5
99
100
AcDbEntity
8
SK1
62
256
6
ByLayer
370
13
48
1
60
0
100
AcDbLine
10
-14.336014
20
4.963244
30
0
11
-14.336014
21
-1.233677
31
0
39
0
210
0
220
0
230
1
0
LINE
5
9A
100
AcDbEntity
8
SK1
62
256
6
ByLayer
370
18
48
1
60
0
100
AcDbLine
10
-38.85
20
-4.574951
30
0
11
-38.85
21
-3.19392
31
0
39
0
210
0
220
0
230
1
0
LINE
5
9B
100
AcDbEntity
8
SK1
62
256
6
ByLayer
370
13
48
1
60
0
100
AcDbLine
10
-33.36438
20
4.518551
30
0
11
-33.36438
21
0.358695
31
0
39
0
210
0
220
0
230
1
0
LINE
5
9C
100
AcDbEntity
8
SK1
62
256
6
ByLayer
370
18
48
1
60
0
100
AcDbLine
10
-40
20
3
30
0
11
-40
21
-1.430265
31
0
39
0
210
0
220
0
230
1
0
LINE
5
9D
100
AcDbEntity
8
SK1
62
256
6
ByLayer
370
13
48
1
60
0
100
AcDbLine
10
-38.95
20
-2.970721
30
0
11
-38.95
21
-4.471955
31
0
39
0
210
0
220
0
230
1
0
LINE
5
9E
100
AcDbEntity
8
SK1
62
256
6
ByLayer
370
13
48
1
60
0
100
AcDbLine
10
-32.528635
20
4.766727
30
0
11
-32.528635
21
-0.319642
31
0
39
0
210
0
220
0
230
1
0
LINE
5
9F
100
AcDbEntity
8
SK1
62
256
6
ByLayer
370
13
48
1
60
0
100
AcDbLine
10
-13.475736
20
4.889505
30
0
11
-13.475736
21
-0.796668
31
0
39
0
210
0
220
0
230
1
0
LINE
5
A0
100
AcDbEntity
8
SK1
62
256
6
ByLayer
370
18
48
1
60
0
100
AcDbLine
10
-40
20
-3
30
0
11
-40
21
-2.931385
31
0
39
0
210
0
220
0
230
1
0
MTEXT
5
F3
100
AcDbEntity
8
SK6
62
256
6
ByLayer
370
13
48
1
60
0
100
AcDbMText
10
13.629169
20
36.732694
30
0
210
0
220
0
230
1
1
\W0.7544;R840-0870-50-W1A1220
40
3.5
41
0
44
1.084337
50
0
71
8
72
5
7
iso_b_vert
0
DIMENSION
5
100
100
AcDbEntity
8
SK2
62
256
6
ByLayer
370
13
48
1
60
0
100
AcDbDimension
2
DimnDraft3D1
10
61.51
20
-14.563398
30
0
11
29.260059
21
-14.563398
31
0
70
32
71
5
72
1
41
1
210
0
220
0
230
1
3
Standard
100
AcDbAlignedDimension
13
0
23
-1.5875
33
0
14
61.51
24
-5.9375
34
0
50
0
100
AcDbRotatedDimension
1001
ACAD
1000
DSTYLE
1002
{
1070
   279
1070
     0
1070
   172
1070
     1
1070
   173
1070
     1
1070
   340
1005
F4
1070
   271
1070
     2
1070
   272
1070
     2
1070
    77
1070
     1
1070
    73
1070
     0
1070
   171
1070
     3
1070
   274
1070
     4
1070
   177
1070
    35
1070
   176
1070
    35
1070
   178
1070
    35
1070
    48
1040
-0.005
1070
    41
1041
3.5
1070
   147
1041
1.75
1070
    42
1041
1.5875
1070
    44
1041
2.0
1070
   140
1041
3.5
1070
   343
1005
0
1070
   344
1005
0
1002
}
0
DIMENSION
5
10A
100
AcDbEntity
8
SK2
62
256
6
ByLayer
370
13
48
1
60
0
100
AcDbDimension
2
DimnDraft3D2
10
63
20
-33.692985
30
0
11
11.3513
21
-33.692985
31
0
70
32
71
5
72
1
41
1
210
0
220
0
230
1
3
Standard
100
AcDbAlignedDimension
13
-40
23
-6.5875
33
0
14
63
24
-1.5875
34
0
50
0
100
AcDbRotatedDimension
1001
ACAD
1000
DSTYLE
1002
{
1070
   279
1070
     0
1070
   172
1070
     1
1070
   173
1070
     1
1070
   340
1005
F4
1070
   271
1070
     2
1070
   272
1070
     2
1070
    77
1070
     1
1070
    73
1070
     0
1070
   171
1070
     3
1070
   274
1070
     4
1070
   177
1070
    35
1070
   176
1070
    35
1070
   178
1070
    35
1070
    48
1040
-0.005
1070
    41
1041
3.5
1070
   147
1041
1.75
1070
    42
1041
1.5875
1070
    44
1041
2.0
1070
   140
1041
3.5
1070
   343
1005
0
1070
   344
1005
0
1002
}
0
DIMENSION
5
114
100
AcDbEntity
8
SK2
62
256
6
ByLayer
370
13
48
1
60
0
100
AcDbDimension
2
DimnDraft3D3
10
63
20
15.959119
30
0
11
40.505
21
15.959119
31
0
70
32
71
5
72
1
41
1
210
0
220
0
230
1
3
Standard
100
AcDbAlignedDimension
13
18.01
23
5.9375
33
0
14
63
24
1.5875
34
0
50
0
100
AcDbRotatedDimension
1001
ACAD
1000
DSTYLE
1002
{
1070
   279
1070
     0
1070
   172
1070
     1
1070
   173
1070
     1
1070
   340
1005
F4
1070
   271
1070
     2
1070
   272
1070
     2
1070
    77
1070
     1
1070
    73
1070
     0
1070
   171
1070
     3
1070
   274
1070
     4
1070
   177
1070
    35
1070
   176
1070
    35
1070
   178
1070
    35
1070
    48
1040
-0.005
1070
    41
1041
3.5
1070
   147
1041
1.75
1070
    42
1041
1.5875
1070
    44
1041
2.0
1070
   140
1041
3.5
1070
   343
1005
0
1070
   344
1005
0
1002
}
0
DIMENSION
5
11E
100
AcDbEntity
8
SK2
62
256
6
ByLayer
370
13
48
1
60
0
100
AcDbDimension
2
DimnDraft3D4
10
61.51
20
-17.152503
30
0
11
72.981425
21
-17.152503
31
0
70
32
71
5
72
1
41
1
210
0
220
0
230
1
3
Standard
100
AcDbAlignedDimension
13
63
23
-1.5875
33
0
14
61.51
24
-5.9375
34
0
50
0
100
AcDbRotatedDimension
1001
ACAD
1000
DSTYLE
1002
{
1070
   279
1070
     0
1070
   172
1070
     1
1070
   173
1070
     1
1070
   340
1005
F4
1070
   271
1070
     2
1070
   272
1070
     2
1070
    77
1070
     1
1070
    73
1070
     0
1070
   171
1070
     3
1070
   274
1070
     4
1070
   177
1070
    35
1070
   176
1070
    35
1070
   178
1070
    35
1070
    48
1040
-0.005
1070
    41
1041
3.5
1070
   147
1041
1.75
1070
    42
1041
1.5875
1070
    44
1041
2.0
1070
   140
1041
3.5
1070
   343
1005
0
1070
   344
1005
0
1002
}
0
DIMENSION
5
128
100
AcDbEntity
8
SK2
62
256
6
ByLayer
370
13
48
1
60
0
100
AcDbDimension
2
DimnDraft3D5
10
61.51
20
-23.343428
30
0
11
8.270676
21
-23.343428
31
0
70
32
71
5
72
1
41
1
210
0
220
0
230
1
3
Standard
100
AcDbAlignedDimension
13
-40
23
-6.5875
33
0
14
61.51
24
-5.9375
34
0
50
0
100
AcDbRotatedDimension
1001
ACAD
1000
DSTYLE
1002
{
1070
   279
1070
     0
1070
   172
1070
     1
1070
   173
1070
     1
1070
   340
1005
F4
1070
   271
1070
     2
1070
   272
1070
     2
1070
    77
1070
     1
1070
    73
1070
     0
1070
   171
1070
     3
1070
   274
1070
     4
1070
   177
1070
    35
1070
   176
1070
    35
1070
   178
1070
    35
1070
    48
1040
-0.005
1070
    41
1041
3.5
1070
   147
1041
1.75
1070
    42
1041
1.5875
1070
    44
1041
2.0
1070
   140
1041
3.5
1070
   343
1005
0
1070
   344
1005
0
1002
}
0
DIMENSION
5
133
100
AcDbEntity
8
SK2
62
256
6
ByLayer
370
13
48
1
60
0
100
AcDbDimension
2
DimnDraft3D6
10
-50.625163
20
5
30
0
11
-51.250163
21
23.47418
31
0
70
33
71
5
72
1
41
1
210
0
220
0
230
1
3
Standard
100
AcDbAlignedDimension
13
-41.5875
23
-5
33
0
14
-41.5875
24
5
34
0
1001
ACAD
1000
DSTYLE
1002
{
1070
   279
1070
     0
1070
    74
1070
     0
1070
   173
1070
     1
1070
   340
1005
F4
1070
   271
1070
     3
1070
   272
1070
     2
1070
    77
1070
     1
1070
    73
1070
     0
1070
   171
1070
     3
1070
   274
1070
     4
1070
   177
1070
    35
1070
   176
1070
    35
1070
   178
1070
    35
1070
    48
1040
-0.005
1070
    41
1041
3.5
1070
   147
1041
1.75
1070
    42
1041
1.5875
1070
    44
1041
2.0
1070
   140
1041
3.5
1070
   343
1005
0
1070
   344
1005
0
1002
}
0
DIMENSION
5
13E
100
AcDbEntity
8
2
62
256
6
ByLayer
370
13
48
1
60
0
100
AcDbDimension
2
DimnDraft3D7
10
77.083343
20
4.35
30
0
11
72.458343
21
21.417266
31
0
70
33
71
5
72
1
41
1
210
0
220
0
230
1
3
Standard
100
AcDbAlignedDimension
13
63.0975
23
-4.35
33
0
14
63.0975
24
4.35
34
0
1001
ACAD
1000
DSTYLE
1002
{
1070
   279
1070
     0
1070
    74
1070
     0
1070
   173
1070
     1
1070
   340
1005
F4
1070
   271
1070
     3
1070
   272
1070
     2
1070
    77
1070
     1
1070
    73
1070
     0
1070
   171
1070
     3
1070
   274
1070
     4
1070
   177
1070
    35
1070
   176
1070
    35
1070
   178
1070
    35
1070
    48
1040
-0.005
1070
    41
1041
3.5
1070
   147
1041
1.75
1070
    42
1041
1.5875
1070
    44
1041
2.0
1070
   140
1041
3.5
1070
   343
1005
0
1070
   344
1005
0
1002
}
0
ENDSEC
0
SECTION
2
OBJECTS
0
DICTIONARY
5
1a9
330
0
100
AcDbDictionary
280
0
281
1
3
ACAD_GROUP
350
1aa
3
ACAD_MLINESTYLE
350
1ab
0
DICTIONARY
5
1aa
330
0
100
AcDbDictionary
280
0
281
1
0
DICTIONARY
5
1ab
330
0
100
AcDbDictionary
280
0
281
1
3
Standard
350
18
0
MLINESTYLE
5
18
330
1ab
100
AcDbMlineStyle
2
Standard
70
0
3

62
256
51
90
52
90
71
2
49
-0.5
62
256
6
ByLayer
49
0.5
62
256
6
ByLayer
0
RASTERVARIABLES
5
197
330

100
AcDbRasterVariables
90
0
70
1
71
1
72
1
0
ENDSEC
0
EOF
