0
SECTION
2
HEADER
9
$ACADVER
1
AC1015
9
$DWGCODEPAGE
3
ANSI_1252
9
$HANDSEED
5
1ab
9
$ANGBASE
50
0
9
$ANGDIR
70
0
9
$ATTMODE
70
1
9
$AUNITS
70
0
9
$AUPREC
70
0
9
$CECOLOR
62
256
9
$CELTSCALE
40
1
9
$CELTYPE
6
ByLayer
9
$CELWEIGHT
370
18
9
$CLAYER
8
0
9
$CMLJUST
70
0
9
$CMLSCALE
40
1
9
$CMLSTYLE
2
Standard
9
$DIMSTYLE
2
Standard
9
$TEXTSIZE
40
0.2
9
$TEXTSTYLE
7
Standard
9
$LUNITS
70
2
9
$LUPREC
70
4
9
$EXTNAMES
290
1
9
$INSUNITS
70
4
9
$LTSCALE
40
1
9
$LWDISPLAY
290
1
9
$PDMODE
70
0
9
$PDSIZE
40
0
9
$PLINEGEN
70
0
0
ENDSEC
0
SECTION
2
CLASSES
0
CLASS
1
RASTERVARIABLES
2
AcDbRasterVariables
3
ISM
90
0
280
0
281
0
0
ENDSEC
0
SECTION
2
TABLES
0
TABLE
2
VPORT
5
1a1
100
AcDbSymbolTable
0
VPORT
5
1
100
AcDbSymbolTableRecord
100
AcDbViewportTableRecord
2
*Active
70
0
10
0
20
0
11
1
21
1
12
-1
22
1
13
0
23
0
14
0.5
24
0.5
15
10
25
10
16
0
26
0
36
1
17
0
27
0
37
0
0
ENDTAB
0
TABLE
2
LTYPE
5
1a2
100
AcDbSymbolTable
0
LTYPE
5
14
100
AcDbSymbolTableRecord
100
AcDbLinetypeTableRecord
70
0
2
ByBlock
3

72
65
73
0
40
0
0
LTYPE
5
15
100
AcDbSymbolTableRecord
100
AcDbLinetypeTableRecord
70
0
2
ByLayer
3

72
65
73
0
40
0
0
LTYPE
5
16
100
AcDbSymbolTableRecord
100
AcDbLinetypeTableRecord
70
0
2
CONTINUOUS
3
Solid line
72
65
73
0
40
0
0
LTYPE
5
6A
100
AcDbSymbolTableRecord
100
AcDbLinetypeTableRecord
70
0
2
CENTER
3
____ _ ____ _ ____ _ ____
72
65
73
4
40
47.5
49
22
74
0
49
-8.5
74
0
49
8.5
74
0
49
-8.5
74
0
0
LTYPE
5
6B
100
AcDbSymbolTableRecord
100
AcDbLinetypeTableRecord
70
0
2
DASHED
3
__ __ __ __ __ __ __ __ __
72
65
73
2
40
25.72
49
12.86
74
0
49
-12.86
74
0
0
ENDTAB
0
TABLE
2
LAYER
5
1a3
100
AcDbSymbolTable
0
LAYER
5
10
100
AcDbSymbolTableRecord
100
AcDbLayerTableRecord
2
0
70
0
62
7
6
CONTINUOUS
290
1
370
-3
390
0
0
LAYER
5
6D
100
AcDbSymbolTableRecord
100
AcDbLayerTableRecord
2
81
70
0
62
-3
6
CONTINUOUS
290
1
370
-3
390
0
0
LAYER
5
6F
100
AcDbSymbolTableRecord
100
AcDbLayerTableRecord
2
80
70
0
62
-6
6
CONTINUOUS
290
1
370
-3
390
0
0
LAYER
5
74
100
AcDbSymbolTableRecord
100
AcDbLayerTableRecord
2
2
70
0
62
7
6
CONTINUOUS
290
1
370
-3
390
0
0
LAYER
5
78
100
AcDbSymbolTableRecord
100
AcDbLayerTableRecord
2
1
70
0
62
4
6
CONTINUOUS
290
1
370
-3
390
0
0
LAYER
5
88
100
AcDbSymbolTableRecord
100
AcDbLayerTableRecord
2
4
70
0
62
-2
6
CENTER
290
1
370
-3
390
0
0
LAYER
5
18d
100
AcDbSymbolTableRecord
100
AcDbLayerTableRecord
2
SK2
70
0
62
7
6
CONTINUOUS
290
1
370
-3
390
0
0
LAYER
5
18e
100
AcDbSymbolTableRecord
100
AcDbLayerTableRecord
2
SK1
70
0
62
4
6
CONTINUOUS
290
1
370
-3
390
0
0
LAYER
5
18f
100
AcDbSymbolTableRecord
100
AcDbLayerTableRecord
2
SK4
70
0
62
2
6
CENTER
290
1
370
-3
390
0
0
LAYER
5
190
100
AcDbSymbolTableRecord
100
AcDbLayerTableRecord
2
SK6
70
0
62
5
6
CONTINUOUS
290
1
370
-3
390
0
0
ENDTAB
0
TABLE
2
STYLE
5
1a4
100
AcDbSymbolTable
0
STYLE
5
11
100
AcDbSymbolTableRecord
100
AcDbTextStyleTableRecord
2
Standard
3
txt
70
0
71
0
40
0
41
1
42
0
50
0
0
STYLE
5
E9
100
AcDbSymbolTableRecord
100
AcDbTextStyleTableRecord
2
iso_b_vert
3
simplex.shx
70
0
71
0
40
0
41
1
42
0
50
0
0
STYLE
5
EA
100
AcDbSymbolTableRecord
100
AcDbTextStyleTableRecord
2
DWGDirectTextStyle
3
simplex
70
0
71
0
40
0
41
1
42
0
50
0
0
ENDTAB
0
TABLE
2
DIMSTYLE
5
1a5
100
AcDbSymbolTable
100
AcDbDimStyleTable
0
DIMSTYLE
105
27
100
AcDbSymbolTableRecord
100
AcDbDimStyleTableRecord
2
Standard
70
0
3
<>
41
0.18
42
0.0625
44
0.18
140
0.18
147
0.09
73
0
74
0
77
1
271
2
275
0
278
52
280
0
340
11
0
ENDTAB
0
TABLE
2
VIEW
5
1a6
100
AcDbSymbolTable
0
ENDTAB
0
TABLE
2
UCS
5
1a7
100
AcDbSymbolTable
0
ENDTAB
0
TABLE
2
APPID
5
1a8
100
AcDbSymbolTable
0
APPID
5
12
100
AcDbSymbolTableRecord
100
AcDbRegAppTableRecord
2
ACAD
70
0
0
ENDTAB
0
TABLE
2
BLOCK_RECORD
5
1a9
100
AcDbSymbolTable
0
BLOCK_RECORD
5
1F
100
AcDbSymbolTableRecord
100
AcDbBlockTableRecord
2
*Model_Space
340
0
70
0
0
BLOCK_RECORD
5
1B
100
AcDbSymbolTableRecord
100
AcDbBlockTableRecord
2
*Paper_Space
340
0
70
0
0
BLOCK_RECORD
5
23
100
AcDbSymbolTableRecord
100
AcDbBlockTableRecord
2
*Paper_Space0
340
0
70
0
0
BLOCK_RECORD
5
EC
100
AcDbSymbolTableRecord
100
AcDbBlockTableRecord
2
DimnDraft3D1
340
0
70
0
0
BLOCK_RECORD
5
F6
100
AcDbSymbolTableRecord
100
AcDbBlockTableRecord
2
DimnDraft3D2
340
0
70
0
0
BLOCK_RECORD
5
100
100
AcDbSymbolTableRecord
100
AcDbBlockTableRecord
2
DimnDraft3D3
340
0
70
0
0
BLOCK_RECORD
5
10A
100
AcDbSymbolTableRecord
100
AcDbBlockTableRecord
2
DimnDraft3D4
340
0
70
0
0
BLOCK_RECORD
5
114
100
AcDbSymbolTableRecord
100
AcDbBlockTableRecord
2
DimnDraft3D5
340
0
70
0
0
BLOCK_RECORD
5
11E
100
AcDbSymbolTableRecord
100
AcDbBlockTableRecord
2
DimnDraft3D6
340
0
70
0
0
BLOCK_RECORD
5
129
100
AcDbSymbolTableRecord
100
AcDbBlockTableRecord
2
DimnDraft3D7
340
0
70
0
0
ENDTAB
0
ENDSEC
0
SECTION
2
BLOCKS
0
BLOCK
5
20
100
AcDbEntity
8
0
100
AcDbBlockBegin
2
*Model_Space
70
0
10
0
20
0
30
0
3
*Model_Space
0
ENDBLK
5
21
100
AcDbEntity
8
0
100
AcDbBlockEnd
0
BLOCK
5
1C
100
AcDbEntity
8
0
100
AcDbBlockBegin
2
*Paper_Space
70
0
10
0
20
0
30
0
3
*Paper_Space
0
ENDBLK
5
1D
100
AcDbEntity
8
0
100
AcDbBlockEnd
0
BLOCK
5
24
100
AcDbEntity
8
0
100
AcDbBlockBegin
2
*Paper_Space0
70
0
10
0
20
0
30
0
3
*Paper_Space0
0
ENDBLK
5
25
100
AcDbEntity
8
0
100
AcDbBlockEnd
0
BLOCK
5
F3
100
AcDbEntity
8
0
100
AcDbBlockBegin
2
DimnDraft3D1
70
0
10
0
20
0
30
0
3
DimnDraft3D1
0
MTEXT
5
ED
100
AcDbEntity
8
SK2
62
256
6
ByLayer
370
13
48
1
60
0
100
AcDbMText
10
33.351375
20
-13.588398
30
0
210
0
220
0
230
1
1
\W0.7317;78,55
40
3.5
41
0
44
1.084337
50
0
71
7
72
5
7
iso_b_vert
0
LINE
5
EE
100
AcDbEntity
8
SK2
62
256
6
ByLayer
370
13
48
1
60
0
100
AcDbLine
10
0
20
-1.5875
30
0
11
0
21
-16.463398
31
0
39
0
210
0
220
0
230
1
0
LINE
5
EF
100
AcDbEntity
8
SK2
62
256
6
ByLayer
370
13
48
1
60
0
100
AcDbLine
10
78.55
20
-5.8375
30
0
11
78.55
21
-16.463398
31
0
39
0
210
0
220
0
230
1
0
LINE
5
F0
100
AcDbEntity
8
SK2
62
256
6
ByLayer
370
13
48
1
60
0
100
AcDbLine
10
0
20
-14.463398
30
0
11
78.55
21
-14.463398
31
0
39
0
210
0
220
0
230
1
0
SOLID
5
F1
100
AcDbEntity
8
SK2
62
256
6
ByLayer
370
13
48
1
60
0
100
AcDbTrace
10
0
20
-14.463398
30
0
11
3.499998
21
-14.002615
31
0
12
3.500002
22
-14.924182
32
0
13
0
23
-14.463398
33
0
39
0
210
0
220
0
230
1
0
SOLID
5
F2
100
AcDbEntity
8
SK2
62
256
6
ByLayer
370
13
48
1
60
0
100
AcDbTrace
10
78.55
20
-14.463398
30
0
11
75.050002
21
-14.924182
31
0
12
75.049998
22
-14.002615
32
0
13
78.55
23
-14.463398
33
0
39
0
210
0
220
0
230
1
0
ENDBLK
5
F4
100
AcDbEntity
8
0
100
AcDbBlockEnd
0
BLOCK
5
FD
100
AcDbEntity
8
0
100
AcDbBlockBegin
2
DimnDraft3D2
70
0
10
0
20
0
30
0
3
DimnDraft3D2
0
MTEXT
5
F7
100
AcDbEntity
8
SK2
62
256
6
ByLayer
370
13
48
1
60
0
100
AcDbMText
10
14.572221
20
-32.817985
30
0
210
0
220
0
230
1
1
\W0.6930;120,00
40
3.5
41
0
44
1.084337
50
0
71
7
72
5
7
iso_b_vert
0
LINE
5
F8
100
AcDbEntity
8
SK2
62
256
6
ByLayer
370
13
48
1
60
0
100
AcDbLine
10
-40
20
-6.5875
30
0
11
-40
21
-35.692985
31
0
39
0
210
0
220
0
230
1
0
LINE
5
F9
100
AcDbEntity
8
SK2
62
256
6
ByLayer
370
13
48
1
60
0
100
AcDbLine
10
80
20
-1.5875
30
0
11
80
21
-35.692985
31
0
39
0
210
0
220
0
230
1
0
LINE
5
FA
100
AcDbEntity
8
SK2
62
256
6
ByLayer
370
13
48
1
60
0
100
AcDbLine
10
-40
20
-33.692985
30
0
11
80
21
-33.692985
31
0
39
0
210
0
220
0
230
1
0
SOLID
5
FB
100
AcDbEntity
8
SK2
62
256
6
ByLayer
370
13
48
1
60
0
100
AcDbTrace
10
-40
20
-33.692985
30
0
11
-36.500002
21
-33.232202
31
0
12
-36.499998
22
-34.153769
32
0
13
-40
23
-33.692985
33
0
39
0
210
0
220
0
230
1
0
SOLID
5
FC
100
AcDbEntity
8
SK2
62
256
6
ByLayer
370
13
48
1
60
0
100
AcDbTrace
10
80
20
-33.692985
30
0
11
76.500002
21
-34.153769
31
0
12
76.499998
22
-33.232202
32
0
13
80
23
-33.692985
33
0
39
0
210
0
220
0
230
1
0
ENDBLK
5
FE
100
AcDbEntity
8
0
100
AcDbBlockEnd
0
BLOCK
5
107
100
AcDbEntity
8
0
100
AcDbBlockBegin
2
DimnDraft3D3
70
0
10
0
20
0
30
0
3
DimnDraft3D3
0
MTEXT
5
101
100
AcDbEntity
8
SK2
62
256
6
ByLayer
370
13
48
1
60
0
100
AcDbMText
10
40.642105
20
16.734119
30
0
210
0
220
0
230
1
1
\W0.7581;69,45
40
3.5
41
0
44
1.084337
50
0
71
7
72
5
7
iso_b_vert
0
LINE
5
102
100
AcDbEntity
8
SK2
62
256
6
ByLayer
370
13
48
1
60
0
100
AcDbLine
10
10.55
20
5.8375
30
0
11
10.55
21
17.859119
31
0
39
0
210
0
220
0
230
1
0
LINE
5
103
100
AcDbEntity
8
SK2
62
256
6
ByLayer
370
13
48
1
60
0
100
AcDbLine
10
80
20
1.5875
30
0
11
80
21
17.859119
31
0
39
0
210
0
220
0
230
1
0
LINE
5
104
100
AcDbEntity
8
SK2
62
256
6
ByLayer
370
13
48
1
60
0
100
AcDbLine
10
10.55
20
15.859119
30
0
11
80
21
15.859119
31
0
39
0
210
0
220
0
230
1
0
SOLID
5
105
100
AcDbEntity
8
SK2
62
256
6
ByLayer
370
13
48
1
60
0
100
AcDbTrace
10
10.55
20
15.859119
30
0
11
14.049998
21
16.319903
31
0
12
14.050002
22
15.398335
32
0
13
10.55
23
15.859119
33
0
39
0
210
0
220
0
230
1
0
SOLID
5
106
100
AcDbEntity
8
SK2
62
256
6
ByLayer
370
13
48
1
60
0
100
AcDbTrace
10
80
20
15.859119
30
0
11
76.500002
21
15.398335
31
0
12
76.499998
22
16.319903
32
0
13
80
23
15.859119
33
0
39
0
210
0
220
0
230
1
0
ENDBLK
5
108
100
AcDbEntity
8
0
100
AcDbBlockEnd
0
BLOCK
5
111
100
AcDbEntity
8
0
100
AcDbBlockBegin
2
DimnDraft3D4
70
0
10
0
20
0
30
0
3
DimnDraft3D4
0
MTEXT
5
10B
100
AcDbEntity
8
SK2
62
256
6
ByLayer
370
13
48
1
60
0
100
AcDbMText
10
87.093925
20
-16.177503
30
0
210
0
220
0
230
1
1
\W0.6709;1,45
40
3.5
41
0
44
1.084337
50
0
71
7
72
5
7
iso_b_vert
0
LINE
5
10C
100
AcDbEntity
8
SK2
62
256
6
ByLayer
370
13
48
1
60
0
100
AcDbLine
10
80
20
-1.5875
30
0
11
80
21
-19.052503
31
0
39
0
210
0
220
0
230
1
0
LINE
5
10D
100
AcDbEntity
8
SK2
62
256
6
ByLayer
370
13
48
1
60
0
100
AcDbLine
10
78.55
20
-5.8375
30
0
11
78.55
21
-19.052503
31
0
39
0
210
0
220
0
230
1
0
LINE
5
10E
100
AcDbEntity
8
SK2
62
256
6
ByLayer
370
13
48
1
60
0
100
AcDbLine
10
69.8
20
-17.052503
30
0
11
93.743925
21
-17.052503
31
0
39
0
210
0
220
0
230
1
0
SOLID
5
10F
100
AcDbEntity
8
SK2
62
256
6
ByLayer
370
13
48
1
60
0
100
AcDbTrace
10
80
20
-17.052503
30
0
11
83.499998
21
-16.591719
31
0
12
83.500002
22
-17.513287
32
0
13
80
23
-17.052503
33
0
39
0
210
0
220
0
230
1
0
SOLID
5
110
100
AcDbEntity
8
SK2
62
256
6
ByLayer
370
13
48
1
60
0
100
AcDbTrace
10
78.55
20
-17.052503
30
0
11
75.050002
21
-17.513287
31
0
12
75.049998
22
-16.591719
32
0
13
78.55
23
-17.052503
33
0
39
0
210
0
220
0
230
1
0
ENDBLK
5
112
100
AcDbEntity
8
0
100
AcDbBlockEnd
0
BLOCK
5
11B
100
AcDbEntity
8
0
100
AcDbBlockBegin
2
DimnDraft3D5
70
0
10
0
20
0
30
0
3
DimnDraft3D5
0
MTEXT
5
115
100
AcDbEntity
8
SK2
62
256
6
ByLayer
370
13
48
1
60
0
100
AcDbMText
10
11.929097
20
-22.468428
30
0
210
0
220
0
230
1
1
\W0.6440;118,55
40
3.5
41
0
44
1.084337
50
0
71
7
72
5
7
iso_b_vert
0
LINE
5
116
100
AcDbEntity
8
SK2
62
256
6
ByLayer
370
13
48
1
60
0
100
AcDbLine
10
-40
20
-6.5875
30
0
11
-40
21
-25.343428
31
0
39
0
210
0
220
0
230
1
0
LINE
5
117
100
AcDbEntity
8
SK2
62
256
6
ByLayer
370
13
48
1
60
0
100
AcDbLine
10
78.55
20
-5.8375
30
0
11
78.55
21
-25.343428
31
0
39
0
210
0
220
0
230
1
0
LINE
5
118
100
AcDbEntity
8
SK2
62
256
6
ByLayer
370
13
48
1
60
0
100
AcDbLine
10
-40
20
-23.343428
30
0
11
78.55
21
-23.343428
31
0
39
0
210
0
220
0
230
1
0
SOLID
5
119
100
AcDbEntity
8
SK2
62
256
6
ByLayer
370
13
48
1
60
0
100
AcDbTrace
10
-40
20
-23.343428
30
0
11
-36.500002
21
-22.882645
31
0
12
-36.499998
22
-23.804212
32
0
13
-40
23
-23.343428
33
0
39
0
210
0
220
0
230
1
0
SOLID
5
11A
100
AcDbEntity
8
SK2
62
256
6
ByLayer
370
13
48
1
60
0
100
AcDbTrace
10
78.55
20
-23.343428
30
0
11
75.050002
21
-23.804212
31
0
12
75.049998
22
-22.882645
32
0
13
78.55
23
-23.343428
33
0
39
0
210
0
220
0
230
1
0
ENDBLK
5
11C
100
AcDbEntity
8
0
100
AcDbBlockEnd
0
BLOCK
5
126
100
AcDbEntity
8
0
100
AcDbBlockBegin
2
DimnDraft3D6
70
0
10
0
20
0
30
0
3
DimnDraft3D6
0
MTEXT
5
11F
100
AcDbEntity
8
SK2
62
256
6
ByLayer
370
13
48
1
60
0
100
AcDbMText
10
-50.375163
20
24.34918
30
0
210
0
220
0
230
1
1
\W0.6930;10,000
40
3.5
41
0
44
1.084337
50
90
71
7
72
5
7
iso_b_vert
0
MTEXT
5
120
100
AcDbEntity
8
SK2
62
256
6
ByLayer
370
13
48
1
60
0
100
AcDbMText
10
-50.375163
20
19.126524
30
0
210
0
220
0
230
1
1
%%c
40
3.5
41
0
44
1.084337
50
90
71
7
72
5
7
iso_b_vert
0
LINE
5
121
100
AcDbEntity
8
SK2
62
256
6
ByLayer
370
13
48
1
60
0
100
AcDbLine
10
-41.5875
20
-5
30
0
11
-50.625163
21
-5
31
0
39
0
210
0
220
0
230
1
0
LINE
5
122
100
AcDbEntity
8
SK2
62
256
6
ByLayer
370
13
48
1
60
0
100
AcDbLine
10
-41.5875
20
5
30
0
11
-50.625163
21
5
31
0
39
0
210
0
220
0
230
1
0
LINE
5
123
100
AcDbEntity
8
SK2
62
256
6
ByLayer
370
13
48
1
60
0
100
AcDbLine
10
-48.625163
20
-5
30
0
11
-48.625163
21
35.862338
31
0
39
0
210
0
220
0
230
1
0
SOLID
5
124
100
AcDbEntity
8
SK2
62
256
6
ByLayer
370
13
48
1
60
0
100
AcDbTrace
10
-48.625163
20
-5
30
0
11
-49.085946
21
-1.500002
31
0
12
-48.164379
22
-1.499998
32
0
13
-48.625163
23
-5
33
0
39
0
210
0
220
0
230
1
0
SOLID
5
125
100
AcDbEntity
8
SK2
62
256
6
ByLayer
370
13
48
1
60
0
100
AcDbTrace
10
-48.625163
20
5
30
0
11
-48.164379
21
1.500002
31
0
12
-49.085946
22
1.499998
32
0
13
-48.625163
23
5
33
0
39
0
210
0
220
0
230
1
0
ENDBLK
5
127
100
AcDbEntity
8
0
100
AcDbBlockEnd
0
BLOCK
5
131
100
AcDbEntity
8
0
100
AcDbBlockBegin
2
DimnDraft3D7
70
0
10
0
20
0
30
0
3
DimnDraft3D7
0
MTEXT
5
12A
100
AcDbEntity
8
2
62
256
6
ByLayer
370
13
48
1
60
0
100
AcDbMText
10
90.333343
20
22.192266
30
0
210
0
220
0
230
1
1
\W0.7317;8,500
40
3.5
41
0
44
1.084337
50
90
71
7
72
5
7
iso_b_vert
0
MTEXT
5
12B
100
AcDbEntity
8
2
62
256
6
ByLayer
370
13
48
1
60
0
100
AcDbMText
10
90.333343
20
16.96961
30
0
210
0
220
0
230
1
1
%%c
40
3.5
41
0
44
1.084337
50
90
71
7
72
5
7
iso_b_vert
0
LINE
5
12C
100
AcDbEntity
8
2
62
256
6
ByLayer
370
13
48
1
60
0
100
AcDbLine
10
80.1375
20
-4.25
30
0
11
94.083343
21
-4.25
31
0
39
0
210
0
220
0
230
1
0
LINE
5
12D
100
AcDbEntity
8
2
62
256
6
ByLayer
370
13
48
1
60
0
100
AcDbLine
10
80.1375
20
4.25
30
0
11
94.083343
21
4.25
31
0
39
0
210
0
220
0
230
1
0
LINE
5
12E
100
AcDbEntity
8
2
62
256
6
ByLayer
370
13
48
1
60
0
100
AcDbLine
10
92.083343
20
-4.25
30
0
11
92.083343
21
31.964635
31
0
39
0
210
0
220
0
230
1
0
SOLID
5
12F
100
AcDbEntity
8
2
62
256
6
ByLayer
370
13
48
1
60
0
100
AcDbTrace
10
92.083343
20
-4.25
30
0
11
91.622559
21
-0.750002
31
0
12
92.544126
22
-0.749998
32
0
13
92.083343
23
-4.25
33
0
39
0
210
0
220
0
230
1
0
SOLID
5
130
100
AcDbEntity
8
2
62
256
6
ByLayer
370
13
48
1
60
0
100
AcDbTrace
10
92.083343
20
4.25
30
0
11
92.544126
21
0.750002
31
0
12
91.622559
22
0.749998
32
0
13
92.083343
23
4.25
33
0
39
0
210
0
220
0
230
1
0
ENDBLK
5
132
100
AcDbEntity
8
0
100
AcDbBlockEnd
0
ENDSEC
0
SECTION
2
ENTITIES
0
ARC
5
9C
100
AcDbEntity
8
1
62
256
6
ByLayer
370
18
48
1
60
0
100
AcDbCircle
39
0
10
0
20
4.2
30
0
40
0.799999999999998
210
0
220
0
230
1
100
AcDbArc
50
30.151817
51
90
0
ARC
5
9D
100
AcDbEntity
8
1
62
256
6
ByLayer
370
18
48
1
60
0
100
AcDbCircle
39
0
10
-1.383516
20
5.003669
30
0
40
0.799999999999998
210
0
220
0
230
-1
100
AcDbArc
50
269.965623
51
329.848183
0
ARC
5
9E
100
AcDbEntity
8
1
62
256
6
ByLayer
370
18
48
1
60
0
100
AcDbCircle
39
0
10
-1.383516
20
-5.003669
30
0
40
0.799999999999998
210
0
220
0
230
-1
100
AcDbArc
50
30.151817
51
90.034377
0
ARC
5
9F
100
AcDbEntity
8
1
62
256
6
ByLayer
370
18
48
1
60
0
100
AcDbCircle
39
0
10
0
20
-4.2
30
0
40
0.799999999999998
210
0
220
0
230
1
100
AcDbArc
50
270
51
329.848183
0
ELLIPSE
5
A0
100
AcDbEntity
8
1
62
256
6
ByLayer
370
18
48
1
60
0
100
AcDbEllipse
10
7.25
20
4.263099
30
0
11
0.25
21
0
31
0
210
0
220
0
230
1
40
0.999973
41
-2.86845147873895
42
-1.55798962450119
0
ELLIPSE
5
A1
100
AcDbEntity
8
1
62
256
6
ByLayer
370
18
48
1
60
0
100
AcDbEllipse
10
7.25
20
-4.263099
30
0
11
0.25
21
0
31
0
210
0
220
0
230
1
40
0.999973
41
1.57469535187276
42
2.86805153564923
0
ELLIPSE
5
A2
100
AcDbEntity
8
1
62
256
6
ByLayer
370
13
48
1
60
0
100
AcDbEllipse
10
79.612033
20
2.083499
30
0
11
2.46693870082587
21
-1.298706698931
31
0
210
0
220
0
230
-1
40
0.496395
41
1.54142602311265
42
1.86522741742701
0
ELLIPSE
5
A3
100
AcDbEntity
8
1
62
256
6
ByLayer
370
18
48
1
60
0
100
AcDbEllipse
10
79.184448
20
2.083499
30
0
11
0.656502075937221
21
-1.78382503141836
31
0
210
0
220
0
230
-1
40
0.098637
41
-1.53085435617536
42
-0.749112684719407
0
ELLIPSE
5
A4
100
AcDbEntity
8
1
62
256
6
ByLayer
370
13
48
1
60
0
100
AcDbEllipse
10
79.040084
20
0.609181
30
0
11
0.153082081612423
21
0.25800363619377
31
0
210
0
220
0
230
1
40
0.454519
41
0.917105603404793
42
2.31336900500024
0
ELLIPSE
5
A5
100
AcDbEntity
8
1
62
256
6
ByLayer
370
18
48
1
60
0
100
AcDbEllipse
10
79.860195
20
0.122582
30
0
11
0.0727819104900499
21
0.301917195729128
31
0
210
0
220
0
230
-1
40
0.478434
41
1.72595527210761
42
2.45976119974133
0
ELLIPSE
5
A6
100
AcDbEntity
8
1
62
256
6
ByLayer
370
18
48
1
60
0
100
AcDbEllipse
10
80.00037
20
0.000928
30
0
11
1.56340864436111
21
4.24804058489896
31
0
210
0
220
0
230
-1
40
0.098637
41
2.87519060084528
42
2.97568689231607
0
ELLIPSE
5
A7
100
AcDbEntity
8
1
62
256
6
ByLayer
370
18
48
1
60
0
100
AcDbEllipse
10
80.034752
20
0.019012
30
0
11
0.140634104900063
21
-0.431000092503598
31
0
210
0
220
0
230
-1
40
0.07518
41
1.64755683494033
42
2.31001430904611
0
ELLIPSE
5
A8
100
AcDbEntity
8
1
62
256
6
ByLayer
370
13
48
1
60
0
100
AcDbEllipse
10
79.422126
20
1.960301
30
0
11
2.39327677903707
21
-1.64783911848242
31
0
210
0
220
0
230
-1
40
0.533762
41
1.44484622741291
42
1.73670880625027
0
ELLIPSE
5
A9
100
AcDbEntity
8
1
62
256
6
ByLayer
370
18
48
1
60
0
100
AcDbEllipse
10
80.034752
20
-0.019012
30
0
11
0.140634104980021
21
0.43100009271299
31
0
210
0
220
0
230
-1
40
0.07518
41
-2.31001430905968
42
-1.64755683524138
0
ELLIPSE
5
AA
100
AcDbEntity
8
1
62
256
6
ByLayer
370
18
48
1
60
0
100
AcDbEllipse
10
80.00037
20
-0.000928
30
0
11
1.56340865640224
21
-4.24804061992853
31
0
210
0
220
0
230
-1
40
0.098637
41
-2.97568689300071
42
-2.87519060195074
0
ELLIPSE
5
AB
100
AcDbEntity
8
1
62
256
6
ByLayer
370
18
48
1
60
0
100
AcDbEllipse
10
79.184448
20
-2.083499
30
0
11
0.656502075911327
21
1.78382503136005
31
0
210
0
220
0
230
-1
40
0.098637
41
0.749112684717025
42
1.53085435619702
0
POINT
5
6C
100
AcDbEntity
8
81
62
256
6
ByLayer
370
18
48
1
60
0
100
AcDbPoint
10
80
20
0
30
0
39
0
210
0
220
0
230
1
50
360
0
POINT
5
6E
100
AcDbEntity
8
80
62
256
6
ByLayer
370
18
48
1
60
0
100
AcDbPoint
10
0
20
0
30
0
39
0
210
0
220
0
230
1
50
360
0
POINT
5
70
100
AcDbEntity
8
SK2
62
256
6
ByLayer
370
18
48
1
60
1
100
AcDbPoint
10
-40
20
-5
30
0
39
0
210
0
220
0
230
1
50
360
0
POINT
5
72
100
AcDbEntity
8
SK2
62
256
6
ByLayer
370
18
48
1
60
1
100
AcDbPoint
10
-40
20
5
30
0
39
0
210
0
220
0
230
1
50
360
0
POINT
5
73
100
AcDbEntity
8
2
62
256
6
ByLayer
370
18
48
1
60
1
100
AcDbPoint
10
78.55
20
-4.25
30
0
39
0
210
0
220
0
230
1
50
360
0
POINT
5
75
100
AcDbEntity
8
2
62
256
6
ByLayer
370
18
48
1
60
1
100
AcDbPoint
10
78.55
20
4.25
30
0
39
0
210
0
220
0
230
1
50
360
0
SPLINE
5
AC
100
AcDbEntity
8
1
62
256
6
ByLayer
370
18
48
1
60
0
100
AcDbSpline
70
4
71
3
72
22
73
18
40
0
40
0
40
0
40
0
40
0.0371483926378249
40
0.13827820209225
40
0.222193016022107
40
0.280863049806603
40
0.353311983089593
40
0.451086868302058
40
0.536432700840482
40
0.607649198615242
40
0.664905275937699
40
0.697421724823864
40
0.737405589540839
40
0.786864923459258
40
0.852092828584299
40
0.933812545763425
40
1
40
1
40
1
40
1
41
1
10
14.9949010894291
20
4.02069155190108
30
0
41
1
10
14.8994697989448
20
4.02043065118687
30
0
41
1
10
14.5441326681038
20
4.01961910848019
30
0
41
1
10
13.9676051026704
20
4.02110477881999
30
0
41
1
10
13.3440645731683
20
4.02045276590692
30
0
41
1
10
12.7876546941904
20
4.02024065238314
30
0
41
1
10
12.1968778820542
20
4.02030603384941
30
0
41
1
10
11.5365837260534
20
4.01962678067042
30
0
41
1
10
10.8796822328901
20
4.01696322880696
30
0
41
1
10
10.3273865117862
20
4.01719821049738
30
0
41
1
10
9.91155715915897
20
4.01745138334107
30
0
41
1
10
9.57640077790248
20
4.01766330328695
30
0
41
1
10
9.26138338446248
20
4.0177699598091
30
0
41
1
10
8.8618710036404
20
4.01768557704298
30
0
41
1
10
8.35457511695731
20
4.01708924279242
30
0
41
1
10
7.80404566731357
20
4.01557217479382
30
0
41
1
10
7.42202287554866
20
4.01394934707724
30
0
41
1
10
7.25107184020337
20
4.01310631150315
30
0
0
SPLINE
5
AD
100
AcDbEntity
8
1
62
256
6
ByLayer
370
18
48
1
60
0
100
AcDbSpline
70
4
71
3
72
27
73
23
40
0
40
0
40
0
40
0
40
0.0833201236728227
40
0.165511975064049
40
0.230897570189813
40
0.301071593065775
40
0.374926842658684
40
0.439564087652937
40
0.519519670367503
40
0.558057472283454
40
0.583521475085839
40
0.613977124648572
40
0.658055031485883
40
0.705108483421222
40
0.745160284635387
40
0.781724779123015
40
0.824809878284173
40
0.86532472899578
40
0.890730005685714
40
0.929406903737348
40
0.985795733484696
40
1
40
1
40
1
40
1
41
1
10
52.6463161693756
20
-4.03983299775126
30
0
41
1
10
52.9853102200185
20
-4.03951613400571
30
0
41
1
10
53.6584228492246
20
-4.03931895658525
30
0
41
1
10
54.5901541786702
20
-4.0409970566063
30
0
41
1
10
55.479188296139
20
-4.04230795307734
30
0
41
1
10
56.3321707845572
20
-4.04112122374013
30
0
41
1
10
57.1826576909368
20
-4.04393356413587
30
0
41
1
10
58.0728734488328
20
-4.04317984118913
30
0
41
1
10
58.8192012664706
20
-4.04344816229425
30
0
41
1
10
59.4058724948192
20
-4.04547998721142
30
0
41
1
10
59.7908189161313
20
-4.04514909344616
30
0
41
1
10
60.1983423640047
20
-4.04477792031363
30
0
41
1
10
60.6938512296281
20
-4.04358650543384
30
0
41
1
10
61.2284656128552
20
-4.04558215490809
30
0
41
1
10
61.732462884579
20
-4.04543591179703
30
0
41
1
10
62.220285811385
20
-4.04433209858729
30
0
41
1
10
62.709989100403
20
-4.04385040789552
30
0
41
1
10
63.154224653015
20
-4.04436767489904
30
0
41
1
10
63.580448521015
20
-4.04829754216848
30
0
41
1
10
64.0714055768938
20
-4.04903514070386
30
0
41
1
10
64.5167323416958
20
-4.04938023393248
30
0
41
1
10
64.8044064802199
20
-4.04880918014163
30
0
41
1
10
64.8622898930761
20
-4.04867361147646
30
0
0
SPLINE
5
AE
100
AcDbEntity
8
1
62
256
6
ByLayer
370
18
48
1
60
0
100
AcDbSpline
70
4
71
2
72
6
73
3
40
0
40
0
40
0
40
1
40
1
40
1
41
1
10
64.9872087977901
20
0.0045450460724794
30
0
41
1
10
64.9871913499123
20
0.0045520842240308
30
0
41
1
10
64.9871739020821
20
0.0045593544884355
30
0
0
SPLINE
5
AF
100
AcDbEntity
8
1
62
256
6
ByLayer
370
18
48
1
60
0
100
AcDbSpline
70
4
71
3
72
29
73
25
40
0
40
0
40
0
40
0
40
0.0124592501365265
40
0.0689695176752764
40
0.120422082441013
40
0.162734197380607
40
0.207324402658802
40
0.26227653185022
40
0.318241752661684
40
0.354934155029457
40
0.381920900089408
40
0.420552965499413
40
0.472899039415824
40
0.524290366843075
40
0.568396356905453
40
0.613391544904285
40
0.665915858780969
40
0.716018336967033
40
0.759670332239343
40
0.801468896256653
40
0.845746368507007
40
0.907297399823076
40
0.984485491772843
40
1
40
1
40
1
40
1
41
1
10
40.1137428935403
20
4.03343413660309
30
0
41
1
10
40.0724914210626
20
4.03327661647512
30
0
41
1
10
39.8435622349142
20
4.03250023423865
30
0
41
1
10
39.4232067845155
20
4.03244644323203
30
0
41
1
10
38.9236549072235
20
4.03328306843213
30
0
41
1
10
38.447934556817
20
4.03350415433187
30
0
41
1
10
37.9629455833484
20
4.03491387615102
30
0
41
1
10
37.4304117072336
20
4.03377517411323
30
0
41
1
10
36.9251712380379
20
4.03174371122469
30
0
41
1
10
36.5155945636159
20
4.03206784364082
30
0
41
1
10
36.1653638235434
20
4.0323064502731
30
0
41
1
10
35.7615449619786
20
4.03273096215321
30
0
41
1
10
35.2741843139717
20
4.03239675358503
30
0
41
1
10
34.7680922587432
20
4.02923491277446
30
0
41
1
10
34.2871553687849
20
4.02989081369131
30
0
41
1
10
33.8023424093511
20
4.0306387168518
30
0
41
1
10
33.2970035063486
20
4.03148909883467
30
0
41
1
10
32.7962649470287
20
4.02864574039953
30
0
41
1
10
32.3322405103922
20
4.02816969001151
30
0
41
1
10
31.8881498583809
20
4.02853411609507
30
0
41
1
10
31.3828136936712
20
4.02906847259737
30
0
41
1
10
30.7562577285633
20
4.02758263762359
30
0
41
1
10
30.2284313497686
20
4.02684799623299
30
0
41
1
10
29.9108599031428
20
4.02658464600955
30
0
41
1
10
29.8577281358513
20
4.02654562395213
30
0
0
SPLINE
5
B0
100
AcDbEntity
8
1
62
256
6
ByLayer
370
18
48
1
60
0
100
AcDbSpline
70
4
71
3
72
25
73
21
40
0
40
0
40
0
40
0
40
0.0720447159851334
40
0.159807824452464
40
0.228954113574616
40
0.276039905940413
40
0.318887539409409
40
0.376209332795321
40
0.445835770553513
40
0.510615099474606
40
0.561289014507314
40
0.607681784216814
40
0.663237842123073
40
0.727569253032524
40
0.779420228774636
40
0.808603350154667
40
0.849233100596417
40
0.910850619951403
40
0.993313946478639
40
1
40
1
40
1
40
1
41
1
10
7.25107081492536
20
-4.01309918551249
30
0
41
1
10
7.43368618034293
20
-4.01400456558872
30
0
41
1
10
7.83876002784996
20
-4.01571462922544
30
0
41
1
10
8.41911810823018
20
-4.01722931792813
30
0
41
1
10
8.93619262400634
20
-4.01772991622553
30
0
41
1
10
9.33943310867195
20
-4.01776042679978
30
0
41
1
10
9.71269381809276
20
-4.01759447683486
30
0
41
1
10
10.1430972010371
20
-4.01728170127657
30
0
41
1
10
10.6290915095957
20
-4.01706833092578
30
0
41
1
10
11.098234775348
20
-4.01759700490729
30
0
41
1
10
11.5084826349932
20
-4.01933511448448
30
0
41
1
10
11.8953526972697
20
-4.02010617400151
30
0
41
1
10
12.3168461855907
20
-4.02023485370168
30
0
41
1
10
12.7521554234709
20
-4.0202836808499
30
0
41
1
10
13.1206605869801
20
-4.02035948241834
30
0
41
1
10
13.4288720159818
20
-4.02053736265813
30
0
41
1
10
13.7620156140272
20
-4.02096858904022
30
0
41
1
10
14.2302164656457
20
-4.02151958765788
30
0
41
1
10
14.6124193830093
20
-4.02065116043224
30
0
41
1
10
14.8383421475073
20
-4.02094591345036
30
0
41
1
10
14.8552857937272
20
-4.02096907762117
30
0
0
SPLINE
5
B1
100
AcDbEntity
8
1
62
256
6
ByLayer
370
18
48
1
60
0
100
AcDbSpline
70
4
71
3
72
28
73
24
40
0
40
0
40
0
40
0
40
0.0790463700674026
40
0.146770638060505
40
0.205317538812085
40
0.293624038522894
40
0.35178819395638
40
0.406684964649157
40
0.472107964461384
40
0.532618719993301
40
0.572433881802943
40
0.619368129335295
40
0.663863296631435
40
0.694401777957496
40
0.720175212718897
40
0.75947819299497
40
0.807670822438881
40
0.845466884291042
40
0.876617806979018
40
0.910397542590956
40
0.950566970953822
40
0.993254189860004
40
1
40
1
40
1
40
1
41
1
10
27.6420118481944
20
-4.02454598870781
30
0
41
1
10
27.9709756095777
20
-4.02416915628325
30
0
41
1
10
28.5812645201062
20
-4.02387528870958
30
0
41
1
10
29.4255229326341
20
-4.02680908324044
30
0
41
1
10
30.3224759860345
20
-4.02635917714554
30
0
41
1
10
31.1760867935139
20
-4.029325845139
30
0
41
1
10
32.0155341952552
20
-4.02830604892574
30
0
41
1
10
32.7594121684951
20
-4.02826276341105
30
0
41
1
10
33.5131100930598
20
-4.03189030251076
30
0
41
1
10
34.2039405007305
20
-4.02987279415393
30
0
41
1
10
34.8177162973815
20
-4.02920665241126
30
0
41
1
10
35.3647280574726
20
-4.03312165085447
30
0
41
1
10
35.8730855624633
20
-4.03252918939003
30
0
41
1
10
36.2932442987196
20
-4.03221932566274
30
0
41
1
10
36.6917623605707
20
-4.03193094720896
30
0
41
1
10
37.1638635086468
20
-4.03209704086939
30
0
41
1
10
37.6860539180494
20
-4.03501757661223
30
0
41
1
10
38.1743257358234
20
-4.03424905890969
30
0
41
1
10
38.6023354886117
20
-4.033321346766
30
0
41
1
10
39.0409802801456
20
-4.033281459953
30
0
41
1
10
39.5102718477669
20
-4.03204028378829
30
0
41
1
10
39.8941161260797
20
-4.0327304451414
30
0
41
1
10
40.0933562723214
20
-4.03338051966119
30
0
41
1
10
40.1204864016705
20
-4.03347659095107
30
0
0
SPLINE
5
B2
100
AcDbEntity
8
1
62
256
6
ByLayer
370
18
48
1
60
0
100
AcDbSpline
70
4
71
2
72
6
73
3
40
0
40
0
40
0
40
1
40
1
40
1
41
1
10
77.7154510476479
20
-4.05465305401472
30
0
41
1
10
78.1212970557307
20
-4.05171672156703
30
0
41
1
10
78.5271511617233
20
-4.05663022277193
30
0
0
SPLINE
5
B3
100
AcDbEntity
8
1
62
256
6
ByLayer
370
18
48
1
60
0
100
AcDbSpline
70
4
71
3
72
26
73
22
40
0
40
0
40
0
40
0
40
0.0177946975930795
40
0.0866755466895009
40
0.146892644599619
40
0.190733079856111
40
0.235831194207895
40
0.311288451223088
40
0.371797654736269
40
0.416394504627837
40
0.46215316579975
40
0.511163597763041
40
0.557332759657694
40
0.604355962271604
40
0.651752839878442
40
0.709736874455671
40
0.783907949157638
40
0.842942214948624
40
0.895021907155935
40
0.964435242615527
40
1
40
1
40
1
40
1
41
1
10
65.0084350486447
20
4.04777058523922
30
0
41
1
10
64.9483769489477
20
4.04782374521568
30
0
41
1
10
64.6557340963713
20
4.04806913342458
30
0
41
1
10
64.1522776176097
20
4.04850066705924
30
0
41
1
10
63.5725755195783
20
4.04853131056899
30
0
41
1
10
63.064117953883
20
4.04376066087502
30
0
41
1
10
62.5060377480788
20
4.0439952163712
30
0
41
1
10
61.8897521555475
20
4.04516178341524
30
0
41
1
10
61.275698731006
20
4.04564343775988
30
0
41
1
10
60.7625415815789
20
4.04367487428524
30
0
41
1
10
60.2885175518352
20
4.04464653576542
30
0
41
1
10
59.8091400247877
20
4.04511786043381
30
0
41
1
10
59.3254609803952
20
4.04567005432756
30
0
41
1
10
58.8472742348866
20
4.04324869818805
30
0
41
1
10
58.3289001973562
20
4.04300436631081
30
0
41
1
10
57.7181961491146
20
4.04374873266445
30
0
41
1
10
57.0678932822201
20
4.04332924559489
30
0
41
1
10
56.4376836043781
20
4.04154852233086
30
0
41
1
10
55.8236638394864
20
4.04190624442003
30
0
41
1
10
55.2894554425649
20
4.04203778575595
30
0
41
1
10
54.9323992193196
20
4.04155222939897
30
0
41
1
10
54.8114494105379
20
4.041381692545
30
0
0
SPLINE
5
B4
100
AcDbEntity
8
1
62
256
6
ByLayer
370
18
48
1
60
0
100
AcDbSpline
70
4
71
3
72
13
73
9
40
0
40
0
40
0
40
0
40
0.112666838364033
40
0.284590595627452
40
0.468834798937148
40
0.594555605516551
40
0.724975495262998
40
1
40
1
40
1
40
1
41
1
10
41.3820099135463
20
-1.12778258830304
30
0
41
1
10
41.3819084850332
20
-1.12786118852398
30
0
41
1
10
41.3882753236167
20
-1.13076807096138
30
0
41
1
10
41.4292426395236
20
-1.14894702330659
30
0
41
1
10
41.4976414071723
20
-1.18030680058797
30
0
41
1
10
41.5691497689655
20
-1.21361792146783
30
0
41
1
10
41.6633134822451
20
-1.25843069289809
30
0
41
1
10
41.7186717246499
20
-1.28608386406304
30
0
41
1
10
41.7515431190392
20
-1.30318759549826
30
0
0
SPLINE
5
B5
100
AcDbEntity
8
1
62
256
6
ByLayer
370
18
48
1
60
0
100
AcDbSpline
70
4
71
3
72
13
73
9
40
0
40
0
40
0
40
0
40
0.0181202264361456
40
0.187828836888987
40
0.388815923216844
40
0.537776804298083
40
0.703590178103888
40
1
40
1
40
1
40
1
41
1
10
66.3801295268198
20
-1.12659006082998
30
0
41
1
10
66.3800657124371
20
-1.1265910278741
30
0
41
1
10
66.3803483454254
20
-1.1269871591889
30
0
41
1
10
66.4025488421771
20
-1.13664756394786
30
0
41
1
10
66.4738651815489
20
-1.16931848220702
30
0
41
1
10
66.5655029307196
20
-1.21253480357302
30
0
41
1
10
66.7021371199081
20
-1.27868395965078
30
0
41
1
10
66.7696184918076
20
-1.3121973360424
30
0
41
1
10
66.8054226941721
20
-1.33049155418516
30
0
0
SPLINE
5
B6
100
AcDbEntity
8
1
62
256
6
ByLayer
370
18
48
1
60
0
100
AcDbSpline
70
4
71
3
72
20
73
16
40
0
40
0
40
0
40
0
40
0.250000000000012
40
0.250000000000012
40
0.500000000000025
40
0.500000000000025
40
0.625000000000019
40
0.625000000000019
40
0.750000000000013
40
0.750000000000013
40
0.875000000000006
40
0.875000000000006
40
0.937500000000003
40
0.937500000000003
40
1
40
1
40
1
40
1
41
1
10
78.2792091422256
20
1.28849829829733
30
0
41
1
10
78.3992131408602
20
1.31594106136239
30
0
41
1
10
78.5180728521854
20
1.34711151324567
30
0
41
1
10
78.752150036273
20
1.42174559161572
30
0
41
1
10
78.8680855555144
20
1.46524279112035
30
0
41
1
10
79.031952180765
20
1.54782832302595
30
0
41
1
10
79.0849771133351
20
1.57830901233567
30
0
41
1
10
79.1857973114967
20
1.64909462088678
30
0
41
1
10
79.23300538732
20
1.68899384421925
30
0
41
1
10
79.3142454753666
20
1.78212475588549
30
0
41
1
10
79.3473002334842
20
1.83431203124934
30
0
41
1
10
79.3778906010413
20
1.9224302922581
30
0
41
1
10
79.3846350271268
20
1.95317008132125
30
0
41
1
10
79.3907365424245
20
2.01455783462441
30
0
41
1
10
79.3902241051918
20
2.04580292962353
30
0
41
1
10
79.3864738957171
20
2.07697179253967
30
0
0
SPLINE
5
B7
100
AcDbEntity
8
1
62
256
6
ByLayer
370
18
48
1
60
0
100
AcDbSpline
70
4
71
3
72
46
73
42
40
0
40
0
40
0
40
0
40
0.0428210215419881
40
0.0428210215419881
40
0.0856420430839762
40
0.0856420430839762
40
0.171284086167951
40
0.171284086167951
40
0.256926129251926
40
0.256926129251926
40
0.299747150793913
40
0.299747150793913
40
0.3425681723359
40
0.3425681723359
40
0.428210215419872
40
0.428210215419872
40
0.471031236961858
40
0.471031236961858
40
0.492441747732851
40
0.492441747732851
40
0.513852258503843
40
0.513852258503843
40
0.599494301587811
40
0.599494301587811
40
0.685136344671778
40
0.685136344671778
40
0.70654685544277
40
0.70654685544277
40
0.727957366213761
40
0.727957366213761
40
0.770778387755744
40
0.770778387755744
40
0.856420430839711
40
0.856420430839711
40
0.942062473923677
40
0.942062473923677
40
0.963472984694668
40
0.963472984694668
40
0.984883495465659
40
0.984883495465659
40
1
40
1
40
1
40
1
41
1
10
78.527626358716
20
-4.21425029432584
30
0
41
1
10
78.1535133139095
20
-4.23996769339954
30
0
41
1
10
77.7795011549249
20
-4.25152913201504
30
0
41
1
10
77.0304585057292
20
-4.24646859408423
30
0
41
1
10
76.6550479662442
20
-4.22972988869901
30
0
41
1
10
75.5363160641024
20
-4.13837081574042
30
0
41
1
10
74.7967607623367
20
-4.02273301943285
30
0
41
1
10
73.3178000940385
20
-3.69122772304155
30
0
41
1
10
72.578207908611
20
-3.47548999527083
30
0
41
1
10
71.4591661042969
20
-3.08500286404845
30
0
41
1
10
71.0833142339741
20
-2.94315250930276
30
0
41
1
10
70.336498067747
20
-2.64285145738842
30
0
41
1
10
69.9647571409587
20
-2.48423823393352
30
0
41
1
10
68.8522113440671
20
-1.98704541517227
30
0
41
1
10
68.1140976245167
20
-1.62708364898521
30
0
41
1
10
67.0031580493337
20
-1.06031057564482
30
0
41
1
10
66.6321519173111
20
-0.867033567550862
30
0
41
1
10
66.0733805073546
20
-0.572780873369112
30
0
41
1
10
65.886746841855
20
-0.473973159400288
30
0
41
1
10
65.5125240602925
20
-0.275276085590065
30
0
41
1
10
65.324713579451
20
-0.175267730275578
30
0
41
1
10
64.3894010942333
20
0.323013367434072
30
0
41
1
10
63.6483241710422
20
0.718186117719199
30
0
41
1
10
62.1689405156342
20
1.48024054493618
30
0
41
1
10
61.4297783196913
20
1.84555101065419
30
0
41
1
10
60.4997093487431
20
2.27018957845701
30
0
41
1
10
60.3133443444483
20
2.3534381689872
30
0
41
1
10
59.9396990910845
20
2.51620088596962
30
0
41
1
10
59.7521516648342
20
2.59583083391993
30
0
41
1
10
59.1897714986232
20
2.82783288139046
30
0
41
1
10
58.8169002150842
20
2.97286360964895
30
0
41
1
10
57.7020845953187
20
3.37641861447406
30
0
41
1
10
56.9631508607514
20
3.60245562681121
30
0
41
1
10
55.4830154359158
20
3.95784731009439
30
0
41
1
10
54.7408949879451
20
4.08641904400898
30
0
41
1
10
53.8038638927241
20
4.17915790451568
30
0
41
1
10
53.6163159875765
20
4.19423174312408
30
0
41
1
10
53.2426036261115
20
4.21729840780395
30
0
41
1
10
53.0561631863579
20
4.22532123348438
30
0
41
1
10
52.738630959228
20
4.2330781969699
30
0
41
1
10
52.6073874760336
20
4.23455711566152
30
0
41
1
10
52.4762790941478
20
4.23431330379756
30
0
0
SPLINE
5
B8
100
AcDbEntity
8
1
62
256
6
ByLayer
370
18
48
1
60
0
100
AcDbSpline
70
4
71
3
72
32
73
28
40
0
40
0
40
0
40
0
40
0.0160385448798735
40
0.0160385448798735
40
0.2128308359039
40
0.2128308359039
40
0.311226981415914
40
0.311226981415914
40
0.409623126927927
40
0.409623126927927
40
0.458821199683934
40
0.458821199683934
40
0.483420236061937
40
0.483420236061937
40
0.50801927243994
40
0.50801927243994
40
0.606415417951952
40
0.606415417951952
40
0.704811563463964
40
0.704811563463964
40
0.75400963621997
40
0.75400963621997
40
0.803207708975976
40
0.803207708975976
40
0.901603854487988
40
0.901603854487988
40
1
40
1
40
1
40
1
41
1
10
29.8064985263208
20
-4.04390914765807
30
0
41
1
10
29.6850169888479
20
-4.06229640766398
30
0
41
1
10
29.5636839669877
20
-4.07924759440905
30
0
41
1
10
27.9552032128258
20
-4.28506384476472
30
0
41
1
10
26.4856207137374
20
-4.25749780551683
30
0
41
1
10
24.2328636688192
20
-3.88556931363345
30
0
41
1
10
23.4892129743874
20
-3.70926855210041
30
0
41
1
10
22.0067337482852
20
-3.26727151304894
30
0
41
1
10
21.2673738259372
20
-3.00155317504794
30
0
41
1
10
20.1519983911433
20
-2.54718640097369
30
0
41
1
10
19.7790931359404
20
-2.38652518519314
30
0
41
1
10
19.2169363948215
20
-2.13317061913165
30
0
41
1
10
19.0288815112797
20
-2.04656782779361
30
0
41
1
10
18.6542909149755
20
-1.87082711394456
30
0
41
1
10
18.4674517437169
20
-1.78155616338964
30
0
41
1
10
17.5350363217187
20
-1.32914579840886
30
0
41
1
10
16.7948158095784
20
-0.947805851750672
30
0
41
1
10
15.3131975206738
20
-0.170262266223119
30
0
41
1
10
14.5718765812262
20
0.226091973474524
30
0
41
1
10
13.4494363014496
20
0.813393608081583
30
0
41
1
10
13.0729259801468
20
1.00835044424446
30
0
41
1
10
12.3261125048459
20
1.38705003879653
30
0
41
1
10
11.9544399110218
20
1.57144995955414
30
0
41
1
10
10.8423425595943
20
2.1060885731201
30
0
41
1
10
10.1051490463985
20
2.4382284041819
30
0
41
1
10
8.62556634967194
20
3.03211490793018
30
0
41
1
10
7.88327776410534
20
3.29416953215292
30
0
41
1
10
7.13299078271803
20
3.51250970555003
30
0
0
SPLINE
5
B9
100
AcDbEntity
8
1
62
256
6
ByLayer
370
18
48
1
60
0
100
AcDbSpline
70
4
71
3
72
14
73
10
40
0
40
0
40
0
40
0
40
0.162066051969967
40
0.162066051969967
40
0.587413160521524
40
0.587413160521524
40
0.800086714797306
40
0.800086714797306
40
1
40
1
40
1
40
1
41
1
10
52.6951111488996
20
-4.03978007426005
30
0
41
1
10
52.4138656136522
20
-4.03929653600994
30
0
41
1
10
52.1329133162222
20
-4.03125142773183
30
0
41
1
10
51.114661946908
20
-3.97494759810613
30
0
41
1
10
50.3766569199735
20
-3.88234057671926
30
0
41
1
10
49.2611867126213
20
-3.66804063223711
30
0
41
1
10
48.8869665488419
20
-3.58386307260045
30
0
41
1
10
48.1632935307228
20
-3.39874140722134
30
0
41
1
10
47.8132044153039
20
-3.29899729326593
30
0
41
1
10
47.4631749091979
20
-3.1899685427565
30
0
0
SPLINE
5
BA
100
AcDbEntity
8
1
62
256
6
ByLayer
370
13
48
1
60
0
100
AcDbSpline
70
4
71
3
72
22
73
18
40
0
40
0
40
0
40
0
40
0.0058026441412677
40
0.0058026441412677
40
0.102514472670636
40
0.102514472670636
40
0.199226301200004
40
0.199226301200004
40
0.39264995825874
40
0.39264995825874
40
0.586073615317476
40
0.586073615317476
40
0.779497272376212
40
0.779497272376212
40
0.972920929434948
40
0.972920929434948
40
1
40
1
40
1
40
1
41
1
10
47.4631749091509
20
-3.18996854274181
30
0
41
1
10
47.4408328688319
20
-3.1830093444533
30
0
41
1
10
47.4184910713698
20
-3.17601231922046
30
0
41
1
10
47.0237837818725
20
-3.05173210352399
30
0
41
1
10
46.6513004389203
20
-2.92412553617191
30
0
41
1
10
45.9045265684926
20
-2.650007275794
30
0
41
1
10
45.5307627021643
20
-2.50350833558758
30
0
41
1
10
44.4129798122407
20
-2.04198987031188
30
0
41
1
10
43.6693480513549
20
-1.70465706574481
30
0
41
1
10
42.1744292766172
20
-0.989613078853409
30
0
41
1
10
41.4287738688006
20
-0.615888906753298
30
0
41
1
10
39.9343537914771
20
0.140650650992967
30
0
41
1
10
39.1943764849753
20
0.517423255628984
30
0
41
1
10
37.7182041399147
20
1.24734455217651
30
0
41
1
10
36.981470491679
20
1.59934127859663
30
0
41
1
10
36.1373188313344
20
1.97475502833868
30
0
41
1
10
36.0335634458295
20
2.0203845199787
30
0
41
1
10
35.929706350848
20
2.06551590431099
30
0
0
SPLINE
5
BB
100
AcDbEntity
8
1
62
256
6
ByLayer
370
18
48
1
60
0
100
AcDbSpline
70
4
71
3
72
18
73
14
40
0
40
0
40
0
40
0
40
0.250000000000004
40
0.250000000000004
40
0.375000000000007
40
0.375000000000007
40
0.500000000000009
40
0.500000000000009
40
0.750000000000008
40
0.750000000000008
40
0.875000000000004
40
0.875000000000004
40
1
40
1
40
1
40
1
41
1
10
79.3864738957171
20
-2.0769717925397
30
0
41
1
10
79.3219301794198
20
-2.25091836120831
30
0
41
1
10
79.2572356730659
20
-2.42481647369328
30
0
41
1
10
79.1598656984803
20
-2.68493837009777
30
0
41
1
10
79.1273554798709
20
-2.77151902073791
30
0
41
1
10
79.0621713436493
20
-2.94429324178478
30
0
41
1
10
79.0294745688738
20
-3.03043276448179
30
0
41
1
10
78.9313651194258
20
-3.28880610959371
30
0
41
1
10
78.8658378308912
20
-3.4610404145827
30
0
41
1
10
78.7672948395797
20
-3.71690341083507
30
0
41
1
10
78.7343778109068
20
-3.80159167250986
30
0
41
1
10
78.6684402275068
20
-3.97007359495794
30
0
41
1
10
78.6354573753977
20
-4.05419305580338
30
0
41
1
10
78.602421864484
20
-4.13785747550594
30
0
0
SPLINE
5
BC
100
AcDbEntity
8
1
62
256
6
ByLayer
370
18
48
1
60
0
100
AcDbSpline
70
4
71
3
72
16
73
12
40
0
40
0
40
0
40
0
40
0.252533918836646
40
0.252533918836646
40
0.459363349198232
40
0.459363349198232
40
0.666192779559817
40
0.666192779559817
40
0.873022209921403
40
0.873022209921403
40
1
40
1
40
1
40
1
41
1
10
77.7128483208921
20
-4.05465486757922
30
0
41
1
10
77.2589640125645
20
-4.05443877304606
30
0
41
1
10
76.8055465311784
20
-4.03435770587922
30
0
41
1
10
75.9796539330372
20
-3.96226138771354
30
0
41
1
10
75.607163181507
20
-3.91663356401332
30
0
41
1
10
74.860499352779
20
-3.79968282026729
30
0
41
1
10
74.4880843131234
20
-3.72866076980753
30
0
41
1
10
73.7438022358795
20
-3.56280455034968
30
0
41
1
10
73.3718692322224
20
-3.46795822215702
30
0
41
1
10
72.7706754893855
20
-3.29678243987263
30
0
41
1
10
72.5414152328232
20
-3.22731412244639
30
0
41
1
10
72.3123944492958
20
-3.15402107163217
30
0
0
SPLINE
5
BD
100
AcDbEntity
8
1
62
256
6
ByLayer
370
13
48
1
60
0
100
AcDbSpline
70
4
71
3
72
24
73
20
40
0
40
0
40
0
40
0
40
0.0384266642663551
40
0.0384266642663551
40
0.237489514655885
40
0.237489514655885
40
0.436552365045414
40
0.436552365045414
40
0.486318077642794
40
0.486318077642794
40
0.536083790240175
40
0.536083790240175
40
0.635615215434935
40
0.635615215434935
40
0.735146640629695
40
0.735146640629695
40
0.834678065824456
40
0.834678065824456
40
1
40
1
40
1
40
1
41
1
10
72.3123954017134
20
-3.15402137643244
30
0
41
1
10
72.1683723755037
20
-3.10792999006119
30
0
41
1
10
72.0244440533656
20
-3.06032603425672
30
0
41
1
10
71.1367497807639
20
-2.75758362880998
30
0
41
1
10
70.3991521553029
20
-2.46661701345812
30
0
41
1
10
68.9249735975642
20
-1.8305270370941
30
0
41
1
10
68.18849817252
20
-1.48519337870124
30
0
41
1
10
67.2616145654778
20
-1.03165793099774
30
0
41
1
10
67.0759199537389
20
-0.939872281971759
30
0
41
1
10
66.7036859791847
20
-0.754528169151087
30
0
41
1
10
66.516909605155
20
-0.660845203622216
30
0
41
1
10
65.9570859516796
20
-0.378709700524439
30
0
41
1
10
65.5846914677783
20
-0.189268550857889
30
0
41
1
10
64.840057869912
20
0.189374589115943
30
0
41
1
10
64.4678301176994
20
0.378599474505847
30
0
41
1
10
63.7219860587995
20
0.753750855595001
30
0
41
1
10
63.3478938471692
20
0.939960449725334
30
0
41
1
10
62.35912107184
20
1.42334526736167
30
0
41
1
10
61.7457707171821
20
1.7121709049247
30
0
41
1
10
61.1333629350385
20
1.98335362167162
30
0
0
SPLINE
5
BE
100
AcDbEntity
8
1
62
256
6
ByLayer
370
18
48
1
60
0
100
AcDbSpline
70
4
71
3
72
20
73
16
40
0
40
0
40
0
40
0
40
0.0733813703582621
40
0.0733813703582621
40
0.295752081026344
40
0.295752081026344
40
0.518122791694425
40
0.518122791694425
40
0.740493502362507
40
0.740493502362507
40
0.85167885769655
40
0.85167885769655
40
0.962864213030593
40
0.962864213030593
40
1
40
1
40
1
40
1
41
1
10
27.6937179334665
20
-4.02459339731078
30
0
41
1
10
27.571598968613
20
-4.02437331108419
30
0
41
1
10
27.4493866145799
20
-4.02272994092513
30
0
41
1
10
26.9563544338025
20
-4.01033895121822
30
0
41
1
10
26.5845037147192
20
-3.98792414701916
30
0
41
1
10
25.8370513909293
20
-3.9166133416621
30
0
41
1
10
25.4635085427743
20
-3.86785398540167
30
0
41
1
10
24.7178207625824
20
-3.74539162839639
30
0
41
1
10
24.3452234026492
20
-3.67171629566536
30
0
41
1
10
23.7856195189702
20
-3.54333638597126
30
0
41
1
10
23.5989718816355
20
-3.49755545711432
30
0
41
1
10
23.225258177572
20
-3.40017640704886
30
0
41
1
10
23.0381569574164
20
-3.34855814559006
30
0
41
1
10
22.7894426489647
20
-3.27631481836349
30
0
41
1
10
22.7272168069374
20
-3.25793952145679
30
0
41
1
10
22.6650334952736
20
-3.23928192153454
30
0
0
SPLINE
5
BF
100
AcDbEntity
8
1
62
256
6
ByLayer
370
13
48
1
60
0
100
AcDbSpline
70
4
71
3
72
22
73
18
40
0
40
0
40
0
40
0
40
0.173859463192198
40
0.173859463192198
40
0.363558855061603
40
0.363558855061603
40
0.458408550996307
40
0.458408550996307
40
0.553258246931011
40
0.553258246931011
40
0.648107942865714
40
0.648107942865714
40
0.742957638800417
40
0.742957638800417
40
0.932657030669824
40
0.932657030669824
40
1
40
1
40
1
40
1
41
1
10
22.6650325369459
20
-3.239281633996
30
0
41
1
10
21.9825034127408
20
-3.03449425514614
30
0
41
1
10
21.3050981055243
20
-2.79569659969138
30
0
41
1
10
19.8902348496107
20
-2.23940777880415
30
0
41
1
10
19.1527900688449
20
-1.9169811397885
30
0
41
1
10
18.0393189658365
20
-1.39917113442743
30
0
41
1
10
17.6666148007275
20
-1.22075241442471
30
0
41
1
10
16.9186579971045
20
-0.855692167302379
30
0
41
1
10
16.5455886434261
20
-0.670232362261856
30
0
41
1
10
15.7997897164704
20
-0.296370862732743
30
0
41
1
10
15.4270902845124
20
-0.107913263769404
30
0
41
1
10
14.6805305651969
20
0.268954243104048
30
0
41
1
10
14.3058296052034
20
0.45775500758424
30
0
41
1
10
13.188136073103
20
1.01432555494097
30
0
41
1
10
12.4493336115586
20
1.37384937979704
30
0
41
1
10
11.4486764597349
20
1.83002628009277
30
0
41
1
10
11.1866146203388
20
1.94680008273474
30
0
41
1
10
10.9243711670822
20
2.06032857654122
30
0
0
SPLINE
5
C0
100
AcDbEntity
8
1
62
256
6
ByLayer
370
18
48
1
60
0
100
AcDbSpline
70
4
71
3
72
14
73
10
40
0
40
0
40
0
40
0
40
0.112744651066245
40
0.112744651066245
40
0.479989236756669
40
0.479989236756669
40
0.847233822447093
40
0.847233822447093
40
1
40
1
40
1
40
1
41
1
10
39.9613458479223
20
0.0175914661843706
30
0
41
1
10
40.1896391074124
20
-0.100895358271004
30
0
41
1
10
40.4184853692839
20
-0.21972433041509
30
0
41
1
10
41.3958052178835
20
-0.725752085011493
30
0
41
1
10
42.1417794113166
20
-1.10697982518528
30
0
41
1
10
43.637527676541
20
-1.83367684386198
30
0
41
1
10
44.3814148098344
20
-2.17514195662494
30
0
41
1
10
45.4371475841711
20
-2.61412795113247
30
0
41
1
10
45.7481457352583
20
-2.73772444664846
30
0
41
1
10
46.0590289589753
20
-2.85468890678015
30
0
0
SPLINE
5
C1
100
AcDbEntity
8
1
62
256
6
ByLayer
370
13
48
1
60
0
100
AcDbSpline
70
4
71
3
72
20
73
16
40
0
40
0
40
0
40
0
40
0.0233616383779009
40
0.0233616383779009
40
0.162384894258457
40
0.162384894258457
40
0.301408150139014
40
0.301408150139014
40
0.440431406019571
40
0.440431406019571
40
0.71847791778068
40
0.71847791778068
40
0.996524429541789
40
0.996524429541789
40
1
40
1
40
1
40
1
41
1
10
46.0590289593349
20
-2.85468890691553
30
0
41
1
10
46.1218219723486
20
-2.87831369688988
30
0
41
1
10
46.1846102966721
20
-2.90166791981451
30
0
41
1
10
46.6209590836209
20
-3.06204810033145
30
0
41
1
10
46.9936171068798
20
-3.1894272111571
30
0
41
1
10
47.7387033828333
20
-3.42256107800782
30
0
41
1
10
48.1112759294782
20
-3.52820950360322
30
0
41
1
10
48.8577731713085
20
-3.71587456132332
30
0
41
1
10
49.2322209149721
20
-3.79800996745527
30
0
41
1
10
50.3480059148478
20
-4.00488865368115
30
0
41
1
10
51.0860257431898
20
-4.09079565476566
30
0
41
1
10
52.5607624701351
20
-4.1563142855756
30
0
41
1
10
53.2983079154503
20
-4.13603378444338
30
0
41
1
10
54.0504808947545
20
-4.06080226403472
30
0
41
1
10
54.0597678835977
20
-4.05986515979859
30
0
41
1
10
54.0690558207368
20
-4.0589197337998
30
0
0
SPLINE
5
C2
100
AcDbEntity
8
1
62
256
6
ByLayer
370
18
48
1
60
0
100
AcDbSpline
70
4
71
3
72
18
73
14
40
0
40
0
40
0
40
0
40
0.0050013913990378
40
0.0050013913990378
40
0.171723782572708
40
0.171723782572708
40
0.338446173746379
40
0.338446173746379
40
0.505168564920049
40
0.505168564920049
40
0.838613347267391
40
0.838613347267391
40
1
40
1
40
1
40
1
41
1
10
14.9772044112721
20
0.0094033819050594
30
0
41
1
10
14.9884110908151
20
0.0036060439455525
30
0
41
1
10
14.9996165272664
20
-0.002190779782552
30
0
41
1
10
15.3843113199486
20
-0.201204745994914
30
0
41
1
10
15.7571829681869
20
-0.394168542009595
30
0
41
1
10
16.5033771468126
20
-0.776324705222322
30
0
41
1
10
16.8766666074772
20
-0.965578766054676
30
0
41
1
10
17.625121371458
20
-1.33756662858059
30
0
41
1
10
17.9979638789361
20
-1.51902506004743
30
0
41
1
10
19.1117862136305
20
-2.0445783184814
30
0
41
1
10
19.8492689688036
20
-2.37048263534129
30
0
41
1
10
20.944993093217
20
-2.80380855672001
30
0
41
1
10
21.3025845091221
20
-2.93715598373876
30
0
41
1
10
21.6610742417878
20
-3.0615091638204
30
0
0
SPLINE
5
C3
100
AcDbEntity
8
1
62
256
6
ByLayer
370
13
48
1
60
0
100
AcDbSpline
70
4
71
3
72
20
73
16
40
0
40
0
40
0
40
0
40
0.1537318903099
40
0.1537318903099
40
0.228214126073011
40
0.228214126073011
40
0.302696361836121
40
0.302696361836121
40
0.451660833362342
40
0.451660833362342
40
0.600625304888563
40
0.600625304888563
40
0.749589776414784
40
0.749589776414784
40
1
40
1
40
1
40
1
41
1
10
21.6610742416864
20
-3.06150916378522
30
0
41
1
10
22.0432686291997
20
-3.19408503184118
30
0
41
1
10
22.4264840612115
20
-3.31643786192751
30
0
41
1
10
22.9980889349748
20
-3.48106855356244
30
0
41
1
10
23.1853289403405
20
-3.53215806840726
30
0
41
1
10
23.5592689743693
20
-3.62825109089135
30
0
41
1
10
23.7460206496914
20
-3.67327904737513
30
0
41
1
10
24.3059127818071
20
-3.79906715684936
30
0
41
1
10
24.6786762133663
20
-3.87056232795763
30
0
41
1
10
25.4247781502913
20
-3.98783671898155
30
0
41
1
10
25.7985958837
20
-4.03360932355972
30
0
41
1
10
26.5464386514391
20
-4.09811240889587
30
0
41
1
10
26.9184031832264
20
-4.11672451686357
30
0
41
1
10
27.9125252382413
20
-4.13068112812516
30
0
41
1
10
28.5326484160111
20
-4.10137044697933
30
0
41
1
10
29.1529818022165
20
-4.03523302674967
30
0
0
SPLINE
5
C4
100
AcDbEntity
8
1
62
256
6
ByLayer
370
18
48
1
60
0
100
AcDbSpline
70
4
71
3
72
18
73
14
40
0
40
0
40
0
40
0
40
0.0344953957123671
40
0.0344953957123671
40
0.217981499730434
40
0.217981499730434
40
0.309724551739469
40
0.309724551739469
40
0.401467603748505
40
0.401467603748505
40
0.768439811784653
40
0.768439811784653
40
1
40
1
40
1
40
1
41
1
10
64.97855565711
20
0.0090527309060917
30
0
41
1
10
65.0485875696967
20
-0.0274202672897843
30
0
41
1
10
65.1186179476829
20
-0.0638958804594836
30
0
41
1
10
65.5611742970886
20
-0.294342043233172
30
0
41
1
10
65.9337934176419
20
-0.488123266282031
30
0
41
1
10
66.4940212075001
20
-0.776272183954376
30
0
41
1
10
66.6808703651607
20
-0.871838736860553
30
0
41
1
10
67.0532146980528
20
-1.06073409202659
30
0
41
1
10
67.2389475970153
20
-1.15419051148476
30
0
41
1
10
68.165956404707
20
-1.61556276504811
30
0
41
1
10
68.9024262730878
20
-1.96535029692907
30
0
41
1
10
70.1047848105611
20
-2.48853534809868
30
0
41
1
10
70.5701913298033
20
-2.67948308195622
30
0
41
1
10
71.037385962572
20
-2.85640524304753
30
0
0
SPLINE
5
C5
100
AcDbEntity
8
1
62
256
6
ByLayer
370
13
48
1
60
0
100
AcDbSpline
70
4
71
3
72
18
73
14
40
0
40
0
40
0
40
0
40
0.10952752774239
40
0.10952752774239
40
0.257939606451992
40
0.257939606451992
40
0.406351685161594
40
0.406351685161594
40
0.554763763871196
40
0.554763763871196
40
0.703175842580797
40
0.703175842580797
40
1
40
1
40
1
40
1
41
1
10
71.0373859623961
20
-2.85640524298091
30
0
41
1
10
71.3105925501681
20
-2.95986597763786
30
0
41
1
10
71.5844106172025
20
-3.05853040223707
30
0
41
1
10
72.2314278871894
20
-3.27838448657499
30
0
41
1
10
72.6056777851999
20
-3.39512760765103
30
0
41
1
10
73.3510257871458
20
-3.60455665313322
30
0
41
1
10
73.7231191587472
20
-3.69760362500477
30
0
41
1
10
74.4677726493267
20
-3.85896854597473
30
0
41
1
10
74.8404204037694
20
-3.92727026530372
30
0
41
1
10
75.587658599566
20
-4.03795989395644
30
0
41
1
10
75.9602081698017
20
-4.0800163567994
30
0
41
1
10
77.0761614476335
20
-4.16558001349824
30
0
41
1
10
77.8184122656098
20
-4.16826368136566
30
0
41
1
10
78.5638640880719
20
-4.11665937852493
30
0
0
SPLINE
5
C6
100
AcDbEntity
8
1
62
256
6
ByLayer
370
18
48
1
60
0
100
AcDbSpline
70
4
71
3
72
82
73
78
40
0
40
0
40
0
40
0
40
0.0259232305328413
40
0.0259232305328413
40
0.0582062742184106
40
0.0582062742184106
40
0.0904893179039799
40
0.0904893179039799
40
0.122772361589549
40
0.122772361589549
40
0.155055405275118
40
0.155055405275118
40
0.171196927117903
40
0.171196927117903
40
0.187338448960688
40
0.187338448960688
40
0.219621492646258
40
0.219621492646258
40
0.251904536331828
40
0.251904536331828
40
0.284187580017397
40
0.284187580017397
40
0.316470623702967
40
0.316470623702967
40
0.348753667388537
40
0.348753667388537
40
0.381036711074107
40
0.381036711074107
40
0.413319754759677
40
0.413319754759677
40
0.445602798445247
40
0.445602798445247
40
0.461744320288032
40
0.461744320288032
40
0.477885842130818
40
0.477885842130818
40
0.51016888581639
40
0.51016888581639
40
0.526310407659176
40
0.526310407659176
40
0.542451929501963
40
0.542451929501963
40
0.574734973187536
40
0.574734973187536
40
0.590876495030322
40
0.590876495030322
40
0.607018016873109
40
0.607018016873109
40
0.639301060558682
40
0.639301060558682
40
0.655442582401468
40
0.655442582401468
40
0.671584104244254
40
0.671584104244254
40
0.703867147929826
40
0.703867147929826
40
0.736150191615398
40
0.736150191615398
40
0.76843323530097
40
0.76843323530097
40
0.800716278986542
40
0.800716278986542
40
0.832999322672114
40
0.832999322672114
40
0.865282366357686
40
0.865282366357686
40
0.881423888200472
40
0.881423888200472
40
0.897565410043258
40
0.897565410043258
40
0.92984845372883
40
0.92984845372883
40
0.962131497414403
40
0.962131497414403
40
0.994414541099975
40
0.994414541099975
40
1
40
1
40
1
40
1
41
1
10
14.8518029824795
20
4.02093893152465
30
0
41
1
10
15.1181669516705
20
4.02152940329398
30
0
41
1
10
15.3840703730089
20
4.01580591894009
30
0
41
1
10
15.9800814801165
20
3.98815373090113
30
0
41
1
10
16.3106633013763
20
3.96190466236192
30
0
41
1
10
16.9729084761536
20
3.88829741658128
30
0
41
1
10
17.3046476873058
20
3.84141850212433
30
0
41
1
10
17.9675629705439
20
3.72899112105262
30
0
41
1
10
18.2983134203147
20
3.66253735227136
30
0
41
1
10
18.9601394775852
20
3.51085896247764
30
0
41
1
10
19.2909794968341
20
3.42571444361536
30
0
41
1
10
19.7870440191717
20
3.28536994824569
30
0
41
1
10
19.9523064361242
20
3.23643885057112
30
0
41
1
10
20.2834832462415
20
3.13439044733133
30
0
41
1
10
20.4494926859077
20
3.08110467968672
30
0
41
1
10
20.9470226878913
20
2.91540522464834
30
0
41
1
10
21.2781605348195
20
2.79721548375878
30
0
41
1
10
21.9393994620266
20
2.54683870200663
30
0
41
1
10
22.2695107764477
20
2.41512399387304
30
0
41
1
10
22.9316232884418
20
2.13940518083584
30
0
41
1
10
23.2637254661476
20
1.9951957209185
30
0
41
1
10
23.9266038412787
20
1.69691511005564
30
0
41
1
10
24.2570097563368
20
1.54303459800568
30
0
41
1
10
24.9186497673621
20
1.22944757664274
30
0
41
1
10
25.2495816809912
20
1.0691070788975
30
0
41
1
10
25.9116912892011
20
0.742558406812861
30
0
41
1
10
26.2431129265847
20
0.575681037969957
30
0
41
1
10
26.9058516968667
20
0.24242688034559
30
0
41
1
10
27.2367919183578
20
0.0754109705731025
30
0
41
1
10
27.8981097739404
20
-0.258950706749971
30
0
41
1
10
28.2281852860388
20
-0.426895353736057
30
0
41
1
10
28.7246138977727
20
-0.675676475699419
30
0
41
1
10
28.8902466745093
20
-0.758198079719222
30
0
41
1
10
29.221960137537
20
-0.922113456916634
30
0
41
1
10
29.3878917561884
20
-1.00343377308519
30
0
41
1
10
29.8847701429971
20
-1.24521766533053
30
0
41
1
10
30.2149533632521
20
-1.40429667557922
30
0
41
1
10
30.7108067168598
20
-1.63645395441054
30
0
41
1
10
30.8761394070052
20
-1.71291265904844
30
0
41
1
10
31.2069449885334
20
-1.86318154878572
30
0
41
1
10
31.3724381842389
20
-1.93693068561006
30
0
41
1
10
31.8692334743687
20
-2.15423237571557
30
0
41
1
10
32.2008581122855
20
-2.29462757919507
30
0
41
1
10
32.6975483989837
20
-2.4958511996532
30
0
41
1
10
32.8630943297924
20
-2.56158037581142
30
0
41
1
10
33.1940388307453
20
-2.68984104968968
30
0
41
1
10
33.359460432479
20
-2.75167198730338
30
0
41
1
10
33.8556774824189
20
-2.93126388401427
30
0
41
1
10
34.1861221587975
20
-3.04355994371136
30
0
41
1
10
34.6828263507673
20
-3.20061600237921
30
0
41
1
10
34.8487094550509
20
-3.25101685137383
30
0
41
1
10
35.1804636080043
20
-3.34844793332542
30
0
41
1
10
35.3461863531398
20
-3.39551119063012
30
0
41
1
10
35.8428381362726
20
-3.52707529165846
30
0
41
1
10
36.1731287118414
20
-3.60519056316767
30
0
41
1
10
36.8338431382592
20
-3.74307296825273
30
0
41
1
10
37.1647530237763
20
-3.80297449945533
30
0
41
1
10
37.8273216703533
20
-3.90426950890091
30
0
41
1
10
38.15908952822
20
-3.94321839231236
30
0
41
1
10
38.8202870672442
20
-4.00080021542931
30
0
41
1
10
39.1510416668751
20
-4.01938641782135
30
0
41
1
10
39.8124304328783
20
-4.03889361517693
30
0
41
1
10
40.1431151781029
20
-4.03714496433196
30
0
41
1
10
40.8051541842587
20
-4.01107220890339
30
0
41
1
10
41.1370561416839
20
-3.98735408877832
30
0
41
1
10
41.6336634632542
20
-3.93903916779794
30
0
41
1
10
41.7990921566405
20
-3.92081790973748
30
0
41
1
10
42.1297456180893
20
-3.87830172199384
30
0
41
1
10
42.2949807580468
20
-3.85395124860324
30
0
41
1
10
42.7905316873045
20
-3.77306479484312
30
0
41
1
10
43.1214438954625
20
-3.70879697975891
30
0
41
1
10
43.7847163527613
20
-3.56382629620484
30
0
41
1
10
44.1163176898042
20
-3.48339551156374
30
0
41
1
10
44.7772223957245
20
-3.30071242344747
30
0
41
1
10
45.1074825907719
20
-3.20022858714418
30
0
41
1
10
45.4954635818266
20
-3.07402185335843
30
0
41
1
10
45.5526937968792
20
-3.05520142357122
30
0
41
1
10
45.6099296637514
20
-3.0361651134308
30
0
0
SPLINE
5
C7
100
AcDbEntity
8
1
62
256
6
ByLayer
370
18
48
1
60
0
100
AcDbSpline
70
4
71
3
72
30
73
26
40
0
40
0
40
0
40
0
40
0.0271383712772332
40
0.0271383712772332
40
0.12442453414951
40
0.12442453414951
40
0.221710697021787
40
0.221710697021787
40
0.318996859894064
40
0.318996859894064
40
0.416283022766341
40
0.416283022766341
40
0.513569185638618
40
0.513569185638618
40
0.610855348510895
40
0.610855348510895
40
0.708141511383172
40
0.708141511383172
40
0.805427674255449
40
0.805427674255449
40
0.854070755691588
40
0.854070755691588
40
0.902713837127726
40
0.902713837127726
40
1
40
1
40
1
40
1
41
1
10
65.0094992774899
20
4.048019638483
30
0
41
1
10
65.1015940052327
20
4.04708240568002
30
0
41
1
10
65.1936604332568
20
4.04529876825222
30
0
41
1
10
65.6156985942982
20
4.03327068501585
30
0
41
1
10
65.9462437705887
20
4.01326877948631
30
0
41
1
10
66.6082043997325
20
3.95373664068805
30
0
41
1
10
66.9399237093095
20
3.91403717872063
30
0
41
1
10
67.6007618477777
20
3.81605818015709
30
0
41
1
10
67.9310870394066
20
3.75887354290202
30
0
41
1
10
68.5918200867787
20
3.62208818274516
30
0
41
1
10
68.922216931342
20
3.54326294874892
30
0
41
1
10
69.5832981788903
20
3.36646198498085
30
0
41
1
10
69.914932255811
20
3.26914093773092
30
0
41
1
10
70.5766589357059
20
3.05898013775274
30
0
41
1
10
70.907123429766
20
2.94579574036015
30
0
41
1
10
71.5673444218028
20
2.70408604176041
30
0
41
1
10
71.8975727683809
20
2.57638918988599
30
0
41
1
10
72.5597625848951
20
2.30895838699155
30
0
41
1
10
72.8914620506972
20
2.16863913717629
30
0
41
1
10
73.3870083956491
20
1.94972943898551
30
0
41
1
10
73.5519412877376
20
1.87524352909739
30
0
41
1
10
73.8820658432414
20
1.72468007668266
30
0
41
1
10
74.0471931264307
20
1.64852269503146
30
0
41
1
10
74.5427192053643
20
1.41679052148794
30
0
41
1
10
74.8733649039719
20
1.25787147600221
30
0
41
1
10
75.2043291770269
20
1.09522900620504
30
0
0
SPLINE
5
C8
100
AcDbEntity
8
1
62
256
6
ByLayer
370
13
48
1
60
0
100
AcDbSpline
70
4
71
3
72
16
73
12
40
0
40
0
40
0
40
0
40
0.0993283341562063
40
0.0993283341562063
40
0.292480816328337
40
0.292480816328337
40
0.678785780672599
40
0.678785780672599
40
0.87193826284473
40
0.87193826284473
40
1
40
1
40
1
40
1
41
1
10
7.25051680601672
20
3.48015897315298
30
0
41
1
10
7.25054229491377
20
3.51483617478442
30
0
41
1
10
7.25056714545087
20
3.54793030241538
30
0
41
1
10
7.25063862836558
20
3.64072400441049
30
0
41
1
10
7.25068343732806
20
3.69570814081271
30
0
41
1
10
7.25081097110706
20
3.84067482756564
30
0
41
1
10
7.25088743465946
20
3.91162357074106
30
0
41
1
10
7.25099496352763
20
3.97917214463345
30
0
41
1
10
7.25102971431267
20
3.99515807457945
30
0
41
1
10
7.25108531375787
20
4.01021673630478
30
0
41
1
10
7.25110694758567
20
4.01322216019375
30
0
41
1
10
7.25112816514408
20
4.01322084617695
30
0
0
SPLINE
5
C9
100
AcDbEntity
8
1
62
256
6
ByLayer
370
18
48
1
60
0
100
AcDbSpline
70
4
71
3
72
14
73
10
40
0
40
0
40
0
40
0
40
0.25
40
0.25
40
0.5
40
0.5
40
0.75
40
0.75
40
1
40
1
40
1
40
1
41
1
10
7.00657024445684
20
-2.11212341636065
30
0
41
1
10
7.0125042934207
20
-2.08651239928429
30
0
41
1
10
7.02274614919764
20
-2.0625337192734
30
0
41
1
10
7.05357027200651
20
-2.0233142563167
30
0
41
1
10
7.07427699411218
20
-2.0085905812297
30
0
41
1
10
7.12181930357448
20
-1.99431753653656
30
0
41
1
10
7.14857516679865
20
-1.99467143160243
30
0
41
1
10
7.20155292862231
20
-2.00741113036483
30
0
41
1
10
7.22719173732028
20
-2.01921619716319
30
0
41
1
10
7.2518379004826
20
-2.03449480986166
30
0
0
SPLINE
5
CA
100
AcDbEntity
8
1
62
256
6
ByLayer
370
18
48
1
60
0
100
AcDbSpline
70
4
71
3
72
18
73
14
40
0
40
0
40
0
40
0
40
0.125
40
0.125
40
0.25
40
0.25
40
0.5
40
0.5
40
0.625
40
0.625
40
0.75
40
0.75
40
1
40
1
40
1
40
1
41
1
10
75.2043291770265
20
1.0952290062047
30
0
41
1
10
75.2645449025658
20
0.927404144751364
30
0
41
1
10
75.3357768124042
20
0.762413203522442
30
0
41
1
10
75.4967128810437
20
0.437183318534636
30
0
41
1
10
75.5866915895188
20
0.276555990166628
30
0
41
1
10
75.8797746401275
20
-0.196485749856578
30
0
41
1
10
76.0982573063441
20
-0.489150726860714
30
0
41
1
10
76.4503961738425
20
-0.904153858920552
30
0
41
1
10
76.5720577578406
20
-1.0384875416587
30
0
41
1
10
76.8225062731979
20
-1.29929855684591
30
0
41
1
10
76.9499996111992
20
-1.42444712407485
30
0
41
1
10
77.3384303882619
20
-1.78610626818337
30
0
41
1
10
77.6052322968827
20
-2.00903020979351
30
0
41
1
10
77.8788231957889
20
-2.21622561297025
30
0
0
SPLINE
5
CB
100
AcDbEntity
8
1
62
256
6
ByLayer
370
18
48
1
60
0
100
AcDbSpline
70
4
71
3
72
30
73
26
40
0
40
0
40
0
40
0
40
0.206440867674276
40
0.206440867674276
40
0.258051084592845
40
0.258051084592845
40
0.309661301511415
40
0.309661301511415
40
0.412881735348555
40
0.412881735348555
40
0.464491952267125
40
0.464491952267125
40
0.516102169185695
40
0.516102169185695
40
0.619322603022836
40
0.619322603022836
40
0.722543036859978
40
0.722543036859978
40
0.82576347069712
40
0.82576347069712
40
0.877373687615693
40
0.877373687615693
40
0.928983904534265
40
0.928983904534265
40
1
40
1
40
1
40
1
41
1
10
17.4935163194555
20
-1.67144159492335
30
0
41
1
10
18.1305071631431
20
-1.98478153501429
30
0
41
1
10
18.7689917801988
20
-2.27294759342706
30
0
41
1
10
19.5636084506644
20
-2.61104335819692
30
0
41
1
10
19.7224320831496
20
-2.67738984627627
30
0
41
1
10
20.041027656726
20
-2.80585806522365
30
0
41
1
10
20.2006980619064
20
-2.86823564950717
30
0
41
1
10
20.6800660219669
20
-3.05005122772934
30
0
41
1
10
20.9991090922107
20
-3.16379433503437
30
0
41
1
10
21.4762114267697
20
-3.32392844133909
30
0
41
1
10
21.6348510605579
20
-3.37570911756723
30
0
41
1
10
21.9525967817699
20
-3.47459933147962
30
0
41
1
10
22.1117370105197
20
-3.52169393461728
30
0
41
1
10
22.5896146911349
20
-3.65642553818609
30
0
41
1
10
22.9090330327023
20
-3.73757714953871
30
0
41
1
10
23.5473427341278
20
-3.88276382670497
30
0
41
1
10
23.8647202688663
20
-3.94673279489913
30
0
41
1
10
24.5013961434865
20
-4.05375687285763
30
0
41
1
10
24.8200528904811
20
-4.09743212359331
30
0
41
1
10
25.2977963057452
20
-4.14855850533212
30
0
41
1
10
25.4570075736316
20
-4.16318837727908
30
0
41
1
10
25.7752510531744
20
-4.18752581460419
30
0
41
1
10
25.9344564759039
20
-4.19719749977017
30
0
41
1
10
26.3133619800128
20
-4.21394223553972
30
0
41
1
10
26.5328164048196
20
-4.21880099531634
30
0
41
1
10
26.7521154888183
20
-4.21890046179905
30
0
0
SPLINE
5
CC
100
AcDbEntity
8
1
62
256
6
ByLayer
370
18
48
1
60
0
100
AcDbSpline
70
4
71
3
72
94
73
90
40
0
40
0
40
0
40
0
40
0.0170090236972133
40
0.0170090236972133
40
0.0323299571030999
40
0.0323299571030999
40
0.0476508905089867
40
0.0476508905089867
40
0.0782927573207601
40
0.0782927573207601
40
0.108934624132533
40
0.108934624132533
40
0.139576490944307
40
0.139576490944307
40
0.154897424350194
40
0.154897424350194
40
0.170218357756081
40
0.170218357756081
40
0.200860224567856
40
0.200860224567856
40
0.216181157973742
40
0.216181157973742
40
0.231502091379629
40
0.231502091379629
40
0.262143958191402
40
0.262143958191402
40
0.292785825003176
40
0.292785825003176
40
0.323427691814949
40
0.323427691814949
40
0.354069558626723
40
0.354069558626723
40
0.369390492032609
40
0.369390492032609
40
0.384711425438496
40
0.384711425438496
40
0.415353292250268
40
0.415353292250268
40
0.430674225656155
40
0.430674225656155
40
0.445995159062042
40
0.445995159062042
40
0.476637025873814
40
0.476637025873814
40
0.507278892685586
40
0.507278892685586
40
0.537920759497359
40
0.537920759497359
40
0.553241692903244
40
0.553241692903244
40
0.56856262630913
40
0.56856262630913
40
0.599204493120901
40
0.599204493120901
40
0.614525426526786
40
0.614525426526786
40
0.629846359932672
40
0.629846359932672
40
0.660488226744442
40
0.660488226744442
40
0.691130093556212
40
0.691130093556212
40
0.721771960367982
40
0.721771960367982
40
0.752413827179753
40
0.752413827179753
40
0.767734760585638
40
0.767734760585638
40
0.783055693991523
40
0.783055693991523
40
0.813697560803294
40
0.813697560803294
40
0.829018494209179
40
0.829018494209179
40
0.844339427615064
40
0.844339427615064
40
0.874981294426834
40
0.874981294426834
40
0.905623161238605
40
0.905623161238605
40
0.936265028050375
40
0.936265028050375
40
0.951585961456261
40
0.951585961456261
40
0.966906894862146
40
0.966906894862146
40
0.997548761673917
40
0.997548761673917
40
1
40
1
40
1
40
1
41
1
10
45.6235502147042
20
3.03403224655853
30
0
41
1
10
45.8007038684731
20
3.09940973851721
30
0
41
1
10
45.9778323509536
20
3.16267700146517
30
0
41
1
10
46.3136209306556
20
3.27879821007872
30
0
41
1
10
46.4722738242153
20
3.33223711052591
30
0
41
1
10
46.7899682916265
20
3.43434411644716
30
0
41
1
10
46.9489968777564
20
3.48305200085571
30
0
41
1
10
47.4262920249682
20
3.62265314383947
30
0
41
1
10
47.7447870370186
20
3.70704068250828
30
0
41
1
10
48.3814776047197
20
3.85906962211655
30
0
41
1
10
48.6996800967446
20
3.92691534207827
30
0
41
1
10
49.336784790545
20
4.04133800190218
30
0
41
1
10
49.6553270792326
20
4.08867851902971
30
0
41
1
10
50.1324165491474
20
4.14534169832191
30
0
41
1
10
50.2913287497247
20
4.16182368249051
30
0
41
1
10
50.6088096518595
20
4.18989456601216
30
0
41
1
10
50.7674786446941
20
4.20142996704513
30
0
41
1
10
51.2449080945432
20
4.22820328942899
30
0
41
1
10
51.5647468666131
20
4.23586857306307
30
0
41
1
10
52.0427080159117
20
4.23227082914889
30
0
41
1
10
52.2018314992903
20
4.22855181115477
30
0
41
1
10
52.5195758186661
20
4.21599072711538
30
0
41
1
10
52.6780500571826
20
4.20710048677466
30
0
41
1
10
53.1542858967496
20
4.1729724493045
30
0
41
1
10
53.4727364052817
20
4.14042170178118
30
0
41
1
10
54.1102577126488
20
4.05564057199521
30
0
41
1
10
54.4294823950066
20
4.00320909744747
30
0
41
1
10
55.0647030958084
20
3.87848659992869
30
0
41
1
10
55.3828527748877
20
3.80738903343638
30
0
41
1
10
56.0193129758505
20
3.64768838158142
30
0
41
1
10
56.3375838194614
20
3.55904735265847
30
0
41
1
10
56.8144201199923
20
3.41177896213338
30
0
41
1
10
56.9734811927312
20
3.36035046396793
30
0
41
1
10
57.292170895175
20
3.25434075134407
30
0
41
1
10
57.4515244946155
20
3.19962030175304
30
0
41
1
10
57.9293692976411
20
3.03011540617132
30
0
41
1
10
58.2476544805047
20
2.91003138640738
30
0
41
1
10
58.7240124791495
20
2.71822781294617
30
0
41
1
10
58.8824738451494
20
2.65211133394161
30
0
41
1
10
59.2000919363102
20
2.51746031618327
30
0
41
1
10
59.3592316404064
20
2.44892014675128
30
0
41
1
10
59.8373024949772
20
2.23922300424584
30
0
41
1
10
60.1569494700234
20
2.09400153347895
30
0
41
1
10
60.7931920835521
20
1.79299976532741
30
0
41
1
10
61.1098584260766
20
1.6362088626297
30
0
41
1
10
61.7457229169832
20
1.31951394275501
30
0
41
1
10
62.0642388203862
20
1.15849056529279
30
0
41
1
10
62.5421822849558
20
0.911629876196997
30
0
41
1
10
62.7016492414484
20
0.828392446010696
30
0
41
1
10
63.0197041663494
20
0.660348451491245
30
0
41
1
10
63.1784397843492
20
0.575714337947488
30
0
41
1
10
63.6554017721648
20
0.323041376461617
30
0
41
1
10
63.9736910142003
20
0.154934727363241
30
0
41
1
10
64.4507934025002
20
-0.0982185374149367
30
0
41
1
10
64.6097787180071
20
-0.182756747734885
30
0
41
1
10
64.9275465548197
20
-0.352341622035169
30
0
41
1
10
65.0861828663452
20
-0.437664931490502
30
0
41
1
10
65.5633566561935
20
-0.691437016731697
30
0
41
1
10
65.8827585937923
20
-0.857768615692976
30
0
41
1
10
66.5194960244049
20
-1.18551945817094
30
0
41
1
10
66.8371756924863
20
-1.3474018146178
30
0
41
1
10
67.4713846699332
20
-1.66655633485507
30
0
41
1
10
67.7896285834028
20
-1.82081471407469
30
0
41
1
10
68.4274713885524
20
-2.12047299335893
30
0
41
1
10
68.7465711174563
20
-2.26571955901696
30
0
41
1
10
69.2226924122588
20
-2.47656802634077
30
0
41
1
10
69.3811813877156
20
-2.54555301535069
30
0
41
1
10
69.6988138197703
20
-2.67932083514458
30
0
41
1
10
69.8577911929901
20
-2.74436538915052
30
0
41
1
10
70.3349559759892
20
-2.93441347613947
30
0
41
1
10
70.6533842228055
20
-3.05434995166394
30
0
41
1
10
71.1308693271923
20
-3.224690725459
30
0
41
1
10
71.2898375718645
20
-3.28002219975875
30
0
41
1
10
71.6077671272078
20
-3.38580975464438
30
0
41
1
10
71.7668414080695
20
-3.4363502218215
30
0
41
1
10
72.2440604916838
20
-3.58145904238717
30
0
41
1
10
72.5622228566971
20
-3.66952896938221
30
0
41
1
10
73.1976798655087
20
-3.82906626715513
30
0
41
1
10
73.5145490246114
20
-3.90070345905704
30
0
41
1
10
74.1520260012929
20
-4.02335250420651
30
0
41
1
10
74.4709994822522
20
-4.0748466411201
30
0
41
1
10
74.9478622279072
20
-4.13767930247019
30
0
41
1
10
75.1066184528904
20
-4.15622027059337
30
0
41
1
10
75.4236256838032
20
-4.18843421802853
30
0
41
1
10
75.5819673689662
20
-4.20205228982076
30
0
41
1
10
76.0581787557386
20
-4.23504464649727
30
0
41
1
10
76.3765308585981
20
-4.2468771544122
30
0
41
1
10
76.7207171027245
20
-4.24880964435872
30
0
41
1
10
76.7462156966502
20
-4.2488879834269
30
0
41
1
10
76.7717160245018
20
-4.24890135803599
30
0
0
SPLINE
5
CD
100
AcDbEntity
8
1
62
256
6
ByLayer
370
18
48
1
60
0
100
AcDbSpline
70
4
71
3
72
92
73
88
40
0
40
0
40
0
40
0
40
0.0222720308716979
40
0.0222720308716979
40
0.0376108571549248
40
0.0376108571549248
40
0.0529496834381517
40
0.0529496834381517
40
0.0836273360046054
40
0.0836273360046054
40
0.114304988571059
40
0.114304988571059
40
0.144982641137513
40
0.144982641137513
40
0.16032146742074
40
0.16032146742074
40
0.175660293703968
40
0.175660293703968
40
0.206337946270422
40
0.206337946270422
40
0.22167677255365
40
0.22167677255365
40
0.237015598836877
40
0.237015598836877
40
0.267693251403332
40
0.267693251403332
40
0.298370903969787
40
0.298370903969787
40
0.329048556536241
40
0.329048556536241
40
0.359726209102696
40
0.359726209102696
40
0.375065035385923
40
0.375065035385923
40
0.39040386166915
40
0.39040386166915
40
0.421081514235605
40
0.421081514235605
40
0.436420340518833
40
0.436420340518833
40
0.451759166802061
40
0.451759166802061
40
0.482436819368516
40
0.482436819368516
40
0.513114471934972
40
0.513114471934972
40
0.543792124501428
40
0.543792124501428
40
0.559130950784656
40
0.559130950784656
40
0.574469777067884
40
0.574469777067884
40
0.605147429634341
40
0.605147429634341
40
0.62048625591757
40
0.62048625591757
40
0.635825082200798
40
0.635825082200798
40
0.666502734767255
40
0.666502734767255
40
0.697180387333712
40
0.697180387333712
40
0.727858039900169
40
0.727858039900169
40
0.758535692466626
40
0.758535692466626
40
0.773874518749854
40
0.773874518749854
40
0.789213345033083
40
0.789213345033083
40
0.81989099759954
40
0.81989099759954
40
0.835229823882768
40
0.835229823882768
40
0.850568650165996
40
0.850568650165996
40
0.881246302732453
40
0.881246302732453
40
0.91192395529891
40
0.91192395529891
40
0.942601607865367
40
0.942601607865367
40
0.957940434148594
40
0.957940434148594
40
0.973279260431822
40
0.973279260431822
40
1
40
1
40
1
40
1
41
1
10
20.6230496419411
20
3.02680318659458
30
0
41
1
10
20.8548272915518
20
3.11185749001351
30
0
41
1
10
21.0862592139548
20
3.19304530667918
30
0
41
1
10
21.4762114267697
20
3.32392844133909
30
0
41
1
10
21.6348510605578
20
3.37570911756723
30
0
41
1
10
21.9525967817699
20
3.47459933147959
30
0
41
1
10
22.1117370105196
20
3.52169393461725
30
0
41
1
10
22.5896146911349
20
3.65642553818609
30
0
41
1
10
22.9090330327022
20
3.73757714953868
30
0
41
1
10
23.5473427341277
20
3.88276382670495
30
0
41
1
10
23.8647202688663
20
3.94673279489913
30
0
41
1
10
24.5013961434864
20
4.05375687285763
30
0
41
1
10
24.820052890481
20
4.09743212359331
30
0
41
1
10
25.2977963057451
20
4.14855850533212
30
0
41
1
10
25.4570075736316
20
4.16318837727906
30
0
41
1
10
25.7752510531743
20
4.18752581460419
30
0
41
1
10
25.9344564759039
20
4.19719749977017
30
0
41
1
10
26.4128708115829
20
4.21833976757162
30
0
41
1
10
26.7318567271369
20
4.22221267302862
30
0
41
1
10
27.2095908441038
20
4.21305418856304
30
0
41
1
10
27.3687181966896
20
4.20749206032028
30
0
41
1
10
27.6866301730908
20
4.19124929639113
30
0
41
1
10
27.8452652019339
20
4.18051467128123
30
0
41
1
10
28.3221247834525
20
4.14086950549037
30
0
41
1
10
28.641675056249
20
4.1046420044004
30
0
41
1
10
29.2803581338067
20
4.01271565914229
30
0
41
1
10
29.5987561317222
20
3.95702902458598
30
0
41
1
10
30.2337209704085
20
3.82573693683227
30
0
41
1
10
30.5520118725331
20
3.75142996303831
30
0
41
1
10
31.1894233320514
20
3.58544791528095
30
0
41
1
10
31.5089006890373
20
3.49357816416622
30
0
41
1
10
31.9864889234133
20
3.34193688008753
30
0
41
1
10
32.1453673259821
20
3.28918370838107
30
0
41
1
10
32.4636365165668
20
3.18068707250453
30
0
41
1
10
32.6228600303918
20
3.12475695901119
30
0
41
1
10
33.1005452063623
20
2.95169753815776
30
0
41
1
10
33.4190309233443
20
2.82934443609636
30
0
41
1
10
33.8961523514176
20
2.63420949025743
30
0
41
1
10
34.0549433707666
20
2.56698535208645
30
0
41
1
10
34.3733340722175
20
2.43010363979795
30
0
41
1
10
34.5330361733439
20
2.36042913521538
30
0
41
1
10
35.0116527189124
20
2.14799725767969
30
0
41
1
10
35.330450319339
20
2.00173573328232
30
0
41
1
10
35.9665835373661
20
1.69841586138659
30
0
41
1
10
36.2834770956322
20
1.54050396734524
30
0
41
1
10
36.9203667359859
20
1.22173952888403
30
0
41
1
10
37.2401770726893
20
1.05953128880867
30
0
41
1
10
37.718528100076
20
0.812028851080299
30
0
41
1
10
37.8777153671157
20
0.728855129825348
30
0
41
1
10
38.195450995768
20
0.560943765478243
30
0
41
1
10
38.3540862158961
20
0.476367562833644
30
0
41
1
10
38.8309787768324
20
0.2239565650016
30
0
41
1
10
39.1495223990399
20
0.0561288941329963
30
0
41
1
10
39.6274473055193
20
-0.19647289458527
30
0
41
1
10
39.7867809141403
20
-0.280804493473795
30
0
41
1
10
40.1053960988513
20
-0.449933667452655
30
0
41
1
10
40.2645420128368
20
-0.535016461529807
30
0
41
1
10
40.7419382665353
20
-0.787245892204822
30
0
41
1
10
41.0605703643473
20
-0.95183031604131
30
0
41
1
10
41.6972853497261
20
-1.27642514589357
30
0
41
1
10
42.0152514510183
20
-1.4366330152865
30
0
41
1
10
42.6505895008611
20
-1.75231446348246
30
0
41
1
10
42.9701641116905
20
-1.90499655999619
30
0
41
1
10
43.608099969806
20
-2.19983753323603
30
0
41
1
10
43.926523396712
20
-2.3421543688662
30
0
41
1
10
44.4026906868421
20
-2.54878943522749
30
0
41
1
10
44.5612627229696
20
-2.61636176892969
30
0
41
1
10
44.87920455919
20
-2.74728740716142
30
0
41
1
10
45.0384081272028
20
-2.81089878249551
30
0
41
1
10
45.5164641584241
20
-2.99659420871458
30
0
41
1
10
45.8362375751813
20
-3.11371120128621
30
0
41
1
10
46.3136209306554
20
-3.27879821007866
30
0
41
1
10
46.4722738242152
20
-3.33223711052585
30
0
41
1
10
46.7899682916264
20
-3.43434411644711
30
0
41
1
10
46.9489968777561
20
-3.48305200085565
30
0
41
1
10
47.426292024968
20
-3.62265314383942
30
0
41
1
10
47.7447870370183
20
-3.70704068250825
30
0
41
1
10
48.3814776047194
20
-3.85906962211649
30
0
41
1
10
48.6996800967444
20
-3.92691534207825
30
0
41
1
10
49.3367847905448
20
-4.04133800190212
30
0
41
1
10
49.6553270792323
20
-4.08867851902968
30
0
41
1
10
50.1324165491472
20
-4.14534169832189
30
0
41
1
10
50.2913287497245
20
-4.16182368249048
30
0
41
1
10
50.6088096518593
20
-4.18989456601216
30
0
41
1
10
50.7674786446938
20
-4.20142996704513
30
0
41
1
10
51.2038543928454
20
-4.22590107704775
30
0
41
1
10
51.482264804534
20
-4.23372175976524
30
0
41
1
10
51.7600354760937
20
-4.23389563361994
30
0
0
SPLINE
5
CE
100
AcDbEntity
8
1
62
256
6
ByLayer
370
18
48
1
60
0
100
AcDbSpline
70
4
71
3
72
30
73
26
40
0
40
0
40
0
40
0
40
0.0437486898403231
40
0.0437486898403231
40
0.103514396725305
40
0.103514396725305
40
0.163280103610286
40
0.163280103610286
40
0.282811517380248
40
0.282811517380248
40
0.40234293115021
40
0.40234293115021
40
0.521874344920173
40
0.521874344920173
40
0.581640051805152
40
0.581640051805152
40
0.641405758690132
40
0.641405758690132
40
0.760937172460087
40
0.760937172460087
40
0.820702879345064
40
0.820702879345064
40
0.880468586230041
40
0.880468586230041
40
1
40
1
40
1
40
1
41
1
10
70.6221656090145
20
3.04063921683584
30
0
41
1
10
70.7386798254357
20
3.08392969877113
30
0
41
1
10
70.8552007478787
20
3.12634713593158
30
0
41
1
10
71.130869327192
20
3.22469072545886
30
0
41
1
10
71.2898375718642
20
3.28002219975861
30
0
41
1
10
71.6077671272074
20
3.38580975464427
30
0
41
1
10
71.7668414080691
20
3.43635022182138
30
0
41
1
10
72.2440604916834
20
3.58145904238705
30
0
41
1
10
72.5622228566967
20
3.6695289693821
30
0
41
1
10
73.1976798655083
20
3.82906626715504
30
0
41
1
10
73.514549024611
20
3.90070345905696
30
0
41
1
10
74.1520260012925
20
4.02335250420646
30
0
41
1
10
74.4709994822519
20
4.07484664112005
30
0
41
1
10
74.9478622279068
20
4.13767930247013
30
0
41
1
10
75.10661845289
20
4.15622027059334
30
0
41
1
10
75.4236256838028
20
4.18843421802848
30
0
41
1
10
75.5819673689658
20
4.20205228982073
30
0
41
1
10
76.0581787557382
20
4.23504464649724
30
0
41
1
10
76.3765308585977
20
4.24687715441218
30
0
41
1
10
76.8545689124625
20
4.24956117723096
30
0
41
1
10
77.014086262704
20
4.24792428109222
30
0
41
1
10
77.332168635751
20
4.23950817387075
30
0
41
1
10
77.4907010915963
20
4.23269101289776
30
0
41
1
10
77.9667486449783
20
4.20471359145662
30
0
41
1
10
78.2846439861747
20
4.17618663993215
30
0
41
1
10
78.6024218644648
20
4.13785747552444
30
0
0
SPLINE
5
CF
100
AcDbEntity
8
1
62
256
6
ByLayer
370
18
48
1
60
0
100
AcDbSpline
70
4
71
3
72
14
73
10
40
0
40
0
40
0
40
0
40
0.25
40
0.25
40
0.5
40
0.5
40
0.75
40
0.75
40
1
40
1
40
1
40
1
41
1
10
78.159395791059
20
0.972548052325379
30
0
41
1
10
78.1493928611229
20
1.00260388035184
30
0
41
1
10
78.1422164570308
20
1.03380216615165
30
0
41
1
10
78.1350550739599
20
1.09785069975129
30
0
41
1
10
78.1348479512108
20
1.13124999845036
30
0
41
1
10
78.1509153647075
20
1.19405532844223
30
0
41
1
10
78.1675772731487
20
1.22354035709867
30
0
41
1
10
78.2162557239175
20
1.26730943951444
30
0
41
1
10
78.2472182912653
20
1.28118256421217
30
0
41
1
10
78.2792091422256
20
1.28849829829724
30
0
0
SPLINE
5
D0
100
AcDbEntity
8
1
62
256
6
ByLayer
370
18
48
1
60
0
100
AcDbSpline
70
4
71
3
72
8
73
4
40
0
40
0
40
0
40
0
40
1
40
1
40
1
40
1
41
1
10
78.527626358716
20
-4.21425029432584
30
0
41
1
10
78.5397174023731
20
-4.18173485594883
30
0
41
1
10
78.5517968817688
20
-4.14920389914988
30
0
41
1
10
78.5638640880718
20
-4.11665937852493
30
0
0
SPLINE
5
D1
100
AcDbEntity
8
1
62
256
6
ByLayer
370
18
48
1
60
0
100
AcDbSpline
70
4
71
3
72
78
73
74
40
0
40
0
40
0
40
0
40
0.0122637553999516
40
0.0122637553999516
40
0.0447936120377539
40
0.0447936120377539
40
0.0773234686755563
40
0.0773234686755563
40
0.109853325313359
40
0.109853325313359
40
0.142383181951161
40
0.142383181951161
40
0.174913038588963
40
0.174913038588963
40
0.207442895226766
40
0.207442895226766
40
0.223707823545667
40
0.223707823545667
40
0.239972751864569
40
0.239972751864569
40
0.272502608502372
40
0.272502608502372
40
0.305032465140176
40
0.305032465140176
40
0.321297393459077
40
0.321297393459077
40
0.337562321777979
40
0.337562321777979
40
0.370092178415784
40
0.370092178415784
40
0.386357106734686
40
0.386357106734686
40
0.402622035053588
40
0.402622035053588
40
0.435151891691393
40
0.435151891691393
40
0.467681748329197
40
0.467681748329197
40
0.500211604967002
40
0.500211604967002
40
0.532741461604807
40
0.532741461604807
40
0.565271318242611
40
0.565271318242611
40
0.597801174880416
40
0.597801174880416
40
0.63033103151822
40
0.63033103151822
40
0.662860888156025
40
0.662860888156025
40
0.695390744793829
40
0.695390744793829
40
0.727920601431634
40
0.727920601431634
40
0.760450458069439
40
0.760450458069439
40
0.792980314707243
40
0.792980314707243
40
0.825510171345048
40
0.825510171345048
40
0.858040027982852
40
0.858040027982852
40
0.890569884620657
40
0.890569884620657
40
0.923099741258461
40
0.923099741258461
40
0.939364669577363
40
0.939364669577363
40
0.955629597896266
40
0.955629597896266
40
0.988159454534069
40
0.988159454534069
40
1
40
1
40
1
40
1
41
1
10
70.620123159307
20
-3.04168535971388
30
0
41
1
10
70.4954198625597
20
-3.08360931601851
30
0
41
1
10
70.370638178383
20
-3.12441133866483
30
0
41
1
10
69.9145734814512
20
-3.26925454508822
30
0
41
1
10
69.5831541791387
20
-3.36649690404866
30
0
41
1
10
68.922734108531
20
-3.54312822429034
30
0
41
1
10
68.5924893124796
20
-3.62193630936247
30
0
41
1
10
67.931674696221
20
-3.75876519036669
30
0
41
1
10
67.601101445493
20
-3.8160089261809
30
0
41
1
10
66.939465992983
20
-3.91410394532701
30
0
41
1
10
66.6081072044263
20
-3.95374322880397
30
0
41
1
10
65.9465589119355
20
-4.01324259010894
30
0
41
1
10
65.6160489649152
20
-4.03325636230676
30
0
41
1
10
64.9557766375763
20
-4.05208278848355
30
0
41
1
10
64.6252586367535
20
-4.05069949126724
30
0
41
1
10
64.1279931298452
20
-4.03191688033729
30
0
41
1
10
63.9622234805015
20
-4.0228886297426
30
0
41
1
10
63.6312371861496
20
-3.99927024320974
30
0
41
1
10
63.4659703239088
20
-3.98401583409489
30
0
41
1
10
62.9706900604606
20
-3.93078224087935
30
0
41
1
10
62.6405262959662
20
-3.88764153794065
30
0
41
1
10
61.9791472150556
20
-3.78206972406372
30
0
41
1
10
61.6480682809129
20
-3.72039987017271
30
0
41
1
10
61.1510964837407
20
-3.60947553804616
30
0
41
1
10
60.9857959301123
20
-3.56978283411166
30
0
41
1
10
60.6549996700721
20
-3.48739553207525
30
0
41
1
10
60.4896062486224
20
-3.44431054353828
30
0
41
1
10
59.9934989663701
20
-3.30865681030261
30
0
41
1
10
59.6628636318304
20
-3.20979478094031
30
0
41
1
10
59.1670377227347
20
-3.0472417463296
30
0
41
1
10
59.0018640293578
20
-2.99007932401867
30
0
41
1
10
58.6709601541126
20
-2.8729207618843
30
0
41
1
10
58.5051592540495
20
-2.81299525819699
30
0
41
1
10
58.0078602781094
20
-2.62844689851272
30
0
41
1
10
57.6768106306748
20
-2.49920783036799
30
0
41
1
10
57.0158302993962
20
-2.22630813506893
30
0
41
1
10
56.6860268431947
20
-2.08192544469208
30
0
41
1
10
56.0244353861931
20
-1.78708807250726
30
0
41
1
10
55.6926144924283
20
-1.63526436671015
30
0
41
1
10
55.0300960511393
20
-1.32235345076097
30
0
41
1
10
54.7001754818765
20
-1.16067836095908
30
0
41
1
10
54.0392404898084
20
-0.835251676038439
30
0
41
1
10
53.7085739586911
20
-0.670912152385824
30
0
41
1
10
53.0469643025816
20
-0.338045380155108
30
0
41
1
10
52.7158369663171
20
-0.16849018230775
30
0
41
1
10
52.0536339865578
20
0.167922639823473
30
0
41
1
10
51.7226809256551
20
0.335123261348343
30
0
41
1
10
51.0613664224944
20
0.667755806650717
30
0
41
1
10
50.7313830570383
20
0.833886477083553
30
0
41
1
10
50.0696419053446
20
1.15944294957143
30
0
41
1
10
49.7374813959256
20
1.31939545760451
30
0
41
1
10
49.0750115844267
20
1.63192544345742
30
0
41
1
10
48.7448419281375
20
1.78512194370856
30
0
41
1
10
48.0840337482401
20
2.07973240420679
30
0
41
1
10
47.753205812078
20
2.22104015696942
30
0
41
1
10
47.0907642751407
20
2.49372936265274
30
0
41
1
10
46.7591632809846
20
2.62518981511374
30
0
41
1
10
46.0977636508218
20
2.87133975974703
30
0
41
1
10
45.767150230996
20
2.98567060468909
30
0
41
1
10
45.1057976480814
20
3.20075056534387
30
0
41
1
10
44.7753854216166
20
3.30126577849555
30
0
41
1
10
44.1136191407185
20
3.4840955235922
30
0
41
1
10
43.7816964719519
20
3.56452734529148
30
0
41
1
10
43.1194643714096
20
3.70918833407194
30
0
41
1
10
42.7888535911539
20
3.77337441865069
30
0
41
1
10
42.2933384030391
20
3.85420133002162
30
0
41
1
10
42.128049420618
20
3.87854195332272
30
0
41
1
10
41.7971327291369
20
3.92104748126153
30
0
41
1
10
41.6314962095594
20
3.93927046169074
30
0
41
1
10
41.1341076459513
20
3.987599611826
30
0
41
1
10
40.8022457067938
20
4.01123970297968
30
0
41
1
10
40.3513367803692
20
4.02892513134458
30
0
41
1
10
40.2310131790385
20
4.03215293814583
30
0
41
1
10
40.110677466579
20
4.03387712791201
30
0
0
SPLINE
5
D2
100
AcDbEntity
8
1
62
256
6
ByLayer
370
18
48
1
60
0
100
AcDbSpline
70
4
71
3
72
28
73
24
40
0
40
0
40
0
40
0
40
0.0551356632388693
40
0.0551356632388693
40
0.110715918342466
40
0.110715918342466
40
0.221876428549659
40
0.221876428549659
40
0.277456683653254
40
0.277456683653254
40
0.33303693875685
40
0.33303693875685
40
0.444197448964042
40
0.444197448964042
40
0.555357959171233
40
0.555357959171233
40
0.666518469378425
40
0.666518469378425
40
0.777678979585617
40
0.777678979585617
40
0.888839489792808
40
0.888839489792808
40
1
40
1
40
1
40
1
41
1
10
20.6064305604068
20
-3.02883552446266
30
0
41
1
10
20.4421014282842
20
-3.08349361701221
30
0
41
1
10
20.2779173615455
20
-3.13613834149135
30
0
41
1
10
19.9485768219243
20
-3.23755418361429
30
0
41
1
10
19.7834625319369
20
-3.28641303975309
30
0
41
1
10
19.2875729690974
20
-3.4266175757009
30
0
41
1
10
18.9564928526611
20
-3.51177488766913
30
0
41
1
10
18.4591611098561
20
-3.62563313726497
30
0
41
1
10
18.2931191252101
20
-3.66130646018769
30
0
41
1
10
17.9615905644728
20
-3.72757143136536
30
0
41
1
10
17.7962048388699
20
-3.75810434702447
30
0
41
1
10
17.299999441468
20
-3.84210094640662
30
0
41
1
10
16.9690898179757
20
-3.88879664690603
30
0
41
1
10
16.3071850881588
20
-3.96221563589643
30
0
41
1
10
15.9763515027634
20
-3.98842291260263
30
0
41
1
10
15.3138103497048
20
-4.01896823913199
30
0
41
1
10
14.9818271700049
20
-4.02395838233815
30
0
41
1
10
14.3199164604184
20
-4.01464458570959
30
0
41
1
10
13.9896439288701
20
-3.99951161782005
30
0
41
1
10
13.3300411921239
20
-3.94736001365112
30
0
41
1
10
12.9999464496049
20
-3.91133048339637
30
0
41
1
10
12.3386332717762
20
-3.81964177956917
30
0
41
1
10
12.007425439955
20
-3.76408683347168
30
0
41
1
10
11.6756304392676
20
-3.69741947419263
30
0
0
SPLINE
5
D3
100
AcDbEntity
8
1
62
256
6
ByLayer
370
18
48
1
60
0
100
AcDbSpline
70
4
71
3
72
18
73
14
40
0
40
0
40
0
40
0
40
0.25
40
0.25
40
0.375
40
0.375
40
0.5
40
0.5
40
0.75
40
0.75
40
0.875
40
0.875
40
1
40
1
40
1
40
1
41
1
10
79.3864738957171
20
2.07697179253967
30
0
41
1
10
79.3219301794199
20
2.25091836120828
30
0
41
1
10
79.257235673066
20
2.42481647369323
30
0
41
1
10
79.1598656984804
20
2.68493837009768
30
0
41
1
10
79.1273554798708
20
2.77151902073783
30
0
41
1
10
79.0621713436493
20
2.94429324178466
30
0
41
1
10
79.0294745688738
20
3.03043276448167
30
0
41
1
10
78.9313651194258
20
3.28880610959357
30
0
41
1
10
78.8658378308913
20
3.46104041458253
30
0
41
1
10
78.7672948395799
20
3.71690341083487
30
0
41
1
10
78.7343778109069
20
3.80159167250963
30
0
41
1
10
78.6684402275069
20
3.97007359495774
30
0
41
1
10
78.6354573753978
20
4.05419305580313
30
0
41
1
10
78.6024218644841
20
4.13785747550568
30
0
0
SPLINE
5
D4
100
AcDbEntity
8
1
62
256
6
ByLayer
370
18
48
1
60
0
100
AcDbSpline
70
4
71
3
72
8
73
4
40
0
40
0
40
0
40
0
40
1
40
1
40
1
40
1
41
1
10
7.01687565731569
20
3.5826591838696
30
0
41
1
10
7.00991683407966
20
3.59207859476746
30
0
41
1
10
7.00623174624837
20
3.60183304150615
30
0
41
1
10
7.00623344554481
20
3.61172508052709
30
0
0
SPLINE
5
D5
100
AcDbEntity
8
1
62
256
6
ByLayer
370
13
48
1
60
0
100
AcDbSpline
70
4
71
3
72
23
73
19
40
0
40
0
40
0
40
0
40
0.0336812383600389
40
0.0336812383600389
40
0.130313114524035
40
0.130313114524035
40
0.226944990688031
40
0.323576866852027
40
0.323576866852027
40
0.420208743016024
40
0.420208743016024
40
0.51684061918002
40
0.51684061918002
40
0.613472495344016
40
0.613472495344016
40
0.806736247672008
40
0.806736247672008
40
1
40
1
40
1
40
1
41
1
10
7.25112705488397
20
-4.01321817252878
30
0
41
1
10
7.25113821687594
20
-4.01327260343487
30
0
41
1
10
7.25114926326148
20
-4.01249609165214
30
0
41
1
10
7.25119161995286
20
-4.0062720123249
30
0
41
1
10
7.25122205918473
20
-3.99477869695787
30
0
41
1
10
7.25128103205714
20
-3.95866651119965
30
0
41
1
10
7.25133831090832
20
-3.90940508367041
30
0
41
1
10
7.25139322261586
20
-3.83413026732058
30
0
41
1
10
7.25144725238391
20
-3.74559542661316
30
0
41
1
10
7.25147390937849
20
-3.6944799802709
30
0
41
1
10
7.25152572494778
20
-3.58002758824694
30
0
41
1
10
7.25155103881067
20
-3.51635233502645
30
0
41
1
10
7.25159962401182
20
-3.3782886099589
30
0
41
1
10
7.25162292921652
20
-3.30388974217206
30
0
41
1
10
7.25168956687483
20
-3.06497624516575
30
0
41
1
10
7.25172978070995
20
-2.8847627796388
30
0
41
1
10
7.2517969414661
20
-2.48151224060768
30
0
41
1
10
7.25182274298902
20
-2.26510501933402
30
0
41
1
10
7.25183790048254
20
-2.03449481057569
30
0
0
SPLINE
5
D6
100
AcDbEntity
8
1
62
256
6
ByLayer
370
18
48
1
60
0
100
AcDbSpline
70
4
71
3
72
16
73
12
40
0
40
0
40
0
40
0
40
0.183515845297724
40
0.183515845297724
40
0.367031690595448
40
0.367031690595448
40
0.734063381190895
40
0.734063381190895
40
0.917579226488619
40
0.917579226488619
40
1
40
1
40
1
40
1
41
1
10
7.00623344554484
20
3.61172508052749
30
0
41
1
10
7.00624576224089
20
3.68342378139746
30
0
41
1
10
7.00625755558838
20
3.7493035546872
30
0
41
1
10
7.00627999828225
20
3.86782143403261
30
0
41
1
10
7.00629062939072
20
3.92039005802207
30
0
41
1
10
7.00632111043743
20
4.05858090589754
30
0
41
1
10
7.00633955576654
20
4.12487875075541
30
0
41
1
10
7.00636562573641
20
4.18431785043555
30
0
41
1
10
7.00637398135552
20
4.19720489669339
30
0
41
1
10
7.00638559940742
20
4.20583144142304
30
0
41
1
10
7.00638913918681
20
4.20712381967962
30
0
41
1
10
7.00639262634377
20
4.20704159891821
30
0
0
SPLINE
5
D7
100
AcDbEntity
8
1
62
256
6
ByLayer
370
18
48
1
60
0
100
AcDbSpline
70
4
71
3
72
8
73
4
40
0
40
0
40
0
40
0
40
1
40
1
40
1
40
1
41
1
10
78.527626358716
20
4.21425029432584
30
0
41
1
10
78.1814065850852
20
4.23805024519436
30
0
41
1
10
77.8351004923534
20
4.24973826455567
30
0
41
1
10
77.4882245458178
20
4.24932918580222
30
0
0
SPLINE
5
D8
100
AcDbEntity
8
1
62
256
6
ByLayer
370
18
48
1
60
0
100
AcDbSpline
70
4
71
3
72
46
73
42
40
0
40
0
40
0
40
0
40
0.0089865761578882
40
0.0089865761578882
40
0.0294105783402522
40
0.0294105783402522
40
0.111106587069705
40
0.111106587069705
40
0.192802595799159
40
0.192802595799159
40
0.233650600163886
40
0.233650600163886
40
0.274498604528613
40
0.274498604528613
40
0.437890621987524
40
0.437890621987524
40
0.458314624169889
40
0.458314624169889
40
0.478738626352254
40
0.478738626352254
40
0.519586630716982
40
0.519586630716982
40
0.60128263944644
40
0.60128263944644
40
0.642130643811168
40
0.642130643811168
40
0.662554645993533
40
0.662554645993533
40
0.682978648175898
40
0.682978648175898
40
0.764674656905357
40
0.764674656905357
40
0.846370665634815
40
0.846370665634815
40
0.866794667817179
40
0.866794667817179
40
0.887218669999544
40
0.887218669999544
40
0.928066674364273
40
0.928066674364273
40
1
40
1
40
1
40
1
41
1
10
54.8051247557924
20
-4.05851215420748
30
0
41
1
10
54.7230359721979
20
-4.07096036808557
30
0
41
1
10
54.6408712031007
20
-4.08277397207721
30
0
41
1
10
54.3717057190959
20
-4.11934030731248
30
0
41
1
10
54.1840486223472
20
-4.14146151533294
30
0
41
1
10
53.2477714706259
20
-4.23446645358678
30
0
41
1
10
52.5060623736788
20
-4.25263307191258
30
0
41
1
10
51.0261375554892
20
-4.17964224600095
30
0
41
1
10
50.2871410792657
20
-4.08861452844263
30
0
41
1
10
49.1718896235022
20
-3.87280869600247
30
0
41
1
10
48.7988502780594
20
-3.78774989359766
30
0
41
1
10
48.0485739900267
20
-3.5921271682335
30
0
41
1
10
47.6749495011852
20
-3.48241503704159
30
0
41
1
10
45.8150047821061
20
-2.88080888572176
30
0
41
1
10
44.3470068070637
20
-2.23021205401886
30
0
41
1
10
42.6622501134664
20
-1.39122157415525
30
0
41
1
10
42.4743841816173
20
-1.29645059344818
30
0
41
1
10
42.1001417972216
20
-1.10578478548212
30
0
41
1
10
41.9134649934555
20
-1.0097243684576
30
0
41
1
10
41.3545219977533
20
-0.719832999987602
30
0
41
1
10
40.9833828938695
20
-0.52421529918135
30
0
41
1
10
39.8718804374213
20
0.0647842614638137
30
0
41
1
10
39.133169127746
20
0.459807337659896
30
0
41
1
10
38.019849969811
20
1.0391681761474
30
0
41
1
10
37.6477451729894
20
1.22985736166717
30
0
41
1
10
37.0869848911797
20
1.51012176231111
30
0
41
1
10
36.8993627306161
20
1.602717306041
30
0
41
1
10
36.5243660331894
20
1.78504750463603
30
0
41
1
10
36.3373831442792
20
1.87458485926814
30
0
41
1
10
35.4044486431133
20
2.31321178150319
30
0
41
1
10
34.6641390413632
20
2.63463643577202
30
0
41
1
10
33.1838776576605
20
3.20207805663654
30
0
41
1
10
32.4435650422188
20
3.44757925524064
30
0
41
1
10
31.51050582824
20
3.69656384943858
30
0
41
1
10
31.3235182968364
20
3.74347106737636
30
0
41
1
10
30.9484885814482
20
3.83114680644357
30
0
41
1
10
30.7607876477278
20
3.87184958600398
30
0
41
1
10
30.199890722857
20
3.98379364463031
30
0
41
1
10
29.8276992762437
20
4.04512279233887
30
0
41
1
10
28.8027016438852
20
4.17720572222771
30
0
41
1
10
28.1517165461118
20
4.21953713568937
30
0
41
1
10
27.4994220055997
20
4.21933738986692
30
0
0
SPLINE
5
D9
100
AcDbEntity
8
1
62
256
6
ByLayer
370
18
48
1
60
0
100
AcDbSpline
70
4
71
3
72
8
73
4
40
0
40
0
40
0
40
0
40
1
40
1
40
1
40
1
41
1
10
78.5824787602187
20
-4.03072739564647
30
0
41
1
10
78.5601929821941
20
-4.0468502265343
30
0
41
1
10
78.5407199578539
20
-4.05498023340729
30
0
41
1
10
78.5241099676867
20
-4.05497453737908
30
0
0
SPLINE
5
DA
100
AcDbEntity
8
1
62
256
6
ByLayer
370
18
48
1
60
0
100
AcDbSpline
70
2053
71
3
72
62
73
58
40
0
40
0
40
0
40
0
40
0.0312500000000006
40
0.0312500000000006
40
0.0625000000000012
40
0.0625000000000012
40
0.0937500000000018
40
0.0937500000000018
40
0.125000000000002
40
0.125000000000002
40
0.156250000000003
40
0.156250000000003
40
0.187500000000003
40
0.187500000000003
40
0.218750000000004
40
0.218750000000004
40
0.250000000000004
40
0.250000000000004
40
0.281250000000005
40
0.281250000000005
40
0.312500000000005
40
0.312500000000005
40
0.375000000000009
40
0.375000000000009
40
0.437500000000013
40
0.437500000000013
40
0.468750000000013
40
0.468750000000013
40
0.500000000000013
40
0.500000000000013
40
0.531250000000012
40
0.531250000000012
40
0.562500000000012
40
0.562500000000012
40
0.593750000000012
40
0.593750000000012
40
0.625000000000012
40
0.625000000000012
40
0.656250000000012
40
0.656250000000012
40
0.687500000000011
40
0.687500000000011
40
0.718750000000011
40
0.718750000000011
40
0.750000000000011
40
0.750000000000011
40
0.81250000000001
40
0.81250000000001
40
0.843750000000009
40
0.843750000000009
40
0.875000000000007
40
0.875000000000007
40
0.906250000000005
40
0.906250000000005
40
0.937500000000003
40
0.937500000000003
40
1
40
1
40
1
40
1
41
1
10
78.9306698194851
20
-2.29476896471612
30
0
41
1
10
78.9533738303807
20
-2.26179626318083
30
0
41
1
10
78.9755747061632
20
-2.22654458423565
30
0
41
1
10
79.0188917923382
20
-2.15112810193628
30
0
41
1
10
79.040237816307
20
-2.11047823842694
30
0
41
1
10
79.0803811690075
20
-2.02586268417119
30
0
41
1
10
79.099108746903
20
-1.9821572309441
30
0
41
1
10
79.1334934719937
20
-1.89155350212749
30
0
41
1
10
79.148813636142
20
-1.84538172271004
30
0
41
1
10
79.1742405014985
20
-1.75496567838618
30
0
41
1
10
79.1846610439025
20
-1.7094387243832
30
0
41
1
10
79.1992600749282
20
-1.62402139503064
30
0
41
1
10
79.2035898247767
20
-1.5837495752001
30
0
41
1
10
79.2062973395321
20
-1.50939199031697
30
0
41
1
10
79.2046726214364
20
-1.47641010888549
30
0
41
1
10
79.1961333190615
20
-1.41790019206744
30
0
41
1
10
79.1892351256777
20
-1.39287635208427
30
0
41
1
10
79.1712565643951
20
-1.35141281645051
30
0
41
1
10
79.1600182625514
20
-1.33468785870039
30
0
41
1
10
79.134418236075
20
-1.30955178745032
30
0
41
1
10
79.1200173168561
20
-1.30095746594378
30
0
41
1
10
79.0724304672693
20
-1.28605654459619
30
0
41
1
10
79.036016031668
20
-1.2907602513796
30
0
41
1
10
78.9559495865349
20
-1.32608255255752
30
0
41
1
10
78.9136011428008
20
-1.3560946458951
30
0
41
1
10
78.8470842348632
20
-1.4193555103335
30
0
41
1
10
78.824386942267
20
-1.44361471947519
30
0
41
1
10
78.7794379831996
20
-1.49707715666611
30
0
41
1
10
78.7569941023385
20
-1.52644594892922
30
0
41
1
10
78.7121732951928
20
-1.59095494812882
30
0
41
1
10
78.6895455600438
20
-1.62653556268612
30
0
41
1
10
78.6458323685727
20
-1.70215593779665
30
0
41
1
10
78.6247649829429
20
-1.74206657861544
30
0
41
1
10
78.584433814467
20
-1.82668808179906
30
0
41
1
10
78.5652773361094
20
-1.87130933225782
30
0
41
1
10
78.5310443709902
20
-1.96143348258786
30
0
41
1
10
78.515522821946
20
-2.00818528225079
30
0
41
1
10
78.4899825632324
20
-2.09927746619721
30
0
41
1
10
78.4798360435179
20
-2.14372589516378
30
0
41
1
10
78.4650900149007
20
-2.23030200062416
30
0
41
1
10
78.4608409679824
20
-2.27038320354163
30
0
41
1
10
78.4581044447141
20
-2.34450278248107
30
0
41
1
10
78.4597068984201
20
-2.37818012335046
30
0
41
1
10
78.468072913856
20
-2.43671356353877
30
0
41
1
10
78.4749244709602
20
-2.46216921716538
30
0
41
1
10
78.501652442218
20
-2.52509048099822
30
0
41
1
10
78.528020900009
20
-2.55041307182435
30
0
41
1
10
78.5751971835298
20
-2.56579858601381
30
0
41
1
10
78.592430527681
20
-2.56723083211847
30
0
41
1
10
78.6287005289159
20
-2.56307973661754
30
0
41
1
10
78.6477366998664
20
-2.55756489257465
30
0
41
1
10
78.6875219683077
20
-2.5399978589021
30
0
41
1
10
78.7084391073238
20
-2.52781075422678
30
0
41
1
10
78.7510527715686
20
-2.49737882376098
30
0
41
1
10
78.7727451694077
20
-2.47919228408225
30
0
41
1
10
78.8389824297612
20
-2.41569498011404
30
0
41
1
10
78.8852617976941
20
-2.3607143677867
30
0
41
1
10
78.9306698194851
20
-2.29476896471612
30
0
0
SPLINE
5
DB
100
AcDbEntity
8
1
62
256
6
ByLayer
370
18
48
1
60
0
100
AcDbSpline
70
4
71
3
72
22
73
18
40
0
40
0
40
0
40
0
40
0.124999999999999
40
0.124999999999999
40
0.187499999999999
40
0.187499999999999
40
0.249999999999999
40
0.249999999999999
40
0.5
40
0.5
40
0.625
40
0.625
40
0.75
40
0.75
40
0.875
40
0.875
40
1
40
1
40
1
40
1
41
1
10
78.5241099676831
20
-4.05497453737908
30
0
41
1
10
78.4624531216208
20
-4.05495313596586
30
0
41
1
10
78.4038910471676
20
-4.04558741161222
30
0
41
1
10
78.3209413107805
20
-4.01676381587751
30
0
41
1
10
78.2941091457928
20
-4.00468685296204
30
0
41
1
10
78.2421526977851
20
-3.97537616512452
30
0
41
1
10
78.2169967057911
20
-3.9580903353141
30
0
41
1
10
78.0974520091506
20
-3.85971514928824
30
0
41
1
10
78.0199669283626
20
-3.74268116101379
30
0
41
1
10
77.932770566809
20
-3.50581678104146
30
0
41
1
10
77.9085261683773
20
-3.41569979459615
30
0
41
1
10
77.8718540771117
20
-3.21950597178724
30
0
41
1
10
77.8591751662267
20
-3.11308494028853
30
0
41
1
10
77.8450872721911
20
-2.8836598832317
30
0
41
1
10
77.8436763974008
20
-2.76065864110316
30
0
41
1
10
77.852633107791
20
-2.49732488939449
30
0
41
1
10
77.8629532617688
20
-2.35929030231188
30
0
41
1
10
77.8788231957889
20
-2.21622561297028
30
0
0
SPLINE
5
DC
100
AcDbEntity
8
1
62
256
6
ByLayer
370
18
48
1
60
0
100
AcDbSpline
70
4
71
3
72
23
73
19
40
0
40
0
40
0
40
0
40
0.0521761089389347
40
0.146958498045041
40
0.146958498045041
40
0.241740887151147
40
0.241740887151147
40
0.431305665363361
40
0.431305665363361
40
0.526088054469467
40
0.526088054469467
40
0.620870443575573
40
0.620870443575573
40
0.810435221787786
40
0.810435221787786
40
0.905217610893893
40
0.905217610893893
40
1
40
1
40
1
40
1
41
1
10
7.00639263556999
20
-4.20704137817108
30
0
41
1
10
7.00639690963234
20
-4.20693762912771
30
0
41
1
10
7.00640872526071
20
-4.20082894707483
30
0
41
1
10
7.00642003563024
20
-4.17843434752464
30
0
41
1
10
7.00643435042144
20
-4.13574441255301
30
0
41
1
10
7.00644140545097
20
-4.10727399374332
30
0
41
1
10
7.00646192075953
20
-4.00247893330146
30
0
41
1
10
7.0064748464618
20
-3.90701113703634
30
0
41
1
10
7.00649346442464
20
-3.72602177937125
30
0
41
1
10
7.00649953905102
20
-3.6593048349302
30
0
41
1
10
7.00651138351316
20
-3.51289615239188
30
0
41
1
10
7.00651706011277
20
-3.43436437323138
30
0
41
1
10
7.00653329537425
20
-3.18333775933993
30
0
41
1
10
7.00654308938971
20
-2.99555850955039
30
0
41
1
10
7.00655548657372
20
-2.68267872593515
30
0
41
1
10
7.00655922902644
20
-2.57288035453394
30
0
41
1
10
7.00656558805306
20
-2.34758156158134
30
0
41
1
10
7.00656822982378
20
-2.23152603315597
30
0
41
1
10
7.00657024445675
20
-2.1121234163588
30
0
0
SPLINE
5
DD
100
AcDbEntity
8
1
62
256
6
ByLayer
370
18
48
1
60
0
100
AcDbSpline
70
4
71
3
72
67
73
63
40
0
40
0
40
0
40
0
40
0.0625000000000007
40
0.0625000000000007
40
0.125000000000001
40
0.125000000000001
40
0.250000000000004
40
0.250000000000004
40
0.375000000000007
40
0.375000000000007
40
0.500000000000009
40
0.500000000000009
40
0.562500000000011
40
0.562500000000011
40
0.625000000000012
40
0.625000000000012
40
0.656250000000012
40
0.656250000000012
40
0.671875000000013
40
0.679687500000013
40
0.679687500000013
40
0.683593750000013
40
0.683593750000013
40
0.687500000000012
40
0.687500000000012
40
0.689453125000012
40
0.689453125000012
40
0.691406250000012
40
0.695312500000011
40
0.703125000000011
40
0.703125000000011
40
0.71875000000001
40
0.71875000000001
40
0.750000000000008
40
0.750000000000008
40
0.765625000000007
40
0.765625000000007
40
0.773437500000007
40
0.773437500000007
40
0.781250000000007
40
0.781250000000007
40
0.796875000000006
40
0.796875000000006
40
0.804687500000006
40
0.804687500000006
40
0.812500000000006
40
0.812500000000006
40
0.828125000000005
40
0.828125000000005
40
0.843750000000005
40
0.843750000000005
40
0.859375000000004
40
0.859375000000004
40
0.875000000000004
40
0.875000000000004
40
0.890625000000003
40
0.890625000000003
40
0.906250000000003
40
0.906250000000003
40
0.937500000000002
40
0.937500000000002
40
1
40
1
40
1
40
1
41
1
10
17.4935209889208
20
-1.67146938798035
30
0
41
1
10
17.175197214062
20
-1.51602580950217
30
0
41
1
10
16.8550323059932
20
-1.36055926614824
30
0
41
1
10
16.2103836249638
20
-1.05169338908368
30
0
41
1
10
15.8853163578075
20
-0.898034689572881
30
0
41
1
10
14.9068001161459
20
-0.446240007680302
30
0
41
1
10
14.2511713256366
20
-0.157849384034108
30
0
41
1
10
12.9256732358985
20
0.372069121120319
30
0
41
1
10
12.255734617579
20
0.613392736694436
30
0
41
1
10
10.89519514789
20
1.03210293627879
30
0
41
1
10
10.204594219347
20
1.20950826785685
30
0
41
1
10
9.15036552386167
20
1.4208675202795
30
0
41
1
10
8.79530806143043
20
1.4823383028797
30
0
41
1
10
8.08196675556616
20
1.58599840939829
30
0
41
1
10
7.72409781327775
20
1.62817899804259
30
0
41
1
10
7.18540558952338
20
1.6768486378555
30
0
41
1
10
7.00550639164345
20
1.69063790386528
30
0
41
1
10
6.73523759629549
20
1.70762029438791
30
0
41
1
10
6.60004805930333
20
1.71518277674414
30
0
41
1
10
6.46477483517828
20
1.721343374106
30
0
41
1
10
6.39712418559716
20
1.72418901987265
30
0
41
1
10
6.37461607166719
20
1.72583803262466
30
0
41
1
10
6.32932807750413
20
1.72461324211696
30
0
41
1
10
6.30701944437723
20
1.72190823306841
30
0
41
1
10
6.27472773244756
20
1.71211241941467
30
0
41
1
10
6.26461390782242
20
1.70739938898382
30
0
41
1
10
6.24465559159671
20
1.6978370827116
30
0
41
1
10
6.21477338059833
20
1.68339006597682
30
0
41
1
10
6.14544348308647
20
1.64893827325537
30
0
41
1
10
6.08672511206083
20
1.6180754688441
30
0
41
1
10
5.97032548349165
20
1.55438100361201
30
0
41
1
10
5.89443932074295
20
1.50948629256257
30
0
41
1
10
5.67341460129183
20
1.366141219084
30
0
41
1
10
5.53439074223445
20
1.2594393672212
30
0
41
1
10
5.34687099291574
20
1.0705446565081
30
0
41
1
10
5.28881292124186
20
1.00342605564359
30
0
41
1
10
5.21123915284267
20
0.896002947378122
30
0
41
1
10
5.18692296878871
20
0.859013757182879
30
0
41
1
10
5.14181539116149
20
0.782320845909425
30
0
41
1
10
5.12094835696678
20
0.742409648350218
30
0
41
1
10
5.06557959540214
20
0.620581329601634
30
0
41
1
10
5.03789306495611
20
0.536079637600864
30
0
41
1
10
5.01198576101251
20
0.403709509101645
30
0
41
1
10
5.00600302990546
20
0.358566084866482
30
0
41
1
10
4.99963919127501
20
0.268965738797448
30
0
41
1
10
4.99917840230199
20
0.224188631835091
30
0
41
1
10
5.00552187388217
20
0.0899179956795422
30
0
41
1
10
5.02040259126446
20
-0.0005138104962441
30
0
41
1
10
5.06663446088851
20
-0.174323311813765
30
0
41
1
10
5.09775480477327
20
-0.25820427980949
30
0
41
1
10
5.17233041376684
20
-0.42128897191057
30
0
41
1
10
5.21600415553212
20
-0.500653063992644
30
0
41
1
10
5.31057371930578
20
-0.651669898066245
30
0
41
1
10
5.36173797908816
20
-0.72394648424202
30
0
41
1
10
5.46995344167092
20
-0.863555406023011
30
0
41
1
10
5.52701829713419
20
-0.930876696606106
30
0
41
1
10
5.64585923185896
20
-1.06152982286235
30
0
41
1
10
5.70779764501657
20
-1.12498872504258
30
0
41
1
10
5.89704354980179
20
-1.30813952214578
30
0
41
1
10
6.02839101026572
20
-1.42153641228521
30
0
41
1
10
6.4327205058876
20
-1.74384846088265
30
0
41
1
10
6.71577936906704
20
-1.93521450932653
30
0
41
1
10
7.00657024427076
20
-2.11212341624321
30
0
0
SPLINE
5
DE
100
AcDbEntity
8
1
62
256
6
ByLayer
370
18
48
1
60
0
100
AcDbSpline
70
4
71
3
72
32
73
28
40
0
40
0
40
0
40
0
40
0.249999999999989
40
0.249999999999989
40
0.499999999999979
40
0.499999999999979
40
0.624999999999973
40
0.624999999999973
40
0.687499999999974
40
0.687499999999974
40
0.749999999999974
40
0.749999999999974
40
0.781249999999977
40
0.781249999999977
40
0.812499999999981
40
0.812499999999981
40
0.843749999999984
40
0.843749999999984
40
0.874999999999987
40
0.874999999999987
40
0.90624999999999
40
0.90624999999999
40
0.937499999999994
40
0.937499999999994
40
0.968749999999997
40
0.968749999999997
40
1
40
1
40
1
40
1
41
1
10
75.2043291770268
20
1.09522900620499
30
0
41
1
10
75.505039383071
20
0.906078393481323
30
0
41
1
10
75.8065188207056
20
0.736928406070575
30
0
41
1
10
76.4117795890631
20
0.458479458874962
30
0
41
1
10
76.7158233495005
20
0.348119325482145
30
0
41
1
10
77.173318676149
20
0.243669048406957
30
0
41
1
10
77.3236621866246
20
0.219689795054393
30
0
41
1
10
77.5451343139522
20
0.202099973020296
30
0
41
1
10
77.6181037123816
20
0.199334585830258
30
0
41
1
10
77.7620927820709
20
0.200300064998316
30
0
41
1
10
77.8339744702514
20
0.20256594296518
30
0
41
1
10
77.9340088181538
20
0.223333030871345
30
0
41
1
10
77.9660452772974
20
0.232846396508961
30
0
41
1
10
78.0268820394927
20
0.258282009236666
30
0
41
1
10
78.0559774130579
20
0.2743280884375
30
0
41
1
10
78.1080594526545
20
0.31406556047898
30
0
41
1
10
78.130667850362
20
0.338240587552775
30
0
41
1
10
78.1692399087473
20
0.394926593304348
30
0
41
1
10
78.1850421489502
20
0.427224441752742
30
0
41
1
10
78.2084137183846
20
0.497192302735414
30
0
41
1
10
78.2161693065441
20
0.535581813491206
30
0
41
1
10
78.2234325916087
20
0.617016230352107
30
0
41
1
10
78.2229691633347
20
0.659378976755505
30
0
41
1
10
78.2150953005304
20
0.746896011670771
30
0
41
1
10
78.2076152834339
20
0.792192102408109
30
0
41
1
10
78.1873041469238
20
0.882215107725983
30
0
41
1
10
78.1744425541563
20
0.927337006472499
30
0
41
1
10
78.159395791059
20
0.972548052325379
30
0
0
SPLINE
5
DF
100
AcDbEntity
8
1
62
256
6
ByLayer
370
18
48
1
60
0
100
AcDbSpline
70
4
71
3
72
10
73
6
40
0
40
0
40
0
40
0
40
0.5
40
0.5
40
1
40
1
40
1
40
1
41
1
10
7.13299078271768
20
3.51250970555014
30
0
41
1
10
7.10644755630415
20
3.52023402011432
30
0
41
1
10
7.08302337389705
20
3.53030285454182
30
0
41
1
10
7.04324627668797
20
3.55442984068867
30
0
41
1
10
7.02765486334624
20
3.56806853148993
30
0
41
1
10
7.01687565731626
20
3.58265918386218
30
0
0
SPLINE
5
E0
100
AcDbEntity
8
1
62
256
6
ByLayer
370
18
48
1
60
0
100
AcDbSpline
70
4
71
3
72
79
73
75
40
0
40
0
40
0
40
0
40
0.0095330439140904
40
0.0095330439140904
40
0.0950640693196958
40
0.0950640693196958
40
0.137829582022499
40
0.137829582022499
40
0.180595094725301
40
0.180595094725301
40
0.266126120130907
40
0.266126120130907
40
0.30889163283371
40
0.30889163283371
40
0.330274389185111
40
0.330274389185111
40
0.340965767360812
40
0.340965767360812
40
0.346311456448662
40
0.348984300992587
40
0.349318406560578
40
0.349318406560578
40
0.349485459344573
40
0.349485459344573
40
0.349652512128568
40
0.349652512128568
40
0.35032072326455
40
0.35032072326455
40
0.351657145536512
40
0.351657145536512
40
0.357002834624363
40
0.357002834624363
40
0.362348523712213
40
0.362348523712213
40
0.373039901887915
40
0.373039901887915
40
0.394422658239317
40
0.394422658239317
40
0.437188170942121
40
0.437188170942121
40
0.52271919634773
40
0.52271919634773
40
0.608250221753339
40
0.608250221753339
40
0.651015734456143
40
0.651015734456143
40
0.661707112631844
40
0.661707112631844
40
0.663043534903807
40
0.663043534903807
40
0.663711746039788
40
0.663711746039788
40
0.664045851607779
40
0.664045851607779
40
0.664212904391774
40
0.664212904391774
40
0.664379957175769
40
0.664379957175769
40
0.667052801719695
40
0.672398490807546
40
0.672398490807546
40
0.69378124715895
40
0.69378124715895
40
0.779312272564564
40
0.779312272564564
40
0.822077785267372
40
0.822077785267372
40
0.864843297970179
40
0.864843297970179
40
0.907608810672987
40
0.907608810672987
40
0.950374323375794
40
0.950374323375794
40
1
40
1
40
1
40
1
41
1
10
15.4627478907735
20
-0.745717922577455
30
0
41
1
10
15.4305667610072
20
-0.734007382523743
30
0
41
1
10
15.3984083053948
20
-0.722497755625113
30
0
41
1
10
15.0779193447755
20
-0.609782985111423
30
0
41
1
10
14.791132697813
20
-0.5250258445204
30
0
41
1
10
14.3589314463386
20
-0.428557433966546
30
0
41
1
10
14.2139778293218
20
-0.40143344943823
30
0
41
1
10
13.9253656045581
20
-0.358633082769018
30
0
41
1
10
13.7820255952338
20
-0.342955119490625
30
0
41
1
10
13.353609583886
20
-0.313037134132543
30
0
41
1
10
13.0701129839296
20
-0.315920112049383
30
0
41
1
10
12.6433538782083
20
-0.353871203775213
30
0
41
1
10
12.5008551640365
20
-0.372122836470766
30
0
41
1
10
12.2861944399381
20
-0.40781746625521
30
0
41
1
10
12.2144889398916
20
-0.421101926363406
30
0
41
1
10
12.1066356368673
20
-0.443098136422833
30
0
41
1
10
12.0706422855886
20
-0.450774111156136
30
0
41
1
10
12.016676182165
20
-0.462779132692674
30
0
41
1
10
11.9896924874816
20
-0.468905738021732
30
0
41
1
10
11.9615828763092
20
-0.475480197418534
30
0
41
1
10
11.9514634473822
20
-0.477872841660286
30
0
41
1
10
11.9497768746535
20
-0.478272094382021
30
0
41
1
10
11.949028339717
20
-0.478354585983823
30
0
41
1
10
11.9488448642395
20
-0.479094056487071
30
0
41
1
10
11.949197135348
20
-0.479490495487397
30
0
41
1
10
11.9508618530018
20
-0.48125236048304
30
0
41
1
10
11.9527993775929
20
-0.482456137939721
30
0
41
1
10
11.9584074417833
20
-0.486028816815747
30
0
41
1
10
11.9624003547233
20
-0.48827420190986
30
0
41
1
10
11.9824919179011
20
-0.499337789882247
30
0
41
1
10
11.9992954718903
20
-0.507679472022915
30
0
41
1
10
12.0329375255188
20
-0.524306443264692
30
0
41
1
10
12.049891679349
20
-0.532516195718443
30
0
41
1
10
12.1009256663931
20
-0.557021391528281
30
0
41
1
10
12.1351842878351
20
-0.573188716991893
30
0
41
1
10
12.2382208542078
20
-0.621530294605094
30
0
41
1
10
12.3072721166187
20
-0.653526377215229
30
0
41
1
10
12.5148197603671
20
-0.749428600716726
30
0
41
1
10
12.6537469520589
20
-0.813216830161139
30
0
41
1
10
13.0711423478295
20
-1.00508466611538
30
0
41
1
10
13.3501154917614
20
-1.13374519718232
30
0
41
1
10
13.9078768043775
20
-1.39495548421482
30
0
41
1
10
14.1868228608525
20
-1.52710054140934
30
0
41
1
10
14.6030378721414
20
-1.73114833210454
30
0
41
1
10
14.7418481944887
20
-1.79947879794042
30
0
41
1
10
14.9124507563383
20
-1.89019944935944
30
0
41
1
10
14.9467075715239
20
-1.90813002214963
30
0
41
1
10
14.9834780527517
20
-1.93133343288807
30
0
41
1
10
14.9875322279756
20
-1.93396539374342
30
0
41
1
10
14.9934289089412
20
-1.93822801249979
30
0
41
1
10
14.9953732363035
20
-1.93968510606783
30
0
41
1
10
14.9981070496842
20
-1.94218185634412
30
0
41
1
10
14.9990552924711
20
-1.94306062876453
30
0
41
1
10
14.9999970740967
20
-1.9447083471205
30
0
41
1
10
15.0002043962311
20
-1.94550840072009
30
0
41
1
10
14.9991451336743
20
-1.94635842664525
30
0
41
1
10
14.9986088144104
20
-1.94677478725916
30
0
41
1
10
14.9895479898093
20
-1.95392600475628
30
0
41
1
10
14.9639629750974
20
-1.97411173955263
30
0
41
1
10
14.9383745292593
20
-1.99427559915838
30
0
41
1
10
14.8530651060334
20
-2.06143091195616
30
0
41
1
10
14.7848191330887
20
-2.11493410711444
30
0
41
1
10
14.4431552860245
20
-2.3807287619519
30
0
41
1
10
14.1711912463666
20
-2.58595181645236
30
0
41
1
10
13.7567246904251
20
-2.86849015029841
30
0
41
1
10
13.6167875702073
20
-2.95879509524553
30
0
41
1
10
13.3371493325507
20
-3.12579468156542
30
0
41
1
10
13.1970955372002
20
-3.20276414018574
30
0
41
1
10
12.9148503960492
20
-3.34205816743364
30
0
41
1
10
12.7726548693614
20
-3.40437544618632
30
0
41
1
10
12.4846327458883
20
-3.51321115199883
30
0
41
1
10
12.3383650581018
20
-3.5598332107059
30
0
41
1
10
12.0192457885055
20
-3.64242611605175
30
0
41
1
10
11.8477370197719
20
-3.67503693176724
30
0
41
1
10
11.6756304363262
20
-3.69741947457516
30
0
0
SPLINE
5
E1
100
AcDbEntity
8
1
62
256
6
ByLayer
370
18
48
1
60
0
100
AcDbSpline
70
4
71
3
72
12
73
8
40
0
40
0
40
0
40
0
40
0.250000000000002
40
0.250000000000002
40
0.500000000000004
40
0.500000000000004
40
1
40
1
40
1
40
1
41
1
10
78.5638640880719
20
-4.11665937852493
30
0
41
1
10
78.5687176725996
20
-4.10356955658929
30
0
41
1
10
78.5732996386839
20
-4.0902655048865
30
0
41
1
10
78.5807112384863
20
-4.06635719040531
30
0
41
1
10
78.5835223666122
20
-4.0557818932094
30
0
41
1
10
78.5882726120651
20
-4.03218125625622
30
0
41
1
10
78.5866414564846
20
-4.02771585851914
30
0
41
1
10
78.5824787602187
20
-4.03072739564647
30
0
0
SPLINE
5
E2
100
AcDbEntity
8
1
62
256
6
ByLayer
370
18
48
1
60
0
100
AcDbSpline
70
4
71
3
72
16
73
12
40
0
40
0
40
0
40
0
40
0.249999999999999
40
0.249999999999999
40
0.499999999999998
40
0.499999999999998
40
0.749999999999997
40
0.749999999999997
40
0.874999999999999
40
0.874999999999999
40
1
40
1
40
1
40
1
41
1
10
7.25183790164186
20
-2.03449481058033
30
0
41
1
10
7.60063522456872
20
-2.25072072657176
30
0
41
1
10
7.95883917402608
20
-2.44058759413073
30
0
41
1
10
8.68733137176599
20
-2.78322108971352
30
0
41
1
10
9.05890369250886
20
-2.93594896501276
30
0
41
1
10
9.80169114431419
20
-3.20626856673405
30
0
41
1
10
10.1741383835975
20
-3.32434395376151
30
0
41
1
10
10.7351324153922
20
-3.47987743166746
30
0
41
1
10
10.9225253082308
20
-3.52810737332953
30
0
41
1
10
11.2982835889557
20
-3.61800796624374
30
0
41
1
10
11.4866460719069
20
-3.65967024553581
30
0
41
1
10
11.6756516352075
20
-3.69739282705584
30
0
0
SPLINE
5
E3
100
AcDbEntity
8
SK1
62
256
6
ByLayer
370
18
48
1
60
0
100
AcDbSpline
70
4
71
3
72
10
73
6
40
0
40
0
40
0
40
0
40
0.5
40
0.5
40
1
40
1
40
1
40
1
41
1
10
-40
20
2.10935525493881
30
0
41
1
10
-39.8300649358195
20
2.41223838010666
30
0
41
1
10
-39.6562487467819
20
2.71319033742279
30
0
41
1
10
-39.3053250757887
20
3.31345657243682
30
0
41
1
10
-39.1281109768151
20
3.61271779970096
30
0
41
1
10
-38.95
20
3.9115327590097
30
0
0
SPLINE
5
E4
100
AcDbEntity
8
SK1
62
256
6
ByLayer
370
18
48
1
60
0
100
AcDbSpline
70
4
71
3
72
14
73
10
40
0
40
0
40
0
40
0
40
0.125000000000001
40
0.125000000000001
40
0.250000000000001
40
0.250000000000001
40
0.500000000000003
40
0.500000000000003
40
1
40
1
40
1
40
1
41
1
10
-38.85
20
4.95051971181519
30
0
41
1
10
-38.85
20
4.95193665011823
30
0
41
1
10
-38.8517453396942
20
4.95029540749863
30
0
41
1
10
-38.856890124152
20
4.94384469223607
30
0
41
1
10
-38.8602119663042
20
4.9391706886791
30
0
41
1
10
-38.8714485682303
20
4.92269187549132
30
0
41
1
10
-38.8802054040545
20
4.90907817906296
30
0
41
1
10
-38.9082792076545
20
4.86449094332613
30
0
41
1
10
-38.9286347141267
20
4.83098043248674
30
0
41
1
10
-38.95
20
4.79513611147396
30
0
0
SPLINE
5
E5
100
AcDbEntity
8
SK1
62
256
6
ByLayer
370
18
48
1
60
0
100
AcDbSpline
70
4
71
3
72
14
73
10
40
0
40
0
40
0
40
0
40
0.500000000000009
40
0.500000000000009
40
0.75000000000001
40
0.75000000000001
40
0.875000000000005
40
0.875000000000005
40
1
40
1
40
1
40
1
41
1
10
-38.9500000000001
20
3.9115327590097
30
0
41
1
10
-38.9287234691649
20
3.94722817660511
30
0
41
1
10
-38.9083432483059
20
3.98509317583773
30
0
41
1
10
-38.880223151313
20
4.04482203007967
30
0
41
1
10
-38.8713218079587
20
4.06514987131055
30
0
41
1
10
-38.8602667834558
20
4.0945601594685
30
0
41
1
10
-38.8569157654531
20
4.10431257704167
30
0
41
1
10
-38.851744720606
20
4.12281355702063
30
0
41
1
10
-38.8499999999999
20
4.13141772071663
30
0
41
1
10
-38.8499999999999
20
4.13760462754817
30
0
0
SPLINE
5
E6
100
AcDbEntity
8
SK1
62
256
6
ByLayer
370
18
48
1
60
0
100
AcDbSpline
70
4
71
3
72
10
73
6
40
0
40
0
40
0
40
0
40
0.5
40
0.5
40
1
40
1
40
1
40
1
41
1
10
-38.95
20
4.79513611147396
30
0
41
1
10
-39.1280976222166
20
4.49634355703822
30
0
41
1
10
-39.305319909025
20
4.1970687845193
30
0
41
1
10
-39.6562567560477
20
3.59677996807733
30
0
41
1
10
-39.830074377284
20
3.29582490461195
30
0
41
1
10
-40
20
2.99295860740307
30
0
0
SPLINE
5
E7
100
AcDbEntity
8
SK1
62
256
6
ByLayer
370
18
48
1
60
0
100
AcDbSpline
70
4
71
3
72
8
73
4
40
0
40
0
40
0
40
0
40
1
40
1
40
1
40
1
41
1
10
-39.6893219329389
20
-3.53818377991141
30
0
41
1
10
-39.7939660872381
20
-3.35697476501755
30
0
41
1
10
-39.8976885058778
20
-3.17531311575456
30
0
41
1
10
-40
20
-2.99295860740307
30
0
0
LINE
5
76
100
AcDbEntity
8
81
62
256
6
ByLayer
370
18
48
1
60
0
100
AcDbLine
10
80
20
0
30
0
11
85
21
0
31
0
39
0
210
0
220
0
230
1
0
LINE
5
77
100
AcDbEntity
8
1
62
256
6
ByLayer
370
18
48
1
60
0
100
AcDbLine
10
7.006386
20
4.207042
30
0
11
1.383996
21
4.203669
31
0
39
0
210
0
220
0
230
1
0
LINE
5
79
100
AcDbEntity
8
1
62
256
6
ByLayer
370
18
48
1
60
0
100
AcDbLine
10
27.49513
20
4.219336
30
0
11
26.751002
21
4.218889
31
0
39
0
210
0
220
0
230
1
0
LINE
5
7A
100
AcDbEntity
8
1
62
256
6
ByLayer
370
18
48
1
60
0
100
AcDbLine
10
52.494996
20
4.234335
30
0
11
51.758219
21
4.233893
31
0
39
0
210
0
220
0
230
1
0
LINE
5
7B
100
AcDbEntity
8
1
62
256
6
ByLayer
370
18
48
1
60
0
100
AcDbLine
10
77.496063
20
4.249336
30
0
11
76.771022
21
4.248901
31
0
39
0
210
0
220
0
230
1
0
LINE
5
7C
100
AcDbEntity
8
1
62
256
6
ByLayer
370
18
48
1
60
0
100
AcDbLine
10
76.771022
20
-4.248901
30
0
11
77.495646
21
-4.249336
31
0
39
0
210
0
220
0
230
1
0
LINE
5
7D
100
AcDbEntity
8
1
62
256
6
ByLayer
370
18
48
1
60
0
100
AcDbLine
10
51.758219
20
-4.233893
30
0
11
52.495641
21
-4.234336
31
0
39
0
210
0
220
0
230
1
0
LINE
5
7E
100
AcDbEntity
8
1
62
256
6
ByLayer
370
18
48
1
60
0
100
AcDbLine
10
26.751002
20
-4.218889
30
0
11
27.495385
21
-4.219336
31
0
39
0
210
0
220
0
230
1
0
LINE
5
7F
100
AcDbEntity
8
1
62
256
6
ByLayer
370
18
48
1
60
0
100
AcDbLine
10
1.383996
20
-4.203669
30
0
11
7.006386
21
-4.207042
31
0
39
0
210
0
220
0
230
1
0
LINE
5
80
100
AcDbEntity
8
SK1
62
256
6
ByLayer
370
18
48
1
60
0
100
AcDbLine
10
-38.845299
20
5
30
0
11
-39.689168
21
3.538377
31
0
39
0
210
0
220
0
230
1
0
LINE
5
82
100
AcDbEntity
8
SK1
62
256
6
ByLayer
370
18
48
1
60
0
100
AcDbLine
10
-39.689168
20
-3.538377
30
0
11
-38.845299
21
-5
31
0
39
0
210
0
220
0
230
1
0
LINE
5
83
100
AcDbEntity
8
SK1
62
256
6
ByLayer
370
18
48
1
60
0
100
AcDbLine
10
0
20
5
30
0
11
-38.845299
21
5
31
0
39
0
210
0
220
0
230
1
0
LINE
5
84
100
AcDbEntity
8
SK1
62
256
6
ByLayer
370
18
48
1
60
0
100
AcDbLine
10
-38.845299
20
-5
30
0
11
0
21
-5
31
0
39
0
210
0
220
0
230
1
0
LINE
5
85
100
AcDbEntity
8
SK4
62
256
6
ByLayer
370
18
48
0.05
60
0
100
AcDbLine
10
85
20
0
30
0
11
-45
21
0
31
0
39
0
210
0
220
0
230
1
0
LINE
5
87
100
AcDbEntity
8
4
62
256
6
ByLayer
370
18
48
0.05
60
0
100
AcDbLine
10
80
20
0
30
0
11
0
21
0
31
0
39
0
210
0
220
0
230
1
0
LINE
5
89
100
AcDbEntity
8
80
62
256
6
ByLayer
370
18
48
1
60
0
100
AcDbLine
10
0
20
0
30
0
11
-5
21
0
31
0
39
0
210
0
220
0
230
1
0
LINE
5
8A
100
AcDbEntity
8
1
62
256
6
ByLayer
370
13
48
1
60
0
100
AcDbLine
10
1.383996
20
4.203669
30
0
11
1.383996
21
-4.203669
31
0
39
0
210
0
220
0
230
1
0
LINE
5
8B
100
AcDbEntity
8
1
62
256
6
ByLayer
370
18
48
1
60
0
100
AcDbLine
10
80
20
0
30
0
11
78.52411
21
-4.054975
31
0
39
0
210
0
220
0
230
1
0
LINE
5
8C
100
AcDbEntity
8
1
62
256
6
ByLayer
370
13
48
1
60
0
100
AcDbLine
10
79.785021
20
0.821313
30
0
11
79.040084
21
0.821313
31
0
39
0
210
0
220
0
230
1
0
LINE
5
8D
100
AcDbEntity
8
1
62
256
6
ByLayer
370
18
48
1
60
0
100
AcDbLine
10
79.91606
20
-0.301568
30
0
11
79.785021
21
-0.821313
31
0
39
0
210
0
220
0
230
1
0
LINE
5
8E
100
AcDbEntity
8
1
62
256
6
ByLayer
370
18
48
1
60
0
100
AcDbLine
10
79.99166
20
0.041522
30
0
11
80
21
0
31
0
39
0
210
0
220
0
230
1
0
LINE
5
8F
100
AcDbEntity
8
1
62
256
6
ByLayer
370
18
48
1
60
0
100
AcDbLine
10
77.878823
20
-2.216226
30
0
11
79.894719
21
-0.133778
31
0
39
0
210
0
220
0
230
1
0
LINE
5
90
100
AcDbEntity
8
1
62
256
6
ByLayer
370
13
48
1
60
0
100
AcDbLine
10
78.850177
20
0.485984
30
0
11
79.894719
21
-0.133778
31
0
39
0
210
0
220
0
230
1
0
LINE
5
91
100
AcDbEntity
8
1
62
256
6
ByLayer
370
13
48
1
60
0
100
AcDbLine
10
79.040084
20
0.821313
30
0
11
79.91606
21
0.301568
31
0
39
0
210
0
220
0
230
1
0
LINE
5
92
100
AcDbEntity
8
1
62
256
6
ByLayer
370
18
48
1
60
0
100
AcDbLine
10
80
20
0
30
0
11
79.99166
21
-0.041522
31
0
39
0
210
0
220
0
230
1
0
LINE
5
93
100
AcDbEntity
8
1
62
256
6
ByLayer
370
18
48
1
60
0
100
AcDbLine
10
0
20
-5
30
0
11
0
21
5
31
0
39
0
210
0
220
0
230
1
0
LINE
5
94
100
AcDbEntity
8
1
62
256
6
ByLayer
370
18
48
1
60
0
100
AcDbLine
10
79.91606
20
0.301568
30
0
11
79.785021
21
0.821313
31
0
39
0
210
0
220
0
230
1
0
LINE
5
95
100
AcDbEntity
8
1
62
256
6
ByLayer
370
13
48
1
60
0
100
AcDbLine
10
0.691758
20
4.601834
30
0
11
0.691758
21
-4.601834
31
0
39
0
210
0
220
0
230
1
0
LINE
5
96
100
AcDbEntity
8
SK1
62
256
6
ByLayer
370
13
48
1
60
0
100
AcDbLine
10
-38.95
20
4.795136
30
0
11
-38.95
21
3.911409
31
0
39
0
210
0
220
0
230
1
0
LINE
5
97
100
AcDbEntity
8
SK1
62
256
6
ByLayer
370
18
48
1
60
0
100
AcDbLine
10
-38.845299
20
5
30
0
11
-38.845299
21
-5
31
0
39
0
210
0
220
0
230
1
0
LINE
5
98
100
AcDbEntity
8
SK1
62
256
6
ByLayer
370
18
48
1
60
0
100
AcDbLine
10
-38.85
20
4.137605
30
0
11
-38.85
21
4.95052
31
0
39
0
210
0
220
0
230
1
0
LINE
5
99
100
AcDbEntity
8
SK1
62
256
6
ByLayer
370
18
48
1
60
0
100
AcDbLine
10
0
20
-5
30
0
11
0
21
5
31
0
39
0
210
0
220
0
230
1
0
LINE
5
9A
100
AcDbEntity
8
SK1
62
256
6
ByLayer
370
18
48
1
60
0
100
AcDbLine
10
-40
20
2.992959
30
0
11
-40
21
2.109302
31
0
39
0
210
0
220
0
230
1
0
LINE
5
9B
100
AcDbEntity
8
SK1
62
256
6
ByLayer
370
18
48
1
60
0
100
AcDbLine
10
-40
20
2.109355
30
0
11
-40
21
-2.992959
31
0
39
0
210
0
220
0
230
1
0
MTEXT
5
E8
100
AcDbEntity
8
SK6
62
256
6
ByLayer
370
13
48
1
60
0
100
AcDbMText
10
22.129169
20
36.632694
30
0
210
0
220
0
230
1
1
\W0.7542;R840-0850-70-A1A1220
40
3.5
41
0
44
1.084337
50
0
71
8
72
5
7
iso_b_vert
0
DIMENSION
5
F5
100
AcDbEntity
8
SK2
62
256
6
ByLayer
370
13
48
1
60
0
100
AcDbDimension
2
DimnDraft3D1
10
78.55
20
-14.463398
30
0
11
37.800059
21
-14.463398
31
0
70
32
71
5
72
1
41
1
210
0
220
0
230
1
3
Standard
100
AcDbAlignedDimension
13
0
23
-1.5875
33
0
14
78.55
24
-5.8375
34
0
50
0
100
AcDbRotatedDimension
1001
ACAD
1000
DSTYLE
1002
{
1070
   279
1070
     0
1070
   172
1070
     1
1070
   173
1070
     1
1070
   340
1005
E9
1070
   271
1070
     2
1070
   272
1070
     2
1070
    77
1070
     1
1070
    73
1070
     0
1070
   171
1070
     3
1070
   274
1070
     4
1070
   177
1070
    35
1070
   176
1070
    35
1070
   178
1070
    35
1070
    48
1040
-0.005
1070
    41
1041
3.5
1070
   147
1041
1.75
1070
    42
1041
1.5875
1070
    44
1041
2.0
1070
   140
1041
3.5
1070
   343
1005
0
1070
   344
1005
0
1002
}
0
DIMENSION
5
FF
100
AcDbEntity
8
SK2
62
256
6
ByLayer
370
13
48
1
60
0
100
AcDbDimension
2
DimnDraft3D2
10
80
20
-33.692985
30
0
11
19.8913
21
-33.692985
31
0
70
32
71
5
72
1
41
1
210
0
220
0
230
1
3
Standard
100
AcDbAlignedDimension
13
-40
23
-6.5875
33
0
14
80
24
-1.5875
34
0
50
0
100
AcDbRotatedDimension
1001
ACAD
1000
DSTYLE
1002
{
1070
   279
1070
     0
1070
   172
1070
     1
1070
   173
1070
     1
1070
   340
1005
E9
1070
   271
1070
     2
1070
   272
1070
     2
1070
    77
1070
     1
1070
    73
1070
     0
1070
   171
1070
     3
1070
   274
1070
     4
1070
   177
1070
    35
1070
   176
1070
    35
1070
   178
1070
    35
1070
    48
1040
-0.005
1070
    41
1041
3.5
1070
   147
1041
1.75
1070
    42
1041
1.5875
1070
    44
1041
2.0
1070
   140
1041
3.5
1070
   343
1005
0
1070
   344
1005
0
1002
}
0
DIMENSION
5
109
100
AcDbEntity
8
SK2
62
256
6
ByLayer
370
13
48
1
60
0
100
AcDbDimension
2
DimnDraft3D3
10
80
20
15.859119
30
0
11
45.275
21
15.859119
31
0
70
32
71
5
72
1
41
1
210
0
220
0
230
1
3
Standard
100
AcDbAlignedDimension
13
10.55
23
5.8375
33
0
14
80
24
1.5875
34
0
50
0
100
AcDbRotatedDimension
1001
ACAD
1000
DSTYLE
1002
{
1070
   279
1070
     0
1070
   172
1070
     1
1070
   173
1070
     1
1070
   340
1005
E9
1070
   271
1070
     2
1070
   272
1070
     2
1070
    77
1070
     1
1070
    73
1070
     0
1070
   171
1070
     3
1070
   274
1070
     4
1070
   177
1070
    35
1070
   176
1070
    35
1070
   178
1070
    35
1070
    48
1040
-0.005
1070
    41
1041
3.5
1070
   147
1041
1.75
1070
    42
1041
1.5875
1070
    44
1041
2.0
1070
   140
1041
3.5
1070
   343
1005
0
1070
   344
1005
0
1002
}
0
DIMENSION
5
113
100
AcDbEntity
8
SK2
62
256
6
ByLayer
370
13
48
1
60
0
100
AcDbDimension
2
DimnDraft3D4
10
78.55
20
-17.052503
30
0
11
89.981425
21
-17.052503
31
0
70
32
71
5
72
1
41
1
210
0
220
0
230
1
3
Standard
100
AcDbAlignedDimension
13
80
23
-1.5875
33
0
14
78.55
24
-5.8375
34
0
50
0
100
AcDbRotatedDimension
1001
ACAD
1000
DSTYLE
1002
{
1070
   279
1070
     0
1070
   172
1070
     1
1070
   173
1070
     1
1070
   340
1005
E9
1070
   271
1070
     2
1070
   272
1070
     2
1070
    77
1070
     1
1070
    73
1070
     0
1070
   171
1070
     3
1070
   274
1070
     4
1070
   177
1070
    35
1070
   176
1070
    35
1070
   178
1070
    35
1070
    48
1040
-0.005
1070
    41
1041
3.5
1070
   147
1041
1.75
1070
    42
1041
1.5875
1070
    44
1041
2.0
1070
   140
1041
3.5
1070
   343
1005
0
1070
   344
1005
0
1002
}
0
DIMENSION
5
11D
100
AcDbEntity
8
SK2
62
256
6
ByLayer
370
13
48
1
60
0
100
AcDbDimension
2
DimnDraft3D5
10
78.55
20
-23.343428
30
0
11
16.810676
21
-23.343428
31
0
70
32
71
5
72
1
41
1
210
0
220
0
230
1
3
Standard
100
AcDbAlignedDimension
13
-40
23
-6.5875
33
0
14
78.55
24
-5.8375
34
0
50
0
100
AcDbRotatedDimension
1001
ACAD
1000
DSTYLE
1002
{
1070
   279
1070
     0
1070
   172
1070
     1
1070
   173
1070
     1
1070
   340
1005
E9
1070
   271
1070
     2
1070
   272
1070
     2
1070
    77
1070
     1
1070
    73
1070
     0
1070
   171
1070
     3
1070
   274
1070
     4
1070
   177
1070
    35
1070
   176
1070
    35
1070
   178
1070
    35
1070
    48
1040
-0.005
1070
    41
1041
3.5
1070
   147
1041
1.75
1070
    42
1041
1.5875
1070
    44
1041
2.0
1070
   140
1041
3.5
1070
   343
1005
0
1070
   344
1005
0
1002
}
0
DIMENSION
5
128
100
AcDbEntity
8
SK2
62
256
6
ByLayer
370
13
48
1
60
0
100
AcDbDimension
2
DimnDraft3D6
10
-50.625163
20
5
30
0
11
-51.250163
21
23.47418
31
0
70
33
71
5
72
1
41
1
210
0
220
0
230
1
3
Standard
100
AcDbAlignedDimension
13
-41.5875
23
-5
33
0
14
-41.5875
24
5
34
0
1001
ACAD
1000
DSTYLE
1002
{
1070
   279
1070
     0
1070
    74
1070
     0
1070
   173
1070
     1
1070
   340
1005
E9
1070
   271
1070
     3
1070
   272
1070
     2
1070
    77
1070
     1
1070
    73
1070
     0
1070
   171
1070
     3
1070
   274
1070
     4
1070
   177
1070
    35
1070
   176
1070
    35
1070
   178
1070
    35
1070
    48
1040
-0.005
1070
    41
1041
3.5
1070
   147
1041
1.75
1070
    42
1041
1.5875
1070
    44
1041
2.0
1070
   140
1041
3.5
1070
   343
1005
0
1070
   344
1005
0
1002
}
0
DIMENSION
5
133
100
AcDbEntity
8
2
62
256
6
ByLayer
370
13
48
1
60
0
100
AcDbDimension
2
DimnDraft3D7
10
94.083343
20
4.25
30
0
11
89.458343
21
21.317266
31
0
70
33
71
5
72
1
41
1
210
0
220
0
230
1
3
Standard
100
AcDbAlignedDimension
13
80.1375
23
-4.25
33
0
14
80.1375
24
4.25
34
0
1001
ACAD
1000
DSTYLE
1002
{
1070
   279
1070
     0
1070
    74
1070
     0
1070
   173
1070
     1
1070
   340
1005
E9
1070
   271
1070
     3
1070
   272
1070
     2
1070
    77
1070
     1
1070
    73
1070
     0
1070
   171
1070
     3
1070
   274
1070
     4
1070
   177
1070
    35
1070
   176
1070
    35
1070
   178
1070
    35
1070
    48
1040
-0.005
1070
    41
1041
3.5
1070
   147
1041
1.75
1070
    42
1041
1.5875
1070
    44
1041
2.0
1070
   140
1041
3.5
1070
   343
1005
0
1070
   344
1005
0
1002
}
0
ENDSEC
0
SECTION
2
OBJECTS
0
DICTIONARY
5
19e
330
0
100
AcDbDictionary
280
0
281
1
3
ACAD_GROUP
350
19f
3
ACAD_MLINESTYLE
350
1a0
0
DICTIONARY
5
19f
330
0
100
AcDbDictionary
280
0
281
1
0
DICTIONARY
5
1a0
330
0
100
AcDbDictionary
280
0
281
1
3
Standard
350
18
0
MLINESTYLE
5
18
330
1a0
100
AcDbMlineStyle
2
Standard
70
0
3

62
256
51
90
52
90
71
2
49
-0.5
62
256
6
ByLayer
49
0.5
62
256
6
ByLayer
0
RASTERVARIABLES
5
18c
330

100
AcDbRasterVariables
90
0
70
1
71
1
72
1
0
ENDSEC
0
EOF
