0
SECTION
2
HEADER
9
$ACADVER
1
AC1015
9
$DWGCODEPAGE
3
ANSI_1252
9
$HANDSEED
5
1ad
9
$ANGBASE
50
0
9
$ANGDIR
70
0
9
$ATTMODE
70
1
9
$AUNITS
70
0
9
$AUPREC
70
0
9
$CECOLOR
62
256
9
$CELTSCALE
40
1
9
$CELTYPE
6
ByLayer
9
$CELWEIGHT
370
18
9
$CLAYER
8
0
9
$CMLJUST
70
0
9
$CMLSCALE
40
1
9
$CMLSTYLE
2
Standard
9
$DIMSTYLE
2
Standard
9
$TEXTSIZE
40
0.2
9
$TEXTSTYLE
7
Standard
9
$LUNITS
70
2
9
$LUPREC
70
4
9
$EXTNAMES
290
1
9
$INSUNITS
70
4
9
$LTSCALE
40
1
9
$LWDISPLAY
290
1
9
$PDMODE
70
0
9
$PDSIZE
40
0
9
$PLINEGEN
70
0
0
ENDSEC
0
SECTION
2
CLASSES
0
CLASS
1
RASTERVARIABLES
2
AcDbRasterVariables
3
ISM
90
0
280
0
281
0
0
ENDSEC
0
SECTION
2
TABLES
0
TABLE
2
VPORT
5
1a3
100
AcDbSymbolTable
0
VPORT
5
1
100
AcDbSymbolTableRecord
100
AcDbViewportTableRecord
2
*Active
70
0
10
0
20
0
11
1
21
1
12
-1
22
1
13
0
23
0
14
0.5
24
0.5
15
10
25
10
16
0
26
0
36
1
17
0
27
0
37
0
0
ENDTAB
0
TABLE
2
LTYPE
5
1a4
100
AcDbSymbolTable
0
LTYPE
5
14
100
AcDbSymbolTableRecord
100
AcDbLinetypeTableRecord
70
0
2
ByBlock
3

72
65
73
0
40
0
0
LTYPE
5
15
100
AcDbSymbolTableRecord
100
AcDbLinetypeTableRecord
70
0
2
ByLayer
3

72
65
73
0
40
0
0
LTYPE
5
16
100
AcDbSymbolTableRecord
100
AcDbLinetypeTableRecord
70
0
2
CONTINUOUS
3
Solid line
72
65
73
0
40
0
0
LTYPE
5
6A
100
AcDbSymbolTableRecord
100
AcDbLinetypeTableRecord
70
0
2
CENTER
3
____ _ ____ _ ____ _ ____
72
65
73
4
40
47.5
49
22
74
0
49
-8.5
74
0
49
8.5
74
0
49
-8.5
74
0
0
LTYPE
5
6B
100
AcDbSymbolTableRecord
100
AcDbLinetypeTableRecord
70
0
2
DASHED
3
__ __ __ __ __ __ __ __ __
72
65
73
2
40
25.72
49
12.86
74
0
49
-12.86
74
0
0
ENDTAB
0
TABLE
2
LAYER
5
1a5
100
AcDbSymbolTable
0
LAYER
5
10
100
AcDbSymbolTableRecord
100
AcDbLayerTableRecord
2
0
70
0
62
7
6
CONTINUOUS
290
1
370
-3
390
0
0
LAYER
5
6D
100
AcDbSymbolTableRecord
100
AcDbLayerTableRecord
2
81
70
0
62
-3
6
CONTINUOUS
290
1
370
-3
390
0
0
LAYER
5
6F
100
AcDbSymbolTableRecord
100
AcDbLayerTableRecord
2
80
70
0
62
-6
6
CONTINUOUS
290
1
370
-3
390
0
0
LAYER
5
74
100
AcDbSymbolTableRecord
100
AcDbLayerTableRecord
2
2
70
0
62
7
6
CONTINUOUS
290
1
370
-3
390
0
0
LAYER
5
78
100
AcDbSymbolTableRecord
100
AcDbLayerTableRecord
2
1
70
0
62
4
6
CONTINUOUS
290
1
370
-3
390
0
0
LAYER
5
88
100
AcDbSymbolTableRecord
100
AcDbLayerTableRecord
2
4
70
0
62
-2
6
CENTER
290
1
370
-3
390
0
0
LAYER
5
18f
100
AcDbSymbolTableRecord
100
AcDbLayerTableRecord
2
SK2
70
0
62
7
6
CONTINUOUS
290
1
370
-3
390
0
0
LAYER
5
190
100
AcDbSymbolTableRecord
100
AcDbLayerTableRecord
2
SK1
70
0
62
4
6
CONTINUOUS
290
1
370
-3
390
0
0
LAYER
5
191
100
AcDbSymbolTableRecord
100
AcDbLayerTableRecord
2
SK4
70
0
62
2
6
CENTER
290
1
370
-3
390
0
0
LAYER
5
192
100
AcDbSymbolTableRecord
100
AcDbLayerTableRecord
2
SK6
70
0
62
5
6
CONTINUOUS
290
1
370
-3
390
0
0
ENDTAB
0
TABLE
2
STYLE
5
1a6
100
AcDbSymbolTable
0
STYLE
5
11
100
AcDbSymbolTableRecord
100
AcDbTextStyleTableRecord
2
Standard
3
txt
70
0
71
0
40
0
41
1
42
0
50
0
0
STYLE
5
EB
100
AcDbSymbolTableRecord
100
AcDbTextStyleTableRecord
2
iso_b_vert
3
simplex.shx
70
0
71
0
40
0
41
1
42
0
50
0
0
STYLE
5
EC
100
AcDbSymbolTableRecord
100
AcDbTextStyleTableRecord
2
DWGDirectTextStyle
3
simplex
70
0
71
0
40
0
41
1
42
0
50
0
0
ENDTAB
0
TABLE
2
DIMSTYLE
5
1a7
100
AcDbSymbolTable
100
AcDbDimStyleTable
0
DIMSTYLE
105
27
100
AcDbSymbolTableRecord
100
AcDbDimStyleTableRecord
2
Standard
70
0
3
<>
41
0.18
42
0.0625
44
0.18
140
0.18
147
0.09
73
0
74
0
77
1
271
2
275
0
278
52
280
0
340
11
0
ENDTAB
0
TABLE
2
VIEW
5
1a8
100
AcDbSymbolTable
0
ENDTAB
0
TABLE
2
UCS
5
1a9
100
AcDbSymbolTable
0
ENDTAB
0
TABLE
2
APPID
5
1aa
100
AcDbSymbolTable
0
APPID
5
12
100
AcDbSymbolTableRecord
100
AcDbRegAppTableRecord
2
ACAD
70
0
0
ENDTAB
0
TABLE
2
BLOCK_RECORD
5
1ab
100
AcDbSymbolTable
0
BLOCK_RECORD
5
1F
100
AcDbSymbolTableRecord
100
AcDbBlockTableRecord
2
*Model_Space
340
0
70
0
0
BLOCK_RECORD
5
1B
100
AcDbSymbolTableRecord
100
AcDbBlockTableRecord
2
*Paper_Space
340
0
70
0
0
BLOCK_RECORD
5
23
100
AcDbSymbolTableRecord
100
AcDbBlockTableRecord
2
*Paper_Space0
340
0
70
0
0
BLOCK_RECORD
5
EE
100
AcDbSymbolTableRecord
100
AcDbBlockTableRecord
2
DimnDraft3D1
340
0
70
0
0
BLOCK_RECORD
5
F8
100
AcDbSymbolTableRecord
100
AcDbBlockTableRecord
2
DimnDraft3D2
340
0
70
0
0
BLOCK_RECORD
5
102
100
AcDbSymbolTableRecord
100
AcDbBlockTableRecord
2
DimnDraft3D3
340
0
70
0
0
BLOCK_RECORD
5
10C
100
AcDbSymbolTableRecord
100
AcDbBlockTableRecord
2
DimnDraft3D4
340
0
70
0
0
BLOCK_RECORD
5
116
100
AcDbSymbolTableRecord
100
AcDbBlockTableRecord
2
DimnDraft3D5
340
0
70
0
0
BLOCK_RECORD
5
120
100
AcDbSymbolTableRecord
100
AcDbBlockTableRecord
2
DimnDraft3D6
340
0
70
0
0
BLOCK_RECORD
5
12B
100
AcDbSymbolTableRecord
100
AcDbBlockTableRecord
2
DimnDraft3D7
340
0
70
0
0
ENDTAB
0
ENDSEC
0
SECTION
2
BLOCKS
0
BLOCK
5
20
100
AcDbEntity
8
0
100
AcDbBlockBegin
2
*Model_Space
70
0
10
0
20
0
30
0
3
*Model_Space
0
ENDBLK
5
21
100
AcDbEntity
8
0
100
AcDbBlockEnd
0
BLOCK
5
1C
100
AcDbEntity
8
0
100
AcDbBlockBegin
2
*Paper_Space
70
0
10
0
20
0
30
0
3
*Paper_Space
0
ENDBLK
5
1D
100
AcDbEntity
8
0
100
AcDbBlockEnd
0
BLOCK
5
24
100
AcDbEntity
8
0
100
AcDbBlockBegin
2
*Paper_Space0
70
0
10
0
20
0
30
0
3
*Paper_Space0
0
ENDBLK
5
25
100
AcDbEntity
8
0
100
AcDbBlockEnd
0
BLOCK
5
F5
100
AcDbEntity
8
0
100
AcDbBlockBegin
2
DimnDraft3D1
70
0
10
0
20
0
30
0
3
DimnDraft3D1
0
MTEXT
5
EF
100
AcDbEntity
8
SK2
62
256
6
ByLayer
370
13
48
1
60
0
100
AcDbMText
10
33.371375
20
-13.538398
30
0
210
0
220
0
230
1
1
\W0.7317;78,57
40
3.5
41
0
44
1.084337
50
0
71
7
72
5
7
iso_b_vert
0
LINE
5
F0
100
AcDbEntity
8
SK2
62
256
6
ByLayer
370
13
48
1
60
0
100
AcDbLine
10
0
20
-1.5875
30
0
11
0
21
-16.413398
31
0
39
0
210
0
220
0
230
1
0
LINE
5
F1
100
AcDbEntity
8
SK2
62
256
6
ByLayer
370
13
48
1
60
0
100
AcDbLine
10
78.57
20
-5.7875
30
0
11
78.57
21
-16.413398
31
0
39
0
210
0
220
0
230
1
0
LINE
5
F2
100
AcDbEntity
8
SK2
62
256
6
ByLayer
370
13
48
1
60
0
100
AcDbLine
10
0
20
-14.413398
30
0
11
78.57
21
-14.413398
31
0
39
0
210
0
220
0
230
1
0
SOLID
5
F3
100
AcDbEntity
8
SK2
62
256
6
ByLayer
370
13
48
1
60
0
100
AcDbTrace
10
0
20
-14.413398
30
0
11
3.499998
21
-13.952615
31
0
12
3.500002
22
-14.874182
32
0
13
0
23
-14.413398
33
0
39
0
210
0
220
0
230
1
0
SOLID
5
F4
100
AcDbEntity
8
SK2
62
256
6
ByLayer
370
13
48
1
60
0
100
AcDbTrace
10
78.57
20
-14.413398
30
0
11
75.070002
21
-14.874182
31
0
12
75.069998
22
-13.952615
32
0
13
78.57
23
-14.413398
33
0
39
0
210
0
220
0
230
1
0
ENDBLK
5
F6
100
AcDbEntity
8
0
100
AcDbBlockEnd
0
BLOCK
5
FF
100
AcDbEntity
8
0
100
AcDbBlockBegin
2
DimnDraft3D2
70
0
10
0
20
0
30
0
3
DimnDraft3D2
0
MTEXT
5
F9
100
AcDbEntity
8
SK2
62
256
6
ByLayer
370
13
48
1
60
0
100
AcDbMText
10
14.592221
20
-32.817985
30
0
210
0
220
0
230
1
1
\W0.6930;120,00
40
3.5
41
0
44
1.084337
50
0
71
7
72
5
7
iso_b_vert
0
LINE
5
FA
100
AcDbEntity
8
SK2
62
256
6
ByLayer
370
13
48
1
60
0
100
AcDbLine
10
-40
20
-6.5875
30
0
11
-40
21
-35.692985
31
0
39
0
210
0
220
0
230
1
0
LINE
5
FB
100
AcDbEntity
8
SK2
62
256
6
ByLayer
370
13
48
1
60
0
100
AcDbLine
10
80
20
-1.5875
30
0
11
80
21
-35.692985
31
0
39
0
210
0
220
0
230
1
0
LINE
5
FC
100
AcDbEntity
8
SK2
62
256
6
ByLayer
370
13
48
1
60
0
100
AcDbLine
10
-40
20
-33.692985
30
0
11
80
21
-33.692985
31
0
39
0
210
0
220
0
230
1
0
SOLID
5
FD
100
AcDbEntity
8
SK2
62
256
6
ByLayer
370
13
48
1
60
0
100
AcDbTrace
10
-40
20
-33.692985
30
0
11
-36.500002
21
-33.232202
31
0
12
-36.499998
22
-34.153769
32
0
13
-40
23
-33.692985
33
0
39
0
210
0
220
0
230
1
0
SOLID
5
FE
100
AcDbEntity
8
SK2
62
256
6
ByLayer
370
13
48
1
60
0
100
AcDbTrace
10
80
20
-33.692985
30
0
11
76.500002
21
-34.153769
31
0
12
76.499998
22
-33.232202
32
0
13
80
23
-33.692985
33
0
39
0
210
0
220
0
230
1
0
ENDBLK
5
100
100
AcDbEntity
8
0
100
AcDbBlockEnd
0
BLOCK
5
109
100
AcDbEntity
8
0
100
AcDbBlockBegin
2
DimnDraft3D3
70
0
10
0
20
0
30
0
3
DimnDraft3D3
0
MTEXT
5
103
100
AcDbEntity
8
SK2
62
256
6
ByLayer
370
13
48
1
60
0
100
AcDbMText
10
41.236316
20
16.684119
30
0
210
0
220
0
230
1
1
\W0.7317;68,63
40
3.5
41
0
44
1.084337
50
0
71
7
72
5
7
iso_b_vert
0
LINE
5
104
100
AcDbEntity
8
SK2
62
256
6
ByLayer
370
13
48
1
60
0
100
AcDbLine
10
11.37
20
5.7875
30
0
11
11.37
21
17.809119
31
0
39
0
210
0
220
0
230
1
0
LINE
5
105
100
AcDbEntity
8
SK2
62
256
6
ByLayer
370
13
48
1
60
0
100
AcDbLine
10
80
20
1.5875
30
0
11
80
21
17.809119
31
0
39
0
210
0
220
0
230
1
0
LINE
5
106
100
AcDbEntity
8
SK2
62
256
6
ByLayer
370
13
48
1
60
0
100
AcDbLine
10
11.37
20
15.809119
30
0
11
80
21
15.809119
31
0
39
0
210
0
220
0
230
1
0
SOLID
5
107
100
AcDbEntity
8
SK2
62
256
6
ByLayer
370
13
48
1
60
0
100
AcDbTrace
10
11.37
20
15.809119
30
0
11
14.869998
21
16.269903
31
0
12
14.870002
22
15.348335
32
0
13
11.37
23
15.809119
33
0
39
0
210
0
220
0
230
1
0
SOLID
5
108
100
AcDbEntity
8
SK2
62
256
6
ByLayer
370
13
48
1
60
0
100
AcDbTrace
10
80
20
15.809119
30
0
11
76.500002
21
15.348335
31
0
12
76.499998
22
16.269903
32
0
13
80
23
15.809119
33
0
39
0
210
0
220
0
230
1
0
ENDBLK
5
10A
100
AcDbEntity
8
0
100
AcDbBlockEnd
0
BLOCK
5
113
100
AcDbEntity
8
0
100
AcDbBlockBegin
2
DimnDraft3D4
70
0
10
0
20
0
30
0
3
DimnDraft3D4
0
MTEXT
5
10D
100
AcDbEntity
8
SK2
62
256
6
ByLayer
370
13
48
1
60
0
100
AcDbMText
10
87.093925
20
-16.127503
30
0
210
0
220
0
230
1
1
\W0.6709;1,43
40
3.5
41
0
44
1.084337
50
0
71
7
72
5
7
iso_b_vert
0
LINE
5
10E
100
AcDbEntity
8
SK2
62
256
6
ByLayer
370
13
48
1
60
0
100
AcDbLine
10
80
20
-1.5875
30
0
11
80
21
-19.002503
31
0
39
0
210
0
220
0
230
1
0
LINE
5
10F
100
AcDbEntity
8
SK2
62
256
6
ByLayer
370
13
48
1
60
0
100
AcDbLine
10
78.57
20
-5.7875
30
0
11
78.57
21
-19.002503
31
0
39
0
210
0
220
0
230
1
0
LINE
5
110
100
AcDbEntity
8
SK2
62
256
6
ByLayer
370
13
48
1
60
0
100
AcDbLine
10
69.82
20
-17.002503
30
0
11
93.743925
21
-17.002503
31
0
39
0
210
0
220
0
230
1
0
SOLID
5
111
100
AcDbEntity
8
SK2
62
256
6
ByLayer
370
13
48
1
60
0
100
AcDbTrace
10
80
20
-17.002503
30
0
11
83.499998
21
-16.541719
31
0
12
83.500002
22
-17.463287
32
0
13
80
23
-17.002503
33
0
39
0
210
0
220
0
230
1
0
SOLID
5
112
100
AcDbEntity
8
SK2
62
256
6
ByLayer
370
13
48
1
60
0
100
AcDbTrace
10
78.57
20
-17.002503
30
0
11
75.070002
21
-17.463287
31
0
12
75.069998
22
-16.541719
32
0
13
78.57
23
-17.002503
33
0
39
0
210
0
220
0
230
1
0
ENDBLK
5
114
100
AcDbEntity
8
0
100
AcDbBlockEnd
0
BLOCK
5
11D
100
AcDbEntity
8
0
100
AcDbBlockBegin
2
DimnDraft3D5
70
0
10
0
20
0
30
0
3
DimnDraft3D5
0
MTEXT
5
117
100
AcDbEntity
8
SK2
62
256
6
ByLayer
370
13
48
1
60
0
100
AcDbMText
10
11.949097
20
-22.468428
30
0
210
0
220
0
230
1
1
\W0.6440;118,57
40
3.5
41
0
44
1.084337
50
0
71
7
72
5
7
iso_b_vert
0
LINE
5
118
100
AcDbEntity
8
SK2
62
256
6
ByLayer
370
13
48
1
60
0
100
AcDbLine
10
-40
20
-6.5875
30
0
11
-40
21
-25.343428
31
0
39
0
210
0
220
0
230
1
0
LINE
5
119
100
AcDbEntity
8
SK2
62
256
6
ByLayer
370
13
48
1
60
0
100
AcDbLine
10
78.57
20
-5.7875
30
0
11
78.57
21
-25.343428
31
0
39
0
210
0
220
0
230
1
0
LINE
5
11A
100
AcDbEntity
8
SK2
62
256
6
ByLayer
370
13
48
1
60
0
100
AcDbLine
10
-40
20
-23.343428
30
0
11
78.57
21
-23.343428
31
0
39
0
210
0
220
0
230
1
0
SOLID
5
11B
100
AcDbEntity
8
SK2
62
256
6
ByLayer
370
13
48
1
60
0
100
AcDbTrace
10
-40
20
-23.343428
30
0
11
-36.500002
21
-22.882645
31
0
12
-36.499998
22
-23.804212
32
0
13
-40
23
-23.343428
33
0
39
0
210
0
220
0
230
1
0
SOLID
5
11C
100
AcDbEntity
8
SK2
62
256
6
ByLayer
370
13
48
1
60
0
100
AcDbTrace
10
78.57
20
-23.343428
30
0
11
75.070002
21
-23.804212
31
0
12
75.069998
22
-22.882645
32
0
13
78.57
23
-23.343428
33
0
39
0
210
0
220
0
230
1
0
ENDBLK
5
11E
100
AcDbEntity
8
0
100
AcDbBlockEnd
0
BLOCK
5
128
100
AcDbEntity
8
0
100
AcDbBlockBegin
2
DimnDraft3D6
70
0
10
0
20
0
30
0
3
DimnDraft3D6
0
MTEXT
5
121
100
AcDbEntity
8
SK2
62
256
6
ByLayer
370
13
48
1
60
0
100
AcDbMText
10
-50.375163
20
24.34918
30
0
210
0
220
0
230
1
1
\W0.6930;10,000
40
3.5
41
0
44
1.084337
50
90
71
7
72
5
7
iso_b_vert
0
MTEXT
5
122
100
AcDbEntity
8
SK2
62
256
6
ByLayer
370
13
48
1
60
0
100
AcDbMText
10
-50.375163
20
19.126524
30
0
210
0
220
0
230
1
1
%%c
40
3.5
41
0
44
1.084337
50
90
71
7
72
5
7
iso_b_vert
0
LINE
5
123
100
AcDbEntity
8
SK2
62
256
6
ByLayer
370
13
48
1
60
0
100
AcDbLine
10
-41.5875
20
-5
30
0
11
-50.625163
21
-5
31
0
39
0
210
0
220
0
230
1
0
LINE
5
124
100
AcDbEntity
8
SK2
62
256
6
ByLayer
370
13
48
1
60
0
100
AcDbLine
10
-41.5875
20
5
30
0
11
-50.625163
21
5
31
0
39
0
210
0
220
0
230
1
0
LINE
5
125
100
AcDbEntity
8
SK2
62
256
6
ByLayer
370
13
48
1
60
0
100
AcDbLine
10
-48.625163
20
-5
30
0
11
-48.625163
21
35.862338
31
0
39
0
210
0
220
0
230
1
0
SOLID
5
126
100
AcDbEntity
8
SK2
62
256
6
ByLayer
370
13
48
1
60
0
100
AcDbTrace
10
-48.625163
20
-5
30
0
11
-49.085946
21
-1.500002
31
0
12
-48.164379
22
-1.499998
32
0
13
-48.625163
23
-5
33
0
39
0
210
0
220
0
230
1
0
SOLID
5
127
100
AcDbEntity
8
SK2
62
256
6
ByLayer
370
13
48
1
60
0
100
AcDbTrace
10
-48.625163
20
5
30
0
11
-48.164379
21
1.500002
31
0
12
-49.085946
22
1.499998
32
0
13
-48.625163
23
5
33
0
39
0
210
0
220
0
230
1
0
ENDBLK
5
129
100
AcDbEntity
8
0
100
AcDbBlockEnd
0
BLOCK
5
133
100
AcDbEntity
8
0
100
AcDbBlockBegin
2
DimnDraft3D7
70
0
10
0
20
0
30
0
3
DimnDraft3D7
0
MTEXT
5
12C
100
AcDbEntity
8
2
62
256
6
ByLayer
370
13
48
1
60
0
100
AcDbMText
10
90.333343
20
22.142266
30
0
210
0
220
0
230
1
1
\W0.7581;8,400
40
3.5
41
0
44
1.084337
50
90
71
7
72
5
7
iso_b_vert
0
MTEXT
5
12D
100
AcDbEntity
8
2
62
256
6
ByLayer
370
13
48
1
60
0
100
AcDbMText
10
90.333343
20
16.91961
30
0
210
0
220
0
230
1
1
%%c
40
3.5
41
0
44
1.084337
50
90
71
7
72
5
7
iso_b_vert
0
LINE
5
12E
100
AcDbEntity
8
2
62
256
6
ByLayer
370
13
48
1
60
0
100
AcDbLine
10
80.1575
20
-4.2
30
0
11
94.083343
21
-4.2
31
0
39
0
210
0
220
0
230
1
0
LINE
5
12F
100
AcDbEntity
8
2
62
256
6
ByLayer
370
13
48
1
60
0
100
AcDbLine
10
80.1575
20
4.2
30
0
11
94.083343
21
4.2
31
0
39
0
210
0
220
0
230
1
0
LINE
5
130
100
AcDbEntity
8
2
62
256
6
ByLayer
370
13
48
1
60
0
100
AcDbLine
10
92.083343
20
-4.2
30
0
11
92.083343
21
32.283056
31
0
39
0
210
0
220
0
230
1
0
SOLID
5
131
100
AcDbEntity
8
2
62
256
6
ByLayer
370
13
48
1
60
0
100
AcDbTrace
10
92.083343
20
-4.2
30
0
11
91.622559
21
-0.700002
31
0
12
92.544126
22
-0.699998
32
0
13
92.083343
23
-4.2
33
0
39
0
210
0
220
0
230
1
0
SOLID
5
132
100
AcDbEntity
8
2
62
256
6
ByLayer
370
13
48
1
60
0
100
AcDbTrace
10
92.083343
20
4.2
30
0
11
92.544126
21
0.700002
31
0
12
91.622559
22
0.699998
32
0
13
92.083343
23
4.2
33
0
39
0
210
0
220
0
230
1
0
ENDBLK
5
134
100
AcDbEntity
8
0
100
AcDbBlockEnd
0
ENDSEC
0
SECTION
2
ENTITIES
0
ARC
5
9D
100
AcDbEntity
8
1
62
256
6
ByLayer
370
18
48
1
60
0
100
AcDbCircle
39
0
10
0
20
4.2
30
0
40
0.800000000000002
210
0
220
0
230
1
100
AcDbArc
50
28.102287
51
90
0
ARC
5
9E
100
AcDbEntity
8
1
62
256
6
ByLayer
370
18
48
1
60
0
100
AcDbCircle
39
0
10
-1.411373
20
-4.953675
30
0
40
0.800000000000002
210
0
220
0
230
-1
100
AcDbArc
50
28.102287
51
90.034377
0
ARC
5
9F
100
AcDbEntity
8
1
62
256
6
ByLayer
370
18
48
1
60
0
100
AcDbCircle
39
0
10
0
20
-4.2
30
0
40
0.800000000000002
210
0
220
0
230
1
100
AcDbArc
50
270
51
331.897713
0
ARC
5
A0
100
AcDbEntity
8
1
62
256
6
ByLayer
370
18
48
1
60
0
100
AcDbCircle
39
0
10
-1.411373
20
4.953675
30
0
40
0.800000000000002
210
0
220
0
230
-1
100
AcDbArc
50
269.965623
51
331.897713
0
ELLIPSE
5
A1
100
AcDbEntity
8
1
62
256
6
ByLayer
370
18
48
1
60
0
100
AcDbEllipse
10
7.25
20
4.215199
30
0
11
0.25
21
0
31
0
210
0
220
0
230
1
40
0.999992
41
-2.86027809442035
42
-1.56551611339079
0
ELLIPSE
5
A2
100
AcDbEntity
8
1
62
256
6
ByLayer
370
18
48
1
60
0
100
AcDbEllipse
10
7.25
20
-4.215199
30
0
11
0.25
21
0
31
0
210
0
220
0
230
1
40
0.999992
41
1.56692879010124
42
2.85998497848458
0
ELLIPSE
5
A3
100
AcDbEntity
8
1
62
256
6
ByLayer
370
18
48
1
60
0
100
AcDbEllipse
10
80.000365
20
0.000917
30
0
11
1.54501554492995
21
4.19806348818773
31
0
210
0
220
0
230
-1
40
0.098637
41
2.87479340710268
42
2.97538313186147
0
ELLIPSE
5
A4
100
AcDbEntity
8
1
62
256
6
ByLayer
370
18
48
1
60
0
100
AcDbEllipse
10
80.000365
20
-0.000917
30
0
11
1.54501552665123
21
-4.1980634351447
31
0
210
0
220
0
230
-1
40
0.098637
41
-2.97538313080847
42
-2.87479340540503
0
ELLIPSE
5
A5
100
AcDbEntity
8
1
62
256
6
ByLayer
370
18
48
1
60
0
100
AcDbEllipse
10
80.034968
20
-0.018152
30
0
11
0.140634104923114
21
0.431000092563593
31
0
210
0
220
0
230
-1
40
0.07518
41
-2.31001430905977
42
-1.64841755141499
0
ELLIPSE
5
A6
100
AcDbEntity
8
1
62
256
6
ByLayer
370
18
48
1
60
0
100
AcDbEllipse
10
80.034968
20
0.018152
30
0
11
0.140634105029981
21
-0.431000092843436
31
0
210
0
220
0
230
-1
40
0.07518
41
1.64841755182599
42
2.31001430907394
0
ELLIPSE
5
A7
100
AcDbEntity
8
1
62
256
6
ByLayer
370
13
48
1
60
0
100
AcDbEllipse
10
79.614206
20
2.06321
30
0
11
2.44268295121166
21
-1.28230432645117
31
0
210
0
220
0
230
-1
40
0.495913
41
1.5423539246225
42
1.86615838100484
0
ELLIPSE
5
A8
100
AcDbEntity
8
1
62
256
6
ByLayer
370
18
48
1
60
0
100
AcDbEllipse
10
79.860212
20
0.12184
30
0
11
0.072781910493234
21
0.301917195712506
31
0
210
0
220
0
230
-1
40
0.478434
41
1.72509455568063
42
2.45976119973037
0
ELLIPSE
5
A9
100
AcDbEntity
8
1
62
256
6
ByLayer
370
13
48
1
60
0
100
AcDbEllipse
10
79.048018
20
0.603742
30
0
11
0.153082081612426
21
0.258003636193769
31
0
210
0
220
0
230
1
40
0.454519
41
0.917105603404793
42
2.31336900500032
0
ELLIPSE
5
AA
100
AcDbEntity
8
1
62
256
6
ByLayer
370
18
48
1
60
0
100
AcDbEllipse
10
79.192885
20
-2.06321
30
0
11
0.648778522040288
21
1.76283885443863
31
0
210
0
220
0
230
-1
40
0.098637
41
0.749112684717773
42
1.53143689626848
0
ELLIPSE
5
AB
100
AcDbEntity
8
1
62
256
6
ByLayer
370
18
48
1
60
0
100
AcDbEllipse
10
79.192885
20
2.06321
30
0
11
0.648778522046817
21
-1.76283885445334
31
0
210
0
220
0
230
-1
40
0.098637
41
-1.53143689626295
42
-0.749112684718391
0
ELLIPSE
5
AC
100
AcDbEntity
8
1
62
256
6
ByLayer
370
13
48
1
60
0
100
AcDbEllipse
10
79.4243
20
1.940013
30
0
11
2.36917183280673
21
-1.63124217755154
31
0
210
0
220
0
230
-1
40
0.533762
41
1.44484622739625
42
1.735373679123
0
POINT
5
6C
100
AcDbEntity
8
81
62
256
6
ByLayer
370
18
48
1
60
0
100
AcDbPoint
10
80
20
0
30
0
39
0
210
0
220
0
230
1
50
360
0
POINT
5
6E
100
AcDbEntity
8
80
62
256
6
ByLayer
370
18
48
1
60
0
100
AcDbPoint
10
0
20
0
30
0
39
0
210
0
220
0
230
1
50
360
0
POINT
5
70
100
AcDbEntity
8
SK2
62
256
6
ByLayer
370
18
48
1
60
1
100
AcDbPoint
10
-40
20
-5
30
0
39
0
210
0
220
0
230
1
50
360
0
POINT
5
72
100
AcDbEntity
8
SK2
62
256
6
ByLayer
370
18
48
1
60
1
100
AcDbPoint
10
-40
20
5
30
0
39
0
210
0
220
0
230
1
50
360
0
POINT
5
73
100
AcDbEntity
8
2
62
256
6
ByLayer
370
18
48
1
60
1
100
AcDbPoint
10
78.57
20
-4.2
30
0
39
0
210
0
220
0
230
1
50
360
0
POINT
5
75
100
AcDbEntity
8
2
62
256
6
ByLayer
370
18
48
1
60
1
100
AcDbPoint
10
78.57
20
4.2
30
0
39
0
210
0
220
0
230
1
50
360
0
SPLINE
5
AD
100
AcDbEntity
8
1
62
256
6
ByLayer
370
18
48
1
60
0
100
AcDbSpline
70
4
71
3
72
27
73
23
40
0
40
0
40
0
40
0
40
0.0816047805454809
40
0.162818735871502
40
0.227431885182197
40
0.295256230337417
40
0.368804546595405
40
0.43220894963146
40
0.509733049375737
40
0.546740026458298
40
0.575263553079672
40
0.599854671692615
40
0.640007192283028
40
0.689406408982573
40
0.729468814567976
40
0.760151263475492
40
0.813613794596783
40
0.868233007025459
40
0.893843834963563
40
0.932923324233716
40
0.988194214444637
40
1
40
1
40
1
40
1
41
1
10
52.6637002187247
20
-3.99179845878072
30
0
41
1
10
52.994712683478
20
-3.99146581742096
30
0
41
1
10
53.654959152305
20
-3.99123856721479
30
0
41
1
10
54.5704052356311
20
-3.99290623568746
30
0
41
1
10
55.4405146257508
20
-3.99419954491233
30
0
41
1
10
56.2772393729526
20
-3.99313431129167
30
0
41
1
10
57.1096809967037
20
-3.99546869521151
30
0
41
1
10
57.9813641123902
20
-3.99553252824322
30
0
41
1
10
58.7045977375107
20
-3.9943392594835
30
0
41
1
10
59.2860312000811
20
-3.99735075899522
30
0
41
1
10
59.6523305576881
20
-3.99711487604131
30
0
41
1
10
60.0314134816024
20
-3.99684708320936
30
0
41
1
10
60.4953458606706
20
-3.99609571586404
30
0
41
1
10
61.0221615154787
20
-3.99584115540421
30
0
41
1
10
61.510484350273
20
-3.99791865787464
30
0
41
1
10
62.0153245301762
20
-3.99644450814813
30
0
41
1
10
62.5793250552469
20
-3.99575352245699
30
0
41
1
10
63.1227196562753
20
-3.99577383137154
30
0
41
1
10
63.6076282501847
20
-4.00026366608057
30
0
41
1
10
64.0952056061582
20
-4.00090199289505
30
0
41
1
10
64.5266849833113
20
-4.00125672480493
30
0
41
1
10
64.7993085505939
20
-4.00071136018187
30
0
41
1
10
64.8472913105765
20
-4.00060098382551
30
0
0
SPLINE
5
AE
100
AcDbEntity
8
1
62
256
6
ByLayer
370
18
48
1
60
0
100
AcDbSpline
70
4
71
3
72
29
73
25
40
0
40
0
40
0
40
0
40
0.0115214854664668
40
0.0673478408774087
40
0.118747680468513
40
0.161017634177866
40
0.205583374793056
40
0.260525830009427
40
0.316452139255122
40
0.353085524389666
40
0.380104266142485
40
0.418859556033444
40
0.471289647403867
40
0.522576930277479
40
0.566558552797642
40
0.611568366150327
40
0.664164341289396
40
0.714064280111852
40
0.757370478066649
40
0.798854366181465
40
0.842879929037124
40
0.904265298781519
40
0.98144973322798
40
1
40
1
40
1
40
1
41
1
10
40.1042206834572
20
3.98524121638675
30
0
41
1
10
40.0661328146261
20
3.98507701161572
30
0
41
1
10
39.8428813065489
20
3.98421968567607
30
0
41
1
10
39.4268189824211
20
3.98426094199536
30
0
41
1
10
38.9293438120655
20
3.98523075559993
30
0
41
1
10
38.4532338950709
20
3.98545068790116
30
0
41
1
10
37.9676217727196
20
3.98685419040044
30
0
41
1
10
37.4344017054383
20
3.98568382548112
30
0
41
1
10
36.9286336751815
20
3.98369311251193
30
0
41
1
10
36.5185580274967
20
3.98401909466321
30
0
41
1
10
36.1673771396963
20
3.98425701954636
30
0
41
1
10
35.7620226841783
20
3.9846852754263
30
0
41
1
10
35.2734452141995
20
3.98428362184015
30
0
41
1
10
34.7669516173303
20
3.98122177103079
30
0
41
1
10
34.2858963229933
20
3.98187768522496
30
0
41
1
10
33.8003552847294
20
3.98261326356072
30
0
41
1
10
33.2945201426693
20
3.98340439122202
30
0
41
1
10
32.7945292694289
20
3.98059761114189
30
0
41
1
10
32.3326426175946
20
3.98016140487266
30
0
41
1
10
31.8908941918728
20
3.98050692162329
30
0
41
1
10
31.3871746994559
20
3.98101647292796
30
0
41
1
10
30.7609491789161
20
3.9795480161894
30
0
41
1
10
30.2223796141243
20
3.97880827394687
30
0
41
1
10
29.8938081139642
20
3.97854383493686
30
0
41
1
10
29.830172790765
20
3.97849962224771
30
0
0
SPLINE
5
AF
100
AcDbEntity
8
1
62
256
6
ByLayer
370
18
48
1
60
0
100
AcDbSpline
70
4
71
2
72
6
73
3
40
0
40
0
40
0
40
1
40
1
40
1
41
1
10
65.0026199597981
20
0.0043316372191669
30
0
41
1
10
65.0026045074698
20
0.0043375560325956
30
0
41
1
10
65.0025890551817
20
0.004343676440584
30
0
0
SPLINE
5
B0
100
AcDbEntity
8
1
62
256
6
ByLayer
370
18
48
1
60
0
100
AcDbSpline
70
4
71
3
72
28
73
24
40
0
40
0
40
0
40
0
40
0.0780327135832684
40
0.145927725387595
40
0.204732580468192
40
0.293261986520432
40
0.351321983182893
40
0.405996222324493
40
0.47148252584719
40
0.53228028546662
40
0.572136301496503
40
0.61915853346734
40
0.663935735142514
40
0.69469612069809
40
0.720537403090759
40
0.759944762029156
40
0.808307350206816
40
0.846235223416329
40
0.87747986319471
40
0.911355532197458
40
0.951627060996587
40
0.993834040515221
40
1
40
1
40
1
40
1
41
1
10
27.659187026464
20
-3.9765300109741
30
0
41
1
10
27.9831572903216
20
-3.97612720221301
30
0
41
1
10
28.5885548962394
20
-3.97579591574981
30
0
41
1
10
29.4286917428092
20
-3.97879740892864
30
0
41
1
10
30.3265651096251
20
-3.97833534242514
30
0
41
1
10
31.1799938381667
20
-3.98126033430472
30
0
41
1
10
32.0173018043212
20
-3.98029647376219
30
0
41
1
10
32.7585693727054
20
-3.98022334867196
30
0
41
1
10
33.511264398396
20
-3.98382606708387
30
0
41
1
10
34.2023152668397
20
-3.98186794791184
30
0
41
1
10
34.8165708948075
20
-3.98118519965143
30
0
41
1
10
35.3641782631686
20
-3.98501839158678
30
0
41
1
10
35.8739627172392
20
-3.98448417121682
30
0
41
1
10
36.2956443057229
20
-3.98417004359322
30
0
41
1
10
36.6949903242536
20
-3.98388257173323
30
0
41
1
10
37.167553366048
20
-3.98402870923169
30
0
41
1
10
37.6903707496517
20
-3.98693818368582
30
0
41
1
10
38.1792922421049
20
-3.98619220619076
30
0
41
1
10
38.6077885997607
20
-3.98527196992535
30
0
41
1
10
39.0466916497561
20
-3.98521499270535
30
0
41
1
10
39.5135358012325
20
-3.98380535277863
30
0
41
1
10
39.893337056683
20
-3.98447058870917
30
0
41
1
10
40.0872530176105
20
-3.98518949667314
30
0
41
1
10
40.111913658727
20
-3.98528843594113
30
0
0
SPLINE
5
B1
100
AcDbEntity
8
1
62
256
6
ByLayer
370
18
48
1
60
0
100
AcDbSpline
70
4
71
1
72
4
73
2
40
0
40
0
40
1
40
1
41
1
10
40.0035962561444
20
0.0034658106903578
30
0
41
1
10
40.003585137798
20
0.0034692881264391
30
0
0
SPLINE
5
B2
100
AcDbEntity
8
1
62
256
6
ByLayer
370
18
48
1
60
0
100
AcDbSpline
70
4
71
3
72
22
73
18
40
0
40
0
40
0
40
0
40
0.0363353752219412
40
0.137168013627502
40
0.221337331673236
40
0.280164175545485
40
0.353310092991182
40
0.451620777823312
40
0.536770954645839
40
0.607654317400042
40
0.66499851921608
40
0.697600275342544
40
0.737579121353403
40
0.786983673550935
40
0.852180491185302
40
0.933887500873154
40
1
40
1
40
1
40
1
41
1
10
14.9794403369903
20
3.9727096565336
30
0
41
1
10
14.886304494768
20
3.97246258726258
30
0
41
1
10
14.5345967372635
20
3.9716803009874
30
0
41
1
10
13.9613495866733
20
3.97315744544054
30
0
41
1
10
13.3389654403279
20
3.97246098468574
30
0
41
1
10
12.7807348640025
20
3.9722912819116
30
0
41
1
10
12.1875895473131
20
3.97237231785675
30
0
41
1
10
11.5259173469217
20
3.97160740352061
30
0
41
1
10
10.8703040837181
20
3.96901108701286
30
0
41
1
10
10.3202393358235
20
3.96927573375078
30
0
41
1
10
9.90564681493012
20
3.96953666719395
30
0
41
1
10
9.57072111574357
20
3.96975228066097
30
0
41
1
10
9.2562628466905
20
3.9698604817184
30
0
41
1
10
8.85777732872151
20
3.9697767284313
30
0
41
1
10
8.35174166971206
20
3.96917361067702
30
0
41
1
10
7.80261113610842
20
3.96763725287903
30
0
41
1
10
7.42157157765649
20
3.96598125717944
30
0
41
1
10
7.25115253156451
20
3.96512077092751
30
0
0
SPLINE
5
B3
100
AcDbEntity
8
1
62
256
6
ByLayer
370
18
48
1
60
0
100
AcDbSpline
70
4
71
2
72
6
73
3
40
0
40
0
40
0
40
1
40
1
40
1
41
1
10
77.732843695349
20
-4.00664524055929
30
0
41
1
10
78.1387531820965
20
-4.00374807236042
30
0
41
1
10
78.5446717554244
20
-4.00861443274394
30
0
0
SPLINE
5
B4
100
AcDbEntity
8
1
62
256
6
ByLayer
370
18
48
1
60
0
100
AcDbSpline
70
4
71
3
72
26
73
22
40
0
40
0
40
0
40
0
40
0.0081408008681623
40
0.068485228031668
40
0.124643241268278
40
0.167801972672572
40
0.196942851114687
40
0.232240552786433
40
0.282948208740245
40
0.356960734238549
40
0.416982215372785
40
0.483587308972915
40
0.549773445345938
40
0.597178608667582
40
0.645698081810757
40
0.702630418352108
40
0.776572022128798
40
0.840284915948087
40
0.891971669766002
40
0.96270074695613
40
1
40
1
40
1
40
1
41
1
10
65.0070743803357
20
3.99963044279537
30
0
41
1
10
64.9797795504541
20
3.99965215907304
30
0
41
1
10
64.7500561973168
20
3.99984377851942
30
0
41
1
10
64.3242497176627
20
3.99963808976929
30
0
41
1
10
63.7905363138906
20
4.00138176127521
30
0
41
1
10
63.3578955264548
20
3.99758558417238
30
0
41
1
10
62.9932410246627
20
3.99589435151017
30
0
41
1
10
62.6040105272751
20
3.99578444410926
30
0
41
1
10
62.0620750453637
20
3.99633501570983
30
0
41
1
10
61.4367266854461
20
3.99834699546892
30
0
41
1
10
60.7574571165943
20
3.99522648425903
30
0
41
1
10
60.1047091301576
20
3.9968007155573
30
0
41
1
10
59.4946629859908
20
3.99768289458944
30
0
41
1
10
58.9458498390977
20
3.9956880709864
30
0
41
1
10
58.4283643212849
20
3.99469707500222
30
0
41
1
10
57.8210502375562
20
3.99556337819038
30
0
41
1
10
57.1622832647083
20
3.99550879155149
30
0
41
1
10
56.5212880021001
20
3.99350283985433
30
0
41
1
10
55.8911664766415
20
3.99378909608151
30
0
41
1
10
55.3504703712939
20
3.99398645629989
30
0
41
1
10
54.9847424653456
20
3.99352752068151
30
0
41
1
10
54.8584832300048
20
3.99335789943908
30
0
0
SPLINE
5
B5
100
AcDbEntity
8
1
62
256
6
ByLayer
370
18
48
1
60
0
100
AcDbSpline
70
4
71
3
72
13
73
9
40
0
40
0
40
0
40
0
40
0.0146869407554528
40
0.258977384435468
40
0.469689047581381
40
0.597208561205642
40
0.72600522410175
40
1
40
1
40
1
40
1
41
1
10
41.4097374346007
20
-1.12398368250444
30
0
41
1
10
41.4097977398168
20
-1.12402491621316
30
0
41
1
10
41.4118522866539
20
-1.12515356139903
30
0
41
1
10
41.4490477127831
20
-1.14077894005803
30
0
41
1
10
41.5367868383008
20
-1.18035793697598
30
0
41
1
10
41.6243799650045
20
-1.22091587158863
30
0
41
1
10
41.7244679548452
20
-1.2679071481075
30
0
41
1
10
41.7894138966875
20
-1.29982049719737
30
0
41
1
10
41.8297935117299
20
-1.32032997098886
30
0
0
SPLINE
5
B6
100
AcDbEntity
8
1
62
256
6
ByLayer
370
18
48
1
60
0
100
AcDbSpline
70
4
71
3
72
12
73
8
40
0
40
0
40
0
40
0
40
0.176933421735414
40
0.390082783190268
40
0.534075042126501
40
0.693562987279838
40
1
40
1
40
1
40
1
41
1
10
66.4170975204454
20
-1.12654741255938
30
0
41
1
10
66.4173669642071
20
-1.12678945098622
30
0
41
1
10
66.4314370815164
20
-1.13288247939187
30
0
41
1
10
66.5011854368204
20
-1.16405129772477
30
0
41
1
10
66.603680164668
20
-1.21160180354281
30
0
41
1
10
66.7487423042148
20
-1.28084173015088
30
0
41
1
10
66.8377162437124
20
-1.3244416068631
30
0
41
1
10
66.8923083133032
20
-1.35181738233393
30
0
0
SPLINE
5
B7
100
AcDbEntity
8
1
62
256
6
ByLayer
370
18
48
1
60
0
100
AcDbSpline
70
4
71
3
72
25
73
21
40
0
40
0
40
0
40
0
40
0.0720920284866842
40
0.159974529370233
40
0.229235662901717
40
0.276434743395379
40
0.319482471883566
40
0.377084753007387
40
0.446986098427473
40
0.511904416181808
40
0.562656527347747
40
0.609149922786709
40
0.66458257793868
40
0.728390197979345
40
0.779976893710085
40
0.809436037254332
40
0.850412720082009
40
0.911991162436829
40
0.994035160327888
40
1
40
1
40
1
40
1
41
1
10
7.25114989968407
20
-3.96511312591718
30
0
41
1
10
7.43345270509562
20
-3.96603845139799
30
0
41
1
10
7.83798931633555
20
-3.96778513294191
30
0
41
1
10
8.4176846392416
20
-3.96931864404434
30
0
41
1
10
8.93441409218846
20
-3.96982280761046
30
0
41
1
10
9.33778274314079
20
-3.9698500191131
30
0
41
1
10
9.71166137491281
20
-3.96967937225716
30
0
41
1
10
10.1429560985391
20
-3.96935909813334
30
0
41
1
10
10.6295556051132
20
-3.9691303117653
30
0
41
1
10
11.0988325048537
20
-3.96964548670906
30
0
41
1
10
11.5089125969701
20
-3.97137369007234
30
0
41
1
10
11.8950068589614
20
-3.97215347894294
30
0
41
1
10
12.3141194874947
20
-3.97229035487342
30
0
41
1
10
12.7460960468464
20
-3.97233788525318
30
0
41
1
10
13.1124265110271
20
-3.97238873677134
30
0
41
1
10
13.4208423000299
20
-3.97255438374094
30
0
41
1
10
13.7546751967284
20
-3.97300083177706
30
0
41
1
10
14.2214855485553
20
-3.97359087594404
30
0
41
1
10
14.5997979504667
20
-3.97275110519479
30
0
41
1
10
14.8223074116657
20
-3.97301385153489
30
0
41
1
10
14.8373879617879
20
-3.97303240549573
30
0
0
SPLINE
5
B8
100
AcDbEntity
8
1
62
256
6
ByLayer
370
18
48
1
60
0
100
AcDbSpline
70
4
71
3
72
22
73
18
40
0
40
0
40
0
40
0
40
0.250000000000021
40
0.250000000000021
40
0.500000000000043
40
0.500000000000043
40
0.625000000000041
40
0.625000000000041
40
0.750000000000039
40
0.750000000000039
40
0.812500000000029
40
0.812500000000029
40
0.875000000000019
40
0.875000000000019
40
0.937500000000009
40
0.937500000000009
40
1
40
1
40
1
40
1
41
1
10
78.294799829817
20
1.27756777158925
30
0
41
1
10
78.4135158546492
20
1.30472668431213
30
0
41
1
10
78.5311244207071
20
1.33544675813116
30
0
41
1
10
78.762690636065
20
1.4090027990911
30
0
41
1
10
78.8775078792629
20
1.45183018481831
30
0
41
1
10
79.0407720558093
20
1.53377734596145
30
0
41
1
10
79.0939430915353
20
1.56429770604384
30
0
41
1
10
79.1933189126943
20
1.63396151046942
30
0
41
1
10
79.2396326347198
20
1.67294736334421
30
0
41
1
10
79.3002002388967
20
1.74232601187521
30
0
41
1
10
79.3183936157028
20
1.76678531096797
30
0
41
1
10
79.3499362189446
20
1.81896695028564
30
0
41
1
10
79.3633913229272
20
1.84707798713654
30
0
41
1
10
79.383371189641
20
1.90489064150739
30
0
41
1
10
79.390011652365
20
1.93464256431591
30
0
41
1
10
79.3962904383933
20
1.99592950995623
30
0
41
1
10
79.3958066572912
20
2.02723532906009
30
0
41
1
10
79.3921603595855
20
2.05778786572637
30
0
0
SPLINE
5
B9
100
AcDbEntity
8
1
62
256
6
ByLayer
370
18
48
1
60
0
100
AcDbSpline
70
4
71
3
72
67
73
63
40
0
40
0
40
0
40
0
40
0.0625000000000003
40
0.0625000000000003
40
0.125000000000001
40
0.125000000000001
40
0.250000000000001
40
0.250000000000001
40
0.375000000000002
40
0.375000000000002
40
0.500000000000003
40
0.500000000000003
40
0.562500000000003
40
0.562500000000003
40
0.625000000000003
40
0.625000000000003
40
0.656250000000004
40
0.656250000000004
40
0.671875000000004
40
0.671875000000004
40
0.679687500000003
40
0.679687500000003
40
0.683593750000003
40
0.683593750000003
40
0.687500000000004
40
0.687500000000004
40
0.689453125000004
40
0.689453125000004
40
0.691406250000005
40
0.695312500000005
40
0.703125000000006
40
0.703125000000006
40
0.718750000000007
40
0.718750000000007
40
0.750000000000007
40
0.750000000000007
40
0.765625000000007
40
0.765625000000007
40
0.773437500000007
40
0.773437500000007
40
0.781250000000007
40
0.781250000000007
40
0.796875000000007
40
0.796875000000007
40
0.804687500000007
40
0.804687500000007
40
0.812500000000006
40
0.820312500000006
40
0.820312500000006
40
0.828125000000006
40
0.828125000000006
40
0.843750000000006
40
0.843750000000006
40
0.859375000000006
40
0.859375000000006
40
0.875000000000006
40
0.875000000000006
40
0.906250000000004
40
0.906250000000004
40
0.937500000000003
40
0.937500000000003
40
1
40
1
40
1
40
1
41
1
10
17.5018245690556
20
-1.64955060649902
30
0
41
1
10
17.1825409199357
20
-1.49544245359348
30
0
41
1
10
16.8614050218254
20
-1.34139514828635
30
0
41
1
10
16.2148232848985
20
-1.03550518600932
30
0
41
1
10
15.888792715342
20
-0.883406490722223
30
0
41
1
10
14.9075212652276
20
-0.436443067178885
30
0
41
1
10
14.2500840509739
20
-0.151397523404597
30
0
41
1
10
12.9212832336354
20
0.371963949784686
30
0
41
1
10
12.2498526794823
20
0.610078857161284
30
0
41
1
10
10.8868750020547
20
1.02286772765481
30
0
41
1
10
10.1953282028253
20
1.19756172373656
30
0
41
1
10
9.14020421738945
20
1.40542116496556
30
0
41
1
10
8.78501602789413
20
1.46580832154964
30
0
41
1
10
8.07099235942445
20
1.56759669597543
30
0
41
1
10
7.71285397043857
20
1.6089424261144
30
0
41
1
10
7.17387146795528
20
1.65651743263925
30
0
41
1
10
6.99391488591056
20
1.66996683901704
30
0
41
1
10
6.72352489865554
20
1.68648387522566
30
0
41
1
10
6.63333765009605
20
1.69137848877111
30
0
41
1
10
6.49801631335583
20
1.69779496669554
30
0
41
1
10
6.45290012444173
20
1.69977967540646
30
0
41
1
10
6.38521213933782
20
1.70252459760113
30
0
41
1
10
6.36257854813772
20
1.70408486982075
30
0
41
1
10
6.31783242826702
20
1.70200310586671
30
0
41
1
10
6.29521018052563
20
1.69879179618411
30
0
41
1
10
6.26348142748617
20
1.687870511298
30
0
41
1
10
6.25372526738897
20
1.68287767309801
30
0
41
1
10
6.2339086084977
20
1.67338448485103
30
0
41
1
10
6.20423882969405
20
1.65904245717712
30
0
41
1
10
6.13540423979697
20
1.62484503749522
30
0
41
1
10
6.07710981923884
20
1.59421713612304
30
0
41
1
10
5.96155736442626
20
1.53101741802897
30
0
41
1
10
5.88586772410679
20
1.48627031241796
30
0
41
1
10
5.66588113119093
20
1.343647815211
30
0
41
1
10
5.52769887595531
20
1.23756018141049
30
0
41
1
10
5.34172254359112
20
1.05007458987865
30
0
41
1
10
5.28404577577078
20
0.983317669044879
30
0
41
1
10
5.20713065012501
20
0.876523949446806
30
0
41
1
10
5.18303605339881
20
0.839746926310511
30
0
41
1
10
5.13838160670616
20
0.763479967622914
30
0
41
1
10
5.1177634955298
20
0.723804506006104
30
0
41
1
10
5.06326387700946
20
0.602997838734836
30
0
41
1
10
5.03622300574642
20
0.519399227657601
30
0
41
1
10
5.01117327117851
20
0.388838049543978
30
0
41
1
10
5.00539985259897
20
0.344114338798249
30
0
41
1
10
4.99945644345749
20
0.254600066711021
30
0
41
1
10
4.99904058323935
20
0.165418189116252
30
0
41
1
10
5.00890094018544
20
0.076849785528907
30
0
41
1
10
5.02357000919324
20
-0.0114336460071627
30
0
41
1
10
5.03338662730911
20
-0.0556645591506708
30
0
41
1
10
5.0688345426284
20
-0.185356412969782
30
0
41
1
10
5.10037878376824
20
-0.268395705209315
30
0
41
1
10
5.17536902605713
20
-0.429304404084178
30
0
41
1
10
5.2191712079331
20
-0.507633654260502
30
0
41
1
10
5.31441515145212
20
-0.657369624287526
30
0
41
1
10
5.3657827198922
20
-0.728835672900658
30
0
41
1
10
5.5283006910729
20
-0.935524531108484
30
0
41
1
10
5.64772647101194
20
-1.06316205469062
30
0
41
1
10
5.90084199674101
20
-1.30511989133012
30
0
41
1
10
6.0323665454959
20
-1.41723841094878
30
0
41
1
10
6.4363394319297
20
-1.73528232996048
30
0
41
1
10
6.71817756369191
20
-1.92340720935869
30
0
41
1
10
7.00705764178321
20
-2.09701850769503
30
0
0
SPLINE
5
BA
100
AcDbEntity
8
1
62
256
6
ByLayer
370
18
48
1
60
0
100
AcDbSpline
70
4
71
3
72
46
73
42
40
0
40
0
40
0
40
0
40
0.0428265245170922
40
0.0428265245170922
40
0.0856530490341844
40
0.0856530490341844
40
0.171306098068369
40
0.171306098068369
40
0.256959147102553
40
0.256959147102553
40
0.278372409361099
40
0.278372409361099
40
0.299785671619645
40
0.299785671619645
40
0.342612196136736
40
0.342612196136736
40
0.428265245170919
40
0.428265245170919
40
0.471091769688011
40
0.471091769688011
40
0.492505031946557
40
0.492505031946557
40
0.513918294205102
40
0.513918294205102
40
0.599571343239288
40
0.599571343239288
40
0.685224392273474
40
0.685224392273474
40
0.728050916790567
40
0.728050916790567
40
0.770877441307659
40
0.770877441307659
40
0.856530490341845
40
0.856530490341845
40
0.942183539376031
40
0.942183539376031
40
0.963596801634577
40
0.963596801634577
40
0.985010063893124
40
0.985010063893124
40
1
40
1
40
1
40
1
41
1
10
78.5451501086454
20
-4.16450552329559
30
0
41
1
10
78.1710060779903
20
-4.18997987484477
30
0
41
1
10
77.7969684340325
20
-4.2014617449336
30
0
41
1
10
77.0478634937092
20
-4.196571420418
30
0
41
1
10
76.6724099265685
20
-4.18008751043624
30
0
41
1
10
75.5534457024481
20
-4.09000174047435
30
0
41
1
10
74.8138722539364
20
-3.97577559938949
30
0
41
1
10
73.3349017785698
20
-3.64827042702319
30
0
41
1
10
72.5953262389765
20
-3.43517008393073
30
0
41
1
10
71.6630987573476
20
-3.11380410100713
30
0
41
1
10
71.4762643308289
20
-3.04678384988841
30
0
41
1
10
71.1016130218478
20
-2.90744028924698
30
0
41
1
10
70.9140797380143
20
-2.83521363487515
30
0
41
1
10
70.3536622220813
20
-2.61257118037597
30
0
41
1
10
69.9817452244075
20
-2.45577997416646
30
0
41
1
10
68.8687973998183
20
-1.96433449236167
30
0
41
1
10
68.130583867254
20
-1.60857709787805
30
0
41
1
10
67.019906723486
20
-1.04864410423659
30
0
41
1
10
66.6490578360236
20
-0.857735979162669
30
0
41
1
10
66.0906547219017
20
-0.567156372683229
30
0
41
1
10
65.9041658507931
20
-0.469593065857794
30
0
41
1
10
65.5302816287911
20
-0.273422291275381
30
0
41
1
10
65.3425441901646
20
-0.174633762835185
30
0
41
1
10
64.4062309127033
20
0.318295384859965
30
0
41
1
10
63.6646217455219
20
0.709105949834679
30
0
41
1
10
62.184875581676
20
1.46237992406509
30
0
41
1
10
61.4459052365123
20
1.82329322086338
30
0
41
1
10
60.3308253945809
20
2.32644913052059
30
0
41
1
10
59.9578405640406
20
2.4874699231205
30
0
41
1
10
59.2077382010762
20
2.79335493516106
30
0
41
1
10
58.8338912242215
20
2.9370920985526
30
0
41
1
10
57.717840753604
20
3.3364000494937
30
0
41
1
10
56.978550483603
20
3.55985443005798
30
0
41
1
10
55.4988035849343
20
3.9109911418457
30
0
41
1
10
54.7574444218657
20
4.03789687524048
30
0
41
1
10
53.8222550372178
20
4.12953174738422
30
0
41
1
10
53.634426227983
20
4.14449650819913
30
0
41
1
10
53.2599657902588
20
4.16739852597343
30
0
41
1
10
53.0731887364293
20
4.17536436912167
30
0
41
1
10
52.756266547939
20
4.18304661003518
30
0
41
1
10
52.6259469585722
20
4.18452225167988
30
0
41
1
10
52.4957793697715
20
4.18431987806122
30
0
0
SPLINE
5
BB
100
AcDbEntity
8
1
62
256
6
ByLayer
370
18
48
1
60
0
100
AcDbSpline
70
4
71
3
72
34
73
30
40
0
40
0
40
0
40
0
40
0.0165224021880615
40
0.0165224021880615
40
0.213217921750455
40
0.213217921750455
40
0.262391801641052
40
0.262391801641052
40
0.311565681531649
40
0.311565681531649
40
0.409913441312842
40
0.409913441312842
40
0.459087321203439
40
0.459087321203439
40
0.483674261148738
40
0.483674261148738
40
0.508261201094037
40
0.508261201094037
40
0.606608960875229
40
0.606608960875229
40
0.704956720656421
40
0.704956720656421
40
0.754130600547017
40
0.754130600547017
40
0.803304480437614
40
0.803304480437614
40
0.901652240218807
40
0.901652240218807
40
1
40
1
40
1
40
1
41
1
10
29.8345957170121
20
-3.99405330156992
30
0
41
1
10
29.7089522115891
20
-4.0129472145675
30
0
41
1
10
29.5835024731485
20
-4.03031854990999
30
0
41
1
10
27.9667120597439
20
-4.23480302041301
30
0
41
1
10
26.4977311960949
20
-4.20621385508247
30
0
41
1
10
24.6286262279989
20
-3.90169096834853
30
0
41
1
10
24.2522050750559
20
-3.82710683694145
30
0
41
1
10
23.5047760899571
20
-3.65423975849748
30
0
41
1
10
23.1326750968884
20
-3.55582960788939
30
0
41
1
10
22.0189155689682
20
-3.22759716031845
30
0
41
1
10
21.2796987637181
20
-2.96486977161715
30
0
41
1
10
20.1668383498025
20
-2.51685155917343
30
0
41
1
10
19.7951600536754
20
-2.35860977909798
30
0
41
1
10
19.235463379409
20
-2.10940531983891
30
0
41
1
10
19.0485305631268
20
-2.02436989565615
30
0
41
1
10
18.6737233023458
20
-1.85066322211193
30
0
41
1
10
18.485657195923
20
-1.76189502135602
30
0
41
1
10
17.5491086547382
20
-1.31292465245147
30
0
41
1
10
16.8071330293056
20
-0.935131525030755
30
0
41
1
10
15.3251952379157
20
-0.166619184854284
30
0
41
1
10
14.5853124036788
20
0.224255597864413
30
0
41
1
10
13.4677009563944
20
0.802104351644601
30
0
41
1
10
13.093684461643
20
0.993512931870612
30
0
41
1
10
12.3424272940998
20
1.36999224166604
30
0
41
1
10
11.9687486369868
20
1.55319415594059
30
0
41
1
10
10.8512442558553
20
2.08395310649442
30
0
41
1
10
10.1112776987377
20
2.41315849748472
30
0
41
1
10
8.62785423079279
20
3.00081431756229
30
0
41
1
10
7.8844973530795
20
3.25958025511997
30
0
41
1
10
7.13408111531717
20
3.47478120488239
30
0
0
SPLINE
5
BC
100
AcDbEntity
8
1
62
256
6
ByLayer
370
18
48
1
60
0
100
AcDbSpline
70
4
71
3
72
94
73
90
40
0
40
0
40
0
40
0
40
0.022631825865705
40
0.022631825865705
40
0.037965014673403
40
0.037965014673403
40
0.0532982034811009
40
0.0532982034811009
40
0.0839645810964968
40
0.0839645810964968
40
0.114630958711893
40
0.114630958711893
40
0.145297336327288
40
0.145297336327288
40
0.160630525134986
40
0.160630525134986
40
0.175963713942684
40
0.175963713942684
40
0.20663009155808
40
0.20663009155808
40
0.221963280365778
40
0.221963280365778
40
0.237296469173476
40
0.237296469173476
40
0.267962846788872
40
0.267962846788872
40
0.283296035596569
40
0.283296035596569
40
0.298629224404267
40
0.298629224404267
40
0.329295602019662
40
0.329295602019662
40
0.359961979635058
40
0.359961979635058
40
0.375295168442756
40
0.375295168442756
40
0.390628357250453
40
0.390628357250453
40
0.421294734865849
40
0.421294734865849
40
0.436627923673547
40
0.436627923673547
40
0.451961112481245
40
0.451961112481245
40
0.467294301288942
40
0.467294301288942
40
0.48262749009664
40
0.48262749009664
40
0.513293867712035
40
0.513293867712035
40
0.54396024532743
40
0.54396024532743
40
0.559293434135127
40
0.559293434135127
40
0.574626622942825
40
0.574626622942825
40
0.605293000558219
40
0.605293000558219
40
0.620626189365917
40
0.620626189365917
40
0.635959378173614
40
0.635959378173614
40
0.666625755789008
40
0.666625755789008
40
0.697292133404402
40
0.697292133404402
40
0.758624888635188
40
0.758624888635188
40
0.773958077442885
40
0.773958077442885
40
0.789291266250582
40
0.789291266250582
40
0.819957643865975
40
0.819957643865975
40
0.835290832673672
40
0.835290832673672
40
0.850624021481368
40
0.850624021481368
40
0.881290399096762
40
0.881290399096762
40
0.911956776712155
40
0.911956776712155
40
0.942623154327548
40
0.942623154327548
40
0.957956343135245
40
0.957956343135245
40
0.973289531942941
40
0.973289531942941
40
1
40
1
40
1
40
1
41
1
10
20.6186754019147
20
2.98469821935245
30
0
41
1
10
20.852998070515
20
3.06984869403169
30
0
41
1
10
21.08734658656
20
3.15123146707492
30
0
41
1
10
21.4802270496623
20
3.28169621082654
30
0
41
1
10
21.638692654062
20
3.33288274195641
30
0
41
1
10
21.9564072929135
20
3.43075221732542
30
0
41
1
10
22.1156931214762
20
3.4774123720936
30
0
41
1
10
22.5944995257978
20
3.61102970698599
30
0
41
1
10
22.9149823076224
20
3.69164305354346
30
0
41
1
10
23.5576950784681
20
3.83628181926031
30
0
41
1
10
23.8772121629802
20
3.89992198221958
30
0
41
1
10
24.5157774310362
20
4.0059477554849
30
0
41
1
10
24.834537873618
20
4.04905586671407
30
0
41
1
10
25.311228737152
20
4.09944182601888
30
0
41
1
10
25.4698858044021
20
4.11384358660894
30
0
41
1
10
25.7865990112958
20
4.13780039051966
30
0
41
1
10
25.944752752086
20
4.14730557236209
30
0
41
1
10
26.4201773658179
20
4.16817420769598
30
0
41
1
10
26.737780424091
20
4.17214068554969
30
0
41
1
10
27.2143693819418
20
4.16335334011404
30
0
41
1
10
27.3732712960141
20
4.15795414898736
30
0
41
1
10
27.6910435745624
20
4.14208408026184
30
0
41
1
10
27.8497875448622
20
4.13156289304163
30
0
41
1
10
28.327370774334
20
4.09257743769277
30
0
41
1
10
28.6476222707143
20
4.05688896273813
30
0
41
1
10
29.1298172900514
20
3.98845653616422
30
0
41
1
10
29.2907141086092
20
3.96316559708472
30
0
41
1
10
29.6111021592604
20
3.90778279226586
30
0
41
1
10
29.7707458082152
20
3.87759878746669
30
0
41
1
10
30.2486447880274
20
3.77995691849094
30
0
41
1
10
30.5670920042823
20
3.70644497981479
30
0
41
1
10
31.2029786240427
20
3.54277872826387
30
0
41
1
10
31.5203644108199
20
3.45257271666239
30
0
41
1
10
31.9949431027553
20
3.30369347916195
30
0
41
1
10
32.1529991867947
20
3.25190939630221
30
0
41
1
10
32.4698388237425
20
3.14529294324478
30
0
41
1
10
32.6284747135917
20
3.09029334563456
30
0
41
1
10
33.1047771984077
20
2.91996472595727
30
0
41
1
10
33.4228567088313
20
2.79936886699142
30
0
41
1
10
33.9001641512079
20
2.60661255553981
30
0
41
1
10
34.0591734713717
20
2.54015966714633
30
0
41
1
10
34.3782273602244
20
2.40472618532044
30
0
41
1
10
34.5382846614615
20
2.33579054024148
30
0
41
1
10
34.8592198486667
20
2.19512465008077
30
0
41
1
10
35.0203032811746
20
2.12331811378658
30
0
41
1
10
35.3413531638283
20
1.97755573592625
30
0
41
1
10
35.5014989647638
20
1.90352661467915
30
0
41
1
10
35.980642065461
20
1.67770873945716
30
0
41
1
10
36.2979545683086
20
1.52144350114571
30
0
41
1
10
36.9335607747294
20
1.20717014215484
30
0
41
1
10
37.2511948901804
20
1.04797374376352
30
0
41
1
10
37.726717938631
20
0.804836606515437
30
0
41
1
10
37.8850703707765
20
0.723063736416577
30
0
41
1
10
38.2013608436285
20
0.557843856426615
30
0
41
1
10
38.3594249728708
20
0.474636187818419
30
0
41
1
10
38.8348329730566
20
0.226064799924444
30
0
41
1
10
39.1527669081757
20
0.0605592167684108
30
0
41
1
10
39.6303846238715
20
-0.188908813752818
30
0
41
1
10
39.7897180916616
20
-0.272252867126667
30
0
41
1
10
40.1085358370451
20
-0.439550397945965
30
0
41
1
10
40.2678997640187
20
-0.523750878048787
30
0
41
1
10
40.7477185985788
20
-0.77426458329964
30
0
41
1
10
41.0701570107275
20
-0.938825098358308
30
0
41
1
10
41.7102972377868
20
-1.26133978554469
30
0
41
1
10
42.0288022820397
20
-1.42010193842384
30
0
41
1
10
42.9804107505028
20
-1.88713764968657
30
0
41
1
10
43.6157963516131
20
-2.17540917012803
30
0
41
1
10
44.4066873011335
20
-2.51497139452138
30
0
41
1
10
44.5648385712821
20
-2.58157657364114
30
0
41
1
10
44.8820288462889
20
-2.71074522888054
30
0
41
1
10
45.0409214273522
20
-2.77354282515157
30
0
41
1
10
45.5182447914771
20
-2.95697798793572
30
0
41
1
10
45.8373365214465
20
-3.0726629882848
30
0
41
1
10
46.3166871859981
20
-3.23678570828895
30
0
41
1
10
46.4764730977493
20
-3.29005662028814
30
0
41
1
10
46.7973149680532
20
-3.39204651832029
30
0
41
1
10
46.9578085965945
20
-3.44063889378927
30
0
41
1
10
47.4382336473049
20
-3.57955126553205
30
0
41
1
10
47.7575557006872
20
-3.663136869493
30
0
41
1
10
48.3934297273531
20
-3.81326772857449
30
0
41
1
10
48.7096275818676
20
-3.87989487680954
30
0
41
1
10
49.3437305298425
20
-3.99258065291051
30
0
41
1
10
49.6609527978217
20
-4.03931746653069
30
0
41
1
10
50.1363656839752
20
-4.0953896667188
30
0
41
1
10
50.294764174179
20
-4.11172970216074
30
0
41
1
10
50.611328841974
20
-4.13961039342814
30
0
41
1
10
50.7696379497268
20
-4.15108545108245
30
0
41
1
10
51.2050589170585
20
-4.17553035772139
30
0
41
1
10
51.4826927894496
20
-4.18349304180475
30
0
41
1
10
51.7610044557891
20
-4.18388249653251
30
0
0
SPLINE
5
BD
100
AcDbEntity
8
1
62
256
6
ByLayer
370
18
48
1
60
0
100
AcDbSpline
70
4
71
3
72
30
73
26
40
0
40
0
40
0
40
0
40
0.0458021172953496
40
0.0458021172953496
40
0.105439484964392
40
0.105439484964392
40
0.165076852633435
40
0.165076852633435
40
0.284351587971516
40
0.284351587971516
40
0.403626323309597
40
0.403626323309597
40
0.522901058647677
40
0.522901058647677
40
0.582538426316718
40
0.582538426316718
40
0.642175793985758
40
0.642175793985758
40
0.76145052932384
40
0.76145052932384
40
0.82108789699288
40
0.82108789699288
40
0.88072526466192
40
0.88072526466192
40
1
40
1
40
1
40
1
41
1
10
70.6142346165059
20
2.99698832017668
30
0
41
1
10
70.7369421171965
20
3.04217500298938
30
0
41
1
10
70.8594105995846
20
3.08632209264209
30
0
41
1
10
71.1407352720957
20
3.18563844023222
30
0
41
1
10
71.2992992994231
20
3.24021625218691
30
0
41
1
10
71.616632276679
20
3.34453458722581
30
0
41
1
10
71.7753452838825
20
3.39437108628681
30
0
41
1
10
72.2512941438563
20
3.53747883905663
30
0
41
1
10
72.5683754126489
20
3.62434552079085
30
0
41
1
10
73.2012302545605
20
3.78176427661333
30
0
41
1
10
73.5166765787366
20
3.85240846311294
30
0
41
1
10
74.1507789749485
20
3.97342710688022
30
0
41
1
10
74.4687336508546
20
4.02450603139101
30
0
41
1
10
74.9463631938001
20
4.08718505337407
30
0
41
1
10
75.1056850433986
20
4.10574442873732
30
0
41
1
10
75.4244944159428
20
4.13806055087412
30
0
41
1
10
75.584142542772
20
4.15173773232351
30
0
41
1
10
76.0650969899747
20
4.18494769346972
30
0
41
1
10
76.3863160105602
20
4.1968186523153
30
0
41
1
10
76.8659428459204
20
4.19956820163142
30
0
41
1
10
77.0255786116441
20
4.19796911348229
30
0
41
1
10
77.3442484285945
20
4.18965980827963
30
0
41
1
10
77.5031765196745
20
4.18291101197067
30
0
41
1
10
77.9807697799744
20
4.1552128396888
30
0
41
1
10
78.2999185867075
20
4.12692119676137
30
0
41
1
10
78.6191843714865
20
4.08879567458703
30
0
0
SPLINE
5
BE
100
AcDbEntity
8
1
62
256
6
ByLayer
370
18
48
1
60
0
100
AcDbSpline
70
4
71
3
72
18
73
14
40
0
40
0
40
0
40
0
40
0.250000000000003
40
0.250000000000003
40
0.375000000000005
40
0.375000000000005
40
0.500000000000007
40
0.500000000000007
40
0.750000000000003
40
0.750000000000003
40
0.875000000000002
40
0.875000000000002
40
1
40
1
40
1
40
1
41
1
10
79.3921603595853
20
2.05778786572628
30
0
41
1
10
79.3284558652209
20
2.2294542946907
30
0
41
1
10
79.2645899423861
20
2.40112402612817
30
0
41
1
10
79.1685635949276
20
2.65765705455476
30
0
41
1
10
79.1365181672622
20
2.74301007019091
30
0
41
1
10
79.0723106433082
20
2.91321309058344
30
0
41
1
10
79.0401316952547
20
2.99799043980673
30
0
41
1
10
78.9435544565022
20
3.25214832823329
30
0
41
1
10
78.8791279305111
20
3.42140713239974
30
0
41
1
10
78.7820411225767
20
3.67336803902646
30
0
41
1
10
78.7495769953055
20
3.75691585245176
30
0
41
1
10
78.6844459620149
20
3.92313720896681
30
0
41
1
10
78.651855095068
20
4.00613859067812
30
0
41
1
10
78.6191843714966
20
4.08879567458578
30
0
0
SPLINE
5
BF
100
AcDbEntity
8
1
62
256
6
ByLayer
370
18
48
1
60
0
100
AcDbSpline
70
4
71
3
72
32
73
28
40
0
40
0
40
0
40
0
40
0.103199125646171
40
0.103199125646171
40
0.206398251292343
40
0.206398251292343
40
0.257997814115428
40
0.257997814115428
40
0.309597376938514
40
0.309597376938514
40
0.412796502584685
40
0.412796502584685
40
0.46439606540777
40
0.46439606540777
40
0.515995628230855
40
0.515995628230855
40
0.619194753877028
40
0.619194753877028
40
0.722393879523202
40
0.722393879523202
40
0.825593005169375
40
0.825593005169375
40
0.877192567992463
40
0.877192567992463
40
0.928792130815552
40
0.928792130815552
40
1
40
1
40
1
40
1
41
1
10
17.5018174356781
20
-1.64951997755051
30
0
41
1
10
17.8226277977766
20
-1.80550552126891
30
0
41
1
10
18.1430443040927
20
-1.95458089709243
30
0
41
1
10
18.781996870771
20
-2.24186341921865
30
0
41
1
10
19.1005387487154
20
-2.38004631369452
30
0
41
1
10
19.5762662739741
20
-2.58008673513155
30
0
41
1
10
19.7345682134417
20
-2.64541980167124
30
0
41
1
10
20.0517100905929
20
-2.7717899557133
30
0
41
1
10
20.2104031888047
20
-2.83306262432123
30
0
41
1
10
20.6865873048855
20
-3.01161015873521
30
0
41
1
10
21.0042011317407
20
-3.1236211594219
30
0
41
1
10
21.4802270496622
20
-3.28169621082648
30
0
41
1
10
21.6386926540618
20
-3.33288274195635
30
0
41
1
10
21.9564072929134
20
-3.43075221732536
30
0
41
1
10
22.1156931214761
20
-3.47741237209354
30
0
41
1
10
22.5944995257976
20
-3.61102970698593
30
0
41
1
10
22.9149823076222
20
-3.6916430535434
30
0
41
1
10
23.5576950784678
20
-3.83628181926025
30
0
41
1
10
23.87721216298
20
-3.89992198221952
30
0
41
1
10
24.5157774310359
20
-4.00594775548484
30
0
41
1
10
24.8345378736177
20
-4.04905586671404
30
0
41
1
10
25.3112287371517
20
-4.09944182601885
30
0
41
1
10
25.4698858044018
20
-4.11384358660891
30
0
41
1
10
25.7865990112955
20
-4.13780039051963
30
0
41
1
10
25.9447527520856
20
-4.14730557236206
30
0
41
1
10
26.3219243967743
20
-4.16386142009051
30
0
41
1
10
26.540932217992
20
-4.16872572845131
30
0
41
1
10
26.760076841632
20
-4.16889453764426
30
0
0
SPLINE
5
C0
100
AcDbEntity
8
1
62
256
6
ByLayer
370
18
48
1
60
0
100
AcDbSpline
70
4
71
3
72
96
73
92
40
0
40
0
40
0
40
0
40
0.0174606396427335
40
0.0174606396427335
40
0.0327769198113148
40
0.0327769198113148
40
0.0480931999798962
40
0.0480931999798962
40
0.0787257603170588
40
0.0787257603170588
40
0.109358320654222
40
0.109358320654222
40
0.139990880991384
40
0.139990880991384
40
0.155307161159965
40
0.155307161159965
40
0.170623441328547
40
0.170623441328547
40
0.201256001665708
40
0.201256001665708
40
0.216572281834289
40
0.216572281834289
40
0.23188856200287
40
0.23188856200287
40
0.26252112234003
40
0.26252112234003
40
0.293153682677191
40
0.293153682677191
40
0.323786243014351
40
0.323786243014351
40
0.354418803351511
40
0.354418803351511
40
0.369735083520091
40
0.369735083520091
40
0.385051363688671
40
0.385051363688671
40
0.400367643857251
40
0.400367643857251
40
0.415683924025831
40
0.415683924025831
40
0.431000204194411
40
0.431000204194411
40
0.44631648436299
40
0.44631648436299
40
0.47694904470015
40
0.47694904470015
40
0.507581605037309
40
0.507581605037309
40
0.538214165374469
40
0.538214165374469
40
0.553530445543048
40
0.553530445543048
40
0.568846725711627
40
0.568846725711627
40
0.584163005880206
40
0.584163005880206
40
0.599479286048785
40
0.599479286048785
40
0.614795566217364
40
0.614795566217364
40
0.630111846385944
40
0.630111846385944
40
0.660744406723101
40
0.660744406723101
40
0.691376967060258
40
0.691376967060258
40
0.752642087734572
40
0.752642087734572
40
0.767958367903151
40
0.767958367903151
40
0.78327464807173
40
0.78327464807173
40
0.813907208408887
40
0.813907208408887
40
0.829223488577466
40
0.829223488577466
40
0.844539768746045
40
0.844539768746045
40
0.875172329083203
40
0.875172329083203
40
0.905804889420362
40
0.905804889420362
40
0.936437449757521
40
0.936437449757521
40
0.951753729926099
40
0.951753729926099
40
0.967070010094678
40
0.967070010094678
40
0.997702570431837
40
0.997702570431837
40
1
40
1
40
1
40
1
41
1
10
45.6109789404467
20
2.98880400401953
30
0
41
1
10
45.7927499039911
20
3.05530720027778
30
0
41
1
10
45.9747495414214
20
3.11971121470867
30
0
41
1
10
46.3166871859968
20
3.23678570828852
30
0
41
1
10
46.4764730977481
20
3.29005662028774
30
0
41
1
10
46.797314968052
20
3.39204651831989
30
0
41
1
10
46.9578085965934
20
3.44063889378893
30
0
41
1
10
47.4382336473038
20
3.57955126553171
30
0
41
1
10
47.757555700686
20
3.66313686949266
30
0
41
1
10
48.3934297273518
20
3.81326772857423
30
0
41
1
10
48.7096275818663
20
3.87989487680929
30
0
41
1
10
49.3437305298412
20
3.99258065291028
30
0
41
1
10
49.6609527978204
20
4.03931746653049
30
0
41
1
10
50.1363656839739
20
4.09538966671863
30
0
41
1
10
50.2947641741777
20
4.1117297021606
30
0
41
1
10
50.6113288419727
20
4.13961039342803
30
0
41
1
10
50.7696379497254
20
4.15108545108237
30
0
41
1
10
51.2460279025121
20
4.1778303917107
30
0
41
1
10
51.5649519417941
20
4.18568565760552
30
0
41
1
10
52.0445809925534
20
4.18249292388913
30
0
41
1
10
52.2046726305133
20
4.17891868473819
30
0
41
1
10
52.5251888265355
20
4.16657938750572
30
0
41
1
10
52.6854799340147
20
4.15775810419643
30
0
41
1
10
53.1654031800454
20
4.12392878808507
30
0
41
1
10
53.4848995415043
20
4.09164927515954
30
0
41
1
10
54.1218186258927
20
4.00799969189313
30
0
41
1
10
54.4390521923698
20
3.95646241270319
30
0
41
1
10
55.0717200743982
20
3.8339487419064
30
0
41
1
10
55.3886846302767
20
3.76412518993229
30
0
41
1
10
56.0228975098139
20
3.60718718838314
30
0
41
1
10
56.340120408353
20
3.52004427590416
30
0
41
1
10
56.8155317421401
20
3.3751697424959
30
0
41
1
10
56.9740849800484
20
3.32466221854747
30
0
41
1
10
57.292253431783
20
3.22032537358305
30
0
41
1
10
57.4517236914548
20
3.16633516814775
30
0
41
1
10
57.7712767077686
20
3.05452725440708
30
0
41
1
10
57.9313638055584
20
2.99671462843554
30
0
41
1
10
58.2520598582364
20
2.87706196306672
30
0
41
1
10
58.4128775827624
20
2.81513815184778
30
0
41
1
10
58.7330992043168
20
2.6877125705613
30
0
41
1
10
58.8925578363886
20
2.62196953865808
30
0
41
1
10
59.2114700369615
20
2.4884912699367
30
0
41
1
10
59.3708780341127
20
2.42069518207441
30
0
41
1
10
59.8486365729457
20
2.21370382380223
30
0
41
1
10
60.1665581214864
20
2.07098120674948
30
0
41
1
10
60.8003666795709
20
1.77461476069547
30
0
41
1
10
61.115922055543
20
1.62030846678303
30
0
41
1
10
61.7495071731977
20
1.3087156020797
30
0
41
1
10
62.0668399257106
20
1.15024692329462
30
0
41
1
10
62.5429778359523
20
0.907244568628158
30
0
41
1
10
62.7017098823916
20
0.82534838144619
30
0
41
1
10
63.0191414010994
20
0.659568804921207
30
0
41
1
10
63.1779953950403
20
0.575979674169815
30
0
41
1
10
63.496861223276
20
0.409159761552132
30
0
41
1
10
63.6567283604143
20
0.325647880856963
30
0
41
1
10
63.9771741781928
20
0.158109273535587
30
0
41
1
10
64.1379962127272
20
0.073965289816158
30
0
41
1
10
64.4589923590357
20
-0.0943857649207587
30
0
41
1
10
64.6190555837832
20
-0.178530037986349
30
0
41
1
10
64.938195336463
20
-0.346981358778947
30
0
41
1
10
65.0971642353264
20
-0.431495686140238
30
0
41
1
10
65.5742251590369
20
-0.682015946622954
30
0
41
1
10
65.8921986586421
20
-0.845603021739691
30
0
41
1
10
66.5268120588787
20
-1.16849682834888
30
0
41
1
10
66.8432563234975
20
-1.32814759949926
30
0
41
1
10
67.7910618575616
20
-1.79943890727716
30
0
41
1
10
68.4268819042567
20
-2.09293795112057
30
0
41
1
10
69.2220205604804
20
-2.44155603732304
30
0
41
1
10
69.3812401283513
20
-2.51004882026831
30
0
41
1
10
69.7009255700215
20
-2.6431791561786
30
0
41
1
10
69.861281453337
20
-2.70806795493016
30
0
41
1
10
70.3433538342443
20
-2.89795389752356
30
0
41
1
10
70.663377204537
20
-3.0171162152192
30
0
41
1
10
71.1407352720935
20
-3.18563844023146
30
0
41
1
10
71.299299299421
20
-3.24021625218617
30
0
41
1
10
71.6166322766769
20
-3.3445345872251
30
0
41
1
10
71.7753452838804
20
-3.39437108628613
30
0
41
1
10
72.2512941438541
20
-3.53747883905601
30
0
41
1
10
72.5683754126466
20
-3.62434552079026
30
0
41
1
10
73.2012302545583
20
-3.78176427661279
30
0
41
1
10
73.5166765787343
20
-3.85240846311245
30
0
41
1
10
74.1507789749463
20
-3.97342710687983
30
0
41
1
10
74.4687336508523
20
-4.02450603139067
30
0
41
1
10
74.9463631937978
20
-4.08718505337376
30
0
41
1
10
75.1056850433962
20
-4.10574442873707
30
0
41
1
10
75.4244944159404
20
-4.13806055087392
30
0
41
1
10
75.5841425427697
20
-4.15173773232331
30
0
41
1
10
76.0650969899723
20
-4.18494769346961
30
0
41
1
10
76.3863160105579
20
-4.19681865231524
30
0
41
1
10
76.7300484458684
20
-4.19878916191308
30
0
41
1
10
76.7540242611275
20
-4.19887003814407
30
0
41
1
10
76.7779944739994
20
-4.19889417902326
30
0
0
SPLINE
5
C1
100
AcDbEntity
8
1
62
256
6
ByLayer
370
18
48
1
60
0
100
AcDbSpline
70
4
71
3
72
8
73
4
40
0
40
0
40
0
40
0
40
1
40
1
40
1
40
1
41
1
10
7.01816630729056
20
3.54331011586331
30
0
41
1
10
7.01067843506621
20
3.55301430303533
30
0
41
1
10
7.00669670117856
20
3.56309500263978
30
0
41
1
10
7.00669861195467
20
3.57333220934828
30
0
0
SPLINE
5
C2
100
AcDbEntity
8
1
62
256
6
ByLayer
370
18
48
1
60
0
100
AcDbSpline
70
4
71
3
72
16
73
12
40
0
40
0
40
0
40
0
40
0.183676529573457
40
0.183676529573457
40
0.367353059146914
40
0.367353059146914
40
0.734706118293828
40
0.734706118293828
40
0.918382647867286
40
0.918382647867286
40
1
40
1
40
1
40
1
41
1
10
7.00669861195467
20
3.57333220935414
30
0
41
1
10
7.00671174649736
20
3.6437021198206
30
0
41
1
10
7.00672435383856
20
3.70834280580496
30
0
41
1
10
7.00674841016405
20
3.82466279016572
30
0
41
1
10
7.00675983271046
20
3.87624060415766
30
0
41
1
10
7.00679264288442
20
4.01178439478187
30
0
41
1
10
7.00681258107647
20
4.07674646977597
30
0
41
1
10
7.00684079509776
20
4.13490838544769
30
0
41
1
10
7.00684985717473
20
4.14751626824474
30
0
41
1
10
7.00686240699213
20
4.15587023034743
30
0
41
1
10
7.00686620280007
20
4.15711185041508
30
0
41
1
10
7.00686994160983
20
4.15703181612881
30
0
0
SPLINE
5
C3
100
AcDbEntity
8
1
62
256
6
ByLayer
370
18
48
1
60
0
100
AcDbSpline
70
4
71
3
72
18
73
14
40
0
40
0
40
0
40
0
40
0.249999999999997
40
0.249999999999997
40
0.374999999999995
40
0.374999999999995
40
0.499999999999994
40
0.499999999999994
40
0.749999999999997
40
0.749999999999997
40
0.874999999999998
40
0.874999999999998
40
1
40
1
40
1
40
1
41
1
10
79.3921603595853
20
-2.05778786572628
30
0
41
1
10
79.3284558652209
20
-2.2294542946907
30
0
41
1
10
79.2645899423861
20
-2.40112402612817
30
0
41
1
10
79.1685635949276
20
-2.65765705455476
30
0
41
1
10
79.1365181672621
20
-2.74301007019091
30
0
41
1
10
79.0723106433082
20
-2.91321309058344
30
0
41
1
10
79.0401316952546
20
-2.99799043980673
30
0
41
1
10
78.9435544565022
20
-3.25214832823329
30
0
41
1
10
78.8791279305111
20
-3.42140713239976
30
0
41
1
10
78.7820411225767
20
-3.67336803902646
30
0
41
1
10
78.7495769953055
20
-3.75691585245176
30
0
41
1
10
78.6844459620149
20
-3.92313720896681
30
0
41
1
10
78.651855095068
20
-4.00613859067812
30
0
41
1
10
78.6191843714967
20
-4.08879567458581
30
0
0
SPLINE
5
C4
100
AcDbEntity
8
1
62
256
6
ByLayer
370
18
48
1
60
0
100
AcDbSpline
70
4
71
3
72
14
73
10
40
0
40
0
40
0
40
0
40
0.162718894797777
40
0.162718894797777
40
0.586444076194725
40
0.586444076194725
40
0.7983066668932
40
0.7983066668932
40
1
40
1
40
1
40
1
41
1
10
52.7112580427014
20
-3.99174308010868
30
0
41
1
10
52.4277280391873
20
-3.99124250497235
30
0
41
1
10
52.1444924426524
20
-3.98314859182543
30
0
41
1
10
51.123770678008
20
-3.92687478964021
30
0
41
1
10
50.3855884609905
20
-3.83496820959581
30
0
41
1
10
49.2700145216268
20
-3.62265522873642
30
0
41
1
10
48.8957535960072
20
-3.53929447961426
30
0
41
1
10
48.1673400138359
20
-3.35483900386154
30
0
41
1
10
47.8126628675158
20
-3.25469672250387
30
0
41
1
10
47.4580512098268
20
-3.14515984885634
30
0
0
SPLINE
5
C5
100
AcDbEntity
8
1
62
256
6
ByLayer
370
13
48
1
60
0
100
AcDbSpline
70
4
71
3
72
22
73
18
40
0
40
0
40
0
40
0
40
0.0046344812855937
40
0.0046344812855937
40
0.101187566752672
40
0.101187566752672
40
0.19774065221975
40
0.19774065221975
40
0.39084682315391
40
0.39084682315391
40
0.583952994088069
40
0.583952994088069
40
0.777059165022229
40
0.777059165022229
40
0.970165335956389
40
0.970165335956389
40
1
40
1
40
1
40
1
41
1
10
47.4580512106094
20
-3.14515984909806
30
0
41
1
10
47.440171902012
20
-3.13963706516236
30
0
41
1
10
47.4222927598943
20
-3.13409039908004
30
0
41
1
10
47.0319283322937
20
-3.01246729423573
30
0
41
1
10
46.6593399799173
20
-2.88618464194928
30
0
41
1
10
45.9124158289393
20
-2.6149747155994
30
0
41
1
10
45.538529198987
20
-2.47003146821595
30
0
41
1
10
44.4203631542609
20
-2.0134559962695
30
0
41
1
10
43.6764643364255
20
-1.67980100866177
30
0
41
1
10
42.1811895718673
20
-0.972778299861744
30
0
41
1
10
41.4353311590043
20
-0.603306189548533
30
0
41
1
10
39.9405429833323
20
0.144467024098304
30
0
41
1
10
39.2003148956194
20
0.516834202172049
30
0
41
1
10
37.7237092518101
20
1.23803507161818
30
0
41
1
10
36.9868017304598
20
1.58572020095375
30
0
41
1
10
36.131875340309
20
1.96108792321263
30
0
41
1
10
36.0173623291816
20
2.01074759738256
30
0
41
1
10
35.9027278383386
20
2.05980143088473
30
0
0
SPLINE
5
C6
100
AcDbEntity
8
1
62
256
6
ByLayer
370
18
48
1
60
0
100
AcDbSpline
70
4
71
3
72
8
73
4
40
0
40
0
40
0
40
0
40
1
40
1
40
1
40
1
41
1
10
78.5992325960462
20
-3.98303341614218
30
0
41
1
10
78.5772212626923
20
-3.99895311612508
30
0
41
1
10
78.5579876552961
20
-4.00697970086645
30
0
41
1
10
78.5415812126268
20
-4.00697268641622
30
0
0
SPLINE
5
C7
100
AcDbEntity
8
1
62
256
6
ByLayer
370
13
48
1
60
0
100
AcDbSpline
70
4
71
3
72
15
73
11
40
0
40
0
40
0
40
0
40
0.284495265882977
40
0.284495265882977
40
0.48022638633926
40
0.48022638633926
40
0.675957506795543
40
0.871688627251827
40
0.871688627251827
40
1
40
1
40
1
40
1
41
1
10
7.25053123905334
20
3.45436040080568
30
0
41
1
10
7.25060464711746
20
3.54931481252936
30
0
41
1
10
7.25067285988808
20
3.6315158281945
30
0
41
1
10
7.25078164521545
20
3.74887382081363
30
0
41
1
10
7.2508240816737
20
3.79049250887007
30
0
41
1
10
7.25090475391113
20
3.86017784718661
30
0
41
1
10
7.2509816425009
20
3.91677956717845
30
0
41
1
10
7.25105286478919
20
3.94756912914616
30
0
41
1
10
7.25111014273327
20
3.96219716209265
30
0
41
1
10
7.25113246587819
20
3.96514736519802
30
0
41
1
10
7.2511543140528
20
3.96522248668563
30
0
0
SPLINE
5
C8
100
AcDbEntity
8
1
62
256
6
ByLayer
370
18
48
1
60
0
100
AcDbSpline
70
4
71
3
72
23
73
19
40
0
40
0
40
0
40
0
40
0.0525886270587742
40
0.147329764352897
40
0.147329764352897
40
0.242070901647019
40
0.242070901647019
40
0.431553176235264
40
0.431553176235264
40
0.526294313529387
40
0.526294313529387
40
0.62103545082351
40
0.62103545082351
40
0.810517725411755
40
0.810517725411755
40
0.905258862705878
40
0.905258862705878
40
1
40
1
40
1
40
1
41
1
10
7.00686995602675
20
-4.15703146259139
30
0
41
1
10
7.00687462631552
20
-4.15692722953173
30
0
41
1
10
7.00688746125078
20
-4.15085740641948
30
0
41
1
10
7.00689972234409
20
-4.12870522822408
30
0
41
1
10
7.00691516180763
20
-4.08668041562856
30
0
41
1
10
7.00692275644593
20
-4.05867789516455
30
0
41
1
10
7.0069447990831
20
-3.9555384792892
30
0
41
1
10
7.00695859877254
20
-3.86163392361968
30
0
41
1
10
7.00697832302947
20
-3.68376091092071
30
0
41
1
10
7.0069847285196
20
-3.61825642748923
30
0
41
1
10
7.00699717993925
20
-3.47438290586254
30
0
41
1
10
7.00700313304955
20
-3.39706639017643
30
0
41
1
10
7.00702006573852
20
-3.15021894004079
30
0
41
1
10
7.00703017495374
20
-2.96563575436628
30
0
41
1
10
7.00704283552489
20
-2.65827914693224
30
0
41
1
10
7.00704663648352
20
-2.55029214080417
30
0
41
1
10
7.00705304284338
20
-2.32861812825459
30
0
41
1
10
7.0070556725172
20
-2.21445135035884
30
0
41
1
10
7.0070576418517
20
-2.09701850773809
30
0
0
SPLINE
5
C9
100
AcDbEntity
8
1
62
256
6
ByLayer
370
18
48
1
60
0
100
AcDbSpline
70
4
71
3
72
14
73
10
40
0
40
0
40
0
40
0
40
0.25
40
0.25
40
0.5
40
0.5
40
0.75
40
0.75
40
1
40
1
40
1
40
1
41
1
10
7.00705764185153
20
-2.09701850773953
30
0
41
1
10
7.01316675118986
20
-2.0715846605388
30
0
41
1
10
7.02351733785454
20
-2.04780705024879
30
0
41
1
10
7.05442201610811
20
-2.00880562817392
30
0
41
1
10
7.07505572190877
20
-1.99413472505637
30
0
41
1
10
7.12238677878872
20
-1.97970631750869
30
0
41
1
10
7.14901728335187
20
-1.9798748926718
30
0
41
1
10
7.20174705244574
20
-1.99217587696239
30
0
41
1
10
7.22731820583016
20
-2.00375641073458
30
0
41
1
10
7.25187438875219
20
-2.01880279900735
30
0
0
SPLINE
5
CA
100
AcDbEntity
8
1
62
256
6
ByLayer
370
18
48
1
60
0
100
AcDbSpline
70
4
71
3
72
12
73
8
40
0
40
0
40
0
40
0
40
0.249999999999998
40
0.249999999999998
40
0.499999999999996
40
0.499999999999996
40
1
40
1
40
1
40
1
41
1
10
78.5805980292946
20
-4.06896325119709
30
0
41
1
10
78.5854414783903
20
-4.05589042250935
30
0
41
1
10
78.5900117897303
20
-4.04261272100149
30
0
41
1
10
78.5974118701823
20
-4.01874112840625
30
0
41
1
10
78.6002226235854
20
-4.00818078004482
30
0
41
1
10
78.6049985820891
20
-3.98453360984479
30
0
41
1
10
78.6033887427221
20
-3.98002748246685
30
0
41
1
10
78.5992325960461
20
-3.98303341614215
30
0
0
SPLINE
5
CB
100
AcDbEntity
8
1
62
256
6
ByLayer
370
13
48
1
60
0
100
AcDbSpline
70
4
71
3
72
21
73
17
40
0
40
0
40
0
40
0
40
0.032306768911802
40
0.032306768911802
40
0.225845415129442
40
0.225845415129442
40
0.419384061347081
40
0.419384061347081
40
0.516153384455901
40
0.516153384455901
40
0.612922707564721
40
0.709692030673541
40
0.709692030673541
40
0.806461353782361
40
0.806461353782361
40
1
40
1
40
1
40
1
41
1
10
7.25115537325379
20
-3.96522387568581
30
0
41
1
10
7.2511664921004
20
-3.96521478892089
30
0
41
1
10
7.25117748726569
20
-3.96445988583213
30
0
41
1
10
7.2512533773409
20
-3.95393839653803
30
0
41
1
10
7.2513137231187
20
-3.91860202783431
30
0
41
1
10
7.25142967151749
20
-3.7963082079475
30
0
41
1
10
7.25148559314044
20
-3.70829719852617
30
0
41
1
10
7.25156450151565
20
-3.53995546389848
30
0
41
1
10
7.25159013987451
20
-3.47744454909739
30
0
41
1
10
7.25163923628793
20
-3.34162357398219
30
0
41
1
10
7.25168618428833
20
-3.1950860654762
30
0
41
1
10
7.25172843302155
20
-3.0275079117753
30
0
41
1
10
7.2517678824035
20
-2.84928591259228
30
0
41
1
10
7.25178627917413
20
-2.75433790210676
30
0
41
1
10
7.25183532444183
20
-2.45856700461945
30
0
41
1
10
7.25186022024536
20
-2.24617495014479
30
0
41
1
10
7.25187438875216
20
-2.0188027998048
30
0
0
SPLINE
5
CC
100
AcDbEntity
8
1
62
256
6
ByLayer
370
18
48
1
60
0
100
AcDbSpline
70
4
71
3
72
16
73
12
40
0
40
0
40
0
40
0
40
0.261113267450162
40
0.261113267450162
40
0.47496847567564
40
0.47496847567564
40
0.688823683901118
40
0.688823683901118
40
0.902678892126597
40
0.902678892126597
40
1
40
1
40
1
40
1
41
1
10
77.7291237752132
20
-4.00663841252856
30
0
41
1
10
77.2749042064696
20
-4.00638153226313
30
0
41
1
10
76.8210248601882
20
-3.98645849879821
30
0
41
1
10
75.9940621711723
20
-3.91500365325226
30
0
41
1
10
75.6205516547702
20
-3.8697384034233
30
0
41
1
10
74.8744640767935
20
-3.75412557004606
30
0
41
1
10
74.502234028233
20
-3.68387970585457
30
0
41
1
10
73.7579284034574
20
-3.51983254084098
30
0
41
1
10
73.3858267402148
20
-3.42600960078835
30
0
41
1
10
72.8433766260982
20
-3.27329408594994
30
0
41
1
10
72.6734761030631
20
-3.22318326478208
30
0
41
1
10
72.5036638718925
20
-3.17094425567152
30
0
0
SPLINE
5
CD
100
AcDbEntity
8
1
62
256
6
ByLayer
370
13
48
1
60
0
100
AcDbSpline
70
4
71
3
72
26
73
22
40
0
40
0
40
0
40
0
40
0.0528181357602196
40
0.0528181357602196
40
0.246674412798889
40
0.246674412798889
40
0.440530689837558
40
0.440530689837558
40
0.488994759097225
40
0.488994759097225
40
0.537458828356893
40
0.537458828356893
40
0.634386966876227
40
0.634386966876227
40
0.731315105395562
40
0.731315105395562
40
0.779779174655229
40
0.779779174655229
40
0.828243243914896
40
0.828243243914896
40
1
40
1
40
1
40
1
41
1
10
72.5036638718888
20
-3.17094425567035
30
0
41
1
10
72.3003275554356
20
-3.10839229687156
30
0
41
1
10
72.0971178328462
20
-3.04278891837413
30
0
41
1
10
71.1513633694551
20
-2.72392124081054
30
0
41
1
10
70.4140449668116
20
-2.43647118030881
30
0
41
1
10
68.9396136502116
20
-1.80770578380569
30
0
41
1
10
68.2026070955374
20
-1.46617390464155
30
0
41
1
10
67.2746583360477
20
-1.01744131278571
30
0
41
1
10
67.0887305265355
20
-0.926619459743364
30
0
41
1
10
66.7159939793548
20
-0.743206009775463
30
0
41
1
10
66.529044281561
20
-0.650538690133885
30
0
41
1
10
65.9693649730034
20
-0.371801026508962
30
0
41
1
10
65.5969724251446
20
-0.184603732416065
30
0
41
1
10
64.852184849961
20
0.189620166061786
30
0
41
1
10
64.4798010876547
20
0.376669446763657
30
0
41
1
10
63.9200832488666
20
0.654831561092067
30
0
41
1
10
63.7330679147499
20
0.74723728483184
30
0
41
1
10
63.3599532283262
20
0.930382673271623
30
0
41
1
10
63.1738828138145
20
1.02113583169995
30
0
41
1
10
62.3300312675099
20
1.42869048771567
30
0
41
1
10
61.6760186250253
20
1.73215502339133
30
0
41
1
10
61.0226815991563
20
2.0154612892751
30
0
0
SPLINE
5
CE
100
AcDbEntity
8
1
62
256
6
ByLayer
370
18
48
1
60
0
100
AcDbSpline
70
4
71
3
72
22
73
18
40
0
40
0
40
0
40
0
40
0.075142250734933
40
0.075142250734933
40
0.295503888958086
40
0.295503888958086
40
0.40568470806966
40
0.40568470806966
40
0.515865527181235
40
0.515865527181235
40
0.736227165404375
40
0.736227165404375
40
0.846407984515947
40
0.846407984515947
40
0.956588803627519
40
0.956588803627519
40
1
40
1
40
1
40
1
41
1
10
27.7088303015766
20
-3.97657336958358
30
0
41
1
10
27.5826776157832
20
-3.97633232332564
30
0
41
1
10
27.4564359563485
20
-3.97459058852624
30
0
41
1
10
26.9595255222845
20
-3.96180894262909
30
0
41
1
10
26.5879144890811
20
-3.93934656859884
30
0
41
1
10
26.0278461168797
20
-3.88608641280877
30
0
41
1
10
25.8406336707742
20
-3.86504188517543
30
0
41
1
10
25.4670463304884
20
-3.81668698343984
30
0
41
1
10
25.2804423723748
20
-3.7893585874574
30
0
41
1
10
24.7209186072745
20
-3.69810315787717
30
0
41
1
10
24.3482427297208
20
-3.62497996050999
30
0
41
1
10
23.7886797276779
20
-3.49769882716498
30
0
41
1
10
23.6020723189525
20
-3.45232903165677
30
0
41
1
10
23.2284961809823
20
-3.35586640893146
30
0
41
1
10
23.0412887299565
20
-3.30470125993969
30
0
41
1
10
22.7809710241427
20
-3.22979823411777
30
0
41
1
10
22.7074622690623
20
-3.20823274338599
30
0
41
1
10
22.6340155737418
20
-3.18628084603131
30
0
0
SPLINE
5
CF
100
AcDbEntity
8
1
62
256
6
ByLayer
370
13
48
1
60
0
100
AcDbSpline
70
4
71
3
72
26
73
22
40
0
40
0
40
0
40
0
40
0.17140421703874
40
0.17140421703874
40
0.361536437610186
40
0.361536437610186
40
0.456602547895907
40
0.456602547895907
40
0.504135603038768
40
0.504135603038768
40
0.551668658181629
40
0.551668658181629
40
0.646734768467348
40
0.646734768467348
40
0.694267823610209
40
0.694267823610209
40
0.741800878753069
40
0.741800878753069
40
0.931933099324512
40
0.931933099324512
40
1
40
1
40
1
40
1
41
1
10
22.6340155760305
20
-3.18628084671539
30
0
41
1
10
21.9618097451758
20
-2.98537060385027
30
0
41
1
10
21.2948023194496
20
-2.75209320114033
30
0
41
1
10
19.8903108699953
20
-2.20555262984411
30
0
41
1
10
19.1529569635359
20
-1.88657931001651
30
0
41
1
10
18.0404844600293
20
-1.3749699154483
30
0
41
1
10
17.6685691821351
20
-1.19893765073653
30
0
41
1
10
17.1080516703157
20
-0.928495695637707
30
0
41
1
10
16.9208598170605
20
-0.837343281518258
30
0
41
1
10
16.5472706093898
20
-0.654229894539071
30
0
41
1
10
16.3606449615576
20
-0.562155266394967
30
0
41
1
10
15.8010119473236
20
-0.284904621549202
30
0
41
1
10
15.4282699198776
20
-0.0986611966903865
30
0
41
1
10
14.8685302927682
20
0.180509029369489
30
0
41
1
10
14.6818436664655
20
0.273528777879051
30
0
41
1
10
14.3080715732187
20
0.459120517464868
30
0
41
1
10
14.1207918457101
20
0.551787143116286
30
0
41
1
10
13.1873328937281
20
1.01090635361632
30
0
41
1
10
12.4474802214787
20
1.3663721098265
30
0
41
1
10
11.4440953680319
20
1.81779212748106
30
0
41
1
10
11.1797697146009
20
1.93398490770093
30
0
41
1
10
10.9153479183316
20
2.04686177829026
30
0
0
SPLINE
5
D0
100
AcDbEntity
8
1
62
256
6
ByLayer
370
18
48
1
60
0
100
AcDbSpline
70
4
71
3
72
82
73
78
40
0
40
0
40
0
40
0
40
0.0101649904828802
40
0.0101649904828802
40
0.0427446794743988
40
0.0427446794743988
40
0.0753243684659173
40
0.0753243684659173
40
0.107904057457436
40
0.107904057457436
40
0.140483746448955
40
0.140483746448955
40
0.173063435440473
40
0.173063435440473
40
0.205643124431992
40
0.205643124431992
40
0.221932968927751
40
0.221932968927751
40
0.23822281342351
40
0.23822281342351
40
0.27080250241503
40
0.27080250241503
40
0.303382191406549
40
0.303382191406549
40
0.319672035902309
40
0.319672035902309
40
0.335961880398068
40
0.335961880398068
40
0.368541569389588
40
0.368541569389588
40
0.384831413885348
40
0.384831413885348
40
0.401121258381108
40
0.401121258381108
40
0.433700947372627
40
0.433700947372627
40
0.466280636364147
40
0.466280636364147
40
0.498860325355666
40
0.498860325355666
40
0.531440014347186
40
0.531440014347186
40
0.564019703338706
40
0.564019703338706
40
0.580309547834466
40
0.580309547834466
40
0.596599392330226
40
0.596599392330226
40
0.629179081321748
40
0.629179081321748
40
0.66175877031327
40
0.66175877031327
40
0.694338459304792
40
0.694338459304792
40
0.726918148296314
40
0.726918148296314
40
0.759497837287835
40
0.759497837287835
40
0.775787681783596
40
0.775787681783596
40
0.792077526279357
40
0.792077526279357
40
0.82465721527088
40
0.82465721527088
40
0.857236904262403
40
0.857236904262403
40
0.889816593253926
40
0.889816593253926
40
0.922396282245449
40
0.922396282245449
40
0.938686126741211
40
0.938686126741211
40
0.954975971236973
40
0.954975971236973
40
0.987555660228499
40
0.987555660228499
40
1
40
1
40
1
40
1
41
1
10
70.6203027023726
20
-2.99923766638415
30
0
41
1
10
70.5169688697988
20
-3.03367724840692
30
0
41
1
10
70.4135779953156
20
-3.06735002323435
30
0
41
1
10
69.9785448377606
20
-3.20563893461798
30
0
41
1
10
69.6463536052976
20
-3.30307935961875
30
0
41
1
10
68.9848811277141
20
-3.48082219291277
30
0
41
1
10
68.654345665594
20
-3.56050339042949
30
0
41
1
10
67.9926953520734
20
-3.69909545014778
30
0
41
1
10
67.6616352638516
20
-3.75718728256842
30
0
41
1
10
66.9992089675722
20
-3.85711000308939
30
0
41
1
10
66.66743100541
20
-3.89801530807441
30
0
41
1
10
66.0048906200288
20
-3.96002328409386
30
0
41
1
10
65.6738488159991
20
-3.98138716314588
30
0
41
1
10
65.0125418124671
20
-4.0032618299667
30
0
41
1
10
64.6819051451703
20
-4.0035546966582
30
0
41
1
10
64.1842945853408
20
-3.98740755837073
30
0
41
1
10
64.0181653959759
20
-3.97926762967967
30
0
41
1
10
63.6865388254463
20
-3.95750482299462
30
0
41
1
10
63.5209448002726
20
-3.94338374853396
30
0
41
1
10
63.0247230492392
20
-3.89273229554109
30
0
41
1
10
62.6942814917743
20
-3.85128076899591
30
0
41
1
10
62.0321851284237
20
-3.74956728367215
30
0
41
1
10
61.7008405046287
20
-3.68995089791895
30
0
41
1
10
61.2032583571857
20
-3.58273563783712
30
0
41
1
10
61.037434127237
20
-3.54397194020436
30
0
41
1
10
60.7060480388539
20
-3.463515920578
30
0
41
1
10
60.540368625326
20
-3.42143245476251
30
0
41
1
10
60.0434188189315
20
-3.28888162953135
30
0
41
1
10
59.7122449169474
20
-3.19220160383043
30
0
41
1
10
59.2156454091781
20
-3.03329838113311
30
0
41
1
10
59.0502119248956
20
-2.97748015742729
30
0
41
1
10
58.7190679025857
20
-2.86234671408349
30
0
41
1
10
58.5532712797998
20
-2.80351396478591
30
0
41
1
10
58.0551753579762
20
-2.62210423971095
30
0
41
1
10
57.723277316781
20
-2.4949588811435
30
0
41
1
10
57.0609968137285
20
-2.22674626617544
30
0
41
1
10
56.7307521227191
20
-2.084541974487
30
0
41
1
10
56.0685446723173
20
-1.79387283861578
30
0
41
1
10
55.7369030242192
20
-1.64450420249548
30
0
41
1
10
55.0726160548281
20
-1.3357547937764
30
0
41
1
10
54.7419566186083
20
-1.17612692091447
30
0
41
1
10
54.0799812769187
20
-0.854319300008626
30
0
41
1
10
53.7488366847455
20
-0.691921540954667
30
0
41
1
10
53.2520257564679
20
-0.445348428861337
30
0
41
1
10
53.086401548449
20
-0.36267106070639
30
0
41
1
10
52.7551472708842
20
-0.196190173746459
30
0
41
1
10
52.5893377149691
20
-0.112482201909529
30
0
41
1
10
52.0915302554929
20
0.137675299379964
30
0
41
1
10
51.7598689975721
20
0.303346426336816
30
0
41
1
10
51.0972702587579
20
0.632759387238139
30
0
41
1
10
50.766695723025
20
0.797173373342986
30
0
41
1
10
50.1044274625739
20
1.12001787658505
30
0
41
1
10
49.7721629399702
20
1.27850423540789
30
0
41
1
10
49.1080062474897
20
1.58876260202268
30
0
41
1
10
48.7770145591013
20
1.74068286548129
30
0
41
1
10
48.1152759022001
20
2.03353883388368
30
0
41
1
10
47.7841136821629
20
2.17389973887819
30
0
41
1
10
47.2868807052595
20
2.37696005535915
30
0
41
1
10
47.1210603370027
20
2.44327828269957
30
0
41
1
10
46.7892980306005
20
2.57296089683317
30
0
41
1
10
46.6233356917319
20
2.63646862083391
30
0
41
1
10
46.1260815883633
20
2.82057156735019
30
0
41
1
10
45.7948299664814
20
2.93451773046948
30
0
41
1
10
45.1323483378146
20
3.14877495418258
30
0
41
1
10
44.8013624031128
20
3.24877837275514
30
0
41
1
10
44.1392456284058
20
3.43130054859921
30
0
41
1
10
43.806849060561
20
3.51180642110217
30
0
41
1
10
43.1428379073493
20
3.65664664823839
30
0
41
1
10
42.8113438325587
20
3.72091522446883
30
0
41
1
10
42.3149667692172
20
3.80216915260766
30
0
41
1
10
42.149474473804
20
3.82670373283267
30
0
41
1
10
41.8182080706397
20
3.86962524148302
30
0
41
1
10
41.6524408418873
20
3.88805350582277
30
0
41
1
10
41.1547233710626
20
3.93697213179442
30
0
41
1
10
40.8219672041635
20
3.96116892303641
30
0
41
1
10
40.363918629098
20
3.980014216256
30
0
41
1
10
40.2373735716208
20
3.98359872960631
30
0
41
1
10
40.1108506285628
20
3.98553990727763
30
0
0
SPLINE
5
D1
100
AcDbEntity
8
1
62
256
6
ByLayer
370
18
48
1
60
0
100
AcDbSpline
70
4
71
3
72
30
73
26
40
0
40
0
40
0
40
0
40
0.0027701369257096
40
0.0027701369257096
40
0.0581717959853919
40
0.0581717959853919
40
0.113573455045075
40
0.113573455045075
40
0.224376773164441
40
0.224376773164441
40
0.279778432224124
40
0.279778432224124
40
0.335180091283806
40
0.335180091283806
40
0.445983409403172
40
0.445983409403172
40
0.556786727522538
40
0.556786727522538
40
0.667590045641904
40
0.667590045641904
40
0.77839336376127
40
0.77839336376127
40
0.889196681880635
40
0.889196681880635
40
1
40
1
40
1
40
1
41
1
10
20.6152049192439
20
-2.98376927541349
30
0
41
1
10
20.6068969585914
20
-2.98650967828445
30
0
41
1
10
20.5985892985691
20
-2.98924504441638
30
0
41
1
10
20.4241385571617
20
-3.04658046272792
30
0
41
1
10
20.2581767118608
20
-3.09912812992269
30
0
41
1
10
19.926686160624
20
-3.1998971598903
30
0
41
1
10
19.7611901041627
20
-3.24825973968996
30
0
41
1
10
19.2643007125521
20
-3.38705260180899
30
0
41
1
10
18.9326920730315
20
-3.47126298521991
30
0
41
1
10
18.4347760395709
20
-3.5837032726435
30
0
41
1
10
18.26871093817
20
-3.61887685623449
30
0
41
1
10
17.9364155163933
20
-3.68432861348651
30
0
41
1
10
17.7703826222342
20
-3.71451760700276
30
0
41
1
10
17.2727959982405
20
-3.79758004949792
30
0
41
1
10
16.9411567794414
20
-3.84370526361081
30
0
41
1
10
16.2781911701345
20
-3.91593857264425
30
0
41
1
10
15.947018715571
20
-3.94151437306289
30
0
41
1
10
15.2843219984172
20
-3.97124711314515
30
0
41
1
10
14.9515816991228
20
-3.97609790885275
30
0
41
1
10
14.2868495929893
20
-3.96632686892647
30
0
41
1
10
13.9552988620365
20
-3.95090101741746
30
0
41
1
10
13.2934213821707
20
-3.89845502801614
30
0
41
1
10
12.9623196967497
20
-3.86242828200883
30
0
41
1
10
12.2992722791752
20
-3.77081790853097
30
0
41
1
10
11.9673369434246
20
-3.71535595463865
30
0
41
1
10
11.6349729807866
20
-3.64885552245002
30
0
0
SPLINE
5
D2
100
AcDbEntity
8
1
62
256
6
ByLayer
370
18
48
1
60
0
100
AcDbSpline
70
4
71
3
72
8
73
4
40
0
40
0
40
0
40
0
40
1
40
1
40
1
40
1
41
1
10
78.5451501086454
20
4.16450552329559
30
0
41
1
10
78.1980337232534
20
4.18813964306082
30
0
41
1
10
77.8508389826065
20
4.1997413911559
30
0
41
1
10
77.5030698339784
20
4.19932783503091
30
0
0
SPLINE
5
D3
100
AcDbEntity
8
1
62
256
6
ByLayer
370
18
48
1
60
0
100
AcDbSpline
70
4
71
3
72
44
73
40
40
0
40
0
40
0
40
0
40
0.0295798203175722
40
0.0295798203175722
40
0.0704360935959275
40
0.0704360935959275
40
0.111292366874283
40
0.111292366874283
40
0.193004913430992
40
0.193004913430992
40
0.233861186709347
40
0.233861186709347
40
0.254289323348524
40
0.254289323348524
40
0.274717459987702
40
0.274717459987702
40
0.438142553101125
40
0.438142553101125
40
0.47899882637948
40
0.47899882637948
40
0.519855099657835
40
0.519855099657835
40
0.601567646214545
40
0.601567646214545
40
0.6424239194929
40
0.6424239194929
40
0.662852056132077
40
0.662852056132077
40
0.683280192771255
40
0.683280192771255
40
0.764992739327963
40
0.764992739327963
40
0.846705285884671
40
0.846705285884671
40
0.887561559163025
40
0.887561559163025
40
0.928417832441378
40
0.928417832441378
40
1
40
1
40
1
40
1
41
1
10
54.8186383271925
20
-4.01086596022225
30
0
41
1
10
54.5488319071468
20
-4.05127948133301
30
0
41
1
10
54.278284412595
20
-4.08489244006324
30
0
41
1
10
53.631680624896
20
-4.14814273325936
30
0
41
1
10
53.2579148631726
20
-4.17091233619232
30
0
41
1
10
52.5135183923675
20
-4.18890503275418
30
0
41
1
10
52.1426038323046
20
-4.18417748411741
30
0
41
1
10
51.0316875336882
20
-4.12937370476644
30
0
41
1
10
50.2926857257209
20
-4.03889147118926
30
0
41
1
10
49.1785580083042
20
-3.82523824523326
30
0
41
1
10
48.8060848127495
20
-3.74112046262215
30
0
41
1
10
48.244549893048
20
-3.59620768112481
30
0
41
1
10
48.0565944447669
20
-3.54469249140985
30
0
41
1
10
47.6820567407232
20
-3.43616368507324
30
0
41
1
10
47.4952900502034
20
-3.3790985776206
30
0
41
1
10
45.8176303408143
20
-2.84204827457614
30
0
41
1
10
44.3492272612623
20
-2.19782954435306
30
0
41
1
10
42.481593937381
20
-1.27835450075878
30
0
41
1
10
42.1052866467579
20
-1.08840426070958
30
0
41
1
10
41.3579294044734
20
-0.705264623108064
30
0
41
1
10
40.9859625157276
20
-0.511481218076256
30
0
41
1
10
39.872665761337
20
0.0715622406432885
30
0
41
1
10
39.1336796377294
20
0.462008880391636
30
0
41
1
10
38.0214820779373
20
1.03372676355073
30
0
41
1
10
37.6500109931281
20
1.22174517919856
30
0
41
1
10
37.0906234637018
20
1.49786540213859
30
0
41
1
10
36.9037997184625
20
1.58892518330896
30
0
41
1
10
36.5292675250153
20
1.76876835348781
30
0
41
1
10
36.3413016364188
20
1.85765724844362
30
0
41
1
10
35.4050818108833
20
2.2922761892878
30
0
41
1
10
34.6631885356994
20
2.61007734627384
30
0
41
1
10
33.1819539264397
20
3.17004645211975
30
0
41
1
10
32.4422505138614
20
3.41169152767409
30
0
41
1
10
31.3253719084383
20
3.70526659755947
30
0
41
1
10
30.9517039147495
20
3.79160378873365
30
0
41
1
10
30.2006278682198
20
3.93913715198559
30
0
41
1
10
29.827129796199
20
3.99958460649708
30
0
41
1
10
28.8026910942709
20
4.12893278932609
30
0
41
1
10
28.1542325537971
20
4.16981559150193
30
0
41
1
10
27.5053981716321
20
4.16919657393325
30
0
0
SPLINE
5
D4
100
AcDbEntity
8
1
62
256
6
ByLayer
370
18
48
1
60
0
100
AcDbSpline
70
4
71
3
72
82
73
78
40
0
40
0
40
0
40
0
40
0.025177702234603
40
0.025177702234603
40
0.0574983109183045
40
0.0574983109183045
40
0.0898189196020061
40
0.0898189196020061
40
0.122139528285708
40
0.122139528285708
40
0.154460136969409
40
0.154460136969409
40
0.17062044131126
40
0.17062044131126
40
0.186780745653111
40
0.186780745653111
40
0.219101354336812
40
0.219101354336812
40
0.251421963020514
40
0.251421963020514
40
0.283742571704215
40
0.283742571704215
40
0.316063180387916
40
0.316063180387916
40
0.348383789071617
40
0.348383789071617
40
0.380704397755318
40
0.380704397755318
40
0.413025006439019
40
0.413025006439019
40
0.44534561512272
40
0.44534561512272
40
0.46150591946457
40
0.46150591946457
40
0.477666223806421
40
0.477666223806421
40
0.509986832490122
40
0.509986832490122
40
0.526147136831972
40
0.526147136831972
40
0.542307441173823
40
0.542307441173823
40
0.574628049857525
40
0.574628049857525
40
0.590788354199376
40
0.590788354199376
40
0.606948658541228
40
0.606948658541228
40
0.639269267224931
40
0.639269267224931
40
0.655429571566783
40
0.655429571566783
40
0.671589875908635
40
0.671589875908635
40
0.703910484592341
40
0.703910484592341
40
0.736231093276046
40
0.736231093276046
40
0.768551701959751
40
0.768551701959751
40
0.800872310643457
40
0.800872310643457
40
0.833192919327162
40
0.833192919327162
40
0.865513528010867
40
0.865513528010867
40
0.88167383235272
40
0.88167383235272
40
0.897834136694573
40
0.897834136694573
40
0.930154745378278
40
0.930154745378278
40
0.962475354061983
40
0.962475354061983
40
0.994795962745688
40
0.994795962745688
40
1
40
1
40
1
40
1
41
1
10
14.8409713761749
20
3.97302679197878
30
0
41
1
10
15.0998388262894
20
3.97345366901308
30
0
41
1
10
15.3582706924703
20
3.96793922608464
30
0
41
1
10
15.9474596177821
20
3.94148183578295
30
0
41
1
10
16.2786759299609
20
3.9159006878254
30
0
41
1
10
16.9421266511778
20
3.84358462651088
30
0
41
1
10
17.2743934233697
20
3.79735199620254
30
0
41
1
10
17.9386109406659
20
3.68639631298419
30
0
41
1
10
18.2700302013103
20
3.62092189024227
30
0
41
1
10
18.9331173560677
20
3.47115149025456
30
0
41
1
10
19.2645552100988
20
3.38698639092368
30
0
41
1
10
19.7614955623309
20
3.24817197674844
30
0
41
1
10
19.9270590480263
20
3.19978790470535
30
0
41
1
10
20.2588037762629
20
3.09893339974943
30
0
41
1
10
20.4250801253837
20
3.04627885790964
30
0
41
1
10
20.9236537050714
20
2.88239278404339
30
0
41
1
10
21.2554447631119
20
2.76543487027095
30
0
41
1
10
21.9179371979562
20
2.51757422177297
30
0
41
1
10
22.248689864043
20
2.38724222048816
30
0
41
1
10
22.9119543780344
20
2.11446039183704
30
0
41
1
10
23.2444966492575
20
1.97178044470567
30
0
41
1
10
23.908765464677
20
1.67634200933821
30
0
41
1
10
24.2398803316208
20
1.52397653414641
30
0
41
1
10
24.9028134043072
20
1.21357361514561
30
0
41
1
10
25.2343288997327
20
1.05484593570091
30
0
41
1
10
25.8974909821306
20
0.731544963005774
30
0
41
1
10
26.229381962518
20
0.566431152893557
30
0
41
1
10
26.8935984325997
20
0.236458600367911
30
0
41
1
10
27.2252101036425
20
0.0710954120517329
30
0
41
1
10
27.8877313612309
20
-0.259976460043106
30
0
41
1
10
28.2183914052384
20
-0.426186466263999
30
0
41
1
10
28.7156314899822
20
-0.672287042371835
30
0
41
1
10
28.8815132208205
20
-0.753923209374733
30
0
41
1
10
29.2136788432524
20
-0.916066966483356
30
0
41
1
10
29.3800069281394
20
-0.996599118444919
30
0
41
1
10
29.877971347435
20
-1.23600540242938
30
0
41
1
10
30.2088445297237
20
-1.39345820152965
30
0
41
1
10
30.7057106904049
20
-1.62304925007058
30
0
41
1
10
30.8713615790042
20
-1.6986680729672
30
0
41
1
10
31.2027593066146
20
-1.84728952113531
30
0
41
1
10
31.3685246594314
20
-1.92022716038991
30
0
41
1
10
31.8660674746972
20
-2.13510953546205
30
0
41
1
10
32.1982096624074
20
-2.27393136325807
30
0
41
1
10
32.6960470478354
20
-2.47277556933344
30
0
41
1
10
32.8619561561075
20
-2.53771686194818
30
0
41
1
10
33.1935907785325
20
-2.66446611690728
30
0
41
1
10
33.3593347573378
20
-2.72557291063214
30
0
41
1
10
33.8564472854336
20
-2.90300648825391
30
0
41
1
10
34.1873923090794
20
-3.01391793700776
30
0
41
1
10
34.6849053104241
20
-3.16874449384326
30
0
41
1
10
34.8509638705525
20
-3.21840121792721
30
0
41
1
10
35.1833439750219
20
-3.31447074802045
30
0
41
1
10
35.3494635477724
20
-3.36090472552433
30
0
41
1
10
35.8470894090664
20
-3.49061153117915
30
0
41
1
10
36.1779071027312
20
-3.56757892709848
30
0
41
1
10
36.8398304578079
20
-3.7030428528509
30
0
41
1
10
37.1712584612926
20
-3.76182299740103
30
0
41
1
10
37.8346624772025
20
-3.86106390701244
30
0
41
1
10
38.1669739216705
20
-3.89913008888428
30
0
41
1
10
38.8296316301866
20
-3.95497577474535
30
0
41
1
10
39.1610589267116
20
-3.97279684257117
30
0
41
1
10
39.8236076510885
20
-3.99091341227196
30
0
41
1
10
40.1547075529423
20
-3.98853038388927
30
0
41
1
10
40.8177644048554
20
-3.9614319774177
30
0
41
1
10
41.15042965376
20
-3.9373194253366
30
0
41
1
10
41.6480099828055
20
-3.88852561973889
30
0
41
1
10
41.813742551658
20
-3.87014864965201
30
0
41
1
10
42.144969061247
20
-3.8273411947589
30
0
41
1
10
42.3104576742795
20
-3.8028599529024
30
0
41
1
10
42.8068523783117
20
-3.72174316619055
30
0
41
1
10
43.1384035476461
20
-3.6575427670827
30
0
41
1
10
43.802629349536
20
-3.51279708699136
30
0
41
1
10
44.1348713870602
20
-3.43241981027029
30
0
41
1
10
44.7968736269966
20
-3.25010118113698
30
0
41
1
10
45.1278515641421
20
-3.15016376543611
30
0
41
1
10
45.5124867436228
20
-3.02584211644145
30
0
41
1
10
45.5658307561191
20
-3.00842366119724
30
0
41
1
10
45.6191774072413
20
-2.99081980031198
30
0
0
SPLINE
5
D5
100
AcDbEntity
8
1
62
256
6
ByLayer
370
18
48
1
60
0
100
AcDbSpline
70
4
71
3
72
28
73
24
40
0
40
0
40
0
40
0
40
0.0322200970319177
40
0.0322200970319177
40
0.128998087328726
40
0.128998087328726
40
0.225776077625534
40
0.225776077625534
40
0.322554067922342
40
0.322554067922342
40
0.419332058219151
40
0.419332058219151
40
0.516110048515959
40
0.516110048515959
40
0.612888038812767
40
0.612888038812767
40
0.709666029109575
40
0.709666029109575
40
0.806444019406384
40
0.806444019406384
40
0.903222009703192
40
0.903222009703192
40
1
40
1
40
1
40
1
41
1
10
65.0096269598061
20
3.99973149087245
30
0
41
1
10
65.1197225102051
20
3.99848918056119
30
0
41
1
10
65.229793979849
20
3.9960519247835
30
0
41
1
10
65.6705482986952
20
3.98156597955625
30
0
41
1
10
66.0017459399145
20
3.96026148835293
30
0
41
1
10
66.6648614502242
20
3.89831142474617
30
0
41
1
10
66.9968788083845
20
3.85741646657851
30
0
41
1
10
67.6588701493332
20
3.75764906296368
30
0
41
1
10
67.98984695925
20
3.69963440256643
30
0
41
1
10
68.6517022633328
20
3.56111429588913
30
0
41
1
10
68.982512737544
20
3.48142489611311
30
0
41
1
10
69.6448427792303
20
3.3035188354142
30
0
41
1
10
69.977151767614
20
3.20605548475007
30
0
41
1
10
70.6398972508616
20
2.99543351537872
30
0
41
1
10
70.9707967950008
20
2.88199710890706
30
0
41
1
10
71.6320221490108
20
2.6401282482224
30
0
41
1
10
71.9631125000376
20
2.51299547881166
30
0
41
1
10
72.6265823795557
20
2.24617211309766
30
0
41
1
10
72.9586078989334
20
2.10623644109631
30
0
41
1
10
73.6200931773748
20
1.81520969123744
30
0
41
1
10
73.9507100337917
20
1.66539582998982
30
0
41
1
10
74.6125978415339
20
1.35815571052635
30
0
41
1
10
74.943776887305
20
1.20020798567731
30
0
41
1
10
75.2752440028738
20
1.03851775394986
30
0
0
SPLINE
5
D6
100
AcDbEntity
8
1
62
256
6
ByLayer
370
18
48
1
60
0
100
AcDbSpline
70
4
71
3
72
22
73
18
40
0
40
0
40
0
40
0
40
0.125000000000002
40
0.125000000000002
40
0.187500000000001
40
0.187500000000001
40
0.25
40
0.25
40
0.5
40
0.5
40
0.625
40
0.625
40
0.75
40
0.75
40
0.875
40
0.875
40
1
40
1
40
1
40
1
41
1
10
78.5415812126233
20
-4.00697268641622
30
0
41
1
10
78.4806773862983
20
-4.00694904917512
30
0
41
1
10
78.4228299411242
20
-3.99769659375542
30
0
41
1
10
78.3408908396638
20
-3.96922736739233
30
0
41
1
10
78.3143853073206
20
-3.9572993546692
30
0
41
1
10
78.2630606213384
20
-3.92835126718137
30
0
41
1
10
78.2382102755269
20
-3.91127984311473
30
0
41
1
10
78.120114852777
20
-3.8141268187027
30
0
41
1
10
78.0435589920359
20
-3.69855218497361
30
0
41
1
10
77.9573870110668
20
-3.46464982861531
30
0
41
1
10
77.9334225510888
20
-3.37566122288058
30
0
41
1
10
77.8971611067873
20
-3.18192173131533
30
0
41
1
10
77.8846161156383
20
-3.0768312729283
30
0
41
1
10
77.8706544344361
20
-2.85027245233857
30
0
41
1
10
77.8692358891255
20
-2.72880682058198
30
0
41
1
10
77.8780292600653
20
-2.46875860641003
30
0
41
1
10
77.8881958322553
20
-2.33243073323999
30
0
41
1
10
77.9038432853956
20
-2.19113938919531
30
0
0
SPLINE
5
D7
100
AcDbEntity
8
1
62
256
6
ByLayer
370
18
48
1
60
0
100
AcDbSpline
70
4
71
3
72
8
73
4
40
0
40
0
40
0
40
0
40
1
40
1
40
1
40
1
41
1
10
78.5451501086454
20
-4.16450552329556
30
0
41
1
10
78.5569775271952
20
-4.13267198797078
30
0
41
1
10
78.5687937222777
20
-4.10082395223256
30
0
41
1
10
78.5805980293085
20
-4.0689632512028
30
0
0
SPLINE
5
D8
100
AcDbEntity
8
1
62
256
6
ByLayer
370
18
48
1
60
0
100
AcDbSpline
70
4
71
3
72
18
73
14
40
0
40
0
40
0
40
0
40
0.124999999999998
40
0.124999999999998
40
0.249999999999996
40
0.249999999999996
40
0.499999999999998
40
0.499999999999998
40
0.624999999999998
40
0.624999999999998
40
0.749999999999999
40
0.749999999999999
40
1
40
1
40
1
40
1
41
1
10
75.2752440028736
20
1.03851775394958
30
0
41
1
10
75.3360766550019
20
0.874562994377243
30
0
41
1
10
75.4073148102073
20
0.713569899984009
30
0
41
1
10
75.5672326533109
20
0.396548005538421
30
0
41
1
10
75.6559409022608
20
0.240527334672464
30
0
41
1
10
75.9453655566043
20
-0.220902944295062
30
0
41
1
10
76.1601703449608
20
-0.506204620878748
30
0
41
1
10
76.5052640705223
20
-0.910325910416731
30
0
41
1
10
76.6242242761912
20
-1.04097473460879
30
0
41
1
10
76.869217381247
20
-1.29496691557225
30
0
41
1
10
76.9944808366639
20
-1.41748221012321
30
0
41
1
10
77.375082930265
20
-1.77075037593573
30
0
41
1
10
77.6362512854308
20
-1.98858341910642
30
0
41
1
10
77.9038432853956
20
-2.19113938919529
30
0
0
SPLINE
5
D9
100
AcDbEntity
8
1
62
256
6
ByLayer
370
18
48
1
60
0
100
AcDbSpline
70
2053
71
3
72
62
73
58
40
0
40
0
40
0
40
0
40
0.0312499999999992
40
0.0312499999999992
40
0.0624999999999984
40
0.0624999999999984
40
0.0937499999999975
40
0.0937499999999975
40
0.124999999999997
40
0.124999999999997
40
0.156249999999996
40
0.156249999999996
40
0.187499999999995
40
0.187499999999995
40
0.218749999999994
40
0.218749999999994
40
0.249999999999993
40
0.249999999999993
40
0.281249999999993
40
0.281249999999993
40
0.312499999999992
40
0.312499999999992
40
0.37499999999999
40
0.37499999999999
40
0.437499999999988
40
0.437499999999988
40
0.468749999999989
40
0.468749999999989
40
0.499999999999991
40
0.499999999999991
40
0.531249999999992
40
0.531249999999992
40
0.562499999999993
40
0.562499999999993
40
0.593749999999994
40
0.593749999999994
40
0.624999999999995
40
0.624999999999995
40
0.656249999999996
40
0.656249999999996
40
0.687499999999998
40
0.687499999999998
40
0.718749999999999
40
0.718749999999999
40
0.75
40
0.75
40
0.812500000000002
40
0.812500000000002
40
0.843750000000002
40
0.843750000000002
40
0.875000000000001
40
0.875000000000001
40
0.906250000000001
40
0.906250000000001
40
0.937500000000001
40
0.937500000000001
40
1
40
1
40
1
40
1
41
1
10
78.7398886083133
20
-1.55111653267597
30
0
41
1
10
78.7171366703506
20
-1.58339206849715
30
0
41
1
10
78.6948441343312
20
-1.61800349754404
30
0
41
1
10
78.6512537549856
20
-1.69228409399136
30
0
41
1
10
78.6297234812218
20
-1.73243357286745
30
0
41
1
10
78.5891170133186
20
-1.81626927289443
30
0
41
1
10
78.5701159579189
20
-1.85968907737038
30
0
41
1
10
78.5350871171549
20
-1.94995810557637
30
0
41
1
10
78.5194011913639
20
-1.99608425929714
30
0
41
1
10
78.4931633582033
20
-2.08668178518619
30
0
41
1
10
78.48228697245
20
-2.13243223772565
30
0
41
1
10
78.4667071856201
20
-2.218582043884
30
0
41
1
10
78.4618483848078
20
-2.25937093317208
30
0
41
1
10
78.4580249866345
20
-2.33504521421548
30
0
41
1
10
78.4590802624709
20
-2.36881372346889
30
0
41
1
10
78.4664810359646
20
-2.42909622770719
30
0
41
1
10
78.4728232735515
20
-2.45511107322801
30
0
41
1
10
78.4897595089703
20
-2.49858396315781
30
0
41
1
10
78.5005088028857
20
-2.51635894533231
30
0
41
1
10
78.5252396367694
20
-2.54352274666161
30
0
41
1
10
78.5392518102245
20
-2.55309940233985
30
0
41
1
10
78.5858175657615
20
-2.57081335315388
30
0
41
1
10
78.6217613396542
20
-2.56772714308815
30
0
41
1
10
78.7012050243922
20
-2.53508415712869
30
0
41
1
10
78.7433343516138
20
-2.5061480621672
30
0
41
1
10
78.8097578828285
20
-2.44419785874348
30
0
41
1
10
78.8323778558865
20
-2.42040932683901
30
0
41
1
10
78.8772817918703
20
-2.36778925910966
30
0
41
1
10
78.8997445437618
20
-2.33880321026851
30
0
41
1
10
78.9446935406653
20
-2.27500131464146
30
0
41
1
10
78.9674101774661
20
-2.23977308812656
30
0
41
1
10
79.0112355577743
20
-2.16513183899073
30
0
41
1
10
79.0324402059927
20
-2.12565932293407
30
0
41
1
10
79.0732275286678
20
-2.04178476425366
30
0
41
1
10
79.092656661437
20
-1.9975808252822
30
0
41
1
10
79.1276822862538
20
-1.90793523580587
30
0
41
1
10
79.1437173993505
20
-1.86128438425831
30
0
41
1
10
79.1704384280694
20
-1.77000954488048
30
0
41
1
10
79.1812463529907
20
-1.72529206897954
30
0
41
1
10
79.1973853582103
20
-1.63783095171362
30
0
41
1
10
79.2023536810456
20
-1.5969480805835
30
0
41
1
10
79.2063851438452
20
-1.52140583433072
30
0
41
1
10
79.2053733145369
20
-1.48685103212111
30
0
41
1
10
79.1980113730128
20
-1.42677196132902
30
0
41
1
10
79.1915875337883
20
-1.40056289251729
30
0
41
1
10
79.1659311875798
20
-1.33555152693717
30
0
41
1
10
79.1400587867857
20
-1.30906259949415
30
0
41
1
10
79.0934985344716
20
-1.29192631281998
30
0
41
1
10
79.0764529239431
20
-1.28990754386777
30
0
41
1
10
79.0405697274617
20
-1.29284386698717
30
0
41
1
10
79.0217040207677
20
-1.29773093690645
30
0
41
1
10
78.9822192586767
20
-1.31399191117961
30
0
41
1
10
78.9614412712939
20
-1.32549417738718
30
0
41
1
10
78.9191336071502
20
-1.35446658506416
30
0
41
1
10
78.8975617948307
20
-1.37190861082644
30
0
41
1
10
78.8315833327674
20
-1.43316639556574
30
0
41
1
10
78.7853924842386
20
-1.48656546103362
30
0
41
1
10
78.7398886083132
20
-1.55111653267597
30
0
0
SPLINE
5
DA
100
AcDbEntity
8
1
62
256
6
ByLayer
370
18
48
1
60
0
100
AcDbSpline
70
4
71
3
72
14
73
10
40
0
40
0
40
0
40
0
40
0.110929214680805
40
0.110929214680805
40
0.476427534370994
40
0.476427534370994
40
0.841925854061184
40
0.841925854061184
40
1
40
1
40
1
40
1
41
1
10
39.9754434748638
20
0.017903372537404
30
0
41
1
10
40.2012101944679
20
-0.0979098662898252
30
0
41
1
10
40.4275159295754
20
-0.214054172732659
30
0
41
1
10
41.4024522413229
20
-0.713021839674013
30
0
41
1
10
42.1486283482993
20
-1.0900094892626
30
0
41
1
10
43.6447342344486
20
-1.80871073016775
30
0
41
1
10
44.3888888449304
20
-2.14651366737468
30
0
41
1
10
45.4572962637393
20
-2.58591741172606
30
0
41
1
10
45.7807773607209
20
-2.71284675089495
30
0
41
1
10
46.1040629475626
20
-2.83262886104794
30
0
0
SPLINE
5
DB
100
AcDbEntity
8
1
62
256
6
ByLayer
370
13
48
1
60
0
100
AcDbSpline
70
4
71
3
72
20
73
16
40
0
40
0
40
0
40
0
40
0.0188288446443736
40
0.0188288446443736
40
0.158278988139143
40
0.158278988139143
40
0.297729131633912
40
0.297729131633912
40
0.437179275128682
40
0.437179275128682
40
0.716079562118221
40
0.716079562118221
40
0.99497984910776
40
0.99497984910776
40
1
40
1
40
1
40
1
41
1
10
46.1040620099919
20
-2.83262851366402
30
0
41
1
10
46.1545264658639
20
-2.85132634600913
30
0
41
1
10
46.2049861578056
20
-2.86985002328572
30
0
41
1
10
46.6290847964174
20
-3.02405451516762
30
0
41
1
10
47.0018476883283
20
-3.1501172408357
30
0
41
1
10
47.747173520813
20
-3.38088011424517
30
0
41
1
10
48.1198782545198
20
-3.48547427312005
30
0
41
1
10
48.8666464986046
20
-3.6712983156705
30
0
41
1
10
49.2411275213602
20
-3.75262288819852
30
0
41
1
10
50.3570096013189
20
-3.95753721977263
30
0
41
1
10
51.0952005608796
20
-4.04275979918825
30
0
41
1
10
52.5702968017046
20
-4.10808635191407
30
0
41
1
10
53.308018031229
20
-4.08830147532356
30
0
41
1
10
54.0643545171447
20
-4.01379029588682
30
0
41
1
10
54.0777296031862
20
-4.01245575914396
30
0
41
1
10
54.0911066300396
20
-4.01110416255119
30
0
0
SPLINE
5
DC
100
AcDbEntity
8
1
62
256
6
ByLayer
370
18
48
1
60
0
100
AcDbSpline
70
4
71
3
72
16
73
12
40
0
40
0
40
0
40
0
40
0.250000000000001
40
0.250000000000001
40
0.500000000000002
40
0.500000000000002
40
0.750000000000003
40
0.750000000000003
40
0.875000000000001
40
0.875000000000001
40
1
40
1
40
1
40
1
41
1
10
7.25187439006297
20
-2.01880279981052
30
0
41
1
10
7.59768074718448
20
-2.23068983172163
30
0
41
1
10
7.95266152795313
20
-2.41669586280284
30
0
41
1
10
8.67444620805605
20
-2.7523009037094
30
0
41
1
10
9.0425538121265
20
-2.90188027706512
30
0
41
1
10
9.77856021631646
20
-3.16675775872787
30
0
41
1
10
10.1475945162816
20
-3.28249763626869
30
0
41
1
10
10.7033808291174
20
-3.43505373763574
30
0
41
1
10
10.889022677101
20
-3.48237808689498
30
0
41
1
10
11.2612356894382
20
-3.57063647211601
30
0
41
1
10
11.4478013498494
20
-3.61163217016645
30
0
41
1
10
11.6349758077321
20
-3.64882644304149
30
0
0
SPLINE
5
DD
100
AcDbEntity
8
1
62
256
6
ByLayer
370
18
48
1
60
0
100
AcDbSpline
70
4
71
3
72
10
73
6
40
0
40
0
40
0
40
0
40
0.5
40
0.5
40
1
40
1
40
1
40
1
41
1
10
7.13408111531692
20
3.47478120488248
30
0
41
1
10
7.10780709831459
20
3.48231594777374
30
0
41
1
10
7.08457883629694
20
3.4921246772071
30
0
41
1
10
7.04486179516869
20
3.51569885585604
30
0
41
1
10
7.02920669436955
20
3.52900191461993
30
0
41
1
10
7.01816630728987
20
3.54331011586387
30
0
0
SPLINE
5
DE
100
AcDbEntity
8
1
62
256
6
ByLayer
370
18
48
1
60
0
100
AcDbSpline
70
4
71
3
72
78
73
74
40
0
40
0
40
0
40
0
40
0.0127371530551545
40
0.0127371530551545
40
0.0554980826865357
40
0.0554980826865357
40
0.0982590123179169
40
0.0982590123179169
40
0.269302730843442
40
0.269302730843442
40
0.312063660474823
40
0.312063660474823
40
0.333444125290513
40
0.333444125290513
40
0.344134357698359
40
0.34547063674934
40
0.34547063674934
40
0.345804706512085
40
0.345804706512085
40
0.34613877627483
40
0.34613877627483
40
0.34680691580032
40
0.34680691580032
40
0.349479473902282
40
0.349479473902282
40
0.354824590106204
40
0.354824590106204
40
0.376205054921896
40
0.376205054921896
40
0.397585519737587
40
0.397585519737587
40
0.440346449368969
40
0.440346449368969
40
0.525868308631734
40
0.525868308631734
40
0.611390167894499
40
0.611390167894499
40
0.63277063271019
40
0.63277063271019
40
0.643460865118036
40
0.643460865118036
40
0.654151097525882
40
0.654151097525882
40
0.655487376576862
40
0.655487376576862
40
0.656155516102353
40
0.656155516102353
40
0.656489585865098
40
0.656489585865098
40
0.65665662074647
40
0.65665662074647
40
0.656823655627843
40
0.656823655627843
40
0.659496213729805
40
0.664841329933728
40
0.664841329933728
40
0.675531562341576
40
0.675531562341576
40
0.696912027157271
40
0.696912027157271
40
0.78243388642005
40
0.78243388642005
40
0.82519481605144
40
0.82519481605144
40
0.86795574568283
40
0.86795574568283
40
0.91071667531422
40
0.91071667531422
40
0.932097140129914
40
0.932097140129914
40
0.953477604945609
40
0.953477604945609
40
1
40
1
40
1
40
1
41
1
10
15.4709742329128
20
-0.738915795774005
30
0
41
1
10
15.4273335323375
20
-0.723293302977424
30
0
41
1
10
15.3837095009027
20
-0.708022709990104
30
0
41
1
10
15.1936737709239
20
-0.643082199724461
30
0
41
1
10
15.0473452029138
20
-0.597178281814195
30
0
41
1
10
14.7541765825482
20
-0.514725962789555
30
0
41
1
10
14.6070907894059
20
-0.478126842220803
30
0
41
1
10
13.871040785091
20
-0.321710815765528
30
0
41
1
10
13.2997794157631
20
-0.28637575497612
30
0
41
1
10
12.5752745030321
20
-0.356996684000649
30
0
41
1
10
12.42967125498
20
-0.376863816710568
30
0
41
1
10
12.2106437593622
20
-0.415088044075986
30
0
41
1
10
12.1376458193562
20
-0.429209245752048
30
0
41
1
10
12.0281225264878
20
-0.452414566331328
30
0
41
1
10
11.9870541063779
20
-0.461494287824536
30
0
41
1
10
11.9459818157663
20
-0.470994069992656
30
0
41
1
10
11.9402773509203
20
-0.472319935770571
30
0
41
1
10
11.9388162215528
20
-0.472347503558069
30
0
41
1
10
11.9372875646005
20
-0.473454093603181
30
0
41
1
10
11.9385741152421
20
-0.474382108250211
30
0
41
1
10
11.9410252556834
20
-0.4763900754389
30
0
41
1
10
11.9429373492466
20
-0.477579823868126
30
0
41
1
10
11.9525931639733
20
-0.483477937314262
30
0
41
1
10
11.960958896147
20
-0.487797913517625
30
0
41
1
10
11.9860147450891
20
-0.500708216518518
30
0
41
1
10
12.003094526562
20
-0.509043967845116
30
0
41
1
10
12.0887888667064
20
-0.550438192043117
30
0
41
1
10
12.1586092942399
20
-0.582600965535136
30
0
41
1
10
12.2983733733245
20
-0.64694675314189
30
0
41
1
10
12.3685091004948
20
-0.678981781346465
30
0
41
1
10
12.5792570390813
20
-0.775050278800876
30
0
41
1
10
12.7202245672727
20
-0.839040584811869
30
0
41
1
10
13.1436643786905
20
-1.03155008649549
30
0
41
1
10
13.4264738933759
20
-1.16094300537461
30
0
41
1
10
13.9920694183818
20
-1.42346891979784
30
0
41
1
10
14.274715287099
20
-1.55649243550522
30
0
41
1
10
14.62587543516
20
-1.72840613187344
30
0
41
1
10
14.6959907200667
20
-1.76308113229317
30
0
41
1
10
14.8006905249334
20
-1.81607693034127
30
0
41
1
10
14.8355202321988
20
-1.83390238443928
30
0
41
1
10
14.9047694331031
20
-1.87028145803694
30
0
41
1
10
14.9395306941671
20
-1.88826458905484
30
0
41
1
10
14.9768352060948
20
-1.91147937164968
30
0
41
1
10
14.9809479808889
20
-1.91411198182027
30
0
41
1
10
14.9869309696876
20
-1.9183674800361
30
0
41
1
10
14.98890615499
20
-1.91982488804362
30
0
41
1
10
14.991679967225
20
-1.92229918727745
30
0
41
1
10
14.9926062161141
20
-1.92315405363868
30
0
41
1
10
14.993603804871
20
-1.92471331879523
30
0
41
1
10
14.9939508129236
20
-1.92543410769278
30
0
41
1
10
14.9931393006469
20
-1.92647745075769
30
0
41
1
10
14.9925130097968
20
-1.92679341084604
30
0
41
1
10
14.9835573874416
20
-1.93372910129375
30
0
41
1
10
14.9582690521172
20
-1.95330559736828
30
0
41
1
10
14.932976109606
20
-1.97285841207878
30
0
41
1
10
14.8823801552217
20
-2.0119273455999
30
0
41
1
10
14.8486466328284
20
-2.03791627957176
30
0
41
1
10
14.7474112953018
20
-2.11566558690922
30
0
41
1
10
14.6798077791132
20
-2.16725976204316
30
0
41
1
10
14.3419892682006
20
-2.42253111191306
30
0
41
1
10
14.0727783578873
20
-2.6180486124243
30
0
41
1
10
13.6608742161666
20
-2.88580483162156
30
0
41
1
10
13.5224142428923
20
-2.97055734548837
30
0
41
1
10
13.2458430968622
20
-3.12661425334122
30
0
41
1
10
13.1071555071767
20
-3.1982963040719
30
0
41
1
10
12.8275007555479
20
-3.3276079763468
30
0
41
1
10
12.6865299257286
20
-3.38523159854952
30
0
41
1
10
12.4723964343247
20
-3.46043563978441
30
0
41
1
10
12.4005742576803
20
-3.48363585929104
30
0
41
1
10
12.2559079752942
20
-3.52624216299435
30
0
41
1
10
12.1829226775966
20
-3.54567292120649
30
0
41
1
10
11.9517545503846
20
-3.60080912924013
30
0
41
1
10
11.7934866922496
20
-3.62901070809258
30
0
41
1
10
11.6349610806529
20
-3.64885701227976
30
0
0
SPLINE
5
DF
100
AcDbEntity
8
1
62
256
6
ByLayer
370
18
48
1
60
0
100
AcDbSpline
70
4
71
3
72
16
73
12
40
0
40
0
40
0
40
0
40
0.24999999999998
40
0.24999999999998
40
0.499999999999961
40
0.499999999999961
40
0.624999999999951
40
0.624999999999951
40
0.749999999999941
40
0.749999999999941
40
1
40
1
40
1
40
1
41
1
10
78.1772159268861
20
0.959782363044781
30
0
41
1
10
78.1669149186533
20
0.989934948149482
30
0
41
1
10
78.1593333734958
20
1.02121646626625
30
0
41
1
10
78.1515275746606
20
1.0855443341546
30
0
41
1
10
78.1509633870011
20
1.11884830887246
30
0
41
1
10
78.1626813380883
20
1.16659167966537
30
0
41
1
10
78.1685149437864
20
1.18175226491135
30
0
41
1
10
78.1848618122308
20
1.21024874431779
30
0
41
1
10
78.1952561440862
20
1.22318338664442
30
0
41
1
10
78.2315839980865
20
1.25616978574092
30
0
41
1
10
78.262706380325
20
1.27022568618034
30
0
41
1
10
78.294799829817
20
1.2775677715893
30
0
0
SPLINE
5
E0
100
AcDbEntity
8
1
62
256
6
ByLayer
370
18
48
1
60
0
100
AcDbSpline
70
4
71
3
72
20
73
16
40
0
40
0
40
0
40
0
40
0.0030483188021508
40
0.0030483188021508
40
0.172396420710625
40
0.172396420710625
40
0.257070471664863
40
0.257070471664863
40
0.341744522619102
40
0.341744522619102
40
0.511092624527581
40
0.511092624527581
40
0.849788828344539
40
0.849788828344539
40
1
40
1
40
1
40
1
41
1
10
14.9922577088329
20
0.0093125527700693
30
0
41
1
10
14.9989786519801
20
0.0058762661277001
30
0
41
1
10
15.005699443759
20
0.0024400143744003
30
0
41
1
10
15.3857827554635
20
-0.191893335167606
30
0
41
1
10
15.7586957742093
20
-0.382648378782989
30
0
41
1
10
16.3186315149699
20
-0.666135753892007
30
0
41
1
10
16.505365542202
20
-0.760201128709781
30
0
41
1
10
16.8791865104137
20
-0.947128711934795
30
0
41
1
10
17.0665136576108
20
-1.04011191679163
30
0
41
1
10
17.6273470093171
20
-1.31572501583835
30
0
41
1
10
17.9993838839864
20
-1.4947891198353
30
0
41
1
10
19.1121520875128
20
-2.01413435794072
30
0
41
1
10
19.8495275109015
20
-2.33659849019028
30
0
41
1
10
20.9158819427885
20
-2.75403336990914
30
0
41
1
10
21.2437904624149
20
-2.87570933058524
30
0
41
1
10
21.5724919901307
20
-2.99001849798503
30
0
0
SPLINE
5
E1
100
AcDbEntity
8
1
62
256
6
ByLayer
370
13
48
1
60
0
100
AcDbSpline
70
4
71
3
72
22
73
18
40
0
40
0
40
0
40
0
40
0.164014310597002
40
0.164014310597002
40
0.237695316114322
40
0.237695316114322
40
0.311376321631642
40
0.311376321631642
40
0.458738332666278
40
0.458738332666278
40
0.532419338183595
40
0.532419338183595
40
0.606100343700913
40
0.606100343700913
40
0.753462354735549
40
0.753462354735549
40
1
40
1
40
1
40
1
41
1
10
21.5724929347336
20
-2.99001882647988
30
0
41
1
10
21.9849474168469
20
-3.13345388359457
30
0
41
1
10
22.3986505080451
20
-3.26528976483962
30
0
41
1
10
23.0014723378918
20
-3.43727709115296
30
0
41
1
10
23.1888073652354
20
-3.48791295937824
30
0
41
1
10
23.5626018718195
20
-3.58309432154539
30
0
41
1
10
23.7493103451779
20
-3.62771384927393
30
0
41
1
10
24.3091557417058
20
-3.75241163723828
30
0
41
1
10
24.6819981461972
20
-3.82336056961103
30
0
41
1
10
25.2418378304456
20
-3.91073312060766
30
0
41
1
10
25.4285530181283
20
-3.93666805844811
30
0
41
1
10
25.8023766012425
20
-3.98203465015857
30
0
41
1
10
25.9897195306556
20
-4.00148190569294
30
0
41
1
10
26.550055656664
20
-4.04964705131962
30
0
41
1
10
26.9217674931648
20
-4.06831468434112
30
0
41
1
10
27.9124969846832
20
-4.08282518108595
30
0
41
1
10
28.5296765676059
20
-4.05467742646178
30
0
41
1
10
29.147241063934
20
-3.99041765486621
30
0
0
SPLINE
5
E2
100
AcDbEntity
8
1
62
256
6
ByLayer
370
18
48
1
60
0
100
AcDbSpline
70
4
71
3
72
18
73
14
40
0
40
0
40
0
40
0
40
0.0335679140662294
40
0.0335679140662294
40
0.214040639158648
40
0.214040639158648
40
0.304277001704854
40
0.304277001704854
40
0.394513364251061
40
0.394513364251061
40
0.755458814435892
40
0.755458814435892
40
1
40
1
40
1
40
1
41
1
10
64.9928849338733
20
0.0093439631151853
30
0
41
1
10
65.0621907371307
20
-0.0263323030018228
30
0
41
1
10
65.1314923154715
20
-0.0620097132527064
30
0
41
1
10
65.5733887056347
20
-0.289445186055076
30
0
41
1
10
65.945997160214
20
-0.480978375337855
30
0
41
1
10
66.5060615520008
20
-0.765720079715862
30
0
41
1
10
66.6931323975871
20
-0.860298445726613
30
0
41
1
10
67.0659938605555
20
-1.04727795289548
30
0
41
1
10
67.2519658920975
20
-1.13977723075794
30
0
41
1
10
68.1800629762006
20
-1.59637628468886
30
0
41
1
10
68.9170628145082
20
-1.94237186923945
30
0
41
1
10
70.1538821614229
20
-2.47433309641673
30
0
41
1
10
70.6534834404492
20
-2.67602892653525
30
0
41
1
10
71.1550421186899
20
-2.86146888116065
30
0
0
SPLINE
5
E3
100
AcDbEntity
8
1
62
256
6
ByLayer
370
13
48
1
60
0
100
AcDbSpline
70
4
71
3
72
18
73
14
40
0
40
0
40
0
40
0
40
0.0970649786087018
40
0.0970649786087018
40
0.247554148840586
40
0.247554148840586
40
0.39804331907247
40
0.39804331907247
40
0.548532489304354
40
0.548532489304354
40
0.699021659536238
40
0.699021659536238
40
1
40
1
40
1
40
1
41
1
10
71.1550421184314
20
-2.86146888106506
30
0
41
1
10
71.3937895056703
20
-2.94974031684842
30
0
41
1
10
71.632980412866
20
-3.03432839302712
30
0
41
1
10
72.2446594840929
20
-3.23981317709971
30
0
41
1
10
72.6189411841056
20
-3.35526464991386
30
0
41
1
10
73.3648795831814
20
-3.56249714574682
30
0
41
1
10
73.7371385409355
20
-3.65452655807735
30
0
41
1
10
74.4817906887469
20
-3.81409438352571
30
0
41
1
10
74.854228491618
20
-3.88163981294605
30
0
41
1
10
75.6008379282262
20
-3.99103432040874
30
0
41
1
10
75.9745184892439
20
-4.03274470286536
30
0
41
1
10
77.0919675820343
20
-4.11745073670085
30
0
41
1
10
77.8348550531193
20
-4.12010514246444
30
0
41
1
10
78.580598029294
20
-4.06896325119712
30
0
0
SPLINE
5
E4
100
AcDbEntity
8
1
62
256
6
ByLayer
370
18
48
1
60
0
100
AcDbSpline
70
4
71
3
72
30
73
26
40
0
40
0
40
0
40
0
40
0.250000000000002
40
0.250000000000002
40
0.374999999999999
40
0.374999999999999
40
0.499999999999997
40
0.499999999999997
40
0.624999999999994
40
0.624999999999994
40
0.687499999999993
40
0.687499999999993
40
0.749999999999992
40
0.749999999999992
40
0.81249999999999
40
0.81249999999999
40
0.843749999999992
40
0.843749999999992
40
0.874999999999994
40
0.874999999999994
40
0.906249999999995
40
0.906249999999995
40
0.937499999999997
40
0.937499999999997
40
1
40
1
40
1
40
1
41
1
10
75.2752440028739
20
1.03851775394986
30
0
41
1
10
75.5723984111806
20
0.856886300782776
30
0
41
1
10
75.8706774301646
20
0.693763587236276
30
0
41
1
10
76.3207628038209
20
0.492970210870112
30
0
41
1
10
76.4712277868524
20
0.433223376326083
30
0
41
1
10
76.7731861930425
20
0.330655680742183
30
0
41
1
10
76.9249176986614
20
0.287887660319399
30
0
41
1
10
77.2220759504179
20
0.223967076021807
30
0
41
1
10
77.3683807751718
20
0.202416692132971
30
0
41
1
10
77.5839978197723
20
0.187668406974865
30
0
41
1
10
77.6552294499457
20
0.185685000038347
30
0
41
1
10
77.7963210413082
20
0.187996575660719
30
0
41
1
10
77.8666174616764
20
0.190984764714983
30
0
41
1
10
77.9974965595556
20
0.220253248518759
30
0
41
1
10
78.0579404738186
20
0.244446301114749
30
0
41
1
10
78.1336439039894
20
0.305904441656537
30
0
41
1
10
78.1556256764441
20
0.330715854328901
30
0
41
1
10
78.192590964656
20
0.387051308476174
30
0
41
1
10
78.207862303237
20
0.419218915198911
30
0
41
1
10
78.2301442609402
20
0.489271261940217
30
0
41
1
10
78.23720106705
20
0.526909440302973
30
0
41
1
10
78.2435543314895
20
0.607148874847297
30
0
41
1
10
78.2427477149816
20
0.649735191764194
30
0
41
1
10
78.2300680311317
20
0.77917061973821
30
0
41
1
10
78.2079305703584
20
0.869876027633438
30
0
41
1
10
78.1772159268862
20
0.959782363044809
30
0
0
SPLINE
5
E5
100
AcDbEntity
8
SK1
62
256
6
ByLayer
370
18
48
1
60
0
100
AcDbSpline
70
4
71
3
72
10
73
6
40
0
40
0
40
0
40
0
40
0.5
40
0.5
40
1
40
1
40
1
40
1
41
1
10
-38.95
20
4.79513611147396
30
0
41
1
10
-39.1280976222166
20
4.49634355703822
30
0
41
1
10
-39.305319909025
20
4.1970687845193
30
0
41
1
10
-39.6562567560477
20
3.59677996807733
30
0
41
1
10
-39.830074377284
20
3.29582490461195
30
0
41
1
10
-40
20
2.99295860740307
30
0
0
SPLINE
5
E6
100
AcDbEntity
8
SK1
62
256
6
ByLayer
370
18
48
1
60
0
100
AcDbSpline
70
4
71
3
72
14
73
10
40
0
40
0
40
0
40
0
40
0.125000000000001
40
0.125000000000001
40
0.250000000000001
40
0.250000000000001
40
0.500000000000003
40
0.500000000000003
40
1
40
1
40
1
40
1
41
1
10
-38.85
20
4.95051971181519
30
0
41
1
10
-38.85
20
4.95193665011823
30
0
41
1
10
-38.8517453396942
20
4.95029540749863
30
0
41
1
10
-38.856890124152
20
4.94384469223607
30
0
41
1
10
-38.8602119663042
20
4.9391706886791
30
0
41
1
10
-38.8714485682303
20
4.92269187549132
30
0
41
1
10
-38.8802054040545
20
4.90907817906296
30
0
41
1
10
-38.9082792076545
20
4.86449094332613
30
0
41
1
10
-38.9286347141267
20
4.83098043248674
30
0
41
1
10
-38.95
20
4.79513611147396
30
0
0
SPLINE
5
E7
100
AcDbEntity
8
SK1
62
256
6
ByLayer
370
18
48
1
60
0
100
AcDbSpline
70
4
71
3
72
10
73
6
40
0
40
0
40
0
40
0
40
0.5
40
0.5
40
1
40
1
40
1
40
1
41
1
10
-40
20
2.10935525493881
30
0
41
1
10
-39.8300649358195
20
2.41223838010666
30
0
41
1
10
-39.6562487467819
20
2.71319033742279
30
0
41
1
10
-39.3053250757887
20
3.31345657243685
30
0
41
1
10
-39.1281109768151
20
3.61271779970096
30
0
41
1
10
-38.95
20
3.9115327590097
30
0
0
SPLINE
5
E8
100
AcDbEntity
8
SK1
62
256
6
ByLayer
370
18
48
1
60
0
100
AcDbSpline
70
4
71
3
72
8
73
4
40
0
40
0
40
0
40
0
40
1
40
1
40
1
40
1
41
1
10
-39.6893219329389
20
-3.53818377991138
30
0
41
1
10
-39.7939660872381
20
-3.35697476501755
30
0
41
1
10
-39.8976885058778
20
-3.17531311575456
30
0
41
1
10
-40
20
-2.99295860740307
30
0
0
SPLINE
5
E9
100
AcDbEntity
8
SK1
62
256
6
ByLayer
370
18
48
1
60
0
100
AcDbSpline
70
4
71
3
72
14
73
10
40
0
40
0
40
0
40
0
40
0.500000000000008
40
0.500000000000008
40
0.750000000000009
40
0.750000000000009
40
0.875000000000004
40
0.875000000000004
40
1
40
1
40
1
40
1
41
1
10
-38.9500000000001
20
3.9115327590097
30
0
41
1
10
-38.9287234691649
20
3.94722817660511
30
0
41
1
10
-38.9083432483059
20
3.98509317583776
30
0
41
1
10
-38.880223151313
20
4.04482203007967
30
0
41
1
10
-38.8713218079587
20
4.06514987131055
30
0
41
1
10
-38.8602667834558
20
4.0945601594685
30
0
41
1
10
-38.8569157654531
20
4.10431257704167
30
0
41
1
10
-38.851744720606
20
4.12281355702063
30
0
41
1
10
-38.8499999999999
20
4.13141772071663
30
0
41
1
10
-38.8499999999999
20
4.13760462754817
30
0
0
LINE
5
76
100
AcDbEntity
8
81
62
256
6
ByLayer
370
18
48
1
60
0
100
AcDbLine
10
80
20
0
30
0
11
85
21
0
31
0
39
0
210
0
220
0
230
1
0
LINE
5
77
100
AcDbEntity
8
1
62
256
6
ByLayer
370
18
48
1
60
0
100
AcDbLine
10
7.006862
20
4.157033
30
0
11
1.411853
21
4.153675
31
0
39
0
210
0
220
0
230
1
0
LINE
5
79
100
AcDbEntity
8
1
62
256
6
ByLayer
370
18
48
1
60
0
100
AcDbLine
10
27.510458
20
4.169335
30
0
11
26.762466
21
4.168886
31
0
39
0
210
0
220
0
230
1
0
LINE
5
7A
100
AcDbEntity
8
1
62
256
6
ByLayer
370
18
48
1
60
0
100
AcDbLine
10
77.511139
20
4.199335
30
0
11
76.782706
21
4.198898
31
0
39
0
210
0
220
0
230
1
0
LINE
5
7B
100
AcDbEntity
8
1
62
256
6
ByLayer
370
18
48
1
60
0
100
AcDbLine
10
76.782706
20
-4.198898
30
0
11
77.510687
21
-4.199335
31
0
39
0
210
0
220
0
230
1
0
LINE
5
7C
100
AcDbEntity
8
1
62
256
6
ByLayer
370
18
48
1
60
0
100
AcDbLine
10
26.762466
20
-4.168886
30
0
11
27.509936
21
-4.169334
31
0
39
0
210
0
220
0
230
1
0
LINE
5
7D
100
AcDbEntity
8
1
62
256
6
ByLayer
370
18
48
1
60
0
100
AcDbLine
10
1.411853
20
-4.153675
30
0
11
7.006862
21
-4.157033
31
0
39
0
210
0
220
0
230
1
0
LINE
5
7E
100
AcDbEntity
8
1
62
256
6
ByLayer
370
18
48
1
60
0
100
AcDbLine
10
52.509753
20
4.184334
30
0
11
51.772032
21
4.183892
31
0
39
0
210
0
220
0
230
1
0
LINE
5
7F
100
AcDbEntity
8
1
62
256
6
ByLayer
370
18
48
1
60
0
100
AcDbLine
10
51.772032
20
-4.183892
30
0
11
52.510238
21
-4.184335
31
0
39
0
210
0
220
0
230
1
0
LINE
5
80
100
AcDbEntity
8
SK1
62
256
6
ByLayer
370
18
48
1
60
0
100
AcDbLine
10
-38.845299
20
5
30
0
11
-39.689168
21
3.538377
31
0
39
0
210
0
220
0
230
1
0
LINE
5
82
100
AcDbEntity
8
SK1
62
256
6
ByLayer
370
18
48
1
60
0
100
AcDbLine
10
-39.689168
20
-3.538377
30
0
11
-38.845299
21
-5
31
0
39
0
210
0
220
0
230
1
0
LINE
5
83
100
AcDbEntity
8
SK1
62
256
6
ByLayer
370
18
48
1
60
0
100
AcDbLine
10
0
20
5
30
0
11
-38.845299
21
5
31
0
39
0
210
0
220
0
230
1
0
LINE
5
84
100
AcDbEntity
8
SK1
62
256
6
ByLayer
370
18
48
1
60
0
100
AcDbLine
10
-38.845299
20
-5
30
0
11
0
21
-5
31
0
39
0
210
0
220
0
230
1
0
LINE
5
85
100
AcDbEntity
8
SK4
62
256
6
ByLayer
370
18
48
0.05
60
0
100
AcDbLine
10
85
20
0
30
0
11
-45
21
0
31
0
39
0
210
0
220
0
230
1
0
LINE
5
87
100
AcDbEntity
8
4
62
256
6
ByLayer
370
18
48
0.05
60
0
100
AcDbLine
10
80
20
0
30
0
11
0
21
0
31
0
39
0
210
0
220
0
230
1
0
LINE
5
89
100
AcDbEntity
8
80
62
256
6
ByLayer
370
18
48
1
60
0
100
AcDbLine
10
0
20
0
30
0
11
-5
21
0
31
0
39
0
210
0
220
0
230
1
0
LINE
5
8A
100
AcDbEntity
8
1
62
256
6
ByLayer
370
18
48
1
60
0
100
AcDbLine
10
76.471501
20
0.436934
30
0
11
76.467691
21
0.43792
31
0
39
0
210
0
220
0
230
1
0
LINE
5
8B
100
AcDbEntity
8
1
62
256
6
ByLayer
370
18
48
1
60
0
100
AcDbLine
10
80
20
0
30
0
11
78.541581
21
-4.006973
31
0
39
0
210
0
220
0
230
1
0
LINE
5
8C
100
AcDbEntity
8
1
62
256
6
ByLayer
370
18
48
1
60
0
100
AcDbLine
10
77.903843
20
-2.191139
30
0
11
79.894736
21
-0.134519
31
0
39
0
210
0
220
0
230
1
0
LINE
5
8D
100
AcDbEntity
8
1
62
256
6
ByLayer
370
18
48
1
60
0
100
AcDbLine
10
0
20
-5
30
0
11
0
21
5
31
0
39
0
210
0
220
0
230
1
0
LINE
5
8E
100
AcDbEntity
8
1
62
256
6
ByLayer
370
18
48
1
60
0
100
AcDbLine
10
79.991758
20
0.041032
30
0
11
80
21
0
31
0
39
0
210
0
220
0
230
1
0
LINE
5
8F
100
AcDbEntity
8
1
62
256
6
ByLayer
370
13
48
1
60
0
100
AcDbLine
10
78.858111
20
0.480544
30
0
11
79.894736
21
-0.134519
31
0
39
0
210
0
220
0
230
1
0
LINE
5
90
100
AcDbEntity
8
1
62
256
6
ByLayer
370
18
48
1
60
0
100
AcDbLine
10
79.916276
20
-0.300707
30
0
11
79.786392
21
-0.815874
31
0
39
0
210
0
220
0
230
1
0
LINE
5
91
100
AcDbEntity
8
1
62
256
6
ByLayer
370
13
48
1
60
0
100
AcDbLine
10
0.705686
20
4.576838
30
0
11
0.705686
21
-4.576838
31
0
39
0
210
0
220
0
230
1
0
LINE
5
92
100
AcDbEntity
8
1
62
256
6
ByLayer
370
18
48
1
60
0
100
AcDbLine
10
80
20
0
30
0
11
79.991758
21
-0.041032
31
0
39
0
210
0
220
0
230
1
0
LINE
5
93
100
AcDbEntity
8
1
62
256
6
ByLayer
370
13
48
1
60
0
100
AcDbLine
10
79.048018
20
0.815874
30
0
11
79.916276
21
0.300707
31
0
39
0
210
0
220
0
230
1
0
LINE
5
94
100
AcDbEntity
8
1
62
256
6
ByLayer
370
13
48
1
60
0
100
AcDbLine
10
79.786392
20
0.815874
30
0
11
79.048018
21
0.815874
31
0
39
0
210
0
220
0
230
1
0
LINE
5
95
100
AcDbEntity
8
1
62
256
6
ByLayer
370
18
48
1
60
0
100
AcDbLine
10
79.916276
20
0.300707
30
0
11
79.786392
21
0.815874
31
0
39
0
210
0
220
0
230
1
0
LINE
5
96
100
AcDbEntity
8
1
62
256
6
ByLayer
370
13
48
1
60
0
100
AcDbLine
10
1.411853
20
4.153675
30
0
11
1.411853
21
-4.153675
31
0
39
0
210
0
220
0
230
1
0
LINE
5
97
100
AcDbEntity
8
SK1
62
256
6
ByLayer
370
13
48
1
60
0
100
AcDbLine
10
-38.95
20
4.795136
30
0
11
-38.95
21
3.911409
31
0
39
0
210
0
220
0
230
1
0
LINE
5
98
100
AcDbEntity
8
SK1
62
256
6
ByLayer
370
18
48
1
60
0
100
AcDbLine
10
-38.85
20
4.137605
30
0
11
-38.85
21
4.95052
31
0
39
0
210
0
220
0
230
1
0
LINE
5
99
100
AcDbEntity
8
SK1
62
256
6
ByLayer
370
18
48
1
60
0
100
AcDbLine
10
0
20
-5
30
0
11
0
21
5
31
0
39
0
210
0
220
0
230
1
0
LINE
5
9A
100
AcDbEntity
8
SK1
62
256
6
ByLayer
370
18
48
1
60
0
100
AcDbLine
10
-38.845299
20
5
30
0
11
-38.845299
21
-5
31
0
39
0
210
0
220
0
230
1
0
LINE
5
9B
100
AcDbEntity
8
SK1
62
256
6
ByLayer
370
18
48
1
60
0
100
AcDbLine
10
-40
20
2.992959
30
0
11
-40
21
2.109302
31
0
39
0
210
0
220
0
230
1
0
LINE
5
9C
100
AcDbEntity
8
SK1
62
256
6
ByLayer
370
18
48
1
60
0
100
AcDbLine
10
-40
20
2.109355
30
0
11
-40
21
-2.992959
31
0
39
0
210
0
220
0
230
1
0
MTEXT
5
EA
100
AcDbEntity
8
SK6
62
256
6
ByLayer
370
13
48
1
60
0
100
AcDbMText
10
22.129169
20
36.582694
30
0
210
0
220
0
230
1
1
\W0.7598;R840-0840-70-A1A1220
40
3.5
41
0
44
1.084337
50
0
71
8
72
5
7
iso_b_vert
0
DIMENSION
5
F7
100
AcDbEntity
8
SK2
62
256
6
ByLayer
370
13
48
1
60
0
100
AcDbDimension
2
DimnDraft3D1
10
78.57
20
-14.413398
30
0
11
37.820059
21
-14.413398
31
0
70
32
71
5
72
1
41
1
210
0
220
0
230
1
3
Standard
100
AcDbAlignedDimension
13
0
23
-1.5875
33
0
14
78.57
24
-5.7875
34
0
50
0
100
AcDbRotatedDimension
1001
ACAD
1000
DSTYLE
1002
{
1070
   279
1070
     0
1070
   172
1070
     1
1070
   173
1070
     1
1070
   340
1005
EB
1070
   271
1070
     2
1070
   272
1070
     2
1070
    77
1070
     1
1070
    73
1070
     0
1070
   171
1070
     3
1070
   274
1070
     4
1070
   177
1070
    35
1070
   176
1070
    35
1070
   178
1070
    35
1070
    48
1040
-0.005
1070
    41
1041
3.5
1070
   147
1041
1.75
1070
    42
1041
1.5875
1070
    44
1041
2.0
1070
   140
1041
3.5
1070
   343
1005
0
1070
   344
1005
0
1002
}
0
DIMENSION
5
101
100
AcDbEntity
8
SK2
62
256
6
ByLayer
370
13
48
1
60
0
100
AcDbDimension
2
DimnDraft3D2
10
80
20
-33.692985
30
0
11
19.9113
21
-33.692985
31
0
70
32
71
5
72
1
41
1
210
0
220
0
230
1
3
Standard
100
AcDbAlignedDimension
13
-40
23
-6.5875
33
0
14
80
24
-1.5875
34
0
50
0
100
AcDbRotatedDimension
1001
ACAD
1000
DSTYLE
1002
{
1070
   279
1070
     0
1070
   172
1070
     1
1070
   173
1070
     1
1070
   340
1005
EB
1070
   271
1070
     2
1070
   272
1070
     2
1070
    77
1070
     1
1070
    73
1070
     0
1070
   171
1070
     3
1070
   274
1070
     4
1070
   177
1070
    35
1070
   176
1070
    35
1070
   178
1070
    35
1070
    48
1040
-0.005
1070
    41
1041
3.5
1070
   147
1041
1.75
1070
    42
1041
1.5875
1070
    44
1041
2.0
1070
   140
1041
3.5
1070
   343
1005
0
1070
   344
1005
0
1002
}
0
DIMENSION
5
10B
100
AcDbEntity
8
SK2
62
256
6
ByLayer
370
13
48
1
60
0
100
AcDbDimension
2
DimnDraft3D3
10
80
20
15.809119
30
0
11
45.685
21
15.809119
31
0
70
32
71
5
72
1
41
1
210
0
220
0
230
1
3
Standard
100
AcDbAlignedDimension
13
11.37
23
5.7875
33
0
14
80
24
1.5875
34
0
50
0
100
AcDbRotatedDimension
1001
ACAD
1000
DSTYLE
1002
{
1070
   279
1070
     0
1070
   172
1070
     1
1070
   173
1070
     1
1070
   340
1005
EB
1070
   271
1070
     2
1070
   272
1070
     2
1070
    77
1070
     1
1070
    73
1070
     0
1070
   171
1070
     3
1070
   274
1070
     4
1070
   177
1070
    35
1070
   176
1070
    35
1070
   178
1070
    35
1070
    48
1040
-0.005
1070
    41
1041
3.5
1070
   147
1041
1.75
1070
    42
1041
1.5875
1070
    44
1041
2.0
1070
   140
1041
3.5
1070
   343
1005
0
1070
   344
1005
0
1002
}
0
DIMENSION
5
115
100
AcDbEntity
8
SK2
62
256
6
ByLayer
370
13
48
1
60
0
100
AcDbDimension
2
DimnDraft3D4
10
78.57
20
-17.002503
30
0
11
89.981425
21
-17.002503
31
0
70
32
71
5
72
1
41
1
210
0
220
0
230
1
3
Standard
100
AcDbAlignedDimension
13
80
23
-1.5875
33
0
14
78.57
24
-5.7875
34
0
50
0
100
AcDbRotatedDimension
1001
ACAD
1000
DSTYLE
1002
{
1070
   279
1070
     0
1070
   172
1070
     1
1070
   173
1070
     1
1070
   340
1005
EB
1070
   271
1070
     2
1070
   272
1070
     2
1070
    77
1070
     1
1070
    73
1070
     0
1070
   171
1070
     3
1070
   274
1070
     4
1070
   177
1070
    35
1070
   176
1070
    35
1070
   178
1070
    35
1070
    48
1040
-0.005
1070
    41
1041
3.5
1070
   147
1041
1.75
1070
    42
1041
1.5875
1070
    44
1041
2.0
1070
   140
1041
3.5
1070
   343
1005
0
1070
   344
1005
0
1002
}
0
DIMENSION
5
11F
100
AcDbEntity
8
SK2
62
256
6
ByLayer
370
13
48
1
60
0
100
AcDbDimension
2
DimnDraft3D5
10
78.57
20
-23.343428
30
0
11
16.830676
21
-23.343428
31
0
70
32
71
5
72
1
41
1
210
0
220
0
230
1
3
Standard
100
AcDbAlignedDimension
13
-40
23
-6.5875
33
0
14
78.57
24
-5.7875
34
0
50
0
100
AcDbRotatedDimension
1001
ACAD
1000
DSTYLE
1002
{
1070
   279
1070
     0
1070
   172
1070
     1
1070
   173
1070
     1
1070
   340
1005
EB
1070
   271
1070
     2
1070
   272
1070
     2
1070
    77
1070
     1
1070
    73
1070
     0
1070
   171
1070
     3
1070
   274
1070
     4
1070
   177
1070
    35
1070
   176
1070
    35
1070
   178
1070
    35
1070
    48
1040
-0.005
1070
    41
1041
3.5
1070
   147
1041
1.75
1070
    42
1041
1.5875
1070
    44
1041
2.0
1070
   140
1041
3.5
1070
   343
1005
0
1070
   344
1005
0
1002
}
0
DIMENSION
5
12A
100
AcDbEntity
8
SK2
62
256
6
ByLayer
370
13
48
1
60
0
100
AcDbDimension
2
DimnDraft3D6
10
-50.625163
20
5
30
0
11
-51.250163
21
23.47418
31
0
70
33
71
5
72
1
41
1
210
0
220
0
230
1
3
Standard
100
AcDbAlignedDimension
13
-41.5875
23
-5
33
0
14
-41.5875
24
5
34
0
1001
ACAD
1000
DSTYLE
1002
{
1070
   279
1070
     0
1070
    74
1070
     0
1070
   173
1070
     1
1070
   340
1005
EB
1070
   271
1070
     3
1070
   272
1070
     2
1070
    77
1070
     1
1070
    73
1070
     0
1070
   171
1070
     3
1070
   274
1070
     4
1070
   177
1070
    35
1070
   176
1070
    35
1070
   178
1070
    35
1070
    48
1040
-0.005
1070
    41
1041
3.5
1070
   147
1041
1.75
1070
    42
1041
1.5875
1070
    44
1041
2.0
1070
   140
1041
3.5
1070
   343
1005
0
1070
   344
1005
0
1002
}
0
DIMENSION
5
135
100
AcDbEntity
8
2
62
256
6
ByLayer
370
13
48
1
60
0
100
AcDbDimension
2
DimnDraft3D7
10
94.083343
20
4.2
30
0
11
89.458343
21
21.267266
31
0
70
33
71
5
72
1
41
1
210
0
220
0
230
1
3
Standard
100
AcDbAlignedDimension
13
80.1575
23
-4.2
33
0
14
80.1575
24
4.2
34
0
1001
ACAD
1000
DSTYLE
1002
{
1070
   279
1070
     0
1070
    74
1070
     0
1070
   173
1070
     1
1070
   340
1005
EB
1070
   271
1070
     3
1070
   272
1070
     2
1070
    77
1070
     1
1070
    73
1070
     0
1070
   171
1070
     3
1070
   274
1070
     4
1070
   177
1070
    35
1070
   176
1070
    35
1070
   178
1070
    35
1070
    48
1040
-0.005
1070
    41
1041
3.5
1070
   147
1041
1.75
1070
    42
1041
1.5875
1070
    44
1041
2.0
1070
   140
1041
3.5
1070
   343
1005
0
1070
   344
1005
0
1002
}
0
ENDSEC
0
SECTION
2
OBJECTS
0
DICTIONARY
5
1a0
330
0
100
AcDbDictionary
280
0
281
1
3
ACAD_GROUP
350
1a1
3
ACAD_MLINESTYLE
350
1a2
0
DICTIONARY
5
1a1
330
0
100
AcDbDictionary
280
0
281
1
0
DICTIONARY
5
1a2
330
0
100
AcDbDictionary
280
0
281
1
3
Standard
350
18
0
MLINESTYLE
5
18
330
1a2
100
AcDbMlineStyle
2
Standard
70
0
3

62
256
51
90
52
90
71
2
49
-0.5
62
256
6
ByLayer
49
0.5
62
256
6
ByLayer
0
RASTERVARIABLES
5
18e
330

100
AcDbRasterVariables
90
0
70
1
71
1
72
1
0
ENDSEC
0
EOF
