0
SECTION
2
HEADER
9
$ACADVER
1
AC1015
9
$DWGCODEPAGE
3
ANSI_1252
9
$HANDSEED
5
197
9
$ANGBASE
50
0
9
$ANGDIR
70
0
9
$ATTMODE
70
1
9
$AUNITS
70
0
9
$AUPREC
70
0
9
$CECOLOR
62
256
9
$CELTSCALE
40
1
9
$CELTYPE
6
ByLayer
9
$CELWEIGHT
370
18
9
$CLAYER
8
0
9
$CMLJUST
70
0
9
$CMLSCALE
40
1
9
$CMLSTYLE
2
Standard
9
$DIMSTYLE
2
Standard
9
$TEXTSIZE
40
0.2
9
$TEXTSTYLE
7
Standard
9
$LUNITS
70
2
9
$LUPREC
70
4
9
$EXTNAMES
290
1
9
$INSUNITS
70
4
9
$LTSCALE
40
1
9
$LWDISPLAY
290
1
9
$PDMODE
70
0
9
$PDSIZE
40
0
9
$PLINEGEN
70
0
0
ENDSEC
0
SECTION
2
CLASSES
0
CLASS
1
RASTERVARIABLES
2
AcDbRasterVariables
3
ISM
90
0
280
0
281
0
0
ENDSEC
0
SECTION
2
TABLES
0
TABLE
2
VPORT
5
18d
100
AcDbSymbolTable
0
VPORT
5
1
100
AcDbSymbolTableRecord
100
AcDbViewportTableRecord
2
*Active
70
0
10
0
20
0
11
1
21
1
12
-1
22
1
13
0
23
0
14
0.5
24
0.5
15
10
25
10
16
0
26
0
36
1
17
0
27
0
37
0
0
ENDTAB
0
TABLE
2
LTYPE
5
18e
100
AcDbSymbolTable
0
LTYPE
5
14
100
AcDbSymbolTableRecord
100
AcDbLinetypeTableRecord
70
0
2
ByBlock
3

72
65
73
0
40
0
0
LTYPE
5
15
100
AcDbSymbolTableRecord
100
AcDbLinetypeTableRecord
70
0
2
ByLayer
3

72
65
73
0
40
0
0
LTYPE
5
16
100
AcDbSymbolTableRecord
100
AcDbLinetypeTableRecord
70
0
2
CONTINUOUS
3
Solid line
72
65
73
0
40
0
0
LTYPE
5
6A
100
AcDbSymbolTableRecord
100
AcDbLinetypeTableRecord
70
0
2
CENTER
3
____ _ ____ _ ____ _ ____
72
65
73
4
40
47.5
49
22
74
0
49
-8.5
74
0
49
8.5
74
0
49
-8.5
74
0
0
LTYPE
5
6B
100
AcDbSymbolTableRecord
100
AcDbLinetypeTableRecord
70
0
2
DASHED
3
__ __ __ __ __ __ __ __ __
72
65
73
2
40
25.72
49
12.86
74
0
49
-12.86
74
0
0
ENDTAB
0
TABLE
2
LAYER
5
18f
100
AcDbSymbolTable
0
LAYER
5
10
100
AcDbSymbolTableRecord
100
AcDbLayerTableRecord
2
0
70
0
62
7
6
CONTINUOUS
290
1
370
-3
390
0
0
LAYER
5
6D
100
AcDbSymbolTableRecord
100
AcDbLayerTableRecord
2
81
70
0
62
-3
6
CONTINUOUS
290
1
370
-3
390
0
0
LAYER
5
6F
100
AcDbSymbolTableRecord
100
AcDbLayerTableRecord
2
80
70
0
62
-6
6
CONTINUOUS
290
1
370
-3
390
0
0
LAYER
5
74
100
AcDbSymbolTableRecord
100
AcDbLayerTableRecord
2
2
70
0
62
7
6
CONTINUOUS
290
1
370
-3
390
0
0
LAYER
5
78
100
AcDbSymbolTableRecord
100
AcDbLayerTableRecord
2
1
70
0
62
4
6
CONTINUOUS
290
1
370
-3
390
0
0
LAYER
5
84
100
AcDbSymbolTableRecord
100
AcDbLayerTableRecord
2
4
70
0
62
-2
6
CENTER
290
1
370
-3
390
0
0
LAYER
5
179
100
AcDbSymbolTableRecord
100
AcDbLayerTableRecord
2
SK2
70
0
62
7
6
CONTINUOUS
290
1
370
-3
390
0
0
LAYER
5
17a
100
AcDbSymbolTableRecord
100
AcDbLayerTableRecord
2
SK1
70
0
62
4
6
CONTINUOUS
290
1
370
-3
390
0
0
LAYER
5
17b
100
AcDbSymbolTableRecord
100
AcDbLayerTableRecord
2
SK4
70
0
62
2
6
CENTER
290
1
370
-3
390
0
0
LAYER
5
17c
100
AcDbSymbolTableRecord
100
AcDbLayerTableRecord
2
SK6
70
0
62
5
6
CONTINUOUS
290
1
370
-3
390
0
0
ENDTAB
0
TABLE
2
STYLE
5
190
100
AcDbSymbolTable
0
STYLE
5
11
100
AcDbSymbolTableRecord
100
AcDbTextStyleTableRecord
2
Standard
3
txt
70
0
71
0
40
0
41
1
42
0
50
0
0
STYLE
5
D5
100
AcDbSymbolTableRecord
100
AcDbTextStyleTableRecord
2
iso_b_vert
3
simplex.shx
70
0
71
0
40
0
41
1
42
0
50
0
0
STYLE
5
D6
100
AcDbSymbolTableRecord
100
AcDbTextStyleTableRecord
2
DWGDirectTextStyle
3
simplex
70
0
71
0
40
0
41
1
42
0
50
0
0
ENDTAB
0
TABLE
2
DIMSTYLE
5
191
100
AcDbSymbolTable
100
AcDbDimStyleTable
0
DIMSTYLE
105
27
100
AcDbSymbolTableRecord
100
AcDbDimStyleTableRecord
2
Standard
70
0
3
<>
41
0.18
42
0.0625
44
0.18
140
0.18
147
0.09
73
0
74
0
77
1
271
2
275
0
278
52
280
0
340
11
0
ENDTAB
0
TABLE
2
VIEW
5
192
100
AcDbSymbolTable
0
ENDTAB
0
TABLE
2
UCS
5
193
100
AcDbSymbolTable
0
ENDTAB
0
TABLE
2
APPID
5
194
100
AcDbSymbolTable
0
APPID
5
12
100
AcDbSymbolTableRecord
100
AcDbRegAppTableRecord
2
ACAD
70
0
0
ENDTAB
0
TABLE
2
BLOCK_RECORD
5
195
100
AcDbSymbolTable
0
BLOCK_RECORD
5
1F
100
AcDbSymbolTableRecord
100
AcDbBlockTableRecord
2
*Model_Space
340
0
70
0
0
BLOCK_RECORD
5
1B
100
AcDbSymbolTableRecord
100
AcDbBlockTableRecord
2
*Paper_Space
340
0
70
0
0
BLOCK_RECORD
5
23
100
AcDbSymbolTableRecord
100
AcDbBlockTableRecord
2
*Paper_Space0
340
0
70
0
0
BLOCK_RECORD
5
D8
100
AcDbSymbolTableRecord
100
AcDbBlockTableRecord
2
DimnDraft3D1
340
0
70
0
0
BLOCK_RECORD
5
E2
100
AcDbSymbolTableRecord
100
AcDbBlockTableRecord
2
DimnDraft3D2
340
0
70
0
0
BLOCK_RECORD
5
EC
100
AcDbSymbolTableRecord
100
AcDbBlockTableRecord
2
DimnDraft3D3
340
0
70
0
0
BLOCK_RECORD
5
F6
100
AcDbSymbolTableRecord
100
AcDbBlockTableRecord
2
DimnDraft3D4
340
0
70
0
0
BLOCK_RECORD
5
100
100
AcDbSymbolTableRecord
100
AcDbBlockTableRecord
2
DimnDraft3D5
340
0
70
0
0
BLOCK_RECORD
5
10A
100
AcDbSymbolTableRecord
100
AcDbBlockTableRecord
2
DimnDraft3D6
340
0
70
0
0
BLOCK_RECORD
5
115
100
AcDbSymbolTableRecord
100
AcDbBlockTableRecord
2
DimnDraft3D7
340
0
70
0
0
ENDTAB
0
ENDSEC
0
SECTION
2
BLOCKS
0
BLOCK
5
20
100
AcDbEntity
8
0
100
AcDbBlockBegin
2
*Model_Space
70
0
10
0
20
0
30
0
3
*Model_Space
0
ENDBLK
5
21
100
AcDbEntity
8
0
100
AcDbBlockEnd
0
BLOCK
5
1C
100
AcDbEntity
8
0
100
AcDbBlockBegin
2
*Paper_Space
70
0
10
0
20
0
30
0
3
*Paper_Space
0
ENDBLK
5
1D
100
AcDbEntity
8
0
100
AcDbBlockEnd
0
BLOCK
5
24
100
AcDbEntity
8
0
100
AcDbBlockBegin
2
*Paper_Space0
70
0
10
0
20
0
30
0
3
*Paper_Space0
0
ENDBLK
5
25
100
AcDbEntity
8
0
100
AcDbBlockEnd
0
BLOCK
5
DF
100
AcDbEntity
8
0
100
AcDbBlockBegin
2
DimnDraft3D1
70
0
10
0
20
0
30
0
3
DimnDraft3D1
0
MTEXT
5
D9
100
AcDbEntity
8
SK2
62
256
6
ByLayer
370
13
48
1
60
0
100
AcDbMText
10
17.687164
20
-13.538398
30
0
210
0
220
0
230
1
1
\W0.7581;47,57
40
3.5
41
0
44
1.084337
50
0
71
7
72
5
7
iso_b_vert
0
LINE
5
DA
100
AcDbEntity
8
SK2
62
256
6
ByLayer
370
13
48
1
60
0
100
AcDbLine
10
0
20
-1.5875
30
0
11
0
21
-16.413398
31
0
39
0
210
0
220
0
230
1
0
LINE
5
DB
100
AcDbEntity
8
SK2
62
256
6
ByLayer
370
13
48
1
60
0
100
AcDbLine
10
47.57
20
-5.7875
30
0
11
47.57
21
-16.413398
31
0
39
0
210
0
220
0
230
1
0
LINE
5
DC
100
AcDbEntity
8
SK2
62
256
6
ByLayer
370
13
48
1
60
0
100
AcDbLine
10
0
20
-14.413398
30
0
11
47.57
21
-14.413398
31
0
39
0
210
0
220
0
230
1
0
SOLID
5
DD
100
AcDbEntity
8
SK2
62
256
6
ByLayer
370
13
48
1
60
0
100
AcDbTrace
10
0
20
-14.413398
30
0
11
3.499998
21
-13.952615
31
0
12
3.500002
22
-14.874182
32
0
13
0
23
-14.413398
33
0
39
0
210
0
220
0
230
1
0
SOLID
5
DE
100
AcDbEntity
8
SK2
62
256
6
ByLayer
370
13
48
1
60
0
100
AcDbTrace
10
47.57
20
-14.413398
30
0
11
44.070002
21
-14.874182
31
0
12
44.069998
22
-13.952615
32
0
13
47.57
23
-14.413398
33
0
39
0
210
0
220
0
230
1
0
ENDBLK
5
E0
100
AcDbEntity
8
0
100
AcDbBlockEnd
0
BLOCK
5
E9
100
AcDbEntity
8
0
100
AcDbBlockBegin
2
DimnDraft3D2
70
0
10
0
20
0
30
0
3
DimnDraft3D2
0
MTEXT
5
E3
100
AcDbEntity
8
SK2
62
256
6
ByLayer
370
13
48
1
60
0
100
AcDbMText
10
-0.037384
20
-32.817985
30
0
210
0
220
0
230
1
1
\W0.7317;89,00
40
3.5
41
0
44
1.084337
50
0
71
7
72
5
7
iso_b_vert
0
LINE
5
E4
100
AcDbEntity
8
SK2
62
256
6
ByLayer
370
13
48
1
60
0
100
AcDbLine
10
-40
20
-6.5875
30
0
11
-40
21
-35.692985
31
0
39
0
210
0
220
0
230
1
0
LINE
5
E5
100
AcDbEntity
8
SK2
62
256
6
ByLayer
370
13
48
1
60
0
100
AcDbLine
10
49
20
-1.5875
30
0
11
49
21
-35.692985
31
0
39
0
210
0
220
0
230
1
0
LINE
5
E6
100
AcDbEntity
8
SK2
62
256
6
ByLayer
370
13
48
1
60
0
100
AcDbLine
10
-40
20
-33.692985
30
0
11
49
21
-33.692985
31
0
39
0
210
0
220
0
230
1
0
SOLID
5
E7
100
AcDbEntity
8
SK2
62
256
6
ByLayer
370
13
48
1
60
0
100
AcDbTrace
10
-40
20
-33.692985
30
0
11
-36.500002
21
-33.232202
31
0
12
-36.499998
22
-34.153769
32
0
13
-40
23
-33.692985
33
0
39
0
210
0
220
0
230
1
0
SOLID
5
E8
100
AcDbEntity
8
SK2
62
256
6
ByLayer
370
13
48
1
60
0
100
AcDbTrace
10
49
20
-33.692985
30
0
11
45.500002
21
-34.153769
31
0
12
45.499998
22
-33.232202
32
0
13
49
23
-33.692985
33
0
39
0
210
0
220
0
230
1
0
ENDBLK
5
EA
100
AcDbEntity
8
0
100
AcDbBlockEnd
0
BLOCK
5
F3
100
AcDbEntity
8
0
100
AcDbBlockBegin
2
DimnDraft3D3
70
0
10
0
20
0
30
0
3
DimnDraft3D3
0
MTEXT
5
ED
100
AcDbEntity
8
SK2
62
256
6
ByLayer
370
13
48
1
60
0
100
AcDbMText
10
31.236316
20
16.684119
30
0
210
0
220
0
230
1
1
\W0.7317;26,63
40
3.5
41
0
44
1.084337
50
0
71
7
72
5
7
iso_b_vert
0
LINE
5
EE
100
AcDbEntity
8
SK2
62
256
6
ByLayer
370
13
48
1
60
0
100
AcDbLine
10
22.37
20
5.7875
30
0
11
22.37
21
17.809119
31
0
39
0
210
0
220
0
230
1
0
LINE
5
EF
100
AcDbEntity
8
SK2
62
256
6
ByLayer
370
13
48
1
60
0
100
AcDbLine
10
49
20
1.5875
30
0
11
49
21
17.809119
31
0
39
0
210
0
220
0
230
1
0
LINE
5
F0
100
AcDbEntity
8
SK2
62
256
6
ByLayer
370
13
48
1
60
0
100
AcDbLine
10
22.37
20
15.809119
30
0
11
49
21
15.809119
31
0
39
0
210
0
220
0
230
1
0
SOLID
5
F1
100
AcDbEntity
8
SK2
62
256
6
ByLayer
370
13
48
1
60
0
100
AcDbTrace
10
22.37
20
15.809119
30
0
11
25.869998
21
16.269903
31
0
12
25.870002
22
15.348335
32
0
13
22.37
23
15.809119
33
0
39
0
210
0
220
0
230
1
0
SOLID
5
F2
100
AcDbEntity
8
SK2
62
256
6
ByLayer
370
13
48
1
60
0
100
AcDbTrace
10
49
20
15.809119
30
0
11
45.500002
21
15.348335
31
0
12
45.499998
22
16.269903
32
0
13
49
23
15.809119
33
0
39
0
210
0
220
0
230
1
0
ENDBLK
5
F4
100
AcDbEntity
8
0
100
AcDbBlockEnd
0
BLOCK
5
FD
100
AcDbEntity
8
0
100
AcDbBlockBegin
2
DimnDraft3D4
70
0
10
0
20
0
30
0
3
DimnDraft3D4
0
MTEXT
5
F7
100
AcDbEntity
8
SK2
62
256
6
ByLayer
370
13
48
1
60
0
100
AcDbMText
10
56.093925
20
-16.127503
30
0
210
0
220
0
230
1
1
\W0.6709;1,43
40
3.5
41
0
44
1.084337
50
0
71
7
72
5
7
iso_b_vert
0
LINE
5
F8
100
AcDbEntity
8
SK2
62
256
6
ByLayer
370
13
48
1
60
0
100
AcDbLine
10
49
20
-1.5875
30
0
11
49
21
-19.002503
31
0
39
0
210
0
220
0
230
1
0
LINE
5
F9
100
AcDbEntity
8
SK2
62
256
6
ByLayer
370
13
48
1
60
0
100
AcDbLine
10
47.57
20
-5.7875
30
0
11
47.57
21
-19.002503
31
0
39
0
210
0
220
0
230
1
0
LINE
5
FA
100
AcDbEntity
8
SK2
62
256
6
ByLayer
370
13
48
1
60
0
100
AcDbLine
10
38.82
20
-17.002503
30
0
11
62.743925
21
-17.002503
31
0
39
0
210
0
220
0
230
1
0
SOLID
5
FB
100
AcDbEntity
8
SK2
62
256
6
ByLayer
370
13
48
1
60
0
100
AcDbTrace
10
49
20
-17.002503
30
0
11
52.499998
21
-16.541719
31
0
12
52.500002
22
-17.463287
32
0
13
49
23
-17.002503
33
0
39
0
210
0
220
0
230
1
0
SOLID
5
FC
100
AcDbEntity
8
SK2
62
256
6
ByLayer
370
13
48
1
60
0
100
AcDbTrace
10
47.57
20
-17.002503
30
0
11
44.070002
21
-17.463287
31
0
12
44.069998
22
-16.541719
32
0
13
47.57
23
-17.002503
33
0
39
0
210
0
220
0
230
1
0
ENDBLK
5
FE
100
AcDbEntity
8
0
100
AcDbBlockEnd
0
BLOCK
5
107
100
AcDbEntity
8
0
100
AcDbBlockBegin
2
DimnDraft3D5
70
0
10
0
20
0
30
0
3
DimnDraft3D5
0
MTEXT
5
101
100
AcDbEntity
8
SK2
62
256
6
ByLayer
370
13
48
1
60
0
100
AcDbMText
10
-3.118008
20
-22.468428
30
0
210
0
220
0
230
1
1
\W0.7317;87,57
40
3.5
41
0
44
1.084337
50
0
71
7
72
5
7
iso_b_vert
0
LINE
5
102
100
AcDbEntity
8
SK2
62
256
6
ByLayer
370
13
48
1
60
0
100
AcDbLine
10
-40
20
-6.5875
30
0
11
-40
21
-25.343428
31
0
39
0
210
0
220
0
230
1
0
LINE
5
103
100
AcDbEntity
8
SK2
62
256
6
ByLayer
370
13
48
1
60
0
100
AcDbLine
10
47.57
20
-5.7875
30
0
11
47.57
21
-25.343428
31
0
39
0
210
0
220
0
230
1
0
LINE
5
104
100
AcDbEntity
8
SK2
62
256
6
ByLayer
370
13
48
1
60
0
100
AcDbLine
10
-40
20
-23.343428
30
0
11
47.57
21
-23.343428
31
0
39
0
210
0
220
0
230
1
0
SOLID
5
105
100
AcDbEntity
8
SK2
62
256
6
ByLayer
370
13
48
1
60
0
100
AcDbTrace
10
-40
20
-23.343428
30
0
11
-36.500002
21
-22.882645
31
0
12
-36.499998
22
-23.804212
32
0
13
-40
23
-23.343428
33
0
39
0
210
0
220
0
230
1
0
SOLID
5
106
100
AcDbEntity
8
SK2
62
256
6
ByLayer
370
13
48
1
60
0
100
AcDbTrace
10
47.57
20
-23.343428
30
0
11
44.070002
21
-23.804212
31
0
12
44.069998
22
-22.882645
32
0
13
47.57
23
-23.343428
33
0
39
0
210
0
220
0
230
1
0
ENDBLK
5
108
100
AcDbEntity
8
0
100
AcDbBlockEnd
0
BLOCK
5
112
100
AcDbEntity
8
0
100
AcDbBlockBegin
2
DimnDraft3D6
70
0
10
0
20
0
30
0
3
DimnDraft3D6
0
MTEXT
5
10B
100
AcDbEntity
8
SK2
62
256
6
ByLayer
370
13
48
1
60
0
100
AcDbMText
10
-50.375163
20
24.34918
30
0
210
0
220
0
230
1
1
\W0.6930;10,000
40
3.5
41
0
44
1.084337
50
90
71
7
72
5
7
iso_b_vert
0
MTEXT
5
10C
100
AcDbEntity
8
SK2
62
256
6
ByLayer
370
13
48
1
60
0
100
AcDbMText
10
-50.375163
20
19.126524
30
0
210
0
220
0
230
1
1
%%c
40
3.5
41
0
44
1.084337
50
90
71
7
72
5
7
iso_b_vert
0
LINE
5
10D
100
AcDbEntity
8
SK2
62
256
6
ByLayer
370
13
48
1
60
0
100
AcDbLine
10
-41.5875
20
-5
30
0
11
-50.625163
21
-5
31
0
39
0
210
0
220
0
230
1
0
LINE
5
10E
100
AcDbEntity
8
SK2
62
256
6
ByLayer
370
13
48
1
60
0
100
AcDbLine
10
-41.5875
20
5
30
0
11
-50.625163
21
5
31
0
39
0
210
0
220
0
230
1
0
LINE
5
10F
100
AcDbEntity
8
SK2
62
256
6
ByLayer
370
13
48
1
60
0
100
AcDbLine
10
-48.625163
20
-5
30
0
11
-48.625163
21
35.862338
31
0
39
0
210
0
220
0
230
1
0
SOLID
5
110
100
AcDbEntity
8
SK2
62
256
6
ByLayer
370
13
48
1
60
0
100
AcDbTrace
10
-48.625163
20
-5
30
0
11
-49.085946
21
-1.500002
31
0
12
-48.164379
22
-1.499998
32
0
13
-48.625163
23
-5
33
0
39
0
210
0
220
0
230
1
0
SOLID
5
111
100
AcDbEntity
8
SK2
62
256
6
ByLayer
370
13
48
1
60
0
100
AcDbTrace
10
-48.625163
20
5
30
0
11
-48.164379
21
1.500002
31
0
12
-49.085946
22
1.499998
32
0
13
-48.625163
23
5
33
0
39
0
210
0
220
0
230
1
0
ENDBLK
5
113
100
AcDbEntity
8
0
100
AcDbBlockEnd
0
BLOCK
5
11D
100
AcDbEntity
8
0
100
AcDbBlockBegin
2
DimnDraft3D7
70
0
10
0
20
0
30
0
3
DimnDraft3D7
0
MTEXT
5
116
100
AcDbEntity
8
2
62
256
6
ByLayer
370
13
48
1
60
0
100
AcDbMText
10
59.333343
20
22.142266
30
0
210
0
220
0
230
1
1
\W0.7581;8,400
40
3.5
41
0
44
1.084337
50
90
71
7
72
5
7
iso_b_vert
0
MTEXT
5
117
100
AcDbEntity
8
2
62
256
6
ByLayer
370
13
48
1
60
0
100
AcDbMText
10
59.333343
20
16.91961
30
0
210
0
220
0
230
1
1
%%c
40
3.5
41
0
44
1.084337
50
90
71
7
72
5
7
iso_b_vert
0
LINE
5
118
100
AcDbEntity
8
2
62
256
6
ByLayer
370
13
48
1
60
0
100
AcDbLine
10
49.1575
20
-4.2
30
0
11
63.083343
21
-4.2
31
0
39
0
210
0
220
0
230
1
0
LINE
5
119
100
AcDbEntity
8
2
62
256
6
ByLayer
370
13
48
1
60
0
100
AcDbLine
10
49.1575
20
4.2
30
0
11
63.083343
21
4.2
31
0
39
0
210
0
220
0
230
1
0
LINE
5
11A
100
AcDbEntity
8
2
62
256
6
ByLayer
370
13
48
1
60
0
100
AcDbLine
10
61.083343
20
-4.2
30
0
11
61.083343
21
32.283056
31
0
39
0
210
0
220
0
230
1
0
SOLID
5
11B
100
AcDbEntity
8
2
62
256
6
ByLayer
370
13
48
1
60
0
100
AcDbTrace
10
61.083343
20
-4.2
30
0
11
60.622559
21
-0.700002
31
0
12
61.544126
22
-0.699998
32
0
13
61.083343
23
-4.2
33
0
39
0
210
0
220
0
230
1
0
SOLID
5
11C
100
AcDbEntity
8
2
62
256
6
ByLayer
370
13
48
1
60
0
100
AcDbTrace
10
61.083343
20
4.2
30
0
11
61.544126
21
0.700002
31
0
12
60.622559
22
0.699998
32
0
13
61.083343
23
4.2
33
0
39
0
210
0
220
0
230
1
0
ENDBLK
5
11E
100
AcDbEntity
8
0
100
AcDbBlockEnd
0
ENDSEC
0
SECTION
2
ENTITIES
0
ARC
5
97
100
AcDbEntity
8
1
62
256
6
ByLayer
370
18
48
1
60
0
100
AcDbCircle
39
0
10
0
20
4.2
30
0
40
0.800000000000002
210
0
220
0
230
1
100
AcDbArc
50
28.859819
51
90
0
ARC
5
98
100
AcDbEntity
8
1
62
256
6
ByLayer
370
18
48
1
60
0
100
AcDbCircle
39
0
10
0
20
-4.2
30
0
40
0.800000000000002
210
0
220
0
230
1
100
AcDbArc
50
270
51
331.140181
0
ARC
5
99
100
AcDbEntity
8
1
62
256
6
ByLayer
370
18
48
1
60
0
100
AcDbCircle
39
0
10
-1.401285
20
4.972269
30
0
40
0.799999999999996
210
0
220
0
230
-1
100
AcDbArc
50
269.965623
51
331.140181
0
ARC
5
9A
100
AcDbEntity
8
1
62
256
6
ByLayer
370
18
48
1
60
0
100
AcDbCircle
39
0
10
-1.401285
20
-4.972269
30
0
40
0.799999999999996
210
0
220
0
230
-1
100
AcDbArc
50
28.859819
51
90.034377
0
ELLIPSE
5
9B
100
AcDbEntity
8
1
62
256
6
ByLayer
370
18
48
1
60
0
100
AcDbEllipse
10
4.25
20
-4.231434
30
0
11
-0.25
21
3.06151588455594E-17
31
0
210
0
220
0
230
1
40
0.999993
41
-1.56550524915349
42
-0.233485185084848
0
ELLIPSE
5
9C
100
AcDbEntity
8
1
62
256
6
ByLayer
370
18
48
1
60
0
100
AcDbEllipse
10
4.25
20
4.231434
30
0
11
-0.25
21
3.06151588455594E-17
31
0
210
0
220
0
230
1
40
0.999993
41
0.233388818817239
42
1.5803041282704
0
ELLIPSE
5
9D
100
AcDbEntity
8
1
62
256
6
ByLayer
370
18
48
1
60
0
100
AcDbEllipse
10
49.034968
20
-0.018152
30
0
11
0.140634104979232
21
0.431000092711277
31
0
210
0
220
0
230
-1
40
0.07518
41
-2.31001430905117
42
-1.64841755162845
0
ELLIPSE
5
9E
100
AcDbEntity
8
1
62
256
6
ByLayer
370
18
48
1
60
0
100
AcDbEllipse
10
49.000365
20
-0.000917
30
0
11
1.54501553968214
21
-4.1980634730265
31
0
210
0
220
0
230
-1
40
0.098637
41
-2.97536094559262
42
-2.87439263538495
0
ELLIPSE
5
9F
100
AcDbEntity
8
1
62
256
6
ByLayer
370
18
48
1
60
0
100
AcDbEllipse
10
49.000365
20
0.000917
30
0
11
1.54501550385833
21
4.19806336874612
31
0
210
0
220
0
230
-1
40
0.098637
41
2.8743926320462
42
2.97536094352849
0
ELLIPSE
5
A0
100
AcDbEntity
8
1
62
256
6
ByLayer
370
18
48
1
60
0
100
AcDbEllipse
10
48.192622
20
-2.064253
30
0
11
0.648778522066213
21
1.76283885449706
31
0
210
0
220
0
230
-1
40
0.098637
41
0.749112684720358
42
1.53874738354889
0
ELLIPSE
5
A1
100
AcDbEntity
8
1
62
256
6
ByLayer
370
13
48
1
60
0
100
AcDbEllipse
10
48.612448
20
2.064253
30
0
11
2.44268295094558
21
-1.2823043263615
31
0
210
0
220
0
230
-1
40
0.495913
41
1.54235392458729
42
1.86609593815882
0
ELLIPSE
5
A2
100
AcDbEntity
8
1
62
256
6
ByLayer
370
13
48
1
60
0
100
AcDbEllipse
10
48.422542
20
1.941056
30
0
11
2.36917183294566
21
-1.63124217764561
31
0
210
0
220
0
230
-1
40
0.533762
41
1.44484622740448
42
1.73559286003627
0
ELLIPSE
5
A3
100
AcDbEntity
8
1
62
256
6
ByLayer
370
18
48
1
60
0
100
AcDbEllipse
10
49.034968
20
0.018152
30
0
11
0.140634104934754
21
-0.431000092594726
31
0
210
0
220
0
230
-1
40
0.07518
41
1.64841755146235
42
2.31001430904937
0
ELLIPSE
5
A4
100
AcDbEntity
8
1
62
256
6
ByLayer
370
13
48
1
60
0
100
AcDbEllipse
10
48.04626
20
0.604785
30
0
11
0.153082081612419
21
0.258003636193773
31
0
210
0
220
0
230
1
40
0.454519
41
0.917105603404796
42
2.31336900500034
0
ELLIPSE
5
A5
100
AcDbEntity
8
1
62
256
6
ByLayer
370
18
48
1
60
0
100
AcDbEllipse
10
48.860212
20
0.12184
30
0
11
0.0727819104940269
21
0.301917195708277
31
0
210
0
220
0
230
-1
40
0.478434
41
1.72509455566418
42
2.45976119972783
0
ELLIPSE
5
A6
100
AcDbEntity
8
1
62
256
6
ByLayer
370
18
48
1
60
0
100
AcDbEllipse
10
48.192622
20
2.064253
30
0
11
0.648778522083333
21
-1.76283885453489
31
0
210
0
220
0
230
-1
40
0.098637
41
-1.5387473835325
42
-0.749112684719038
0
POINT
5
6C
100
AcDbEntity
8
81
62
256
6
ByLayer
370
18
48
1
60
0
100
AcDbPoint
10
49
20
0
30
0
39
0
210
0
220
0
230
1
50
360
0
POINT
5
6E
100
AcDbEntity
8
80
62
256
6
ByLayer
370
18
48
1
60
0
100
AcDbPoint
10
0
20
0
30
0
39
0
210
0
220
0
230
1
50
360
0
POINT
5
70
100
AcDbEntity
8
SK2
62
256
6
ByLayer
370
18
48
1
60
1
100
AcDbPoint
10
-40
20
-5
30
0
39
0
210
0
220
0
230
1
50
360
0
POINT
5
72
100
AcDbEntity
8
SK2
62
256
6
ByLayer
370
18
48
1
60
1
100
AcDbPoint
10
-40
20
5
30
0
39
0
210
0
220
0
230
1
50
360
0
POINT
5
73
100
AcDbEntity
8
2
62
256
6
ByLayer
370
18
48
1
60
1
100
AcDbPoint
10
47.57
20
-4.2
30
0
39
0
210
0
220
0
230
1
50
360
0
POINT
5
75
100
AcDbEntity
8
2
62
256
6
ByLayer
370
18
48
1
60
1
100
AcDbPoint
10
47.57
20
4.2
30
0
39
0
210
0
220
0
230
1
50
360
0
SPLINE
5
A7
100
AcDbEntity
8
1
62
256
6
ByLayer
370
18
48
1
60
0
100
AcDbSpline
70
4
71
3
72
16
73
12
40
0
40
0
40
0
40
0
40
0.114917123885872
40
0.250813689108031
40
0.355064252922693
40
0.469446461598585
40
0.558536946172022
40
0.66074010546336
40
0.791384732784662
40
0.946819542308326
40
1
40
1
40
1
40
1
41
1
10
4.25051177034021
20
-3.98126313001032
30
0
41
1
10
4.43124418592831
20
-3.98167961316429
30
0
41
1
10
4.82570157355445
20
-3.98242158309671
30
0
41
1
10
5.38412268321895
20
-3.98242735817783
30
0
41
1
10
5.94167017753648
20
-3.98287228371564
30
0
41
1
10
6.42572272937778
20
-3.98277258373614
30
0
41
1
10
6.90612556761474
20
-3.98430561908765
30
0
41
1
10
7.41290097009934
20
-3.98419028319609
30
0
41
1
10
8.01850237592947
20
-3.98370847982596
30
0
41
1
10
8.55437330467601
20
-3.98322506439899
30
0
41
1
10
8.88107484094013
20
-3.98410274454523
30
0
41
1
10
8.96433699336984
20
-3.98436946038737
30
0
0
SPLINE
5
A8
100
AcDbEntity
8
1
62
256
6
ByLayer
370
18
48
1
60
0
100
AcDbSpline
70
4
71
3
72
13
73
9
40
0
40
0
40
0
40
0
40
0.0589879041775861
40
0.315825530711111
40
0.446389884572735
40
0.582938695468013
40
0.792614750716946
40
1
40
1
40
1
40
1
41
1
10
35.4420959787668
20
-1.1372385655994
30
0
41
1
10
35.4422368468057
20
-1.13725538077875
30
0
41
1
10
35.4499798892624
20
-1.1403578970685
30
0
41
1
10
35.4836309622869
20
-1.15539008922721
30
0
41
1
10
35.5485593128645
20
-1.18553822304892
30
0
41
1
10
35.6219390036267
20
-1.22029489782841
30
0
41
1
10
35.7284827000519
20
-1.27180859702168
30
0
41
1
10
35.8112616478692
20
-1.31300544281791
30
0
41
1
10
35.8544395335921
20
-1.33472135859324
30
0
0
SPLINE
5
A9
100
AcDbEntity
8
1
62
256
6
ByLayer
370
18
48
1
60
0
100
AcDbSpline
70
4
71
2
72
6
73
3
40
0
40
0
40
0
40
1
40
1
40
1
41
1
10
46.7314854406519
20
-4.00658925957242
30
0
41
1
10
47.1355292808541
20
-4.0056871090575
30
0
41
1
10
47.5391599161562
20
-4.00784201580598
30
0
0
SPLINE
5
AA
100
AcDbEntity
8
1
62
256
6
ByLayer
370
18
48
1
60
0
100
AcDbSpline
70
4
71
3
72
26
73
22
40
0
40
0
40
0
40
0
40
0.0336706265056781
40
0.115996446314633
40
0.185783642807328
40
0.240264724446266
40
0.283603400511995
40
0.320434840369751
40
0.355875587869446
40
0.406767508396423
40
0.466176680144143
40
0.511816886265634
40
0.547734287842869
40
0.593597489883
40
0.650872380075816
40
0.700160090583843
40
0.737741737285798
40
0.778001202489373
40
0.826925129780065
40
0.923974186907458
40
1
40
1
40
1
40
1
41
1
10
34.0055885109413
20
3.99721829953003
30
0
41
1
10
33.8925386853435
20
3.99683203544819
30
0
41
1
10
33.5025906326156
20
3.99578378941715
30
0
41
1
10
32.8702117770691
20
3.99655944075337
30
0
41
1
10
32.1736252381383
20
3.99785339091397
30
0
41
1
10
31.6047971000464
20
3.99607424659416
30
0
41
1
10
31.1480868764961
20
3.99627198307684
30
0
41
1
10
30.7559003512505
20
3.9964704145377
30
0
41
1
10
30.3381030829045
20
3.99645595841599
30
0
41
1
10
29.8437151409769
20
3.99617916639573
30
0
41
1
10
29.3147272493873
20
3.99638724029992
30
0
41
1
10
28.8365416432214
20
3.99400159575177
30
0
41
1
10
28.4043005273493
20
3.99402716982297
30
0
41
1
10
27.9325999792567
20
3.99429229143897
30
0
41
1
10
27.4155393006337
20
3.99477865651269
30
0
41
1
10
26.9265702731004
20
3.99556637410808
30
0
41
1
10
26.4953293550599
20
3.99432393256947
30
0
41
1
10
26.0653150647815
20
3.9931070287729
30
0
41
1
10
25.4335852480847
20
3.99317719130926
30
0
41
1
10
24.6805834194984
20
3.99386579989709
30
0
41
1
10
24.0933551754542
20
3.99294994417616
30
0
41
1
10
23.8355190716715
20
3.99260478119828
30
0
0
SPLINE
5
AB
100
AcDbEntity
8
1
62
256
6
ByLayer
370
18
48
1
60
0
100
AcDbSpline
70
4
71
3
72
31
73
27
40
0
40
0
40
0
40
0
40
0.0607758237729089
40
0.105822468331617
40
0.135342031434324
40
0.161218929715311
40
0.190596468265224
40
0.256881421475593
40
0.318460282898851
40
0.358763595375976
40
0.391929162739783
40
0.422888755199179
40
0.463491750663606
40
0.510674549027627
40
0.548456449733205
40
0.5799663412676
40
0.621054698474499
40
0.673185136594139
40
0.71469200860735
40
0.74382744185539
40
0.775698941477523
40
0.810905489632363
40
0.855587674772708
40
0.911502211626866
40
0.975978338672474
40
1
40
1
40
1
40
1
41
1
10
21.6631294812163
20
-3.99147394869473
30
0
41
1
10
21.9133884878143
20
-3.99171412135655
30
0
41
1
10
22.3491377879045
20
-3.99201651329304
30
0
41
1
10
22.9063901621331
20
-3.99202583880359
30
0
41
1
10
23.3200131477934
20
-3.99204478234722
30
0
41
1
10
23.6688401668021
20
-3.99232761335924
30
0
41
1
10
24.1692669853545
20
-3.99338257300681
30
0
41
1
10
24.8167798043436
20
-3.99357550970785
30
0
41
1
10
25.5092303686666
20
-3.99319186833068
30
0
41
1
10
26.0653143948635
20
-3.99310298618389
30
0
41
1
10
26.495329506124
20
-3.99432478293554
30
0
41
1
10
26.9265702193014
20
-3.99556630855218
30
0
41
1
10
27.4155393242723
20
-3.99477738592515
30
0
41
1
10
27.9325999554155
20
-3.99429779566188
30
0
41
1
10
28.4122119795753
20
-3.99400778890839
30
0
41
1
10
28.8667364292636
20
-3.99405396108824
30
0
41
1
10
29.3803384447169
20
-3.99659508680517
30
0
41
1
10
29.9351120337759
20
-3.99614776646544
30
0
41
1
10
30.4406632082004
20
-3.9965014193391
30
0
41
1
10
30.8627948968843
20
-3.99644710267879
30
0
41
1
10
31.2589776471385
20
-3.99611317317328
30
0
41
1
10
31.7191848176351
20
-3.99651854852323
30
0
41
1
10
32.2783895737168
20
-3.99765679541377
30
0
41
1
10
32.9533769020502
20
-3.99648479744735
30
0
41
1
10
33.5510303282212
20
-3.995868700518
30
0
41
1
10
33.911909685484
20
-3.99685841700654
30
0
41
1
10
34.0097371216274
20
-3.99719106694428
30
0
0
SPLINE
5
AC
100
AcDbEntity
8
1
62
256
6
ByLayer
370
18
48
1
60
0
100
AcDbSpline
70
4
71
3
72
15
73
11
40
0
40
0
40
0
40
0
40
0.104948928506545
40
0.296653755653393
40
0.439698212650984
40
0.529070201531481
40
0.643813830225538
40
0.748393800518208
40
0.884719765899431
40
1
40
1
40
1
40
1
41
1
10
8.94956097145698
20
3.98460971064222
30
0
41
1
10
8.78546212175701
20
3.98411166982012
30
0
41
1
10
8.32154256192553
20
3.98303272120992
30
0
41
1
10
7.63378954434273
20
3.98414656285948
30
0
41
1
10
6.96981745940894
20
3.98447137834725
30
0
41
1
10
6.42566207669725
20
3.98278304290042
30
0
41
1
10
5.94168621901298
20
3.98286951746391
30
0
41
1
10
5.38411708681576
20
3.98242832323885
30
0
41
1
10
4.82570306042754
20
3.98242132669313
30
0
41
1
10
4.43124418592345
20
3.98167961316435
30
0
41
1
10
4.25051177034027
20
3.98126313001035
30
0
0
SPLINE
5
AD
100
AcDbEntity
8
1
62
256
6
ByLayer
370
18
48
1
60
0
100
AcDbSpline
70
4
71
3
72
14
73
10
40
0
40
0
40
0
40
0
40
0.0987488730170562
40
0.0987488730170562
40
0.3742346237303
40
0.3742346237303
40
0.925206125156795
40
0.925206125156795
40
1
40
1
40
1
40
1
41
1
10
46.724302825973
20
-4.00657973096824
30
0
41
1
10
46.561391088185
20
-4.00643820211323
30
0
41
1
10
46.3986375681831
20
-4.00377151255881
30
0
41
1
10
45.7834802040901
20
-3.98421531684599
30
0
41
1
10
45.3329921020927
20
-3.95046659756494
30
0
41
1
10
43.984769577102
20
-3.7937059520014
30
0
41
1
10
43.090250537946
20
-3.61510855648277
30
0
41
1
10
42.0676565265623
20
-3.33672150439116
30
0
41
1
10
41.9453236486498
20
-3.30222407896915
30
0
41
1
10
41.8228543802928
20
-3.26652888166564
30
0
0
SPLINE
5
AE
100
AcDbEntity
8
1
62
256
6
ByLayer
370
13
48
1
60
0
100
AcDbSpline
70
4
71
3
72
22
73
18
40
0
40
0
40
0
40
0
40
0.0837406429684882
40
0.0837406429684882
40
0.141215201400789
40
0.141215201400789
40
0.198689759833089
40
0.198689759833089
40
0.428587993562283
40
0.428587993562283
40
0.543537110426879
40
0.543537110426879
40
0.658486227291476
40
0.658486227291476
40
0.888384461020669
40
0.888384461020669
40
1
40
1
40
1
40
1
41
1
10
41.8228543803023
20
-3.26652888166839
30
0
41
1
10
41.4942367327374
20
-3.17074916546204
30
0
41
1
10
41.1646370852284
20
-3.06634559056462
30
0
41
1
10
40.6062561661233
20
-2.876582350815
30
0
41
1
10
40.3789958898026
20
-2.79571865477084
30
0
41
1
10
39.9262996852587
20
-2.62806158172404
30
0
41
1
10
39.7005341771677
20
-2.54115822795404
30
0
41
1
10
38.5738002984664
20
-2.09272130027358
30
0
41
1
10
37.6789219747209
20
-1.68970301436445
30
0
41
1
10
36.3312704849238
20
-1.04650857661599
30
0
41
1
10
35.8811494495472
20
-0.825709390007688
30
0
41
1
10
34.9765564412771
20
-0.376118288597212
30
0
41
1
10
34.5204734126695
20
-0.146544327328229
30
0
41
1
10
33.1626056227752
20
0.535708126930047
30
0
41
1
10
32.2661761020331
20
0.984208006056889
30
0
41
1
10
30.9323037855161
20
1.61106815962543
30
0
41
1
10
30.496050148517
20
1.80980669107407
30
0
41
1
10
30.0582817375575
20
2.00006150494548
30
0
0
SPLINE
5
AF
100
AcDbEntity
8
1
62
256
6
ByLayer
370
18
48
1
60
0
100
AcDbSpline
70
4
71
3
72
8
73
4
40
0
40
0
40
0
40
0
40
1
40
1
40
1
40
1
41
1
10
47.599246129387
20
-3.98302354034033
30
0
41
1
10
47.5772302905247
20
-3.99894606562697
30
0
41
1
10
47.5579979163027
20
-4.00696008786184
30
0
41
1
10
47.5415963115304
20
-4.00693120251955
30
0
0
SPLINE
5
B0
100
AcDbEntity
8
1
62
256
6
ByLayer
370
18
48
1
60
0
100
AcDbSpline
70
4
71
3
72
18
73
14
40
0
40
0
40
0
40
0
40
0.124999999999998
40
0.124999999999998
40
0.249999999999996
40
0.249999999999996
40
0.499999999999997
40
0.499999999999997
40
0.624999999999998
40
0.624999999999998
40
0.749999999999999
40
0.749999999999999
40
1
40
1
40
1
40
1
41
1
10
44.276639771419
20
1.03685800437188
30
0
41
1
10
44.3373830516173
20
0.872964097626465
30
0
41
1
10
44.4085224602581
20
0.712015689207988
30
0
41
1
10
44.5682209895497
20
0.395054337804709
30
0
41
1
10
44.6568075793587
20
0.239049177559622
30
0
41
1
10
44.9457955701801
20
-0.222385133307597
30
0
41
1
10
45.1602365493956
20
-0.507893404913688
30
0
41
1
10
45.5051911767159
20
-0.911931925241504
30
0
41
1
10
45.6241956227218
20
-1.04247212117255
30
0
41
1
10
45.8694146563378
20
-1.29612758558983
30
0
41
1
10
45.9947537334094
20
-1.41832817182666
30
0
41
1
10
46.3756216327373
20
-1.77076757364617
30
0
41
1
10
46.6369261672217
20
-1.98808694762408
30
0
41
1
10
46.9044893044697
20
-2.19047204258743
30
0
0
SPLINE
5
B1
100
AcDbEntity
8
1
62
256
6
ByLayer
370
18
48
1
60
0
100
AcDbSpline
70
4
71
3
72
8
73
4
40
0
40
0
40
0
40
0
40
1
40
1
40
1
40
1
41
1
10
47.5451648403356
20
-4.16449344745979
30
0
41
1
10
47.5569899407895
20
-4.13266261952071
30
0
41
1
10
47.5688037042835
20
-4.10081721163388
30
0
41
1
10
47.5806054463366
20
-4.06895908286603
30
0
0
SPLINE
5
B2
100
AcDbEntity
8
1
62
256
6
ByLayer
370
18
48
1
60
0
100
AcDbSpline
70
4
71
3
72
8
73
4
40
0
40
0
40
0
40
0
40
1
40
1
40
1
40
1
41
1
10
4.0180571308598
20
2.50422418740479
30
0
41
1
10
4.01061291343058
20
2.51903614222166
30
0
41
1
10
4.00665538277934
20
2.53450550256724
30
0
41
1
10
4.00665614630648
20
2.55031780712821
30
0
0
SPLINE
5
B3
100
AcDbEntity
8
1
62
256
6
ByLayer
370
18
48
1
60
0
100
AcDbSpline
70
4
71
3
72
22
73
18
40
0
40
0
40
0
40
0
40
0.167056465846721
40
0.167056465846721
40
0.334112931693442
40
0.334112931693442
40
0.501169397540163
40
0.501169397540163
40
0.584697630463524
40
0.584697630463524
40
0.668225863386884
40
0.668225863386884
40
0.751754096310245
40
0.751754096310245
40
0.835282329233605
40
0.835282329233605
40
1
40
1
40
1
40
1
41
1
10
14.5911865031961
20
-2.98229961716092
30
0
41
1
10
14.9381043118372
20
-3.11104326408361
30
0
41
1
10
15.2842530699018
20
-3.22919394301508
30
0
41
1
10
15.9738010112374
20
-3.44700586288931
30
0
41
1
10
16.3166372112135
20
-3.54711003751524
30
0
41
1
10
17.0028519597871
20
-3.72516983966986
30
0
41
1
10
17.345921444182
20
-3.80364835779571
30
0
41
1
10
17.8594313240595
20
-3.90625943496798
30
0
41
1
10
18.0305212818558
20
-3.93783109576489
30
0
41
1
10
18.3734463619396
20
-3.99513790767432
30
0
41
1
10
18.5451375404599
20
-4.02098224472067
30
0
41
1
10
18.8888441288983
20
-4.06713571884063
30
0
41
1
10
19.060860320016
20
-4.08744466684885
30
0
41
1
10
19.4050906613617
20
-4.12247635888565
30
0
41
1
10
19.5772086407278
20
-4.1372079898822
30
0
41
1
10
20.0905890754468
20
-4.17204971309738
30
0
41
1
10
20.4342398097415
20
-4.18374498772135
30
0
41
1
10
20.7754766010682
20
-4.18389346377217
30
0
0
SPLINE
5
B4
100
AcDbEntity
8
1
62
256
6
ByLayer
370
18
48
1
60
0
100
AcDbSpline
70
4
71
3
72
28
73
24
40
0
40
0
40
0
40
0
40
0.0964829774221898
40
0.0964829774221898
40
0.161019907606318
40
0.161019907606318
40
0.225556837790446
40
0.225556837790446
40
0.290093767974574
40
0.290093767974574
40
0.354630698158702
40
0.354630698158702
40
0.483704558526959
40
0.483704558526959
40
0.548241488711089
40
0.548241488711089
40
0.612778418895219
40
0.612778418895219
40
0.74185227926348
40
0.74185227926348
40
0.87092613963174
40
0.87092613963174
40
1
40
1
40
1
40
1
41
1
10
39.6279913235243
20
3.00338850502541
30
0
41
1
10
39.884507367702
20
3.0976094090928
30
0
41
1
10
40.1407905284691
20
3.18687035864602
30
0
41
1
10
40.5676436959873
20
3.32819715529874
30
0
41
1
10
40.7384309336239
20
3.38283475055866
30
0
41
1
10
41.0806009654032
20
3.48672234160037
30
0
41
1
10
41.2518811712213
20
3.53610987074674
30
0
41
1
10
41.5946391958759
20
3.63001617165355
30
0
41
1
10
41.7661267187963
20
3.67452419267977
30
0
41
1
10
42.1091880077184
20
3.75871228714073
30
0
41
1
10
42.2806190808857
20
3.79850168117909
30
0
41
1
10
42.7962226090177
20
3.9094690896377
30
0
41
1
10
43.1417647197962
20
3.97235342464046
30
0
41
1
10
43.6617989550435
20
4.05051202232474
30
0
41
1
10
43.8352518705706
20
4.07387343853995
30
0
41
1
10
44.1810253459868
20
4.11451995472677
30
0
41
1
10
44.3537881884295
20
4.13179498018155
30
0
41
1
10
44.8714599334662
20
4.17481808962114
30
0
41
1
10
45.2156430264575
20
4.19183581632643
30
0
41
1
10
45.9017448011414
20
4.20241456792434
30
0
41
1
10
46.2452862422325
20
4.19591948858695
30
0
41
1
10
46.9322242432804
20
4.15976341893983
30
0
41
1
10
47.2750520807069
20
4.12975513608316
30
0
41
1
10
47.6195078125338
20
4.08841068761217
30
0
0
SPLINE
5
B5
100
AcDbEntity
8
1
62
256
6
ByLayer
370
18
48
1
60
0
100
AcDbSpline
70
4
71
3
72
20
73
16
40
0
40
0
40
0
40
0
40
0.187298237241517
40
0.187298237241517
40
0.374596474483033
40
0.374596474483033
40
0.56189471172455
40
0.56189471172455
40
0.749192948966066
40
0.749192948966066
40
0.842842067586824
40
0.842842067586824
40
0.936491186207583
40
0.936491186207583
40
1
40
1
40
1
40
1
41
1
10
8.63245076925455
20
-3.98267632516914
30
0
41
1
10
9.00496475378924
20
-3.98815143966081
30
0
41
1
10
9.37701179443579
20
-3.98191176201823
30
0
41
1
10
10.1197370460302
20
-3.94109891988469
30
0
41
1
10
10.4906193901419
20
-3.90669261969731
30
0
41
1
10
11.2341952597396
20
-3.81356525948129
30
0
41
1
10
11.6068216096344
20
-3.75487161280759
30
0
41
1
10
12.3506481412011
20
-3.61461075191789
30
0
41
1
10
12.7221959783119
20
-3.53176094255241
30
0
41
1
10
13.278987343638
20
-3.39031658102257
30
0
41
1
10
13.4644032930677
20
-3.34019293303399
30
0
41
1
10
13.8357829773286
20
-3.23478807534559
30
0
41
1
10
14.0216689944052
20
-3.17944907046191
30
0
41
1
10
14.3338525975098
20
-3.08239669735966
30
0
41
1
10
14.4600496415769
20
-3.04198192100395
30
0
41
1
10
14.5862345454769
20
-3.00042094323737
30
0
0
SPLINE
5
B6
100
AcDbEntity
8
1
62
256
6
ByLayer
370
18
48
1
60
0
100
AcDbSpline
70
4
71
3
72
34
73
30
40
0
40
0
40
0
40
0
40
0.0243367143724371
40
0.0243367143724371
40
0.0785402302406368
40
0.0785402302406368
40
0.132743746108837
40
0.132743746108837
40
0.186947261977037
40
0.186947261977037
40
0.241150777845237
40
0.241150777845237
40
0.349557809581637
40
0.349557809581637
40
0.403761325449835
40
0.403761325449835
40
0.457964841318033
40
0.457964841318033
40
0.566371873054426
40
0.566371873054426
40
0.67477890479082
40
0.67477890479082
40
0.728982420659017
40
0.728982420659017
40
0.783185936527214
40
0.783185936527214
40
0.891592968263607
40
0.891592968263607
40
1
40
1
40
1
40
1
41
1
10
34.0107874190368
20
3.99728715494996
30
0
41
1
10
34.0940134442053
20
3.99652709956439
30
0
41
1
10
34.1772369722012
20
3.99513536862042
30
0
41
1
10
34.4458092725357
20
3.98866682929159
30
0
41
1
10
34.631213271232
20
3.9811986375108
30
0
41
1
10
35.002535073382
20
3.95893946160982
30
0
41
1
10
35.1886578529341
20
3.94437998228631
30
0
41
1
10
35.5603613234698
20
3.90933260171354
30
0
41
1
10
35.7459776917889
20
3.88899702255324
30
0
41
1
10
36.1167580740509
20
3.84154442472664
30
0
41
1
10
36.3019297375538
20
3.81413849711402
30
0
41
1
10
36.857975598577
20
3.72316811934675
30
0
41
1
10
37.2287449182912
20
3.65110940151391
30
0
41
1
10
37.7854330198093
20
3.52413002204739
30
0
41
1
10
37.9712696037617
20
3.47889853042096
30
0
41
1
10
38.3429100183226
20
3.38356702848617
30
0
41
1
10
38.5286350046242
20
3.33346613295049
30
0
41
1
10
39.0852084624723
20
3.17402471690198
30
0
41
1
10
39.455222931258
20
3.05546766855309
30
0
41
1
10
40.1966583490736
20
2.80120997983818
30
0
41
1
10
40.567634091913
20
2.6649374097062
30
0
41
1
10
41.1249073165705
20
2.44794742482884
30
0
41
1
10
41.310487567643
20
2.37359296829081
30
0
41
1
10
41.681422228247
20
2.22116650645569
30
0
41
1
10
41.8668422814516
20
2.1431719608816
30
0
41
1
10
42.4226796352132
20
1.90392318108249
30
0
41
1
10
42.7925167062621
20
1.73698297107936
30
0
41
1
10
43.5341471247782
20
1.39415831663001
30
0
41
1
10
43.9060670412623
20
1.21716273590076
30
0
41
1
10
44.2766397714085
20
1.03685800437742
30
0
0
SPLINE
5
B7
100
AcDbEntity
8
1
62
256
6
ByLayer
370
18
48
1
60
0
100
AcDbSpline
70
4
71
3
72
18
73
14
40
0
40
0
40
0
40
0
40
0.102954144331708
40
0.102954144331708
40
0.25246178694309
40
0.25246178694309
40
0.401969429554472
40
0.401969429554472
40
0.700984714777236
40
0.700984714777236
40
0.850492357388618
40
0.850492357388618
40
1
40
1
40
1
40
1
41
1
10
4.00673462798468
20
-4.17383184872372
30
0
41
1
10
4.00673665639351
20
-4.1734055092987
30
0
41
1
10
4.00673878136485
20
-4.16979777181334
30
0
41
1
10
4.00674425711088
20
-4.15320093892967
30
0
41
1
10
4.00674772338593
20
-4.13665987181312
30
0
41
1
10
4.00675512301154
20
-4.08968344824186
30
0
41
1
10
4.00675900378042
20
-4.05956728466893
30
0
41
1
10
4.0067710629495
20
-3.95031314407007
30
0
41
1
10
4.00677969611985
20
-3.85233131094259
30
0
41
1
10
4.0067928774844
20
-3.66709043833737
30
0
41
1
10
4.0067973200097
20
-3.59859735417751
30
0
41
1
10
4.00680591010675
20
-3.4515455325691
30
0
41
1
10
4.00681007909498
20
-3.37273104197862
30
0
41
1
10
4.00681402441262
20
-3.28873085538268
30
0
0
SPLINE
5
B8
100
AcDbEntity
8
1
62
256
6
ByLayer
370
18
48
1
60
0
100
AcDbSpline
70
4
71
3
72
36
73
32
40
0
40
0
40
0
40
0
40
0.250000000000026
40
0.250000000000026
40
0.375000000000036
40
0.375000000000036
40
0.437500000000038
40
0.437500000000038
40
0.500000000000039
40
0.500000000000039
40
0.625000000000035
40
0.625000000000035
40
0.687500000000033
40
0.687500000000033
40
0.750000000000031
40
0.750000000000031
40
0.781250000000028
40
0.781250000000028
40
0.812500000000024
40
0.812500000000024
40
0.84375000000002
40
0.84375000000002
40
0.875000000000016
40
0.875000000000016
40
0.906250000000012
40
0.906250000000012
40
0.937500000000008
40
0.937500000000008
40
0.968750000000004
40
0.968750000000004
40
1
40
1
40
1
40
1
41
1
10
44.2766397714192
20
1.03685800437219
30
0
41
1
10
44.5736927165327
20
0.855073204398877
30
0
41
1
10
44.8720326039927
20
0.692329698833305
30
0
41
1
10
45.3224792701991
20
0.491667156388928
30
0
41
1
10
45.4731128848284
20
0.431951531856669
30
0
41
1
10
45.6999221664742
20
0.355085579957432
30
0
41
1
10
45.7757687054098
20
0.331553209092419
30
0
41
1
10
45.9261188064905
20
0.289603981118404
30
0
41
1
10
46.0008117429631
20
0.271104457675648
30
0
41
1
10
46.2233750088786
20
0.223386426522495
30
0
41
1
10
46.369738309555
20
0.201904744801595
30
0
41
1
10
46.5858468917484
20
0.187323947579245
30
0
41
1
10
46.6574123770695
20
0.185415900461493
30
0
41
1
10
46.7984350379566
20
0.187896607773382
30
0
41
1
10
46.8687795041992
20
0.19108471140089
30
0
41
1
10
46.9665586816629
20
0.212450605730794
30
0
41
1
10
46.9978355673218
20
0.222136921338745
30
0
41
1
10
47.0567362431804
20
0.248627017241375
30
0
41
1
10
47.0846039684248
20
0.26565805977981
30
0
41
1
10
47.1344378562651
20
0.306812687789517
30
0
41
1
10
47.1563741411397
20
0.331010818128476
30
0
41
1
10
47.1933853021833
20
0.387742114896923
30
0
41
1
10
47.2084032161504
20
0.420135657798937
30
0
41
1
10
47.2304737759207
20
0.489767284625742
30
0
41
1
10
47.2377230939164
20
0.527565027603941
30
0
41
1
10
47.2442668160595
20
0.608286600876312
30
0
41
1
10
47.2437419815122
20
0.650019209710422
30
0
41
1
10
47.2346975705451
20
0.73637308780053
30
0
41
1
10
47.2255825754116
20
0.781404766938607
30
0
41
1
10
47.2036409178071
20
0.871065895191407
30
0
41
1
10
47.1902562940508
20
0.916131908530048
30
0
41
1
10
47.1749771259511
20
0.961223485406862
30
0
0
SPLINE
5
B9
100
AcDbEntity
8
1
62
256
6
ByLayer
370
18
48
1
60
0
100
AcDbSpline
70
4
71
3
72
21
73
17
40
0
40
0
40
0
40
0
40
0.107400138681914
40
0.107400138681914
40
0.214800277363827
40
0.214800277363827
40
0.429600554727655
40
0.429600554727655
40
0.537000693409568
40
0.537000693409568
40
0.644400832091482
40
0.751800970773395
40
0.751800970773395
40
0.859201109455309
40
0.859201109455309
40
1
40
1
40
1
40
1
41
1
10
4.00665614630648
20
2.55031780713688
30
0
41
1
10
4.00666142625485
20
2.65966340451959
30
0
41
1
10
4.00666615138624
20
2.76508733466761
30
0
41
1
10
4.00667460257202
20
2.9655599470785
30
0
41
1
10
4.00667832281547
20
3.06039490807308
30
0
41
1
10
4.00668835449272
20
3.32915114149304
30
0
41
1
10
4.00669354098895
20
3.48747592029105
30
0
41
1
10
4.00670044973293
20
3.69272452016906
30
0
41
1
10
4.00670259240803
20
3.75526256548051
30
0
41
1
10
4.0067067224532
20
3.8669332434265
30
0
41
1
10
4.00671071822558
20
3.96584055297086
30
0
41
1
10
4.00671484713115
20
4.03951731694642
30
0
41
1
10
4.00671921801253
20
4.10035816289198
30
0
41
1
10
4.00672153885389
20
4.12442318561133
30
0
41
1
10
4.00672725155957
20
4.16391120703773
30
0
41
1
10
4.00673076301305
20
4.1746371439051
30
0
41
1
10
4.00673462441671
20
4.17383259540304
30
0
0
SPLINE
5
BA
100
AcDbEntity
8
1
62
256
6
ByLayer
370
18
48
1
60
0
100
AcDbSpline
70
4
71
3
72
18
73
14
40
0
40
0
40
0
40
0
40
0.124999999999999
40
0.124999999999999
40
0.249999999999998
40
0.249999999999998
40
0.499999999999997
40
0.499999999999997
40
0.749999999999995
40
0.749999999999995
40
0.874999999999997
40
0.874999999999997
40
1
40
1
40
1
40
1
41
1
10
48.3872029241647
20
-2.07172651693492
30
0
41
1
10
48.3556452693305
20
-2.15672714000368
30
0
41
1
10
48.3239940264281
20
-2.24153429381121
30
0
41
1
10
48.2607300661046
20
-2.41122824295073
30
0
41
1
10
48.2290652753987
20
-2.49600739015904
30
0
41
1
10
48.1339212788836
20
-2.75003552182355
30
0
41
1
10
48.0702795807417
20
-2.91894859517313
30
0
41
1
10
47.9423762620926
20
-3.25549321181856
30
0
41
1
10
47.8783680567254
20
-3.42364862574107
30
0
41
1
10
47.7816190476062
20
-3.67435880663669
30
0
41
1
10
47.7491961429301
20
-3.75764509823
30
0
41
1
10
47.6843887201771
20
-3.92370965262779
30
0
41
1
10
47.6519676089246
20
-4.00641907330638
30
0
41
1
10
47.6195078125548
20
-4.08841068758906
30
0
0
SPLINE
5
BB
100
AcDbEntity
8
1
62
256
6
ByLayer
370
13
48
1
60
0
100
AcDbSpline
70
4
71
3
72
8
73
4
40
0
40
0
40
0
40
0
40
1
40
1
40
1
40
1
41
1
10
4.00665614630327
20
2.55031780714086
30
0
41
1
10
4.01298867907641
20
2.52173930156732
30
0
41
1
10
4.02379805377797
20
2.49421543693845
30
0
41
1
10
4.03892077972378
20
2.46897882166371
30
0
0
SPLINE
5
BC
100
AcDbEntity
8
1
62
256
6
ByLayer
370
18
48
1
60
0
100
AcDbSpline
70
4
71
3
72
24
73
20
40
0
40
0
40
0
40
0
40
0.25
40
0.25
40
0.375
40
0.375
40
0.5
40
0.5
40
0.625
40
0.625
40
0.75
40
0.75
40
0.8125
40
0.8125
40
0.875
40
0.875
40
0.9375
40
0.9375
40
1
40
1
40
1
40
1
41
1
10
47.2931763604581
20
1.27851213423787
30
0
41
1
10
47.41319149084
20
1.3055059733949
30
0
41
1
10
47.5321169815946
20
1.33599970267855
30
0
41
1
10
47.707689908904
20
1.39104319779514
30
0
41
1
10
47.7657381864924
20
1.41096533836168
30
0
41
1
10
47.8804841331205
20
1.4553473134871
30
0
41
1
10
47.9373574868875
20
1.47987439747266
30
0
41
1
10
48.0474228805626
20
1.53515786119314
30
0
41
1
10
48.1010976662114
20
1.56612326347493
30
0
41
1
10
48.2011653554679
20
1.63736632080742
30
0
41
1
10
48.2474462089897
20
1.67731281749676
30
0
41
1
10
48.3069570493818
20
1.74885298914913
30
0
41
1
10
48.3246639680004
20
1.77421458192225
30
0
41
1
10
48.3545560822476
20
1.82810961296309
30
0
41
1
10
48.3668886802792
20
1.85713692198129
30
0
41
1
10
48.3843111266811
20
1.91659751172108
30
0
41
1
10
48.3895306301837
20
1.94704314730458
30
0
41
1
10
48.3932239159423
20
2.00933611279623
30
0
41
1
10
48.3916153879719
20
2.04088665266562
30
0
41
1
10
48.3872029241658
20
2.07172651693475
30
0
0
SPLINE
5
BD
100
AcDbEntity
8
1
62
256
6
ByLayer
370
18
48
1
60
0
100
AcDbSpline
70
4
71
3
72
16
73
12
40
0
40
0
40
0
40
0
40
0.249999999999995
40
0.249999999999995
40
0.374999999999995
40
0.374999999999995
40
0.499999999999994
40
0.499999999999994
40
0.749999999999997
40
0.749999999999997
40
1
40
1
40
1
40
1
41
1
10
8.63245352698698
20
-3.98267428904401
30
0
41
1
10
8.25484088283551
20
-3.97715054342873
30
0
41
1
10
7.87902842785266
20
-3.95795824899224
30
0
41
1
10
7.31780563160982
20
-3.90662674566346
30
0
41
1
10
7.13176011995083
20
-3.88584345099915
30
0
41
1
10
6.76175889448098
20
-3.83580330173734
30
0
41
1
10
6.5778383110956
20
-3.80635143573028
30
0
41
1
10
6.02871403274747
20
-3.70698796663123
30
0
41
1
10
5.66630925564823
20
-3.62498283851767
30
0
41
1
10
4.9505300430751
20
-3.42113973226216
30
0
41
1
10
4.59697120486851
20
-3.29989546737627
30
0
41
1
10
4.25081906076599
20
-3.14964850327837
30
0
0
SPLINE
5
BE
100
AcDbEntity
8
1
62
256
6
ByLayer
370
18
48
1
60
0
100
AcDbSpline
70
4
71
3
72
86
73
82
40
0
40
0
40
0
40
0
40
0.0291446808610263
40
0.0291446808610263
40
0.0471234830673035
40
0.0471234830673035
40
0.0651022852735807
40
0.0651022852735807
40
0.101059889686135
40
0.101059889686135
40
0.119038691892413
40
0.119038691892413
40
0.137017494098691
40
0.137017494098691
40
0.154996296304969
40
0.154996296304969
40
0.172975098511246
40
0.172975098511246
40
0.208932702923801
40
0.208932702923801
40
0.226911505130078
40
0.226911505130078
40
0.244890307336355
40
0.244890307336355
40
0.262869109542632
40
0.262869109542632
40
0.28084791174891
40
0.28084791174891
40
0.316805516161465
40
0.316805516161465
40
0.334784318367743
40
0.334784318367743
40
0.352763120574021
40
0.352763120574021
40
0.388720724986575
40
0.388720724986575
40
0.406699527192853
40
0.406699527192853
40
0.42467832939913
40
0.42467832939913
40
0.460635933811684
40
0.460635933811684
40
0.496593538224239
40
0.496593538224239
40
0.514572340430516
40
0.514572340430516
40
0.532551142636793
40
0.532551142636793
40
0.568508747049347
40
0.568508747049347
40
0.586487549255623
40
0.586487549255623
40
0.6044663514619
40
0.6044663514619
40
0.640423955874454
40
0.640423955874454
40
0.676381560287008
40
0.676381560287008
40
0.694360362493285
40
0.694360362493285
40
0.712339164699562
40
0.712339164699562
40
0.73031796690584
40
0.73031796690584
40
0.748296769112117
40
0.748296769112117
40
0.784254373524671
40
0.784254373524671
40
0.820211977937226
40
0.820211977937226
40
0.838190780143503
40
0.838190780143503
40
0.85616958234978
40
0.85616958234978
40
0.892127186762335
40
0.892127186762335
40
0.92808479117489
40
0.92808479117489
40
0.964042395587445
40
0.964042395587445
40
1
40
1
40
1
40
1
41
1
10
39.6134732821039
20
-3.00025459488842
30
0
41
1
10
39.3127189628904
20
-3.10067530077765
30
0
41
1
10
39.0117535650375
20
-3.1951345678726
30
0
41
1
10
38.5244435730783
20
-3.33462467654877
30
0
41
1
10
38.3387178365639
20
-3.38467704186016
30
0
41
1
10
37.967721647456
20
-3.47977325127331
30
0
41
1
10
37.7823704046479
20
-3.52485755139517
30
0
41
1
10
37.2264119470335
20
-3.65158297507688
30
0
41
1
10
36.8555881199601
20
-3.72362067807671
30
0
41
1
10
36.2987437792697
20
-3.81462837942891
30
0
41
1
10
36.1131788888492
20
-3.84205517222699
30
0
41
1
10
35.7413059956177
20
-3.88954104311023
30
0
41
1
10
35.5554880700878
20
-3.90984293338144
30
0
41
1
10
35.1840258535875
20
-3.94476456940106
30
0
41
1
10
34.9984347486295
20
-3.95923193136653
30
0
41
1
10
34.6276266803687
20
-3.98136598843041
30
0
41
1
10
34.4423366122889
20
-3.98878668217395
30
0
41
1
10
33.88627120948
20
-4.00206979592883
30
0
41
1
10
33.5150323212206
20
-3.99876876839616
30
0
41
1
10
32.9573375273913
20
-3.97291818050795
30
0
41
1
10
32.7714607670304
20
-3.96089993330412
30
0
41
1
10
32.3999842026719
20
-3.93098566148021
30
0
41
1
10
32.2143056640948
20
-3.9130731987284
30
0
41
1
10
31.8431336188441
20
-3.87026702064898
30
0
41
1
10
31.6577147780639
20
-3.84512065304108
30
0
41
1
10
31.2869340470975
20
-3.78972681719188
30
0
41
1
10
31.1015662177854
20
-3.75918176349737
30
0
41
1
10
30.5450382859939
20
-3.65819503696323
30
0
41
1
10
30.1726670298652
20
-3.57856678034796
30
0
41
1
10
29.6152192000333
20
-3.44158387802443
30
0
41
1
10
29.4297372293153
20
-3.3929391585082
30
0
41
1
10
29.0586722452063
20
-3.2897398069646
30
0
41
1
10
28.8731494317669
20
-3.23517715820265
30
0
41
1
10
28.3165615300093
20
-3.06586559808852
30
0
41
1
10
27.945971907537
20
-2.94306415788378
30
0
41
1
10
27.3887774267315
20
-2.74496510698774
30
0
41
1
10
27.2026751601495
20
-2.67667247929236
30
0
41
1
10
26.8306413639764
20
-2.53548718125921
30
0
41
1
10
26.6449161004539
20
-2.46233515173677
30
0
41
1
10
26.0886646845738
20
-2.23605304354138
30
0
41
1
10
25.7177405285408
20
-2.0793346320157
30
0
41
1
10
24.9756859506998
20
-1.75368237713764
30
0
41
1
10
24.6049368070979
20
-1.58397310349281
30
0
41
1
10
24.0468512966822
20
-1.32173945784106
30
0
41
1
10
23.8609760999939
20
-1.23305989763512
30
0
41
1
10
23.4895732757462
20
-1.05422893263912
30
0
41
1
10
23.3040339414883
20
-0.964028669023634
30
0
41
1
10
22.7478535533336
20
-0.691054038442445
30
0
41
1
10
22.376717388624
20
-0.507619798079872
30
0
41
1
10
21.8198102989906
20
-0.229384873603607
30
0
41
1
10
21.6341597921926
20
-0.136117071741097
30
0
41
1
10
21.2623474146842
20
0.050828286482556
30
0
41
1
10
21.0762890250618
20
0.144408334610745
30
0
41
1
10
20.5185909502048
20
0.423367447252275
30
0
41
1
10
20.1473111587
20
0.608130109764886
30
0
41
1
10
19.4052563932966
20
0.973697914177535
30
0
41
1
10
19.0336568563349
20
1.15310454956005
30
0
41
1
10
18.4756638081703
20
1.41674870859285
30
0
41
1
10
18.2894145433034
20
1.50365920340707
30
0
41
1
10
17.9174744898079
20
1.67490157990864
30
0
41
1
10
17.7316241378255
20
1.75910128428475
30
0
41
1
10
17.3600254351687
20
1.92400952335828
30
0
41
1
10
17.174279566287
20
2.00479519770641
30
0
41
1
10
16.8029311443259
20
2.16340812058428
30
0
41
1
10
16.6174493195904
20
2.2414190451027
30
0
41
1
10
16.0603660120998
20
2.46896893666897
30
0
41
1
10
15.6876358794204
20
2.61228834687105
30
0
41
1
10
14.9433004206399
20
2.88298858903568
30
0
41
1
10
14.5721171965931
20
3.00844677189267
30
0
41
1
10
14.014932633775
20
3.18148036495126
30
0
41
1
10
13.8291977111948
20
3.23671720536368
30
0
41
1
10
13.4578004055688
20
3.34200468786403
30
0
41
1
10
13.272209998316
20
3.39211086838947
30
0
41
1
10
12.714416219595
20
3.53358781255213
30
0
41
1
10
12.3412335570666
20
3.61657195252155
30
0
41
1
10
11.5990225938901
20
3.75615195874781
30
0
41
1
10
11.2286617840017
20
3.81434922870622
30
0
41
1
10
10.4877732475071
20
3.90695710113377
30
0
41
1
10
10.1179225331676
20
3.94122661432436
30
0
41
1
10
9.376582776867
20
3.98190726502224
30
0
41
1
10
9.00489190165254
20
3.98815036889891
30
0
41
1
10
8.63245076925449
20
3.98267632516917
30
0
0
SPLINE
5
BF
100
AcDbEntity
8
1
62
256
6
ByLayer
370
18
48
1
60
0
100
AcDbSpline
70
4
71
3
72
8
73
4
40
0
40
0
40
0
40
0
40
1
40
1
40
1
40
1
41
1
10
47.5451648403356
20
4.16449344745979
30
0
41
1
10
47.199801039495
20
4.18796389007824
30
0
41
1
10
46.854670531857
20
4.19958499256296
30
0
41
1
10
46.5091798825878
20
4.19933418441792
30
0
0
SPLINE
5
C0
100
AcDbEntity
8
1
62
256
6
ByLayer
370
18
48
1
60
0
100
AcDbSpline
70
4
71
3
72
38
73
34
40
0
40
0
40
0
40
0
40
0.0355842800514169
40
0.0355842800514169
40
0.173357954329785
40
0.173357954329785
40
0.24224479146897
40
0.24224479146897
40
0.311131628608154
40
0.311131628608154
40
0.345575047177747
40
0.345575047177747
40
0.380018465747338
40
0.380018465747338
40
0.448905302886523
40
0.448905302886523
40
0.483348721456115
40
0.483348721456115
40
0.517792140025707
40
0.517792140025707
40
0.58667897716489
40
0.58667897716489
40
0.621122395734482
40
0.621122395734482
40
0.655565814304074
40
0.655565814304074
40
0.724452651443259
40
0.724452651443259
40
0.793339488582445
40
0.793339488582445
40
0.86222632572163
40
0.86222632572163
40
1
40
1
40
1
40
1
41
1
10
23.8218043747946
20
-4.01035752004552
30
0
41
1
10
23.5880806886355
20
-4.04543940685787
30
0
41
1
10
23.3541824973794
20
-4.07536804338525
30
0
41
1
10
22.2133262837791
20
-4.19526639992731
30
0
41
1
10
21.3121076663539
20
-4.20995214214946
30
0
41
1
10
19.9520460390822
20
-4.11011825301074
30
0
41
1
10
19.4995928589137
20
-4.05673272201261
30
0
41
1
10
18.5954616593635
20
-3.91155021210156
30
0
41
1
10
18.1436270247288
20
-3.8196467056533
30
0
41
1
10
17.4638957141775
20
-3.65427962452748
30
0
41
1
10
17.2370371580598
20
-3.59460122587248
30
0
41
1
10
16.7843231891819
20
-3.46691295355333
30
0
41
1
10
16.5582242985418
20
-3.39884183998154
30
0
41
1
10
15.8800733735888
20
-3.18268969691368
30
0
41
1
10
15.4282441081481
20
-3.0225815271825
30
0
41
1
10
14.7487733832553
20
-2.76102334745312
30
0
41
1
10
14.5218015546125
20
-2.67022518829728
30
0
41
1
10
14.0688475788579
20
-2.48270351568729
30
0
41
1
10
13.8426671764532
20
-2.3859070008979
30
0
41
1
10
13.1644071665785
20
-2.08739760765826
30
0
41
1
10
12.7125982775491
20
-1.87758232871241
30
0
41
1
10
12.0333211118058
20
-1.55017592211294
30
0
41
1
10
11.8063904709188
20
-1.43879621490623
30
0
41
1
10
11.3532086719269
20
-1.21296194001661
30
0
41
1
10
11.1269695993618
20
-1.09852431310264
30
0
41
1
10
10.4485656612923
20
-0.752039091196735
30
0
41
1
10
9.99671673109432
20
-0.516817184161908
30
0
41
1
10
9.09116893413443
20
-0.0430199035990313
30
0
41
1
10
8.63696820045209
20
0.196298566885645
30
0
41
1
10
7.73450836317355
20
0.667566629860488
30
0
41
1
10
7.28495822797055
20
0.90002992571732
30
0
41
1
10
5.93728861077935
20
1.58043608194012
30
0
41
1
10
5.0404951759333
20
2.01198111147562
30
0
41
1
10
4.13389606872298
20
2.40058773757127
30
0
0
SPLINE
5
C1
100
AcDbEntity
8
1
62
256
6
ByLayer
370
18
48
1
60
0
100
AcDbSpline
70
4
71
3
72
12
73
8
40
0
40
0
40
0
40
0
40
0.250000000000002
40
0.250000000000002
40
0.500000000000004
40
0.500000000000004
40
1
40
1
40
1
40
1
41
1
10
47.5806054463236
20
-4.0689590828581
30
0
41
1
10
47.585447172446
20
-4.05588911966325
30
0
41
1
10
47.5900155158604
20
-4.04261593906026
30
0
41
1
10
47.5974140366831
20
-4.01874993429701
30
0
41
1
10
47.6002250701589
20
-4.00819164538913
30
0
41
1
10
47.6050069167349
20
-3.98453286892374
30
0
41
1
10
47.6034012073004
20
-3.98001846142608
30
0
41
1
10
47.5992461293869
20
-3.98302354034038
30
0
0
SPLINE
5
C2
100
AcDbEntity
8
1
62
256
6
ByLayer
370
18
48
1
60
0
100
AcDbSpline
70
4
71
3
72
26
73
22
40
0
40
0
40
0
40
0
40
0.009307432479346
40
0.009307432479346
40
0.0405745927745325
40
0.0405745927745325
40
0.103108913364906
40
0.103108913364906
40
0.353246195726396
40
0.353246195726396
40
0.478314836907142
40
0.478314836907142
40
0.603383478087887
40
0.603383478087887
40
0.728452119268633
40
0.728452119268633
40
0.790986439859006
40
0.790986439859006
40
0.853520760449379
40
0.853520760449379
40
1
40
1
40
1
40
1
41
1
10
11.9795008140406
20
-1.92350372348778
30
0
41
1
10
11.9694639457237
20
-1.93090210226978
30
0
41
1
10
11.9594261574212
20
-1.93831195036279
30
0
41
1
10
11.9156624503651
20
-1.97066280622462
30
0
41
1
10
11.8819351623901
20
-1.99571030468692
30
0
41
1
10
11.780717550999
20
-2.07116299660996
30
0
41
1
10
11.7131252239504
20
-2.12192925301014
30
0
41
1
10
11.3753743458181
20
-2.37659646814035
30
0
41
1
10
11.106201875615
20
-2.58295453945686
30
0
41
1
10
10.6943325032746
20
-2.88357386518484
30
0
41
1
10
10.5559201897886
20
-2.98202900145495
30
0
41
1
10
10.2794184252996
20
-3.17022390612925
30
0
41
1
10
10.1407599055298
20
-3.2603767104948
30
0
41
1
10
9.86115261559635
20
-3.43086240112356
30
0
41
1
10
9.72020017254738
20
-3.51118898310165
30
0
41
1
10
9.50608637624336
20
-3.6231613824944
30
0
41
1
10
9.43426944785986
20
-3.65906973281813
30
0
41
1
10
9.28961102853964
20
-3.7279171077445
30
0
41
1
10
9.21663934548428
20
-3.76090345557955
30
0
41
1
10
8.97342464863749
20
-3.86498230912767
30
0
41
1
10
8.80310060792496
20
-3.92818214957262
30
0
41
1
10
8.63243941188605
20
-3.98267995196807
30
0
0
SPLINE
5
C3
100
AcDbEntity
8
1
62
256
6
ByLayer
370
18
48
1
60
0
100
AcDbSpline
70
4
71
3
72
20
73
16
40
0
40
0
40
0
40
0
40
0.0032465120407056
40
0.0032465120407056
40
0.104698157080343
40
0.104698157080343
40
0.20614980211998
40
0.20614980211998
40
0.40905309219926
40
0.40905309219926
40
0.81485967235782
40
0.81485967235782
40
0.916311317397461
40
0.916311317397461
40
1
40
1
40
1
40
1
41
1
10
34.0193977276719
20
-0.0046369302996823
30
0
41
1
10
34.0266449520314
20
-0.0083690533936362
30
0
41
1
10
34.0338927645367
20
-0.0121014915336843
30
0
41
1
10
34.2676497193041
20
-0.132480305595749
30
0
41
1
10
34.4949956851774
20
-0.249486849462585
30
0
41
1
10
34.950143735473
20
-0.482999623722805
30
0
41
1
10
35.176960983398
20
-0.598973244055429
30
0
41
1
10
35.8557775899072
20
-0.94332381002323
30
0
41
1
10
36.306073100407
20
-1.16829295050252
30
0
41
1
10
37.6542201491045
20
-1.8221154286822
30
0
41
1
10
38.5493347098825
20
-2.22978816096548
30
0
41
1
10
39.6768638171737
20
-2.680757605617
30
0
41
1
10
39.9028103026868
20
-2.76800948959291
30
0
41
1
10
40.3162555559695
20
-2.92133130576303
30
0
41
1
10
40.5038294598058
20
-2.98852449303766
30
0
41
1
10
40.6914368921098
20
-3.05318208380217
30
0
0
SPLINE
5
C4
100
AcDbEntity
8
1
62
256
6
ByLayer
370
13
48
1
60
0
100
AcDbSpline
70
4
71
3
72
18
73
14
40
0
40
0
40
0
40
0
40
0.0172075139752676
40
0.0172075139752676
40
0.213766011180212
40
0.213766011180212
40
0.606883005590109
40
0.606883005590109
40
0.803441502795054
40
0.803441502795054
40
0.901720751397527
40
0.901720751397527
40
1
40
1
40
1
40
1
41
1
10
40.6914368922082
20
-3.05318208383611
30
0
41
1
10
40.7312566583529
20
-3.06690568802421
30
0
41
1
10
40.7710779349638
20
-3.08051506292253
30
0
41
1
10
41.2657122507434
20
-3.24811271184004
30
0
41
1
10
41.717572357759
20
-3.38616294369786
30
0
41
1
10
43.0686670833247
20
-3.74849085122199
30
0
41
1
10
43.9633879945701
20
-3.92086543617094
30
0
41
1
10
45.3123372832436
20
-4.06472728689951
30
0
41
1
10
45.7631466723664
20
-4.09359177446532
30
0
41
1
10
46.4430604335975
20
-4.10700544397039
30
0
41
1
10
46.670596843702
20
-4.1064803641911
30
0
41
1
10
47.1256957643781
20
-4.09529311782603
30
0
41
1
10
47.3531297844207
20
-4.08454697406799
30
0
41
1
10
47.5806054463179
20
-4.0689590828585
30
0
0
SPLINE
5
C5
100
AcDbEntity
8
1
62
256
6
ByLayer
370
18
48
1
60
0
100
AcDbSpline
70
4
71
3
72
10
73
6
40
0
40
0
40
0
40
0
40
0.5
40
0.5
40
1
40
1
40
1
40
1
41
1
10
4.13389606872278
20
2.40058773757136
30
0
41
1
10
4.10762123884211
20
2.41185023817383
30
0
41
1
10
4.0843975677287
20
2.42654470849135
30
0
41
1
10
4.04470685761629
20
2.46212050703062
30
0
41
1
10
4.02907025005513
20
2.4823110950654
30
0
41
1
10
4.01805713085906
20
2.50422418740581
30
0
0
SPLINE
5
C6
100
AcDbEntity
8
1
62
256
6
ByLayer
370
18
48
1
60
0
100
AcDbSpline
70
4
71
3
72
94
73
90
40
0
40
0
40
0
40
0
40
0.0330939762089779
40
0.0330939762089779
40
0.0661879524179557
40
0.0661879524179557
40
0.0992819286269336
40
0.0992819286269336
40
0.115828916731422
40
0.115828916731422
40
0.132375904835911
40
0.132375904835911
40
0.1489228929404
40
0.1489228929404
40
0.165469881044889
40
0.165469881044889
40
0.198563857253868
40
0.198563857253868
40
0.215110845358357
40
0.215110845358357
40
0.231657833462846
40
0.231657833462846
40
0.248204821567335
40
0.248204821567335
40
0.264751809671824
40
0.264751809671824
40
0.297845785880802
40
0.297845785880802
40
0.330939762089779
40
0.330939762089779
40
0.364033738298757
40
0.364033738298757
40
0.380580726403246
40
0.380580726403246
40
0.397127714507735
40
0.397127714507735
40
0.430221690716714
40
0.430221690716714
40
0.463315666925694
40
0.463315666925694
40
0.479862655030183
40
0.479862655030183
40
0.496409643134673
40
0.496409643134673
40
0.512956631239163
40
0.512956631239163
40
0.529503619343653
40
0.529503619343653
40
0.546050607448142
40
0.546050607448142
40
0.562597595552632
40
0.562597595552632
40
0.579144583657122
40
0.579144583657122
40
0.595691571761612
40
0.595691571761612
40
0.62878554797059
40
0.62878554797059
40
0.661879524179569
40
0.661879524179569
40
0.694973500388547
40
0.694973500388547
40
0.728067476597525
40
0.728067476597525
40
0.761161452806504
40
0.761161452806504
40
0.777708440910992
40
0.777708440910992
40
0.794255429015481
40
0.794255429015481
40
0.827349405224457
40
0.827349405224457
40
0.843896393328945
40
0.843896393328945
40
0.860443381433433
40
0.860443381433433
40
0.87699036953792
40
0.87699036953792
40
0.893537357642408
40
0.893537357642408
40
0.926631333851383
40
0.926631333851383
40
0.94317832195587
40
0.94317832195587
40
0.959725310060358
40
0.959725310060358
40
0.992819286269333
40
0.992819286269333
40
1
40
1
40
1
40
1
41
1
10
14.5911865031961
20
2.98229961716092
30
0
41
1
10
14.9381043118372
20
3.11104326408361
30
0
41
1
10
15.2842530699018
20
3.22919394301508
30
0
41
1
10
15.9738010112374
20
3.44700586288931
30
0
41
1
10
16.3166372112135
20
3.54711003751521
30
0
41
1
10
17.0028519597871
20
3.72516983966986
30
0
41
1
10
17.3459214441819
20
3.80364835779571
30
0
41
1
10
17.8594313240595
20
3.90625943496798
30
0
41
1
10
18.0305212818558
20
3.93783109576489
30
0
41
1
10
18.3734463619396
20
3.99513790767432
30
0
41
1
10
18.5451375404599
20
4.02098224472064
30
0
41
1
10
18.8888441288983
20
4.06713571884063
30
0
41
1
10
19.0608603200161
20
4.08744466684885
30
0
41
1
10
19.4050906613617
20
4.12247635888565
30
0
41
1
10
19.5772086407278
20
4.1372079898822
30
0
41
1
10
20.0954257781565
20
4.17237796685558
30
0
41
1
10
20.4439992801167
20
4.18407480273723
30
0
41
1
10
20.9630162534831
20
4.18380180500429
30
0
41
1
10
21.1353778107435
20
4.18072038000625
30
0
41
1
10
21.4799252314778
20
4.16869532296701
30
0
41
1
10
21.6521094369011
20
4.15978050010031
30
0
41
1
10
21.9960659587593
20
4.13622716437521
30
0
41
1
10
22.1678551811287
20
4.12159062642431
30
0
41
1
10
22.5109213080139
20
4.08655203892954
30
0
41
1
10
22.682074784805
20
4.0660844688957
30
0
41
1
10
23.1955502108289
20
3.996279584306
30
0
41
1
10
23.538503384005
20
3.93900400920404
30
0
41
1
10
24.2242532820142
20
3.80236011991644
30
0
41
1
10
24.5667171763472
20
3.72250881803015
30
0
41
1
10
25.2552760930028
20
3.54336445788766
30
0
41
1
10
25.6007791011668
20
3.44371099394436
30
0
41
1
10
26.1202520359533
20
3.27768965868197
30
0
41
1
10
26.2939461246185
20
3.21988981270877
30
0
41
1
10
26.6403406047847
20
3.10074532131577
30
0
41
1
10
26.8132474014258
20
3.0392028282179
30
0
41
1
10
27.3308536865541
20
2.84839587241757
30
0
41
1
10
27.673847292136
20
2.71202941555595
30
0
41
1
10
28.3599928888038
20
2.42750303034441
30
0
41
1
10
28.7028873304024
20
2.27905990496888
30
0
41
1
10
29.2161760180605
20
2.04583182866037
30
0
41
1
10
29.3870459222964
20
1.96622052007734
30
0
41
1
10
29.7295304269221
20
1.80531595697573
30
0
41
1
10
29.9010038078169
20
1.7237917630485
30
0
41
1
10
30.2442192506346
20
1.55827205509718
30
0
41
1
10
30.4159669222566
20
1.47428636923331
30
0
41
1
10
30.7595892841052
20
1.3035287565973
30
0
41
1
10
30.9313593928301
20
1.21654658748329
30
0
41
1
10
31.2759885511975
20
1.04156896281998
30
0
41
1
10
31.4487940267796
20
0.953485404351994
30
0
41
1
10
31.7951710421223
20
0.77570461217789
30
0
41
1
10
31.9690494378094
20
0.685880446211087
30
0
41
1
10
32.3157526188316
20
0.505268539567595
30
0
41
1
10
32.4884233191187
20
0.414210258601201
30
0
41
1
10
32.8333675246348
20
0.232538950770959
30
0
41
1
10
33.0057132222142
20
0.142065897221698
30
0
41
1
10
33.5220923043976
20
-0.128870874432636
30
0
41
1
10
33.8651924961356
20
-0.309397668889858
30
0
41
1
10
34.5496480039871
20
-0.669123418090578
30
0
41
1
10
34.8922926019674
20
-0.845841760065952
30
0
41
1
10
35.5773141860299
20
-1.19517360445323
30
0
41
1
10
35.9192018770815
20
-1.36866205622857
30
0
41
1
10
36.6062683997546
20
-1.70480565352281
30
0
41
1
10
36.9509295730338
20
-1.86845882700499
30
0
41
1
10
37.6414791485582
20
-2.18860931991213
30
0
41
1
10
37.9895224533855
20
-2.3430838681245
30
0
41
1
10
38.5081887539478
20
-2.56255467411128
30
0
41
1
10
38.6806803228158
20
-2.63388343493799
30
0
41
1
10
39.0247362659154
20
-2.77307577552165
30
0
41
1
10
39.1963115466795
20
-2.84090129099681
30
0
41
1
10
39.7113095814189
20
-3.03678432194857
30
0
41
1
10
40.0543942447764
20
-3.15826541683899
30
0
41
1
10
40.5676436959873
20
-3.32819715529874
30
0
41
1
10
40.7384309336239
20
-3.38283475055866
30
0
41
1
10
41.0806009654032
20
-3.48672234160037
30
0
41
1
10
41.2518811712213
20
-3.53610987074674
30
0
41
1
10
41.5946391958759
20
-3.63001617165352
30
0
41
1
10
41.7661267187964
20
-3.67452419267977
30
0
41
1
10
42.1091880077184
20
-3.75871228714073
30
0
41
1
10
42.2806190808857
20
-3.79850168117909
30
0
41
1
10
42.7962226090178
20
-3.9094690896377
30
0
41
1
10
43.1417647197962
20
-3.97235342464046
30
0
41
1
10
43.6617989550435
20
-4.05051202232474
30
0
41
1
10
43.8352518705706
20
-4.07387343853995
30
0
41
1
10
44.1810253459868
20
-4.11451995472677
30
0
41
1
10
44.3537881884295
20
-4.13179498018155
30
0
41
1
10
44.8714599334663
20
-4.17481808962114
30
0
41
1
10
45.2156430264576
20
-4.19183581632643
30
0
41
1
10
45.6331289167589
20
-4.19827287813283
30
0
41
1
10
45.7075870150352
20
-4.19886575087881
30
0
41
1
10
45.7820624574081
20
-4.19890586876576
30
0
0
SPLINE
5
C7
100
AcDbEntity
8
1
62
256
6
ByLayer
370
18
48
1
60
0
100
AcDbSpline
70
4
71
3
72
14
73
10
40
0
40
0
40
0
40
0
40
0.25
40
0.25
40
0.5
40
0.5
40
0.75
40
0.75
40
1
40
1
40
1
40
1
41
1
10
4.25081906020526
20
-3.14964850303497
30
0
41
1
10
4.22623285369528
20
-3.13897688666447
30
0
41
1
10
4.20057274304492
20
-3.13224195617985
30
0
41
1
10
4.14792582127669
20
-3.1307902505535
30
0
41
1
10
4.12130588731995
20
-3.13654723540614
30
0
41
1
10
4.07427952397023
20
-3.16247604538779
30
0
41
1
10
4.05377890155998
20
-3.18274458507082
30
0
41
1
10
4.02302212630855
20
-3.23178824899315
30
0
41
1
10
4.01284791520533
20
-3.25960509747912
30
0
41
1
10
4.00681402441299
20
-3.28873085538274
30
0
0
SPLINE
5
C8
100
AcDbEntity
8
1
62
256
6
ByLayer
370
13
48
1
60
0
100
AcDbSpline
70
4
71
3
72
19
73
15
40
0
40
0
40
0
40
0
40
0.211909852997185
40
0.211909852997185
40
0.317864779495778
40
0.317864779495778
40
0.42381970599437
40
0.529774632492963
40
0.529774632492963
40
0.635729558991555
40
0.635729558991555
40
0.84763941198874
40
0.84763941198874
40
1
40
1
40
1
40
1
41
1
10
4.25027895669163
20
2.33166070933189
30
0
41
1
10
4.25031533487277
20
2.54897471023909
30
0
41
1
10
4.25034230868388
20
2.7480961368523
30
0
41
1
10
4.25037428429027
20
3.01971710182548
30
0
41
1
10
4.25038348822031
20
3.10547229278845
30
0
41
1
10
4.25039969831545
20
3.26476630694893
30
0
41
1
10
4.25041381337746
20
3.41270434485244
30
0
41
1
10
4.25042564758004
20
3.53823978610029
30
0
41
1
10
4.25043721590094
20
3.65239099721492
30
0
41
1
10
4.25044290054188
20
3.70400639340656
30
0
41
1
10
4.25046047636351
20
3.8386823520375
30
0
41
1
10
4.25047297684188
20
3.90231094210608
30
0
41
1
10
4.25049995899985
20
3.96761108083285
30
0
41
1
10
4.25051299603626
20
3.98145756727067
30
0
41
1
10
4.25052797150127
20
3.98141638417755
30
0
0
SPLINE
5
C9
100
AcDbEntity
8
1
62
256
6
ByLayer
370
18
48
1
60
0
100
AcDbSpline
70
4
71
3
72
22
73
18
40
0
40
0
40
0
40
0
40
0.125000000000006
40
0.125000000000006
40
0.187500000000007
40
0.187500000000007
40
0.250000000000009
40
0.250000000000009
40
0.500000000000006
40
0.500000000000006
40
0.625000000000005
40
0.625000000000005
40
0.750000000000003
40
0.750000000000003
40
0.875000000000002
40
0.875000000000002
40
1
40
1
40
1
40
1
41
1
10
47.5415963115269
20
-4.00693120251955
30
0
41
1
10
47.4807185356906
20
-4.00686458283605
30
0
41
1
10
47.4229028018119
20
-3.9975520594414
30
0
41
1
10
47.3410129681242
20
-3.96898760712168
30
0
41
1
10
47.3145241811626
20
-3.95702687969381
30
0
41
1
10
47.2632329096531
20
-3.92801359724089
30
0
41
1
10
47.2384030962632
20
-3.91091209411752
30
0
41
1
10
47.1204073712121
20
-3.81362215858422
30
0
41
1
10
47.0439076850801
20
-3.6979685922017
30
0
41
1
10
46.9578006077257
20
-3.46395796980701
30
0
41
1
10
46.9338614776374
20
-3.37495097839778
30
0
41
1
10
46.8976492736614
20
-3.18122267626822
30
0
41
1
10
46.885123964278
20
-3.07613740199548
30
0
41
1
10
46.8712008541979
20
-2.84957480551063
30
0
41
1
10
46.8698011982418
20
-2.72810021630065
30
0
41
1
10
46.8786388813008
20
-2.46800846043476
30
0
41
1
10
46.8888245803703
20
-2.33173523219412
30
0
41
1
10
46.9044893044696
20
-2.19047204258743
30
0
0
SPLINE
5
CA
100
AcDbEntity
8
1
62
256
6
ByLayer
370
18
48
1
60
0
100
AcDbSpline
70
4
71
3
72
12
73
8
40
0
40
0
40
0
40
0
40
0.224791894905155
40
0.224791894905155
40
0.727114431223192
40
0.727114431223192
40
1
40
1
40
1
40
1
41
1
10
21.7130974575806
20
-3.99142795033058
30
0
41
1
10
21.3106112061976
20
-3.99078421603977
30
0
41
1
10
20.9088531793907
20
-3.97483999418702
30
0
41
1
10
19.608830062757
20
-3.87437226024582
30
0
41
1
10
18.7094124334396
20
-3.72924206342421
30
0
41
1
10
17.3045375308874
20
-3.39462177410957
30
0
41
1
10
16.8132897484073
20
-3.25730597310411
30
0
41
1
10
16.3237036385519
20
-3.10292878308982
30
0
0
SPLINE
5
CB
100
AcDbEntity
8
1
62
256
6
ByLayer
370
13
48
1
60
0
100
AcDbSpline
70
4
71
3
72
24
73
20
40
0
40
0
40
0
40
0
40
0.111294438876094
40
0.111294438876094
40
0.354959015822902
40
0.354959015822902
40
0.415875160059605
40
0.415875160059605
40
0.476791304296307
40
0.476791304296307
40
0.598623592769712
40
0.598623592769712
40
0.842288169716523
40
0.842288169716523
40
0.903204313953226
40
0.903204313953226
40
0.964120458189929
40
0.964120458189929
40
1
40
1
40
1
40
1
41
1
10
16.3237045924118
20
-3.10292908386265
30
0
41
1
10
15.912069634363
20
-2.97313161319533
30
0
41
1
10
15.5016093359951
20
-2.83127321392649
30
0
41
1
10
14.1931588082647
20
-2.34503618263108
30
0
41
1
10
13.2959840874114
20
-1.96031416460292
30
0
41
1
10
12.1627255783158
20
-1.43677166327132
30
0
41
1
10
11.9350530127633
20
-1.32974772798926
30
0
41
1
10
11.4803526991876
20
-1.11285901630836
30
0
41
1
10
11.2537178107364
20
-1.00315953705706
30
0
41
1
10
10.575291324136
20
-0.671673217087601
30
0
41
1
10
10.1249423828312
20
-0.447573773661702
30
0
41
1
10
8.77587451562923
20
0.226205942863487
30
0
41
1
10
7.8798383238269
20
0.678826882124355
30
0
41
1
10
6.75040726927864
20
1.22120917933134
30
0
41
1
10
6.52403795765247
20
1.32848805888233
30
0
41
1
10
6.07014476713664
20
1.54026819887847
30
0
41
1
10
5.84234341229802
20
1.64491347255037
30
0
41
1
10
5.48086362005463
20
1.80751612265493
30
0
41
1
10
5.34691993613427
20
1.86699932536703
30
0
41
1
10
5.21299089918418
20
1.92563545115831
30
0
0
SPLINE
5
CC
100
AcDbEntity
8
1
62
256
6
ByLayer
370
18
48
1
60
0
100
AcDbSpline
70
4
71
3
72
22
73
18
40
0
40
0
40
0
40
0
40
0.126039838796854
40
0.126039838796854
40
0.189059758195281
40
0.189059758195281
40
0.252079677593708
40
0.252079677593708
40
0.50415935518742
40
0.50415935518742
40
0.630199193984274
40
0.630199193984274
40
0.693219113382701
40
0.693219113382701
40
0.756239032781127
40
0.756239032781127
40
1
40
1
40
1
40
1
41
1
10
4.20456174158591
20
2.31694266436762
30
0
41
1
10
4.66019623997104
20
2.12498120527121
30
0
41
1
10
5.11506577145275
20
1.9217960784419
30
0
41
1
10
5.79817126747878
20
1.60359814955291
30
0
41
1
10
6.02618702255674
20
1.49524959576485
30
0
41
1
10
6.48043447648118
20
1.27623276450078
30
0
41
1
10
6.70695058456997
20
1.16540219467333
30
0
41
1
10
7.83705633989561
20
0.605760509108222
30
0
41
1
10
8.73332448817467
20
0.140686627989226
30
0
41
1
10
10.0829996892029
20
-0.549074779221712
30
0
41
1
10
10.533591857166
20
-0.778044232515185
30
0
41
1
10
11.212490974284
20
-1.11615729206145
30
0
41
1
10
11.4393000647545
20
-1.22795606290987
30
0
41
1
10
11.8944075587631
20
-1.44879994972703
30
0
41
1
10
12.1222687802197
20
-1.55764597198734
30
0
41
1
10
13.2263976523946
20
-2.07533303256955
30
0
41
1
10
14.0945614124214
20
-2.45230073726401
30
0
41
1
10
14.963409944475
20
-2.77972983179157
30
0
0
SPLINE
5
CD
100
AcDbEntity
8
1
62
256
6
ByLayer
370
13
48
1
60
0
100
AcDbSpline
70
4
71
3
72
14
73
10
40
0
40
0
40
0
40
0
40
0.0109826699300379
40
0.0109826699300379
40
0.343789008488117
40
0.343789008488117
40
0.676595347046195
40
0.676595347046195
40
1
40
1
40
1
40
1
41
1
10
14.9634103186693
20
-2.77972997280821
30
0
41
1
10
14.9930609595295
20
-2.79090393663148
30
0
41
1
10
15.0227123978827
20
-2.80202020735646
30
0
41
1
10
15.950924501363
20
-3.14816647831751
30
0
41
1
10
16.8505990047719
20
-3.42992801460474
30
0
41
1
10
18.6729777526812
20
-3.85581306862835
30
0
41
1
10
19.5726744801686
20
-3.99432116440317
30
0
41
1
10
21.344210790739
20
-4.11387499178079
30
0
41
1
10
22.2165675740894
20
-4.09949699248324
30
0
41
1
10
23.097618538399
20
-4.0102207851323
30
0
0
SPLINE
5
CE
100
AcDbEntity
8
1
62
256
6
ByLayer
370
13
48
1
60
0
100
AcDbSpline
70
4
71
3
72
17
73
13
40
0
40
0
40
0
40
0
40
0.0856376158075737
40
0.0856376158075737
40
0.238031346506311
40
0.238031346506311
40
0.390425077205049
40
0.542818807903787
40
0.542818807903787
40
0.695212538602524
40
0.695212538602524
40
1
40
1
40
1
40
1
41
1
10
4.25052797383742
20
-3.98141637764033
30
0
41
1
10
4.25053382621238
20
-3.98139971918161
30
0
41
1
10
4.25053997462297
20
-3.97926215178808
30
0
41
1
10
4.2505579181034
20
-3.96735570530262
30
0
41
1
10
4.25057042850901
20
-3.95293426763331
30
0
41
1
10
4.25059710413905
20
-3.91097385583871
30
0
41
1
10
4.25062541658423
20
-3.85602932820876
30
0
41
1
10
4.25065655895833
20
-3.77558374830522
30
0
41
1
10
4.25068875358539
20
-3.6822343495495
30
0
41
1
10
4.25070545585606
20
-3.62879622573325
30
0
41
1
10
4.25075538526158
20
-3.45194627943315
30
0
41
1
10
4.25078869573656
20
-3.31177980040516
30
0
41
1
10
4.25081906020523
20
-3.14964850322608
30
0
0
SPLINE
5
CF
100
AcDbEntity
8
1
62
256
6
ByLayer
370
18
48
1
60
0
100
AcDbSpline
70
4
71
3
72
18
73
14
40
0
40
0
40
0
40
0
40
0.125
40
0.125
40
0.25
40
0.25
40
0.5
40
0.5
40
0.75
40
0.75
40
0.875
40
0.875
40
1
40
1
40
1
40
1
41
1
10
48.3872029241647
20
2.07172651693492
30
0
41
1
10
48.3556452693305
20
2.15672714000368
30
0
41
1
10
48.3239940264281
20
2.24153429381121
30
0
41
1
10
48.2607300661045
20
2.41122824295073
30
0
41
1
10
48.2290652753987
20
2.49600739015904
30
0
41
1
10
48.1339212788836
20
2.75003552182355
30
0
41
1
10
48.0702795807417
20
2.91894859517313
30
0
41
1
10
47.9423762620926
20
3.25549321181856
30
0
41
1
10
47.8783680567254
20
3.4236486257411
30
0
41
1
10
47.7816190476062
20
3.67435880663669
30
0
41
1
10
47.74919614293
20
3.75764509823003
30
0
41
1
10
47.6843887201771
20
3.92370965262782
30
0
41
1
10
47.6519676089246
20
4.0064190733064
30
0
41
1
10
47.6195078125549
20
4.08841068758909
30
0
0
SPLINE
5
D0
100
AcDbEntity
8
1
62
256
6
ByLayer
370
18
48
1
60
0
100
AcDbSpline
70
4
71
3
72
58
73
54
40
0
40
0
40
0
40
0
40
0.0625
40
0.0625
40
0.125
40
0.125
40
0.249999999999999
40
0.249999999999999
40
0.374999999999998
40
0.374999999999998
40
0.499999999999997
40
0.499999999999997
40
0.562499999999996
40
0.562499999999996
40
0.624999999999994
40
0.624999999999994
40
0.687499999999993
40
0.687499999999993
40
0.691406249999993
40
0.691406249999993
40
0.693359374999993
40
0.693359374999993
40
0.695312499999994
40
0.695312499999994
40
0.703124999999995
40
0.703124999999995
40
0.718749999999995
40
0.718749999999995
40
0.749999999999996
40
0.749999999999996
40
0.765624999999997
40
0.765624999999997
40
0.781249999999997
40
0.781249999999997
40
0.796874999999997
40
0.796874999999997
40
0.812499999999998
40
0.812499999999998
40
0.828124999999998
40
0.828124999999998
40
0.835937499999998
40
0.835937499999998
40
0.843749999999998
40
0.843749999999998
40
0.859374999999998
40
0.859374999999998
40
0.874999999999998
40
0.874999999999998
40
0.906249999999999
40
0.906249999999999
40
0.937499999999999
40
0.937499999999999
40
1
40
1
40
1
40
1
41
1
10
14.5911936599803
20
-2.98232360987774
30
0
41
1
10
14.2722432776871
20
-2.86428472118072
30
0
41
1
10
13.951475698059
20
-2.7421134662427
30
0
41
1
10
13.3057142759826
20
-2.49227296700889
30
0
41
1
10
12.9801918090811
20
-2.36439377914925
30
0
41
1
10
11.9998129501257
20
-1.97874553195101
30
0
41
1
10
11.3431088656326
20
-1.71976049311945
30
0
41
1
10
10.0160165549134
20
-1.22603356099668
30
0
41
1
10
9.34555987993747
20
-0.991500517548076
30
0
41
1
10
7.98466786220246
20
-0.572903886453275
30
0
41
1
10
7.29422975184514
20
-0.388917140782894
30
0
41
1
10
6.240795087088
20
-0.165105081888555
30
0
41
1
10
5.88631552257851
20
-0.0990714699171917
30
0
41
1
10
5.17290594863107
20
0.013697581352659
30
0
41
1
10
4.81507077338185
20
0.0602902620555881
30
0
41
1
10
4.09702520405006
20
0.132934072601984
30
0
41
1
10
3.73652034039836
20
0.159003473418835
30
0
41
1
10
3.35322963750406
20
0.175188493110568
30
0
41
1
10
3.33062552756832
20
0.174250761998081
30
0
41
1
10
3.29655585902026
20
0.167478573202004
30
0
41
1
10
3.28508081820337
20
0.164260857207921
30
0
41
1
10
3.26385946655768
20
0.155497709374004
30
0
41
1
10
3.25399324406655
20
0.14982412465065
30
0
41
1
10
3.20355386289702
20
0.123379112376483
30
0
41
1
10
3.16351681551245
20
0.101676145336683
30
0
41
1
10
3.04443719817567
20
0.0347727689680539
30
0
41
1
10
2.96641793708935
20
-0.0122078006865252
30
0
41
1
10
2.73740511112004
20
-0.161928465518543
30
0
41
1
10
2.59271136923064
20
-0.272257517657778
30
0
41
1
10
2.39763846347719
20
-0.460494091054045
30
0
41
1
10
2.335925577517
20
-0.527520673949482
30
0
41
1
10
2.22362831636602
20
-0.670679733129731
30
0
41
1
10
2.17384908335197
20
-0.745719221398616
30
0
41
1
10
2.09029744464272
20
-0.904399392096423
30
0
41
1
10
2.05662451705822
20
-0.988745842347925
30
0
41
1
10
2.01197897464192
20
-1.15823947702128
30
0
41
1
10
2.00034846045151
20
-1.24452493532883
30
0
41
1
10
1.99967007341542
20
-1.4190403103718
30
0
41
1
10
2.01054156059681
20
-1.50366329841199
30
0
41
1
10
2.04074784397119
20
-1.62720202124379
30
0
41
1
10
2.053228832505
20
-1.66801708440798
30
0
41
1
10
2.08197227542615
20
-1.74727726426539
30
0
41
1
10
2.09821696792949
20
-1.78577892832593
30
0
41
1
10
2.15173931683472
20
-1.8983671093001
30
0
41
1
10
2.1937651907291
20
-1.96955939958366
30
0
41
1
10
2.28749275317853
20
-2.10591329756443
30
0
41
1
10
2.33928080488289
20
-2.1710406477973
30
0
41
1
10
2.5025057187764
20
-2.35523287716677
30
0
41
1
10
2.62275861424331
20
-2.46509340435813
30
0
41
1
10
2.87727071364253
20
-2.66822700229312
30
0
41
1
10
3.01230222926873
20
-2.7616701475493
30
0
41
1
10
3.4254386460772
20
-3.01913918173793
30
0
41
1
10
3.71291480082115
20
-3.16252226971457
30
0
41
1
10
4.00681402427131
20
-3.28873085532175
30
0
0
SPLINE
5
D1
100
AcDbEntity
8
1
62
256
6
ByLayer
370
18
48
1
60
0
100
AcDbSpline
70
4
71
3
72
48
73
44
40
0
40
0
40
0
40
0
40
0.0520941665003179
40
0.0520941665003179
40
0.0781412497504769
40
0.0781412497504769
40
0.104188333000636
40
0.104188333000636
40
0.156282499500952
40
0.156282499500952
40
0.208376666001269
40
0.208376666001269
40
0.260470832501586
40
0.260470832501586
40
0.312564999001902
40
0.312564999001902
40
0.364659165502219
40
0.364659165502219
40
0.416753332002536
40
0.416753332002536
40
0.468847498502853
40
0.468847498502853
40
0.494894581753011
40
0.494894581753011
40
0.520941665003169
40
0.520941665003169
40
0.573035831503487
40
0.573035831503487
40
0.599082914753646
40
0.599082914753646
40
0.625129998003804
40
0.625129998003804
40
0.677224164504119
40
0.677224164504119
40
0.729318331004435
40
0.729318331004435
40
0.833506664005065
40
0.833506664005065
40
0.937694997005695
40
0.937694997005695
40
0.98978916350601
40
0.98978916350601
40
1
40
1
40
1
40
1
41
1
10
47.5451648403356
20
-4.16449344745979
30
0
41
1
10
47.0926842516529
20
-4.19524339770587
30
0
41
1
10
46.6407934057981
20
-4.2056409545275
30
0
41
1
10
45.9618416644571
20
-4.19070933482885
30
0
41
1
10
45.7351256461978
20
-4.18062549496105
30
0
41
1
10
45.2824605591675
20
-4.15037920696162
30
0
41
1
10
45.056440238341
20
-4.13022430264294
30
0
41
1
10
44.378748631615
20
-4.054927256745
30
0
41
1
10
43.9275264717675
20
-3.98490422119229
30
0
41
1
10
43.0231134895309
20
-3.80683523913294
30
0
41
1
10
42.5695628200734
20
-3.69859048671808
30
0
41
1
10
41.6657638015228
20
-3.44808130456914
30
0
41
1
10
41.2145240919189
20
-3.30569673013483
30
0
41
1
10
40.3103506310875
20
-2.99010638825908
30
0
41
1
10
39.8567028622768
20
-2.81649237385119
30
0
41
1
10
38.9524853749274
20
-2.44482911848826
30
0
41
1
10
38.5011288495655
20
-2.24664794378683
30
0
41
1
10
37.5971278395036
20
-1.83004879727756
30
0
41
1
10
37.1435577291949
20
-1.61107655308157
30
0
41
1
10
36.2389014152461
20
-1.16102136450462
30
0
41
1
10
35.7874735189411
20
-0.929800034474766
30
0
41
1
10
35.1096105412647
20
-0.577526962089706
30
0
41
1
10
34.883548988568
20
-0.459170884071511
30
0
41
1
10
34.4307741369308
20
-0.221415385184912
30
0
41
1
10
34.203974703333
20
-0.101972124093862
30
0
41
1
10
33.5251645014148
20
0.255618847725799
30
0
41
1
10
33.0736954366536
20
0.49336372782679
30
0
41
1
10
32.3958828061632
20
0.844813002587387
30
0
41
1
10
32.1698662362428
20
0.961143918140465
30
0
41
1
10
31.7172721444408
20
1.19140810385693
30
0
41
1
10
31.4904580812264
20
1.30545570999428
30
0
41
1
10
30.8112330828202
20
1.64183529725113
30
0
41
1
10
30.3596146259568
20
1.85858433539133
30
0
41
1
10
29.4559421235754
20
2.27227122191778
30
0
41
1
10
29.0033301585418
20
2.46940100453639
30
0
41
1
10
27.6441409146629
20
3.02252435402204
30
0
41
1
10
26.7429726181537
20
3.33702701714418
30
0
41
1
10
24.9295748329447
20
3.82982078597632
30
0
41
1
10
24.0284553241773
20
4.00438461049163
30
0
41
1
10
22.668854226822
20
4.14745280081419
30
0
41
1
10
22.2162435564362
20
4.17504149064016
30
0
41
1
10
21.6756416793132
20
4.18378747010502
30
0
41
1
10
21.5870570523017
20
4.18444324128726
30
0
41
1
10
21.4984723505385
20
4.18432130335535
30
0
0
SPLINE
5
D2
100
AcDbEntity
8
1
62
256
6
ByLayer
370
18
48
1
60
0
100
AcDbSpline
70
4
71
3
72
10
73
6
40
0
40
0
40
0
40
0
40
0.5
40
0.5
40
1
40
1
40
1
40
1
41
1
10
4.01805713085929
20
2.50422418740584
30
0
41
1
10
4.02875594043218
20
2.47363934786466
30
0
41
1
10
4.04377295970488
20
2.44536870469921
30
0
41
1
10
4.08356866285436
20
2.39406632099872
30
0
41
1
10
4.10750805000475
20
2.37222162430928
30
0
41
1
10
4.13561096176267
20
2.35550673034186
30
0
0
SPLINE
5
D3
100
AcDbEntity
8
1
62
256
6
ByLayer
370
18
48
1
60
0
100
AcDbSpline
70
4
71
3
72
18
73
14
40
0
40
0
40
0
40
0
40
0.25000000000001
40
0.25000000000001
40
0.375000000000021
40
0.375000000000021
40
0.500000000000033
40
0.500000000000033
40
0.625000000000044
40
0.625000000000044
40
0.750000000000055
40
0.750000000000055
40
1
40
1
40
1
40
1
41
1
10
47.1749771259511
20
0.961223485406862
30
0
41
1
10
47.1647790089622
20
0.991319965346122
30
0
41
1
10
47.1574740986255
20
1.0225471582973
30
0
41
1
10
47.1523557764096
20
1.07069206920755
30
0
41
1
10
47.1519353675952
20
1.08691740140273
30
0
41
1
10
47.1522032711434
20
1.11957548204754
30
0
41
1
10
47.1539688983133
20
1.1358847050534
30
0
41
1
10
47.1615349751635
20
1.16773861244377
30
0
41
1
10
47.1672562711931
20
1.18291558751952
30
0
41
1
10
47.1834319251959
20
1.2114439847374
30
0
41
1
10
47.1937661940084
20
1.22438519468702
30
0
41
1
10
47.2299945509605
20
1.25734975995417
30
0
41
1
10
47.2611127620835
20
1.27130038006524
30
0
41
1
10
47.2931763604581
20
1.27851213423796
30
0
0
LINE
5
76
100
AcDbEntity
8
81
62
256
6
ByLayer
370
18
48
1
60
0
100
AcDbLine
10
49
20
0
30
0
11
54
21
0
31
0
39
0
210
0
220
0
230
1
0
LINE
5
77
100
AcDbEntity
8
1
62
256
6
ByLayer
370
18
48
1
60
0
100
AcDbLine
10
4.006734
20
4.173832
30
0
11
1.401765
21
4.172269
31
0
39
0
210
0
220
0
230
1
0
LINE
5
79
100
AcDbEntity
8
1
62
256
6
ByLayer
370
18
48
1
60
0
100
AcDbLine
10
46.510229
20
4.199335
30
0
11
45.780021
21
4.198896
31
0
39
0
210
0
220
0
230
1
0
LINE
5
7A
100
AcDbEntity
8
1
62
256
6
ByLayer
370
18
48
1
60
0
100
AcDbLine
10
45.780021
20
-4.198896
30
0
11
46.510171
21
-4.199334
31
0
39
0
210
0
220
0
230
1
0
LINE
5
7B
100
AcDbEntity
8
1
62
256
6
ByLayer
370
18
48
1
60
0
100
AcDbLine
10
1.401765
20
-4.172269
30
0
11
4.006734
21
-4.173832
31
0
39
0
210
0
220
0
230
1
0
LINE
5
7C
100
AcDbEntity
8
SK1
62
256
6
ByLayer
370
18
48
1
60
0
100
AcDbLine
10
-38.845299
20
5
30
0
11
-40
21
3
31
0
39
0
210
0
220
0
230
1
0
LINE
5
7E
100
AcDbEntity
8
SK1
62
256
6
ByLayer
370
18
48
1
60
0
100
AcDbLine
10
-40
20
-3
30
0
11
-38.845299
21
-5
31
0
39
0
210
0
220
0
230
1
0
LINE
5
7F
100
AcDbEntity
8
SK1
62
256
6
ByLayer
370
18
48
1
60
0
100
AcDbLine
10
0
20
5
30
0
11
-38.845299
21
5
31
0
39
0
210
0
220
0
230
1
0
LINE
5
80
100
AcDbEntity
8
SK1
62
256
6
ByLayer
370
18
48
1
60
0
100
AcDbLine
10
-38.845299
20
-5
30
0
11
0
21
-5
31
0
39
0
210
0
220
0
230
1
0
LINE
5
81
100
AcDbEntity
8
1
62
256
6
ByLayer
370
18
48
1
60
0
100
AcDbLine
10
21.510251
20
4.184335
30
0
11
20.771581
21
4.183891
31
0
39
0
210
0
220
0
230
1
0
LINE
5
82
100
AcDbEntity
8
1
62
256
6
ByLayer
370
18
48
1
60
0
100
AcDbLine
10
20.771581
20
-4.183891
30
0
11
21.510534
21
-4.184335
31
0
39
0
210
0
220
0
230
1
0
LINE
5
83
100
AcDbEntity
8
4
62
256
6
ByLayer
370
18
48
0.05
60
0
100
AcDbLine
10
49
20
0
30
0
11
0
21
0
31
0
39
0
210
0
220
0
230
1
0
LINE
5
85
100
AcDbEntity
8
SK4
62
256
6
ByLayer
370
18
48
0.05
60
0
100
AcDbLine
10
54
20
0
30
0
11
-45
21
0
31
0
39
0
210
0
220
0
230
1
0
LINE
5
87
100
AcDbEntity
8
80
62
256
6
ByLayer
370
18
48
1
60
0
100
AcDbLine
10
0
20
0
30
0
11
-5
21
0
31
0
39
0
210
0
220
0
230
1
0
LINE
5
88
100
AcDbEntity
8
1
62
256
6
ByLayer
370
13
48
1
60
0
100
AcDbLine
10
47.856353
20
0.481587
30
0
11
48.894736
21
-0.134519
31
0
39
0
210
0
220
0
230
1
0
LINE
5
89
100
AcDbEntity
8
1
62
256
6
ByLayer
370
13
48
1
60
0
100
AcDbLine
10
0.700643
20
4.586135
30
0
11
0.700643
21
-4.586135
31
0
39
0
210
0
220
0
230
1
0
LINE
5
8A
100
AcDbEntity
8
1
62
256
6
ByLayer
370
18
48
1
60
0
100
AcDbLine
10
48.916276
20
-0.300707
30
0
11
48.786129
21
-0.816917
31
0
39
0
210
0
220
0
230
1
0
LINE
5
8B
100
AcDbEntity
8
1
62
256
6
ByLayer
370
18
48
1
60
0
100
AcDbLine
10
48.991758
20
0.041032
30
0
11
49
21
0
31
0
39
0
210
0
220
0
230
1
0
LINE
5
8C
100
AcDbEntity
8
1
62
256
6
ByLayer
370
13
48
1
60
0
100
AcDbLine
10
1.401765
20
4.172269
30
0
11
1.401765
21
-4.172269
31
0
39
0
210
0
220
0
230
1
0
LINE
5
8D
100
AcDbEntity
8
1
62
256
6
ByLayer
370
18
48
1
60
0
100
AcDbLine
10
0
20
-5
30
0
11
0
21
5
31
0
39
0
210
0
220
0
230
1
0
LINE
5
8E
100
AcDbEntity
8
1
62
256
6
ByLayer
370
18
48
1
60
0
100
AcDbLine
10
46.904489
20
-2.190472
30
0
11
48.894736
21
-0.134519
31
0
39
0
210
0
220
0
230
1
0
LINE
5
8F
100
AcDbEntity
8
1
62
256
6
ByLayer
370
13
48
1
60
0
100
AcDbLine
10
48.04626
20
0.816917
30
0
11
48.916276
21
0.300707
31
0
39
0
210
0
220
0
230
1
0
LINE
5
90
100
AcDbEntity
8
1
62
256
6
ByLayer
370
18
48
1
60
0
100
AcDbLine
10
49
20
0
30
0
11
47.541596
21
-4.006931
31
0
39
0
210
0
220
0
230
1
0
LINE
5
91
100
AcDbEntity
8
1
62
256
6
ByLayer
370
18
48
1
60
0
100
AcDbLine
10
49
20
0
30
0
11
48.991758
21
-0.041032
31
0
39
0
210
0
220
0
230
1
0
LINE
5
92
100
AcDbEntity
8
1
62
256
6
ByLayer
370
18
48
1
60
0
100
AcDbLine
10
48.916276
20
0.300707
30
0
11
48.786129
21
0.816917
31
0
39
0
210
0
220
0
230
1
0
LINE
5
93
100
AcDbEntity
8
1
62
256
6
ByLayer
370
13
48
1
60
0
100
AcDbLine
10
48.786129
20
0.816917
30
0
11
48.04626
21
0.816917
31
0
39
0
210
0
220
0
230
1
0
LINE
5
94
100
AcDbEntity
8
SK1
62
256
6
ByLayer
370
18
48
1
60
0
100
AcDbLine
10
0
20
-5
30
0
11
0
21
5
31
0
39
0
210
0
220
0
230
1
0
LINE
5
95
100
AcDbEntity
8
SK1
62
256
6
ByLayer
370
18
48
1
60
0
100
AcDbLine
10
-40
20
3
30
0
11
-40
21
-3
31
0
39
0
210
0
220
0
230
1
0
LINE
5
96
100
AcDbEntity
8
SK1
62
256
6
ByLayer
370
18
48
1
60
0
100
AcDbLine
10
-38.845299
20
5
30
0
11
-38.845299
21
-5
31
0
39
0
210
0
220
0
230
1
0
MTEXT
5
D4
100
AcDbEntity
8
SK6
62
256
6
ByLayer
370
13
48
1
60
0
100
AcDbMText
10
6.629169
20
36.582694
30
0
210
0
220
0
230
1
1
\W0.7725;R840-0840-30-A0A1220
40
3.5
41
0
44
1.084337
50
0
71
8
72
5
7
iso_b_vert
0
DIMENSION
5
E1
100
AcDbEntity
8
SK2
62
256
6
ByLayer
370
13
48
1
60
0
100
AcDbDimension
2
DimnDraft3D1
10
47.57
20
-14.413398
30
0
11
22.320059
21
-14.413398
31
0
70
32
71
5
72
1
41
1
210
0
220
0
230
1
3
Standard
100
AcDbAlignedDimension
13
0
23
-1.5875
33
0
14
47.57
24
-5.7875
34
0
50
0
100
AcDbRotatedDimension
1001
ACAD
1000
DSTYLE
1002
{
1070
   279
1070
     0
1070
   172
1070
     1
1070
   173
1070
     1
1070
   340
1005
D5
1070
   271
1070
     2
1070
   272
1070
     2
1070
    77
1070
     1
1070
    73
1070
     0
1070
   171
1070
     3
1070
   274
1070
     4
1070
   177
1070
    35
1070
   176
1070
    35
1070
   178
1070
    35
1070
    48
1040
-0.005
1070
    41
1041
3.5
1070
   147
1041
1.75
1070
    42
1041
1.5875
1070
    44
1041
2.0
1070
   140
1041
3.5
1070
   343
1005
0
1070
   344
1005
0
1002
}
0
DIMENSION
5
EB
100
AcDbEntity
8
SK2
62
256
6
ByLayer
370
13
48
1
60
0
100
AcDbDimension
2
DimnDraft3D2
10
49
20
-33.692985
30
0
11
4.4113
21
-33.692985
31
0
70
32
71
5
72
1
41
1
210
0
220
0
230
1
3
Standard
100
AcDbAlignedDimension
13
-40
23
-6.5875
33
0
14
49
24
-1.5875
34
0
50
0
100
AcDbRotatedDimension
1001
ACAD
1000
DSTYLE
1002
{
1070
   279
1070
     0
1070
   172
1070
     1
1070
   173
1070
     1
1070
   340
1005
D5
1070
   271
1070
     2
1070
   272
1070
     2
1070
    77
1070
     1
1070
    73
1070
     0
1070
   171
1070
     3
1070
   274
1070
     4
1070
   177
1070
    35
1070
   176
1070
    35
1070
   178
1070
    35
1070
    48
1040
-0.005
1070
    41
1041
3.5
1070
   147
1041
1.75
1070
    42
1041
1.5875
1070
    44
1041
2.0
1070
   140
1041
3.5
1070
   343
1005
0
1070
   344
1005
0
1002
}
0
DIMENSION
5
F5
100
AcDbEntity
8
SK2
62
256
6
ByLayer
370
13
48
1
60
0
100
AcDbDimension
2
DimnDraft3D3
10
49
20
15.809119
30
0
11
35.685
21
15.809119
31
0
70
32
71
5
72
1
41
1
210
0
220
0
230
1
3
Standard
100
AcDbAlignedDimension
13
22.37
23
5.7875
33
0
14
49
24
1.5875
34
0
50
0
100
AcDbRotatedDimension
1001
ACAD
1000
DSTYLE
1002
{
1070
   279
1070
     0
1070
   172
1070
     1
1070
   173
1070
     1
1070
   340
1005
D5
1070
   271
1070
     2
1070
   272
1070
     2
1070
    77
1070
     1
1070
    73
1070
     0
1070
   171
1070
     3
1070
   274
1070
     4
1070
   177
1070
    35
1070
   176
1070
    35
1070
   178
1070
    35
1070
    48
1040
-0.005
1070
    41
1041
3.5
1070
   147
1041
1.75
1070
    42
1041
1.5875
1070
    44
1041
2.0
1070
   140
1041
3.5
1070
   343
1005
0
1070
   344
1005
0
1002
}
0
DIMENSION
5
FF
100
AcDbEntity
8
SK2
62
256
6
ByLayer
370
13
48
1
60
0
100
AcDbDimension
2
DimnDraft3D4
10
47.57
20
-17.002503
30
0
11
58.981425
21
-17.002503
31
0
70
32
71
5
72
1
41
1
210
0
220
0
230
1
3
Standard
100
AcDbAlignedDimension
13
49
23
-1.5875
33
0
14
47.57
24
-5.7875
34
0
50
0
100
AcDbRotatedDimension
1001
ACAD
1000
DSTYLE
1002
{
1070
   279
1070
     0
1070
   172
1070
     1
1070
   173
1070
     1
1070
   340
1005
D5
1070
   271
1070
     2
1070
   272
1070
     2
1070
    77
1070
     1
1070
    73
1070
     0
1070
   171
1070
     3
1070
   274
1070
     4
1070
   177
1070
    35
1070
   176
1070
    35
1070
   178
1070
    35
1070
    48
1040
-0.005
1070
    41
1041
3.5
1070
   147
1041
1.75
1070
    42
1041
1.5875
1070
    44
1041
2.0
1070
   140
1041
3.5
1070
   343
1005
0
1070
   344
1005
0
1002
}
0
DIMENSION
5
109
100
AcDbEntity
8
SK2
62
256
6
ByLayer
370
13
48
1
60
0
100
AcDbDimension
2
DimnDraft3D5
10
47.57
20
-23.343428
30
0
11
1.330676
21
-23.343428
31
0
70
32
71
5
72
1
41
1
210
0
220
0
230
1
3
Standard
100
AcDbAlignedDimension
13
-40
23
-6.5875
33
0
14
47.57
24
-5.7875
34
0
50
0
100
AcDbRotatedDimension
1001
ACAD
1000
DSTYLE
1002
{
1070
   279
1070
     0
1070
   172
1070
     1
1070
   173
1070
     1
1070
   340
1005
D5
1070
   271
1070
     2
1070
   272
1070
     2
1070
    77
1070
     1
1070
    73
1070
     0
1070
   171
1070
     3
1070
   274
1070
     4
1070
   177
1070
    35
1070
   176
1070
    35
1070
   178
1070
    35
1070
    48
1040
-0.005
1070
    41
1041
3.5
1070
   147
1041
1.75
1070
    42
1041
1.5875
1070
    44
1041
2.0
1070
   140
1041
3.5
1070
   343
1005
0
1070
   344
1005
0
1002
}
0
DIMENSION
5
114
100
AcDbEntity
8
SK2
62
256
6
ByLayer
370
13
48
1
60
0
100
AcDbDimension
2
DimnDraft3D6
10
-50.625163
20
5
30
0
11
-51.250163
21
23.47418
31
0
70
33
71
5
72
1
41
1
210
0
220
0
230
1
3
Standard
100
AcDbAlignedDimension
13
-41.5875
23
-5
33
0
14
-41.5875
24
5
34
0
1001
ACAD
1000
DSTYLE
1002
{
1070
   279
1070
     0
1070
    74
1070
     0
1070
   173
1070
     1
1070
   340
1005
D5
1070
   271
1070
     3
1070
   272
1070
     2
1070
    77
1070
     1
1070
    73
1070
     0
1070
   171
1070
     3
1070
   274
1070
     4
1070
   177
1070
    35
1070
   176
1070
    35
1070
   178
1070
    35
1070
    48
1040
-0.005
1070
    41
1041
3.5
1070
   147
1041
1.75
1070
    42
1041
1.5875
1070
    44
1041
2.0
1070
   140
1041
3.5
1070
   343
1005
0
1070
   344
1005
0
1002
}
0
DIMENSION
5
11F
100
AcDbEntity
8
2
62
256
6
ByLayer
370
13
48
1
60
0
100
AcDbDimension
2
DimnDraft3D7
10
63.083343
20
4.2
30
0
11
58.458343
21
21.267266
31
0
70
33
71
5
72
1
41
1
210
0
220
0
230
1
3
Standard
100
AcDbAlignedDimension
13
49.1575
23
-4.2
33
0
14
49.1575
24
4.2
34
0
1001
ACAD
1000
DSTYLE
1002
{
1070
   279
1070
     0
1070
    74
1070
     0
1070
   173
1070
     1
1070
   340
1005
D5
1070
   271
1070
     3
1070
   272
1070
     2
1070
    77
1070
     1
1070
    73
1070
     0
1070
   171
1070
     3
1070
   274
1070
     4
1070
   177
1070
    35
1070
   176
1070
    35
1070
   178
1070
    35
1070
    48
1040
-0.005
1070
    41
1041
3.5
1070
   147
1041
1.75
1070
    42
1041
1.5875
1070
    44
1041
2.0
1070
   140
1041
3.5
1070
   343
1005
0
1070
   344
1005
0
1002
}
0
ENDSEC
0
SECTION
2
OBJECTS
0
DICTIONARY
5
18a
330
0
100
AcDbDictionary
280
0
281
1
3
ACAD_GROUP
350
18b
3
ACAD_MLINESTYLE
350
18c
0
DICTIONARY
5
18b
330
0
100
AcDbDictionary
280
0
281
1
0
DICTIONARY
5
18c
330
0
100
AcDbDictionary
280
0
281
1
3
Standard
350
18
0
MLINESTYLE
5
18
330
18c
100
AcDbMlineStyle
2
Standard
70
0
3

62
256
51
90
52
90
71
2
49
-0.5
62
256
6
ByLayer
49
0.5
62
256
6
ByLayer
0
RASTERVARIABLES
5
178
330

100
AcDbRasterVariables
90
0
70
1
71
1
72
1
0
ENDSEC
0
EOF
