0
SECTION
2
HEADER
9
$ACADVER
1
AC1015
9
$DWGCODEPAGE
3
ANSI_1252
9
$HANDSEED
5
1a3
9
$ANGBASE
50
0
9
$ANGDIR
70
0
9
$ATTMODE
70
1
9
$AUNITS
70
0
9
$AUPREC
70
0
9
$CECOLOR
62
256
9
$CELTSCALE
40
1
9
$CELTYPE
6
ByLayer
9
$CELWEIGHT
370
18
9
$CLAYER
8
0
9
$CMLJUST
70
0
9
$CMLSCALE
40
1
9
$CMLSTYLE
2
Standard
9
$DIMSTYLE
2
Standard
9
$TEXTSIZE
40
0.2
9
$TEXTSTYLE
7
Standard
9
$LUNITS
70
2
9
$LUPREC
70
4
9
$EXTNAMES
290
1
9
$INSUNITS
70
4
9
$LTSCALE
40
1
9
$LWDISPLAY
290
1
9
$PDMODE
70
0
9
$PDSIZE
40
0
9
$PLINEGEN
70
0
0
ENDSEC
0
SECTION
2
CLASSES
0
CLASS
1
RASTERVARIABLES
2
AcDbRasterVariables
3
ISM
90
0
280
0
281
0
0
ENDSEC
0
SECTION
2
TABLES
0
TABLE
2
VPORT
5
199
100
AcDbSymbolTable
0
VPORT
5
1
100
AcDbSymbolTableRecord
100
AcDbViewportTableRecord
2
*Active
70
0
10
0
20
0
11
1
21
1
12
-1
22
1
13
0
23
0
14
0.5
24
0.5
15
10
25
10
16
0
26
0
36
1
17
0
27
0
37
0
0
ENDTAB
0
TABLE
2
LTYPE
5
19a
100
AcDbSymbolTable
0
LTYPE
5
14
100
AcDbSymbolTableRecord
100
AcDbLinetypeTableRecord
70
0
2
ByBlock
3

72
65
73
0
40
0
0
LTYPE
5
15
100
AcDbSymbolTableRecord
100
AcDbLinetypeTableRecord
70
0
2
ByLayer
3

72
65
73
0
40
0
0
LTYPE
5
16
100
AcDbSymbolTableRecord
100
AcDbLinetypeTableRecord
70
0
2
CONTINUOUS
3
Solid line
72
65
73
0
40
0
0
LTYPE
5
6A
100
AcDbSymbolTableRecord
100
AcDbLinetypeTableRecord
70
0
2
CENTER
3
____ _ ____ _ ____ _ ____
72
65
73
4
40
47.5
49
22
74
0
49
-8.5
74
0
49
8.5
74
0
49
-8.5
74
0
0
LTYPE
5
6B
100
AcDbSymbolTableRecord
100
AcDbLinetypeTableRecord
70
0
2
DASHED
3
__ __ __ __ __ __ __ __ __
72
65
73
2
40
25.72
49
12.86
74
0
49
-12.86
74
0
0
ENDTAB
0
TABLE
2
LAYER
5
19b
100
AcDbSymbolTable
0
LAYER
5
10
100
AcDbSymbolTableRecord
100
AcDbLayerTableRecord
2
0
70
0
62
7
6
CONTINUOUS
290
1
370
-3
390
0
0
LAYER
5
6D
100
AcDbSymbolTableRecord
100
AcDbLayerTableRecord
2
81
70
0
62
-3
6
CONTINUOUS
290
1
370
-3
390
0
0
LAYER
5
6F
100
AcDbSymbolTableRecord
100
AcDbLayerTableRecord
2
80
70
0
62
-6
6
CONTINUOUS
290
1
370
-3
390
0
0
LAYER
5
74
100
AcDbSymbolTableRecord
100
AcDbLayerTableRecord
2
2
70
0
62
7
6
CONTINUOUS
290
1
370
-3
390
0
0
LAYER
5
78
100
AcDbSymbolTableRecord
100
AcDbLayerTableRecord
2
1
70
0
62
4
6
CONTINUOUS
290
1
370
-3
390
0
0
LAYER
5
88
100
AcDbSymbolTableRecord
100
AcDbLayerTableRecord
2
4
70
0
62
-2
6
CENTER
290
1
370
-3
390
0
0
LAYER
5
185
100
AcDbSymbolTableRecord
100
AcDbLayerTableRecord
2
SK2
70
0
62
7
6
CONTINUOUS
290
1
370
-3
390
0
0
LAYER
5
186
100
AcDbSymbolTableRecord
100
AcDbLayerTableRecord
2
SK1
70
0
62
4
6
CONTINUOUS
290
1
370
-3
390
0
0
LAYER
5
187
100
AcDbSymbolTableRecord
100
AcDbLayerTableRecord
2
SK4
70
0
62
2
6
CENTER
290
1
370
-3
390
0
0
LAYER
5
188
100
AcDbSymbolTableRecord
100
AcDbLayerTableRecord
2
SK6
70
0
62
5
6
CONTINUOUS
290
1
370
-3
390
0
0
ENDTAB
0
TABLE
2
STYLE
5
19c
100
AcDbSymbolTable
0
STYLE
5
11
100
AcDbSymbolTableRecord
100
AcDbTextStyleTableRecord
2
Standard
3
txt
70
0
71
0
40
0
41
1
42
0
50
0
0
STYLE
5
E1
100
AcDbSymbolTableRecord
100
AcDbTextStyleTableRecord
2
iso_b_vert
3
simplex.shx
70
0
71
0
40
0
41
1
42
0
50
0
0
STYLE
5
E2
100
AcDbSymbolTableRecord
100
AcDbTextStyleTableRecord
2
DWGDirectTextStyle
3
simplex
70
0
71
0
40
0
41
1
42
0
50
0
0
ENDTAB
0
TABLE
2
DIMSTYLE
5
19d
100
AcDbSymbolTable
100
AcDbDimStyleTable
0
DIMSTYLE
105
27
100
AcDbSymbolTableRecord
100
AcDbDimStyleTableRecord
2
Standard
70
0
3
<>
41
0.18
42
0.0625
44
0.18
140
0.18
147
0.09
73
0
74
0
77
1
271
2
275
0
278
52
280
0
340
11
0
ENDTAB
0
TABLE
2
VIEW
5
19e
100
AcDbSymbolTable
0
ENDTAB
0
TABLE
2
UCS
5
19f
100
AcDbSymbolTable
0
ENDTAB
0
TABLE
2
APPID
5
1a0
100
AcDbSymbolTable
0
APPID
5
12
100
AcDbSymbolTableRecord
100
AcDbRegAppTableRecord
2
ACAD
70
0
0
ENDTAB
0
TABLE
2
BLOCK_RECORD
5
1a1
100
AcDbSymbolTable
0
BLOCK_RECORD
5
1F
100
AcDbSymbolTableRecord
100
AcDbBlockTableRecord
2
*Model_Space
340
0
70
0
0
BLOCK_RECORD
5
1B
100
AcDbSymbolTableRecord
100
AcDbBlockTableRecord
2
*Paper_Space
340
0
70
0
0
BLOCK_RECORD
5
23
100
AcDbSymbolTableRecord
100
AcDbBlockTableRecord
2
*Paper_Space0
340
0
70
0
0
BLOCK_RECORD
5
E4
100
AcDbSymbolTableRecord
100
AcDbBlockTableRecord
2
DimnDraft3D1
340
0
70
0
0
BLOCK_RECORD
5
EE
100
AcDbSymbolTableRecord
100
AcDbBlockTableRecord
2
DimnDraft3D2
340
0
70
0
0
BLOCK_RECORD
5
F8
100
AcDbSymbolTableRecord
100
AcDbBlockTableRecord
2
DimnDraft3D3
340
0
70
0
0
BLOCK_RECORD
5
102
100
AcDbSymbolTableRecord
100
AcDbBlockTableRecord
2
DimnDraft3D4
340
0
70
0
0
BLOCK_RECORD
5
10C
100
AcDbSymbolTableRecord
100
AcDbBlockTableRecord
2
DimnDraft3D5
340
0
70
0
0
BLOCK_RECORD
5
116
100
AcDbSymbolTableRecord
100
AcDbBlockTableRecord
2
DimnDraft3D6
340
0
70
0
0
BLOCK_RECORD
5
121
100
AcDbSymbolTableRecord
100
AcDbBlockTableRecord
2
DimnDraft3D7
340
0
70
0
0
ENDTAB
0
ENDSEC
0
SECTION
2
BLOCKS
0
BLOCK
5
20
100
AcDbEntity
8
0
100
AcDbBlockBegin
2
*Model_Space
70
0
10
0
20
0
30
0
3
*Model_Space
0
ENDBLK
5
21
100
AcDbEntity
8
0
100
AcDbBlockEnd
0
BLOCK
5
1C
100
AcDbEntity
8
0
100
AcDbBlockBegin
2
*Paper_Space
70
0
10
0
20
0
30
0
3
*Paper_Space
0
ENDBLK
5
1D
100
AcDbEntity
8
0
100
AcDbBlockEnd
0
BLOCK
5
24
100
AcDbEntity
8
0
100
AcDbBlockBegin
2
*Paper_Space0
70
0
10
0
20
0
30
0
3
*Paper_Space0
0
ENDBLK
5
25
100
AcDbEntity
8
0
100
AcDbBlockEnd
0
BLOCK
5
EB
100
AcDbEntity
8
0
100
AcDbBlockBegin
2
DimnDraft3D1
70
0
10
0
20
0
30
0
3
DimnDraft3D1
0
MTEXT
5
E5
100
AcDbEntity
8
SK2
62
256
6
ByLayer
370
13
48
1
60
0
100
AcDbMText
10
25.318875
20
-13.488398
30
0
210
0
220
0
230
1
1
\W0.6713;61,58
40
3.5
41
0
44
1.084337
50
0
71
7
72
5
7
iso_b_vert
0
LINE
5
E6
100
AcDbEntity
8
SK2
62
256
6
ByLayer
370
13
48
1
60
0
100
AcDbLine
10
0
20
-1.5875
30
0
11
0
21
-16.363398
31
0
39
0
210
0
220
0
230
1
0
LINE
5
E7
100
AcDbEntity
8
SK2
62
256
6
ByLayer
370
13
48
1
60
0
100
AcDbLine
10
61.58
20
-5.7375
30
0
11
61.58
21
-16.363398
31
0
39
0
210
0
220
0
230
1
0
LINE
5
E8
100
AcDbEntity
8
SK2
62
256
6
ByLayer
370
13
48
1
60
0
100
AcDbLine
10
0
20
-14.363398
30
0
11
61.58
21
-14.363398
31
0
39
0
210
0
220
0
230
1
0
SOLID
5
E9
100
AcDbEntity
8
SK2
62
256
6
ByLayer
370
13
48
1
60
0
100
AcDbTrace
10
0
20
-14.363398
30
0
11
3.499998
21
-13.902615
31
0
12
3.500002
22
-14.824182
32
0
13
0
23
-14.363398
33
0
39
0
210
0
220
0
230
1
0
SOLID
5
EA
100
AcDbEntity
8
SK2
62
256
6
ByLayer
370
13
48
1
60
0
100
AcDbTrace
10
61.58
20
-14.363398
30
0
11
58.080002
21
-14.824182
31
0
12
58.079998
22
-13.902615
32
0
13
61.58
23
-14.363398
33
0
39
0
210
0
220
0
230
1
0
ENDBLK
5
EC
100
AcDbEntity
8
0
100
AcDbBlockEnd
0
BLOCK
5
F5
100
AcDbEntity
8
0
100
AcDbBlockBegin
2
DimnDraft3D2
70
0
10
0
20
0
30
0
3
DimnDraft3D2
0
MTEXT
5
EF
100
AcDbEntity
8
SK2
62
256
6
ByLayer
370
13
48
1
60
0
100
AcDbMText
10
6.102221
20
-32.817985
30
0
210
0
220
0
230
1
1
\W0.6930;103,00
40
3.5
41
0
44
1.084337
50
0
71
7
72
5
7
iso_b_vert
0
LINE
5
F0
100
AcDbEntity
8
SK2
62
256
6
ByLayer
370
13
48
1
60
0
100
AcDbLine
10
-40
20
-6.5875
30
0
11
-40
21
-35.692985
31
0
39
0
210
0
220
0
230
1
0
LINE
5
F1
100
AcDbEntity
8
SK2
62
256
6
ByLayer
370
13
48
1
60
0
100
AcDbLine
10
63
20
-1.5875
30
0
11
63
21
-35.692985
31
0
39
0
210
0
220
0
230
1
0
LINE
5
F2
100
AcDbEntity
8
SK2
62
256
6
ByLayer
370
13
48
1
60
0
100
AcDbLine
10
-40
20
-33.692985
30
0
11
63
21
-33.692985
31
0
39
0
210
0
220
0
230
1
0
SOLID
5
F3
100
AcDbEntity
8
SK2
62
256
6
ByLayer
370
13
48
1
60
0
100
AcDbTrace
10
-40
20
-33.692985
30
0
11
-36.500002
21
-33.232202
31
0
12
-36.499998
22
-34.153769
32
0
13
-40
23
-33.692985
33
0
39
0
210
0
220
0
230
1
0
SOLID
5
F4
100
AcDbEntity
8
SK2
62
256
6
ByLayer
370
13
48
1
60
0
100
AcDbTrace
10
63
20
-33.692985
30
0
11
59.500002
21
-34.153769
31
0
12
59.499998
22
-33.232202
32
0
13
63
23
-33.692985
33
0
39
0
210
0
220
0
230
1
0
ENDBLK
5
F6
100
AcDbEntity
8
0
100
AcDbBlockEnd
0
BLOCK
5
FF
100
AcDbEntity
8
0
100
AcDbBlockBegin
2
DimnDraft3D3
70
0
10
0
20
0
30
0
3
DimnDraft3D3
0
MTEXT
5
F9
100
AcDbEntity
8
SK2
62
256
6
ByLayer
370
13
48
1
60
0
100
AcDbMText
10
36.907105
20
16.634119
30
0
210
0
220
0
230
1
1
\W0.7581;42,92
40
3.5
41
0
44
1.084337
50
0
71
7
72
5
7
iso_b_vert
0
LINE
5
FA
100
AcDbEntity
8
SK2
62
256
6
ByLayer
370
13
48
1
60
0
100
AcDbLine
10
20.08
20
5.7375
30
0
11
20.08
21
17.759119
31
0
39
0
210
0
220
0
230
1
0
LINE
5
FB
100
AcDbEntity
8
SK2
62
256
6
ByLayer
370
13
48
1
60
0
100
AcDbLine
10
63
20
1.5875
30
0
11
63
21
17.759119
31
0
39
0
210
0
220
0
230
1
0
LINE
5
FC
100
AcDbEntity
8
SK2
62
256
6
ByLayer
370
13
48
1
60
0
100
AcDbLine
10
20.08
20
15.759119
30
0
11
63
21
15.759119
31
0
39
0
210
0
220
0
230
1
0
SOLID
5
FD
100
AcDbEntity
8
SK2
62
256
6
ByLayer
370
13
48
1
60
0
100
AcDbTrace
10
20.08
20
15.759119
30
0
11
23.579998
21
16.219903
31
0
12
23.580002
22
15.298335
32
0
13
20.08
23
15.759119
33
0
39
0
210
0
220
0
230
1
0
SOLID
5
FE
100
AcDbEntity
8
SK2
62
256
6
ByLayer
370
13
48
1
60
0
100
AcDbTrace
10
63
20
15.759119
30
0
11
59.500002
21
15.298335
31
0
12
59.499998
22
16.219903
32
0
13
63
23
15.759119
33
0
39
0
210
0
220
0
230
1
0
ENDBLK
5
100
100
AcDbEntity
8
0
100
AcDbBlockEnd
0
BLOCK
5
109
100
AcDbEntity
8
0
100
AcDbBlockBegin
2
DimnDraft3D4
70
0
10
0
20
0
30
0
3
DimnDraft3D4
0
MTEXT
5
103
100
AcDbEntity
8
SK2
62
256
6
ByLayer
370
13
48
1
60
0
100
AcDbMText
10
70.093925
20
-16.077503
30
0
210
0
220
0
230
1
1
\W0.6709;1,42
40
3.5
41
0
44
1.084337
50
0
71
7
72
5
7
iso_b_vert
0
LINE
5
104
100
AcDbEntity
8
SK2
62
256
6
ByLayer
370
13
48
1
60
0
100
AcDbLine
10
63
20
-1.5875
30
0
11
63
21
-18.952503
31
0
39
0
210
0
220
0
230
1
0
LINE
5
105
100
AcDbEntity
8
SK2
62
256
6
ByLayer
370
13
48
1
60
0
100
AcDbLine
10
61.58
20
-5.7375
30
0
11
61.58
21
-18.952503
31
0
39
0
210
0
220
0
230
1
0
LINE
5
106
100
AcDbEntity
8
SK2
62
256
6
ByLayer
370
13
48
1
60
0
100
AcDbLine
10
52.83
20
-16.952503
30
0
11
76.743925
21
-16.952503
31
0
39
0
210
0
220
0
230
1
0
SOLID
5
107
100
AcDbEntity
8
SK2
62
256
6
ByLayer
370
13
48
1
60
0
100
AcDbTrace
10
63
20
-16.952503
30
0
11
66.499998
21
-16.491719
31
0
12
66.500002
22
-17.413287
32
0
13
63
23
-16.952503
33
0
39
0
210
0
220
0
230
1
0
SOLID
5
108
100
AcDbEntity
8
SK2
62
256
6
ByLayer
370
13
48
1
60
0
100
AcDbTrace
10
61.58
20
-16.952503
30
0
11
58.080002
21
-17.413287
31
0
12
58.079998
22
-16.491719
32
0
13
61.58
23
-16.952503
33
0
39
0
210
0
220
0
230
1
0
ENDBLK
5
10A
100
AcDbEntity
8
0
100
AcDbBlockEnd
0
BLOCK
5
113
100
AcDbEntity
8
0
100
AcDbBlockBegin
2
DimnDraft3D5
70
0
10
0
20
0
30
0
3
DimnDraft3D5
0
MTEXT
5
10D
100
AcDbEntity
8
SK2
62
256
6
ByLayer
370
13
48
1
60
0
100
AcDbMText
10
3.459097
20
-22.468428
30
0
210
0
220
0
230
1
1
\W0.6440;101,58
40
3.5
41
0
44
1.084337
50
0
71
7
72
5
7
iso_b_vert
0
LINE
5
10E
100
AcDbEntity
8
SK2
62
256
6
ByLayer
370
13
48
1
60
0
100
AcDbLine
10
-40
20
-6.5875
30
0
11
-40
21
-25.343428
31
0
39
0
210
0
220
0
230
1
0
LINE
5
10F
100
AcDbEntity
8
SK2
62
256
6
ByLayer
370
13
48
1
60
0
100
AcDbLine
10
61.58
20
-5.7375
30
0
11
61.58
21
-25.343428
31
0
39
0
210
0
220
0
230
1
0
LINE
5
110
100
AcDbEntity
8
SK2
62
256
6
ByLayer
370
13
48
1
60
0
100
AcDbLine
10
-40
20
-23.343428
30
0
11
61.58
21
-23.343428
31
0
39
0
210
0
220
0
230
1
0
SOLID
5
111
100
AcDbEntity
8
SK2
62
256
6
ByLayer
370
13
48
1
60
0
100
AcDbTrace
10
-40
20
-23.343428
30
0
11
-36.500002
21
-22.882645
31
0
12
-36.499998
22
-23.804212
32
0
13
-40
23
-23.343428
33
0
39
0
210
0
220
0
230
1
0
SOLID
5
112
100
AcDbEntity
8
SK2
62
256
6
ByLayer
370
13
48
1
60
0
100
AcDbTrace
10
61.58
20
-23.343428
30
0
11
58.080002
21
-23.804212
31
0
12
58.079998
22
-22.882645
32
0
13
61.58
23
-23.343428
33
0
39
0
210
0
220
0
230
1
0
ENDBLK
5
114
100
AcDbEntity
8
0
100
AcDbBlockEnd
0
BLOCK
5
11E
100
AcDbEntity
8
0
100
AcDbBlockBegin
2
DimnDraft3D6
70
0
10
0
20
0
30
0
3
DimnDraft3D6
0
MTEXT
5
117
100
AcDbEntity
8
SK2
62
256
6
ByLayer
370
13
48
1
60
0
100
AcDbMText
10
-50.375163
20
24.34918
30
0
210
0
220
0
230
1
1
\W0.6930;10,000
40
3.5
41
0
44
1.084337
50
90
71
7
72
5
7
iso_b_vert
0
MTEXT
5
118
100
AcDbEntity
8
SK2
62
256
6
ByLayer
370
13
48
1
60
0
100
AcDbMText
10
-50.375163
20
19.126524
30
0
210
0
220
0
230
1
1
%%c
40
3.5
41
0
44
1.084337
50
90
71
7
72
5
7
iso_b_vert
0
LINE
5
119
100
AcDbEntity
8
SK2
62
256
6
ByLayer
370
13
48
1
60
0
100
AcDbLine
10
-41.5875
20
-5
30
0
11
-50.625163
21
-5
31
0
39
0
210
0
220
0
230
1
0
LINE
5
11A
100
AcDbEntity
8
SK2
62
256
6
ByLayer
370
13
48
1
60
0
100
AcDbLine
10
-41.5875
20
5
30
0
11
-50.625163
21
5
31
0
39
0
210
0
220
0
230
1
0
LINE
5
11B
100
AcDbEntity
8
SK2
62
256
6
ByLayer
370
13
48
1
60
0
100
AcDbLine
10
-48.625163
20
-5
30
0
11
-48.625163
21
35.862338
31
0
39
0
210
0
220
0
230
1
0
SOLID
5
11C
100
AcDbEntity
8
SK2
62
256
6
ByLayer
370
13
48
1
60
0
100
AcDbTrace
10
-48.625163
20
-5
30
0
11
-49.085946
21
-1.500002
31
0
12
-48.164379
22
-1.499998
32
0
13
-48.625163
23
-5
33
0
39
0
210
0
220
0
230
1
0
SOLID
5
11D
100
AcDbEntity
8
SK2
62
256
6
ByLayer
370
13
48
1
60
0
100
AcDbTrace
10
-48.625163
20
5
30
0
11
-48.164379
21
1.500002
31
0
12
-49.085946
22
1.499998
32
0
13
-48.625163
23
5
33
0
39
0
210
0
220
0
230
1
0
ENDBLK
5
11F
100
AcDbEntity
8
0
100
AcDbBlockEnd
0
BLOCK
5
129
100
AcDbEntity
8
0
100
AcDbBlockBegin
2
DimnDraft3D7
70
0
10
0
20
0
30
0
3
DimnDraft3D7
0
MTEXT
5
122
100
AcDbEntity
8
2
62
256
6
ByLayer
370
13
48
1
60
0
100
AcDbMText
10
73.333343
20
22.092266
30
0
210
0
220
0
230
1
1
\W0.7317;8,300
40
3.5
41
0
44
1.084337
50
90
71
7
72
5
7
iso_b_vert
0
MTEXT
5
123
100
AcDbEntity
8
2
62
256
6
ByLayer
370
13
48
1
60
0
100
AcDbMText
10
73.333343
20
16.86961
30
0
210
0
220
0
230
1
1
%%c
40
3.5
41
0
44
1.084337
50
90
71
7
72
5
7
iso_b_vert
0
LINE
5
124
100
AcDbEntity
8
2
62
256
6
ByLayer
370
13
48
1
60
0
100
AcDbLine
10
63.1675
20
-4.15
30
0
11
77.083343
21
-4.15
31
0
39
0
210
0
220
0
230
1
0
LINE
5
125
100
AcDbEntity
8
2
62
256
6
ByLayer
370
13
48
1
60
0
100
AcDbLine
10
63.1675
20
4.15
30
0
11
77.083343
21
4.15
31
0
39
0
210
0
220
0
230
1
0
LINE
5
126
100
AcDbEntity
8
2
62
256
6
ByLayer
370
13
48
1
60
0
100
AcDbLine
10
75.083343
20
-4.15
30
0
11
75.083343
21
31.864635
31
0
39
0
210
0
220
0
230
1
0
SOLID
5
127
100
AcDbEntity
8
2
62
256
6
ByLayer
370
13
48
1
60
0
100
AcDbTrace
10
75.083343
20
-4.15
30
0
11
74.622559
21
-0.650002
31
0
12
75.544126
22
-0.649998
32
0
13
75.083343
23
-4.15
33
0
39
0
210
0
220
0
230
1
0
SOLID
5
128
100
AcDbEntity
8
2
62
256
6
ByLayer
370
13
48
1
60
0
100
AcDbTrace
10
75.083343
20
4.15
30
0
11
75.544126
21
0.650002
31
0
12
74.622559
22
0.649998
32
0
13
75.083343
23
4.15
33
0
39
0
210
0
220
0
230
1
0
ENDBLK
5
12A
100
AcDbEntity
8
0
100
AcDbBlockEnd
0
ENDSEC
0
SECTION
2
ENTITIES
0
ARC
5
9A
100
AcDbEntity
8
1
62
256
6
ByLayer
370
18
48
1
60
0
100
AcDbCircle
39
0
10
0
20
4.2
30
0
40
0.799999999999995
210
0
220
0
230
1
100
AcDbArc
50
26.498443
51
90
0
ARC
5
9B
100
AcDbEntity
8
1
62
256
6
ByLayer
370
18
48
1
60
0
100
AcDbCircle
39
0
10
0
20
-4.2
30
0
40
0.799999999999995
210
0
220
0
230
1
100
AcDbArc
50
270
51
333.501557
0
ARC
5
9C
100
AcDbEntity
8
1
62
256
6
ByLayer
370
18
48
1
60
0
100
AcDbCircle
39
0
10
-1.431914
20
-4.913878
30
0
40
0.800000000000001
210
0
220
0
230
-1
100
AcDbArc
50
26.498443
51
90.034377
0
ARC
5
9D
100
AcDbEntity
8
1
62
256
6
ByLayer
370
18
48
1
60
0
100
AcDbCircle
39
0
10
-1.431914
20
4.913878
30
0
40
0.800000000000001
210
0
220
0
230
-1
100
AcDbArc
50
269.965623
51
333.501557
0
ELLIPSE
5
9E
100
AcDbEntity
8
1
62
256
6
ByLayer
370
13
48
1
60
0
100
AcDbEllipse
10
4.250211
20
-2.756401
30
0
11
0.034660806666885
21
0.0938010046918519
31
0
210
0
220
0
230
1
40
0.308395
41
0.872205836781517
42
2.42378580126245
0
ELLIPSE
5
9F
100
AcDbEntity
8
1
62
256
6
ByLayer
370
13
48
1
60
0
100
AcDbEllipse
10
62.426023
20
1.919991
30
0
11
2.34506688664924
21
-1.61464523666563
31
0
210
0
220
0
230
-1
40
0.533762
41
1.44484622738581
42
1.73431975127295
0
ELLIPSE
5
A0
100
AcDbEntity
8
1
62
256
6
ByLayer
370
13
48
1
60
0
100
AcDbEllipse
10
62.055502
20
0.598569
30
0
11
0.153082081612423
21
0.258003636193771
31
0
210
0
220
0
230
1
40
0.454519
41
0.917105603404826
42
2.31336900500027
0
ELLIPSE
5
A1
100
AcDbEntity
8
1
62
256
6
ByLayer
370
18
48
1
60
0
100
AcDbEllipse
10
62.201255
20
-2.043189
30
0
11
0.641054968241702
21
1.74185267767895
31
0
210
0
220
0
230
-1
40
0.098637
41
0.749112684719274
42
1.53581525842645
0
ELLIPSE
5
A2
100
AcDbEntity
8
1
62
256
6
ByLayer
370
13
48
1
60
0
100
AcDbEllipse
10
62.61593
20
2.043189
30
0
11
2.41842415425523
21
-1.26590647707483
31
0
210
0
220
0
230
-1
40
0.49542
41
1.54329946618482
42
1.86725704687843
0
ELLIPSE
5
A3
100
AcDbEntity
8
1
62
256
6
ByLayer
370
18
48
1
60
0
100
AcDbEllipse
10
63.000361
20
-0.000906
30
0
11
1.52662240654278
21
-4.14808627792313
31
0
210
0
220
0
230
-1
40
0.098637
41
-2.97506565760702
42
-2.87419504387154
0
ELLIPSE
5
A4
100
AcDbEntity
8
1
62
256
6
ByLayer
370
18
48
1
60
0
100
AcDbEllipse
10
63.035185
20
0.017291
30
0
11
0.140634104947868
21
-0.431000092628474
31
0
210
0
220
0
230
-1
40
0.07518
41
1.64927916959431
42
2.31001430906227
0
ELLIPSE
5
A5
100
AcDbEntity
8
1
62
256
6
ByLayer
370
18
48
1
60
0
100
AcDbEllipse
10
63.000361
20
0.000906
30
0
11
1.52662240100602
21
4.14808626188264
31
0
210
0
220
0
230
-1
40
0.098637
41
2.87419504335097
42
2.97506565728438
0
ELLIPSE
5
A6
100
AcDbEntity
8
1
62
256
6
ByLayer
370
18
48
1
60
0
100
AcDbEllipse
10
62.86023
20
0.121098
30
0
11
0.0727819104938641
21
0.301917195709216
31
0
210
0
220
0
230
-1
40
0.478434
41
1.72423293759088
42
2.45976119972684
0
ELLIPSE
5
A7
100
AcDbEntity
8
1
62
256
6
ByLayer
370
13
48
1
60
0
100
AcDbEllipse
10
4.182067
20
-2.74249
30
0
11
0.00199633631462985
21
0.0999800712208133
31
0
210
0
220
0
230
1
40
0.579018
41
0.932107036320212
42
2.27842792937362
0
ELLIPSE
5
A8
100
AcDbEntity
8
1
62
256
6
ByLayer
370
18
48
1
60
0
100
AcDbEllipse
10
63.035185
20
-0.017291
30
0
11
0.14063410491221
21
0.431000092536597
31
0
210
0
220
0
230
-1
40
0.07518
41
-2.31001430902975
42
-1.64927916944079
0
ELLIPSE
5
A9
100
AcDbEntity
8
1
62
256
6
ByLayer
370
18
48
1
60
0
100
AcDbEllipse
10
62.201255
20
2.043189
30
0
11
0.641054968226542
21
-1.74185267764552
31
0
210
0
220
0
230
-1
40
0.098637
41
-1.53581525844123
42
-0.749112684720708
0
POINT
5
6C
100
AcDbEntity
8
81
62
256
6
ByLayer
370
18
48
1
60
0
100
AcDbPoint
10
63
20
0
30
0
39
0
210
0
220
0
230
1
50
360
0
POINT
5
6E
100
AcDbEntity
8
80
62
256
6
ByLayer
370
18
48
1
60
0
100
AcDbPoint
10
0
20
0
30
0
39
0
210
0
220
0
230
1
50
360
0
POINT
5
70
100
AcDbEntity
8
SK2
62
256
6
ByLayer
370
18
48
1
60
1
100
AcDbPoint
10
-40
20
-5
30
0
39
0
210
0
220
0
230
1
50
360
0
POINT
5
72
100
AcDbEntity
8
SK2
62
256
6
ByLayer
370
18
48
1
60
1
100
AcDbPoint
10
-40
20
5
30
0
39
0
210
0
220
0
230
1
50
360
0
POINT
5
73
100
AcDbEntity
8
2
62
256
6
ByLayer
370
18
48
1
60
1
100
AcDbPoint
10
61.58
20
-4.15
30
0
39
0
210
0
220
0
230
1
50
360
0
POINT
5
75
100
AcDbEntity
8
2
62
256
6
ByLayer
370
18
48
1
60
1
100
AcDbPoint
10
61.58
20
4.15
30
0
39
0
210
0
220
0
230
1
50
360
0
SPLINE
5
AA
100
AcDbEntity
8
1
62
256
6
ByLayer
370
18
48
1
60
0
100
AcDbSpline
70
4
71
1
72
4
73
2
40
0
40
0
40
1
40
1
41
1
10
48.0256059877503
20
3.72218165694E-05
30
0
41
1
10
48.0255942563871
20
4.06471080794E-05
30
0
0
SPLINE
5
AB
100
AcDbEntity
8
1
62
256
6
ByLayer
370
18
48
1
60
0
100
AcDbSpline
70
4
71
1
72
4
73
2
40
0
40
0
40
1
40
1
41
1
10
48.0255942631439
20
-4.06450851358E-05
30
0
41
1
10
48.0256059877102
20
-3.72218279665E-05
30
0
0
SPLINE
5
AC
100
AcDbEntity
8
1
62
256
6
ByLayer
370
18
48
1
60
0
100
AcDbSpline
70
4
71
3
72
28
73
24
40
0
40
0
40
0
40
0
40
0.0508685331933363
40
0.0948852202453698
40
0.131987621524948
40
0.16316593088856
40
0.199205354155105
40
0.240824382058807
40
0.283636228370214
40
0.361511659425526
40
0.430402385499643
40
0.503021243449323
40
0.548211825089541
40
0.584730668686671
40
0.631322788400905
40
0.681375253873386
40
0.716593003515706
40
0.746327073200072
40
0.782812615970541
40
0.828477186612568
40
0.888177913638061
40
0.962395044570946
40
1
40
1
40
1
40
1
41
1
10
10.679137381658
20
-3.92856090489374
30
0
41
1
10
10.8809604172141
20
-3.92730535797654
30
0
41
1
10
11.2594529048162
20
-3.92595292118929
30
0
41
1
10
11.7991028473574
20
-3.92934091275737
30
0
41
1
10
12.2497138107007
20
-3.92985477891963
30
0
41
1
10
12.6782717339034
20
-3.93013106918428
30
0
41
1
10
13.1229037034683
20
-3.93064204683941
30
0
41
1
10
13.6158548283718
20
-3.93091472723381
30
0
41
1
10
14.2797047562903
20
-3.93144050755959
30
0
41
1
10
15.0551295870037
20
-3.93230687052377
30
0
41
1
10
15.9524776260594
20
-3.93248241606724
30
0
41
1
10
16.7161701126594
20
-3.93378688780061
30
0
41
1
10
17.3473879647123
20
-3.93317302003916
30
0
41
1
10
17.8723428713321
20
-3.93448300002188
30
0
41
1
10
18.4163520473945
20
-3.93526982008311
30
0
41
1
10
18.9563532566305
20
-3.93389202297001
30
0
41
1
10
19.424724407225
20
-3.9346730766417
30
0
41
1
10
19.8403988704237
20
-3.93646636454716
30
0
41
1
10
20.2957781801234
20
-3.93605350766845
30
0
41
1
10
20.8726771497865
20
-3.93340156574141
30
0
41
1
10
21.608631621926
20
-3.93669592098027
30
0
41
1
10
22.3092976861589
20
-3.93564345945688
30
0
41
1
10
22.7659602419044
20
-3.93675731758259
30
0
41
1
10
22.9194683852939
20
-3.93715113037692
30
0
0
SPLINE
5
AD
100
AcDbEntity
8
1
62
256
6
ByLayer
370
18
48
1
60
0
100
AcDbSpline
70
4
71
3
72
27
73
23
40
0
40
0
40
0
40
0
40
0.0807334156407575
40
0.149006679976602
40
0.2049115063674
40
0.253520335906767
40
0.286862440998773
40
0.311642884025713
40
0.354534220071723
40
0.401913655156365
40
0.435017245959647
40
0.470928888447422
40
0.517368166585559
40
0.602533393362407
40
0.677951944744988
40
0.751521275871419
40
0.804199314424432
40
0.855252025137819
40
0.885621668759576
40
0.924712305074798
40
0.981796629996433
40
1
40
1
40
1
40
1
41
1
10
35.6821078653039
20
-3.94358285651521
30
0
41
1
10
36.0091439587931
20
-3.94361484485765
30
0
41
1
10
36.6133394324788
20
-3.94371447191068
30
0
41
1
10
37.4444321297099
20
-3.94331812847736
30
0
41
1
10
38.1482940967672
20
-3.94403230139875
30
0
41
1
10
38.7021844096211
20
-3.94526585024812
30
0
41
1
10
39.1350605247395
20
-3.94574616103557
30
0
41
1
10
39.5455736283756
20
-3.94606787831012
30
0
41
1
10
40.0124476893647
20
-3.9457588650732
30
0
41
1
10
40.5136995694067
20
-3.9454652054458
30
0
41
1
10
40.9859986632902
20
-3.9468410642763
30
0
41
1
10
41.4544928393125
20
-3.94687038286588
30
0
41
1
10
42.1351618219162
20
-3.94658215234935
30
0
41
1
10
42.9761140842037
20
-3.94838656227378
30
0
41
1
10
43.9273617879832
20
-3.94711162554114
30
0
41
1
10
44.746628939164
20
-3.94909734390748
30
0
41
1
10
45.4668636078756
20
-3.94798623137697
30
0
41
1
10
46.0117165904963
20
-3.94962064417229
30
0
41
1
10
46.5010967741873
20
-3.95028176886475
30
0
41
1
10
47.0151487712926
20
-3.94950108088267
30
0
41
1
10
47.4798021656687
20
-3.94933673031594
30
0
41
1
10
47.7856325920687
20
-3.94948979483107
30
0
41
1
10
47.8595771700698
20
-3.94954252103747
30
0
0
SPLINE
5
AE
100
AcDbEntity
8
1
62
256
6
ByLayer
370
18
48
1
60
0
100
AcDbSpline
70
4
71
3
72
25
73
21
40
0
40
0
40
0
40
0
40
0.0022827321795261
40
0.0432214073846813
40
0.0863639031549684
40
0.132795816312307
40
0.233655349431893
40
0.313098230599194
40
0.371168660889339
40
0.449865133410956
40
0.522414047906859
40
0.598748672051098
40
0.68277214086268
40
0.75620773377806
40
0.819261545336893
40
0.892530704932965
40
0.926261521349669
40
0.956916826993236
40
0.985101606468688
40
1
40
1
40
1
40
1
41
1
10
23.1983311692815
20
3.93361314179239
30
0
41
1
10
23.191281229002
20
3.93351871394864
30
0
41
1
10
23.0574089125965
20
3.93170194637548
30
0
41
1
10
22.761800627527
20
3.92333472459427
30
0
41
1
10
22.3135412863404
20
3.91879283229599
30
0
41
1
10
21.6493440884498
20
3.92271738460747
30
0
41
1
10
20.8865477518308
20
3.93356343234774
30
0
41
1
10
20.0708835257695
20
3.93737848689454
30
0
41
1
10
19.3196255283832
20
3.93392372604018
30
0
41
1
10
18.5943523607773
20
3.93512607746979
30
0
41
1
10
17.8051191872768
20
3.9343069366245
30
0
41
1
10
16.9975823006665
20
3.93318799428187
30
0
41
1
10
16.1869497999421
20
3.93341447756231
30
0
41
1
10
15.422377534226
20
3.93199097472299
30
0
41
1
10
14.6950845753512
20
3.93235191486036
30
0
41
1
10
14.1054556978459
20
3.93119058530627
30
0
41
1
10
13.6281628278509
20
3.9309471193753
30
0
41
1
10
13.3071850635631
20
3.9307663996365
30
0
41
1
10
13.0515112214043
20
3.93053399390811
30
0
41
1
10
12.9021278230092
20
3.93039711651636
30
0
41
1
10
12.8504808867174
20
3.93034862130983
30
0
0
SPLINE
5
AF
100
AcDbEntity
8
1
62
256
6
ByLayer
370
18
48
1
60
0
100
AcDbSpline
70
4
71
3
72
27
73
23
40
0
40
0
40
0
40
0
40
0.0183503267555019
40
0.0791320955100306
40
0.130515079290535
40
0.170163929018049
40
0.209640051189053
40
0.258787484386388
40
0.381422886483423
40
0.517756123443161
40
0.574076802053778
40
0.62202685050657
40
0.660501176983011
40
0.696475574482104
40
0.744381461230918
40
0.794764791283396
40
0.825877260385568
40
0.852119230189202
40
0.875496643922603
40
0.905346156889556
40
0.954373019016379
40
1
40
1
40
1
40
1
41
1
10
48.027300242547
20
3.94837530924124
30
0
41
1
10
47.9662778422153
20
3.9481457656635
30
0
41
1
10
47.702847700988
20
3.9473654775357
30
0
41
1
10
47.2549581517569
20
3.94801543061934
30
0
41
1
10
46.7551067019594
20
3.95027093428428
30
0
41
1
10
46.3110821156994
20
3.95010561504441
30
0
41
1
10
45.877720477494
20
3.94906197465588
30
0
41
1
10
45.1621596694223
20
3.94799617508724
30
0
41
1
10
44.1192717877165
20
3.94796939143083
30
0
41
1
10
43.0517999904996
20
3.94846007628058
30
0
41
1
10
42.2372543849247
20
3.94693538927623
30
0
41
1
10
41.7539958644169
20
3.94672142166201
30
0
41
1
10
41.3396194341872
20
3.94688859405193
30
0
41
1
10
40.9253964126673
20
3.94683516693297
30
0
41
1
10
40.4708514323241
20
3.94569476714639
30
0
41
1
10
40.0327703837057
20
3.94588266487867
30
0
41
1
10
39.6680256715008
20
3.94602384840826
30
0
41
1
10
39.3947197189667
20
3.94596555020328
30
0
41
1
10
39.1256749948864
20
3.94578887087729
30
0
41
1
10
38.7795440886661
20
3.94523778844939
30
0
41
1
10
38.3581813619308
20
3.94498377038059
30
0
41
1
10
38.0377777750419
20
3.94489967519388
30
0
41
1
10
37.8833191237737
20
3.94484361384258
30
0
0
SPLINE
5
B0
100
AcDbEntity
8
1
62
256
6
ByLayer
370
18
48
1
60
0
100
AcDbSpline
70
4
71
3
72
12
73
8
40
0
40
0
40
0
40
0
40
0.0763150579591338
40
0.392225952521563
40
0.509704426125486
40
0.704319098158513
40
1
40
1
40
1
40
1
41
1
10
24.4523310024613
20
-1.12666050955389
30
0
41
1
10
24.4526566866892
20
-1.12683255437861
30
0
41
1
10
24.4657151395241
20
-1.13211550926101
30
0
41
1
10
24.554590031133
20
-1.17015787110969
30
0
41
1
10
24.6408556908498
20
-1.20861521532188
30
0
41
1
10
24.7329374725513
20
-1.25118706807373
30
0
41
1
10
24.8133082828819
20
-1.29049099544949
30
0
41
1
10
24.8644878475795
20
-1.31618656057216
30
0
0
SPLINE
5
B1
100
AcDbEntity
8
1
62
256
6
ByLayer
370
18
48
1
60
0
100
AcDbSpline
70
4
71
2
72
6
73
3
40
0
40
0
40
0
40
1
40
1
40
1
41
1
10
60.7505482326834
20
-3.95859286154402
30
0
41
1
10
61.1546798793208
20
-3.95683858477952
30
0
41
1
10
61.5586554590222
20
-3.96031807825858
30
0
0
SPLINE
5
B2
100
AcDbEntity
8
1
62
256
6
ByLayer
370
18
48
1
60
0
100
AcDbSpline
70
4
71
3
72
15
73
11
40
0
40
0
40
0
40
0
40
0.0577984911636623
40
0.159184891960127
40
0.294028376473455
40
0.478491079377339
40
0.55892969360429
40
0.631485736153053
40
0.783825024512169
40
1
40
1
40
1
40
1
41
1
10
49.4326156255976
20
-1.12055016557747
30
0
41
1
10
49.432556299621
20
-1.1204544211958
30
0
41
1
10
49.4377116901523
20
-1.12209340645026
30
0
41
1
10
49.4775950286226
20
-1.13684359511669
30
0
41
1
10
49.5091450939684
20
-1.14938902543429
30
0
41
1
10
49.4999306072232
20
-1.14502307622621
30
0
41
1
10
49.5268268237956
20
-1.15699121761645
30
0
41
1
10
49.5743814544192
20
-1.17848596782591
30
0
41
1
10
49.6977184429302
20
-1.23577642186754
30
0
41
1
10
49.8123278907341
20
-1.29171302796857
30
0
41
1
10
49.8899031472009
20
-1.33010665923618
30
0
0
SPLINE
5
B3
100
AcDbEntity
8
1
62
256
6
ByLayer
370
18
48
1
60
0
100
AcDbSpline
70
4
71
3
72
58
73
54
40
0
40
0
40
0
40
0
40
0.0727507295818129
40
0.0727507295818129
40
0.10912609437272
40
0.10912609437272
40
0.145501459163627
40
0.145501459163627
40
0.181876823954533
40
0.181876823954533
40
0.21825218874544
40
0.21825218874544
40
0.254627553536347
40
0.254627553536347
40
0.291002918327254
40
0.291002918327254
40
0.363753647909067
40
0.363753647909067
40
0.400129012699973
40
0.400129012699973
40
0.43650437749088
40
0.43650437749088
40
0.472879742281787
40
0.472879742281787
40
0.509255107072693
40
0.509255107072693
40
0.5456304718636
40
0.5456304718636
40
0.582005836654507
40
0.582005836654507
40
0.618381201445414
40
0.618381201445414
40
0.654756566236321
40
0.654756566236321
40
0.691131931027228
40
0.691131931027228
40
0.727507295818134
40
0.727507295818134
40
0.763882660609041
40
0.763882660609041
40
0.800258025399948
40
0.800258025399948
40
0.836633390190855
40
0.836633390190855
40
0.873008754981762
40
0.873008754981762
40
0.909384119772669
40
0.909384119772669
40
0.945759484563575
40
0.945759484563575
40
0.982134849354482
40
0.982134849354482
40
1
40
1
40
1
40
1
41
1
10
14.5542902577743
20
3.40126405728074
30
0
41
1
10
15.0452065908747
20
3.25655026864735
30
0
41
1
10
15.5367136128943
20
3.0955005010747
30
0
41
1
10
16.271904247143
20
2.8265285057042
30
0
41
1
10
16.5163802968826
20
2.73184115267958
30
0
41
1
10
17.0070423436197
20
2.53653856955879
30
0
41
1
10
17.253048247821
20
2.43547882013624
30
0
41
1
10
17.745154891715
20
2.22617767512352
30
0
41
1
10
17.9905900849174
20
2.11805353008802
30
0
41
1
10
18.4803287852749
20
1.89493770232261
30
0
41
1
10
18.7253871220106
20
1.78123003454093
30
0
41
1
10
19.2159463261295
20
1.54976601009309
30
0
41
1
10
19.4613500838731
20
1.43184309114423
30
0
41
1
10
19.9519973067019
20
1.19080701389612
30
0
41
1
10
20.1971800071933
20
1.06702340602345
30
0
41
1
10
20.9344418756652
20
0.695102436721754
30
0
41
1
10
21.4255087075929
20
0.444741031625313
30
0
41
1
10
22.1595723618711
20
0.0619423918627717
30
0
41
1
10
22.4046596279627
20
-0.0652767890090615
30
0
41
1
10
22.8958010736658
20
-0.318609690258995
30
0
41
1
10
23.1420130484636
20
-0.445087058820064
30
0
41
1
10
23.6333508795262
20
-0.697441735755632
30
0
41
1
10
23.8780203788043
20
-0.823800328071968
30
0
41
1
10
24.3682463980024
20
-1.07137133767665
30
0
41
1
10
24.6135450157371
20
-1.19310033372389
30
0
41
1
10
25.1040397839671
20
-1.43336649902432
30
0
41
1
10
25.3491869102261
20
-1.55199026816157
30
0
41
1
10
25.839227933566
20
-1.78620875803372
30
0
41
1
10
26.0851450070991
20
-1.90061580681265
30
0
41
1
10
26.5767302521126
20
-2.12255411020192
30
0
41
1
10
26.8222777940477
20
-2.23033914246787
30
0
41
1
10
27.3124742765462
20
-2.44019435422322
30
0
41
1
10
27.5568064682565
20
-2.54271230566056
30
0
41
1
10
28.0468018547574
20
-2.73848718115485
30
0
41
1
10
28.2922358953542
20
-2.83214729119192
30
0
41
1
10
28.7834899294314
20
-3.01175850030063
30
0
41
1
10
29.0295455124927
20
-3.09783874904906
30
0
41
1
10
29.5198390749896
20
-3.26159406068646
30
0
41
1
10
29.764929555473
20
-3.33841703507676
30
0
41
1
10
30.2554147706737
20
-3.48177852215289
30
0
41
1
10
30.5006586163286
20
-3.54850228055167
30
0
41
1
10
30.9907408325238
20
-3.67236788224665
30
0
41
1
10
31.235250630457
20
-3.72973663182447
30
0
41
1
10
31.7260395273
20
-3.83280957497001
30
0
41
1
10
31.9723320007231
20
-3.87877837615201
30
0
41
1
10
32.4636240882032
20
-3.95957959903601
30
0
41
1
10
32.7088252056057
20
-3.99447415486276
30
0
41
1
10
33.1981261754135
20
-4.0531169702636
30
0
41
1
10
33.4429245084344
20
-4.07653476195622
30
0
41
1
10
33.9333583075657
20
-4.11165573922477
30
0
41
1
10
34.1788221344531
20
-4.12343230149938
30
0
41
1
10
34.5449104961673
20
-4.13230555828645
30
0
41
1
10
34.6654463246912
20
-4.13380275446335
30
0
41
1
10
34.7859550841873
20
-4.13387269690733
30
0
0
SPLINE
5
B4
100
AcDbEntity
8
1
62
256
6
ByLayer
370
18
48
1
60
0
100
AcDbSpline
70
4
71
3
72
28
73
24
40
0
40
0
40
0
40
0
40
0.0845006082049839
40
0.0845006082049839
40
0.176050547384486
40
0.176050547384486
40
0.267600486563987
40
0.267600486563987
40
0.359150425743489
40
0.359150425743489
40
0.450700364922991
40
0.450700364922991
40
0.542250304102492
40
0.542250304102492
40
0.633800243281994
40
0.633800243281994
40
0.725350182461496
40
0.725350182461496
40
0.816900121640997
40
0.816900121640997
40
0.908450060820499
40
0.908450060820499
40
1
40
1
40
1
40
1
41
1
10
53.6034280914081
20
2.95388370258095
30
0
41
1
10
53.8293083005263
20
3.03666011722279
30
0
41
1
10
54.0555929347603
20
3.11540629441359
30
0
41
1
10
54.527385114409
20
3.27181397423092
30
0
41
1
10
54.7732190358212
20
3.34886839194252
30
0
41
1
10
55.2635732813815
20
3.49412835104744
30
0
41
1
10
55.5083080762671
20
3.56175775940716
30
0
41
1
10
55.9984257549647
20
3.68573316553011
30
0
41
1
10
56.2435055390896
20
3.7424154129489
30
0
41
1
10
56.7332978711055
20
3.8455024883624
30
0
41
1
10
56.9776760404712
20
3.89209846016993
30
0
41
1
10
57.467573053216
20
3.97368926330549
30
0
41
1
10
57.7135533720072
20
4.00867204871827
30
0
41
1
10
58.2048047727702
20
4.0672181042124
30
0
41
1
10
58.4500966819341
20
4.09077498986039
30
0
41
1
10
58.9395416530301
20
4.12641688599169
30
0
41
1
10
59.1840535359933
20
4.13834205699706
30
0
41
1
10
59.6743712583435
20
4.15030518078061
30
0
41
1
10
59.919849302715
20
4.15043473527447
30
0
41
1
10
60.4110374198708
20
4.13889652929112
30
0
41
1
10
60.6560748840272
20
4.12712516325391
30
0
41
1
10
61.1458203942191
20
4.09188576001256
30
0
41
1
10
61.3909790802619
20
4.06856324918857
30
0
41
1
10
61.6360999645852
20
4.03955112457004
30
0
0
SPLINE
5
B5
100
AcDbEntity
8
1
62
256
6
ByLayer
370
13
48
1
60
0
100
AcDbSpline
70
4
71
3
72
8
73
4
40
0
40
0
40
0
40
0
40
1
40
1
40
1
40
1
41
1
10
4.13677830139335
20
-2.68195985133383
30
0
41
1
10
4.17232024572664
20
-2.67731101070498
30
0
41
1
10
4.21086420104626
20
-2.67933590368494
30
0
41
1
10
4.25035095067653
20
-2.68788862806105
30
0
0
SPLINE
5
B6
100
AcDbEntity
8
1
62
256
6
ByLayer
370
18
48
1
60
0
100
AcDbSpline
70
4
71
3
72
8
73
4
40
0
40
0
40
0
40
0
40
1
40
1
40
1
40
1
41
1
10
4.13507918506804
20
-2.85841545968714
30
0
41
1
10
4.08307254362978
20
-2.83902677166995
30
0
41
1
10
4.04200021310066
20
-2.80670667249149
30
0
41
1
10
4.01944461673381
20
-2.76685407507571
30
0
0
SPLINE
5
B7
100
AcDbEntity
8
1
62
256
6
ByLayer
370
18
48
1
60
0
100
AcDbSpline
70
4
71
3
72
34
73
30
40
0
40
0
40
0
40
0
40
0.249999999999997
40
0.249999999999997
40
0.374999999999996
40
0.374999999999996
40
0.437499999999995
40
0.437499999999995
40
0.499999999999994
40
0.499999999999994
40
0.624999999999993
40
0.624999999999993
40
0.687499999999989
40
0.687499999999989
40
0.71874999999999
40
0.71874999999999
40
0.749999999999991
40
0.749999999999991
40
0.812499999999993
40
0.812499999999993
40
0.843749999999994
40
0.843749999999994
40
0.874999999999995
40
0.874999999999995
40
0.906249999999996
40
0.906249999999996
40
0.937499999999997
40
0.937499999999997
40
1
40
1
40
1
40
1
41
1
10
58.3470051013301
20
0.981579529174809
30
0
41
1
10
58.64093330752
20
0.806945208772561
30
0
41
1
10
58.9357956454316
20
0.650396069576942
30
0
41
1
10
59.3802986159627
20
0.458348502295792
30
0
41
1
10
59.5288297833098
20
0.401370362066871
30
0
41
1
10
59.7522710676554
20
0.328381586722457
30
0
41
1
10
59.8270480024419
20
0.306094227455475
30
0
41
1
10
59.9753657796686
20
0.266473897838694
30
0
41
1
10
60.0490143738107
20
0.249081095342149
30
0
41
1
10
60.2683473530818
20
0.204542844241303
30
0
41
1
10
60.4124227422693
20
0.185019516526296
30
0
41
1
10
60.6249078669164
20
0.172920859853775
30
0
41
1
10
60.6952411397719
20
0.171756212945638
30
0
41
1
10
60.7993396552649
20
0.174602079147547
30
0
41
1
10
60.8339623260218
20
0.175847723654584
30
0
41
1
10
60.9018277308084
20
0.18214838171761
30
0
41
1
10
60.9349939953696
20
0.187372532087664
30
0
41
1
10
61.0305582632901
20
0.210876623236032
30
0
41
1
10
61.0899270187111
20
0.237479286815528
30
0
41
1
10
61.161376649904
20
0.300895201856037
30
0
41
1
10
61.1827314929454
20
0.326118640680107
30
0
41
1
10
61.2181280208496
20
0.382745288927112
30
0
41
1
10
61.2322982186009
20
0.414144432186674
30
0
41
1
10
61.2531134881528
20
0.48352456165884
30
0
41
1
10
61.2596894381584
20
0.521836295213376
30
0
41
1
10
61.2646551459815
20
0.601232209229124
30
0
41
1
10
61.2632338841074
20
0.642710776303119
30
0
41
1
10
61.2480994965235
20
0.77210439996918
30
0
41
1
10
61.2245495987635
20
0.85976661942675
30
0
41
1
10
61.193917653128
20
0.94783959066126
30
0
0
SPLINE
5
B8
100
AcDbEntity
8
1
62
256
6
ByLayer
370
18
48
1
60
0
100
AcDbSpline
70
4
71
3
72
54
73
50
40
0
40
0
40
0
40
0
40
0.0777150782051134
40
0.0777150782051134
40
0.11657261730767
40
0.11657261730767
40
0.155430156410227
40
0.155430156410227
40
0.194287695512784
40
0.194287695512784
40
0.23314523461534
40
0.23314523461534
40
0.272002773717897
40
0.272002773717897
40
0.310860312820454
40
0.310860312820454
40
0.349717851923011
40
0.349717851923011
40
0.388575391025567
40
0.388575391025567
40
0.427432930128124
40
0.427432930128124
40
0.466290469230681
40
0.466290469230681
40
0.544005547435794
40
0.544005547435794
40
0.582863086538351
40
0.582863086538351
40
0.621720625640907
40
0.621720625640907
40
0.660578164743464
40
0.660578164743464
40
0.699435703846021
40
0.699435703846021
40
0.738293242948578
40
0.738293242948578
40
0.777150782051134
40
0.777150782051134
40
0.816008321153691
40
0.816008321153691
40
0.854865860256248
40
0.854865860256248
40
0.893723399358805
40
0.893723399358805
40
0.932580938461361
40
0.932580938461361
40
0.971438477563918
40
0.971438477563918
40
1
40
1
40
1
40
1
41
1
10
8.59378507321307
20
0.859023487673511
30
0
41
1
10
9.11327486855072
20
0.60802031491221
30
0
41
1
10
9.63173841417702
20
0.354129464178413
30
0
41
1
10
10.4084476701885
20
-0.0300136815644976
30
0
41
1
10
10.6672257921601
20
-0.158517265434568
30
0
41
1
10
11.1858404649481
20
-0.413758992493257
30
0
41
1
10
11.4457115303591
20
-0.54100023896271
30
0
41
1
10
11.9652438737661
20
-0.793761575200818
30
0
41
1
10
12.2242953457691
20
-0.919396097737803
30
0
41
1
10
12.7423995196509
20
-1.16668106131587
30
0
41
1
10
13.0014883956657
20
-1.2882344793982
30
0
41
1
10
13.5196481372068
20
-1.52695463592835
30
0
41
1
10
13.7787257419612
20
-1.64411638179939
30
0
41
1
10
14.2970121434546
20
-1.87425580267413
30
0
41
1
10
14.556889561836
20
-1.98675460018632
30
0
41
1
10
15.0762321979534
20
-2.20356541817861
30
0
41
1
10
15.3355435037914
20
-2.30822537779767
30
0
41
1
10
15.8535020717752
20
-2.51081639723915
30
0
41
1
10
16.1120631679805
20
-2.60915340992432
30
0
41
1
10
16.6300436492405
20
-2.79548167366852
30
0
41
1
10
16.8892867503027
20
-2.88374409983342
30
0
41
1
10
17.4081892099072
20
-3.05180680349153
30
0
41
1
10
17.6679601031721
20
-3.13201905703505
30
0
41
1
10
18.4458218868976
20
-3.3571723005044
30
0
41
1
10
18.9639901120138
20
-3.48202642524737
30
0
41
1
10
19.7403151794418
20
-3.64199385250217
30
0
41
1
10
19.999251053256
20
-3.6895419702158
30
0
41
1
10
20.5184448125369
20
-3.77078243563994
30
0
41
1
10
20.7785161407798
20
-3.80541804138082
30
0
41
1
10
21.2971317878645
20
-3.86376829265041
30
0
41
1
10
21.5558183091546
20
-3.88799202048443
30
0
41
1
10
22.0737409582662
20
-3.92090701914634
30
0
41
1
10
22.3328371559632
20
-3.93062993801982
30
0
41
1
10
22.8511549573537
20
-3.9388699795733
30
0
41
1
10
23.1102437421683
20
-3.93758714228943
30
0
41
1
10
23.6291704430379
20
-3.92171244784979
30
0
41
1
10
23.8889301635835
20
-3.90631972571154
30
0
41
1
10
24.4074989947691
20
-3.86405103737903
30
0
41
1
10
24.6665417800311
20
-3.83709139511438
30
0
41
1
10
25.1840665483343
20
-3.77234880171139
30
0
41
1
10
25.4427295762001
20
-3.73339008642418
30
0
41
1
10
25.9611726873545
20
-3.64277728538733
30
0
41
1
10
26.220814675717
20
-3.59159681744964
30
0
41
1
10
26.7402338999951
20
-3.4788917163724
30
0
41
1
10
26.9991751268085
20
-3.4173460152374
30
0
41
1
10
27.5171549578717
20
-3.28184375602578
30
0
41
1
10
27.7761664455511
20
-3.20885834832873
30
0
41
1
10
28.2254633610161
20
-3.07425130991996
30
0
41
1
10
28.4157274934317
20
-3.01480701019725
30
0
41
1
10
28.6060307881435
20
-2.95258171139372
30
0
0
SPLINE
5
B9
100
AcDbEntity
8
1
62
256
6
ByLayer
370
18
48
1
60
0
100
AcDbSpline
70
4
71
3
72
32
73
28
40
0
40
0
40
0
40
0
40
0.0212314332767305
40
0.0212314332767305
40
0.0965213230246754
40
0.0965213230246754
40
0.17181121277262
40
0.17181121277262
40
0.247101102520564
40
0.247101102520564
40
0.322390992268509
40
0.322390992268509
40
0.397680882016454
40
0.397680882016454
40
0.472970771764398
40
0.472970771764398
40
0.548260661512342
40
0.548260661512342
40
0.698840441008228
40
0.698840441008228
40
0.774130330756171
40
0.774130330756171
40
0.849420220504114
40
0.849420220504114
40
0.924710110252057
40
0.924710110252057
40
1
40
1
40
1
40
1
41
1
10
48.0289451712297
20
3.94886281428472
30
0
41
1
10
48.101994735574
20
3.94808997102183
30
0
41
1
10
48.1750334103563
20
3.94679047011533
30
0
41
1
10
48.5070249128638
20
3.93835190496893
30
0
41
1
10
48.7658390950924
20
3.92519101148059
30
0
41
1
10
49.2833547728081
20
3.88765896072525
30
0
41
1
10
49.5423535658965
20
3.86406033279619
30
0
41
1
10
50.0614384177952
20
3.80261118498495
30
0
41
1
10
50.3212057147236
20
3.76499877770934
30
0
41
1
10
50.839233917642
20
3.67762110140521
30
0
41
1
10
51.0977812493338
20
3.62768654029369
30
0
41
1
10
51.6155100481523
20
3.51720343644692
30
0
41
1
10
51.8744830273218
20
3.45653018829049
30
0
41
1
10
52.3925627015817
20
3.32479116885923
30
0
41
1
10
52.6515087969862
20
3.25368531702483
30
0
41
1
10
53.1703985658192
20
3.10131110353612
30
0
41
1
10
53.4296168675598
20
3.02031704240835
30
0
41
1
10
54.2064447236509
20
2.76230341606106
30
0
41
1
10
54.7227267677097
20
2.57056306615436
30
0
41
1
10
55.4999418181592
20
2.26153109044833
30
0
41
1
10
55.7596235811537
20
2.15463078686784
30
0
41
1
10
56.2782042253189
20
1.93416501369651
30
0
41
1
10
56.5367725013767
20
1.82045767834799
30
0
41
1
10
57.0541482268522
20
1.58880914602915
30
0
41
1
10
57.3127951436893
20
1.47054452225055
30
0
41
1
10
57.8299589758898
20
1.22946213073027
30
0
41
1
10
58.0883233697755
20
1.10651404870126
30
0
41
1
10
58.3470051013302
20
0.981579529174752
30
0
0
SPLINE
5
BA
100
AcDbEntity
8
1
62
256
6
ByLayer
370
18
48
1
60
0
100
AcDbSpline
70
4
71
3
72
14
73
10
40
0
40
0
40
0
40
0
40
0.146891233006072
40
0.146891233006072
40
0.289503866779171
40
0.289503866779171
40
0.432116500552271
40
0.432116500552271
40
1
40
1
40
1
40
1
41
1
10
23.0219487380229
20
0.0018194767569355
30
0
41
1
10
23.3290951478096
20
-0.153910249688721
30
0
41
1
10
23.6368160147814
20
-0.309968108656534
30
0
41
1
10
24.2452446061117
20
-0.616539106573669
30
0
41
1
10
24.5464836663396
20
-0.767313823494447
30
0
41
1
10
25.1491081898386
20
-1.06494638719227
30
0
41
1
10
25.44914427241
20
-1.21129096641692
30
0
41
1
10
26.9398027208313
20
-1.92418272358773
30
0
41
1
10
28.1182960110717
20
-2.44160143579978
30
0
41
1
10
29.3073069589832
20
-2.86711562818212
30
0
0
SPLINE
5
BB
100
AcDbEntity
8
1
62
256
6
ByLayer
370
13
48
1
60
0
100
AcDbSpline
70
4
71
3
72
20
73
16
40
0
40
0
40
0
40
0
40
0.0020431341504575
40
0.0020431341504575
40
0.115550224159282
40
0.115550224159282
40
0.229057314168106
40
0.229057314168106
40
0.34256440417693
40
0.34256440417693
40
0.456071494185755
40
0.456071494185755
40
0.910099854221056
40
0.910099854221056
40
1
40
1
40
1
40
1
41
1
10
29.3073069591839
20
-2.86711562825397
30
0
41
1
10
29.3126817120164
20
-2.86903910390802
30
0
41
1
10
29.3180566797628
20
-2.87096070162014
30
0
41
1
10
29.6220522894864
20
-2.97953097238272
30
0
41
1
10
29.9213531492793
20
-3.08036300316613
30
0
41
1
10
30.5221065077282
20
-3.26914997790655
30
0
41
1
10
30.8240200996556
20
-3.35723188426857
30
0
41
1
10
31.4264413649326
20
-3.51817733223254
30
0
41
1
10
31.7273699539016
20
-3.59118391194781
30
0
41
1
10
32.3294646598547
20
-3.72159047825272
30
0
41
1
10
32.6308972390079
20
-3.77902871180512
30
0
41
1
10
34.1376037573111
20
-4.02488230559902
30
0
41
1
10
35.324866512137
20
-4.08643964188119
30
0
41
1
10
36.7547211022072
20
-3.996868506786
30
0
41
1
10
36.991292793154
20
-3.97674021018832
30
0
41
1
10
37.228304652625
20
-3.95130805944592
30
0
0
SPLINE
5
BC
100
AcDbEntity
8
1
62
256
6
ByLayer
370
18
48
1
60
0
100
AcDbSpline
70
4
71
3
72
8
73
4
40
0
40
0
40
0
40
0
40
1
40
1
40
1
40
1
41
1
10
61.6159915328491
20
-3.9353349352734
30
0
41
1
10
61.5942541216825
20
-3.95105026197345
30
0
41
1
10
61.5752618688718
20
-3.95896490151802
30
0
41
1
10
61.559062415194
20
-3.95894347709793
30
0
0
SPLINE
5
BD
100
AcDbEntity
8
1
62
256
6
ByLayer
370
13
48
1
60
0
100
AcDbSpline
70
4
71
3
72
8
73
4
40
0
40
0
40
0
40
0
40
1
40
1
40
1
40
1
41
1
10
4.13507918506807
20
-2.85841545968603
30
0
41
1
10
4.13564224889885
20
-2.84114719257789
30
0
41
1
10
4.13620862046196
20
-2.82387627382033
30
0
41
1
10
4.13677830139332
20
-2.806602636755
30
0
0
SPLINE
5
BE
100
AcDbEntity
8
1
62
256
6
ByLayer
370
18
48
1
60
0
100
AcDbSpline
70
4
71
3
72
86
73
82
40
0
40
0
40
0
40
0
40
0.0229301362510641
40
0.0229301362510641
40
0.0484931805741907
40
0.0484931805741907
40
0.0740562248973172
40
0.0740562248973172
40
0.0996192692204438
40
0.0996192692204438
40
0.12518231354357
40
0.12518231354357
40
0.150745357866697
40
0.150745357866697
40
0.176308402189823
40
0.176308402189823
40
0.20187144651295
40
0.20187144651295
40
0.227434490836077
40
0.227434490836077
40
0.252997535159203
40
0.252997535159203
40
0.27856057948233
40
0.27856057948233
40
0.304123623805456
40
0.304123623805456
40
0.329686668128583
40
0.329686668128583
40
0.35524971245171
40
0.35524971245171
40
0.380812756774836
40
0.380812756774836
40
0.406375801097963
40
0.406375801097963
40
0.431938845421089
40
0.431938845421089
40
0.457501889744216
40
0.457501889744216
40
0.483064934067342
40
0.483064934067342
40
0.508627978390469
40
0.508627978390469
40
0.534191022713596
40
0.534191022713596
40
0.559754067036722
40
0.559754067036722
40
0.585317111359849
40
0.585317111359849
40
0.610880155682975
40
0.610880155682975
40
0.636443200006102
40
0.636443200006102
40
0.662006244329228
40
0.662006244329228
40
0.687569288652355
40
0.687569288652355
40
0.713132332975481
40
0.713132332975481
40
0.738695377298608
40
0.738695377298608
40
0.764258421621735
40
0.764258421621735
40
0.789821465944861
40
0.789821465944861
40
0.815384510267988
40
0.815384510267988
40
0.840947554591114
40
0.840947554591114
40
0.866510598914241
40
0.866510598914241
40
0.892073643237367
40
0.892073643237367
40
0.917636687560494
40
0.917636687560494
40
0.943199731883621
40
0.943199731883621
40
0.968762776206747
40
0.968762776206747
40
0.994325820529874
40
0.994325820529874
40
1
40
1
40
1
40
1
41
1
10
53.6075586977553
20
-2.96104973677493
30
0
41
1
10
53.375171284564
20
-3.03728139700669
30
0
41
1
10
53.1424789956188
20
-3.10952230127532
30
0
41
1
10
52.6504111750321
20
-3.25399364233874
30
0
41
1
10
52.3915171433452
20
-3.32507062852889
30
0
41
1
10
51.8734891547124
20
-3.4567692682522
30
0
41
1
10
51.6145248331196
20
-3.51742753929705
30
0
41
1
10
51.0967772923855
20
-3.62788687254627
30
0
41
1
10
50.8382023567781
20
-3.67781250188423
30
0
41
1
10
50.3200774314371
20
-3.76517161319706
30
0
41
1
10
50.0602083327729
20
-3.8027774957516
30
0
41
1
10
49.5412521116327
20
-3.86416993594767
30
0
41
1
10
49.2822985654187
20
-3.8877501896653
30
0
41
1
10
48.7648450849828
20
-3.92524841342509
30
0
41
1
10
48.5060463650416
20
-3.9383933123483
30
0
41
1
10
47.9881145707145
20
-3.95152497875713
30
0
41
1
10
47.7289823977092
20
-3.95109005135703
30
0
41
1
10
47.2104703265542
20
-3.93889977081201
30
0
41
1
10
46.9508988448106
20
-3.92703083368792
30
0
41
1
10
46.4323663430466
20
-3.8903660234179
30
0
41
1
10
46.1733491192418
20
-3.86532629982457
30
0
41
1
10
45.6556584828262
20
-3.80242572594787
30
0
41
1
10
45.39715017161
20
-3.76521541558054
30
0
41
1
10
44.8796049224105
20
-3.67966653857485
30
0
41
1
10
44.6204868966062
20
-3.63122140081563
30
0
41
1
10
44.1014093980573
20
-3.52147042163506
30
0
41
1
10
43.841609708784
20
-3.46072576894733
30
0
41
1
10
43.3235834687358
20
-3.32933788607411
30
0
41
1
10
43.0647471732984
20
-3.25865637432727
30
0
41
1
10
42.5468813638894
20
-3.10672080135257
30
0
41
1
10
42.2879040154029
20
-3.02517479377715
30
0
41
1
10
41.7698326988724
20
-2.85338774732463
30
0
41
1
10
41.5108960564797
20
-2.76270893587329
30
0
41
1
10
40.9915197709109
20
-2.57287197200583
30
0
41
1
10
40.7321123428447
20
-2.47355397969889
30
0
41
1
10
40.2138682058349
20
-2.2678684739852
30
0
41
1
10
39.9551122642791
20
-2.16168827616832
30
0
41
1
10
39.4376729944971
20
-1.9421845707285
30
0
41
1
10
39.1787358232618
20
-1.82933453975977
30
0
41
1
10
38.6602311449943
20
-1.59755527851121
30
0
41
1
10
38.4004052257915
20
-1.47913422283727
30
0
41
1
10
37.8816145318219
20
-1.23721062401208
30
0
41
1
10
37.6226784711112
20
-1.11416055005486
30
0
41
1
10
37.1047390613736
20
-0.865658734287962
30
0
41
1
10
36.845821813257
20
-0.740060169876443
30
0
41
1
10
36.3280402642896
20
-0.486821812665227
30
0
41
1
10
36.0694165489327
20
-0.358532640527642
30
0
41
1
10
35.5510116419122
20
-0.101787168836125
30
0
41
1
10
35.2910312104594
20
0.0269320784265119
30
0
41
1
10
34.7719851382398
20
0.283410938860015
30
0
41
1
10
34.5128878449257
20
0.411525778507297
30
0
41
1
10
33.9953125233197
20
0.666499102482817
30
0
41
1
10
33.7364635471344
20
0.792557959010708
30
0
41
1
10
33.2182865809519
20
1.0415803509116
30
0
41
1
10
32.9589839770611
20
1.16470545520542
30
0
41
1
10
32.4401723016329
20
1.4082203415077
30
0
41
1
10
32.1805616906636
20
1.52833645051217
30
0
41
1
10
31.6620868824871
20
1.76103514672584
30
0
41
1
10
31.4029343514235
20
1.87462881087603
30
0
41
1
10
30.884965387978
20
2.09619790052872
30
0
41
1
10
30.6263776539749
20
2.20437289806628
30
0
41
1
10
30.1084621138691
20
2.41207775678976
30
0
41
1
10
29.8490865512928
20
2.51186210719365
30
0
41
1
10
29.329554376687
20
2.70445411722707
30
0
41
1
10
29.0699455496176
20
2.79704428357115
30
0
41
1
10
28.5521755275007
20
2.971866336473
30
0
41
1
10
28.2933961927768
20
3.05390726371161
30
0
41
1
10
27.7754885499541
20
3.20905314078792
30
0
41
1
10
27.5164445139324
20
3.28204066901446
30
0
41
1
10
26.9983191714281
20
3.41755883499343
30
0
41
1
10
26.7390995998423
20
3.47915255087966
30
0
41
1
10
26.2197480572064
20
3.59181348223242
30
0
41
1
10
25.9602710804904
20
3.64294781784528
30
0
41
1
10
25.4419058770088
20
3.73352105750035
30
0
41
1
10
25.1832334970655
20
3.77246658138495
30
0
41
1
10
24.66559034182
20
3.83719680907146
30
0
41
1
10
24.4064495848748
20
3.86415470376537
30
0
41
1
10
23.8876005887877
20
3.90640988771207
30
0
41
1
10
23.6275509479112
20
3.92178810672598
30
0
41
1
10
23.3107182854313
20
3.93144845963002
30
0
41
1
10
23.2531819008994
20
3.93287623198091
30
0
41
1
10
23.195656445921
20
3.93399049245392
30
0
0
SPLINE
5
BF
100
AcDbEntity
8
1
62
256
6
ByLayer
370
18
48
1
60
0
100
AcDbSpline
70
4
71
3
72
18
73
14
40
0
40
0
40
0
40
0
40
0.25
40
0.25
40
0.375
40
0.375
40
0.5
40
0.5
40
0.625
40
0.625
40
0.75
40
0.75
40
1
40
1
40
1
40
1
41
1
10
58.3470051013298
20
0.981579529174468
30
0
41
1
10
58.4696138476299
20
0.661492360202345
30
0
41
1
10
58.6310277751322
20
0.35351680078773
30
0
41
1
10
58.9160843868834
20
-0.0950457329107621
30
0
41
1
10
59.0168443988645
20
-0.239781260464326
30
0
41
1
10
59.2263585785512
20
-0.51921250785702
30
0
41
1
10
59.3353830021221
20
-0.654298461056868
30
0
41
1
10
59.5607962217014
20
-0.91648069053474
30
0
41
1
10
59.6771919197489
20
-1.04356947872563
30
0
41
1
10
59.9166127264505
20
-1.2905547451889
30
0
41
1
10
60.039501319724
20
-1.41025417401647
30
0
41
1
10
60.4122627430653
20
-1.7549776063766
30
0
41
1
10
60.6678262196974
20
-1.96755596689874
30
0
41
1
10
60.9293661022035
20
-2.16553414366501
30
0
0
SPLINE
5
C0
100
AcDbEntity
8
1
62
256
6
ByLayer
370
18
48
1
60
0
100
AcDbSpline
70
4
71
3
72
22
73
18
40
0
40
0
40
0
40
0
40
0.250000000000022
40
0.250000000000022
40
0.37500000000002
40
0.37500000000002
40
0.500000000000017
40
0.500000000000017
40
0.625000000000015
40
0.625000000000015
40
0.750000000000013
40
0.750000000000013
40
0.87500000000001
40
0.87500000000001
40
0.937500000000005
40
0.937500000000005
40
1
40
1
40
1
40
1
41
1
10
61.3096212662911
20
1.26713790276835
30
0
41
1
10
61.4276528055591
20
1.29387221434848
30
0
41
1
10
61.5445999926856
20
1.32404889538142
30
0
41
1
10
61.7172528766405
20
1.37835457734914
30
0
41
1
10
61.7743357951281
20
1.39798644552008
30
0
41
1
10
61.887182902601
20
1.44162881299317
30
0
41
1
10
61.9431859686084
20
1.46572592673047
30
0
41
1
10
62.051930402282
20
1.52008272626071
30
0
41
1
10
62.1047324965235
20
1.55029949643216
30
0
41
1
10
62.204243279884
20
1.620222699766
30
0
41
1
10
62.250229656484
20
1.65928110853198
30
0
41
1
10
62.3293476519671
20
1.75160052426452
30
0
41
1
10
62.3614973621835
20
1.80470758372658
30
0
41
1
10
62.38948530753
20
1.89273846726573
30
0
41
1
10
62.3952886294554
20
1.92267321781935
30
0
41
1
10
62.4002069606457
20
1.9836800886074
30
0
41
1
10
62.3992352266743
20
2.01496292630472
30
0
41
1
10
62.3953808134284
20
2.04546216631783
30
0
0
SPLINE
5
C1
100
AcDbEntity
8
1
62
256
6
ByLayer
370
18
48
1
60
0
100
AcDbSpline
70
4
71
3
72
22
73
18
40
0
40
0
40
0
40
0
40
0.125000000000001
40
0.125000000000001
40
0.187500000000002
40
0.187500000000002
40
0.250000000000002
40
0.250000000000002
40
0.500000000000001
40
0.500000000000001
40
0.625000000000001
40
0.625000000000001
40
0.750000000000001
40
0.750000000000001
40
0.875
40
0.875
40
1
40
1
40
1
40
1
41
1
10
61.5590624151975
20
-3.95894347709793
30
0
41
1
10
61.4989296610742
20
-3.95889026484525
30
0
41
1
10
61.4418179823479
20
-3.94971444567344
30
0
41
1
10
61.3609229479034
20
-3.92153946045738
30
0
41
1
10
61.3347554994216
20
-3.9097394332247
30
0
41
1
10
61.284085803093
20
-3.88111104651435
30
0
41
1
10
61.2595553915884
20
-3.86423362654705
30
0
41
1
10
61.1429807559995
20
-3.7682067188656
30
0
41
1
10
61.067402060852
20
-3.65402387089281
30
0
41
1
10
60.9823180838602
20
-3.42298322338809
30
0
41
1
10
60.9586577905777
20
-3.33510023275946
30
0
41
1
10
60.9228532856895
20
-3.14380308879683
30
0
41
1
10
60.9104615527551
20
-3.04003805492437
30
0
41
1
10
60.896661112744
20
-2.81633105310425
30
0
41
1
10
60.8952505885059
20
-2.6963917616601
30
0
41
1
10
60.9039112345272
20
-2.43960175405471
30
0
41
1
10
60.9139345873414
20
-2.30502529708531
30
0
41
1
10
60.9293661022045
20
-2.16553414366612
30
0
0
SPLINE
5
C2
100
AcDbEntity
8
1
62
256
6
ByLayer
370
18
48
1
60
0
100
AcDbSpline
70
4
71
3
72
14
73
10
40
0
40
0
40
0
40
0
40
0.25
40
0.25
40
0.5
40
0.5
40
0.75
40
0.75
40
1
40
1
40
1
40
1
41
1
10
4.25151102618958
20
2.93642170727881
30
0
41
1
10
4.22703264944502
20
2.94767561973796
30
0
41
1
10
4.20148345087887
20
2.96013906419535
30
0
41
1
10
4.14905468651244
20
2.98768956817355
30
0
41
1
10
4.12254426927018
20
3.00265123078148
30
0
41
1
10
4.07561630167433
20
3.03187883554762
30
0
41
1
10
4.05509333421017
20
3.04623750590136
30
0
41
1
10
4.02413305435198
20
3.07156583965644
30
0
41
1
10
4.01375444868762
20
3.08234167775427
30
0
41
1
10
4.00747177181998
20
3.09147728351536
30
0
0
SPLINE
5
C3
100
AcDbEntity
8
1
62
256
6
ByLayer
370
18
48
1
60
0
100
AcDbSpline
70
4
71
3
72
10
73
6
40
0
40
0
40
0
40
0
40
0.864320064026861
40
0.864320064026861
40
1
40
1
40
1
40
1
41
1
10
61.5626781914203
20
4.11475691642056
30
0
41
1
10
61.2619753933064
20
4.13500367126036
30
0
41
1
10
60.9613314525752
20
4.14636284747021
30
0
41
1
10
60.6131544727882
20
4.1492123415054
30
0
41
1
10
60.5658980087117
20
4.14937898015282
30
0
41
1
10
60.5186308153923
20
4.14932594233761
30
0
0
SPLINE
5
C4
100
AcDbEntity
8
1
62
256
6
ByLayer
370
18
48
1
60
0
100
AcDbSpline
70
4
71
3
72
42
73
38
40
0
40
0
40
0
40
0
40
0.0187489765231411
40
0.0187489765231411
40
0.0515843074634004
40
0.0515843074634004
40
0.182925631224442
40
0.182925631224442
40
0.248596293104963
40
0.248596293104963
40
0.281431624045224
40
0.281431624045224
40
0.314266954985484
40
0.314266954985484
40
0.347102285925745
40
0.347102285925745
40
0.379937616866006
40
0.379937616866006
40
0.445608278746526
40
0.445608278746526
40
0.511278940627046
40
0.511278940627046
40
0.544114271567306
40
0.544114271567306
40
0.576949602507565
40
0.576949602507565
40
0.708290926268602
40
0.708290926268602
40
0.773961588149121
40
0.773961588149121
40
0.80679691908938
40
0.80679691908938
40
0.83963225002964
40
0.83963225002964
40
0.970973573790679
40
0.970973573790679
40
1
40
1
40
1
40
1
41
1
10
37.8375133641474
20
-3.96240485633672
30
0
41
1
10
37.6667168031222
20
-3.98773622063732
30
0
41
1
10
37.4956420597275
20
-4.01036917754467
30
0
41
1
10
37.0239720024755
20
-4.06501948606962
30
0
41
1
10
36.7218559079961
20
-4.0913350650506
30
0
41
1
10
35.2193815712221
20
-4.17814640009402
30
0
41
1
10
34.0351859539284
20
-4.10556663241994
30
0
41
1
10
32.2480304175521
20
-3.79765710087045
30
0
41
1
10
31.6504704813245
20
-3.66194175423172
30
0
41
1
10
30.7466478230994
20
-3.41113704132772
30
0
41
1
10
30.4451200585779
20
-3.31995766275259
30
0
41
1
10
29.8435079732209
20
-3.12424034913764
30
0
41
1
10
29.5430132106601
20
-3.01957090478373
30
0
41
1
10
28.9417958212782
20
-2.79773863182774
30
0
41
1
10
28.6410800879054
20
-2.68056769110726
30
0
41
1
10
28.0386327995732
20
-2.43480200886088
30
0
41
1
10
27.7368190086469
20
-2.30615859756458
30
0
41
1
10
26.8363686149875
20
-1.90859524911318
30
0
41
1
10
26.2400787705883
20
-1.6270824352992
30
0
41
1
10
25.0496835531342
20
-1.0421423425467
30
0
41
1
10
24.4552859681008
20
-0.739261068248368
30
0
41
1
10
23.5605626557045
20
-0.277597400072324
30
0
41
1
10
23.2617635402542
20
-0.122557905185744
30
0
41
1
10
22.6622582975303
20
0.188294707540308
30
0
41
1
10
22.361026152259
20
0.344423997242615
30
0
41
1
10
20.8540843819571
20
1.11977661674601
30
0
41
1
10
19.6685820406684
20
1.71201959105446
30
0
41
1
10
17.8819735942428
20
2.48999174952368
30
0
41
1
10
17.2852271513283
20
2.73125731379332
30
0
41
1
10
16.3832159892052
20
3.05743377609068
30
0
41
1
10
16.0809456833023
20
3.16042360896603
30
0
41
1
10
15.4800620988759
20
3.35111380793489
30
0
41
1
10
15.1806766238034
20
3.43910903716156
30
0
41
1
10
13.6871428146836
20
3.84094831900188
30
0
41
1
10
12.503326901581
20
4.04008173660023
30
0
41
1
10
11.040454629653
20
4.11329467877681
30
0
41
1
10
10.774983728379
20
4.11976842811669
30
0
41
1
10
10.508522593697
20
4.11931388645581
30
0
0
SPLINE
5
C5
100
AcDbEntity
8
1
62
256
6
ByLayer
370
18
48
1
60
0
100
AcDbSpline
70
4
71
3
72
12
73
8
40
0
40
0
40
0
40
0
40
0.25
40
0.25
40
0.500000000000001
40
0.500000000000001
40
1
40
1
40
1
40
1
41
1
10
61.5973327427604
20
-4.02126804011462
30
0
41
1
10
61.6021649414176
20
-4.00821397067114
30
0
41
1
10
61.6067222810443
20
-3.99496554709637
30
0
41
1
10
61.6141097771382
20
-3.97113414036895
30
0
41
1
10
61.6169200593367
20
-3.96059093405353
30
0
41
1
10
61.6217258436627
20
-3.93688851068652
30
0
41
1
10
61.6201403586084
20
-3.93233549105574
30
0
41
1
10
61.6159915328491
20
-3.9353349352734
30
0
0
SPLINE
5
C6
100
AcDbEntity
8
1
62
256
6
ByLayer
370
13
48
1
60
0
100
AcDbSpline
70
4
71
3
72
16
73
12
40
0
40
0
40
0
40
0
40
0.226449282725771
40
0.226449282725771
40
0.339673924088656
40
0.339673924088656
40
0.452898565451541
40
0.452898565451541
40
0.905797130903082
40
0.905797130903082
40
1
40
1
40
1
40
1
41
1
10
4.20507561389695
20
-2.82002591991875
30
0
41
1
10
4.80821099344365
20
-3.03807554977263
30
0
41
1
10
5.40949778361036
20
-3.23052674268601
30
0
41
1
10
6.31298546295119
20
-3.4763540731085
30
0
41
1
10
6.61500549919433
20
-3.55126409078795
30
0
41
1
10
7.21729542138175
20
-3.68515337287914
30
0
41
1
10
7.51727734151177
20
-3.74408046750224
30
0
41
1
10
9.01322984699249
20
-3.99761032387428
30
0
41
1
10
10.1973008095727
20
-4.06917415071572
30
0
41
1
10
11.6413829042317
20
-3.99051586109144
30
0
41
1
10
11.8905299704464
20
-3.97107699253095
30
0
41
1
10
12.1403923831974
20
-3.94572781381206
30
0
0
SPLINE
5
C7
100
AcDbEntity
8
1
62
256
6
ByLayer
370
18
48
1
60
0
100
AcDbSpline
70
4
71
3
72
12
73
8
40
0
40
0
40
0
40
0
40
0.459652332618582
40
0.459652332618582
40
0.744796215363246
40
0.744796215363246
40
1
40
1
40
1
40
1
41
1
10
47.9617798885699
20
0.0324174612054549
30
0
41
1
10
48.9174436416093
20
-0.454065058095978
30
0
41
1
10
49.874647062391
20
-0.942240241784219
30
0
41
1
10
51.4489158094854
20
-1.69396422574135
30
0
41
1
10
52.0465032987996
20
-1.96743096826873
30
0
41
1
10
53.1735621769512
20
-2.44812722377841
30
0
41
1
10
53.7039125418835
20
-2.65923130354952
30
0
41
1
10
54.2343543136803
20
-2.85144565734652
30
0
0
SPLINE
5
C8
100
AcDbEntity
8
1
62
256
6
ByLayer
370
13
48
1
60
0
100
AcDbSpline
70
4
71
3
72
18
73
14
40
0
40
0
40
0
40
0
40
0.0255784291252363
40
0.0255784291252363
40
0.269183821843923
40
0.269183821843923
40
0.39098651820327
40
0.39098651820327
40
0.512789214562616
40
0.512789214562616
40
0.756394607281308
40
0.756394607281308
40
1
40
1
40
1
40
1
41
1
10
54.2343552546769
20
-2.85144599833217
30
0
41
1
10
54.2965855177012
20
-2.87399616130415
30
0
41
1
10
54.3588170388174
20
-2.89628633613609
30
0
41
1
10
55.0137808962162
20
-3.12807859746877
30
0
41
1
10
55.6069207349288
20
-3.31386893395882
30
0
41
1
10
56.5018807381678
20
-3.54999300973387
30
0
41
1
10
56.8010704129786
20
-3.62161639941246
30
0
41
1
10
57.4019170979125
20
-3.74970057756809
30
0
41
1
10
57.7036249142462
20
-3.80609884185481
30
0
41
1
10
58.6042694913157
20
-3.94964341890963
30
0
41
1
10
59.2019737478165
20
-4.01195695119915
30
0
41
1
10
60.3978282749972
20
-4.0683311116023
30
0
41
1
10
60.996090644637
20
-4.06205753059527
30
0
41
1
10
61.5973327427599
20
-4.02126804011465
30
0
0
SPLINE
5
C9
100
AcDbEntity
8
1
62
256
6
ByLayer
370
18
48
1
60
0
100
AcDbSpline
70
4
71
3
72
18
73
14
40
0
40
0
40
0
40
0
40
0.124999999999998
40
0.124999999999998
40
0.249999999999996
40
0.249999999999996
40
0.5
40
0.5
40
0.750000000000003
40
0.750000000000003
40
0.875000000000002
40
0.875000000000002
40
1
40
1
40
1
40
1
41
1
10
62.3953808134283
20
-2.04546216631783
30
0
41
1
10
62.3641246783471
20
-2.12962609689512
30
0
41
1
10
62.3327941029726
20
-2.21373044199692
30
0
41
1
10
62.2701133755653
20
-2.38190521456062
30
0
41
1
10
62.2387466826533
20
-2.46593427168776
30
0
41
1
10
62.1445001986658
20
-2.71769710006421
30
0
41
1
10
62.0814626040581
20
-2.88508127680578
30
0
41
1
10
61.9547061591526
20
-3.21834039127228
30
0
41
1
10
61.8912188723675
20
-3.38490515875432
30
0
41
1
10
61.7957708391822
20
-3.63236954309238
30
0
41
1
10
61.7638935561952
20
-3.71431227146132
30
0
41
1
10
61.7000415615906
20
-3.87733048679985
30
0
41
1
10
61.6680983980389
20
-3.95868679254491
30
0
41
1
10
61.6360999646068
20
-4.03955112454398
30
0
0
SPLINE
5
CA
100
AcDbEntity
8
1
62
256
6
ByLayer
370
13
48
1
60
0
100
AcDbSpline
70
4
71
3
72
8
73
4
40
0
40
0
40
0
40
0
40
1
40
1
40
1
40
1
41
1
10
4.13677830139335
20
-2.806602636755
30
0
41
1
10
4.15830561228319
20
-2.80689682376331
30
0
41
1
10
4.18144558337926
20
-2.81148302957845
30
0
41
1
10
4.20507561389698
20
-2.82002591991878
30
0
0
SPLINE
5
CB
100
AcDbEntity
8
1
62
256
6
ByLayer
370
18
48
1
60
0
100
AcDbSpline
70
4
71
3
72
67
73
63
40
0
40
0
40
0
40
0
40
0.0625000000000001
40
0.0625000000000001
40
0.125
40
0.125
40
0.25
40
0.25
40
0.375000000000001
40
0.375000000000001
40
0.500000000000001
40
0.500000000000001
40
0.562500000000001
40
0.562500000000001
40
0.625000000000001
40
0.625000000000001
40
0.656250000000001
40
0.656250000000001
40
0.671875000000001
40
0.671875000000001
40
0.6796875
40
0.683593750000001
40
0.683593750000001
40
0.687500000000001
40
0.687500000000001
40
0.691406250000001
40
0.691406250000001
40
0.695312500000002
40
0.695312500000002
40
0.703125000000001
40
0.703125000000001
40
0.71875
40
0.71875
40
0.749999999999997
40
0.749999999999997
40
0.765624999999996
40
0.765624999999996
40
0.773437499999996
40
0.773437499999996
40
0.781249999999996
40
0.781249999999996
40
0.789062499999996
40
0.789062499999996
40
0.796874999999996
40
0.796874999999996
40
0.812499999999996
40
0.812499999999996
40
0.820312499999996
40
0.820312499999996
40
0.828124999999996
40
0.828124999999996
40
0.843749999999996
40
0.843749999999996
40
0.859374999999997
40
0.859374999999997
40
0.874999999999997
40
0.874999999999997
40
0.906249999999997
40
0.906249999999997
40
0.937499999999998
40
0.937499999999998
40
1
40
1
40
1
40
1
41
1
10
14.5542923072756
20
3.40124697248538
30
0
41
1
10
14.2344686209556
20
3.49506535960799
30
0
41
1
10
13.9128025551639
20
3.57805422022736
30
0
41
1
10
13.2652189019577
20
3.7243290878078
30
0
41
1
10
12.9387398616024
20
3.78767709991865
30
0
41
1
10
11.955948908557
20
3.94975754624284
30
0
41
1
10
11.2976020834645
20
4.02028115668185
30
0
41
1
10
9.96744220303935
20
4.10520394237946
30
0
41
1
10
9.29556400596101
20
4.11961516595102
30
0
41
1
10
7.93233874290303
20
4.11664914426683
30
0
41
1
10
7.24099073360333
20
4.0994999862238
30
0
41
1
10
6.18672721874412
20
4.06948537671136
30
0
41
1
10
5.83214056004397
20
4.05874359375974
30
0
41
1
10
5.11831162609076
20
4.03859391593736
30
0
41
1
10
4.76034150135189
20
4.02923095397728
30
0
41
1
10
4.22172367868276
20
4.0178233838233
30
0
41
1
10
4.04190738148716
20
4.01445460509399
30
0
41
1
10
3.77175687513193
20
4.01019545477371
30
0
41
1
10
3.68162326254995
20
4.00890756321931
30
0
41
1
10
3.54637845140769
20
4.00718898094129
30
0
41
1
10
3.47874347003832
20
4.00638292803191
30
0
41
1
10
3.41108950766247
20
4.00565903517469
30
0
41
1
10
3.36598263435502
20
4.00519493067333
30
0
41
1
10
3.34342423005373
20
4.00494198960658
30
0
41
1
10
3.29864302697183
20
4.00603180288715
30
0
41
1
10
3.2761442107323
20
4.00719819086217
30
0
41
1
10
3.23640680784263
20
4.01179614453824
30
0
41
1
10
3.21659171754149
20
4.01408914893946
30
0
41
1
10
3.15738195680635
20
4.02093766752537
30
0
41
1
10
3.11822882787695
20
4.02546211777539
30
0
41
1
10
3.00182038963834
20
4.0388655980511
30
0
41
1
10
2.92560750620257
20
4.04757895085564
30
0
41
1
10
2.70212045988356
20
4.07256207979057
30
0
41
1
10
2.56227925164194
20
4.08750608757674
30
0
41
1
10
2.37437386602633
20
4.10386808522353
30
0
41
1
10
2.31541166197377
20
4.10829531198311
30
0
41
1
10
2.23447760387148
20
4.11251912728346
30
0
41
1
10
2.20862598667537
20
4.11351992038027
30
0
41
1
10
2.1608988404129
20
4.11446778495767
30
0
41
1
10
2.13896565482008
20
4.11442266983033
30
0
41
1
10
2.09934398106043
20
4.11312823380806
30
0
41
1
10
2.08165462803413
20
4.11187928585184
30
0
41
1
10
2.05099308945415
20
4.10797473770259
30
0
41
1
10
2.03800038643965
20
4.10529283800875
30
0
41
1
10
2.00765879270858
20
4.09510572102309
30
0
41
1
10
1.99847440407296
20
4.08544371089533
30
0
41
1
10
2.00107821575853
20
4.06628265485082
30
0
41
1
10
2.00472918981208
20
4.05909637106504
30
0
41
1
10
2.01699217928888
20
4.04356993539244
30
0
41
1
10
2.02559605974545
20
4.03518878821282
30
0
41
1
10
2.05804915881632
20
4.0083013951396
30
0
41
1
10
2.08884180794831
20
3.98788719903931
30
0
41
1
10
2.16213898778798
20
3.94442836444316
30
0
41
1
10
2.20474845836031
20
3.92125808591791
30
0
41
1
10
2.2988946510479
20
3.87249413212794
30
0
41
1
10
2.35073079601685
20
3.8467654226863
30
0
41
1
10
2.51463366808184
20
3.76745024067725
30
0
41
1
10
2.63445989650498
20
3.71192440846656
30
0
41
1
10
2.88682762537724
20
3.59659040868363
30
0
41
1
10
3.01952270081191
20
3.53676560115292
30
0
41
1
10
3.43124402981258
20
3.35154866214063
30
0
41
1
10
3.71659605904108
20
3.22358217482906
30
0
41
1
10
4.00747177180622
20
3.09147728352158
30
0
0
SPLINE
5
CC
100
AcDbEntity
8
1
62
256
6
ByLayer
370
18
48
1
60
0
100
AcDbSpline
70
4
71
3
72
14
73
10
40
0
40
0
40
0
40
0
40
0.25
40
0.25
40
0.5
40
0.5
40
0.75
40
0.75
40
1
40
1
40
1
40
1
41
1
10
8.59379778362393
20
0.859077750312792
30
0
41
1
10
8.22190339624163
20
1.03764754173673
30
0
41
1
10
7.85312427937691
20
1.21716173092017
30
0
41
1
10
7.12023865578703
20
1.57373491442863
30
0
41
1
10
6.75594515454614
20
1.75128763683043
30
0
41
1
10
6.03129177212344
20
2.10120166114459
30
0
41
1
10
5.67086416558956
20
2.27364338869904
30
0
41
1
10
4.95462459944653
20
2.61148738577273
30
0
41
1
10
4.59716275029757
20
2.77750862717122
30
0
41
1
10
4.25151102682224
20
2.93642170698794
30
0
0
SPLINE
5
CD
100
AcDbEntity
8
1
62
256
6
ByLayer
370
18
48
1
60
0
100
AcDbSpline
70
4
71
3
72
39
73
35
40
0
40
0
40
0
40
0
40
0.0013570994962246
40
0.0013570994962246
40
0.311542847031872
40
0.311542847031872
40
0.466635720799695
40
0.466635720799695
40
0.621728594567518
40
0.621728594567518
40
0.69927503145143
40
0.69927503145143
40
0.738048249893386
40
0.738048249893386
40
0.757434859114364
40
0.767128163724854
40
0.767128163724854
40
0.776821468335345
40
0.776821468335345
40
0.786514772945835
40
0.786514772945835
40
0.796208077556326
40
0.796208077556326
40
0.815594686777304
40
0.815594686777304
40
0.85436790521926
40
0.85436790521926
40
0.931914342103174
40
0.931914342103174
40
0.97068756054513
40
0.97068756054513
40
0.99007416976611
40
0.99007416976611
40
1
40
1
40
1
40
1
41
1
10
8.62289722439638
20
-4.11815070641043
30
0
41
1
10
8.619915460577
20
-4.11814482756404
30
0
41
1
10
8.61693351067024
20
-4.11813864345754
30
0
41
1
10
7.93233874290101
20
-4.1166491442668
30
0
41
1
10
7.24099073360111
20
-4.09949998622375
30
0
41
1
10
6.18672721874157
20
-4.0694853767113
30
0
41
1
10
5.8321405600413
20
-4.05874359375966
30
0
41
1
10
5.11831162608786
20
-4.0385939159373
30
0
41
1
10
4.76034150134893
20
-4.02923095397719
30
0
41
1
10
4.22172367867967
20
-4.01782338382321
30
0
41
1
10
4.04190738148392
20
-4.01445460509393
30
0
41
1
10
3.7717568751286
20
-4.01019545477368
30
0
41
1
10
3.68162326254665
20
-4.00890756321925
30
0
41
1
10
3.54637845140436
20
-4.00718898094124
30
0
41
1
10
3.478743470035
20
-4.00638292803188
30
0
41
1
10
3.41108950765914
20
-4.00565903517463
30
0
41
1
10
3.36598263435164
20
-4.00519493067327
30
0
41
1
10
3.34342423005032
20
-4.00494198960658
30
0
41
1
10
3.29864302696845
20
-4.00603180288729
30
0
41
1
10
3.27614421072923
20
-4.00719819086251
30
0
41
1
10
3.23640680783956
20
-4.01179614453858
30
0
41
1
10
3.21659171753851
20
-4.01408914893978
30
0
41
1
10
3.15738195680342
20
-4.02093766752569
30
0
41
1
10
3.11822882787394
20
-4.02546211777573
30
0
41
1
10
3.00182038963538
20
-4.03886559805144
30
0
41
1
10
2.9256075061997
20
-4.04757895085595
30
0
41
1
10
2.70212045988075
20
-4.07256207979086
30
0
41
1
10
2.56227925163927
20
-4.08750608757703
30
0
41
1
10
2.37437386602372
20
-4.10386808522375
30
0
41
1
10
2.31541166197118
20
-4.10829531198328
30
0
41
1
10
2.23447760386887
20
-4.11251912728358
30
0
41
1
10
2.20862598667281
20
-4.11351992038038
30
0
41
1
10
2.17254440403985
20
-4.11423650322163
30
0
41
1
10
2.16083242245693
20
-4.11434309172517
30
0
41
1
10
2.14965223250047
20
-4.11430247104659
30
0
0
SPLINE
5
CE
100
AcDbEntity
8
1
62
256
6
ByLayer
370
18
48
1
60
0
100
AcDbSpline
70
4
71
3
72
18
73
14
40
0
40
0
40
0
40
0
40
0.125000000000001
40
0.125000000000001
40
0.250000000000002
40
0.250000000000002
40
0.500000000000004
40
0.500000000000004
40
0.750000000000005
40
0.750000000000005
40
0.875000000000003
40
0.875000000000003
40
1
40
1
40
1
40
1
41
1
10
62.3953808134282
20
2.04546216631781
30
0
41
1
10
62.3641246783471
20
2.1296260968951
30
0
41
1
10
62.3327941029727
20
2.21373044199689
30
0
41
1
10
62.2701133755654
20
2.38190521456062
30
0
41
1
10
62.2387466826533
20
2.46593427168773
30
0
41
1
10
62.1445001986658
20
2.71769710006419
30
0
41
1
10
62.0814626040582
20
2.88508127680575
30
0
41
1
10
61.9547061591527
20
3.21834039127225
30
0
41
1
10
61.8912188723675
20
3.38490515875429
30
0
41
1
10
61.7957708391821
20
3.63236954309235
30
0
41
1
10
61.7638935561952
20
3.71431227146132
30
0
41
1
10
61.7000415615906
20
3.87733048679979
30
0
41
1
10
61.6680983980389
20
3.95868679254485
30
0
41
1
10
61.6360999646068
20
4.03955112454395
30
0
0
SPLINE
5
CF
100
AcDbEntity
8
1
62
256
6
ByLayer
370
18
48
1
60
0
100
AcDbSpline
70
4
71
3
72
77
73
73
40
0
40
0
40
0
40
0
40
0.0367003923429499
40
0.0367003923429499
40
0.075449032698636
40
0.075449032698636
40
0.114197673054322
40
0.114197673054322
40
0.191694953765694
40
0.191694953765694
40
0.269192234477066
40
0.269192234477066
40
0.307940874832753
40
0.307940874832753
40
0.346689515188438
40
0.346689515188438
40
0.424186795899811
40
0.424186795899811
40
0.462935436255497
40
0.462935436255497
40
0.48230975643334
40
0.48230975643334
40
0.487153336477801
40
0.487758783983358
40
0.488061507736137
40
0.488061507736137
40
0.488364231488916
40
0.488364231488916
40
0.489575126500031
40
0.489575126500031
40
0.491996916522261
40
0.491996916522261
40
0.501684076611181
40
0.501684076611181
40
0.540432716966863
40
0.540432716966863
40
0.579181357322544
40
0.579181357322544
40
0.656678638033906
40
0.656678638033906
40
0.734175918745269
40
0.734175918745269
40
0.75355023892311
40
0.75355023892311
40
0.76323739901203
40
0.76323739901203
40
0.76565918903426
40
0.76565918903426
40
0.766870084045375
40
0.766870084045375
40
0.767475531550933
40
0.767475531550933
40
0.767778255303711
40
0.767778255303711
40
0.76808097905649
40
0.76808097905649
40
0.76823234093288
40
0.76823234093288
40
0.768383702809269
40
0.768686426562048
40
0.769291874067605
40
0.77050276907872
40
0.772924559100949
40
0.811673199456622
40
0.811673199456622
40
0.850421839812294
40
0.850421839812294
40
0.889170480167966
40
0.889170480167966
40
0.966667760879311
40
0.966667760879311
40
1
40
1
40
1
40
1
41
1
10
14.5542960436788
20
3.40126414441551
30
0
41
1
10
14.4125063204233
20
3.39912886453504
30
0
41
1
10
14.270654299371
20
3.39335459216841
30
0
41
1
10
13.9787106997502
20
3.37314096097384
30
0
41
1
10
13.8285899862509
20
3.35823424022078
30
0
41
1
10
13.5275916220883
20
3.3184465964446
30
0
41
1
10
13.376247283448
20
3.29345779914743
30
0
41
1
10
12.9246545411986
20
3.20328042037036
30
0
41
1
10
12.6267726772112
20
3.12286059188239
30
0
41
1
10
12.0331778674678
20
2.92335180847465
30
0
41
1
10
11.737440849785
20
2.8042933661109
30
0
41
1
10
11.2910643618955
20
2.60153922696611
30
0
41
1
10
11.1416573856949
20
2.52986040525539
30
0
41
1
10
10.8456920458587
20
2.38204606293607
30
0
41
1
10
10.6985578890548
20
2.30566317523571
30
0
41
1
10
10.2584433233554
20
2.07135189833721
30
0
41
1
10
9.9667319923999
20
1.90829264355113
30
0
41
1
10
9.52705872672237
20
1.66188861050301
30
0
41
1
10
9.38015511332429
20
1.57944281393478
30
0
41
1
10
9.15872841858408
20
1.45631627077836
30
0
41
1
10
9.08467079267012
20
1.41532594530068
30
0
41
1
10
8.99213298936036
20
1.36447783599053
30
0
41
1
10
8.97131151959604
20
1.35305756623879
30
0
41
1
10
8.94933312401625
20
1.34102960057584
30
0
41
1
10
8.94586285979966
20
1.33913116670408
30
0
41
1
10
8.94354935132719
20
1.33786570408032
30
0
41
1
10
8.94414187916075
20
1.33645139585175
30
0
41
1
10
8.94800016303137
20
1.33194289119615
30
0
41
1
10
8.95226678287048
20
1.32937509335201
30
0
41
1
10
8.96440347554039
20
1.32131975666357
30
0
41
1
10
8.97283837490434
20
1.31636781254537
30
0
41
1
10
9.01518276351084
20
1.29197799903122
30
0
41
1
10
9.05004214191285
20
1.2738597458638
30
0
41
1
10
9.22443966563412
20
1.18374405731961
30
0
41
1
10
9.36610563952388
20
1.11526252978388
30
0
41
1
10
9.6494786929274
20
0.979158344202006
30
0
41
1
10
9.7915531903725
20
0.912070147593084
30
0
41
1
10
10.2182976766886
20
0.71265241957127
30
0
41
1
10
10.5032586977367
20
0.581983112843574
30
0
41
1
10
11.0729341695106
20
0.324056985011396
30
0
41
1
10
11.3576173995837
20
0.196358793290187
30
0
41
1
10
11.7108416081254
20
0.0369968804210998
30
0
41
1
10
11.7813609050802
20
0.0051421267546345
30
0
41
1
10
11.8863593011046
20
-0.0429569109332135
30
0
41
1
10
11.9213127569134
20
-0.0590160296644626
30
0
41
1
10
11.9641811667446
20
-0.0794699824168958
30
0
41
1
10
11.9727106780544
20
-0.0835804303201542
30
0
41
1
10
11.985297259705
20
-0.0898432317564186
30
0
41
1
10
11.9894625561686
20
-0.0919458813079927
30
0
41
1
10
11.9955590919712
20
-0.0951687833328094
30
0
41
1
10
11.997565344859
20
-0.0962518878045557
30
0
41
1
10
12.000452911917
20
-0.0979182179170834
30
0
41
1
10
12.0013981499175
20
-0.0984809997902403
30
0
41
1
10
12.003153517441
20
-0.0996318568469121
30
0
41
1
10
12.0042858181089
20
-0.100281889575797
30
0
41
1
10
12.0043406916329
20
-0.101126651208489
30
0
41
1
10
12.0036144939511
20
-0.101126204500304
30
0
41
1
10
12.0025700828097
20
-0.101233176753539
30
0
41
1
10
12.0010034581538
20
-0.10139331223462
30
0
41
1
10
11.9973479427391
20
-0.101764701351328
30
0
41
1
10
11.9900366963909
20
-0.102498434468259
30
0
41
1
10
11.9754132370631
20
-0.103929712825106
30
0
41
1
10
11.8291682913001
20
-0.117519253344398
30
0
41
1
10
11.6867695001984
20
-0.122705069335638
30
0
41
1
10
11.4188748626141
20
-0.118109305677507
30
0
41
1
10
11.2849315806325
20
-0.108665767008603
30
0
41
1
10
11.0156039077591
20
-0.0756365116074278
30
0
41
1
10
10.8799203618389
20
-0.0519789198298781
30
0
41
1
10
10.4702584333774
20
0.0394978660673644
30
0
41
1
10
10.1976239343793
20
0.12684868568752
30
0
41
1
10
9.80051090653859
20
0.28183763362378
30
0
41
1
10
9.68015208143248
20
0.33232960582427
30
0
41
1
10
9.55850497037551
20
0.386224896516609
30
0
0
SPLINE
5
D0
100
AcDbEntity
8
1
62
256
6
ByLayer
370
18
48
1
60
0
100
AcDbSpline
70
4
71
3
72
86
73
82
40
0
40
0
40
0
40
0
40
0.0213209506125356
40
0.0213209506125356
40
0.0449058514773218
40
0.0449058514773218
40
0.068490752342108
40
0.068490752342108
40
0.0920756532068941
40
0.0920756532068941
40
0.11566055407168
40
0.11566055407168
40
0.139245454936467
40
0.139245454936467
40
0.162830355801253
40
0.162830355801253
40
0.186415256666039
40
0.186415256666039
40
0.210000157530825
40
0.210000157530825
40
0.257169959260396
40
0.257169959260396
40
0.280754860125181
40
0.280754860125181
40
0.304339760989967
40
0.304339760989967
40
0.327924661854752
40
0.327924661854752
40
0.351509562719536
40
0.351509562719536
40
0.375094463584322
40
0.375094463584322
40
0.398679364449107
40
0.398679364449107
40
0.422264265313891
40
0.422264265313891
40
0.445849166178676
40
0.445849166178676
40
0.493018967908245
40
0.493018967908245
40
0.516603868773029
40
0.516603868773029
40
0.540188769637814
40
0.540188769637814
40
0.563773670502597
40
0.563773670502597
40
0.587358571367381
40
0.587358571367381
40
0.610943472232165
40
0.610943472232165
40
0.634528373096949
40
0.634528373096949
40
0.658113273961733
40
0.658113273961733
40
0.681698174826517
40
0.681698174826517
40
0.728867976556085
40
0.728867976556085
40
0.752452877420869
40
0.752452877420869
40
0.776037778285653
40
0.776037778285653
40
0.799622679150438
40
0.799622679150438
40
0.823207580015221
40
0.823207580015221
40
0.846792480880005
40
0.846792480880005
40
0.870377381744789
40
0.870377381744789
40
0.893962282609573
40
0.893962282609573
40
0.917547183474357
40
0.917547183474357
40
0.941132084339141
40
0.941132084339141
40
0.964716985203925
40
0.964716985203925
40
0.988301886068709
40
0.988301886068709
40
1
40
1
40
1
40
1
41
1
10
28.608607901331
20
2.94771122002902
30
0
41
1
10
28.8307200494239
20
3.02824572220797
30
0
41
1
10
29.0530775222484
20
3.10569830888372
30
0
41
1
10
29.5198390749893
20
3.26159406068632
30
0
41
1
10
29.7649295554726
20
3.33841703507664
30
0
41
1
10
30.2554147706733
20
3.48177852215275
30
0
41
1
10
30.5006586163282
20
3.54850228055156
30
0
41
1
10
30.9907408325234
20
3.67236788224653
30
0
41
1
10
31.2352506304566
20
3.72973663182438
30
0
41
1
10
31.7260395272996
20
3.83280957496993
30
0
41
1
10
31.9723320007227
20
3.87877837615193
30
0
41
1
10
32.4636240882027
20
3.95957959903595
30
0
41
1
10
32.7088252056053
20
3.9944741548627
30
0
41
1
10
33.1981261754131
20
4.05311697026357
30
0
41
1
10
33.4429245084339
20
4.0765347619562
30
0
41
1
10
33.9333583075653
20
4.11165573922477
30
0
41
1
10
34.1788221344527
20
4.12343230149935
30
0
41
1
10
34.6698424573943
20
4.13533366157739
30
0
41
1
10
34.9151769570212
20
4.13537509406234
30
0
41
1
10
35.6510409876784
20
4.11772421389202
30
0
41
1
10
36.1418154062142
20
4.08291822577712
30
0
41
1
10
36.8758423174447
20
3.99516713837647
30
0
41
1
10
37.1208642802249
20
3.96020089442862
30
0
41
1
10
37.6122844866241
20
3.87941372514896
30
0
41
1
10
37.8584641807967
20
3.83349167508783
30
0
41
1
10
38.349110099251
20
3.73067690142247
30
0
41
1
10
38.5935146742851
20
3.67338408441782
30
0
41
1
10
39.0832147130273
20
3.54937394349386
30
0
41
1
10
39.3283972418054
20
3.48263371981409
30
0
41
1
10
39.8188982606057
20
3.33926891711954
30
0
41
1
10
40.0642186896144
20
3.2626419922544
30
0
41
1
10
40.5546798203686
20
3.09879154189957
30
0
41
1
10
40.8002393711852
20
3.01239838926597
30
0
41
1
10
41.2910257324375
20
2.83265762237033
30
0
41
1
10
41.5363022577117
20
2.73895390018589
30
0
41
1
10
42.0262148499482
20
2.54327672548823
30
0
41
1
10
42.270498690186
20
2.44072138446651
30
0
41
1
10
43.0053086231678
20
2.12495304089995
30
0
41
1
10
43.4984927377915
20
1.90292528034701
30
0
41
1
10
44.2329328760284
20
1.55137354324381
30
0
41
1
10
44.4776154774218
20
1.43209861892561
30
0
41
1
10
44.9677161475155
20
1.19126120402234
30
0
41
1
10
45.2128989215524
20
1.06928032285171
30
0
41
1
10
45.7031228160297
20
0.821410335835736
30
0
41
1
10
45.9478126168733
20
0.694830476153783
30
0
41
1
10
46.4389096889777
20
0.441228291368503
30
0
41
1
10
46.6845858077431
20
0.314578928263216
30
0
41
1
10
47.1751964714503
20
0.0607340560650584
30
0
41
1
10
47.4202251920253
20
-0.066457508231224
30
0
41
1
10
47.9093036517718
20
-0.322191460711139
30
0
41
1
10
48.1539017504064
20
-0.449671992929893
30
0
41
1
10
48.6443785373188
20
-0.701628049772069
30
0
41
1
10
48.89007298936
20
-0.826642302303981
30
0
41
1
10
49.3815141207716
20
-1.07526982861466
30
0
41
1
10
49.6261969483626
20
-1.19916557391576
30
0
41
1
10
50.3608092560822
20
-1.56270118151181
30
0
41
1
10
50.8514078399125
20
-1.79426115330051
30
0
41
1
10
51.5857714149365
20
-2.13026306062491
30
0
41
1
10
51.8309945377856
20
-2.23955108450639
30
0
41
1
10
52.3224163237181
20
-2.45001483959032
30
0
41
1
10
52.5678963260314
20
-2.55149119139992
30
0
41
1
10
53.0579894950022
20
-2.74758906991673
30
0
41
1
10
53.302256558371
20
-2.84266974755838
30
0
41
1
10
53.791554571697
20
-3.02349599680872
30
0
41
1
10
54.036701660208
20
-3.10914349365308
30
0
41
1
10
54.527385114408
20
-3.27181397423061
30
0
41
1
10
54.7732190358202
20
-3.3488683919422
30
0
41
1
10
55.2635732813805
20
-3.49412835104709
30
0
41
1
10
55.5083080762661
20
-3.5617577594069
30
0
41
1
10
55.9984257549637
20
-3.68573316552985
30
0
41
1
10
56.2435055390886
20
-3.74241541294867
30
0
41
1
10
56.7332978711045
20
-3.8455024883622
30
0
41
1
10
56.9776760404702
20
-3.89209846016976
30
0
41
1
10
57.4675730532149
20
-3.97368926330535
30
0
41
1
10
57.7135533720062
20
-4.0086720487181
30
0
41
1
10
58.2048047727691
20
-4.06721810421229
30
0
41
1
10
58.450096681933
20
-4.09077498986028
30
0
41
1
10
58.939541653029
20
-4.1264168859916
30
0
41
1
10
59.1840535359921
20
-4.13834205699703
30
0
41
1
10
59.5508112245583
20
-4.14729047437393
30
0
41
1
10
59.6724885761642
20
-4.14881764164346
30
0
41
1
10
59.7942196604855
20
-4.14889942826554
30
0
0
SPLINE
5
D1
100
AcDbEntity
8
1
62
256
6
ByLayer
370
18
48
1
60
0
100
AcDbSpline
70
4
71
3
72
14
73
10
40
0
40
0
40
0
40
0
40
0.541796710229196
40
0.541796710229196
40
0.720433539529263
40
0.720433539529263
40
0.899070368829331
40
0.899070368829331
40
1
40
1
40
1
40
1
41
1
10
60.7460731559414
20
-3.9585627324177
30
0
41
1
10
59.8381736968167
20
-3.95800746766258
30
0
41
1
10
58.9340650347832
20
-3.87991073257862
30
0
41
1
10
57.7238817948577
20
-3.67744630954547
30
0
41
1
10
57.4223881413503
20
-3.61897233031343
30
0
41
1
10
56.8220793087297
20
-3.48736834683803
30
0
41
1
10
56.5230959449054
20
-3.41427266659733
30
0
41
1
10
56.056482158982
20
-3.28924233161089
30
0
41
1
10
55.8882903854749
20
-3.24193143461008
30
0
41
1
10
55.7202974664215
20
-3.1925472457755
30
0
0
SPLINE
5
D2
100
AcDbEntity
8
1
62
256
6
ByLayer
370
13
48
1
60
0
100
AcDbSpline
70
4
71
3
72
22
73
18
40
0
40
0
40
0
40
0
40
0.110291357008588
40
0.110291357008588
40
0.264007427659018
40
0.264007427659018
40
0.417723498309447
40
0.417723498309447
40
0.72515563961031
40
0.72515563961031
40
0.878871710260742
40
0.878871710260742
40
0.95572974558596
40
0.95572974558596
40
0.99415876324857
40
0.99415876324857
40
1
40
1
40
1
40
1
41
1
10
55.7202974663978
20
-3.19254724576851
30
0
41
1
10
55.2936241401459
20
-3.06711983946394
30
0
41
1
10
54.8682335707852
20
-2.92831818210857
30
0
41
1
10
53.8503998679408
20
-2.56792958910549
30
0
41
1
10
53.2581346812618
20
-2.33520128173782
30
0
41
1
10
52.0687985805437
20
-1.83246602136467
30
0
41
1
10
51.4711524619016
20
-1.56236697064966
30
0
41
1
10
49.6649181512479
20
-0.713408220759504
30
0
41
1
10
48.4817714869135
20
-0.113988924289174
30
0
41
1
10
46.7035026125896
20
0.762619551636618
30
0
41
1
10
46.1100158744039
20
1.05079169468024
30
0
41
1
10
45.2149146725674
20
1.46922351331466
30
0
41
1
10
44.9156721583531
20
1.6062681476609
30
0
41
1
10
44.4648697636084
20
1.80689937320133
30
0
41
1
10
44.3140924036796
20
1.87302242868162
30
0
41
1
10
44.1408915848477
20
1.94779919845624
30
0
41
1
10
44.1180457011806
20
1.95763983717427
30
0
41
1
10
44.0952067014488
20
1.96745438560205
30
0
0
SPLINE
5
D3
100
AcDbEntity
8
1
62
256
6
ByLayer
370
18
48
1
60
0
100
AcDbSpline
70
4
71
3
72
14
73
10
40
0
40
0
40
0
40
0
40
0.551611770829894
40
0.551611770829894
40
0.723079725030345
40
0.723079725030345
40
0.894547679230796
40
0.894547679230796
40
1
40
1
40
1
40
1
41
1
10
10.7334313234323
20
-3.92858602883857
30
0
41
1
10
9.77516708740157
20
-3.92712139816302
30
0
41
1
10
8.82101889543813
20
-3.84017404167724
30
0
41
1
10
7.55991027128101
20
-3.61850921854861
30
0
41
1
10
7.26008699849024
20
-3.55799125163131
30
0
41
1
10
6.65823612369951
20
-3.42152142257166
30
0
41
1
10
6.356485425024
20
-3.34563176205151
30
0
41
1
10
5.8705026883008
20
-3.21216753534034
30
0
41
1
10
5.68553631451928
20
-3.15874877039303
30
0
41
1
10
5.50058611809189
20
-3.10282435694776
30
0
0
SPLINE
5
D4
100
AcDbEntity
8
1
62
256
6
ByLayer
370
13
48
1
60
0
100
AcDbSpline
70
4
71
3
72
8
73
4
40
0
40
0
40
0
40
0
40
1
40
1
40
1
40
1
41
1
10
5.50058611697995
20
-3.10282435661159
30
0
41
1
10
5.08406957356692
20
-2.97687994652301
30
0
41
1
10
4.66763507709709
20
-2.83822759912149
30
0
41
1
10
4.25035095067645
20
-2.68788862806105
30
0
0
SPLINE
5
D5
100
AcDbEntity
8
1
62
256
6
ByLayer
370
13
48
1
60
0
100
AcDbSpline
70
4
71
3
72
29
73
25
40
0
40
0
40
0
40
0
40
0.0625
40
0.0625
40
0.125
40
0.125
40
0.25
40
0.25
40
0.375
40
0.375
40
0.4375
40
0.4375
40
0.5
40
0.5
40
0.625
40
0.625
40
0.6875
40
0.6875
40
0.75
40
0.8125
40
0.8125
40
0.875
40
0.875
40
1
40
1
40
1
40
1
41
1
10
4.25035095067653
20
-2.68788862806105
30
0
41
1
10
4.25039390941262
20
-2.591754073951
30
0
41
1
10
4.25043524699774
20
-2.49087604307195
30
0
41
1
10
4.25051413049681
20
-2.28273896946755
30
0
41
1
10
4.25055176252815
20
-2.17533664529995
30
0
41
1
10
4.25066026905441
20
-1.84335245268463
30
0
41
1
10
4.25072689397467
20
-1.6086360268894
30
0
41
1
10
4.25085264803724
20
-1.11401672504928
30
0
41
1
10
4.25090993928745
20
-0.861635035868318
30
0
41
1
10
4.25099109292097
20
-0.475739215168232
30
0
41
1
10
4.25101732811851
20
-0.345877420125305
30
0
41
1
10
4.25106857391148
20
-0.0836294212391522
30
0
41
1
10
4.25109356375989
20
0.048703892980825
30
0
41
1
10
4.25116553331722
20
0.440583769147139
30
0
41
1
10
4.25121019287261
20
0.698053383231411
30
0
41
1
10
4.25127323368523
20
1.07858559777409
30
0
41
1
10
4.25129367031059
20
1.2051318564404
30
0
41
1
10
4.25133253154766
20
1.45251749782642
30
0
41
1
10
4.25136936342915
20
1.69399819989593
30
0
41
1
10
4.2514019363154
20
1.9239016274694
30
0
41
1
10
4.25143209527056
20
2.14795758216729
30
0
41
1
10
4.2514460275305
20
2.25760310761029
30
0
41
1
10
4.25148287765342
20
2.57207926635755
30
0
41
1
10
4.25150107381319
20
2.76329457853942
30
0
41
1
10
4.25151102618958
20
2.93642170715512
30
0
0
SPLINE
5
D6
100
AcDbEntity
8
1
62
256
6
ByLayer
370
18
48
1
60
0
100
AcDbSpline
70
4
71
3
72
12
73
8
40
0
40
0
40
0
40
0
40
0.57267261299384
40
0.57267261299384
40
0.89073511542847
40
0.89073511542847
40
1
40
1
40
1
40
1
41
1
10
36.1906955738983
20
-3.9377342999471
30
0
41
1
10
35.1175568511874
20
-3.96671492126862
30
0
41
1
10
34.0472829413929
20
-3.88792637614239
30
0
41
1
10
32.3606210494592
20
-3.60056000731942
30
0
41
1
10
31.7592338604053
20
-3.46625723204272
30
0
41
1
10
30.9504735089791
20
-3.24742218474844
30
0
41
1
10
30.7433690488832
20
-3.18802366615125
30
0
41
1
10
30.5366483982353
20
-3.12559824628502
30
0
0
SPLINE
5
D7
100
AcDbEntity
8
1
62
256
6
ByLayer
370
13
48
1
60
0
100
AcDbSpline
70
4
71
3
72
24
73
20
40
0
40
0
40
0
40
0
40
0.0236320378499172
40
0.0236320378499172
40
0.0991498129675084
40
0.0991498129675084
40
0.40122091343787
40
0.40122091343787
40
0.476738688555459
40
0.476738688555459
40
0.552256463673047
40
0.552256463673047
40
0.703292013908221
40
0.703292013908221
40
0.854327564143393
40
0.854327564143393
40
0.92984533926098
40
0.92984533926098
40
1
40
1
40
1
40
1
41
1
10
30.536647440971
20
-3.12559795721074
30
0
41
1
10
30.4424936713528
20
-3.09716543488898
30
0
41
1
10
30.3484195221751
20
-3.06810499032548
30
0
41
1
10
29.954334000283
20
-2.94371070308813
30
0
41
1
10
29.6552086502986
20
-2.84280994264586
30
0
41
1
10
28.1628583279808
20
-2.31056628550192
30
0
41
1
10
26.9791227985479
20
-1.79643132708199
30
0
41
1
10
25.483761332466
20
-1.09312617580775
30
0
41
1
10
25.1838789616705
20
-0.949507617422427
30
0
41
1
10
24.5816514261588
20
-0.657894322748263
30
0
41
1
10
24.2807041577291
20
-0.510392675166713
30
0
41
1
10
23.3821320086257
20
-0.0676024074116697
30
0
41
1
10
22.7866142083397
20
0.22867769375253
30
0
41
1
10
21.5969461759283
20
0.811695642705303
30
0
41
1
10
21.0028401419037
20
1.0985494407918
30
0
41
1
10
20.1082658698755
20
1.51266502136997
30
0
41
1
10
19.8095293358277
20
1.648061737652
30
0
41
1
10
19.2315342067342
20
1.90278013600158
30
0
41
1
10
18.9518329115525
20
2.02270657725299
30
0
41
1
10
18.6721419863879
20
2.13861361417986
30
0
0
SPLINE
5
D8
100
AcDbEntity
8
1
62
256
6
ByLayer
370
18
48
1
60
0
100
AcDbSpline
70
4
71
3
72
14
73
10
40
0
40
0
40
0
40
0
40
0.25
40
0.25
40
0.5
40
0.5
40
0.75
40
0.75
40
1
40
1
40
1
40
1
41
1
10
61.1939176531278
20
0.947839590661147
30
0
41
1
10
61.1834178517192
20
0.978028620062844
30
0
41
1
10
61.1757373110314
20
1.00934887682544
30
0
41
1
10
61.1678451235193
20
1.07377577678687
30
0
41
1
10
61.1670058681517
20
1.10734373490177
30
0
41
1
10
61.1815812787022
20
1.17079995189204
30
0
41
1
10
61.1975787818723
20
1.20096356167943
30
0
41
1
10
61.2465559830848
20
1.24605216110399
30
0
41
1
10
61.2774092148449
20
1.25984182728487
30
0
41
1
10
61.3096212662908
20
1.26713790276889
30
0
0
SPLINE
5
D9
100
AcDbEntity
8
1
62
256
6
ByLayer
370
18
48
1
60
0
100
AcDbSpline
70
4
71
3
72
46
73
42
40
0
40
0
40
0
40
0
40
0.0688895687428383
40
0.0688895687428383
40
0.137779137485677
40
0.137779137485677
40
0.206668706228515
40
0.206668706228515
40
0.275558274971353
40
0.275558274971353
40
0.310003059342773
40
0.310003059342773
40
0.344447843714193
40
0.344447843714193
40
0.378892628085613
40
0.378892628085613
40
0.413337412457032
40
0.413337412457032
40
0.482226981199871
40
0.482226981199871
40
0.516671765571289
40
0.516671765571289
40
0.551116549942708
40
0.551116549942708
40
0.688895687428381
40
0.688895687428381
40
0.723340471799799
40
0.723340471799799
40
0.757785256171218
40
0.757785256171218
40
0.826674824914055
40
0.826674824914055
40
0.895564393656892
40
0.895564393656892
40
0.930009178028311
40
0.930009178028311
40
0.94723157021402
40
0.94723157021402
40
0.964453962399729
40
0.964453962399729
40
1
40
1
40
1
40
1
41
1
10
61.5626781914203
20
-4.11475691642056
30
0
41
1
10
60.9614921326178
20
-4.15523564432741
30
0
41
1
10
60.3605031767878
20
-4.16016314077058
30
0
41
1
10
59.1565780798152
20
-4.09902005447452
30
0
41
1
10
58.5569707979975
20
-4.03316618156708
30
0
41
1
10
57.3562305673489
20
-3.83385310746004
30
0
41
1
10
56.7535020636411
20
-3.69991846589383
30
0
41
1
10
55.5522920344094
20
-3.37241913696326
30
0
41
1
10
54.952778152843
20
-3.17874035942398
30
0
41
1
10
54.0501426380228
20
-2.84906156459851
30
0
41
1
10
53.7489379629762
20
-2.73271252318466
30
0
41
1
10
53.1480461011428
20
-2.48943711313038
30
0
41
1
10
52.8479560496478
20
-2.36235130648089
30
0
41
1
10
52.2476844661212
20
-2.09855974815736
30
0
41
1
10
51.9474725883184
20
-1.96190265297974
30
0
41
1
10
51.3460566715647
20
-1.68044456194076
30
0
41
1
10
51.0446168167146
20
-1.53552555610216
30
0
41
1
10
50.1427261307448
20
-1.09306992726926
30
0
41
1
10
49.5431909260207
20
-0.787018468906865
30
0
41
1
10
48.6415737290741
20
-0.320530814428338
30
0
41
1
10
48.3399620425038
20
-0.163555398810473
30
0
41
1
10
47.7393123103943
20
0.149020984682011
30
0
41
1
10
47.4401349135327
20
0.304726588688709
30
0
41
1
10
45.9479649331839
20
1.07649513392434
30
0
41
1
10
44.7657098636957
20
1.67139692533232
30
0
41
1
10
43.2716122756961
20
2.32981694388519
30
0
41
1
10
42.9719095746379
20
2.45712558048058
30
0
41
1
10
42.3699625709278
20
2.70158928996625
30
0
41
1
10
42.0691272939235
20
2.81825157214621
30
0
41
1
10
41.1712540453574
20
3.14796460270625
30
0
41
1
10
40.5762927926736
20
3.34119609682327
30
0
41
1
10
39.3879034686418
20
3.66886827199517
30
0
41
1
10
38.7942943470024
20
3.80308947967293
30
0
41
1
10
37.9001878424354
20
3.95573640498932
30
0
41
1
10
37.6015463429534
20
3.99850962975322
30
0
41
1
10
37.1520213072101
20
4.04995355161881
30
0
41
1
10
37.0019184549075
20
4.0649830464705
30
0
41
1
10
36.701107220504
20
4.09072738836639
30
0
41
1
10
36.55030251025
20
4.10144079812494
30
0
41
1
10
36.0897857278508
20
4.12741052434035
30
0
41
1
10
35.7808175661584
20
4.13543977946111
30
0
41
1
10
35.4726664413391
20
4.13417813275828
30
0
0
SPLINE
5
DA
100
AcDbEntity
8
1
62
256
6
ByLayer
370
18
48
1
60
0
100
AcDbSpline
70
4
71
3
72
18
73
14
40
0
40
0
40
0
40
0
40
0.178056694164377
40
0.178056694164377
40
0.280799607393828
40
0.280799607393828
40
0.332171064008555
40
0.332171064008555
40
0.383542520623281
40
0.383542520623281
40
0.589028347082187
40
0.589028347082187
40
1
40
1
40
1
40
1
41
1
10
12.8523392421308
20
-3.94571936734383
30
0
41
1
10
12.337071506542
20
-4.02236828629702
30
0
41
1
10
11.8213840370752
20
-4.07427842001641
30
0
41
1
10
11.0042365435538
20
-4.11506830541325
30
0
41
1
10
10.7044320574069
20
-4.12134701396815
30
0
41
1
10
10.2528609740933
20
-4.11748913175518
30
0
41
1
10
10.1019216520617
20
-4.11398076785724
30
0
41
1
10
9.80107866789064
20
-4.1025844873131
30
0
41
1
10
9.65096849266999
20
-4.09469841381875
30
0
41
1
10
8.90173988423754
20
-4.04449785870435
30
0
41
1
10
8.3066002679283
20
-3.96982939716503
30
0
41
1
10
6.52407660340666
20
-3.64957875669603
30
0
41
1
10
5.33978654949644
20
-3.30754454387585
30
0
41
1
10
4.13507918506821
20
-2.85841545968719
30
0
0
SPLINE
5
DB
100
AcDbEntity
8
1
62
256
6
ByLayer
370
18
48
1
60
0
100
AcDbSpline
70
4
71
3
72
8
73
4
40
0
40
0
40
0
40
0
40
1
40
1
40
1
40
1
41
1
10
61.5626781914203
20
-4.11475691642056
30
0
41
1
10
61.5742408839765
20
-4.08360696348205
30
0
41
1
10
61.5857926130685
20
-4.05244342534527
30
0
41
1
10
61.5973327427779
20
-4.02126804012173
30
0
0
SPLINE
5
DC
100
AcDbEntity
8
1
62
256
6
ByLayer
370
18
48
1
60
0
100
AcDbSpline
70
4
71
3
72
31
73
27
40
0
40
0
40
0
40
0
40
0.0624999999999999
40
0.0624999999999999
40
0.125
40
0.125
40
0.25
40
0.25
40
0.3125
40
0.3125
40
0.375
40
0.4375
40
0.4375
40
0.5
40
0.5
40
0.625
40
0.625
40
0.6875
40
0.6875
40
0.75
40
0.75
40
0.875
40
0.875
40
0.9375
40
0.9375
40
1
40
1
40
1
40
1
41
1
10
4.00715553662042
20
-2.72213234798761
30
0
41
1
10
4.00716699729736
20
-2.62026187775783
30
0
41
1
10
4.00717806293741
20
-2.51366265920248
30
0
41
1
10
4.00719929558181
20
-2.29353213782625
30
0
41
1
10
4.00720943403871
20
-2.18036667794684
30
0
41
1
10
4.00723868389872
20
-1.83183549544006
30
0
41
1
10
4.00725663645832
20
-1.58752156710304
30
0
41
1
10
4.00728213551477
20
-1.20258121769049
30
0
41
1
10
4.00729035298127
20
-1.07174121987876
30
0
41
1
10
4.00730610835092
20
-0.809486611021583
30
0
41
1
10
4.00732126875931
20
-0.545392997799922
30
0
41
1
10
4.00733551927584
20
-0.277667027951765
30
0
41
1
10
4.00734942301665
20
-0.0080949374938655
30
0
41
1
10
4.00735623782072
20
0.12837691238721
30
0
41
1
10
4.00737593954699
20
0.533580310263801
30
0
41
1
10
4.00738813432937
20
0.798463078975061
30
0
41
1
10
4.00740532752047
20
1.1880738664168
30
0
41
1
10
4.00741087005929
20
1.31664939908956
30
0
41
1
10
4.00742156465392
20
1.57112416353618
30
0
41
1
10
4.00742665359462
20
1.69554108157317
30
0
41
1
10
4.00744100158769
20
2.05773850564404
30
0
41
1
10
4.00744941913729
20
2.28582496099673
30
0
41
1
10
4.00745982257206
20
2.607654122702
30
0
41
1
10
4.00746292226185
20
2.71193956813059
30
0
41
1
10
4.00746810952597
20
2.90933960845536
30
0
41
1
10
4.00747021454484
20
3.00291627926975
30
0
41
1
10
4.00747177181967
20
3.0914772835153
30
0
0
SPLINE
5
DD
100
AcDbEntity
8
1
62
256
6
ByLayer
370
13
48
1
60
0
100
AcDbSpline
70
4
71
3
72
10
73
6
40
0
40
0
40
0
40
0
40
0.5
40
0.5
40
1
40
1
40
1
40
1
41
1
10
4.01944461673389
20
-2.76685407507569
30
0
41
1
10
4.03037531957693
20
-2.77516051111576
30
0
41
1
10
4.0454923286164
20
-2.78276337495095
30
0
41
1
10
4.08524002152305
20
-2.79645195298974
30
0
41
1
10
4.10898638497241
20
-2.80221046234104
30
0
41
1
10
4.13677830139335
20
-2.806602636755
30
0
0
SPLINE
5
DE
100
AcDbEntity
8
1
62
256
6
ByLayer
370
18
48
1
60
0
100
AcDbSpline
70
4
71
3
72
8
73
4
40
0
40
0
40
0
40
0
40
1
40
1
40
1
40
1
41
1
10
4.01944461673506
20
-2.76685407507776
30
0
41
1
10
4.01143456393476
20
-2.75270142735693
30
0
41
1
10
4.00715378635851
20
-2.73768986148136
30
0
41
1
10
4.00715553662042
20
-2.72213234799767
30
0
0
SPLINE
5
DF
100
AcDbEntity
8
1
62
256
6
ByLayer
370
13
48
1
60
0
100
AcDbSpline
70
4
71
3
72
12
73
8
40
0
40
0
40
0
40
0
40
0.5
40
0.5
40
0.75
40
0.75
40
1
40
1
40
1
40
1
41
1
10
4.00715553661672
20
-2.72213234800006
30
0
41
1
10
4.01534102940835
20
-2.7142965868737
30
0
41
1
10
4.03048792056984
20
-2.70656928706654
30
0
41
1
10
4.06315948824442
20
-2.69612426282228
30
0
41
1
10
4.07594398032074
20
-2.6927813367185
30
0
41
1
10
4.10415293585032
20
-2.68683990039466
30
0
41
1
10
4.11966133198149
20
-2.68419872892844
30
0
41
1
10
4.13677830139335
20
-2.68195985133383
30
0
0
LINE
5
76
100
AcDbEntity
8
81
62
256
6
ByLayer
370
18
48
1
60
0
100
AcDbLine
10
63
20
0
30
0
11
68
21
0
31
0
39
0
210
0
220
0
230
1
0
LINE
5
77
100
AcDbEntity
8
1
62
256
6
ByLayer
370
18
48
1
60
0
100
AcDbLine
10
2.16674
20
4.114318
30
0
11
1.432394
21
4.113878
31
0
39
0
210
0
220
0
230
1
0
LINE
5
79
100
AcDbEntity
8
1
62
256
6
ByLayer
370
18
48
1
60
0
100
AcDbLine
10
35.525059
20
4.134333
30
0
11
34.786197
21
4.13389
31
0
39
0
210
0
220
0
230
1
0
LINE
5
7A
100
AcDbEntity
8
1
62
256
6
ByLayer
370
18
48
1
60
0
100
AcDbLine
10
60.525601
20
4.149334
30
0
11
59.795905
21
4.148896
31
0
39
0
210
0
220
0
230
1
0
LINE
5
7B
100
AcDbEntity
8
1
62
256
6
ByLayer
370
18
48
1
60
0
100
AcDbLine
10
59.795905
20
-4.148896
30
0
11
60.525406
21
-4.149334
31
0
39
0
210
0
220
0
230
1
0
LINE
5
7C
100
AcDbEntity
8
1
62
256
6
ByLayer
370
18
48
1
60
0
100
AcDbLine
10
34.786197
20
-4.13389
30
0
11
35.525202
21
-4.134333
31
0
39
0
210
0
220
0
230
1
0
LINE
5
7D
100
AcDbEntity
8
1
62
256
6
ByLayer
370
18
48
1
60
0
100
AcDbLine
10
1.432394
20
-4.113878
30
0
11
2.16674
21
-4.114318
31
0
39
0
210
0
220
0
230
1
0
LINE
5
7E
100
AcDbEntity
8
1
62
256
6
ByLayer
370
18
48
1
60
0
100
AcDbLine
10
10.525163
20
4.119333
30
0
11
8.622581
21
4.118192
31
0
39
0
210
0
220
0
230
1
0
LINE
5
7F
100
AcDbEntity
8
1
62
256
6
ByLayer
370
18
48
1
60
0
100
AcDbLine
10
8.622581
20
-4.118192
30
0
11
10.525004
21
-4.119333
31
0
39
0
210
0
220
0
230
1
0
LINE
5
80
100
AcDbEntity
8
SK1
62
256
6
ByLayer
370
18
48
1
60
0
100
AcDbLine
10
-38.845299
20
5
30
0
11
-40
21
3
31
0
39
0
210
0
220
0
230
1
0
LINE
5
82
100
AcDbEntity
8
SK1
62
256
6
ByLayer
370
18
48
1
60
0
100
AcDbLine
10
-40
20
-3
30
0
11
-38.845299
21
-5
31
0
39
0
210
0
220
0
230
1
0
LINE
5
83
100
AcDbEntity
8
SK1
62
256
6
ByLayer
370
18
48
1
60
0
100
AcDbLine
10
0
20
5
30
0
11
-38.845299
21
5
31
0
39
0
210
0
220
0
230
1
0
LINE
5
84
100
AcDbEntity
8
SK1
62
256
6
ByLayer
370
18
48
1
60
0
100
AcDbLine
10
-38.845299
20
-5
30
0
11
0
21
-5
31
0
39
0
210
0
220
0
230
1
0
LINE
5
85
100
AcDbEntity
8
SK4
62
256
6
ByLayer
370
18
48
0.05
60
0
100
AcDbLine
10
68
20
0
30
0
11
-45
21
0
31
0
39
0
210
0
220
0
230
1
0
LINE
5
87
100
AcDbEntity
8
4
62
256
6
ByLayer
370
18
48
0.05
60
0
100
AcDbLine
10
63
20
0
30
0
11
0
21
0
31
0
39
0
210
0
220
0
230
1
0
LINE
5
89
100
AcDbEntity
8
80
62
256
6
ByLayer
370
18
48
1
60
0
100
AcDbLine
10
0
20
0
30
0
11
-5
21
0
31
0
39
0
210
0
220
0
230
1
0
LINE
5
8A
100
AcDbEntity
8
1
62
256
6
ByLayer
370
18
48
1
60
0
100
AcDbLine
10
34.599382
20
0.368841
30
0
11
34.595278
21
0.370637
31
0
39
0
210
0
220
0
230
1
0
LINE
5
8B
100
AcDbEntity
8
1
62
256
6
ByLayer
370
13
48
1
60
0
100
AcDbLine
10
62.055502
20
0.810701
30
0
11
62.916494
21
0.299847
31
0
39
0
210
0
220
0
230
1
0
LINE
5
8C
100
AcDbEntity
8
1
62
256
6
ByLayer
370
13
48
1
60
0
100
AcDbLine
10
1.432394
20
4.113878
30
0
11
1.432394
21
-4.113878
31
0
39
0
210
0
220
0
230
1
0
LINE
5
8D
100
AcDbEntity
8
1
62
256
6
ByLayer
370
18
48
1
60
0
100
AcDbLine
10
62.916494
20
-0.299847
30
0
11
62.787696
21
-0.810701
31
0
39
0
210
0
220
0
230
1
0
LINE
5
8E
100
AcDbEntity
8
1
62
256
6
ByLayer
370
13
48
1
60
0
100
AcDbLine
10
62.787696
20
0.810701
30
0
11
62.055502
21
0.810701
31
0
39
0
210
0
220
0
230
1
0
LINE
5
8F
100
AcDbEntity
8
1
62
256
6
ByLayer
370
18
48
1
60
0
100
AcDbLine
10
63
20
0
30
0
11
61.559062
21
-3.958943
31
0
39
0
210
0
220
0
230
1
0
LINE
5
90
100
AcDbEntity
8
1
62
256
6
ByLayer
370
18
48
1
60
0
100
AcDbLine
10
63
20
0
30
0
11
62.991857
21
-0.040542
31
0
39
0
210
0
220
0
230
1
0
LINE
5
91
100
AcDbEntity
8
1
62
256
6
ByLayer
370
13
48
1
60
0
100
AcDbLine
10
61.865595
20
0.475372
30
0
11
62.894754
21
-0.135262
31
0
39
0
210
0
220
0
230
1
0
LINE
5
92
100
AcDbEntity
8
1
62
256
6
ByLayer
370
13
48
1
60
0
100
AcDbLine
10
0.715957
20
4.556939
30
0
11
0.715957
21
-4.556939
31
0
39
0
210
0
220
0
230
1
0
LINE
5
93
100
AcDbEntity
8
1
62
256
6
ByLayer
370
18
48
1
60
0
100
AcDbLine
10
0
20
-5
30
0
11
0
21
5
31
0
39
0
210
0
220
0
230
1
0
LINE
5
94
100
AcDbEntity
8
1
62
256
6
ByLayer
370
18
48
1
60
0
100
AcDbLine
10
62.916494
20
0.299847
30
0
11
62.787696
21
0.810701
31
0
39
0
210
0
220
0
230
1
0
LINE
5
95
100
AcDbEntity
8
1
62
256
6
ByLayer
370
18
48
1
60
0
100
AcDbLine
10
60.929366
20
-2.165534
30
0
11
62.894754
21
-0.135262
31
0
39
0
210
0
220
0
230
1
0
LINE
5
96
100
AcDbEntity
8
1
62
256
6
ByLayer
370
18
48
1
60
0
100
AcDbLine
10
62.991857
20
0.040542
30
0
11
63
21
0
31
0
39
0
210
0
220
0
230
1
0
LINE
5
97
100
AcDbEntity
8
SK1
62
256
6
ByLayer
370
18
48
1
60
0
100
AcDbLine
10
0
20
-5
30
0
11
0
21
5
31
0
39
0
210
0
220
0
230
1
0
LINE
5
98
100
AcDbEntity
8
SK1
62
256
6
ByLayer
370
18
48
1
60
0
100
AcDbLine
10
-40
20
3
30
0
11
-40
21
-3
31
0
39
0
210
0
220
0
230
1
0
LINE
5
99
100
AcDbEntity
8
SK1
62
256
6
ByLayer
370
18
48
1
60
0
100
AcDbLine
10
-38.845299
20
5
30
0
11
-38.845299
21
-5
31
0
39
0
210
0
220
0
230
1
0
MTEXT
5
E0
100
AcDbEntity
8
SK6
62
256
6
ByLayer
370
13
48
1
60
0
100
AcDbMText
10
13.629169
20
36.532694
30
0
210
0
220
0
230
1
1
\W0.7670;R840-0830-50-A0A1220
40
3.5
41
0
44
1.084337
50
0
71
8
72
5
7
iso_b_vert
0
DIMENSION
5
ED
100
AcDbEntity
8
SK2
62
256
6
ByLayer
370
13
48
1
60
0
100
AcDbDimension
2
DimnDraft3D1
10
61.58
20
-14.363398
30
0
11
29.330059
21
-14.363398
31
0
70
32
71
5
72
1
41
1
210
0
220
0
230
1
3
Standard
100
AcDbAlignedDimension
13
0
23
-1.5875
33
0
14
61.58
24
-5.7375
34
0
50
0
100
AcDbRotatedDimension
1001
ACAD
1000
DSTYLE
1002
{
1070
   279
1070
     0
1070
   172
1070
     1
1070
   173
1070
     1
1070
   340
1005
E1
1070
   271
1070
     2
1070
   272
1070
     2
1070
    77
1070
     1
1070
    73
1070
     0
1070
   171
1070
     3
1070
   274
1070
     4
1070
   177
1070
    35
1070
   176
1070
    35
1070
   178
1070
    35
1070
    48
1040
-0.005
1070
    41
1041
3.5
1070
   147
1041
1.75
1070
    42
1041
1.5875
1070
    44
1041
2.0
1070
   140
1041
3.5
1070
   343
1005
0
1070
   344
1005
0
1002
}
0
DIMENSION
5
F7
100
AcDbEntity
8
SK2
62
256
6
ByLayer
370
13
48
1
60
0
100
AcDbDimension
2
DimnDraft3D2
10
63
20
-33.692985
30
0
11
11.4213
21
-33.692985
31
0
70
32
71
5
72
1
41
1
210
0
220
0
230
1
3
Standard
100
AcDbAlignedDimension
13
-40
23
-6.5875
33
0
14
63
24
-1.5875
34
0
50
0
100
AcDbRotatedDimension
1001
ACAD
1000
DSTYLE
1002
{
1070
   279
1070
     0
1070
   172
1070
     1
1070
   173
1070
     1
1070
   340
1005
E1
1070
   271
1070
     2
1070
   272
1070
     2
1070
    77
1070
     1
1070
    73
1070
     0
1070
   171
1070
     3
1070
   274
1070
     4
1070
   177
1070
    35
1070
   176
1070
    35
1070
   178
1070
    35
1070
    48
1040
-0.005
1070
    41
1041
3.5
1070
   147
1041
1.75
1070
    42
1041
1.5875
1070
    44
1041
2.0
1070
   140
1041
3.5
1070
   343
1005
0
1070
   344
1005
0
1002
}
0
DIMENSION
5
101
100
AcDbEntity
8
SK2
62
256
6
ByLayer
370
13
48
1
60
0
100
AcDbDimension
2
DimnDraft3D3
10
63
20
15.759119
30
0
11
41.54
21
15.759119
31
0
70
32
71
5
72
1
41
1
210
0
220
0
230
1
3
Standard
100
AcDbAlignedDimension
13
20.08
23
5.7375
33
0
14
63
24
1.5875
34
0
50
0
100
AcDbRotatedDimension
1001
ACAD
1000
DSTYLE
1002
{
1070
   279
1070
     0
1070
   172
1070
     1
1070
   173
1070
     1
1070
   340
1005
E1
1070
   271
1070
     2
1070
   272
1070
     2
1070
    77
1070
     1
1070
    73
1070
     0
1070
   171
1070
     3
1070
   274
1070
     4
1070
   177
1070
    35
1070
   176
1070
    35
1070
   178
1070
    35
1070
    48
1040
-0.005
1070
    41
1041
3.5
1070
   147
1041
1.75
1070
    42
1041
1.5875
1070
    44
1041
2.0
1070
   140
1041
3.5
1070
   343
1005
0
1070
   344
1005
0
1002
}
0
DIMENSION
5
10B
100
AcDbEntity
8
SK2
62
256
6
ByLayer
370
13
48
1
60
0
100
AcDbDimension
2
DimnDraft3D4
10
61.58
20
-16.952503
30
0
11
72.981425
21
-16.952503
31
0
70
32
71
5
72
1
41
1
210
0
220
0
230
1
3
Standard
100
AcDbAlignedDimension
13
63
23
-1.5875
33
0
14
61.58
24
-5.7375
34
0
50
0
100
AcDbRotatedDimension
1001
ACAD
1000
DSTYLE
1002
{
1070
   279
1070
     0
1070
   172
1070
     1
1070
   173
1070
     1
1070
   340
1005
E1
1070
   271
1070
     2
1070
   272
1070
     2
1070
    77
1070
     1
1070
    73
1070
     0
1070
   171
1070
     3
1070
   274
1070
     4
1070
   177
1070
    35
1070
   176
1070
    35
1070
   178
1070
    35
1070
    48
1040
-0.005
1070
    41
1041
3.5
1070
   147
1041
1.75
1070
    42
1041
1.5875
1070
    44
1041
2.0
1070
   140
1041
3.5
1070
   343
1005
0
1070
   344
1005
0
1002
}
0
DIMENSION
5
115
100
AcDbEntity
8
SK2
62
256
6
ByLayer
370
13
48
1
60
0
100
AcDbDimension
2
DimnDraft3D5
10
61.58
20
-23.343428
30
0
11
8.340676
21
-23.343428
31
0
70
32
71
5
72
1
41
1
210
0
220
0
230
1
3
Standard
100
AcDbAlignedDimension
13
-40
23
-6.5875
33
0
14
61.58
24
-5.7375
34
0
50
0
100
AcDbRotatedDimension
1001
ACAD
1000
DSTYLE
1002
{
1070
   279
1070
     0
1070
   172
1070
     1
1070
   173
1070
     1
1070
   340
1005
E1
1070
   271
1070
     2
1070
   272
1070
     2
1070
    77
1070
     1
1070
    73
1070
     0
1070
   171
1070
     3
1070
   274
1070
     4
1070
   177
1070
    35
1070
   176
1070
    35
1070
   178
1070
    35
1070
    48
1040
-0.005
1070
    41
1041
3.5
1070
   147
1041
1.75
1070
    42
1041
1.5875
1070
    44
1041
2.0
1070
   140
1041
3.5
1070
   343
1005
0
1070
   344
1005
0
1002
}
0
DIMENSION
5
120
100
AcDbEntity
8
SK2
62
256
6
ByLayer
370
13
48
1
60
0
100
AcDbDimension
2
DimnDraft3D6
10
-50.625163
20
5
30
0
11
-51.250163
21
23.47418
31
0
70
33
71
5
72
1
41
1
210
0
220
0
230
1
3
Standard
100
AcDbAlignedDimension
13
-41.5875
23
-5
33
0
14
-41.5875
24
5
34
0
1001
ACAD
1000
DSTYLE
1002
{
1070
   279
1070
     0
1070
    74
1070
     0
1070
   173
1070
     1
1070
   340
1005
E1
1070
   271
1070
     3
1070
   272
1070
     2
1070
    77
1070
     1
1070
    73
1070
     0
1070
   171
1070
     3
1070
   274
1070
     4
1070
   177
1070
    35
1070
   176
1070
    35
1070
   178
1070
    35
1070
    48
1040
-0.005
1070
    41
1041
3.5
1070
   147
1041
1.75
1070
    42
1041
1.5875
1070
    44
1041
2.0
1070
   140
1041
3.5
1070
   343
1005
0
1070
   344
1005
0
1002
}
0
DIMENSION
5
12B
100
AcDbEntity
8
2
62
256
6
ByLayer
370
13
48
1
60
0
100
AcDbDimension
2
DimnDraft3D7
10
77.083343
20
4.15
30
0
11
72.458343
21
21.217266
31
0
70
33
71
5
72
1
41
1
210
0
220
0
230
1
3
Standard
100
AcDbAlignedDimension
13
63.1675
23
-4.15
33
0
14
63.1675
24
4.15
34
0
1001
ACAD
1000
DSTYLE
1002
{
1070
   279
1070
     0
1070
    74
1070
     0
1070
   173
1070
     1
1070
   340
1005
E1
1070
   271
1070
     3
1070
   272
1070
     2
1070
    77
1070
     1
1070
    73
1070
     0
1070
   171
1070
     3
1070
   274
1070
     4
1070
   177
1070
    35
1070
   176
1070
    35
1070
   178
1070
    35
1070
    48
1040
-0.005
1070
    41
1041
3.5
1070
   147
1041
1.75
1070
    42
1041
1.5875
1070
    44
1041
2.0
1070
   140
1041
3.5
1070
   343
1005
0
1070
   344
1005
0
1002
}
0
ENDSEC
0
SECTION
2
OBJECTS
0
DICTIONARY
5
196
330
0
100
AcDbDictionary
280
0
281
1
3
ACAD_GROUP
350
197
3
ACAD_MLINESTYLE
350
198
0
DICTIONARY
5
197
330
0
100
AcDbDictionary
280
0
281
1
0
DICTIONARY
5
198
330
0
100
AcDbDictionary
280
0
281
1
3
Standard
350
18
0
MLINESTYLE
5
18
330
198
100
AcDbMlineStyle
2
Standard
70
0
3

62
256
51
90
52
90
71
2
49
-0.5
62
256
6
ByLayer
49
0.5
62
256
6
ByLayer
0
RASTERVARIABLES
5
184
330

100
AcDbRasterVariables
90
0
70
1
71
1
72
1
0
ENDSEC
0
EOF
