0
SECTION
2
HEADER
9
$ACADVER
1
AC1015
9
$DWGCODEPAGE
3
ANSI_1252
9
$HANDSEED
5
1b7
9
$ANGBASE
50
0
9
$ANGDIR
70
0
9
$ATTMODE
70
1
9
$AUNITS
70
0
9
$AUPREC
70
0
9
$CECOLOR
62
256
9
$CELTSCALE
40
1
9
$CELTYPE
6
ByLayer
9
$CELWEIGHT
370
18
9
$CLAYER
8
0
9
$CMLJUST
70
0
9
$CMLSCALE
40
1
9
$CMLSTYLE
2
Standard
9
$DIMSTYLE
2
Standard
9
$TEXTSIZE
40
0.2
9
$TEXTSTYLE
7
Standard
9
$LUNITS
70
2
9
$LUPREC
70
4
9
$EXTNAMES
290
1
9
$INSUNITS
70
4
9
$LTSCALE
40
1
9
$LWDISPLAY
290
1
9
$PDMODE
70
0
9
$PDSIZE
40
0
9
$PLINEGEN
70
0
0
ENDSEC
0
SECTION
2
CLASSES
0
CLASS
1
RASTERVARIABLES
2
AcDbRasterVariables
3
ISM
90
0
280
0
281
0
0
ENDSEC
0
SECTION
2
TABLES
0
TABLE
2
VPORT
5
1ad
100
AcDbSymbolTable
0
VPORT
5
1
100
AcDbSymbolTableRecord
100
AcDbViewportTableRecord
2
*Active
70
0
10
0
20
0
11
1
21
1
12
-1
22
1
13
0
23
0
14
0.5
24
0.5
15
10
25
10
16
0
26
0
36
1
17
0
27
0
37
0
0
ENDTAB
0
TABLE
2
LTYPE
5
1ae
100
AcDbSymbolTable
0
LTYPE
5
14
100
AcDbSymbolTableRecord
100
AcDbLinetypeTableRecord
70
0
2
ByBlock
3

72
65
73
0
40
0
0
LTYPE
5
15
100
AcDbSymbolTableRecord
100
AcDbLinetypeTableRecord
70
0
2
ByLayer
3

72
65
73
0
40
0
0
LTYPE
5
16
100
AcDbSymbolTableRecord
100
AcDbLinetypeTableRecord
70
0
2
CONTINUOUS
3
Solid line
72
65
73
0
40
0
0
LTYPE
5
6A
100
AcDbSymbolTableRecord
100
AcDbLinetypeTableRecord
70
0
2
CENTER
3
____ _ ____ _ ____ _ ____
72
65
73
4
40
47.5
49
22
74
0
49
-8.5
74
0
49
8.5
74
0
49
-8.5
74
0
0
LTYPE
5
6B
100
AcDbSymbolTableRecord
100
AcDbLinetypeTableRecord
70
0
2
DASHED
3
__ __ __ __ __ __ __ __ __
72
65
73
2
40
25.72
49
12.86
74
0
49
-12.86
74
0
0
ENDTAB
0
TABLE
2
LAYER
5
1af
100
AcDbSymbolTable
0
LAYER
5
10
100
AcDbSymbolTableRecord
100
AcDbLayerTableRecord
2
0
70
0
62
7
6
CONTINUOUS
290
1
370
-3
390
0
0
LAYER
5
6D
100
AcDbSymbolTableRecord
100
AcDbLayerTableRecord
2
81
70
0
62
-3
6
CONTINUOUS
290
1
370
-3
390
0
0
LAYER
5
6F
100
AcDbSymbolTableRecord
100
AcDbLayerTableRecord
2
80
70
0
62
-6
6
CONTINUOUS
290
1
370
-3
390
0
0
LAYER
5
74
100
AcDbSymbolTableRecord
100
AcDbLayerTableRecord
2
2
70
0
62
7
6
CONTINUOUS
290
1
370
-3
390
0
0
LAYER
5
78
100
AcDbSymbolTableRecord
100
AcDbLayerTableRecord
2
1
70
0
62
4
6
CONTINUOUS
290
1
370
-3
390
0
0
LAYER
5
88
100
AcDbSymbolTableRecord
100
AcDbLayerTableRecord
2
4
70
0
62
-2
6
CENTER
290
1
370
-3
390
0
0
LAYER
5
199
100
AcDbSymbolTableRecord
100
AcDbLayerTableRecord
2
SK2
70
0
62
7
6
CONTINUOUS
290
1
370
-3
390
0
0
LAYER
5
19a
100
AcDbSymbolTableRecord
100
AcDbLayerTableRecord
2
SK1
70
0
62
4
6
CONTINUOUS
290
1
370
-3
390
0
0
LAYER
5
19b
100
AcDbSymbolTableRecord
100
AcDbLayerTableRecord
2
SK4
70
0
62
2
6
CENTER
290
1
370
-3
390
0
0
LAYER
5
19c
100
AcDbSymbolTableRecord
100
AcDbLayerTableRecord
2
SK6
70
0
62
5
6
CONTINUOUS
290
1
370
-3
390
0
0
ENDTAB
0
TABLE
2
STYLE
5
1b0
100
AcDbSymbolTable
0
STYLE
5
11
100
AcDbSymbolTableRecord
100
AcDbTextStyleTableRecord
2
Standard
3
txt
70
0
71
0
40
0
41
1
42
0
50
0
0
STYLE
5
F5
100
AcDbSymbolTableRecord
100
AcDbTextStyleTableRecord
2
iso_b_vert
3
simplex.shx
70
0
71
0
40
0
41
1
42
0
50
0
0
STYLE
5
F6
100
AcDbSymbolTableRecord
100
AcDbTextStyleTableRecord
2
DWGDirectTextStyle
3
simplex
70
0
71
0
40
0
41
1
42
0
50
0
0
ENDTAB
0
TABLE
2
DIMSTYLE
5
1b1
100
AcDbSymbolTable
100
AcDbDimStyleTable
0
DIMSTYLE
105
27
100
AcDbSymbolTableRecord
100
AcDbDimStyleTableRecord
2
Standard
70
0
3
<>
41
0.18
42
0.0625
44
0.18
140
0.18
147
0.09
73
0
74
0
77
1
271
2
275
0
278
52
280
0
340
11
0
ENDTAB
0
TABLE
2
VIEW
5
1b2
100
AcDbSymbolTable
0
ENDTAB
0
TABLE
2
UCS
5
1b3
100
AcDbSymbolTable
0
ENDTAB
0
TABLE
2
APPID
5
1b4
100
AcDbSymbolTable
0
APPID
5
12
100
AcDbSymbolTableRecord
100
AcDbRegAppTableRecord
2
ACAD
70
0
0
ENDTAB
0
TABLE
2
BLOCK_RECORD
5
1b5
100
AcDbSymbolTable
0
BLOCK_RECORD
5
1F
100
AcDbSymbolTableRecord
100
AcDbBlockTableRecord
2
*Model_Space
340
0
70
0
0
BLOCK_RECORD
5
1B
100
AcDbSymbolTableRecord
100
AcDbBlockTableRecord
2
*Paper_Space
340
0
70
0
0
BLOCK_RECORD
5
23
100
AcDbSymbolTableRecord
100
AcDbBlockTableRecord
2
*Paper_Space0
340
0
70
0
0
BLOCK_RECORD
5
F8
100
AcDbSymbolTableRecord
100
AcDbBlockTableRecord
2
DimnDraft3D1
340
0
70
0
0
BLOCK_RECORD
5
102
100
AcDbSymbolTableRecord
100
AcDbBlockTableRecord
2
DimnDraft3D2
340
0
70
0
0
BLOCK_RECORD
5
10C
100
AcDbSymbolTableRecord
100
AcDbBlockTableRecord
2
DimnDraft3D3
340
0
70
0
0
BLOCK_RECORD
5
116
100
AcDbSymbolTableRecord
100
AcDbBlockTableRecord
2
DimnDraft3D4
340
0
70
0
0
BLOCK_RECORD
5
120
100
AcDbSymbolTableRecord
100
AcDbBlockTableRecord
2
DimnDraft3D5
340
0
70
0
0
BLOCK_RECORD
5
12A
100
AcDbSymbolTableRecord
100
AcDbBlockTableRecord
2
DimnDraft3D6
340
0
70
0
0
BLOCK_RECORD
5
135
100
AcDbSymbolTableRecord
100
AcDbBlockTableRecord
2
DimnDraft3D7
340
0
70
0
0
ENDTAB
0
ENDSEC
0
SECTION
2
BLOCKS
0
BLOCK
5
20
100
AcDbEntity
8
0
100
AcDbBlockBegin
2
*Model_Space
70
0
10
0
20
0
30
0
3
*Model_Space
0
ENDBLK
5
21
100
AcDbEntity
8
0
100
AcDbBlockEnd
0
BLOCK
5
1C
100
AcDbEntity
8
0
100
AcDbBlockBegin
2
*Paper_Space
70
0
10
0
20
0
30
0
3
*Paper_Space
0
ENDBLK
5
1D
100
AcDbEntity
8
0
100
AcDbBlockEnd
0
BLOCK
5
24
100
AcDbEntity
8
0
100
AcDbBlockBegin
2
*Paper_Space0
70
0
10
0
20
0
30
0
3
*Paper_Space0
0
ENDBLK
5
25
100
AcDbEntity
8
0
100
AcDbBlockEnd
0
BLOCK
5
FF
100
AcDbEntity
8
0
100
AcDbBlockBegin
2
DimnDraft3D1
70
0
10
0
20
0
30
0
3
DimnDraft3D1
0
MTEXT
5
F9
100
AcDbEntity
8
SK2
62
256
6
ByLayer
370
13
48
1
60
0
100
AcDbMText
10
25.358875
20
-13.388398
30
0
210
0
220
0
230
1
1
\W0.6713;61,62
40
3.5
41
0
44
1.084337
50
0
71
7
72
5
7
iso_b_vert
0
LINE
5
FA
100
AcDbEntity
8
SK2
62
256
6
ByLayer
370
13
48
1
60
0
100
AcDbLine
10
0
20
-1.5875
30
0
11
0
21
-16.263398
31
0
39
0
210
0
220
0
230
1
0
LINE
5
FB
100
AcDbEntity
8
SK2
62
256
6
ByLayer
370
13
48
1
60
0
100
AcDbLine
10
61.62
20
-5.6375
30
0
11
61.62
21
-16.263398
31
0
39
0
210
0
220
0
230
1
0
LINE
5
FC
100
AcDbEntity
8
SK2
62
256
6
ByLayer
370
13
48
1
60
0
100
AcDbLine
10
0
20
-14.263398
30
0
11
61.62
21
-14.263398
31
0
39
0
210
0
220
0
230
1
0
SOLID
5
FD
100
AcDbEntity
8
SK2
62
256
6
ByLayer
370
13
48
1
60
0
100
AcDbTrace
10
0
20
-14.263398
30
0
11
3.499998
21
-13.802615
31
0
12
3.500002
22
-14.724182
32
0
13
0
23
-14.263398
33
0
39
0
210
0
220
0
230
1
0
SOLID
5
FE
100
AcDbEntity
8
SK2
62
256
6
ByLayer
370
13
48
1
60
0
100
AcDbTrace
10
61.62
20
-14.263398
30
0
11
58.120002
21
-14.724182
31
0
12
58.119998
22
-13.802615
32
0
13
61.62
23
-14.263398
33
0
39
0
210
0
220
0
230
1
0
ENDBLK
5
100
100
AcDbEntity
8
0
100
AcDbBlockEnd
0
BLOCK
5
109
100
AcDbEntity
8
0
100
AcDbBlockBegin
2
DimnDraft3D2
70
0
10
0
20
0
30
0
3
DimnDraft3D2
0
MTEXT
5
103
100
AcDbEntity
8
SK2
62
256
6
ByLayer
370
13
48
1
60
0
100
AcDbMText
10
6.142221
20
-32.817985
30
0
210
0
220
0
230
1
1
\W0.6930;103,00
40
3.5
41
0
44
1.084337
50
0
71
7
72
5
7
iso_b_vert
0
LINE
5
104
100
AcDbEntity
8
SK2
62
256
6
ByLayer
370
13
48
1
60
0
100
AcDbLine
10
-40
20
-6.5875
30
0
11
-40
21
-35.692985
31
0
39
0
210
0
220
0
230
1
0
LINE
5
105
100
AcDbEntity
8
SK2
62
256
6
ByLayer
370
13
48
1
60
0
100
AcDbLine
10
63
20
-1.5875
30
0
11
63
21
-35.692985
31
0
39
0
210
0
220
0
230
1
0
LINE
5
106
100
AcDbEntity
8
SK2
62
256
6
ByLayer
370
13
48
1
60
0
100
AcDbLine
10
-40
20
-33.692985
30
0
11
63
21
-33.692985
31
0
39
0
210
0
220
0
230
1
0
SOLID
5
107
100
AcDbEntity
8
SK2
62
256
6
ByLayer
370
13
48
1
60
0
100
AcDbTrace
10
-40
20
-33.692985
30
0
11
-36.500002
21
-33.232202
31
0
12
-36.499998
22
-34.153769
32
0
13
-40
23
-33.692985
33
0
39
0
210
0
220
0
230
1
0
SOLID
5
108
100
AcDbEntity
8
SK2
62
256
6
ByLayer
370
13
48
1
60
0
100
AcDbTrace
10
63
20
-33.692985
30
0
11
59.500002
21
-34.153769
31
0
12
59.499998
22
-33.232202
32
0
13
63
23
-33.692985
33
0
39
0
210
0
220
0
230
1
0
ENDBLK
5
10A
100
AcDbEntity
8
0
100
AcDbBlockEnd
0
BLOCK
5
113
100
AcDbEntity
8
0
100
AcDbBlockBegin
2
DimnDraft3D3
70
0
10
0
20
0
30
0
3
DimnDraft3D3
0
MTEXT
5
10D
100
AcDbEntity
8
SK2
62
256
6
ByLayer
370
13
48
1
60
0
100
AcDbMText
10
37.864605
20
16.534119
30
0
210
0
220
0
230
1
1
\W0.6977;41,88
40
3.5
41
0
44
1.084337
50
0
71
7
72
5
7
iso_b_vert
0
LINE
5
10E
100
AcDbEntity
8
SK2
62
256
6
ByLayer
370
13
48
1
60
0
100
AcDbLine
10
21.12
20
5.6375
30
0
11
21.12
21
17.659119
31
0
39
0
210
0
220
0
230
1
0
LINE
5
10F
100
AcDbEntity
8
SK2
62
256
6
ByLayer
370
13
48
1
60
0
100
AcDbLine
10
63
20
1.5875
30
0
11
63
21
17.659119
31
0
39
0
210
0
220
0
230
1
0
LINE
5
110
100
AcDbEntity
8
SK2
62
256
6
ByLayer
370
13
48
1
60
0
100
AcDbLine
10
21.12
20
15.659119
30
0
11
63
21
15.659119
31
0
39
0
210
0
220
0
230
1
0
SOLID
5
111
100
AcDbEntity
8
SK2
62
256
6
ByLayer
370
13
48
1
60
0
100
AcDbTrace
10
21.12
20
15.659119
30
0
11
24.619998
21
16.119903
31
0
12
24.620002
22
15.198335
32
0
13
21.12
23
15.659119
33
0
39
0
210
0
220
0
230
1
0
SOLID
5
112
100
AcDbEntity
8
SK2
62
256
6
ByLayer
370
13
48
1
60
0
100
AcDbTrace
10
63
20
15.659119
30
0
11
59.500002
21
15.198335
31
0
12
59.499998
22
16.119903
32
0
13
63
23
15.659119
33
0
39
0
210
0
220
0
230
1
0
ENDBLK
5
114
100
AcDbEntity
8
0
100
AcDbBlockEnd
0
BLOCK
5
11D
100
AcDbEntity
8
0
100
AcDbBlockBegin
2
DimnDraft3D4
70
0
10
0
20
0
30
0
3
DimnDraft3D4
0
MTEXT
5
117
100
AcDbEntity
8
SK2
62
256
6
ByLayer
370
13
48
1
60
0
100
AcDbMText
10
70.278136
20
-15.977503
30
0
210
0
220
0
230
1
1
\W0.6367;1,38
40
3.5
41
0
44
1.084337
50
0
71
7
72
5
7
iso_b_vert
0
LINE
5
118
100
AcDbEntity
8
SK2
62
256
6
ByLayer
370
13
48
1
60
0
100
AcDbLine
10
63
20
-1.5875
30
0
11
63
21
-18.852503
31
0
39
0
210
0
220
0
230
1
0
LINE
5
119
100
AcDbEntity
8
SK2
62
256
6
ByLayer
370
13
48
1
60
0
100
AcDbLine
10
61.62
20
-5.6375
30
0
11
61.62
21
-18.852503
31
0
39
0
210
0
220
0
230
1
0
LINE
5
11A
100
AcDbEntity
8
SK2
62
256
6
ByLayer
370
13
48
1
60
0
100
AcDbLine
10
52.87
20
-16.852503
30
0
11
76.559715
21
-16.852503
31
0
39
0
210
0
220
0
230
1
0
SOLID
5
11B
100
AcDbEntity
8
SK2
62
256
6
ByLayer
370
13
48
1
60
0
100
AcDbTrace
10
63
20
-16.852503
30
0
11
66.499998
21
-16.391719
31
0
12
66.500002
22
-17.313287
32
0
13
63
23
-16.852503
33
0
39
0
210
0
220
0
230
1
0
SOLID
5
11C
100
AcDbEntity
8
SK2
62
256
6
ByLayer
370
13
48
1
60
0
100
AcDbTrace
10
61.62
20
-16.852503
30
0
11
58.120002
21
-17.313287
31
0
12
58.119998
22
-16.391719
32
0
13
61.62
23
-16.852503
33
0
39
0
210
0
220
0
230
1
0
ENDBLK
5
11E
100
AcDbEntity
8
0
100
AcDbBlockEnd
0
BLOCK
5
127
100
AcDbEntity
8
0
100
AcDbBlockBegin
2
DimnDraft3D5
70
0
10
0
20
0
30
0
3
DimnDraft3D5
0
MTEXT
5
121
100
AcDbEntity
8
SK2
62
256
6
ByLayer
370
13
48
1
60
0
100
AcDbMText
10
3.499097
20
-22.468428
30
0
210
0
220
0
230
1
1
\W0.6440;101,62
40
3.5
41
0
44
1.084337
50
0
71
7
72
5
7
iso_b_vert
0
LINE
5
122
100
AcDbEntity
8
SK2
62
256
6
ByLayer
370
13
48
1
60
0
100
AcDbLine
10
-40
20
-6.5875
30
0
11
-40
21
-25.343428
31
0
39
0
210
0
220
0
230
1
0
LINE
5
123
100
AcDbEntity
8
SK2
62
256
6
ByLayer
370
13
48
1
60
0
100
AcDbLine
10
61.62
20
-5.6375
30
0
11
61.62
21
-25.343428
31
0
39
0
210
0
220
0
230
1
0
LINE
5
124
100
AcDbEntity
8
SK2
62
256
6
ByLayer
370
13
48
1
60
0
100
AcDbLine
10
-40
20
-23.343428
30
0
11
61.62
21
-23.343428
31
0
39
0
210
0
220
0
230
1
0
SOLID
5
125
100
AcDbEntity
8
SK2
62
256
6
ByLayer
370
13
48
1
60
0
100
AcDbTrace
10
-40
20
-23.343428
30
0
11
-36.500002
21
-22.882645
31
0
12
-36.499998
22
-23.804212
32
0
13
-40
23
-23.343428
33
0
39
0
210
0
220
0
230
1
0
SOLID
5
126
100
AcDbEntity
8
SK2
62
256
6
ByLayer
370
13
48
1
60
0
100
AcDbTrace
10
61.62
20
-23.343428
30
0
11
58.120002
21
-23.804212
31
0
12
58.119998
22
-22.882645
32
0
13
61.62
23
-23.343428
33
0
39
0
210
0
220
0
230
1
0
ENDBLK
5
128
100
AcDbEntity
8
0
100
AcDbBlockEnd
0
BLOCK
5
132
100
AcDbEntity
8
0
100
AcDbBlockBegin
2
DimnDraft3D6
70
0
10
0
20
0
30
0
3
DimnDraft3D6
0
MTEXT
5
12B
100
AcDbEntity
8
SK2
62
256
6
ByLayer
370
13
48
1
60
0
100
AcDbMText
10
-50.375163
20
24.34918
30
0
210
0
220
0
230
1
1
\W0.6930;10,000
40
3.5
41
0
44
1.084337
50
90
71
7
72
5
7
iso_b_vert
0
MTEXT
5
12C
100
AcDbEntity
8
SK2
62
256
6
ByLayer
370
13
48
1
60
0
100
AcDbMText
10
-50.375163
20
19.126524
30
0
210
0
220
0
230
1
1
%%c
40
3.5
41
0
44
1.084337
50
90
71
7
72
5
7
iso_b_vert
0
LINE
5
12D
100
AcDbEntity
8
SK2
62
256
6
ByLayer
370
13
48
1
60
0
100
AcDbLine
10
-41.5875
20
-5
30
0
11
-50.625163
21
-5
31
0
39
0
210
0
220
0
230
1
0
LINE
5
12E
100
AcDbEntity
8
SK2
62
256
6
ByLayer
370
13
48
1
60
0
100
AcDbLine
10
-41.5875
20
5
30
0
11
-50.625163
21
5
31
0
39
0
210
0
220
0
230
1
0
LINE
5
12F
100
AcDbEntity
8
SK2
62
256
6
ByLayer
370
13
48
1
60
0
100
AcDbLine
10
-48.625163
20
-5
30
0
11
-48.625163
21
35.862338
31
0
39
0
210
0
220
0
230
1
0
SOLID
5
130
100
AcDbEntity
8
SK2
62
256
6
ByLayer
370
13
48
1
60
0
100
AcDbTrace
10
-48.625163
20
-5
30
0
11
-49.085946
21
-1.500002
31
0
12
-48.164379
22
-1.499998
32
0
13
-48.625163
23
-5
33
0
39
0
210
0
220
0
230
1
0
SOLID
5
131
100
AcDbEntity
8
SK2
62
256
6
ByLayer
370
13
48
1
60
0
100
AcDbTrace
10
-48.625163
20
5
30
0
11
-48.164379
21
1.500002
31
0
12
-49.085946
22
1.499998
32
0
13
-48.625163
23
5
33
0
39
0
210
0
220
0
230
1
0
ENDBLK
5
133
100
AcDbEntity
8
0
100
AcDbBlockEnd
0
BLOCK
5
13D
100
AcDbEntity
8
0
100
AcDbBlockBegin
2
DimnDraft3D7
70
0
10
0
20
0
30
0
3
DimnDraft3D7
0
MTEXT
5
136
100
AcDbEntity
8
2
62
256
6
ByLayer
370
13
48
1
60
0
100
AcDbMText
10
73.333343
20
21.992266
30
0
210
0
220
0
230
1
1
\W0.6713;8,100
40
3.5
41
0
44
1.084337
50
90
71
7
72
5
7
iso_b_vert
0
MTEXT
5
137
100
AcDbEntity
8
2
62
256
6
ByLayer
370
13
48
1
60
0
100
AcDbMText
10
73.333343
20
16.76961
30
0
210
0
220
0
230
1
1
%%c
40
3.5
41
0
44
1.084337
50
90
71
7
72
5
7
iso_b_vert
0
LINE
5
138
100
AcDbEntity
8
2
62
256
6
ByLayer
370
13
48
1
60
0
100
AcDbLine
10
63.2075
20
-4.05
30
0
11
77.083343
21
-4.05
31
0
39
0
210
0
220
0
230
1
0
LINE
5
139
100
AcDbEntity
8
2
62
256
6
ByLayer
370
13
48
1
60
0
100
AcDbLine
10
63.2075
20
4.05
30
0
11
77.083343
21
4.05
31
0
39
0
210
0
220
0
230
1
0
LINE
5
13A
100
AcDbEntity
8
2
62
256
6
ByLayer
370
13
48
1
60
0
100
AcDbLine
10
75.083343
20
-4.05
30
0
11
75.083343
21
30.889635
31
0
39
0
210
0
220
0
230
1
0
SOLID
5
13B
100
AcDbEntity
8
2
62
256
6
ByLayer
370
13
48
1
60
0
100
AcDbTrace
10
75.083343
20
-4.05
30
0
11
74.622559
21
-0.550002
31
0
12
75.544126
22
-0.549998
32
0
13
75.083343
23
-4.05
33
0
39
0
210
0
220
0
230
1
0
SOLID
5
13C
100
AcDbEntity
8
2
62
256
6
ByLayer
370
13
48
1
60
0
100
AcDbTrace
10
75.083343
20
4.05
30
0
11
75.544126
21
0.550002
31
0
12
74.622559
22
0.549998
32
0
13
75.083343
23
4.05
33
0
39
0
210
0
220
0
230
1
0
ENDBLK
5
13E
100
AcDbEntity
8
0
100
AcDbBlockEnd
0
ENDSEC
0
SECTION
2
ENTITIES
0
ARC
5
A1
100
AcDbEntity
8
1
62
256
6
ByLayer
370
18
48
1
60
0
100
AcDbCircle
39
0
10
0
20
4.2
30
0
40
0.799999999999996
210
0
220
0
230
1
100
AcDbArc
50
22.561694
51
90
0
ARC
5
A2
100
AcDbEntity
8
1
62
256
6
ByLayer
370
18
48
1
60
0
100
AcDbCircle
39
0
10
0
20
-4.2
30
0
40
0.799999999999996
210
0
220
0
230
1
100
AcDbArc
50
270
51
337.438306
0
ARC
5
A3
100
AcDbEntity
8
1
62
256
6
ByLayer
370
18
48
1
60
0
100
AcDbCircle
39
0
10
-1.477547
20
4.813885
30
0
40
0.800000000000003
210
0
220
0
230
-1
100
AcDbArc
50
269.965623
51
337.438306
0
ARC
5
A4
100
AcDbEntity
8
1
62
256
6
ByLayer
370
18
48
1
60
0
100
AcDbCircle
39
0
10
-1.477547
20
-4.813885
30
0
40
0.800000000000003
210
0
220
0
230
-1
100
AcDbArc
50
22.561694
51
90.034377
0
ELLIPSE
5
A5
100
AcDbEntity
8
1
62
256
6
ByLayer
370
13
48
1
60
0
100
AcDbEllipse
10
4.183369
20
-2.664734
30
0
11
0.00221430321777994
21
0.0999754813004655
31
0
210
0
220
0
230
1
40
0.569516
41
0.932870641230628
42
2.28646279676639
0
ELLIPSE
5
A6
100
AcDbEntity
8
1
62
256
6
ByLayer
370
18
48
1
60
0
100
AcDbEllipse
10
63.03562
20
-0.015568
30
0
11
0.140634104980259
21
0.43100009271247
31
0
210
0
220
0
230
-1
40
0.07518
41
-2.31001430908342
42
-1.65100512483609
0
ELLIPSE
5
A7
100
AcDbEntity
8
1
62
256
6
ByLayer
370
18
48
1
60
0
100
AcDbEllipse
10
62.218212
20
-2.002282
30
0
11
0.625607860561593
21
1.69988032397376
31
0
210
0
220
0
230
-1
40
0.098637
41
0.749112684717676
42
1.53557544159042
0
ELLIPSE
5
A8
100
AcDbEntity
8
1
62
256
6
ByLayer
370
13
48
1
60
0
100
AcDbEllipse
10
4.250212
20
-2.678163
30
0
11
0.0340542375581733
21
0.0940229169103549
31
0
210
0
220
0
230
1
40
0.301071
41
0.874110039729544
42
2.42500581686302
0
ELLIPSE
5
A9
100
AcDbEntity
8
1
62
256
6
ByLayer
370
18
48
1
60
0
100
AcDbEllipse
10
63.000352
20
-0.000885
30
0
11
1.48983613726402
21
-4.04813187862145
31
0
210
0
220
0
230
-1
40
0.098637
41
-2.97447258751361
42
-2.87340324184536
0
ELLIPSE
5
AA
100
AcDbEntity
8
1
62
256
6
ByLayer
370
18
48
1
60
0
100
AcDbEllipse
10
63.03562
20
0.015568
30
0
11
0.140634104965208
21
-0.431000092673488
31
0
210
0
220
0
230
-1
40
0.07518
41
1.65100512477032
42
2.31001430906925
0
ELLIPSE
5
AB
100
AcDbEntity
8
1
62
256
6
ByLayer
370
18
48
1
60
0
100
AcDbEllipse
10
62.218212
20
2.002282
30
0
11
0.62560786055698
21
-1.69988032396367
31
0
210
0
220
0
230
-1
40
0.098637
41
-1.53557544159563
42
-0.749112684719019
0
ELLIPSE
5
AC
100
AcDbEntity
8
1
62
256
6
ByLayer
370
13
48
1
60
0
100
AcDbEllipse
10
62.430923
20
1.879084
30
0
11
2.29685699483696
21
-1.58145135524109
31
0
210
0
220
0
230
-1
40
0.533762
41
1.44484622739152
42
1.73168255863695
0
ELLIPSE
5
AD
100
AcDbEntity
8
1
62
256
6
ByLayer
370
18
48
1
60
0
100
AcDbEllipse
10
62.860265
20
0.119612
30
0
11
0.0727819104914349
21
0.301917195722085
31
0
210
0
220
0
230
-1
40
0.478434
41
1.72250698251613
42
2.45976119973537
0
ELLIPSE
5
AE
100
AcDbEntity
8
1
62
256
6
ByLayer
370
13
48
1
60
0
100
AcDbEllipse
10
62.62083
20
2.002282
30
0
11
2.36989705763018
21
-1.2331249697987
31
0
210
0
220
0
230
-1
40
0.494396
41
1.54524547400402
42
1.86914538680378
0
ELLIPSE
5
AF
100
AcDbEntity
8
1
62
256
6
ByLayer
370
13
48
1
60
0
100
AcDbEllipse
10
62.071924
20
0.587361
30
0
11
0.153082081612423
21
0.258003636193771
31
0
210
0
220
0
230
1
40
0.454519
41
0.917105603404912
42
2.31336900500018
0
ELLIPSE
5
B0
100
AcDbEntity
8
1
62
256
6
ByLayer
370
18
48
1
60
0
100
AcDbEllipse
10
63.000352
20
0.000885
30
0
11
1.48983614648583
21
4.04813190545396
31
0
210
0
220
0
230
-1
40
0.098637
41
2.87340324273981
42
2.97447258806706
0
ELLIPSE
5
B1
100
AcDbEntity
8
SK1
62
256
6
ByLayer
370
18
48
1
60
0
100
AcDbEllipse
10
-29.337425
20
0
30
0
11
4.00831715927086
21
-4.53527403456112
31
0
210
0
220
0
230
-1
40
0.525174
41
2.07715842522618
42
3.13371528102883
0
ELLIPSE
5
B2
100
AcDbEntity
8
SK1
62
256
6
ByLayer
370
18
48
1
60
0
100
AcDbEllipse
10
-17.361844
20
0
30
0
11
4.86348596605107
21
4.29839390145712
31
0
210
0
220
0
230
-1
40
0.525174
41
-0.325533364174387
42
1.19465606325553
0
ELLIPSE
5
B3
100
AcDbEntity
8
SK1
62
256
6
ByLayer
370
18
48
1
60
0
100
AcDbEllipse
10
80.226886
20
0
30
0
11
143.181243261314
21
-2.8258848501867
31
0
210
0
220
0
230
-1
40
0.028809
41
-2.47811005599013
42
-2.29277195481332
0
ELLIPSE
5
B4
100
AcDbEntity
8
SK1
62
256
6
ByLayer
370
18
48
1
60
0
100
AcDbEllipse
10
80.226886
20
0
30
0
11
143.181243263285
21
-2.82588485054206
31
0
210
0
220
0
230
-1
40
0.028809
41
2.29163479855053
42
2.47697289972565
0
POINT
5
6C
100
AcDbEntity
8
81
62
256
6
ByLayer
370
18
48
1
60
0
100
AcDbPoint
10
63
20
0
30
0
39
0
210
0
220
0
230
1
50
360
0
POINT
5
6E
100
AcDbEntity
8
80
62
256
6
ByLayer
370
18
48
1
60
0
100
AcDbPoint
10
0
20
0
30
0
39
0
210
0
220
0
230
1
50
360
0
POINT
5
70
100
AcDbEntity
8
SK2
62
256
6
ByLayer
370
18
48
1
60
1
100
AcDbPoint
10
-40
20
-5
30
0
39
0
210
0
220
0
230
1
50
360
0
POINT
5
72
100
AcDbEntity
8
SK2
62
256
6
ByLayer
370
18
48
1
60
1
100
AcDbPoint
10
-40
20
5
30
0
39
0
210
0
220
0
230
1
50
360
0
POINT
5
73
100
AcDbEntity
8
2
62
256
6
ByLayer
370
18
48
1
60
1
100
AcDbPoint
10
61.62
20
-4.05
30
0
39
0
210
0
220
0
230
1
50
360
0
POINT
5
75
100
AcDbEntity
8
2
62
256
6
ByLayer
370
18
48
1
60
1
100
AcDbPoint
10
61.62
20
4.05
30
0
39
0
210
0
220
0
230
1
50
360
0
SPLINE
5
B5
100
AcDbEntity
8
1
62
256
6
ByLayer
370
18
48
1
60
0
100
AcDbSpline
70
4
71
1
72
4
73
2
40
0
40
0
40
1
40
1
41
1
10
48.0562767588337
20
-0.000148432007478
30
0
41
1
10
48.056266416731
20
-0.0001457077748341
30
0
0
SPLINE
5
B6
100
AcDbEntity
8
1
62
256
6
ByLayer
370
18
48
1
60
0
100
AcDbSpline
70
4
71
3
72
12
73
8
40
0
40
0
40
0
40
0
40
0.147602168612694
40
0.319243913219537
40
0.529224866224943
40
0.703442588436488
40
1
40
1
40
1
40
1
41
1
10
24.5261423677995
20
-1.12515461325563
30
0
41
1
10
24.5283629616694
20
-1.12615420808339
30
0
41
1
10
24.5608181620216
20
-1.13890888156845
30
0
41
1
10
24.6406297548132
20
-1.17241695253435
30
0
41
1
10
24.7364354871378
20
-1.21396257488865
30
0
41
1
10
24.8514895314022
20
-1.26547890022806
30
0
41
1
10
24.9343414268145
20
-1.30467416000397
30
0
41
1
10
24.9872772793433
20
-1.33045596826875
30
0
0
SPLINE
5
B7
100
AcDbEntity
8
1
62
256
6
ByLayer
370
18
48
1
60
0
100
AcDbSpline
70
4
71
3
72
29
73
25
40
0
40
0
40
0
40
0
40
0.029554518505457
40
0.061094819900439
40
0.107358242232711
40
0.161648314495013
40
0.213738814884897
40
0.255527300767783
40
0.287485205716243
40
0.318801375184988
40
0.364147112599646
40
0.418365992641444
40
0.460092316296495
40
0.503166445675388
40
0.568492863314745
40
0.636403551036577
40
0.698595676010586
40
0.758077631867622
40
0.816974713398259
40
0.855138482867103
40
0.888573540598982
40
0.932064928792731
40
0.983746615829009
40
1
40
1
40
1
40
1
41
1
10
35.7170699467615
20
-3.84755987961577
30
0
41
1
10
35.819011168277
20
-3.84662171799928
30
0
41
1
10
36.0390314798441
20
-3.84431813505293
30
0
41
1
10
36.4701039428973
20
-3.83518140992143
30
0
41
1
10
37.0208777132859
20
-3.83329599935064
30
0
41
1
10
37.6418352962052
20
-3.84381704576188
30
0
41
1
10
38.238607981126
20
-3.84855080681311
30
0
41
1
10
38.75322759515
20
-3.84916708673276
30
0
41
1
10
39.1873676852183
20
-3.84979631846159
30
0
41
1
10
39.6358204039198
20
-3.8500579624407
30
0
41
1
10
40.1763148418553
20
-3.84954529357
30
0
41
1
10
40.7597535933477
20
-3.85041205565307
30
0
41
1
10
41.3338221177398
20
-3.85096307265229
30
0
41
1
10
41.9537591067482
20
-3.85040640852142
30
0
41
1
10
42.6818235511417
20
-3.85215965227985
30
0
41
1
10
43.4888243983259
20
-3.85114242875105
30
0
41
1
10
44.2717294359062
20
-3.85228150068747
30
0
41
1
10
45.0172772577029
20
-3.85256620163401
30
0
41
1
10
45.6640438443258
20
-3.85219122049833
30
0
41
1
10
46.2020745937825
20
-3.85389365639276
30
0
41
1
10
46.6796407880096
20
-3.85418886342572
30
0
41
1
10
47.1988477261114
20
-3.8526326609452
30
0
41
1
10
47.663196113146
20
-3.85048281385269
30
0
41
1
10
47.9382887175598
20
-3.85159022693409
30
0
41
1
10
48.003999901034
20
-3.85192515822595
30
0
0
SPLINE
5
B8
100
AcDbEntity
8
1
62
256
6
ByLayer
370
18
48
1
60
0
100
AcDbSpline
70
4
71
3
72
23
73
19
40
0
40
0
40
0
40
0
40
0.0027006690685807
40
0.0436692054512058
40
0.0873420361873044
40
0.13490474926863
40
0.23832373950177
40
0.318974196942236
40
0.379799806543855
40
0.459963322890099
40
0.533817876670769
40
0.612204727240455
40
0.697287196220341
40
0.771323817850498
40
0.837962776345665
40
0.920049846003285
40
0.966762919727677
40
1
40
1
40
1
40
1
41
1
10
23.1700641803585
20
3.83731474480504
30
0
41
1
10
23.1618884102776
20
3.8371960911407
30
0
41
1
10
23.0291907752055
20
3.83524742963812
30
0
41
1
10
22.7328931945321
20
3.82672927367034
30
0
41
1
10
22.2835318248365
20
3.82239355703885
30
0
41
1
10
21.6124051255601
20
3.82706963964171
30
0
41
1
10
20.8424084899336
20
3.83791214018373
30
0
41
1
10
20.0116936001525
20
3.84128528079859
30
0
41
1
10
19.250194336838
20
3.83765832917689
30
0
41
1
10
18.5139042591987
20
3.83941278485602
30
0
41
1
10
17.7168257193521
20
3.83775637068447
30
0
41
1
10
16.90302138693
20
3.83745214315795
30
0
41
1
10
16.0885986122642
20
3.83694244944368
30
0
41
1
10
15.3144347036116
20
3.83607491128916
30
0
41
1
10
14.5505621851635
20
3.83554535714595
30
0
41
1
10
13.8803456312941
20
3.83493522462925
30
0
41
1
10
13.3247593082116
20
3.83476691999388
30
0
41
1
10
13.0504792262413
20
3.83452853439419
30
0
41
1
10
12.9365355754768
20
3.83441756464669
30
0
0
SPLINE
5
B9
100
AcDbEntity
8
1
62
256
6
ByLayer
370
18
48
1
60
0
100
AcDbSpline
70
4
71
3
72
14
73
10
40
0
40
0
40
0
40
0
40
0.0673491745370959
40
0.163689365799192
40
0.297441802839947
40
0.481651036719823
40
0.62399763530348
40
0.748244556000158
40
1
40
1
40
1
40
1
41
1
10
49.48931692953
20
-1.11290987286915
30
0
41
1
10
49.4892102102347
20
-1.11280583204311
30
0
41
1
10
49.4954929267878
20
-1.11480139206529
30
0
41
1
10
49.5398795730412
20
-1.13086778536342
30
0
41
1
10
49.5896053464398
20
-1.15021218039516
30
0
41
1
10
49.6151099042173
20
-1.15997643672142
30
0
41
1
10
49.6728664467612
20
-1.18534889396312
30
0
41
1
10
49.8222249158102
20
-1.2530528934829
30
0
41
1
10
49.9438903156595
20
-1.31075847789461
30
0
41
1
10
50.0392908447636
20
-1.3566807901507
30
0
0
SPLINE
5
BA
100
AcDbEntity
8
1
62
256
6
ByLayer
370
18
48
1
60
0
100
AcDbSpline
70
4
71
3
72
10
73
6
40
0
40
0
40
0
40
0
40
0.0035202941363777
40
0.3307884301212
40
1
40
1
40
1
40
1
41
1
10
34.5061664155144
20
0.386880307813158
30
0
41
1
10
34.5061765514937
20
0.386875070615588
30
0
41
1
10
34.5070238233028
20
0.386429991846882
30
0
41
1
10
34.4795980699794
20
0.39851271453324
30
0
41
1
10
34.4613795061299
20
0.407245316915606
30
0
41
1
10
34.4422003827755
20
0.416481589706706
30
0
0
SPLINE
5
BB
100
AcDbEntity
8
1
62
256
6
ByLayer
370
18
48
1
60
0
100
AcDbSpline
70
4
71
3
72
28
73
24
40
0
40
0
40
0
40
0
40
0.0469090161578049
40
0.0867704637911976
40
0.121873965534584
40
0.15192267204741
40
0.187590366433387
40
0.235180866257781
40
0.285263348793117
40
0.370412177906348
40
0.438869008783935
40
0.511104654054834
40
0.554207743451966
40
0.590663917458216
40
0.638551764999441
40
0.686903708292449
40
0.720920187095318
40
0.751003746764898
40
0.787677169895937
40
0.833450852223743
40
0.892375747838197
40
0.964817032353876
40
1
40
1
40
1
40
1
41
1
10
10.7137684518581
20
-3.8325618604774
30
0
41
1
10
10.8968026816152
20
-3.83118748784645
30
0
41
1
10
11.2382750582861
20
-3.82973877830219
30
0
41
1
10
11.7368398271057
20
-3.83272316741829
30
0
41
1
10
12.1535633995644
20
-3.83388027866849
30
0
41
1
10
12.5651895469545
20
-3.83398784206938
30
0
41
1
10
13.0257392940043
20
-3.83453306633285
30
0
41
1
10
13.5684198687624
20
-3.83488465194552
30
0
41
1
10
14.3122066200125
20
-3.83513811462387
30
0
41
1
10
15.1409253313087
20
-3.83601618808319
30
0
41
1
10
16.0597360531374
20
-3.83681425135396
30
0
41
1
10
16.807560519421
20
-3.83762359261868
30
0
41
1
10
17.4251030531207
20
-3.83719911641756
30
0
41
1
10
17.9438052968545
20
-3.83871284947685
30
0
41
1
10
18.4828640148058
20
-3.83899665985035
30
0
41
1
10
19.0137323876784
20
-3.83790447872087
30
0
41
1
10
19.4689351455996
20
-3.83879485451158
30
0
41
1
10
19.8799977004647
20
-3.84049550321009
30
0
41
1
10
20.3348434268997
20
-3.83981052158205
30
0
41
1
10
20.9073466870533
20
-3.83729588913232
30
0
41
1
10
21.6292131410421
20
-3.84059012002234
30
0
41
1
10
22.3059652138466
20
-3.83959698344393
30
0
41
1
10
22.7430443026414
20
-3.84067707589605
30
0
41
1
10
22.8858681140911
20
-3.84104704354706
30
0
0
SPLINE
5
BC
100
AcDbEntity
8
1
62
256
6
ByLayer
370
18
48
1
60
0
100
AcDbSpline
70
4
71
3
72
26
73
22
40
0
40
0
40
0
40
0
40
0.0145241884188199
40
0.0728231313108066
40
0.124163054883038
40
0.164084136218218
40
0.202391977535916
40
0.250090196913738
40
0.302466704679453
40
0.374041158654323
40
0.449205516972969
40
0.531127687031294
40
0.60963605823513
40
0.664176895651462
40
0.718338944604647
40
0.787320699644899
40
0.842988359377028
40
0.888655398492462
40
0.933541123775117
40
0.991427066151632
40
1
40
1
40
1
40
1
41
1
10
48.0115538705742
20
3.85197069107662
30
0
41
1
10
47.9637588968005
20
3.8517534387378
30
0
41
1
10
47.7237333183235
20
3.85086016416375
30
0
41
1
10
47.2977283388054
20
3.85148471939831
30
0
41
1
10
46.8091217675734
20
3.85420672426207
30
0
41
1
10
46.3707349121273
20
3.85401148490701
30
0
41
1
10
45.9470745730425
20
3.85315816716812
30
0
41
1
10
45.4805973167006
20
3.85210411906047
30
0
41
1
10
44.9022838418556
20
3.85267755884487
30
0
41
1
10
44.2313268445063
20
3.85210892687866
30
0
41
1
10
43.4608461729428
20
3.85122206683815
30
0
41
1
10
42.6669897989304
20
3.85211037263181
30
0
41
1
10
41.942631662981
20
3.85039332499582
30
0
41
1
10
41.3118065708318
20
3.85100225976313
30
0
41
1
10
40.7130991158541
20
3.85025955303521
30
0
41
1
10
40.1105365134761
20
3.84963598601615
30
0
41
1
10
39.5367805196113
20
3.85007602787763
30
0
41
1
10
39.0436875173487
20
3.84962524876107
30
0
41
1
10
38.5450266277966
20
3.84888397538106
30
0
41
1
10
38.1752060503855
20
3.84810282464753
30
0
41
1
10
37.9563284076174
20
3.84613633546053
30
0
41
1
10
37.9281133520254
20
3.84586207675366
30
0
0
SPLINE
5
BD
100
AcDbEntity
8
1
62
256
6
ByLayer
370
18
48
1
60
0
100
AcDbSpline
70
4
71
2
72
6
73
3
40
0
40
0
40
0
40
1
40
1
40
1
41
1
10
60.7855444410337
20
-3.86258588634269
30
0
41
1
10
61.1896893243268
20
-3.86087291769707
30
0
41
1
10
61.5936915332111
20
-3.86428996240767
30
0
0
SPLINE
5
BE
100
AcDbEntity
8
1
62
256
6
ByLayer
370
13
48
1
60
0
100
AcDbSpline
70
4
71
3
72
12
73
8
40
0
40
0
40
0
40
0
40
0.499999999999998
40
0.499999999999998
40
0.749999999999999
40
0.749999999999999
40
1
40
1
40
1
40
1
41
1
10
4.00816934206603
20
-2.64296377591086
30
0
41
1
10
4.01682904569498
20
-2.63537113877516
30
0
41
1
10
4.03231926228003
20
-2.62789010942137
30
0
41
1
10
4.06529544134517
20
-2.61780261494153
30
0
41
1
10
4.07814341512977
20
-2.61457949270937
30
0
41
1
10
4.10639763534112
20
-2.60886143492814
30
0
41
1
10
4.12189109823595
20
-2.60632514299056
30
0
41
1
10
4.13894750721869
20
-2.60418249909352
30
0
0
SPLINE
5
BF
100
AcDbEntity
8
1
62
256
6
ByLayer
370
13
48
1
60
0
100
AcDbSpline
70
4
71
3
72
8
73
4
40
0
40
0
40
0
40
0
40
1
40
1
40
1
40
1
41
1
10
4.13894750721869
20
-2.60418249909352
30
0
41
1
10
4.17391455122569
20
-2.59978990253222
30
0
41
1
10
4.21166696670781
20
-2.60175804557431
30
0
41
1
10
4.25035247063107
20
-2.60996635092576
30
0
0
SPLINE
5
C0
100
AcDbEntity
8
1
62
256
6
ByLayer
370
18
48
1
60
0
100
AcDbSpline
70
4
71
3
72
18
73
14
40
0
40
0
40
0
40
0
40
0.124999999999997
40
0.124999999999997
40
0.249999999999995
40
0.249999999999995
40
0.499999999999996
40
0.499999999999996
40
0.749999999999998
40
0.749999999999998
40
0.874999999999999
40
0.874999999999999
40
1
40
1
40
1
40
1
41
1
10
62.407808586709
20
-2.00409261853358
30
0
41
1
10
62.377445654643
20
-2.08591181982058
30
0
41
1
10
62.346988090297
20
-2.16766160733303
30
0
41
1
10
62.2860569398355
20
-2.33111640876086
30
0
41
1
10
62.2555683891271
20
-2.41279342242689
30
0
41
1
10
62.1639590867162
20
-2.65750942693205
30
0
41
1
10
62.1026976044716
20
-2.82023978450942
30
0
41
1
10
61.979433580279
20
-3.14407529684445
30
0
41
1
10
61.9176674105421
20
-3.30585118868581
30
0
41
1
10
61.8248463983651
20
-3.54622797059031
30
0
41
1
10
61.7938558753098
20
-3.62587359276188
30
0
41
1
10
61.7317611472673
20
-3.78407759191288
30
0
41
1
10
61.7006943229746
20
-3.86299347495935
30
0
41
1
10
61.6695822059098
20
-3.94147618144055
30
0
0
SPLINE
5
C1
100
AcDbEntity
8
1
62
256
6
ByLayer
370
18
48
1
60
0
100
AcDbSpline
70
4
71
3
72
31
73
27
40
0
40
0
40
0
40
0
40
0.0625
40
0.0625
40
0.125
40
0.125
40
0.25
40
0.25
40
0.3125
40
0.3125
40
0.375
40
0.4375
40
0.4375
40
0.5
40
0.5
40
0.625
40
0.625
40
0.6875
40
0.6875
40
0.75
40
0.75
40
0.875
40
0.875
40
0.9375
40
0.9375
40
1
40
1
40
1
40
1
41
1
10
4.00816934206514
20
-2.64296377591205
30
0
41
1
10
4.00818187708259
20
-2.54384349195524
30
0
41
1
10
4.00819401175573
20
-2.44023179543987
30
0
41
1
10
4.00821737901003
20
-2.22615705745255
30
0
41
1
10
4.00822856570858
20
-2.11617169115684
30
0
41
1
10
4.00826090233031
20
-1.77763308299077
30
0
41
1
10
4.00828083603869
20
-1.54057808849666
30
0
41
1
10
4.00830917789068
20
-1.16750318522389
30
0
41
1
10
4.00831833977259
20
-1.04044719000947
30
0
41
1
10
4.00833588963087
20
-0.786000557967412
30
0
41
1
10
4.00835276973712
20
-0.529873325740169
30
0
41
1
10
4.00836859156863
20
-0.270432632797451
30
0
41
1
10
4.00838399128475
20
-0.0093116159648616
30
0
41
1
10
4.00839151872495
20
0.122797725957526
30
0
41
1
10
4.00841327079621
20
0.516065395980121
30
0
41
1
10
4.00842663413979
20
0.772979880055686
30
0
41
1
10
4.00844530452611
20
1.15066068750238
30
0
41
1
10
4.00845129323488
20
1.27526335402885
30
0
41
1
10
4.00846278879598
20
1.52180860473044
30
0
41
1
10
4.00846825843334
20
1.64299386083047
30
0
41
1
10
4.0084835601433
20
1.9949835088832
30
0
41
1
10
4.00849241531964
20
2.21656069495802
30
0
41
1
10
4.00850321493283
20
2.52920778652265
30
0
41
1
10
4.00850640767845
20
2.63063656013088
30
0
41
1
10
4.00851170825572
20
2.82323979406718
30
0
41
1
10
4.00851382522248
20
2.91455229728885
30
0
41
1
10
4.00851535477511
20
3.00099852367021
30
0
0
SPLINE
5
C2
100
AcDbEntity
8
1
62
256
6
ByLayer
370
18
48
1
60
0
100
AcDbSpline
70
4
71
3
72
8
73
4
40
0
40
0
40
0
40
0
40
1
40
1
40
1
40
1
41
1
10
61.6494746960588
20
-3.83996427989186
30
0
41
1
10
61.628296869095
20
-3.85526103941117
30
0
41
1
10
61.6097912212336
20
-3.86296417787693
30
0
41
1
10
61.5940041093282
20
-3.86294196146693
30
0
0
SPLINE
5
C3
100
AcDbEntity
8
1
62
256
6
ByLayer
370
18
48
1
60
0
100
AcDbSpline
70
4
71
3
72
16
73
12
40
0
40
0
40
0
40
0
40
0.249999999999999
40
0.249999999999999
40
0.499999999999998
40
0.499999999999998
40
0.749999999999997
40
0.749999999999997
40
0.874999999999999
40
0.874999999999999
40
1
40
1
40
1
40
1
41
1
10
8.51567946302654
20
0.856634711268441
30
0
41
1
10
8.15094771682246
20
1.02728849624555
30
0
41
1
10
7.78910448974781
20
1.19885486801579
30
0
41
1
10
7.06974772793819
20
1.5401596768603
30
0
41
1
10
6.7120818689215
20
1.71029541404218
30
0
41
1
10
6.00055407022668
20
2.04606006233172
30
0
41
1
10
5.64661945405624
20
2.21178459311776
30
0
41
1
10
5.11906404009929
20
2.45575305142356
30
0
41
1
10
4.94378343158175
20
2.5363082490891
30
0
41
1
10
4.59470360303544
20
2.69578899256632
30
0
41
1
10
4.42170038053933
20
2.77434872757269
30
0
41
1
10
4.25153366324366
20
2.85133263198722
30
0
0
SPLINE
5
C4
100
AcDbEntity
8
1
62
256
6
ByLayer
370
18
48
1
60
0
100
AcDbSpline
70
4
71
3
72
14
73
10
40
0
40
0
40
0
40
0
40
0.25
40
0.25
40
0.5
40
0.5
40
0.75
40
0.75
40
1
40
1
40
1
40
1
41
1
10
4.25153366289982
20
2.85133263213785
30
0
41
1
10
4.22723633121214
20
2.86232481374586
30
0
41
1
10
4.20187222695327
20
2.87446749489135
30
0
41
1
10
4.14990646242117
20
2.90117193197614
30
0
41
1
10
4.12366016390595
20
2.91561305221805
30
0
41
1
10
4.07714566003077
20
2.94372728918185
30
0
41
1
10
4.0567511495168
20
2.95750003761742
30
0
41
1
10
4.02572742351808
20
2.98179845080182
30
0
41
1
10
4.01513481822445
20
2.99216297315078
30
0
41
1
10
4.00851535477523
20
3.00099852367021
30
0
0
SPLINE
5
C5
100
AcDbEntity
8
1
62
256
6
ByLayer
370
18
48
1
60
0
100
AcDbSpline
70
4
71
3
72
75
73
71
40
0
40
0
40
0
40
0
40
0.0366402926297002
40
0.0366402926297002
40
0.0753301045289663
40
0.0753301045289663
40
0.114019916428232
40
0.114019916428232
40
0.191399540226765
40
0.191399540226765
40
0.268779164025297
40
0.268779164025297
40
0.307468975924563
40
0.307468975924563
40
0.346158787823829
40
0.346158787823829
40
0.423538411622361
40
0.423538411622361
40
0.462228223521628
40
0.462228223521628
40
0.481573129471261
40
0.481573129471261
40
0.486409355958669
40
0.486409355958669
40
0.486711620114132
40
0.486711620114132
40
0.487013884269595
40
0.487013884269595
40
0.487618412580521
40
0.487618412580521
40
0.488827469202373
40
0.488827469202373
40
0.491245582446077
40
0.491245582446077
40
0.500918035420894
40
0.500918035420894
40
0.539607847320163
40
0.539607847320163
40
0.578297659219431
40
0.578297659219431
40
0.655677283017968
40
0.655677283017968
40
0.733056906816505
40
0.733056906816505
40
0.752401812766139
40
0.752401812766139
40
0.757238039253547
40
0.757238039253547
40
0.759656152497252
40
0.759656152497252
40
0.762074265740956
40
0.762074265740956
40
0.762376529896419
40
0.762376529896419
40
0.762678794051882
40
0.762678794051882
40
0.763283322362808
40
0.76449237898466
40
0.766910492228364
40
0.771746718715773
40
0.771746718715773
40
0.810436530615041
40
0.810436530615041
40
0.849126342514309
40
0.849126342514309
40
0.887816154413577
40
0.887816154413577
40
0.965195778212113
40
0.965195778212113
40
1
40
1
40
1
40
1
41
1
10
14.567846763537
20
3.32224555203132
30
0
41
1
10
14.4250413500206
20
3.31909222987275
30
0
41
1
10
14.2821586815196
20
3.31243219211314
30
0
41
1
10
13.9880551977462
20
3.29073071739884
30
0
41
1
10
13.836804801433
20
3.2752405034212
30
0
41
1
10
13.5335468060797
20
3.23472437700178
30
0
41
1
10
13.3811279267689
20
3.20960120267401
30
0
41
1
10
12.9263428332398
20
3.11978174285062
30
0
41
1
10
12.6259318033492
20
3.04052568229321
30
0
41
1
10
12.026818885145
20
2.8449093828778
30
0
41
1
10
11.7280970846978
20
2.72857063498586
30
0
41
1
10
11.2772278216411
20
2.53071572815469
30
0
41
1
10
11.1266531098164
20
2.460962599559
30
0
41
1
10
10.828227072849
20
2.31708136495865
30
0
41
1
10
10.6798264659989
20
2.24272021842054
30
0
41
1
10
10.2358938633804
20
2.01454851027978
30
0
41
1
10
9.94161648176981
20
1.8556736459841
30
0
41
1
10
9.49831633603191
20
1.61550536537774
30
0
41
1
10
9.35023955344462
20
1.53513358185424
30
0
41
1
10
9.127131538372
20
1.41510261314443
30
0
41
1
10
9.05253641159553
20
1.37514790229227
30
0
41
1
10
8.95921474932223
20
1.32551601113658
30
0
41
1
10
8.94055057213072
20
1.3156073298058
30
0
41
1
10
8.92072038084189
20
1.30510002020407
30
0
41
1
10
8.92160514710361
20
1.30362775571535
30
0
41
1
10
8.92323910425918
20
1.30185041306558
30
0
41
1
10
8.92416185216445
20
1.30106624449272
30
0
41
1
10
8.92699896472573
20
1.2987818238104
30
0
41
1
10
8.92901078943561
20
1.29737507602798
30
0
41
1
10
8.93511272007001
20
1.29327066726958
30
0
41
1
10
8.9393069219384
20
1.2906983398486
30
0
41
1
10
8.95199993305883
20
1.28312536379164
30
0
41
1
10
8.96063018756462
20
1.27829536589013
30
0
41
1
10
9.00398942018623
20
1.2545127051294
30
0
41
1
10
9.03939361259137
20
1.23657098458258
30
0
41
1
10
9.21676982988393
20
1.1475376245256
30
0
41
1
10
9.36056362747314
20
1.07968342752525
30
0
41
1
10
9.64832244096729
20
0.944907782956193
30
0
41
1
10
9.79256076998024
20
0.878474965671415
30
0
41
1
10
10.2257554357441
20
0.681038154638685
30
0
41
1
10
10.5149797722704
20
0.551766855339224
30
0
41
1
10
11.0930770847767
20
0.29637991697345
30
0
41
1
10
11.3820502267497
20
0.170007363177405
30
0
41
1
10
11.7403191250301
20
0.0120766892682411
30
0
41
1
10
11.8118779530751
20
-0.0194827830182192
30
0
41
1
10
11.9003060198381
20
-0.0593835987109799
30
0
41
1
10
11.9179370865405
20
-0.0673886011990419
30
0
41
1
10
11.944151768987
20
-0.0795177905892785
30
0
41
1
10
11.9528568763285
20
-0.0835817360870124
30
0
41
1
10
11.9700535778063
20
-0.0918068546548056
30
0
41
1
10
11.9787948563418
20
-0.0958904564045611
30
0
41
1
10
11.9874789426796
20
-0.10090271850882
30
0
41
1
10
11.9884220913807
20
-0.1014649670349
30
0
41
1
10
11.990090938526
20
-0.102641457660184
30
0
41
1
10
11.9907251254126
20
-0.103401426809597
30
0
41
1
10
11.9875626579392
20
-0.103693230612407
30
0
41
1
10
11.9812375536682
20
-0.104271806984258
30
0
41
1
10
11.9664777223064
20
-0.105586590979072
30
0
41
1
10
11.9369538867534
20
-0.108075068850894
30
0
41
1
10
11.911637914058
20
-0.109965988530348
30
0
41
1
10
11.7597223138984
20
-0.120339233614317
30
0
41
1
10
11.6243955769557
20
-0.122628880807895
30
0
41
1
10
11.3536747433149
20
-0.113330345165991
30
0
41
1
10
11.2181038840963
20
-0.101764268125635
30
0
41
1
10
10.9451595967137
20
-0.0649687140416404
30
0
41
1
10
10.8073864841416
20
-0.0396098356297898
30
0
41
1
10
10.3949411860774
20
0.0550609336094396
30
0
41
1
10
10.1196029379132
20
0.143072640619636
30
0
41
1
10
9.71279624831459
20
0.299348434854835
30
0
41
1
10
9.5855330542191
20
0.351821964897425
30
0
41
1
10
9.45686227701285
20
0.407768779260152
30
0
0
SPLINE
5
C6
100
AcDbEntity
8
1
62
256
6
ByLayer
370
18
48
1
60
0
100
AcDbSpline
70
4
71
3
72
14
73
10
40
0
40
0
40
0
40
0
40
0.514841768733211
40
0.514841768733211
40
0.854115287575083
40
0.854115287575083
40
0.938933667285548
40
0.938933667285548
40
1
40
1
40
1
40
1
41
1
10
60.7819491638354
20
-3.86255776812115
30
0
41
1
10
59.8750940506856
20
-3.86207129187983
30
0
41
1
10
58.9753721499534
20
-3.78609801391747
30
0
41
1
10
57.4791876575456
20
-3.54313574674708
30
0
41
1
10
56.8838679550796
20
-3.41591506974589
30
0
41
1
10
56.1348207307219
20
-3.22103791749422
30
0
41
1
10
55.9847723200857
20
-3.18026556125429
30
0
41
1
10
55.7262069319085
20
-3.10710913136404
30
0
41
1
10
55.6177127739119
20
-3.07553872539162
30
0
41
1
10
55.5092734641464
20
-3.04314023887946
30
0
0
SPLINE
5
C7
100
AcDbEntity
8
1
62
256
6
ByLayer
370
13
48
1
60
0
100
AcDbSpline
70
4
71
3
72
22
73
18
40
0
40
0
40
0
40
0
40
0.0109396744388395
40
0.0109396744388395
40
0.08907066334709
40
0.08907066334709
40
0.401594618980086
40
0.401594618980086
40
0.557856596796586
40
0.557856596796586
40
0.635987585704834
40
0.635987585704834
40
0.714118574613083
40
0.714118574613083
40
0.87038055242958
40
0.87038055242958
40
1
40
1
40
1
40
1
41
1
10
55.5092734641826
20
-3.04314023889026
30
0
41
1
10
55.4670954674368
20
-3.03053869004583
30
0
41
1
10
55.4249257684541
20
-3.01781186430449
30
0
41
1
10
55.0817993501957
20
-2.91322751586975
30
0
41
1
10
54.7821089505489
20
-2.81546878478957
30
0
41
1
10
53.2883324092232
20
-2.29976094327745
30
0
41
1
10
52.1083694760842
20
-1.800396228208
30
0
41
1
10
50.3276007410319
20
-0.984336955366871
30
0
41
1
10
49.7322340939636
20
-0.701105173549223
30
0
41
1
10
48.832431999663
20
-0.267401455851598
30
0
41
1
10
48.5304547078886
20
-0.120998531034132
30
0
41
1
10
47.9294015597485
20
0.170169973751683
30
0
41
1
10
47.6300860128175
20
0.315041135452532
30
0
41
1
10
46.7348059321873
20
0.745648031139837
30
0
41
1
10
46.1412558396983
20
1.02675344432711
30
0
41
1
10
45.0569722612477
20
1.52130352239712
30
0
41
1
10
44.5656837449724
20
1.73751468535099
30
0
41
1
10
44.0734027498034
20
1.94317815255596
30
0
0
SPLINE
5
C8
100
AcDbEntity
8
1
62
256
6
ByLayer
370
18
48
1
60
0
100
AcDbSpline
70
4
71
3
72
14
73
10
40
0
40
0
40
0
40
0
40
0.613908000025785
40
0.613908000025785
40
0.795001775316173
40
0.795001775316173
40
0.976095550606558
40
0.976095550606558
40
1
40
1
40
1
40
1
41
1
10
10.8923248833559
20
-3.8323070514688
30
0
41
1
10
9.87937512249843
20
-3.83840200297274
30
0
41
1
10
8.87335050893427
20
-3.75119618864991
30
0
41
1
10
7.56198631845649
20
-3.5238823526503
30
0
41
1
10
7.26269003391332
20
-3.46440418248582
30
0
41
1
10
6.66230482662283
20
-3.33057878980961
30
0
41
1
10
6.36069816145846
20
-3.25612110764541
30
0
41
1
10
6.01919256435244
20
-3.16409065454204
30
0
41
1
10
5.97937627848535
20
-3.15324266739654
30
0
41
1
10
5.93956523879947
20
-3.142279097944
30
0
0
SPLINE
5
C9
100
AcDbEntity
8
1
62
256
6
ByLayer
370
13
48
1
60
0
100
AcDbSpline
70
4
71
3
72
8
73
4
40
0
40
0
40
0
40
0
40
1
40
1
40
1
40
1
41
1
10
5.93956620414451
20
-3.14227936379044
30
0
41
1
10
5.37618114283381
20
-2.98712867616379
30
0
41
1
10
4.81384670578387
20
-2.80883097319128
30
0
41
1
10
4.25035247063107
20
-2.60996635092576
30
0
0
SPLINE
5
CA
100
AcDbEntity
8
1
62
256
6
ByLayer
370
18
48
1
60
0
100
AcDbSpline
70
4
71
3
72
33
73
29
40
0
40
0
40
0
40
0
40
0.0006964053108984
40
0.0006964053108984
40
0.310210528553325
40
0.310210528553325
40
0.46496759017454
40
0.46496759017454
40
0.619724651795755
40
0.619724651795755
40
0.77448171341697
40
0.77448171341697
40
0.784154029768296
40
0.784154029768296
40
0.793826346119622
40
0.793826346119622
40
0.798662504295286
40
0.798662504295286
40
0.80349866247095
40
0.813170978822282
40
0.813170978822282
40
0.851860244227604
40
0.851860244227604
40
0.929238775038246
40
0.929238775038246
40
0.967928040443567
40
0.967928040443567
40
1
40
1
40
1
40
1
41
1
10
8.65395185134582
20
-4.01817394249636
30
0
41
1
10
8.65242691954367
20
-4.01817172094883
30
0
41
1
10
8.65090194224112
20
-4.01816942155918
30
0
41
1
10
7.97158756629352
20
-4.01711055388276
30
0
41
1
10
7.28480263543062
20
-4.00091466181536
30
0
41
1
10
6.23872870269503
20
-3.972239373159
30
0
41
1
10
5.88740550072566
20
-3.96193773250525
30
0
41
1
10
5.17923192208713
20
-3.94247405808997
30
0
41
1
10
4.82355800622193
20
-3.93335544265324
30
0
41
1
10
4.11095901914189
20
-3.91841787731136
30
0
41
1
10
3.75360538926785
20
-3.91259016123519
30
0
41
1
10
3.37312865805609
20
-3.9088355115293
30
0
41
1
10
3.35077384919489
20
-3.90844397764036
30
0
41
1
10
3.30588216934009
20
-3.90884533808094
30
0
41
1
10
3.28378584873508
20
-3.90956170728108
30
0
41
1
10
3.25204552161941
20
-3.91206210260137
30
0
41
1
10
3.24199667922761
20
-3.91326385639337
30
0
41
1
10
3.22195847171523
20
-3.91555503304693
30
0
41
1
10
3.19195641321681
20
-3.91898484342639
30
0
41
1
10
3.162123786309
20
-3.92239185346384
30
0
41
1
10
3.06307603673835
20
-3.93368852674425
30
0
41
1
10
2.98494877221305
20
-3.94255382779343
30
0
41
1
10
2.75668591554117
20
-3.96796669736625
30
0
41
1
10
2.61218924516228
20
-3.98348615236645
30
0
41
1
10
2.41433391637048
20
-4.00124396794914
30
0
41
1
10
2.35120195709635
20
-4.00623437224215
30
0
41
1
10
2.24678945897702
20
-4.01239158177191
30
0
41
1
10
2.20341690366124
20
-4.01409782773439
30
0
41
1
10
2.16506070809487
20
-4.01427815465806
30
0
0
SPLINE
5
CB
100
AcDbEntity
8
1
62
256
6
ByLayer
370
18
48
1
60
0
100
AcDbSpline
70
4
71
3
72
20
73
16
40
0
40
0
40
0
40
0
40
0.249999999999992
40
0.249999999999992
40
0.31249999999999
40
0.31249999999999
40
0.374999999999988
40
0.374999999999988
40
0.499999999999991
40
0.499999999999991
40
0.624999999999993
40
0.624999999999993
40
0.749999999999995
40
0.749999999999995
40
1
40
1
40
1
40
1
41
1
10
58.4907611990881
20
0.87122146817498
30
0
41
1
10
58.6152195799235
20
0.566715306213581
30
0
41
1
10
58.7740694741875
20
0.275000858840144
30
0
41
1
10
59.0041014206886
20
-0.0779372816795671
30
0
41
1
10
59.051807480953
20
-0.14802332459243
30
0
41
1
10
59.1489849641035
20
-0.28525615538976
30
0
41
1
10
59.1986028350924
20
-0.352637885231019
30
0
41
1
10
59.3502697886191
20
-0.551407803471164
30
0
41
1
10
59.4551189832112
20
-0.679436591325697
30
0
41
1
10
59.6712558705349
20
-0.92776965682404
30
0
41
1
10
59.7825497259758
20
-1.04806654083191
30
0
41
1
10
60.0109142587745
20
-1.28172963667632
30
0
41
1
10
60.1283458047234
20
-1.39541027007726
30
0
41
1
10
60.4853597401203
20
-1.72388367969424
30
0
41
1
10
60.7296835267529
20
-1.9265571581445
30
0
41
1
10
60.9793567345691
20
-2.1154143943522
30
0
0
SPLINE
5
CC
100
AcDbEntity
8
1
62
256
6
ByLayer
370
18
48
1
60
0
100
AcDbSpline
70
4
71
3
72
61
73
57
40
0
40
0
40
0
40
0
40
0.0624999999999984
40
0.0624999999999984
40
0.124999999999997
40
0.124999999999997
40
0.249999999999993
40
0.249999999999993
40
0.374999999999988
40
0.374999999999988
40
0.499999999999984
40
0.499999999999984
40
0.562499999999983
40
0.562499999999983
40
0.624999999999981
40
0.624999999999981
40
0.687499999999979
40
0.687499999999979
40
0.691406249999979
40
0.691406249999979
40
0.695312499999978
40
0.695312499999978
40
0.697265624999978
40
0.697265624999978
40
0.699218749999978
40
0.703124999999978
40
0.703124999999978
40
0.718749999999979
40
0.718749999999979
40
0.749999999999981
40
0.749999999999981
40
0.765624999999981
40
0.765624999999981
40
0.781249999999982
40
0.781249999999982
40
0.796874999999983
40
0.796874999999983
40
0.812499999999984
40
0.812499999999984
40
0.820312499999984
40
0.820312499999984
40
0.828124999999985
40
0.828124999999985
40
0.843749999999986
40
0.843749999999986
40
0.859374999999987
40
0.859374999999987
40
0.874999999999988
40
0.874999999999988
40
0.890624999999989
40
0.890624999999989
40
0.906249999999991
40
0.906249999999991
40
0.937499999999994
40
0.937499999999994
40
1
40
1
40
1
40
1
41
1
10
14.5680726977292
20
3.32209867746698
30
0
41
1
10
14.2490689853209
20
3.41321677561675
30
0
41
1
10
13.9282358308806
20
3.49372270912807
30
0
41
1
10
13.2824178369876
20
3.63554081241105
30
0
41
1
10
12.9568894978334
20
3.69691024321654
30
0
41
1
10
11.977107804337
20
3.85393305402042
30
0
41
1
10
11.3209033240726
20
3.92228735773992
30
0
41
1
10
9.99596185337583
20
4.00493001111894
30
0
41
1
10
9.32716627252915
20
4.0192235350379
30
0
41
1
10
7.97158756630256
20
4.01711055388293
30
0
41
1
10
7.28480263544066
20
4.00091466181559
30
0
41
1
10
6.23872870270662
20
3.97223937315931
30
0
41
1
10
5.88740550073777
20
3.96193773250562
30
0
41
1
10
5.17923192210031
20
3.94247405809034
30
0
41
1
10
4.82355800623563
20
3.93335544265355
30
0
41
1
10
4.11095901915655
20
3.91841787731161
30
0
41
1
10
3.75360538928297
20
3.91259016123539
30
0
41
1
10
3.37312865807172
20
3.90883551152945
30
0
41
1
10
3.35077384921056
20
3.9084439776405
30
0
41
1
10
3.3058821693559
20
3.90884533808051
30
0
41
1
10
3.28378584875048
20
3.9095617072804
30
0
41
1
10
3.25204552163422
20
3.91206210259995
30
0
41
1
10
3.24199667924188
20
3.91326385639172
30
0
41
1
10
3.22195847172938
20
3.91555503304531
30
0
41
1
10
3.19195641323086
20
3.91898484342477
30
0
41
1
10
3.16212378632278
20
3.92239185346227
30
0
41
1
10
3.06307603675165
20
3.93368852674277
30
0
41
1
10
2.98494877222595
20
3.94255382779198
30
0
41
1
10
2.75668591555265
20
3.967966697365
30
0
41
1
10
2.6121892451728
20
3.98348615236537
30
0
41
1
10
2.41433391637958
20
4.00124396794837
30
0
41
1
10
2.35120195710485
20
4.00623437224155
30
0
41
1
10
2.2370252210857
20
4.01296737930278
30
0
41
1
10
2.18568728124822
20
4.01475575009613
30
0
41
1
10
2.09825066737204
20
4.01362628459862
30
0
41
1
10
2.06312952245196
20
4.01065957427838
30
0
41
1
10
2.01477212953611
20
3.99869056098242
30
0
41
1
10
2.00149783047391
20
3.98947325451485
30
0
41
1
10
1.99943952062358
20
3.97125775674772
30
0
41
1
10
2.00159504549362
20
3.9644494069272
30
0
41
1
10
2.01130274987395
20
3.94936767197146
30
0
41
1
10
2.01893424676405
20
3.94103257748077
30
0
41
1
10
2.0488329346266
20
3.91442874174433
30
0
41
1
10
2.07789931188711
20
3.89455808146471
30
0
41
1
10
2.14976095397549
20
3.85124221794882
30
0
41
1
10
2.19289463067872
20
3.82765055217931
30
0
41
1
10
2.28724927460561
20
3.77875500031766
30
0
41
1
10
2.33869327425225
20
3.75330845429693
30
0
41
1
10
2.44792999648456
20
3.70071688488054
30
0
41
1
10
2.50574057176823
20
3.67356966214214
30
0
41
1
10
2.62638235308469
20
3.6177628152781
30
0
41
1
10
2.68921072590416
20
3.5891094806702
30
0
41
1
10
2.8810952553701
20
3.50231494614994
30
0
41
1
10
3.01443634783772
20
3.44289989374619
30
0
41
1
10
3.42509123128303
20
3.26045342960199
30
0
41
1
10
3.71282387486835
20
3.13323836342681
30
0
41
1
10
4.00851535477784
20
3.00099852366904
30
0
0
SPLINE
5
CD
100
AcDbEntity
8
1
62
256
6
ByLayer
370
18
48
1
60
0
100
AcDbSpline
70
4
71
3
72
84
73
80
40
0
40
0
40
0
40
0
40
0.019058989344838
40
0.019058989344838
40
0.0447105852184192
40
0.0447105852184192
40
0.0960137769655816
40
0.0960137769655816
40
0.121665372839163
40
0.121665372839163
40
0.147316968712744
40
0.147316968712744
40
0.172968564586325
40
0.172968564586325
40
0.198620160459906
40
0.198620160459906
40
0.224271756333487
40
0.224271756333487
40
0.249923352207068
40
0.249923352207068
40
0.27557494808065
40
0.27557494808065
40
0.301226543954231
40
0.301226543954231
40
0.326878139827812
40
0.326878139827812
40
0.352529735701393
40
0.352529735701393
40
0.378181331574974
40
0.378181331574974
40
0.403832927448555
40
0.403832927448555
40
0.429484523322137
40
0.429484523322137
40
0.455136119195718
40
0.455136119195718
40
0.480787715069299
40
0.480787715069299
40
0.50643931094288
40
0.50643931094288
40
0.532090906816461
40
0.532090906816461
40
0.557742502690042
40
0.557742502690042
40
0.583394098563624
40
0.583394098563624
40
0.609045694437205
40
0.609045694437205
40
0.634697290310786
40
0.634697290310786
40
0.660348886184367
40
0.660348886184367
40
0.686000482057948
40
0.686000482057948
40
0.71165207793153
40
0.71165207793153
40
0.737303673805111
40
0.737303673805111
40
0.762955269678692
40
0.762955269678692
40
0.788606865552273
40
0.788606865552273
40
0.814258461425854
40
0.814258461425854
40
0.839910057299435
40
0.839910057299435
40
0.865561653173017
40
0.865561653173017
40
0.891213249046598
40
0.891213249046598
40
0.916864844920179
40
0.916864844920179
40
0.94251644079376
40
0.94251644079376
40
0.968168036667341
40
0.968168036667341
40
0.993819632540922
40
0.993819632540922
40
1
40
1
40
1
40
1
41
1
10
53.6116883842183
20
-2.87513701854405
30
0
41
1
10
53.4185102571656
20
-2.93733868118304
30
0
41
1
10
53.2251848505144
20
-2.9968418991597
30
0
41
1
10
52.771275771892
20
-3.13005153753417
30
0
41
1
10
52.5108788321878
20
-3.20194523525126
30
0
41
1
10
51.7304658593057
20
-3.40205583820429
30
0
41
1
10
51.2105581150456
20
-3.51519470569582
30
0
41
1
10
50.431069829146
20
-3.65062156407896
30
0
41
1
10
50.170871338566
20
-3.68976351946412
30
0
41
1
10
49.649409471265
20
-3.754823591264
30
0
41
1
10
49.3887792327508
20
-3.78009979374411
30
0
41
1
10
48.8685830055392
20
-3.82101152732739
30
0
41
1
10
48.6088172676761
20
-3.83615043034132
30
0
41
1
10
48.0888017719378
20
-3.85356344763852
30
0
41
1
10
47.8286976344774
20
-3.85547355752905
30
0
41
1
10
47.3082173820827
20
-3.84771159265773
30
0
41
1
10
47.047970158389
20
-3.8382707720551
30
0
41
1
10
46.5266044536233
20
-3.8065709068172
30
0
41
1
10
46.2662312367088
20
-3.78422711341796
30
0
41
1
10
45.745966410834
20
-3.72657860646237
30
0
41
1
10
45.4860634163522
20
-3.69206218982225
30
0
41
1
10
44.9665903493391
20
-3.61191328584275
30
0
41
1
10
44.7066657665405
20
-3.56628718493505
30
0
41
1
10
44.1860726664451
20
-3.4625930579538
30
0
41
1
10
43.9251616628084
20
-3.40474846913938
30
0
41
1
10
43.4040400295139
20
-3.2793420816765
30
0
41
1
10
43.1440787060326
20
-3.21142245722947
30
0
41
1
10
42.6239760271781
20
-3.06548590568272
30
0
41
1
10
42.3639885103338
20
-2.98702027251122
30
0
41
1
10
41.8439709203598
20
-2.82162245841124
30
0
41
1
10
41.5841675040526
20
-2.73428399914391
30
0
41
1
10
41.0637142340883
20
-2.55082653036666
30
0
41
1
10
40.8026803418701
20
-2.45444748617936
30
0
41
1
10
40.2814410123592
20
-2.25461459409229
30
0
41
1
10
40.0211019179855
20
-2.1517426541966
30
0
41
1
10
39.5012649348147
20
-1.93823539927962
30
0
41
1
10
39.2413909076831
20
-1.82826594063906
30
0
41
1
10
38.7211325666427
20
-1.60264682935596
30
0
41
1
10
38.4607789235116
20
-1.48747131893896
30
0
41
1
10
37.939788626255
20
-1.25210421763941
30
0
41
1
10
37.6790442220854
20
-1.13136823353241
30
0
41
1
10
37.1582343467425
20
-0.888078523127689
30
0
41
1
10
36.8980239870415
20
-0.765154632871827
30
0
41
1
10
36.3777905770724
20
-0.517606980146326
30
0
41
1
10
36.1180181890984
20
-0.392355417265975
30
0
41
1
10
35.5980951324074
20
-0.140906877243822
30
0
41
1
10
35.3377620114702
20
-0.0150448593961414
30
0
41
1
10
34.8162939661807
20
0.236412984575736
30
0
41
1
10
34.555265136031
20
0.362055486928369
30
0
41
1
10
34.0349852483504
20
0.612400795567567
30
0
41
1
10
33.7751439719354
20
0.736460034996668
30
0
41
1
10
33.2551052773633
20
0.980962701596809
30
0
41
1
10
32.9949903519312
20
1.1017555086159
30
0
41
1
10
32.4747605131305
20
1.34031235970656
30
0
41
1
10
32.2147860394388
20
1.45828790374958
30
0
41
1
10
31.693314478178
20
1.68782511391422
30
0
41
1
10
31.4324302053456
20
1.79989303792263
30
0
41
1
10
30.9115728630673
20
2.01817623512525
30
0
41
1
10
30.6516137333255
20
2.12457042287801
30
0
41
1
10
30.1318014765446
20
2.3294252266169
30
0
41
1
10
29.8716511871013
20
2.42774355463678
30
0
41
1
10
29.3508264463537
20
2.6173462212235
30
0
41
1
10
29.0900540509972
20
2.70858436884814
30
0
41
1
10
28.5685842124254
20
2.88159876792352
30
0
41
1
10
28.308341429131
20
2.96295068431584
30
0
41
1
10
27.7876518458237
20
3.11650615676461
30
0
41
1
10
27.5273737158996
20
3.1886939672261
30
0
41
1
10
27.0070952085518
20
3.32261100715618
30
0
41
1
10
26.7472798358655
20
3.3835153603132
30
0
41
1
10
26.2264885804369
20
3.49515316524727
30
0
41
1
10
25.9653746967142
20
3.54602312621356
30
0
41
1
10
25.4436854370177
20
3.63615170681936
30
0
41
1
10
25.1834825298236
20
3.67484745038055
30
0
41
1
10
24.6635784850379
20
3.73953659352404
30
0
41
1
10
24.4034879233485
20
3.7665330945093
30
0
41
1
10
23.8830989807777
20
3.80897335609902
30
0
41
1
10
23.6227992125602
20
3.82448131061017
30
0
41
1
10
23.2997175199297
20
3.83469871580675
30
0
41
1
10
23.2369586612757
20
3.83630949686005
30
0
41
1
10
23.1741790208427
20
3.83756160532272
30
0
0
SPLINE
5
CE
100
AcDbEntity
8
1
62
256
6
ByLayer
370
18
48
1
60
0
100
AcDbSpline
70
4
71
3
72
8
73
4
40
0
40
0
40
0
40
0
40
1
40
1
40
1
40
1
41
1
10
4.02228832265672
20
-2.69084461612746
30
0
41
1
10
4.01313028060471
20
-2.67583303808081
30
0
41
1
10
4.00816722673858
20
-2.65969066286888
30
0
41
1
10
4.00816934206512
20
-2.64296377591256
30
0
0
SPLINE
5
CF
100
AcDbEntity
8
1
62
256
6
ByLayer
370
13
48
1
60
0
100
AcDbSpline
70
4
71
3
72
10
73
6
40
0
40
0
40
0
40
0
40
0.5
40
0.5
40
1
40
1
40
1
40
1
41
1
10
4.02228832265263
20
-2.69084461612067
30
0
41
1
10
4.03362685048734
20
-2.69891739033389
30
0
41
1
10
4.0488987517339
20
-2.70630402350437
30
0
41
1
10
4.0884724092837
20
-2.71958157389781
30
0
41
1
10
4.11179777897559
20
-2.72513379727292
30
0
41
1
10
4.13894750721869
20
-2.72937828316867
30
0
0
SPLINE
5
D0
100
AcDbEntity
8
1
62
256
6
ByLayer
370
18
48
1
60
0
100
AcDbSpline
70
4
71
3
72
18
73
14
40
0
40
0
40
0
40
0
40
0.124999999999999
40
0.124999999999999
40
0.249999999999998
40
0.249999999999998
40
0.499999999999997
40
0.499999999999997
40
0.749999999999995
40
0.749999999999995
40
0.874999999999998
40
0.874999999999998
40
1
40
1
40
1
40
1
41
1
10
62.407808586709
20
2.00409261853361
30
0
41
1
10
62.377445654643
20
2.08591181982064
30
0
41
1
10
62.346988090297
20
2.16766160733309
30
0
41
1
10
62.2860569398354
20
2.33111640876095
30
0
41
1
10
62.2555683891271
20
2.412793422427
30
0
41
1
10
62.1639590867161
20
2.65750942693219
30
0
41
1
10
62.1026976044716
20
2.8202397845096
30
0
41
1
10
61.979433580279
20
3.14407529684468
30
0
41
1
10
61.917667410542
20
3.30585118868606
30
0
41
1
10
61.824846398365
20
3.54622797059059
30
0
41
1
10
61.7938558753097
20
3.62587359276216
30
0
41
1
10
61.7317611472672
20
3.78407759191319
30
0
41
1
10
61.7006943229744
20
3.86299347495969
30
0
41
1
10
61.6695822059097
20
3.94147618144089
30
0
0
SPLINE
5
D1
100
AcDbEntity
8
1
62
256
6
ByLayer
370
18
48
1
60
0
100
AcDbSpline
70
4
71
3
72
54
73
50
40
0
40
0
40
0
40
0
40
0.0777452721514179
40
0.0777452721514179
40
0.116617908227126
40
0.116617908227126
40
0.155490544302835
40
0.155490544302835
40
0.194363180378543
40
0.194363180378543
40
0.233235816454252
40
0.233235816454252
40
0.272108452529961
40
0.272108452529961
40
0.310981088605669
40
0.310981088605669
40
0.349853724681377
40
0.349853724681377
40
0.388726360757086
40
0.388726360757086
40
0.427598996832795
40
0.427598996832795
40
0.466471632908503
40
0.466471632908503
40
0.54421690505992
40
0.54421690505992
40
0.583089541135629
40
0.583089541135629
40
0.621962177211337
40
0.621962177211337
40
0.660834813287046
40
0.660834813287046
40
0.699707449362754
40
0.699707449362754
40
0.738580085438463
40
0.738580085438463
40
0.777452721514171
40
0.777452721514171
40
0.81632535758988
40
0.81632535758988
40
0.855197993665588
40
0.855197993665588
40
0.894070629741297
40
0.894070629741297
40
0.932943265817005
40
0.932943265817005
40
0.971815901892714
40
0.971815901892714
40
1
40
1
40
1
40
1
41
1
10
8.51567737382572
20
0.856580354334398
30
0
41
1
10
9.03751480339105
20
0.610822873266926
30
0
41
1
10
9.55834888499729
20
0.362161162890203
30
0
41
1
10
10.338588069584
20
-0.0142701313961879
30
0
41
1
10
10.5985469687553
20
-0.140208304097712
30
0
41
1
10
11.119472252834
20
-0.390372965850389
30
0
41
1
10
11.3804003847356
20
-0.515069745748974
30
0
41
1
10
11.9023867459953
20
-0.762994698794671
30
0
41
1
10
12.1626496083266
20
-0.886246109385894
30
0
41
1
10
12.683190245243
20
-1.12871590378822
30
0
41
1
10
12.9434625434547
20
-1.24793490866207
30
0
41
1
10
13.4639338038792
20
-1.48210625010304
30
0
41
1
10
13.7241254970735
20
-1.597050018484
30
0
41
1
10
14.2446812722197
20
-1.82250137246984
30
0
41
1
10
14.5056340829229
20
-1.9325235507695
30
0
41
1
10
15.0275284296624
20
-2.14561865424841
30
0
41
1
10
15.2880657243095
20
-2.24845945953558
30
0
41
1
10
15.808405228631
20
-2.44722305191519
30
0
41
1
10
16.0681785073703
20
-2.54354192715792
30
0
41
1
10
16.5884558538539
20
-2.72629853091542
30
0
41
1
10
16.848792679791
20
-2.81281293034459
30
0
41
1
10
17.3697891279089
20
-2.97745618698397
30
0
41
1
10
17.6305607705009
20
-3.05597507198439
30
0
41
1
10
18.4124033330954
20
-3.27656183595624
30
0
41
1
10
18.9328903102224
20
-3.39890387359881
30
0
41
1
10
19.712479594026
20
-3.55508030440174
30
0
41
1
10
19.9725295108311
20
-3.60158149206384
30
0
41
1
10
20.4936910774214
20
-3.68078245727944
30
0
41
1
10
20.7549164474439
20
-3.71448324197112
30
0
41
1
10
21.2760475774603
20
-3.77112166933088
30
0
41
1
10
21.5359993388121
20
-3.79458981520364
30
0
41
1
10
22.0563198011725
20
-3.82631881014396
30
0
41
1
10
22.3165164388991
20
-3.83546838763274
30
0
41
1
10
22.8368817509523
20
-3.84275274284602
30
0
41
1
10
23.0968768038746
20
-3.84102202770654
30
0
41
1
10
23.6177019401609
20
-3.82473220859004
30
0
41
1
10
23.8790002968659
20
-3.80925234701297
30
0
41
1
10
24.4002854295891
20
-3.76684878155444
30
0
41
1
10
24.6605905042147
20
-3.73986411329415
30
0
41
1
10
25.180492055089
20
-3.67526329470829
30
0
41
1
10
25.4404237442311
20
-3.63665851578924
30
0
41
1
10
25.9610281545589
20
-3.54682991616659
30
0
41
1
10
26.221557415877
20
-3.49614816316995
30
0
41
1
10
26.7428894561561
20
-3.38451744670203
30
0
41
1
10
27.0034975101959
20
-3.32348919095563
30
0
41
1
10
27.5241989724107
20
-3.18955835737708
30
0
41
1
10
27.7844259726279
20
-3.11741506067759
30
0
41
1
10
28.2330513957863
20
-2.98518458480939
30
0
41
1
10
28.4214448835734
20
-2.92724138714402
30
0
41
1
10
28.6098695403602
20
-2.86673033916514
30
0
0
SPLINE
5
D2
100
AcDbEntity
8
1
62
256
6
ByLayer
370
18
48
1
60
0
100
AcDbSpline
70
4
71
3
72
32
73
28
40
0
40
0
40
0
40
0
40
0.0317949433602804
40
0.0317949433602804
40
0.106272255409488
40
0.106272255409488
40
0.180749567458697
40
0.180749567458697
40
0.255226879507904
40
0.255226879507904
40
0.404181503606323
40
0.404181503606323
40
0.478658815655533
40
0.478658815655533
40
0.553136127704742
40
0.553136127704742
40
0.627613439753952
40
0.627613439753952
40
0.702090751803162
40
0.702090751803162
40
0.776568063852371
40
0.776568063852371
40
0.85104537590158
40
0.85104537590158
40
0.92552268795079
40
0.92552268795079
40
1
40
1
40
1
40
1
41
1
10
48.0103944211362
20
3.85243051640387
30
0
41
1
10
48.1216635073935
20
3.85114879065213
30
0
41
1
10
48.2328839701048
20
3.84870431992218
30
0
41
1
10
48.6042282304331
20
3.8363823523724
30
0
41
1
10
48.8639438061312
20
3.82130972648417
30
0
41
1
10
49.383536278737
20
3.78057753808116
30
0
41
1
10
49.6434557982698
20
3.75545139647966
30
0
41
1
10
50.1636567039974
20
3.69077578090469
30
0
41
1
10
50.4239306310714
20
3.65176127598184
30
0
41
1
10
51.2055783004223
20
3.51625749513494
30
0
41
1
10
51.7263320250266
20
3.40299506282995
30
0
41
1
10
52.5060775130027
20
3.20323595642034
30
0
41
1
10
52.7657028236363
20
3.13161433016006
30
0
41
1
10
53.2860209561647
20
2.97905930051655
30
0
41
1
10
53.5466832661487
20
2.89763217121845
30
0
41
1
10
54.0682494179264
20
2.72468521975847
30
0
41
1
10
54.3283510120912
20
2.63335935915771
30
0
41
1
10
54.8483098559904
20
2.44305665778819
30
0
41
1
10
55.1083643085682
20
2.34433217532757
30
0
41
1
10
55.62846803151
20
2.13949674138388
30
0
41
1
10
55.8885298386103
20
2.03345270276589
30
0
41
1
10
56.4086859809435
20
1.81441767375281
30
0
41
1
10
56.6693550547388
20
1.70178671891657
30
0
41
1
10
57.1906700838171
20
1.47202679758155
30
0
41
1
10
57.4510175044918
20
1.35477743879341
30
0
41
1
10
57.9710974830917
20
1.11591152308313
30
0
41
1
10
58.2306856342155
20
0.994073065753042
30
0
41
1
10
58.4907611990882
20
0.871221468175321
30
0
0
SPLINE
5
D3
100
AcDbEntity
8
1
62
256
6
ByLayer
370
18
48
1
60
0
100
AcDbSpline
70
4
71
3
72
22
73
18
40
0
40
0
40
0
40
0
40
0.124999999999995
40
0.124999999999995
40
0.187499999999994
40
0.187499999999994
40
0.249999999999993
40
0.249999999999993
40
0.499999999999995
40
0.499999999999995
40
0.624999999999996
40
0.624999999999996
40
0.749999999999998
40
0.749999999999998
40
0.874999999999999
40
0.874999999999999
40
1
40
1
40
1
40
1
41
1
10
61.5940041093315
20
-3.86294196146693
30
0
41
1
10
61.535375339547
20
-3.86288741104397
30
0
41
1
10
61.479690076393
20
-3.85394372527654
30
0
41
1
10
61.4008115914389
20
-3.82648738137362
30
0
41
1
10
61.3752957582286
20
-3.81498880874102
30
0
41
1
10
61.3258862485732
20
-3.78709289039762
30
0
41
1
10
61.3019650311861
20
-3.77064773911434
30
0
41
1
10
61.1882787798338
20
-3.67708098908378
30
0
41
1
10
61.1145532713731
20
-3.56582581750942
30
0
41
1
10
61.0315150533501
20
-3.34071616887593
30
0
41
1
10
61.0084136604844
20
-3.25508943394195
30
0
41
1
10
60.9734289673941
20
-3.06869452898312
30
0
41
1
10
60.9613049915794
20
-2.96758738484323
30
0
41
1
10
60.9477561443106
20
-2.74960916728432
30
0
41
1
10
60.9463295135719
20
-2.63274068597397
30
0
41
1
10
60.9546596177581
20
-2.38252628940381
30
0
41
1
10
60.9643732510054
20
-2.25135969934598
30
0
41
1
10
60.9793567345691
20
-2.11541439435217
30
0
0
SPLINE
5
D4
100
AcDbEntity
8
1
62
256
6
ByLayer
370
18
48
1
60
0
100
AcDbSpline
70
4
71
3
72
8
73
4
40
0
40
0
40
0
40
0
40
1
40
1
40
1
40
1
41
1
10
4.13729793191166
20
-2.77873840918903
30
0
41
1
10
4.08640399949212
20
-2.76016210216571
30
0
41
1
10
4.0457993410472
20
-2.72938314713403
30
0
41
1
10
4.02228832265268
20
-2.69084461612078
30
0
0
SPLINE
5
D5
100
AcDbEntity
8
1
62
256
6
ByLayer
370
13
48
1
60
0
100
AcDbSpline
70
4
71
3
72
18
73
14
40
0
40
0
40
0
40
0
40
0.221042963496101
40
0.221042963496101
40
0.331564445244153
40
0.331564445244153
40
0.442085926992204
40
0.442085926992204
40
0.884171853984411
40
0.884171853984411
40
0.994693335732462
40
0.994693335732462
40
1
40
1
40
1
40
1
41
1
10
4.20594019386652
20
-2.74232652854772
30
0
41
1
10
4.80981630406981
20
-2.95621488706155
30
0
41
1
10
5.41230494029594
20
-3.14529966509807
30
0
41
1
10
6.31814615789514
20
-3.38712060061661
30
0
41
1
10
6.61999815467814
20
-3.46059303935689
30
0
41
1
10
7.22075424131165
20
-3.59183392647964
30
0
41
1
10
7.52018317315424
20
-3.64972407180611
30
0
41
1
10
9.01435252243269
20
-3.89935177787834
30
0
41
1
10
10.200109649355
20
-3.97183878590837
30
0
41
1
10
11.6993298822336
20
-3.89432071841747
30
0
41
1
10
12.0000353657639
20
-3.87044027413458
30
0
41
1
10
12.3164687619632
20
-3.83658278805206
30
0
41
1
10
12.3309644946798
20
-3.83501262672803
30
0
41
1
10
12.3454585194615
20
-3.83342353676852
30
0
0
SPLINE
5
D6
100
AcDbEntity
8
1
62
256
6
ByLayer
370
18
48
1
60
0
100
AcDbSpline
70
4
71
3
72
22
73
18
40
0
40
0
40
0
40
0
40
0.0044576233366584
40
0.0044576233366584
40
0.153057057127625
40
0.153057057127625
40
0.301656490918592
40
0.301656490918592
40
0.450255924709558
40
0.450255924709558
40
0.524555641605043
40
0.524555641605043
40
0.598855358500528
40
0.598855358500528
40
0.747454792291497
40
0.747454792291497
40
1
40
1
40
1
40
1
41
1
10
41.9001534813649
20
2.75991535717176
30
0
41
1
10
41.918201005085
20
2.75350949944371
30
0
41
1
10
41.9362430109854
20
2.74708396444689
30
0
41
1
10
42.5555176308649
20
2.52579481335499
30
0
41
1
10
43.1519317891588
20
2.28963287020477
30
0
41
1
10
44.340116440271
20
1.78410410246949
30
0
41
1
10
44.9323319549421
20
1.51557735680257
30
0
41
1
10
46.11780927802
20
0.956123744230069
30
0
41
1
10
46.7115096598312
20
0.666088179326152
30
0
41
1
10
47.6072845683361
20
0.2230008107218
30
0
41
1
10
47.9068056786693
20
0.0740992139521381
30
0
41
1
10
48.5084061323515
20
-0.224757551838394
30
0
41
1
10
48.8106053679803
20
-0.374776012042787
30
0
41
1
10
49.7107486058086
20
-0.818459073991846
30
0
41
1
10
50.3061846683846
20
-1.10724652060119
30
0
41
1
10
51.9087484817745
20
-1.85354488922167
30
0
41
1
10
52.9122973968277
20
-2.28802815994669
30
0
41
1
10
53.9247894737914
20
-2.66111750681085
30
0
0
SPLINE
5
D7
100
AcDbEntity
8
1
62
256
6
ByLayer
370
13
48
1
60
0
100
AcDbSpline
70
4
71
3
72
16
73
12
40
0
40
0
40
0
40
0
40
0.0698749118192333
40
0.0698749118192333
40
0.186140547841829
40
0.186140547841829
40
0.302406183864424
40
0.302406183864424
40
0.534937455909614
40
0.534937455909614
40
1
40
1
40
1
40
1
41
1
10
53.9247894737558
20
-2.66111750679772
30
0
41
1
10
54.1038127751381
20
-2.72708512087209
30
0
41
1
10
54.2831156699428
20
-2.79113335369686
30
0
41
1
10
54.7617181144079
20
-2.95625568272439
30
0
41
1
10
55.0616435183189
20
-3.05372569577779
30
0
41
1
10
55.6642179011793
20
-3.23603418789236
30
0
41
1
10
55.9655545902785
20
-3.32042824719738
30
0
41
1
10
56.8646910819949
20
-3.55053230599017
30
0
41
1
10
57.4600398738447
20
-3.67405137112809
30
0
41
1
10
59.2429540828693
20
-3.94935825088038
30
0
41
1
10
60.4278417855676
20
-4.00588244336035
30
0
41
1
10
61.6307775034514
20
-3.92589333853138
30
0
0
SPLINE
5
D8
100
AcDbEntity
8
1
62
256
6
ByLayer
370
18
48
1
60
0
100
AcDbSpline
70
4
71
3
72
52
73
48
40
0
40
0
40
0
40
0
40
0.0727405477777059
40
0.0727405477777059
40
0.109110821666558
40
0.109110821666558
40
0.145481095555411
40
0.145481095555411
40
0.181851369444264
40
0.181851369444264
40
0.218221643333116
40
0.218221643333116
40
0.254591917221969
40
0.254591917221969
40
0.290962191110821
40
0.290962191110821
40
0.363702738888526
40
0.363702738888526
40
0.436443286666231
40
0.436443286666231
40
0.472813560555085
40
0.472813560555085
40
0.509183834443938
40
0.509183834443938
40
0.545554108332792
40
0.545554108332792
40
0.581924382221645
40
0.581924382221645
40
0.618294656110498
40
0.618294656110498
40
0.654664929999351
40
0.654664929999351
40
0.727405477777058
40
0.727405477777058
40
0.800146025554765
40
0.800146025554765
40
0.836516299443619
40
0.836516299443619
40
0.872886573332473
40
0.872886573332473
40
0.909256847221327
40
0.909256847221327
40
0.945627121110181
40
0.945627121110181
40
0.981997394999036
40
0.981997394999036
40
1
40
1
40
1
40
1
41
1
10
14.5676288979436
20
3.32224073856716
30
0
41
1
10
15.0587560511134
20
3.18128709268473
30
0
41
1
10
15.550451258728
20
3.02441012099536
30
0
41
1
10
16.2859168088714
20
2.76225337669359
30
0
41
1
10
16.5304979713457
20
2.66994389333857
30
0
41
1
10
17.0213020360037
20
2.47957238923166
30
0
41
1
10
17.2672376368401
20
2.38110983691078
30
0
41
1
10
17.7596445874506
20
2.17697220752467
30
0
41
1
10
18.00521948627
20
2.07148672011237
30
0
41
1
10
18.4952443219103
20
1.85381672055877
30
0
41
1
10
18.7404298271011
20
1.74291586296991
30
0
41
1
10
19.2311594866838
20
1.51714243398348
30
0
41
1
10
19.47661803032
20
1.40211933457334
30
0
41
1
10
19.9673160818943
20
1.16698173584072
30
0
41
1
10
20.2123265190568
20
1.04632055372261
30
0
41
1
10
20.9502718255731
20
0.683266580964244
30
0
41
1
10
21.4416068422474
20
0.438827528537928
30
0
41
1
10
22.4207364819839
20
-0.0593939029114381
30
0
41
1
10
22.9122148731411
20
-0.306080332227992
30
0
41
1
10
23.6500175682446
20
-0.675983239710405
30
0
41
1
10
23.8949396700639
20
-0.799447269281814
30
0
41
1
10
24.3855672294148
20
-1.04119937132069
30
0
41
1
10
24.6309926070071
20
-1.16006259251799
30
0
41
1
10
25.1216175498448
20
-1.3946644185898
30
0
41
1
10
25.3667491138817
20
-1.51052639617376
30
0
41
1
10
25.8567056859576
20
-1.73916292166447
30
0
41
1
10
26.1023193833578
20
-1.85063056364405
30
0
41
1
10
26.5945643007774
20
-2.06758042063629
30
0
41
1
10
26.8403694731888
20
-2.17293451735202
30
0
41
1
10
27.3309391545406
20
-2.37807117172986
30
0
41
1
10
27.5754217842879
20
-2.47825500112074
30
0
41
1
10
28.3106741558858
20
-2.76499105131046
30
0
41
1
10
28.8021424652756
20
-2.94011635832055
30
0
41
1
10
29.7842924392202
20
-3.260623285306
30
0
41
1
10
30.2754540224973
20
-3.40041459032548
30
0
41
1
10
31.0106607481857
20
-3.58207628822484
30
0
41
1
10
31.2551373738835
20
-3.63814739620435
30
0
41
1
10
31.7457079222301
20
-3.73880281111175
30
0
41
1
10
31.9916354902496
20
-3.78369576756882
30
0
41
1
10
32.4837556707126
20
-3.86287997161392
30
0
41
1
10
32.7292383898627
20
-3.89709171330313
30
0
41
1
10
33.2190096527182
20
-3.95455123569741
30
0
41
1
10
33.4640191987466
20
-3.97746347584064
30
0
41
1
10
33.9545175387346
20
-4.01189442330698
30
0
41
1
10
34.1998854012454
20
-4.023464978753
30
0
41
1
10
34.5665826379314
20
-4.03227148932649
30
0
41
1
10
34.6879277180986
20
-4.03377773049863
30
0
41
1
10
34.8093348603413
20
-4.03386873650351
30
0
0
SPLINE
5
D9
100
AcDbEntity
8
1
62
256
6
ByLayer
370
18
48
1
60
0
100
AcDbSpline
70
4
71
3
72
26
73
22
40
0
40
0
40
0
40
0
40
0.0860902295781582
40
0.0860902295781582
40
0.177481206620343
40
0.177481206620343
40
0.268872183662527
40
0.268872183662527
40
0.360263160704712
40
0.360263160704712
40
0.451654137746897
40
0.451654137746897
40
0.634436091831262
40
0.634436091831262
40
0.725827068873446
40
0.725827068873446
40
0.817218045915631
40
0.817218045915631
40
0.908609022957815
40
0.908609022957815
40
1
40
1
40
1
40
1
41
1
10
53.6187581757789
20
2.8786186469157
30
0
41
1
10
53.8495459617239
20
2.96116664589937
30
0
41
1
10
54.080495147995
20
3.03961516246238
30
0
41
1
10
54.5565091922853
20
3.19358692551748
30
0
41
1
10
54.8015630982125
20
3.26863378449892
30
0
41
1
10
55.2912539400492
20
3.41033963941661
30
0
41
1
10
55.5367476349563
20
3.47630862975296
30
0
41
1
10
56.0282964023908
20
3.59751090343258
30
0
41
1
10
56.2738181626357
20
3.65289100526249
30
0
41
1
10
56.7639568880073
20
3.7535632730449
30
0
41
1
10
57.0082327648682
20
3.7990409776516
30
0
41
1
10
57.7426264360521
20
3.91800548564146
30
0
41
1
10
58.2342947366373
20
3.97500592112402
30
0
41
1
10
58.9701190838989
20
4.02721412297393
30
0
41
1
10
59.2152710539123
20
4.03875866466893
30
0
41
1
10
59.7061626768597
20
4.05030467686601
30
0
41
1
10
59.9516921835975
20
4.05036174869517
30
0
41
1
10
60.4425148761719
20
4.03895609748156
30
0
41
1
10
60.6876709842711
20
4.02735287195404
30
0
41
1
10
61.1785555844667
20
3.99279021127504
30
0
41
1
10
61.4241331467235
20
3.96992308691318
30
0
41
1
10
61.6695822059002
20
3.94147618146474
30
0
0
SPLINE
5
DA
100
AcDbEntity
8
1
62
256
6
ByLayer
370
18
48
1
60
0
100
AcDbSpline
70
4
71
3
72
10
73
6
40
0
40
0
40
0
40
0
40
0.860610860433749
40
0.860610860433749
40
1
40
1
40
1
40
1
41
1
10
61.5976928463963
20
4.01529299115182
30
0
41
1
10
61.2973273813751
20
4.03511560862293
30
0
41
1
10
60.9970203871713
20
4.04628443118528
30
0
41
1
10
60.6477504009927
20
4.04919712303729
30
0
41
1
10
60.5990444217663
20
4.04937471662808
30
0
41
1
10
60.5503262664764
20
4.04932449516238
30
0
0
SPLINE
5
DB
100
AcDbEntity
8
1
62
256
6
ByLayer
370
18
48
1
60
0
100
AcDbSpline
70
4
71
3
72
48
73
44
40
0
40
0
40
0
40
0
40
0.0547695009932875
40
0.0547695009932875
40
0.0875263108290259
40
0.0875263108290259
40
0.120283120664764
40
0.120283120664764
40
0.153039930500502
40
0.153039930500502
40
0.185796740336241
40
0.185796740336241
40
0.251310360007717
40
0.251310360007717
40
0.284067169843453
40
0.284067169843453
40
0.316823979679191
40
0.316823979679191
40
0.44785121902214
40
0.44785121902214
40
0.480608028857878
40
0.480608028857878
40
0.513364838693616
40
0.513364838693616
40
0.578878458365093
40
0.578878458365093
40
0.611635268200831
40
0.611635268200831
40
0.64439207803657
40
0.64439207803657
40
0.677148887872308
40
0.677148887872308
40
0.709905697708047
40
0.709905697708047
40
0.775419317379525
40
0.775419317379525
40
0.808176127215263
40
0.808176127215263
40
0.840932937051002
40
0.840932937051002
40
0.971960176393956
40
0.971960176393956
40
1
40
1
40
1
40
1
41
1
10
37.9968425251602
20
-3.84740866444926
30
0
41
1
10
37.4949735445696
20
-3.92396902111159
30
0
41
1
10
36.993302382969
20
-3.97752982983613
30
0
41
1
10
36.1889816537924
20
-4.0248183686621
30
0
41
1
10
35.8879535692943
20
-4.0338928348846
30
0
41
1
10
35.2870955941916
20
-4.03474456851575
30
0
41
1
10
34.9869509640087
20
-4.02654621740294
30
0
41
1
10
34.3865084533643
20
-3.99302551950007
30
0
41
1
10
34.0862122268844
20
-3.96769911392053
30
0
41
1
10
33.4846468256732
20
-3.90008956195874
30
0
41
1
10
33.1832159369549
20
-3.85774238156867
30
0
41
1
10
32.2813308678216
20
-3.70656594106387
30
0
41
1
10
31.6816535935247
20
-3.5734829239959
30
0
41
1
10
30.7799234909031
20
-3.32941483124884
30
0
41
1
10
30.4783174301697
20
-3.24046800050721
30
0
41
1
10
29.8773501280953
20
-3.04978222519827
30
0
41
1
10
29.5780115968168
20
-2.94807279808623
30
0
41
1
10
28.0850296450973
20
-2.41097401969787
30
0
41
1
10
26.9024387847639
20
-1.88989292808154
30
0
41
1
10
25.4093584493793
20
-1.17503365417016
30
0
41
1
10
25.1099772245609
20
-1.02894046693169
30
0
41
1
10
24.5088513648483
20
-0.732038103876874
30
0
41
1
10
24.2071990740501
20
-0.581156148173278
30
0
41
1
10
23.3053351628166
20
-0.127193841249977
30
0
41
1
10
22.705559516231
20
0.178241907465349
30
0
41
1
10
21.803409706892
20
0.631271195212349
30
0
41
1
10
21.5018946924529
20
0.781693632511065
30
0
41
1
10
20.9000974605574
20
1.07789069697131
30
0
41
1
10
20.5996506681377
20
1.22367927062467
30
0
41
1
10
19.998927749858
20
1.5092813680115
30
0
41
1
10
19.6986956881518
20
1.64917532791762
30
0
41
1
10
19.0976135353724
20
1.92152575534581
30
0
41
1
10
18.796472419899
20
2.05405721417861
30
0
41
1
10
17.8927680381402
20
2.43762953205567
30
0
41
1
10
17.2927297699397
20
2.67366119590869
30
0
41
1
10
16.3913286860366
20
2.99078178812064
30
0
41
1
10
16.090698794712
20
3.09042558555944
30
0
41
1
10
15.4882466779755
20
3.27634727007231
30
0
41
1
10
15.1874320128281
20
3.36228190756518
30
0
41
1
10
13.689980549759
20
3.75352436163448
30
0
41
1
10
12.5066443360928
20
3.94495174595761
30
0
41
1
10
11.0588310354845
20
4.01366692921886
30
0
41
1
10
10.8031931407142
20
4.01962249842919
30
0
41
1
10
10.5468791918279
20
4.01932356161578
30
0
0
SPLINE
5
DC
100
AcDbEntity
8
1
62
256
6
ByLayer
370
13
48
1
60
0
100
AcDbSpline
70
4
71
3
72
29
73
25
40
0
40
0
40
0
40
0
40
0.0624999999999999
40
0.0624999999999999
40
0.125
40
0.125
40
0.25
40
0.25
40
0.375
40
0.375
40
0.4375
40
0.4375
40
0.5
40
0.5
40
0.625
40
0.625
40
0.6875
40
0.6875
40
0.75
40
0.8125
40
0.8125
40
0.875
40
0.875
40
1
40
1
40
1
40
1
41
1
10
4.2503524706311
20
-2.60996635092576
30
0
41
1
10
4.25039626924433
20
-2.51636216722022
30
0
41
1
10
4.25043854479972
20
-2.41820419892113
30
0
41
1
10
4.25051942831374
20
-2.21577866750906
30
0
41
1
10
4.2505581218274
20
-2.11137453568853
30
0
41
1
10
4.25066991711924
20
-1.78880335434829
30
0
41
1
10
4.25073883183541
20
-1.5610983730478
30
0
41
1
10
4.2508692206948
20
-1.08092832734022
30
0
41
1
10
4.2509286947122
20
-0.836053184293036
30
0
41
1
10
4.25101269030097
20
-0.461834291711995
30
0
41
1
10
4.25103980140511
20
-0.335934922896627
30
0
41
1
10
4.25109262304073
20
-0.0817587175631616
30
0
41
1
10
4.25111834724692
20
0.0466453396266786
30
0
41
1
10
4.25119218181715
20
0.426852668927466
30
0
41
1
10
4.25123764800497
20
0.67656798980957
30
0
41
1
10
4.25130123248886
20
1.04552715821788
30
0
41
1
10
4.25132173377446
20
1.16816680322961
30
0
41
1
10
4.25136059676527
20
1.4084204477756
30
0
41
1
10
4.2513972098044
20
1.64287612559312
30
0
41
1
10
4.25142919041346
20
1.86599819626659
30
0
41
1
10
4.25145861045843
20
2.08341512542475
30
0
41
1
10
4.25147209455034
20
2.18974613648081
30
0
41
1
10
4.25150765260895
20
2.49633927300954
30
0
41
1
10
4.25152475881438
20
2.68263130306468
30
0
41
1
10
4.25153366289717
20
2.85133263209133
30
0
0
SPLINE
5
DD
100
AcDbEntity
8
1
62
256
6
ByLayer
370
18
48
1
60
0
100
AcDbSpline
70
4
71
3
72
8
73
4
40
0
40
0
40
0
40
0
40
1
40
1
40
1
40
1
41
1
10
61.5976928464017
20
-4.01529299115145
30
0
41
1
10
61.608731510377
20
-3.98550435567151
30
0
41
1
10
61.6197599140552
20
-3.95570396517604
30
0
41
1
10
61.6307775034514
20
-3.92589333853138
30
0
0
SPLINE
5
DE
100
AcDbEntity
8
1
62
256
6
ByLayer
370
18
48
1
60
0
100
AcDbSpline
70
4
71
3
72
24
73
20
40
0
40
0
40
0
40
0
40
0.0576740238459918
40
0.0576740238459918
40
0.125766081834323
40
0.125766081834323
40
0.193858139822654
40
0.193858139822654
40
0.466226371775977
40
0.466226371775977
40
0.602410487752639
40
0.602410487752639
40
0.636456516746805
40
0.636456516746805
40
0.670502545740971
40
0.670502545740971
40
0.738594603729306
40
0.738594603729306
40
1
40
1
40
1
40
1
41
1
10
16.0276130115907
20
3.04041399725776
30
0
41
1
10
16.2799701109858
20
2.96131931238989
30
0
41
1
10
16.5325062881797
20
2.87758976103635
30
0
41
1
10
17.0840886740196
20
2.68552202257885
30
0
41
1
10
17.3832640637035
20
2.57541674958634
30
0
41
1
10
17.9834103388937
20
2.34385266768109
30
0
41
1
10
18.2848679509143
20
2.22229830078609
30
0
41
1
10
19.7937713336776
20
1.59130419898332
30
0
41
1
10
20.9812580097503
20
1.02192432930644
30
0
41
1
10
22.768752551672
20
0.143041146649409
30
0
41
1
10
23.365544960275
20
-0.15422104931551
30
0
41
1
10
24.1164083669387
20
-0.523603333529849
30
0
41
1
10
24.2668302994256
20
-0.597357780088458
30
0
41
1
10
24.5682680467896
20
-0.744425758046447
30
0
41
1
10
24.7194014895061
20
-0.817793873771421
30
0
41
1
10
25.171380236932
20
-1.03575991195476
30
0
41
1
10
25.4714971572006
20
-1.17871132050021
30
0
41
1
10
26.9200627533244
20
-1.85521286095874
30
0
41
1
10
28.0580765429156
20
-2.34486747821484
30
0
41
1
10
29.2051798586045
20
-2.75226607072764
30
0
0
SPLINE
5
DF
100
AcDbEntity
8
1
62
256
6
ByLayer
370
13
48
1
60
0
100
AcDbSpline
70
4
71
3
72
22
73
18
40
0
40
0
40
0
40
0
40
0.0178058027480821
40
0.0178058027480821
40
0.128400706100764
40
0.128400706100764
40
0.238995609453446
40
0.238995609453446
40
0.46018541615881
40
0.46018541615881
40
0.681375222864173
40
0.681375222864173
40
0.791970126216857
40
0.791970126216857
40
0.902565029569541
40
0.902565029569541
40
1
40
1
40
1
40
1
41
1
10
29.20517985855
20
-2.75226607070832
30
0
41
1
10
29.2532871483959
20
-2.7693515780945
30
0
41
1
10
29.3014104249096
20
-2.78629241349927
30
0
41
1
10
29.6485617231312
20
-2.90739370798622
30
0
41
1
10
29.9482569834995
20
-3.0060112224408
30
0
41
1
10
30.5497784773047
20
-3.19064041737806
30
0
41
1
10
30.852029085118
20
-3.27676467172003
30
0
41
1
10
31.7566576176025
20
-3.51280675384962
30
0
41
1
10
32.3591137441927
20
-3.64106847167253
30
0
41
1
10
33.5662071433486
20
-3.83336024954596
30
0
41
1
10
34.1677592944913
20
-3.89695487780801
30
0
41
1
10
35.0716944229449
20
-3.94168505831232
30
0
41
1
10
35.3738638580826
20
-3.94813426042217
30
0
41
1
10
35.9762401964417
20
-3.94401454621462
30
0
41
1
10
36.2762530017474
20
-3.93349191712028
30
0
41
1
10
36.8391205359911
20
-3.89814689783128
30
0
41
1
10
37.1021440575674
20
-3.8751631737625
30
0
41
1
10
37.3648084378898
20
-3.84593172695347
30
0
0
SPLINE
5
E0
100
AcDbEntity
8
1
62
256
6
ByLayer
370
18
48
1
60
0
100
AcDbSpline
70
4
71
3
72
12
73
8
40
0
40
0
40
0
40
0
40
0.250000000000001
40
0.250000000000001
40
0.500000000000003
40
0.500000000000003
40
1
40
1
40
1
40
1
41
1
10
61.6307775034369
20
-3.92589333853235
30
0
41
1
10
61.6355897482509
20
-3.91287270141166
30
0
41
1
10
61.6401241056661
20
-3.89967614885973
30
0
41
1
10
61.6474887599017
20
-3.87591647255431
30
0
41
1
10
61.6503009540544
20
-3.86538718653074
30
0
41
1
10
61.6551456905141
20
-3.84164822132129
30
0
41
1
10
61.6536102807092
20
-3.83697714414947
30
0
41
1
10
61.6494746960588
20
-3.83996427989186
30
0
0
SPLINE
5
E1
100
AcDbEntity
8
1
62
256
6
ByLayer
370
18
48
1
60
0
100
AcDbSpline
70
4
71
3
72
22
73
18
40
0
40
0
40
0
40
0
40
0.249999999999984
40
0.249999999999984
40
0.499999999999969
40
0.499999999999969
40
0.624999999999961
40
0.624999999999961
40
0.687499999999969
40
0.687499999999969
40
0.749999999999977
40
0.749999999999977
40
0.812499999999985
40
0.812499999999985
40
0.874999999999993
40
0.874999999999993
40
1
40
1
40
1
40
1
41
1
10
61.3414970399924
20
1.24484325232115
30
0
41
1
10
61.4577952347208
20
1.27108141160829
30
0
41
1
10
61.5730683326143
20
1.30070457079915
30
0
41
1
10
61.8001114698218
20
1.37186158624613
30
0
41
1
10
61.9115164932635
20
1.41293720587441
30
0
41
1
10
62.0703593512031
20
1.49186817550873
30
0
41
1
10
62.122294271257
20
1.52137658389719
30
0
41
1
10
62.1953009180369
20
1.57225627303549
30
0
41
1
10
62.218790849018
20
1.5903066731139
30
0
41
1
10
62.263557021775
20
1.62928414046706
30
0
41
1
10
62.2849369700101
20
1.65035604144978
30
0
41
1
10
62.3235777990342
20
1.69508194930631
30
0
41
1
10
62.3409680026301
20
1.71881670458436
30
0
41
1
10
62.3709211888676
20
1.7697450819031
30
0
41
1
10
62.3835977137681
20
1.79739073041793
30
0
41
1
10
62.4111545723781
20
1.88286445646193
30
0
41
1
10
62.4155099727811
20
1.94444815519302
30
0
41
1
10
62.4078085867093
20
2.00409261853352
30
0
0
SPLINE
5
E2
100
AcDbEntity
8
1
62
256
6
ByLayer
370
18
48
1
60
0
100
AcDbSpline
70
4
71
3
72
82
73
78
40
0
40
0
40
0
40
0
40
0.0217651634067407
40
0.0217651634067407
40
0.068923783268533
40
0.068923783268533
40
0.0925030931994297
40
0.0925030931994297
40
0.116082403130326
40
0.116082403130326
40
0.139661713061223
40
0.139661713061223
40
0.16324102299212
40
0.16324102299212
40
0.186820332923016
40
0.186820332923016
40
0.210399642853913
40
0.210399642853913
40
0.257558262715706
40
0.257558262715706
40
0.281137572646603
40
0.281137572646603
40
0.3047168825775
40
0.3047168825775
40
0.328296192508396
40
0.328296192508396
40
0.351875502439293
40
0.351875502439293
40
0.37545481237019
40
0.37545481237019
40
0.399034122301086
40
0.399034122301086
40
0.422613432231983
40
0.422613432231983
40
0.44619274216288
40
0.44619274216288
40
0.493351362024673
40
0.493351362024673
40
0.51693067195557
40
0.51693067195557
40
0.540509981886467
40
0.540509981886467
40
0.564089291817364
40
0.564089291817364
40
0.587668601748262
40
0.587668601748262
40
0.611247911679159
40
0.611247911679159
40
0.634827221610056
40
0.634827221610056
40
0.658406531540953
40
0.658406531540953
40
0.68198584147185
40
0.68198584147185
40
0.729144461333646
40
0.729144461333646
40
0.752723771264543
40
0.752723771264543
40
0.776303081195441
40
0.776303081195441
40
0.799882391126339
40
0.799882391126339
40
0.823461701057236
40
0.823461701057236
40
0.847041010988134
40
0.847041010988134
40
0.870620320919032
40
0.870620320919032
40
0.894199630849929
40
0.894199630849929
40
0.917778940780827
40
0.917778940780827
40
0.964937560642624
40
0.964937560642624
40
0.988516870573522
40
0.988516870573522
40
1
40
1
40
1
40
1
41
1
10
28.6131936447029
20
2.86886636064477
30
0
41
1
10
28.8398410435244
20
2.94927808623319
30
0
41
1
10
29.0665711388541
20
3.02640788591191
30
0
41
1
10
29.7842924392202
20
3.26062328530602
30
0
41
1
10
30.2754540224973
20
3.40041459032548
30
0
41
1
10
31.0106607481856
20
3.58207628822484
30
0
41
1
10
31.2551373738835
20
3.63814739620435
30
0
41
1
10
31.7457079222301
20
3.73880281111175
30
0
41
1
10
31.9916354902496
20
3.78369576756882
30
0
41
1
10
32.4837556707126
20
3.86287997161392
30
0
41
1
10
32.7292383898628
20
3.89709171330313
30
0
41
1
10
33.2190096527182
20
3.95455123569741
30
0
41
1
10
33.4640191987465
20
3.97746347584064
30
0
41
1
10
33.9545175387346
20
4.01189442330698
30
0
41
1
10
34.1998854012453
20
4.023464978753
30
0
41
1
10
34.6904564066756
20
4.03524641126501
30
0
41
1
10
34.9354698602389
20
4.03538400142619
30
0
41
1
10
35.6728781759691
20
4.01839683489777
30
0
41
1
10
36.1640358560243
20
3.9845021246646
30
0
41
1
10
36.8980695303148
20
3.89902026258835
30
0
41
1
10
37.1430680421028
20
3.86501929192454
30
0
41
1
10
37.634002585079
20
3.78642462940019
30
0
41
1
10
37.879928364846
20
3.74174282404786
30
0
41
1
10
38.3715375119051
20
3.64128552706154
30
0
41
1
10
38.6163213078949
20
3.58530023128003
30
0
41
1
10
39.1066265815721
20
3.4643454410481
30
0
41
1
10
39.3519269910131
20
3.39924490888268
30
0
41
1
10
39.8423510379744
20
3.25943082985006
30
0
41
1
10
40.0874376974393
20
3.18466734340922
30
0
41
1
10
40.5772374555583
20
3.02499370826069
30
0
41
1
10
40.8227898552428
20
2.94091708777569
30
0
41
1
10
41.3147069143429
20
2.76526051046889
30
0
41
1
10
41.560375983426
20
2.67369492171028
30
0
41
1
10
42.0507334060497
20
2.48248385389564
30
0
41
1
10
42.2951044752613
20
2.38229650612121
30
0
41
1
10
43.0299388849792
20
2.07454944402574
30
0
41
1
10
43.5215111551943
20
1.85847353396116
30
0
41
1
10
44.2576737844262
20
1.51442732701838
30
0
41
1
10
44.5029152945282
20
1.39805545258477
30
0
41
1
10
44.9935694885922
20
1.16288678756257
30
0
41
1
10
45.2388278722603
20
1.04380519859683
30
0
41
1
10
45.7288042678325
20
0.801861427587312
30
0
41
1
10
45.9731986520821
20
0.678351954129624
30
0
41
1
10
46.463539759344
20
0.431584369414907
30
0
41
1
10
46.7094747838185
20
0.307906524913818
30
0
41
1
10
47.2012897276334
20
0.0595489472400743
30
0
41
1
10
47.44667979255
20
-0.0649380255294716
30
0
41
1
10
47.9362058459206
20
-0.314937093621467
30
0
41
1
10
48.1810201168438
20
-0.439100872607526
30
0
41
1
10
48.6712861624077
20
-0.684741166679856
30
0
41
1
10
48.9165705075268
20
-0.806549487922467
30
0
41
1
10
49.4070426092092
20
-1.04890453878218
30
0
41
1
10
49.652091432701
20
-1.17016360924603
30
0
41
1
10
50.3888949010438
20
-1.52544772405622
30
0
41
1
10
50.8798694660152
20
-1.75178332674562
30
0
41
1
10
51.61362815332
20
-2.07971847548942
30
0
41
1
10
51.8584559530039
20
-2.18585513068203
30
0
41
1
10
52.3492183530655
20
-2.39084351330558
30
0
41
1
10
52.5951745356152
20
-2.4900880179537
30
0
41
1
10
53.0865026194468
20
-2.68209145685916
30
0
41
1
10
53.3311539668698
20
-2.77515609506682
30
0
41
1
10
53.8211057640839
20
-2.95149192013491
30
0
41
1
10
54.0662782611134
20
-3.03501656045771
30
0
41
1
10
54.5565091922853
20
-3.19358692551745
30
0
41
1
10
54.8015630982124
20
-3.26863378449889
30
0
41
1
10
55.2912539400491
20
-3.41033963941661
30
0
41
1
10
55.5367476349563
20
-3.47630862975296
30
0
41
1
10
56.0282964023907
20
-3.59751090343255
30
0
41
1
10
56.2738181626356
20
-3.65289100526249
30
0
41
1
10
56.7639568880072
20
-3.75356327304487
30
0
41
1
10
57.0082327648681
20
-3.7990409776516
30
0
41
1
10
57.7426264360521
20
-3.91800548564146
30
0
41
1
10
58.2342947366372
20
-3.97500592112399
30
0
41
1
10
58.9701190838988
20
-4.0272141229739
30
0
41
1
10
59.2152710539123
20
-4.03875866466893
30
0
41
1
10
59.5802490327225
20
-4.04734312608164
30
0
41
1
10
59.6998010500001
20
-4.04879893768478
30
0
41
1
10
59.8193496025872
20
-4.04889402776661
30
0
0
SPLINE
5
E3
100
AcDbEntity
8
1
62
256
6
ByLayer
370
13
48
1
60
0
100
AcDbSpline
70
4
71
3
72
8
73
4
40
0
40
0
40
0
40
0
40
1
40
1
40
1
40
1
41
1
10
4.13729793191169
20
-2.77873840918795
30
0
41
1
10
4.13784476288708
20
-2.76228756958034
30
0
41
1
10
4.13839462157847
20
-2.74583421401073
30
0
41
1
10
4.13894750721872
20
-2.72937828316867
30
0
0
SPLINE
5
E4
100
AcDbEntity
8
1
62
256
6
ByLayer
370
18
48
1
60
0
100
AcDbSpline
70
4
71
3
72
36
73
32
40
0
40
0
40
0
40
0
40
0.250000000000003
40
0.250000000000003
40
0.375000000000005
40
0.375000000000005
40
0.500000000000007
40
0.500000000000007
40
0.625000000000008
40
0.625000000000008
40
0.687500000000012
40
0.687500000000012
40
0.718750000000011
40
0.718750000000011
40
0.75000000000001
40
0.75000000000001
40
0.781250000000009
40
0.781250000000009
40
0.812500000000007
40
0.812500000000007
40
0.843750000000006
40
0.843750000000006
40
0.875000000000005
40
0.875000000000005
40
0.906250000000004
40
0.906250000000004
40
0.937500000000002
40
0.937500000000002
40
0.968750000000001
40
0.968750000000001
40
1
40
1
40
1
40
1
41
1
10
58.4907611990883
20
0.871221468175293
30
0
41
1
10
58.7773050256371
20
0.710295744669622
30
0
41
1
10
59.0643838848337
20
0.567123180565744
30
0
41
1
10
59.4962183302352
20
0.392718174856498
30
0
41
1
10
59.6403657130119
20
0.341304661199331
30
0
41
1
10
59.9291415606101
20
0.254440634024036
30
0
41
1
10
60.0729138864224
20
0.219324787696138
30
0
41
1
10
60.3552948370252
20
0.168636612630792
30
0
41
1
10
60.4944377670711
20
0.152884862743264
30
0
41
1
10
60.6996824084402
20
0.14551233603035
30
0
41
1
10
60.7675747170854
20
0.145767038626076
30
0
41
1
10
60.8678461690362
20
0.150469904457651
30
0
41
1
10
60.9012090210393
20
0.152289898136331
30
0
41
1
10
60.9663362410065
20
0.16012843676117
30
0
41
1
10
60.998123434106
20
0.166112082748299
30
0
41
1
10
61.0587813234154
20
0.183268858827717
30
0
41
1
10
61.0877503329882
20
0.194427389568944
30
0
41
1
10
61.1419869893101
20
0.223766877637672
30
0
41
1
10
61.1673307052699
20
0.242148376830812
30
0
41
1
10
61.2119836394655
20
0.285290065100952
30
0
41
1
10
61.2315638062234
20
0.3101309122749
30
0
41
1
10
61.264625669813
20
0.367074017511015
30
0
41
1
10
61.2777411373678
20
0.398867385055041
30
0
41
1
10
61.2961121334379
20
0.467281003575408
30
0
41
1
10
61.3015442934537
20
0.504381985079931
30
0
41
1
10
61.3045850033305
20
0.583178830985418
30
0
41
1
10
61.3021301802389
20
0.623873066623929
30
0
41
1
10
61.2905891054527
20
0.707423224558227
30
0
41
1
10
61.2814774013699
20
0.750422006150757
30
0
41
1
10
61.2588250107598
20
0.836186501430262
30
0
41
1
10
61.245180721153
20
0.879270260110815
30
0
41
1
10
61.2297659069733
20
0.922280272175044
30
0
0
SPLINE
5
E5
100
AcDbEntity
8
1
62
256
6
ByLayer
370
18
48
1
60
0
100
AcDbSpline
70
4
71
3
72
16
73
12
40
0
40
0
40
0
40
0
40
0.0181974145694211
40
0.0181974145694211
40
0.191505865767688
40
0.191505865767688
40
0.53812276816423
40
0.53812276816423
40
0.884739670560772
40
0.884739670560772
40
1
40
1
40
1
40
1
41
1
10
35.7969112990546
20
-3.84760423050946
30
0
41
1
10
35.765330344059
20
-3.84761618081794
30
0
41
1
10
35.7337372730432
20
-3.8475372898935
30
0
41
1
10
35.4011260004431
20
-3.84574899393701
30
0
41
1
10
35.0992461044234
20
-3.83583360432601
30
0
41
1
10
34.1960553347722
20
-3.78147224371813
30
0
41
1
10
33.5948943111039
20
-3.71247177992805
30
0
41
1
10
32.3887619965616
20
-3.5115758258421
30
0
41
1
10
31.7868055436393
20
-3.38018034392377
30
0
41
1
10
30.9838124567691
20
-3.16787793858245
30
0
41
1
10
30.7831351855636
20
-3.1117449525226
30
0
41
1
10
30.5827827883265
20
-3.05282455815876
30
0
0
SPLINE
5
E6
100
AcDbEntity
8
1
62
256
6
ByLayer
370
13
48
1
60
0
100
AcDbSpline
70
4
71
3
72
20
73
16
40
0
40
0
40
0
40
0
40
0.0258363597241855
40
0.0258363597241855
40
0.102973385868583
40
0.102973385868583
40
0.411521490446182
40
0.411521490446182
40
0.488658516590583
40
0.488658516590583
40
0.565795542734984
40
0.565795542734984
40
0.720069595023788
40
0.720069595023788
40
1
40
1
40
1
40
1
41
1
10
30.5827827885049
20
-3.05282455821123
30
0
41
1
10
30.4818800719069
20
-3.02315070386186
30
0
41
1
10
30.381059756131
20
-2.99276985308228
30
0
41
1
10
29.9798729825237
20
-2.86905249499711
30
0
41
1
10
29.6803646571926
20
-2.77035845219098
30
0
41
1
10
28.1861154729237
20
-2.24979640472978
30
0
41
1
10
27.0009176867898
20
-1.74704859296597
30
0
41
1
10
25.5048441155
20
-1.06019764790361
30
0
41
1
10
25.2048815603764
20
-0.919969816611967
30
0
41
1
10
24.6026365330289
20
-0.635363361986293
30
0
41
1
10
24.3007826254775
20
-0.490992880396618
30
0
41
1
10
23.4003989740557
20
-0.058061381650873
30
0
41
1
10
22.8038305446517
20
0.231491419812499
30
0
41
1
10
21.1274307979708
20
1.03274455216791
30
0
41
1
10
20.0498581445397
20
1.53349176587687
30
0
41
1
10
18.9585335819539
20
1.98356892866022
30
0
0
SPLINE
5
E7
100
AcDbEntity
8
1
62
256
6
ByLayer
370
13
48
1
60
0
100
AcDbSpline
70
4
71
3
72
8
73
4
40
0
40
0
40
0
40
0
40
1
40
1
40
1
40
1
41
1
10
4.13894750721869
20
-2.72937828316867
30
0
41
1
10
4.16011327531044
20
-2.72971216536433
30
0
41
1
10
4.18278191738113
20
-2.73412404187906
30
0
41
1
10
4.20594019386652
20
-2.74232652854772
30
0
0
SPLINE
5
E8
100
AcDbEntity
8
1
62
256
6
ByLayer
370
18
48
1
60
0
100
AcDbSpline
70
4
71
3
72
42
73
38
40
0
40
0
40
0
40
0
40
0.0344589937584457
40
0.0344589937584457
40
0.0689179875168914
40
0.0689179875168914
40
0.137835975033783
40
0.137835975033783
40
0.275671950067566
40
0.275671950067566
40
0.310130943826012
40
0.310130943826012
40
0.344589937584458
40
0.344589937584458
40
0.379048931342904
40
0.379048931342904
40
0.41350792510135
40
0.41350792510135
40
0.551343900135131
40
0.551343900135131
40
0.620261887652022
40
0.620261887652022
40
0.654720881410468
40
0.654720881410468
40
0.689179875168913
40
0.689179875168913
40
0.827015850202693
40
0.827015850202693
40
0.861474843961139
40
0.861474843961139
40
0.895933837719584
40
0.895933837719584
40
0.964851825236476
40
0.964851825236476
40
0.999310818994922
40
0.999310818994922
40
1
40
1
40
1
40
1
41
1
10
61.5976928464017
20
-4.01529299115145
30
0
41
1
10
61.2969425347066
20
-4.03514100657713
30
0
41
1
10
60.9963683698496
20
-4.04630529125362
30
0
41
1
10
60.3948953856537
20
-4.05129031082885
30
0
41
1
10
60.0936441893535
20
-4.0450916370599
30
0
41
1
10
59.1907410178077
20
-4.00054732112952
30
0
41
1
10
58.5936558833787
20
-3.93654552169662
30
0
41
1
10
56.8080986142737
20
-3.64853584549539
30
0
41
1
10
55.6248820641522
20
-3.32842221888637
30
0
41
1
10
54.1245160402658
20
-2.79659177626363
30
0
41
1
10
53.8228292728614
20
-2.68344932039119
30
0
41
1
10
53.2212139150404
20
-2.44679781730002
30
0
41
1
10
52.9208743228662
20
-2.32315462982083
30
0
41
1
10
52.3203658311605
20
-2.06649950416576
30
0
41
1
10
52.0201668459834
20
-1.93353666494375
30
0
41
1
10
51.419068577098
20
-1.65972487741831
30
0
41
1
10
51.117644085924
20
-1.51862867005627
30
0
41
1
10
49.6131620625647
20
-0.799724436323231
30
0
41
1
10
48.4287080432803
20
-0.186858437175147
30
0
41
1
10
46.6438914582602
20
0.714806858197079
30
0
41
1
10
46.0474921698185
20
1.01221350457678
30
0
41
1
10
45.1466157145644
20
1.44536556456396
30
0
41
1
10
44.8447039489884
20
1.58760503711562
30
0
41
1
10
44.244456518817
20
1.8628544305258
30
0
41
1
10
43.9453958220694
20
1.99630227075661
30
0
41
1
10
42.4537649734735
20
2.64010440386613
30
0
41
1
10
41.2708673054183
20
3.07758560234751
30
0
41
1
10
39.7759015035415
20
3.48483583603422
30
0
41
1
10
39.4760846832196
20
3.55930547033944
30
0
41
1
10
38.8739430827348
20
3.69314866486067
30
0
41
1
10
38.5725211526652
20
3.75229631303245
30
0
41
1
10
37.6705897806661
20
3.90488942308352
30
0
41
1
10
37.0705269716027
20
3.97379185469654
30
0
41
1
10
36.1675755229078
20
4.02565393304448
30
0
41
1
10
35.8657991437756
20
4.03432750866821
30
0
41
1
10
35.5596323923637
20
4.03433460869852
30
0
41
1
10
35.5536295231084
20
4.03433130470185
30
0
41
1
10
35.5476270610221
20
4.03432455901199
30
0
0
SPLINE
5
E9
100
AcDbEntity
8
1
62
256
6
ByLayer
370
18
48
1
60
0
100
AcDbSpline
70
4
71
3
72
18
73
14
40
0
40
0
40
0
40
0
40
0.0741705369087371
40
0.0741705369087371
40
0.177040477252211
40
0.177040477252211
40
0.588520238626107
40
0.588520238626107
40
0.691390178969581
40
0.691390178969581
40
0.794260119313055
40
0.794260119313055
40
1
40
1
40
1
40
1
41
1
10
12.8743639749581
20
-3.8512721538994
30
0
41
1
10
12.6580013481947
20
-3.88255100177966
30
0
41
1
10
12.4411100861131
20
-3.90963356111661
30
0
41
1
10
11.9219583158399
20
-3.96389337661088
30
0
41
1
10
11.6215696325963
20
-3.98680468196062
30
0
41
1
10
10.124077821511
20
-4.05863705190239
30
0
41
1
10
8.94006360373973
20
-3.97892921917935
30
0
41
1
10
7.44762163160709
20
-3.71758649425451
30
0
41
1
10
7.14852796235786
20
-3.65724593931174
30
0
41
1
10
6.54833634318371
20
-3.52079003394667
30
0
41
1
10
6.2466468486295
20
-3.44452151264235
30
0
41
1
10
5.34212112795012
20
-3.19414692848957
30
0
41
1
10
4.7404373312138
20
-2.99888454698302
30
0
41
1
10
4.13729793191177
20
-2.77873840918909
30
0
0
SPLINE
5
EA
100
AcDbEntity
8
1
62
256
6
ByLayer
370
18
48
1
60
0
100
AcDbSpline
70
4
71
3
72
14
73
10
40
0
40
0
40
0
40
0
40
0.25
40
0.25
40
0.5
40
0.5
40
0.75
40
0.75
40
1
40
1
40
1
40
1
41
1
10
61.2297659069734
20
0.922280272175044
30
0
41
1
10
61.2188968951186
20
0.952606705277162
30
0
41
1
10
61.2107777159877
20
0.984068836737208
30
0
41
1
10
61.2017438308777
20
1.04882116805771
30
0
41
1
10
61.200081993511
20
1.08198049209062
30
0
41
1
10
61.2135721763731
20
1.14672526243177
30
0
41
1
10
61.2293872304207
20
1.17768397859143
30
0
41
1
10
61.2775217696542
20
1.22314535802406
30
0
41
1
10
61.3090126792915
20
1.23751442118657
30
0
41
1
10
61.3414970399923
20
1.24484325232109
30
0
0
SPLINE
5
EB
100
AcDbEntity
8
1
62
256
6
ByLayer
370
18
48
1
60
0
100
AcDbSpline
70
2053
71
3
72
62
73
58
40
0
40
0
40
0
40
0
40
0.0312499999999989
40
0.0312499999999989
40
0.0624999999999978
40
0.0624999999999978
40
0.0937499999999966
40
0.0937499999999966
40
0.124999999999996
40
0.124999999999996
40
0.156249999999994
40
0.156249999999994
40
0.187499999999993
40
0.187499999999993
40
0.218749999999992
40
0.218749999999992
40
0.249999999999991
40
0.249999999999991
40
0.28124999999999
40
0.28124999999999
40
0.312499999999989
40
0.312499999999989
40
0.37499999999999
40
0.37499999999999
40
0.43749999999999
40
0.43749999999999
40
0.468749999999991
40
0.468749999999991
40
0.499999999999991
40
0.499999999999991
40
0.531249999999991
40
0.531249999999991
40
0.562499999999992
40
0.562499999999992
40
0.593749999999992
40
0.593749999999992
40
0.624999999999993
40
0.624999999999993
40
0.656249999999993
40
0.656249999999993
40
0.687499999999994
40
0.687499999999994
40
0.718749999999994
40
0.718749999999994
40
0.749999999999994
40
0.749999999999994
40
0.812499999999997
40
0.812499999999997
40
0.843749999999998
40
0.843749999999998
40
0.874999999999999
40
0.874999999999999
40
0.906250000000001
40
0.906250000000001
40
0.937500000000002
40
0.937500000000002
40
1
40
1
40
1
40
1
41
1
10
61.739829902226
20
-1.55116121839062
30
0
41
1
10
61.717078154329
20
-1.58343644638543
30
0
41
1
10
61.6947859319291
20
-1.61804828372326
30
0
41
1
10
61.651196548288
20
-1.69233164497308
30
0
41
1
10
61.6296667356624
20
-1.73248407641231
30
0
41
1
10
61.5890641001162
20
-1.81632286016733
30
0
41
1
10
61.5700653767416
20
-1.8597446702521
30
0
41
1
10
61.5350421630253
20
-1.95001878410946
30
0
41
1
10
61.5193614146986
20
-1.9961424871029
30
0
41
1
10
61.4931326230533
20
-2.08673859266781
30
0
41
1
10
61.4822612510241
20
-2.13248770046059
30
0
41
1
10
61.4666916252176
20
-2.21862764426317
30
0
41
1
10
61.4618368928065
20
-2.25941573960603
30
0
41
1
10
61.4580207219473
20
-2.33507766255909
30
0
41
1
10
61.4590782219982
20
-2.3688425985473
30
0
41
1
10
61.4664820256202
20
-2.42912115031817
30
0
41
1
10
61.4728244807453
20
-2.45513338281066
30
0
41
1
10
61.4897604771267
20
-2.49860588793538
30
0
41
1
10
61.5005091331342
20
-2.51638174251349
30
0
41
1
10
61.5252380664018
20
-2.54354813524242
30
0
41
1
10
61.5392492001512
20
-2.55312676592726
30
0
41
1
10
61.5858123280759
20
-2.57084671686277
30
0
41
1
10
61.6217540140405
20
-2.56776433789994
30
0
41
1
10
61.7011962693186
20
-2.53512478887231
30
0
41
1
10
61.7433246404915
20
-2.5061889915888
30
0
41
1
10
61.809748274511
20
-2.44423563848716
30
0
41
1
10
61.8323677344928
20
-2.42044620936102
30
0
41
1
10
61.8772710521343
20
-2.36782347228672
30
0
41
1
10
61.8997335857437
20
-2.3388357210269
30
0
41
1
10
61.9446823447358
20
-2.27502946010264
30
0
41
1
10
61.9673986856748
20
-2.2397988623174
30
0
41
1
10
62.0112218395868
20
-2.16515531361546
30
0
41
1
10
62.0324255045434
20
-2.12568133856397
30
0
41
1
10
62.0732110004477
20
-2.04180267349736
30
0
41
1
10
62.0926378562211
20
-1.99759927640679
30
0
41
1
10
62.1276596706839
20
-1.90795277609334
30
0
41
1
10
62.1436927001752
20
-1.86130117837052
30
0
41
1
10
62.1704077206974
20
-1.77003030231626
30
0
41
1
10
62.1812127433658
20
-1.72531440160699
30
0
41
1
10
62.1973454089534
20
-1.6378558341026
30
0
41
1
10
62.2023096198095
20
-1.59698021892805
30
0
41
1
10
62.2063340951373
20
-1.52144566247978
30
0
41
1
10
62.2053188393103
20
-1.48689707527166
30
0
41
1
10
62.1979510358236
20
-1.42682772230572
30
0
41
1
10
62.191524648046
20
-1.40062348759787
30
0
41
1
10
62.165862846486
20
-1.33562513699363
30
0
41
1
10
62.1399890531652
20
-1.30914119894246
30
0
41
1
10
62.0934286986924
20
-1.29200656764459
30
0
41
1
10
62.076383368056
20
-1.28998746838624
30
0
41
1
10
62.0405017011415
20
-1.29292149400197
30
0
41
1
10
62.0216368198766
20
-1.2978066212907
30
0
41
1
10
61.9821536442072
20
-1.31406286803497
30
0
41
1
10
61.961376474266
20
-1.32556231834164
30
0
41
1
10
61.9190707655288
20
-1.3545285624831
30
0
41
1
10
61.8974998260514
20
-1.37196740171615
30
0
41
1
10
61.8315235058352
20
-1.43321644016766
30
0
41
1
10
61.7853333980202
20
-1.486610762401
30
0
41
1
10
61.739829902226
20
-1.55116121839062
30
0
0
SPLINE
5
EC
100
AcDbEntity
8
SK1
62
256
6
ByLayer
370
18
48
1
60
0
100
AcDbSpline
70
4
71
3
72
16
73
12
40
0
40
0
40
0
40
0
40
0.25
40
0.25
40
0.375
40
0.375
40
0.5
40
0.5
40
0.75
40
0.75
40
1
40
1
40
1
40
1
41
1
10
-14.3360135685352
20
-1.23367723920302
30
0
41
1
10
-14.2510493872194
20
-1.23750647124967
30
0
41
1
10
-14.1676548474017
20
-1.22976954155044
30
0
41
1
10
-14.044794828778
20
-1.20166068610266
30
0
41
1
10
-14.0039626443289
20
-1.18938434794271
30
0
41
1
10
-13.9252581667302
20
-1.1599717551081
30
0
41
1
10
-13.8871736929697
20
-1.14282389909485
30
0
41
1
10
-13.776486816636
20
-1.08445778171267
30
0
41
1
10
-13.7068582487892
20
-1.03567269511979
30
0
41
1
10
-13.582044101845
20
-0.925538039546382
30
0
41
1
10
-13.5261070970743
20
-0.863971457576497
30
0
41
1
10
-13.4757361404171
20
-0.796667725346367
30
0
0
SPLINE
5
ED
100
AcDbEntity
8
SK1
62
256
6
ByLayer
370
18
48
1
60
0
100
AcDbSpline
70
4
71
3
72
14
73
10
40
0
40
0
40
0
40
0
40
0.5
40
0.5
40
0.75
40
0.75
40
0.875
40
0.875
40
1
40
1
40
1
40
1
41
1
10
-38.9500000000001
20
-4.47195469065016
30
0
41
1
10
-38.9287234691649
20
-4.50246847971604
30
0
41
1
10
-38.9083432483059
20
-4.52933514092845
30
0
41
1
10
-38.880223151313
20
-4.56115691475966
30
0
41
1
10
-38.8713218079587
20
-4.57023385889445
30
0
41
1
10
-38.8602667834558
20
-4.57852251006133
30
0
41
1
10
-38.8569157654531
20
-4.58043450661742
30
0
41
1
10
-38.851744720606
20
-4.58090995271473
30
0
41
1
10
-38.8499999999999
20
-4.57937559625341
30
0
41
1
10
-38.8499999999999
20
-4.57495113076931
30
0
0
SPLINE
5
EE
100
AcDbEntity
8
SK1
62
256
6
ByLayer
370
18
48
1
60
0
100
AcDbSpline
70
4
71
3
72
14
73
10
40
0
40
0
40
0
40
0
40
0.125
40
0.125
40
0.250000000000001
40
0.250000000000001
40
0.500000000000001
40
0.500000000000001
40
1
40
1
40
1
40
1
41
1
10
-38.85
20
-3.19392027561525
30
0
41
1
10
-38.85
20
-3.18544127474408
30
0
41
1
10
-38.8517453396944
20
-3.17513574003735
30
0
41
1
10
-38.8568901241517
20
-3.15433583171935
30
0
41
1
10
-38.860211966304
20
-3.14393339473531
30
0
41
1
10
-38.8714485682308
20
-3.11272189013099
30
0
41
1
10
-38.8802054040538
20
-3.0929923328413
30
0
41
1
10
-38.9082792076556
20
-3.03565583135188
30
0
41
1
10
-38.9286347141249
20
-3.00147527324251
30
0
41
1
10
-38.95
20
-2.97083419591758
30
0
0
SPLINE
5
EF
100
AcDbEntity
8
SK1
62
256
6
ByLayer
370
18
48
1
60
0
100
AcDbSpline
70
4
71
3
72
14
73
10
40
0
40
0
40
0
40
0
40
0.25
40
0.25
40
0.5
40
0.5
40
0.75
40
0.75
40
1
40
1
40
1
40
1
41
1
10
-32.5286345040459
20
4.76672674202075
30
0
41
1
10
-32.6239033163763
20
4.76509718044227
30
0
41
1
10
-32.7146307629522
20
4.75815902328358
30
0
41
1
10
-32.8880764575989
20
4.73367246731928
30
0
41
1
10
-32.9664117484931
20
4.716640887408
30
0
41
1
10
-33.1081691141437
20
4.67329198373179
30
0
41
1
10
-33.1696373812934
20
4.64753466313886
30
0
41
1
10
-33.2773794551565
20
4.58868076341801
30
0
41
1
10
-33.3240781814695
20
4.55526103055092
30
0
41
1
10
-33.3643795499478
20
4.51855112909647
30
0
0
SPLINE
5
F0
100
AcDbEntity
8
SK1
62
256
6
ByLayer
370
18
48
1
60
0
100
AcDbSpline
70
4
71
3
72
10
73
6
40
0
40
0
40
0
40
0
40
0.5
40
0.5
40
1
40
1
40
1
40
1
41
1
10
-38.95
20
-2.97083419591758
30
0
41
1
10
-39.1281002653425
20
-2.71541126201242
30
0
41
1
10
-39.3053068773952
20
-2.459602471615
30
0
41
1
10
-39.6562276857791
20
-1.9464769555895
30
0
41
1
10
-39.8300482945171
20
-1.68920617610013
30
0
41
1
10
-40
20
-1.430264903752
30
0
0
SPLINE
5
F1
100
AcDbEntity
8
SK1
62
256
6
ByLayer
370
18
48
1
60
0
100
AcDbSpline
70
4
71
3
72
10
73
6
40
0
40
0
40
0
40
0
40
0.5
40
0.5
40
1
40
1
40
1
40
1
41
1
10
-39.9999999999999
20
-2.93138539848471
30
0
41
1
10
-39.8301257758578
20
-3.19020861896084
30
0
41
1
10
-39.6563253118241
20
-3.44745352007376
30
0
41
1
10
-39.3053898261476
20
-3.96060285483264
30
0
41
1
10
-39.1281394681189
20
-4.21647553398668
30
0
41
1
10
-38.95
20
-4.47195469065008
30
0
0
SPLINE
5
F2
100
AcDbEntity
8
SK1
62
256
6
ByLayer
370
18
48
1
60
0
100
AcDbSpline
70
4
71
3
72
14
73
10
40
0
40
0
40
0
40
0
40
0.25
40
0.25
40
0.5
40
0.5
40
0.75
40
0.75
40
1
40
1
40
1
40
1
41
1
10
-13.4757361404171
20
4.88950486134269
30
0
41
1
10
-13.5261165975722
20
4.90376073533926
30
0
41
1
10
-13.5820550105881
20
4.91548091984072
30
0
41
1
10
-13.706835859567
20
4.9348362595903
30
0
41
1
10
-13.7765661763096
20
4.94249917533384
30
0
41
1
10
-13.9236219836564
20
4.95392849343727
30
0
41
1
10
-14.0016396683478
20
4.95785257100286
30
0
41
1
10
-14.1671228399342
20
4.96279233758412
30
0
41
1
10
-14.2509910131882
20
4.96372255791701
30
0
41
1
10
-14.3360135685352
20
4.96324398997675
30
0
0
SPLINE
5
F3
100
AcDbEntity
8
SK1
62
256
6
ByLayer
370
18
48
1
60
0
100
AcDbSpline
70
4
71
3
72
18
73
14
40
0
40
0
40
0
40
0
40
0.25
40
0.25
40
0.5
40
0.5
40
0.625
40
0.625
40
0.75
40
0.75
40
0.875
40
0.875
40
1
40
1
40
1
40
1
41
1
10
-33.3643795499459
20
0.358695359110584
30
0
41
1
10
-33.3241310609262
20
0.273286667637365
30
0
41
1
10
-33.2780819433202
20
0.19158319005922
30
0
41
1
10
-33.1705899960985
20
0.0381050561641985
30
0
41
1
10
-33.1081954976226
20
-0.0345130886854292
30
0
41
1
10
-33.0029229156113
20
-0.128267117167667
30
0
41
1
10
-32.965875116877
20
-0.157085403187693
30
0
41
1
10
-32.8872739578723
20
-0.209128778077286
30
0
41
1
10
-32.8454331591341
20
-0.232426184292422
30
0
41
1
10
-32.7595417585926
20
-0.271060112167504
30
0
41
1
10
-32.7152232078405
20
-0.286631233143225
30
0
41
1
10
-32.6235911664283
20
-0.309614416860541
30
0
41
1
10
-32.576221285974
20
-0.316951080663472
30
0
41
1
10
-32.5286345040459
20
-0.319641872530639
30
0
0
LINE
5
76
100
AcDbEntity
8
81
62
256
6
ByLayer
370
18
48
1
60
0
100
AcDbLine
10
63
20
0
30
0
11
68
21
0
31
0
39
0
210
0
220
0
230
1
0
LINE
5
77
100
AcDbEntity
8
1
62
256
6
ByLayer
370
18
48
1
60
0
100
AcDbLine
10
2.167332
20
4.014299
30
0
11
1.478027
21
4.013885
31
0
39
0
210
0
220
0
230
1
0
LINE
5
79
100
AcDbEntity
8
1
62
256
6
ByLayer
370
18
48
1
60
0
100
AcDbLine
10
10.555766
20
4.019332
30
0
11
8.632772
21
4.018178
31
0
39
0
210
0
220
0
230
1
0
LINE
5
7A
100
AcDbEntity
8
1
62
256
6
ByLayer
370
18
48
1
60
0
100
AcDbLine
10
35.555957
20
4.034332
30
0
11
34.810545
21
4.033884
31
0
39
0
210
0
220
0
230
1
0
LINE
5
7B
100
AcDbEntity
8
1
62
256
6
ByLayer
370
18
48
1
60
0
100
AcDbLine
10
60.555896
20
4.049332
30
0
11
59.821466
21
4.048891
31
0
39
0
210
0
220
0
230
1
0
LINE
5
7C
100
AcDbEntity
8
1
62
256
6
ByLayer
370
18
48
1
60
0
100
AcDbLine
10
59.821466
20
-4.048891
30
0
11
60.555701
21
-4.049332
31
0
39
0
210
0
220
0
230
1
0
LINE
5
7D
100
AcDbEntity
8
1
62
256
6
ByLayer
370
18
48
1
60
0
100
AcDbLine
10
34.810545
20
-4.033884
30
0
11
35.555584
21
-4.034331
31
0
39
0
210
0
220
0
230
1
0
LINE
5
7E
100
AcDbEntity
8
1
62
256
6
ByLayer
370
18
48
1
60
0
100
AcDbLine
10
8.632772
20
-4.018178
30
0
11
10.55613
21
-4.019332
31
0
39
0
210
0
220
0
230
1
0
LINE
5
7F
100
AcDbEntity
8
1
62
256
6
ByLayer
370
18
48
1
60
0
100
AcDbLine
10
1.478027
20
-4.013885
30
0
11
2.167332
21
-4.014299
31
0
39
0
210
0
220
0
230
1
0
LINE
5
80
100
AcDbEntity
8
SK1
62
256
6
ByLayer
370
18
48
1
60
0
100
AcDbLine
10
0
20
5
30
0
11
-38.845299
21
5
31
0
39
0
210
0
220
0
230
1
0
LINE
5
82
100
AcDbEntity
8
SK1
62
256
6
ByLayer
370
18
48
1
60
0
100
AcDbLine
10
-38.845299
20
-5
30
0
11
0
21
-5
31
0
39
0
210
0
220
0
230
1
0
LINE
5
83
100
AcDbEntity
8
SK1
62
256
6
ByLayer
370
18
48
1
60
0
100
AcDbLine
10
-38.845299
20
5
30
0
11
-40
21
3
31
0
39
0
210
0
220
0
230
1
0
LINE
5
84
100
AcDbEntity
8
SK1
62
256
6
ByLayer
370
18
48
1
60
0
100
AcDbLine
10
-40
20
-3
30
0
11
-38.845299
21
-5
31
0
39
0
210
0
220
0
230
1
0
LINE
5
85
100
AcDbEntity
8
SK4
62
256
6
ByLayer
370
18
48
0.05
60
0
100
AcDbLine
10
68
20
0
30
0
11
-45
21
0
31
0
39
0
210
0
220
0
230
1
0
LINE
5
87
100
AcDbEntity
8
4
62
256
6
ByLayer
370
18
48
0.05
60
0
100
AcDbLine
10
63
20
0
30
0
11
0
21
0
31
0
39
0
210
0
220
0
230
1
0
LINE
5
89
100
AcDbEntity
8
80
62
256
6
ByLayer
370
18
48
1
60
0
100
AcDbLine
10
0
20
0
30
0
11
-5
21
0
31
0
39
0
210
0
220
0
230
1
0
LINE
5
8A
100
AcDbEntity
8
1
62
256
6
ByLayer
370
18
48
1
60
0
100
AcDbLine
10
62.916928
20
-0.298124
30
0
11
62.790522
21
-0.799493
31
0
39
0
210
0
220
0
230
1
0
LINE
5
8B
100
AcDbEntity
8
1
62
256
6
ByLayer
370
13
48
1
60
0
100
AcDbLine
10
62.071924
20
0.799493
30
0
11
62.916928
21
0.298124
31
0
39
0
210
0
220
0
230
1
0
LINE
5
8C
100
AcDbEntity
8
1
62
256
6
ByLayer
370
18
48
1
60
0
100
AcDbLine
10
62.992053
20
0.039562
30
0
11
63
21
0
31
0
39
0
210
0
220
0
230
1
0
LINE
5
8D
100
AcDbEntity
8
1
62
256
6
ByLayer
370
18
48
1
60
0
100
AcDbLine
10
62.916928
20
0.298124
30
0
11
62.790522
21
0.799493
31
0
39
0
210
0
220
0
230
1
0
LINE
5
8E
100
AcDbEntity
8
1
62
256
6
ByLayer
370
18
48
1
60
0
100
AcDbLine
10
63
20
0
30
0
11
61.594004
21
-3.862942
31
0
39
0
210
0
220
0
230
1
0
LINE
5
8F
100
AcDbEntity
8
1
62
256
6
ByLayer
370
13
48
1
60
0
100
AcDbLine
10
61.882017
20
0.464164
30
0
11
62.894788
21
-0.136747
31
0
39
0
210
0
220
0
230
1
0
LINE
5
90
100
AcDbEntity
8
1
62
256
6
ByLayer
370
13
48
1
60
0
100
AcDbLine
10
0.738774
20
4.506942
30
0
11
0.738774
21
-4.506942
31
0
39
0
210
0
220
0
230
1
0
LINE
5
91
100
AcDbEntity
8
1
62
256
6
ByLayer
370
13
48
1
60
0
100
AcDbLine
10
62.790522
20
0.799493
30
0
11
62.071924
21
0.799493
31
0
39
0
210
0
220
0
230
1
0
LINE
5
92
100
AcDbEntity
8
1
62
256
6
ByLayer
370
18
48
1
60
0
100
AcDbLine
10
63
20
0
30
0
11
62.992053
21
-0.039562
31
0
39
0
210
0
220
0
230
1
0
LINE
5
93
100
AcDbEntity
8
1
62
256
6
ByLayer
370
18
48
1
60
0
100
AcDbLine
10
60.979357
20
-2.115414
30
0
11
62.894788
21
-0.136747
31
0
39
0
210
0
220
0
230
1
0
LINE
5
94
100
AcDbEntity
8
1
62
256
6
ByLayer
370
13
48
1
60
0
100
AcDbLine
10
1.478027
20
4.013885
30
0
11
1.478027
21
-4.013885
31
0
39
0
210
0
220
0
230
1
0
LINE
5
95
100
AcDbEntity
8
1
62
256
6
ByLayer
370
18
48
1
60
0
100
AcDbLine
10
0
20
-5
30
0
11
0
21
5
31
0
39
0
210
0
220
0
230
1
0
LINE
5
96
100
AcDbEntity
8
SK1
62
256
6
ByLayer
370
18
48
1
60
0
100
AcDbLine
10
-40
20
3
30
0
11
-40
21
-1.430265
31
0
39
0
210
0
220
0
230
1
0
LINE
5
97
100
AcDbEntity
8
SK1
62
256
6
ByLayer
370
13
48
1
60
0
100
AcDbLine
10
-13.475736
20
4.889505
30
0
11
-13.475736
21
-0.796668
31
0
39
0
210
0
220
0
230
1
0
LINE
5
98
100
AcDbEntity
8
SK1
62
256
6
ByLayer
370
13
48
1
60
0
100
AcDbLine
10
-14.336014
20
4.963244
30
0
11
-14.336014
21
-1.233677
31
0
39
0
210
0
220
0
230
1
0
LINE
5
99
100
AcDbEntity
8
SK1
62
256
6
ByLayer
370
13
48
1
60
0
100
AcDbLine
10
-33.36438
20
4.518551
30
0
11
-33.36438
21
0.358695
31
0
39
0
210
0
220
0
230
1
0
LINE
5
9A
100
AcDbEntity
8
SK1
62
256
6
ByLayer
370
13
48
1
60
0
100
AcDbLine
10
-32.528635
20
4.766727
30
0
11
-32.528635
21
-0.319642
31
0
39
0
210
0
220
0
230
1
0
LINE
5
9B
100
AcDbEntity
8
SK1
62
256
6
ByLayer
370
18
48
1
60
0
100
AcDbLine
10
-40
20
-1.430228
30
0
11
-40
21
-2.931385
31
0
39
0
210
0
220
0
230
1
0
LINE
5
9C
100
AcDbEntity
8
SK1
62
256
6
ByLayer
370
18
48
1
60
0
100
AcDbLine
10
-40
20
-3
30
0
11
-40
21
-2.931385
31
0
39
0
210
0
220
0
230
1
0
LINE
5
9D
100
AcDbEntity
8
SK1
62
256
6
ByLayer
370
18
48
1
60
0
100
AcDbLine
10
-38.845299
20
5
30
0
11
-38.845299
21
-5
31
0
39
0
210
0
220
0
230
1
0
LINE
5
9E
100
AcDbEntity
8
SK1
62
256
6
ByLayer
370
13
48
1
60
0
100
AcDbLine
10
-38.95
20
-2.970721
30
0
11
-38.95
21
-4.471955
31
0
39
0
210
0
220
0
230
1
0
LINE
5
9F
100
AcDbEntity
8
SK1
62
256
6
ByLayer
370
18
48
1
60
0
100
AcDbLine
10
0
20
-5
30
0
11
0
21
5
31
0
39
0
210
0
220
0
230
1
0
LINE
5
A0
100
AcDbEntity
8
SK1
62
256
6
ByLayer
370
18
48
1
60
0
100
AcDbLine
10
-38.85
20
-4.574951
30
0
11
-38.85
21
-3.19392
31
0
39
0
210
0
220
0
230
1
0
MTEXT
5
F4
100
AcDbEntity
8
SK6
62
256
6
ByLayer
370
13
48
1
60
0
100
AcDbMText
10
13.629169
20
36.432694
30
0
210
0
220
0
230
1
1
\W0.7418;R840-0810-50-W1A1220
40
3.5
41
0
44
1.084337
50
0
71
8
72
5
7
iso_b_vert
0
DIMENSION
5
101
100
AcDbEntity
8
SK2
62
256
6
ByLayer
370
13
48
1
60
0
100
AcDbDimension
2
DimnDraft3D1
10
61.62
20
-14.263398
30
0
11
29.370059
21
-14.263398
31
0
70
32
71
5
72
1
41
1
210
0
220
0
230
1
3
Standard
100
AcDbAlignedDimension
13
0
23
-1.5875
33
0
14
61.62
24
-5.6375
34
0
50
0
100
AcDbRotatedDimension
1001
ACAD
1000
DSTYLE
1002
{
1070
   279
1070
     0
1070
   172
1070
     1
1070
   173
1070
     1
1070
   340
1005
F5
1070
   271
1070
     2
1070
   272
1070
     2
1070
    77
1070
     1
1070
    73
1070
     0
1070
   171
1070
     3
1070
   274
1070
     4
1070
   177
1070
    35
1070
   176
1070
    35
1070
   178
1070
    35
1070
    48
1040
-0.005
1070
    41
1041
3.5
1070
   147
1041
1.75
1070
    42
1041
1.5875
1070
    44
1041
2.0
1070
   140
1041
3.5
1070
   343
1005
0
1070
   344
1005
0
1002
}
0
DIMENSION
5
10B
100
AcDbEntity
8
SK2
62
256
6
ByLayer
370
13
48
1
60
0
100
AcDbDimension
2
DimnDraft3D2
10
63
20
-33.692985
30
0
11
11.4613
21
-33.692985
31
0
70
32
71
5
72
1
41
1
210
0
220
0
230
1
3
Standard
100
AcDbAlignedDimension
13
-40
23
-6.5875
33
0
14
63
24
-1.5875
34
0
50
0
100
AcDbRotatedDimension
1001
ACAD
1000
DSTYLE
1002
{
1070
   279
1070
     0
1070
   172
1070
     1
1070
   173
1070
     1
1070
   340
1005
F5
1070
   271
1070
     2
1070
   272
1070
     2
1070
    77
1070
     1
1070
    73
1070
     0
1070
   171
1070
     3
1070
   274
1070
     4
1070
   177
1070
    35
1070
   176
1070
    35
1070
   178
1070
    35
1070
    48
1040
-0.005
1070
    41
1041
3.5
1070
   147
1041
1.75
1070
    42
1041
1.5875
1070
    44
1041
2.0
1070
   140
1041
3.5
1070
   343
1005
0
1070
   344
1005
0
1002
}
0
DIMENSION
5
115
100
AcDbEntity
8
SK2
62
256
6
ByLayer
370
13
48
1
60
0
100
AcDbDimension
2
DimnDraft3D3
10
63
20
15.659119
30
0
11
42.06
21
15.659119
31
0
70
32
71
5
72
1
41
1
210
0
220
0
230
1
3
Standard
100
AcDbAlignedDimension
13
21.12
23
5.6375
33
0
14
63
24
1.5875
34
0
50
0
100
AcDbRotatedDimension
1001
ACAD
1000
DSTYLE
1002
{
1070
   279
1070
     0
1070
   172
1070
     1
1070
   173
1070
     1
1070
   340
1005
F5
1070
   271
1070
     2
1070
   272
1070
     2
1070
    77
1070
     1
1070
    73
1070
     0
1070
   171
1070
     3
1070
   274
1070
     4
1070
   177
1070
    35
1070
   176
1070
    35
1070
   178
1070
    35
1070
    48
1040
-0.005
1070
    41
1041
3.5
1070
   147
1041
1.75
1070
    42
1041
1.5875
1070
    44
1041
2.0
1070
   140
1041
3.5
1070
   343
1005
0
1070
   344
1005
0
1002
}
0
DIMENSION
5
11F
100
AcDbEntity
8
SK2
62
256
6
ByLayer
370
13
48
1
60
0
100
AcDbDimension
2
DimnDraft3D4
10
61.62
20
-16.852503
30
0
11
72.981425
21
-16.852503
31
0
70
32
71
5
72
1
41
1
210
0
220
0
230
1
3
Standard
100
AcDbAlignedDimension
13
63
23
-1.5875
33
0
14
61.62
24
-5.6375
34
0
50
0
100
AcDbRotatedDimension
1001
ACAD
1000
DSTYLE
1002
{
1070
   279
1070
     0
1070
   172
1070
     1
1070
   173
1070
     1
1070
   340
1005
F5
1070
   271
1070
     2
1070
   272
1070
     2
1070
    77
1070
     1
1070
    73
1070
     0
1070
   171
1070
     3
1070
   274
1070
     4
1070
   177
1070
    35
1070
   176
1070
    35
1070
   178
1070
    35
1070
    48
1040
-0.005
1070
    41
1041
3.5
1070
   147
1041
1.75
1070
    42
1041
1.5875
1070
    44
1041
2.0
1070
   140
1041
3.5
1070
   343
1005
0
1070
   344
1005
0
1002
}
0
DIMENSION
5
129
100
AcDbEntity
8
SK2
62
256
6
ByLayer
370
13
48
1
60
0
100
AcDbDimension
2
DimnDraft3D5
10
61.62
20
-23.343428
30
0
11
8.380676
21
-23.343428
31
0
70
32
71
5
72
1
41
1
210
0
220
0
230
1
3
Standard
100
AcDbAlignedDimension
13
-40
23
-6.5875
33
0
14
61.62
24
-5.6375
34
0
50
0
100
AcDbRotatedDimension
1001
ACAD
1000
DSTYLE
1002
{
1070
   279
1070
     0
1070
   172
1070
     1
1070
   173
1070
     1
1070
   340
1005
F5
1070
   271
1070
     2
1070
   272
1070
     2
1070
    77
1070
     1
1070
    73
1070
     0
1070
   171
1070
     3
1070
   274
1070
     4
1070
   177
1070
    35
1070
   176
1070
    35
1070
   178
1070
    35
1070
    48
1040
-0.005
1070
    41
1041
3.5
1070
   147
1041
1.75
1070
    42
1041
1.5875
1070
    44
1041
2.0
1070
   140
1041
3.5
1070
   343
1005
0
1070
   344
1005
0
1002
}
0
DIMENSION
5
134
100
AcDbEntity
8
SK2
62
256
6
ByLayer
370
13
48
1
60
0
100
AcDbDimension
2
DimnDraft3D6
10
-50.625163
20
5
30
0
11
-51.250163
21
23.47418
31
0
70
33
71
5
72
1
41
1
210
0
220
0
230
1
3
Standard
100
AcDbAlignedDimension
13
-41.5875
23
-5
33
0
14
-41.5875
24
5
34
0
1001
ACAD
1000
DSTYLE
1002
{
1070
   279
1070
     0
1070
    74
1070
     0
1070
   173
1070
     1
1070
   340
1005
F5
1070
   271
1070
     3
1070
   272
1070
     2
1070
    77
1070
     1
1070
    73
1070
     0
1070
   171
1070
     3
1070
   274
1070
     4
1070
   177
1070
    35
1070
   176
1070
    35
1070
   178
1070
    35
1070
    48
1040
-0.005
1070
    41
1041
3.5
1070
   147
1041
1.75
1070
    42
1041
1.5875
1070
    44
1041
2.0
1070
   140
1041
3.5
1070
   343
1005
0
1070
   344
1005
0
1002
}
0
DIMENSION
5
13F
100
AcDbEntity
8
2
62
256
6
ByLayer
370
13
48
1
60
0
100
AcDbDimension
2
DimnDraft3D7
10
77.083343
20
4.05
30
0
11
72.458343
21
21.117266
31
0
70
33
71
5
72
1
41
1
210
0
220
0
230
1
3
Standard
100
AcDbAlignedDimension
13
63.2075
23
-4.05
33
0
14
63.2075
24
4.05
34
0
1001
ACAD
1000
DSTYLE
1002
{
1070
   279
1070
     0
1070
    74
1070
     0
1070
   173
1070
     1
1070
   340
1005
F5
1070
   271
1070
     3
1070
   272
1070
     2
1070
    77
1070
     1
1070
    73
1070
     0
1070
   171
1070
     3
1070
   274
1070
     4
1070
   177
1070
    35
1070
   176
1070
    35
1070
   178
1070
    35
1070
    48
1040
-0.005
1070
    41
1041
3.5
1070
   147
1041
1.75
1070
    42
1041
1.5875
1070
    44
1041
2.0
1070
   140
1041
3.5
1070
   343
1005
0
1070
   344
1005
0
1002
}
0
ENDSEC
0
SECTION
2
OBJECTS
0
DICTIONARY
5
1aa
330
0
100
AcDbDictionary
280
0
281
1
3
ACAD_GROUP
350
1ab
3
ACAD_MLINESTYLE
350
1ac
0
DICTIONARY
5
1ab
330
0
100
AcDbDictionary
280
0
281
1
0
DICTIONARY
5
1ac
330
0
100
AcDbDictionary
280
0
281
1
3
Standard
350
18
0
MLINESTYLE
5
18
330
1ac
100
AcDbMlineStyle
2
Standard
70
0
3

62
256
51
90
52
90
71
2
49
-0.5
62
256
6
ByLayer
49
0.5
62
256
6
ByLayer
0
RASTERVARIABLES
5
198
330

100
AcDbRasterVariables
90
0
70
1
71
1
72
1
0
ENDSEC
0
EOF
