0
SECTION
2
HEADER
9
$ACADVER
1
AC1015
9
$DWGCODEPAGE
3
ANSI_1252
9
$HANDSEED
5
1af
9
$ANGBASE
50
0
9
$ANGDIR
70
0
9
$ATTMODE
70
1
9
$AUNITS
70
0
9
$AUPREC
70
0
9
$CECOLOR
62
256
9
$CELTSCALE
40
1
9
$CELTYPE
6
ByLayer
9
$CELWEIGHT
370
18
9
$CLAYER
8
0
9
$CMLJUST
70
0
9
$CMLSCALE
40
1
9
$CMLSTYLE
2
Standard
9
$DIMSTYLE
2
Standard
9
$TEXTSIZE
40
0.2
9
$TEXTSTYLE
7
Standard
9
$LUNITS
70
2
9
$LUPREC
70
4
9
$EXTNAMES
290
1
9
$INSUNITS
70
4
9
$LTSCALE
40
1
9
$LWDISPLAY
290
1
9
$PDMODE
70
0
9
$PDSIZE
40
0
9
$PLINEGEN
70
0
0
ENDSEC
0
SECTION
2
CLASSES
0
CLASS
1
RASTERVARIABLES
2
AcDbRasterVariables
3
ISM
90
0
280
0
281
0
0
ENDSEC
0
SECTION
2
TABLES
0
TABLE
2
VPORT
5
1a5
100
AcDbSymbolTable
0
VPORT
5
1
100
AcDbSymbolTableRecord
100
AcDbViewportTableRecord
2
*Active
70
0
10
0
20
0
11
1
21
1
12
-1
22
1
13
0
23
0
14
0.5
24
0.5
15
10
25
10
16
0
26
0
36
1
17
0
27
0
37
0
0
ENDTAB
0
TABLE
2
LTYPE
5
1a6
100
AcDbSymbolTable
0
LTYPE
5
14
100
AcDbSymbolTableRecord
100
AcDbLinetypeTableRecord
70
0
2
ByBlock
3

72
65
73
0
40
0
0
LTYPE
5
15
100
AcDbSymbolTableRecord
100
AcDbLinetypeTableRecord
70
0
2
ByLayer
3

72
65
73
0
40
0
0
LTYPE
5
16
100
AcDbSymbolTableRecord
100
AcDbLinetypeTableRecord
70
0
2
CONTINUOUS
3
Solid line
72
65
73
0
40
0
0
LTYPE
5
6A
100
AcDbSymbolTableRecord
100
AcDbLinetypeTableRecord
70
0
2
CENTER
3
____ _ ____ _ ____ _ ____
72
65
73
4
40
47.5
49
22
74
0
49
-8.5
74
0
49
8.5
74
0
49
-8.5
74
0
0
LTYPE
5
6B
100
AcDbSymbolTableRecord
100
AcDbLinetypeTableRecord
70
0
2
DASHED
3
__ __ __ __ __ __ __ __ __
72
65
73
2
40
25.72
49
12.86
74
0
49
-12.86
74
0
0
ENDTAB
0
TABLE
2
LAYER
5
1a7
100
AcDbSymbolTable
0
LAYER
5
10
100
AcDbSymbolTableRecord
100
AcDbLayerTableRecord
2
0
70
0
62
7
6
CONTINUOUS
290
1
370
-3
390
0
0
LAYER
5
6D
100
AcDbSymbolTableRecord
100
AcDbLayerTableRecord
2
81
70
0
62
-3
6
CONTINUOUS
290
1
370
-3
390
0
0
LAYER
5
6F
100
AcDbSymbolTableRecord
100
AcDbLayerTableRecord
2
80
70
0
62
-6
6
CONTINUOUS
290
1
370
-3
390
0
0
LAYER
5
74
100
AcDbSymbolTableRecord
100
AcDbLayerTableRecord
2
2
70
0
62
7
6
CONTINUOUS
290
1
370
-3
390
0
0
LAYER
5
78
100
AcDbSymbolTableRecord
100
AcDbLayerTableRecord
2
1
70
0
62
4
6
CONTINUOUS
290
1
370
-3
390
0
0
LAYER
5
8A
100
AcDbSymbolTableRecord
100
AcDbLayerTableRecord
2
4
70
0
62
-2
6
CENTER
290
1
370
-3
390
0
0
LAYER
5
191
100
AcDbSymbolTableRecord
100
AcDbLayerTableRecord
2
SK2
70
0
62
7
6
CONTINUOUS
290
1
370
-3
390
0
0
LAYER
5
192
100
AcDbSymbolTableRecord
100
AcDbLayerTableRecord
2
SK1
70
0
62
4
6
CONTINUOUS
290
1
370
-3
390
0
0
LAYER
5
193
100
AcDbSymbolTableRecord
100
AcDbLayerTableRecord
2
SK4
70
0
62
2
6
CENTER
290
1
370
-3
390
0
0
LAYER
5
194
100
AcDbSymbolTableRecord
100
AcDbLayerTableRecord
2
SK6
70
0
62
5
6
CONTINUOUS
290
1
370
-3
390
0
0
ENDTAB
0
TABLE
2
STYLE
5
1a8
100
AcDbSymbolTable
0
STYLE
5
11
100
AcDbSymbolTableRecord
100
AcDbTextStyleTableRecord
2
Standard
3
txt
70
0
71
0
40
0
41
1
42
0
50
0
0
STYLE
5
ED
100
AcDbSymbolTableRecord
100
AcDbTextStyleTableRecord
2
iso_b_vert
3
simplex.shx
70
0
71
0
40
0
41
1
42
0
50
0
0
STYLE
5
EE
100
AcDbSymbolTableRecord
100
AcDbTextStyleTableRecord
2
DWGDirectTextStyle
3
simplex
70
0
71
0
40
0
41
1
42
0
50
0
0
ENDTAB
0
TABLE
2
DIMSTYLE
5
1a9
100
AcDbSymbolTable
100
AcDbDimStyleTable
0
DIMSTYLE
105
27
100
AcDbSymbolTableRecord
100
AcDbDimStyleTableRecord
2
Standard
70
0
3
<>
41
0.18
42
0.0625
44
0.18
140
0.18
147
0.09
73
0
74
0
77
1
271
2
275
0
278
52
280
0
340
11
0
ENDTAB
0
TABLE
2
VIEW
5
1aa
100
AcDbSymbolTable
0
ENDTAB
0
TABLE
2
UCS
5
1ab
100
AcDbSymbolTable
0
ENDTAB
0
TABLE
2
APPID
5
1ac
100
AcDbSymbolTable
0
APPID
5
12
100
AcDbSymbolTableRecord
100
AcDbRegAppTableRecord
2
ACAD
70
0
0
ENDTAB
0
TABLE
2
BLOCK_RECORD
5
1ad
100
AcDbSymbolTable
0
BLOCK_RECORD
5
1F
100
AcDbSymbolTableRecord
100
AcDbBlockTableRecord
2
*Model_Space
340
0
70
0
0
BLOCK_RECORD
5
1B
100
AcDbSymbolTableRecord
100
AcDbBlockTableRecord
2
*Paper_Space
340
0
70
0
0
BLOCK_RECORD
5
23
100
AcDbSymbolTableRecord
100
AcDbBlockTableRecord
2
*Paper_Space0
340
0
70
0
0
BLOCK_RECORD
5
F0
100
AcDbSymbolTableRecord
100
AcDbBlockTableRecord
2
DimnDraft3D1
340
0
70
0
0
BLOCK_RECORD
5
FA
100
AcDbSymbolTableRecord
100
AcDbBlockTableRecord
2
DimnDraft3D2
340
0
70
0
0
BLOCK_RECORD
5
104
100
AcDbSymbolTableRecord
100
AcDbBlockTableRecord
2
DimnDraft3D3
340
0
70
0
0
BLOCK_RECORD
5
10E
100
AcDbSymbolTableRecord
100
AcDbBlockTableRecord
2
DimnDraft3D4
340
0
70
0
0
BLOCK_RECORD
5
118
100
AcDbSymbolTableRecord
100
AcDbBlockTableRecord
2
DimnDraft3D5
340
0
70
0
0
BLOCK_RECORD
5
122
100
AcDbSymbolTableRecord
100
AcDbBlockTableRecord
2
DimnDraft3D6
340
0
70
0
0
BLOCK_RECORD
5
12D
100
AcDbSymbolTableRecord
100
AcDbBlockTableRecord
2
DimnDraft3D7
340
0
70
0
0
ENDTAB
0
ENDSEC
0
SECTION
2
BLOCKS
0
BLOCK
5
20
100
AcDbEntity
8
0
100
AcDbBlockBegin
2
*Model_Space
70
0
10
0
20
0
30
0
3
*Model_Space
0
ENDBLK
5
21
100
AcDbEntity
8
0
100
AcDbBlockEnd
0
BLOCK
5
1C
100
AcDbEntity
8
0
100
AcDbBlockBegin
2
*Paper_Space
70
0
10
0
20
0
30
0
3
*Paper_Space
0
ENDBLK
5
1D
100
AcDbEntity
8
0
100
AcDbBlockEnd
0
BLOCK
5
24
100
AcDbEntity
8
0
100
AcDbBlockBegin
2
*Paper_Space0
70
0
10
0
20
0
30
0
3
*Paper_Space0
0
ENDBLK
5
25
100
AcDbEntity
8
0
100
AcDbBlockEnd
0
BLOCK
5
F7
100
AcDbEntity
8
0
100
AcDbBlockBegin
2
DimnDraft3D1
70
0
10
0
20
0
30
0
3
DimnDraft3D1
0
MTEXT
5
F1
100
AcDbEntity
8
SK2
62
256
6
ByLayer
370
13
48
1
60
0
100
AcDbMText
10
20.931375
20
-13.338398
30
0
210
0
220
0
230
1
1
\W0.7317;53,63
40
3.5
41
0
44
1.084337
50
0
71
7
72
5
7
iso_b_vert
0
LINE
5
F2
100
AcDbEntity
8
SK2
62
256
6
ByLayer
370
13
48
1
60
0
100
AcDbLine
10
0
20
-1.5875
30
0
11
0
21
-16.213398
31
0
39
0
210
0
220
0
230
1
0
LINE
5
F3
100
AcDbEntity
8
SK2
62
256
6
ByLayer
370
13
48
1
60
0
100
AcDbLine
10
53.63
20
-5.5875
30
0
11
53.63
21
-16.213398
31
0
39
0
210
0
220
0
230
1
0
LINE
5
F4
100
AcDbEntity
8
SK2
62
256
6
ByLayer
370
13
48
1
60
0
100
AcDbLine
10
0
20
-14.213398
30
0
11
53.63
21
-14.213398
31
0
39
0
210
0
220
0
230
1
0
SOLID
5
F5
100
AcDbEntity
8
SK2
62
256
6
ByLayer
370
13
48
1
60
0
100
AcDbTrace
10
0
20
-14.213398
30
0
11
3.499998
21
-13.752615
31
0
12
3.500002
22
-14.674182
32
0
13
0
23
-14.213398
33
0
39
0
210
0
220
0
230
1
0
SOLID
5
F6
100
AcDbEntity
8
SK2
62
256
6
ByLayer
370
13
48
1
60
0
100
AcDbTrace
10
53.63
20
-14.213398
30
0
11
50.130002
21
-14.674182
31
0
12
50.129998
22
-13.752615
32
0
13
53.63
23
-14.213398
33
0
39
0
210
0
220
0
230
1
0
ENDBLK
5
F8
100
AcDbEntity
8
0
100
AcDbBlockEnd
0
BLOCK
5
101
100
AcDbEntity
8
0
100
AcDbBlockBegin
2
DimnDraft3D2
70
0
10
0
20
0
30
0
3
DimnDraft3D2
0
MTEXT
5
FB
100
AcDbEntity
8
SK2
62
256
6
ByLayer
370
13
48
1
60
0
100
AcDbMText
10
5.460116
20
-31.817985
30
0
210
0
220
0
230
1
1
\W0.6713;91,00
40
3.5
41
0
44
1.084337
50
0
71
7
72
5
7
iso_b_vert
0
LINE
5
FC
100
AcDbEntity
8
SK2
62
256
6
ByLayer
370
13
48
1
60
0
100
AcDbLine
10
-36
20
-5.5875
30
0
11
-36
21
-34.692985
31
0
39
0
210
0
220
0
230
1
0
LINE
5
FD
100
AcDbEntity
8
SK2
62
256
6
ByLayer
370
13
48
1
60
0
100
AcDbLine
10
55
20
-1.5875
30
0
11
55
21
-34.692985
31
0
39
0
210
0
220
0
230
1
0
LINE
5
FE
100
AcDbEntity
8
SK2
62
256
6
ByLayer
370
13
48
1
60
0
100
AcDbLine
10
-36
20
-32.692985
30
0
11
55
21
-32.692985
31
0
39
0
210
0
220
0
230
1
0
SOLID
5
FF
100
AcDbEntity
8
SK2
62
256
6
ByLayer
370
13
48
1
60
0
100
AcDbTrace
10
-36
20
-32.692985
30
0
11
-32.500002
21
-32.232202
31
0
12
-32.499998
22
-33.153769
32
0
13
-36
23
-32.692985
33
0
39
0
210
0
220
0
230
1
0
SOLID
5
100
100
AcDbEntity
8
SK2
62
256
6
ByLayer
370
13
48
1
60
0
100
AcDbTrace
10
55
20
-32.692985
30
0
11
51.500002
21
-33.153769
31
0
12
51.499998
22
-32.232202
32
0
13
55
23
-32.692985
33
0
39
0
210
0
220
0
230
1
0
ENDBLK
5
102
100
AcDbEntity
8
0
100
AcDbBlockEnd
0
BLOCK
5
10B
100
AcDbEntity
8
0
100
AcDbBlockBegin
2
DimnDraft3D3
70
0
10
0
20
0
30
0
3
DimnDraft3D3
0
MTEXT
5
105
100
AcDbEntity
8
SK2
62
256
6
ByLayer
370
13
48
1
60
0
100
AcDbMText
10
30.119605
20
16.484119
30
0
210
0
220
0
230
1
1
\W0.6977;41,37
40
3.5
41
0
44
1.084337
50
0
71
7
72
5
7
iso_b_vert
0
LINE
5
106
100
AcDbEntity
8
SK2
62
256
6
ByLayer
370
13
48
1
60
0
100
AcDbLine
10
13.63
20
5.5875
30
0
11
13.63
21
17.609119
31
0
39
0
210
0
220
0
230
1
0
LINE
5
107
100
AcDbEntity
8
SK2
62
256
6
ByLayer
370
13
48
1
60
0
100
AcDbLine
10
55
20
1.5875
30
0
11
55
21
17.609119
31
0
39
0
210
0
220
0
230
1
0
LINE
5
108
100
AcDbEntity
8
SK2
62
256
6
ByLayer
370
13
48
1
60
0
100
AcDbLine
10
13.63
20
15.609119
30
0
11
55
21
15.609119
31
0
39
0
210
0
220
0
230
1
0
SOLID
5
109
100
AcDbEntity
8
SK2
62
256
6
ByLayer
370
13
48
1
60
0
100
AcDbTrace
10
13.63
20
15.609119
30
0
11
17.129998
21
16.069903
31
0
12
17.130002
22
15.148335
32
0
13
13.63
23
15.609119
33
0
39
0
210
0
220
0
230
1
0
SOLID
5
10A
100
AcDbEntity
8
SK2
62
256
6
ByLayer
370
13
48
1
60
0
100
AcDbTrace
10
55
20
15.609119
30
0
11
51.500002
21
15.148335
31
0
12
51.499998
22
16.069903
32
0
13
55
23
15.609119
33
0
39
0
210
0
220
0
230
1
0
ENDBLK
5
10C
100
AcDbEntity
8
0
100
AcDbBlockEnd
0
BLOCK
5
115
100
AcDbEntity
8
0
100
AcDbBlockBegin
2
DimnDraft3D4
70
0
10
0
20
0
30
0
3
DimnDraft3D4
0
MTEXT
5
10F
100
AcDbEntity
8
SK2
62
256
6
ByLayer
370
13
48
1
60
0
100
AcDbMText
10
62.278136
20
-15.927503
30
0
210
0
220
0
230
1
1
\W0.6367;1,37
40
3.5
41
0
44
1.084337
50
0
71
7
72
5
7
iso_b_vert
0
LINE
5
110
100
AcDbEntity
8
SK2
62
256
6
ByLayer
370
13
48
1
60
0
100
AcDbLine
10
55
20
-1.5875
30
0
11
55
21
-18.802503
31
0
39
0
210
0
220
0
230
1
0
LINE
5
111
100
AcDbEntity
8
SK2
62
256
6
ByLayer
370
13
48
1
60
0
100
AcDbLine
10
53.63
20
-5.5875
30
0
11
53.63
21
-18.802503
31
0
39
0
210
0
220
0
230
1
0
LINE
5
112
100
AcDbEntity
8
SK2
62
256
6
ByLayer
370
13
48
1
60
0
100
AcDbLine
10
44.88
20
-16.802503
30
0
11
68.559715
21
-16.802503
31
0
39
0
210
0
220
0
230
1
0
SOLID
5
113
100
AcDbEntity
8
SK2
62
256
6
ByLayer
370
13
48
1
60
0
100
AcDbTrace
10
55
20
-16.802503
30
0
11
58.499998
21
-16.341719
31
0
12
58.500002
22
-17.263287
32
0
13
55
23
-16.802503
33
0
39
0
210
0
220
0
230
1
0
SOLID
5
114
100
AcDbEntity
8
SK2
62
256
6
ByLayer
370
13
48
1
60
0
100
AcDbTrace
10
53.63
20
-16.802503
30
0
11
50.130002
21
-17.263287
31
0
12
50.129998
22
-16.341719
32
0
13
53.63
23
-16.802503
33
0
39
0
210
0
220
0
230
1
0
ENDBLK
5
116
100
AcDbEntity
8
0
100
AcDbBlockEnd
0
BLOCK
5
11F
100
AcDbEntity
8
0
100
AcDbBlockBegin
2
DimnDraft3D5
70
0
10
0
20
0
30
0
3
DimnDraft3D5
0
MTEXT
5
119
100
AcDbEntity
8
SK2
62
256
6
ByLayer
370
13
48
1
60
0
100
AcDbMText
10
1.941992
20
-21.468428
30
0
210
0
220
0
230
1
1
\W0.7317;89,63
40
3.5
41
0
44
1.084337
50
0
71
7
72
5
7
iso_b_vert
0
LINE
5
11A
100
AcDbEntity
8
SK2
62
256
6
ByLayer
370
13
48
1
60
0
100
AcDbLine
10
-36
20
-5.5875
30
0
11
-36
21
-24.343428
31
0
39
0
210
0
220
0
230
1
0
LINE
5
11B
100
AcDbEntity
8
SK2
62
256
6
ByLayer
370
13
48
1
60
0
100
AcDbLine
10
53.63
20
-5.5875
30
0
11
53.63
21
-24.343428
31
0
39
0
210
0
220
0
230
1
0
LINE
5
11C
100
AcDbEntity
8
SK2
62
256
6
ByLayer
370
13
48
1
60
0
100
AcDbLine
10
-36
20
-22.343428
30
0
11
53.63
21
-22.343428
31
0
39
0
210
0
220
0
230
1
0
SOLID
5
11D
100
AcDbEntity
8
SK2
62
256
6
ByLayer
370
13
48
1
60
0
100
AcDbTrace
10
-36
20
-22.343428
30
0
11
-32.500002
21
-21.882645
31
0
12
-32.499998
22
-22.804212
32
0
13
-36
23
-22.343428
33
0
39
0
210
0
220
0
230
1
0
SOLID
5
11E
100
AcDbEntity
8
SK2
62
256
6
ByLayer
370
13
48
1
60
0
100
AcDbTrace
10
53.63
20
-22.343428
30
0
11
50.130002
21
-22.804212
31
0
12
50.129998
22
-21.882645
32
0
13
53.63
23
-22.343428
33
0
39
0
210
0
220
0
230
1
0
ENDBLK
5
120
100
AcDbEntity
8
0
100
AcDbBlockEnd
0
BLOCK
5
12A
100
AcDbEntity
8
0
100
AcDbBlockBegin
2
DimnDraft3D6
70
0
10
0
20
0
30
0
3
DimnDraft3D6
0
MTEXT
5
123
100
AcDbEntity
8
SK2
62
256
6
ByLayer
370
13
48
1
60
0
100
AcDbMText
10
-46.375163
20
23.34918
30
0
210
0
220
0
230
1
1
\W0.7317;8,000
40
3.5
41
0
44
1.084337
50
90
71
7
72
5
7
iso_b_vert
0
MTEXT
5
124
100
AcDbEntity
8
SK2
62
256
6
ByLayer
370
13
48
1
60
0
100
AcDbMText
10
-46.375163
20
18.126524
30
0
210
0
220
0
230
1
1
%%c
40
3.5
41
0
44
1.084337
50
90
71
7
72
5
7
iso_b_vert
0
LINE
5
125
100
AcDbEntity
8
SK2
62
256
6
ByLayer
370
13
48
1
60
0
100
AcDbLine
10
-37.5875
20
-4
30
0
11
-46.625163
21
-4
31
0
39
0
210
0
220
0
230
1
0
LINE
5
126
100
AcDbEntity
8
SK2
62
256
6
ByLayer
370
13
48
1
60
0
100
AcDbLine
10
-37.5875
20
4
30
0
11
-46.625163
21
4
31
0
39
0
210
0
220
0
230
1
0
LINE
5
127
100
AcDbEntity
8
SK2
62
256
6
ByLayer
370
13
48
1
60
0
100
AcDbLine
10
-44.625163
20
-4
30
0
11
-44.625163
21
33.121549
31
0
39
0
210
0
220
0
230
1
0
SOLID
5
128
100
AcDbEntity
8
SK2
62
256
6
ByLayer
370
13
48
1
60
0
100
AcDbTrace
10
-44.625163
20
-4
30
0
11
-45.085946
21
-0.500002
31
0
12
-44.164379
22
-0.499998
32
0
13
-44.625163
23
-4
33
0
39
0
210
0
220
0
230
1
0
SOLID
5
129
100
AcDbEntity
8
SK2
62
256
6
ByLayer
370
13
48
1
60
0
100
AcDbTrace
10
-44.625163
20
4
30
0
11
-44.164379
21
0.500002
31
0
12
-45.085946
22
0.499998
32
0
13
-44.625163
23
4
33
0
39
0
210
0
220
0
230
1
0
ENDBLK
5
12B
100
AcDbEntity
8
0
100
AcDbBlockEnd
0
BLOCK
5
135
100
AcDbEntity
8
0
100
AcDbBlockBegin
2
DimnDraft3D7
70
0
10
0
20
0
30
0
3
DimnDraft3D7
0
MTEXT
5
12E
100
AcDbEntity
8
2
62
256
6
ByLayer
370
13
48
1
60
0
100
AcDbMText
10
65.333343
20
21.942266
30
0
210
0
220
0
230
1
1
\W0.7317;8,000
40
3.5
41
0
44
1.084337
50
90
71
7
72
5
7
iso_b_vert
0
MTEXT
5
12F
100
AcDbEntity
8
2
62
256
6
ByLayer
370
13
48
1
60
0
100
AcDbMText
10
65.333343
20
16.71961
30
0
210
0
220
0
230
1
1
%%c
40
3.5
41
0
44
1.084337
50
90
71
7
72
5
7
iso_b_vert
0
LINE
5
130
100
AcDbEntity
8
2
62
256
6
ByLayer
370
13
48
1
60
0
100
AcDbLine
10
55.2175
20
-4
30
0
11
69.083343
21
-4
31
0
39
0
210
0
220
0
230
1
0
LINE
5
131
100
AcDbEntity
8
2
62
256
6
ByLayer
370
13
48
1
60
0
100
AcDbLine
10
55.2175
20
4
30
0
11
69.083343
21
4
31
0
39
0
210
0
220
0
230
1
0
LINE
5
132
100
AcDbEntity
8
2
62
256
6
ByLayer
370
13
48
1
60
0
100
AcDbLine
10
67.083343
20
-4
30
0
11
67.083343
21
31.714635
31
0
39
0
210
0
220
0
230
1
0
SOLID
5
133
100
AcDbEntity
8
2
62
256
6
ByLayer
370
13
48
1
60
0
100
AcDbTrace
10
67.083343
20
-4
30
0
11
66.622559
21
-0.500002
31
0
12
67.544126
22
-0.499998
32
0
13
67.083343
23
-4
33
0
39
0
210
0
220
0
230
1
0
SOLID
5
134
100
AcDbEntity
8
2
62
256
6
ByLayer
370
13
48
1
60
0
100
AcDbTrace
10
67.083343
20
4
30
0
11
67.544126
21
0.500002
31
0
12
66.622559
22
0.499998
32
0
13
67.083343
23
4
33
0
39
0
210
0
220
0
230
1
0
ENDBLK
5
136
100
AcDbEntity
8
0
100
AcDbBlockEnd
0
ENDSEC
0
SECTION
2
ENTITIES
0
ELLIPSE
5
9E
100
AcDbEntity
8
1
62
256
6
ByLayer
370
18
48
1
60
0
100
AcDbEllipse
10
4.25
20
4.036217
30
0
11
-0.25
21
3.06151588455594E-17
31
0
210
0
220
0
230
1
40
0.99999
41
0.340374158048042
42
1.59165502122819
0
ELLIPSE
5
9F
100
AcDbEntity
8
1
62
256
6
ByLayer
370
18
48
1
60
0
100
AcDbEllipse
10
4.25
20
-4.036217
30
0
11
-0.25
21
3.06151588455594E-17
31
0
210
0
220
0
230
1
40
0.99999
41
-1.55822141470372
42
-0.323037105225959
0
ELLIPSE
5
A0
100
AcDbEntity
8
1
62
256
6
ByLayer
370
13
48
1
60
0
100
AcDbEllipse
10
54.642499
20
1.970424
30
0
11
2.34562856564609
21
-1.2167416393088
31
0
210
0
220
0
230
-1
40
0.493864
41
1.5462469887172
42
1.82808081110898
0
ELLIPSE
5
A1
100
AcDbEntity
8
1
62
256
6
ByLayer
370
18
48
1
60
0
100
AcDbEllipse
10
54.229565
20
-1.970424
30
0
11
0.61788430675533
21
1.67889414719684
31
0
210
0
220
0
230
-1
40
0.098637
41
0.749112684718638
42
1.52324814311243
0
ELLIPSE
5
A2
100
AcDbEntity
8
1
62
256
6
ByLayer
370
13
48
1
60
0
100
AcDbEllipse
10
4.250223
20
0.162403
30
0
11
0.0532244398074726
21
0.0846590751613832
31
0
210
0
220
0
230
1
40
0.023406
41
3.12501564641142
42
-1.6052163308133
0
ELLIPSE
5
A3
100
AcDbEntity
8
1
62
256
6
ByLayer
370
13
48
1
60
0
100
AcDbEllipse
10
54.099354
20
0.570353
30
0
11
0.153082081612417
21
0.258003636193774
31
0
210
0
220
0
230
1
40
0.454519
41
0.917105603404792
42
2.31336900500021
0
ELLIPSE
5
A4
100
AcDbEntity
8
1
62
256
6
ByLayer
370
18
48
1
60
0
100
AcDbEllipse
10
55.035837
20
-0.014706
30
0
11
0.14063410498521
21
0.431000092725369
31
0
210
0
220
0
230
-1
40
0.07518
41
-2.31001430908407
42
-1.65186946888772
0
ELLIPSE
5
A5
100
AcDbEntity
8
1
62
256
6
ByLayer
370
13
48
1
60
0
100
AcDbEllipse
10
4.169756
20
0.213752
30
0
11
0.0546855491231142
21
0.0837227013246913
31
0
210
0
220
0
230
1
40
0.447975
41
1.90824583727659
42
-3.11056735572887
0
ELLIPSE
5
A6
100
AcDbEntity
8
1
62
256
6
ByLayer
370
18
48
1
60
0
100
AcDbEllipse
10
55.000348
20
-0.000874
30
0
11
1.47144302283732
21
-3.99815473742818
31
0
210
0
220
0
230
-1
40
0.098637
41
-2.97708447476811
42
-2.87285586412469
0
ELLIPSE
5
A7
100
AcDbEntity
8
1
62
256
6
ByLayer
370
18
48
1
60
0
100
AcDbEllipse
10
55.000348
20
0.000874
30
0
11
1.47144304807326
21
3.99815481079967
31
0
210
0
220
0
230
-1
40
0.098637
41
2.87285586660886
42
2.97708447627992
0
ELLIPSE
5
A8
100
AcDbEntity
8
1
62
256
6
ByLayer
370
18
48
1
60
0
100
AcDbEllipse
10
54.860282
20
0.118869
30
0
11
0.0727819104913499
21
0.301917195722438
31
0
210
0
220
0
230
-1
40
0.478434
41
1.72164263848473
42
2.45976119973687
0
ELLIPSE
5
A9
100
AcDbEntity
8
1
62
256
6
ByLayer
370
18
48
1
60
0
100
AcDbEllipse
10
55.035837
20
0.014706
30
0
11
0.140634104945959
21
-0.431000092622882
31
0
210
0
220
0
230
-1
40
0.07518
41
1.6518694687321
42
2.31001430906898
0
ELLIPSE
5
AA
100
AcDbEntity
8
1
62
256
6
ByLayer
370
18
48
1
60
0
100
AcDbEllipse
10
54.229565
20
1.970424
30
0
11
0.61788430670971
21
-1.67889414709546
31
0
210
0
220
0
230
-1
40
0.098637
41
-1.52324814315669
42
-0.749112684721039
0
ELLIPSE
5
AB
100
AcDbEntity
8
1
62
256
6
ByLayer
370
13
48
1
60
0
100
AcDbEllipse
10
54.452593
20
1.847227
30
0
11
2.27275204874097
21
-1.56485441439467
31
0
210
0
220
0
230
-1
40
0.533762
41
1.44484622738568
42
1.71647036564571
0
POINT
5
6C
100
AcDbEntity
8
81
62
256
6
ByLayer
370
18
48
1
60
0
100
AcDbPoint
10
55
20
0
30
0
39
0
210
0
220
0
230
1
50
360
0
POINT
5
6E
100
AcDbEntity
8
80
62
256
6
ByLayer
370
18
48
1
60
0
100
AcDbPoint
10
0
20
0
30
0
39
0
210
0
220
0
230
1
50
360
0
POINT
5
70
100
AcDbEntity
8
SK2
62
256
6
ByLayer
370
18
48
1
60
1
100
AcDbPoint
10
-36
20
-4
30
0
39
0
210
0
220
0
230
1
50
360
0
POINT
5
72
100
AcDbEntity
8
SK2
62
256
6
ByLayer
370
18
48
1
60
1
100
AcDbPoint
10
-36
20
4
30
0
39
0
210
0
220
0
230
1
50
360
0
POINT
5
73
100
AcDbEntity
8
2
62
256
6
ByLayer
370
18
48
1
60
1
100
AcDbPoint
10
53.63
20
-4
30
0
39
0
210
0
220
0
230
1
50
360
0
POINT
5
75
100
AcDbEntity
8
2
62
256
6
ByLayer
370
18
48
1
60
1
100
AcDbPoint
10
53.63
20
4
30
0
39
0
210
0
220
0
230
1
50
360
0
SPLINE
5
AC
100
AcDbEntity
8
1
62
256
6
ByLayer
370
18
48
1
60
0
100
AcDbSpline
70
4
71
2
72
6
73
3
40
0
40
0
40
0
40
1
40
1
40
1
41
1
10
4.81526905678967
20
3.78814718166998
30
0
41
1
10
4.53286780102457
20
3.78765186950503
30
0
41
1
10
4.25091066180892
20
3.78598935214149
30
0
0
SPLINE
5
AD
100
AcDbEntity
8
1
62
256
6
ByLayer
370
18
48
1
60
0
100
AcDbSpline
70
4
71
3
72
25
73
21
40
0
40
0
40
0
40
0
40
0.10228000680664
40
0.186827280046496
40
0.255207852434503
40
0.312118756008602
40
0.358946296981885
40
0.400957640076226
40
0.447264259542908
40
0.505580210973437
40
0.595172639577242
40
0.672634844170587
40
0.735838590909784
40
0.763763544713831
40
0.78973859358553
40
0.815819337277454
40
0.849255062639916
40
0.898382230023723
40
0.96311465319843
40
1
40
1
40
1
40
1
41
1
10
14.155049172727
20
-3.79131430423215
30
0
41
1
10
14.4887131771948
20
-3.79119069866931
30
0
41
1
10
15.0987296881751
20
-3.79138077312155
30
0
41
1
10
15.938554782114
20
-3.79033088055215
30
0
41
1
10
16.6222560993265
20
-3.79365678896971
30
0
41
1
10
17.1851910703111
20
-3.79316392086597
30
0
41
1
10
17.6639336098683
20
-3.79463940026258
30
0
41
1
10
18.107431121917
20
-3.79473753861183
30
0
41
1
10
18.5886580954447
20
-3.79401106108489
30
0
41
1
10
19.2254428262867
20
-3.79616136376095
30
0
41
1
10
19.9636634727476
20
-3.79324008016349
30
0
41
1
10
20.7205787271973
20
-3.79727329376618
30
0
41
1
10
21.2717285757095
20
-3.7963802258196
30
0
41
1
10
21.6549793046179
20
-3.79596074828134
30
0
41
1
10
21.9173176143352
20
-3.7966252623614
30
0
41
1
10
22.1979298479759
20
-3.79946207694229
30
0
41
1
10
22.5544777307662
20
-3.79885223830377
30
0
41
1
10
23.037886564072
20
-3.79737794751296
30
0
41
1
10
23.5326903674235
20
-3.799011318699
30
0
41
1
10
23.8661674051751
20
-3.79904808494552
30
0
41
1
10
23.9872097832343
20
-3.79907269346901
30
0
0
SPLINE
5
AE
100
AcDbEntity
8
1
62
256
6
ByLayer
370
18
48
1
60
0
100
AcDbSpline
70
4
71
3
72
11
73
7
40
0
40
0
40
0
40
0
40
0.0289544496907706
40
0.306433424912221
40
0.645171448443048
40
1
40
1
40
1
40
1
41
1
10
24.6698529205842
20
-0.97325226485566
30
0
41
1
10
24.6696921025475
20
-0.973236194123672
30
0
41
1
10
24.6689729377196
20
-0.973566057960795
30
0
41
1
10
24.6901324628737
20
-0.985924617274293
30
0
41
1
10
24.7520543790254
20
-1.02285883677214
30
0
41
1
10
24.8116680915766
20
-1.06194188658068
30
0
41
1
10
24.8469485597031
20
-1.08543635787078
30
0
0
SPLINE
5
AF
100
AcDbEntity
8
1
62
256
6
ByLayer
370
18
48
1
60
0
100
AcDbSpline
70
4
71
2
72
6
73
3
40
0
40
0
40
0
40
1
40
1
40
1
41
1
10
43.1188214185204
20
0.0011383815690067
30
0
41
1
10
43.1188127847091
20
0.0011438421952903
30
0
41
1
10
43.1188041508867
20
0.0011494272255845
30
0
0
SPLINE
5
B0
100
AcDbEntity
8
1
62
256
6
ByLayer
370
18
48
1
60
0
100
AcDbSpline
70
4
71
3
72
25
73
21
40
0
40
0
40
0
40
0
40
0.0628368118020616
40
0.11476057570153
40
0.150367550719365
40
0.176791013189976
40
0.207418218204458
40
0.242566936194357
40
0.280969785751348
40
0.318061202931196
40
0.423370293436657
40
0.517208198791069
40
0.619974308595544
40
0.722329373962687
40
0.754055591399098
40
0.78382336042762
40
0.817873334514573
40
0.87223379010617
40
0.947525534714715
40
1
40
1
40
1
40
1
41
1
10
33.608984779122
20
-3.80326195683085
30
0
41
1
10
33.8137142317458
20
-3.80344013433404
30
0
41
1
10
34.1876681259551
20
-3.80372877479385
30
0
41
1
10
34.677908737868
20
-3.80418123165268
30
0
41
1
10
35.0493264002637
20
-3.80426598225625
30
0
41
1
10
35.3513362247743
20
-3.80436840135008
30
0
41
1
10
35.6518849423111
20
-3.80486466926453
30
0
41
1
10
35.9914819440467
20
-3.80520994657292
30
0
41
1
10
36.3521490856076
20
-3.80520593465764
30
0
41
1
10
36.9415062845953
20
-3.80523204786078
30
0
41
1
10
37.7116342986244
20
-3.80625851417528
30
0
41
1
10
38.6957644221435
20
-3.8070852955986
30
0
41
1
10
39.6703412623634
20
-3.80609363490745
30
0
41
1
10
40.4424174462348
20
-3.80910550393739
30
0
41
1
10
40.9765325032556
20
-3.80818168198954
30
0
41
1
10
41.2879893399519
20
-3.80791337153494
30
0
41
1
10
41.6732289963502
20
-3.80931623907208
30
0
41
1
10
42.2068373816679
20
-3.80997775947878
30
0
41
1
10
42.8005688917592
20
-3.80815647479579
30
0
41
1
10
43.2170137747767
20
-3.80946544533467
30
0
41
1
10
43.3880457865706
20
-3.8101670112087
30
0
0
SPLINE
5
B1
100
AcDbEntity
8
1
62
256
6
ByLayer
370
18
48
1
60
0
100
AcDbSpline
70
4
71
3
72
26
73
22
40
0
40
0
40
0
40
0
40
0.020726563794044
40
0.0776668447401805
40
0.120414271802499
40
0.149917256230117
40
0.206884035443098
40
0.282507303487506
40
0.360752592470448
40
0.426822718940806
40
0.480794123020882
40
0.525443431806384
40
0.569241026990625
40
0.620122256652869
40
0.673695386431278
40
0.74462990910719
40
0.82431345857653
40
0.865071818593392
40
0.896060916760951
40
0.940539025821421
40
1
40
1
40
1
40
1
41
1
10
24.0036747111545
20
3.79950780763272
30
0
41
1
10
23.947375527297
20
3.799597524158
30
0
41
1
10
23.7364096483795
20
3.79981862038048
30
0
41
1
10
23.409357669813
20
3.79751978393438
30
0
41
1
10
23.0583988291473
20
3.79783857472319
30
0
41
1
10
22.7074986330062
20
3.79844260125825
30
0
41
1
10
22.2670906945256
20
3.800151195805
30
0
41
1
10
21.6947679996415
20
3.79447427004504
30
0
41
1
10
21.0979710660546
20
3.79766244811535
30
0
41
1
10
20.5593781315297
20
3.79601019508181
30
0
41
1
10
20.1118509784463
20
3.79477378686184
30
0
41
1
10
19.7260951007036
20
3.7954313780308
30
0
41
1
10
19.3479315989184
20
3.79618928443929
30
0
41
1
10
18.9452738251091
20
3.79476863492323
30
0
41
1
10
18.4688406689864
20
3.79415672859091
30
0
41
1
10
17.9142127292677
20
3.79516680365998
30
0
41
1
10
17.3943494020738
20
3.7935617688695
30
0
41
1
10
16.9830384924189
20
3.79338860076865
30
0
41
1
10
16.6674911866955
20
3.79341488743839
30
0
41
1
10
16.3009241356722
20
3.79348726525626
30
0
41
1
10
16.0187172711664
20
3.79294521875167
30
0
41
1
10
15.8572447903439
20
3.79271090739698
30
0
0
SPLINE
5
B2
100
AcDbEntity
8
1
62
256
6
ByLayer
370
18
48
1
60
0
100
AcDbSpline
70
4
71
2
72
6
73
3
40
0
40
0
40
0
40
1
40
1
40
1
41
1
10
4.2509106620148
20
-3.78598935214245
30
0
41
1
10
4.53238702147746
20
-3.78764944771837
30
0
41
1
10
4.81430674045043
20
-3.78814432770872
30
0
0
SPLINE
5
B3
100
AcDbEntity
8
1
62
256
6
ByLayer
370
18
48
1
60
0
100
AcDbSpline
70
4
71
2
72
6
73
3
40
0
40
0
40
0
40
1
40
1
40
1
41
1
10
53.024025923073
20
-3.81474410622215
30
0
41
1
10
53.3182124631746
20
-3.81269103445817
30
0
41
1
10
53.6121678244928
20
-3.81619027460582
30
0
0
SPLINE
5
B4
100
AcDbEntity
8
1
62
256
6
ByLayer
370
18
48
1
60
0
100
AcDbSpline
70
4
71
3
72
24
73
20
40
0
40
0
40
0
40
0
40
0.0431963396398912
40
0.112207249869059
40
0.174875035823725
40
0.230885905939067
40
0.298335109352731
40
0.363291695244619
40
0.413651365447635
40
0.449818708812684
40
0.489353985083927
40
0.541600205076158
40
0.616822869511657
40
0.69484401556983
40
0.764060873093341
40
0.824662991596719
40
0.883224566214245
40
0.943662959890419
40
1
40
1
40
1
40
1
41
1
10
43.385329669811
20
3.81015163420906
30
0
41
1
10
43.2682064996654
20
3.80974186867658
30
0
41
1
10
42.9639630493286
20
3.80896722184369
30
0
41
1
10
42.4895758355468
20
3.80861609891741
30
0
41
1
10
41.9808427615085
20
3.81036576650428
30
0
41
1
10
41.4760664005127
20
3.80820199511095
30
0
41
1
10
40.9650584790868
20
3.80799671303788
30
0
41
1
10
40.4693906705591
20
3.80910126892576
30
0
41
1
10
40.0585648237828
20
3.80742238441485
30
0
41
1
10
39.7166832612436
20
3.80679634739752
30
0
41
1
10
39.3696927323442
20
3.80704547392026
30
0
41
1
10
38.9167900915612
20
3.80764139045127
30
0
41
1
10
38.3596010282457
20
3.80549665071254
30
0
41
1
10
37.7563221883059
20
3.80629075845641
30
0
41
1
10
37.1925764680487
20
3.80609716841042
30
0
41
1
10
36.6818975593291
20
3.80500671686082
30
0
41
1
10
36.1950319060526
20
3.80530891070231
30
0
41
1
10
35.7194823094125
20
3.80498374702495
30
0
41
1
10
35.4028528335103
20
3.80448805632227
30
0
41
1
10
35.2500797548994
20
3.80433610101306
30
0
0
SPLINE
5
B5
100
AcDbEntity
8
1
62
256
6
ByLayer
370
18
48
1
60
0
100
AcDbSpline
70
4
71
3
72
11
73
7
40
0
40
0
40
0
40
0
40
0.060573009939173
40
0.213731508769061
40
0.427016736251483
40
1
40
1
40
1
40
1
41
1
10
44.0256161108101
20
-0.949804461937021
30
0
41
1
10
44.0255477322134
20
-0.94983095717734
30
0
41
1
10
44.0264110763828
20
-0.950548655999768
30
0
41
1
10
44.036801326389
20
-0.956907871738366
30
0
41
1
10
44.1032779685773
20
-0.996640658556458
30
0
41
1
10
44.1751884198684
20
-1.04035752527116
30
0
41
1
10
44.2432660405873
20
-1.08182466903469
30
0
0
SPLINE
5
B6
100
AcDbEntity
8
1
62
256
6
ByLayer
370
18
48
1
60
0
100
AcDbSpline
70
4
71
3
72
70
73
66
40
0
40
0
40
0
40
0
40
0.0624414595773437
40
0.0624414595773437
40
0.0936621893660155
40
0.0936621893660155
40
0.124882919154687
40
0.124882919154687
40
0.156103648943359
40
0.156103648943359
40
0.187324378732031
40
0.187324378732031
40
0.218545108520703
40
0.218545108520703
40
0.249765838309375
40
0.249765838309375
40
0.280986568098047
40
0.280986568098047
40
0.312207297886718
40
0.312207297886718
40
0.34342802767539
40
0.34342802767539
40
0.359038392569726
40
0.359038392569726
40
0.374648757464062
40
0.374648757464062
40
0.437090217041405
40
0.437090217041405
40
0.468310946830076
40
0.468310946830076
40
0.499531676618747
40
0.499531676618747
40
0.530752406407418
40
0.530752406407418
40
0.561973136196089
40
0.561973136196089
40
0.593193865984761
40
0.593193865984761
40
0.624414595773432
40
0.624414595773432
40
0.655635325562103
40
0.655635325562103
40
0.686856055350774
40
0.686856055350774
40
0.718076785139445
40
0.718076785139445
40
0.73368715003378
40
0.73368715003378
40
0.749297514928115
40
0.749297514928115
40
0.780518244716785
40
0.780518244716785
40
0.811738974505454
40
0.811738974505454
40
0.874180434082792
40
0.874180434082792
40
0.905401163871461
40
0.905401163871461
40
0.936621893660129
40
0.936621893660129
40
0.967842623448797
40
0.967842623448797
40
0.999063353237465
40
0.999063353237465
40
1
40
1
40
1
40
1
41
1
10
11.9474522791261
20
3.85935226883473
30
0
41
1
10
12.3857098763556
20
3.92778327018391
30
0
41
1
10
12.8227724180228
20
3.96528380599855
30
0
41
1
10
13.47312033233
20
3.97828048946283
30
0
41
1
10
13.689073208204
20
3.97517581606047
30
0
41
1
10
14.1226316466205
20
3.95443334142362
30
0
41
1
10
14.3397158920423
20
3.93683823817943
30
0
41
1
10
14.7739943618121
20
3.88701189880621
30
0
41
1
10
14.9907468712777
20
3.85455678427002
30
0
41
1
10
15.4264969812278
20
3.77527501287409
30
0
41
1
10
15.6460556694764
20
3.72856609595317
30
0
41
1
10
16.0855504548073
20
3.6210229237648
30
0
41
1
10
16.3041436011417
20
3.56051319472951
30
0
41
1
10
16.7388605381831
20
3.42588046557904
30
0
41
1
10
16.9559518633148
20
3.35248698969824
30
0
41
1
10
17.3901797035029
20
3.19445688604637
30
0
41
1
10
17.6071135347594
20
3.10965883314344
30
0
41
1
10
18.0401463237181
20
2.92794190447717
30
0
41
1
10
18.2560213660697
20
2.8307019054086
30
0
41
1
10
18.6902757733928
20
2.62758678922407
30
0
41
1
10
18.9081524012549
20
2.52122291287108
30
0
41
1
10
19.23571071836
20
2.35389237803864
30
0
41
1
10
19.3450255119391
20
2.2968192382138
30
0
41
1
10
19.5638461211714
20
2.17991650019479
30
0
41
1
10
19.6734639013907
20
2.11989876814357
30
0
41
1
10
20.2207669965767
20
1.81676458404291
30
0
41
1
10
20.6571929131057
20
1.56452373621028
30
0
41
1
10
21.3062028397458
20
1.16682606258482
30
0
41
1
10
21.522388677958
20
1.03217241841111
30
0
41
1
10
21.9559322274578
20
0.761012178932674
30
0
41
1
10
22.1729534027832
20
0.624001470280604
30
0
41
1
10
22.6070291599774
20
0.346338078365363
30
0
41
1
10
22.8237048294323
20
0.205056273346088
30
0
41
1
10
23.2602242326642
20
-0.0762397692451486
30
0
41
1
10
23.4803560112539
20
-0.217274444111695
30
0
41
1
10
23.918940333395
20
-0.497937362763622
30
0
41
1
10
24.1368077042885
20
-0.637739774673491
30
0
41
1
10
24.5709951198032
20
-0.914197423428988
30
0
41
1
10
24.788196468102
20
-1.04949010291159
30
0
41
1
10
25.2220913996443
20
-1.31550931574753
30
0
41
1
10
25.4388070257393
20
-1.44619984178476
30
0
41
1
10
25.8712593638107
20
-1.7036102499869
30
0
41
1
10
26.0873762017546
20
-1.82974900338237
30
0
41
1
10
26.521884638456
20
-2.07340443677254
30
0
41
1
10
26.7398122261291
20
-2.19159549139283
30
0
41
1
10
27.0673705912194
20
-2.36380103920871
30
0
41
1
10
27.1766559488741
20
-2.42036907877886
30
0
41
1
10
27.3954424203248
20
-2.53177274788686
30
0
41
1
10
27.5050562116072
20
-2.58648162909103
30
0
41
1
10
27.8333177704137
20
-2.74542581803561
30
0
41
1
10
28.0517131212202
20
-2.84538292475972
30
0
41
1
10
28.4870044169577
20
-3.03439189017158
30
0
41
1
10
28.7037758162504
20
-3.12354985944847
30
0
41
1
10
29.3521822687754
20
-3.3740170463912
30
0
41
1
10
29.786161283296
20
-3.5147639113919
30
0
41
1
10
30.4368639843578
20
-3.68886952330621
30
0
41
1
10
30.6537572159851
20
-3.74053639199369
30
0
41
1
10
31.0908233852466
20
-3.82911881127617
30
0
41
1
10
31.3111557427527
20
-3.86647004430563
30
0
41
1
10
31.7489139014949
20
-3.92639718183759
30
0
41
1
10
31.9661089182132
20
-3.94911990923816
30
0
41
1
10
32.4003166201213
20
-3.97941564237601
30
0
41
1
10
32.6174513759089
20
-3.98708034878777
30
0
41
1
10
32.8407515296145
20
-3.98749311055821
30
0
41
1
10
32.8472552645256
20
-3.98749857964469
30
0
41
1
10
32.8537586767568
20
-3.98749749040022
30
0
0
SPLINE
5
B7
100
AcDbEntity
8
1
62
256
6
ByLayer
370
18
48
1
60
0
100
AcDbSpline
70
4
71
3
72
28
73
24
40
0
40
0
40
0
40
0
40
0.0283969327102109
40
0.0283969327102109
40
0.13635282907574
40
0.13635282907574
40
0.244308725441269
40
0.244308725441269
40
0.352264621806798
40
0.352264621806798
40
0.460220518172327
40
0.460220518172327
40
0.514198466355095
40
0.514198466355095
40
0.568176414537862
40
0.568176414537862
40
0.676132310903397
40
0.676132310903397
40
0.784088207268931
40
0.784088207268931
40
0.892044103634465
40
0.892044103634465
40
1
40
1
40
1
40
1
41
1
10
47.6627135894423
20
2.94415625562527
30
0
41
1
10
47.7197765329037
20
2.96922263573634
30
0
41
1
10
47.7768336665102
20
2.99385958659929
30
0
41
1
10
48.0509187828611
20
3.10995314112583
30
0
41
1
10
48.2677508838978
20
3.19585838394224
30
0
41
1
10
48.7005818192366
20
3.35620224316412
30
0
41
1
10
48.916131192123
20
3.43096316239115
30
0
41
1
10
49.3485727872391
20
3.56694557780727
30
0
41
1
10
49.5656434595505
20
3.62812013366391
30
0
41
1
10
50.000711554954
20
3.73742434543792
30
0
41
1
10
50.2187026000643
20
3.78554632154925
30
0
41
1
10
50.5462693942207
20
3.8475463320124
30
0
41
1
10
50.6558482110789
20
3.86645613701989
30
0
41
1
10
50.8746225165413
20
3.90030225577746
30
0
41
1
10
50.9838590362668
20
3.91531136161777
30
0
41
1
10
51.3109767864095
20
3.95478264142432
30
0
41
1
10
51.528283258659
20
3.9737063135087
30
0
41
1
10
51.960903183054
20
3.99698278987043
30
0
41
1
10
52.1759937733447
20
4.0012463107891
30
0
41
1
10
52.6074980293743
20
3.99507712183964
30
0
41
1
10
52.823414829212
20
3.98474339383012
30
0
41
1
10
53.2550673809248
20
3.9495700718002
30
0
41
1
10
53.470477072719
20
3.92459906481946
30
0
41
1
10
53.6864289667113
20
3.89231186486359
30
0
0
SPLINE
5
B8
100
AcDbEntity
8
1
62
256
6
ByLayer
370
18
48
1
60
0
100
AcDbSpline
70
4
71
3
72
14
73
10
40
0
40
0
40
0
40
0
40
0.25
40
0.25
40
0.5
40
0.5
40
0.75
40
0.75
40
1
40
1
40
1
40
1
41
1
10
53.6464519306235
20
-3.87917109860771
30
0
41
1
10
53.6514793314074
20
-3.86579685916277
30
0
41
1
10
53.656260337965
20
-3.85204076034557
30
0
41
1
10
53.6638467745808
20
-3.8275132996184
30
0
41
1
10
53.6666029961735
20
-3.81683812960401
30
0
41
1
10
53.6694300555465
20
-3.80170926487395
30
0
41
1
10
53.6696085817507
20
-3.79698500347828
30
0
41
1
10
53.6682509503968
20
-3.79214030962339
30
0
41
1
10
53.6667213175297
20
-3.79193205189586
30
0
41
1
10
53.6646014144597
20
-3.79343334826797
30
0
0
SPLINE
5
B9
100
AcDbEntity
8
1
62
256
6
ByLayer
370
18
48
1
60
0
100
AcDbSpline
70
4
71
3
72
22
73
18
40
0
40
0
40
0
40
0
40
0.124999999999996
40
0.124999999999996
40
0.187499999999996
40
0.187499999999996
40
0.249999999999996
40
0.249999999999996
40
0.499999999999998
40
0.499999999999998
40
0.624999999999999
40
0.624999999999999
40
0.749999999999999
40
0.749999999999999
40
0.875
40
0.875
40
1
40
1
40
1
40
1
41
1
10
53.611456844922
20
-3.81499096452325
30
0
41
1
10
53.5535450811391
20
-3.81498771323757
30
0
41
1
10
53.4985338701198
20
-3.80623346010248
30
0
41
1
10
53.4206047117551
20
-3.77926106168437
30
0
41
1
10
53.3953949500861
20
-3.76795734720932
30
0
41
1
10
53.3465763612971
20
-3.74051987986897
30
0
41
1
10
53.3229272043679
20
-3.72433088106843
30
0
41
1
10
53.2105195393039
20
-3.63216966668881
30
0
41
1
10
53.1376407523172
20
-3.52250141950952
30
0
41
1
10
53.0555272386926
20
-3.30064606984121
30
0
41
1
10
53.032654055107
20
-3.21620851836738
30
0
41
1
10
52.9979706958095
20
-3.03221732111001
30
0
41
1
10
52.9859418645966
20
-2.93242706985751
30
0
41
1
10
52.9724505092378
20
-2.71734439481656
30
0
41
1
10
52.9709863887039
20
-2.60205431314122
30
0
41
1
10
52.9790803106359
20
-2.35530317619941
30
0
41
1
10
52.988621621689
20
-2.22562747691632
30
0
41
1
10
53.003368855966
20
-2.09137063082346
30
0
0
SPLINE
5
BA
100
AcDbEntity
8
1
62
256
6
ByLayer
370
13
48
1
60
0
100
AcDbSpline
70
4
71
3
72
10
73
6
40
0
40
0
40
0
40
0
40
0.5
40
0.5
40
1
40
1
40
1
40
1
41
1
10
4.00870579856314
20
0.302006433321821
30
0
41
1
10
4.01654513615949
20
0.28334118230336
30
0
41
1
10
4.02928092084656
20
0.266005529281273
30
0
41
1
10
4.0655346697549
20
0.234121864854728
30
0
41
1
10
4.08848635265261
20
0.220194120204326
30
0
41
1
10
4.11626045338517
20
0.209149044678469
30
0
0
SPLINE
5
BB
100
AcDbEntity
8
1
62
256
6
ByLayer
370
18
48
1
60
0
100
AcDbSpline
70
4
71
3
72
14
73
10
40
0
40
0
40
0
40
0
40
0.25
40
0.25
40
0.5
40
0.5
40
0.75
40
0.75
40
1
40
1
40
1
40
1
41
1
10
4.00891036123028
20
-3.9332672373163
30
0
41
1
10
4.01638063129704
20
-3.90508177001672
30
0
41
1
10
4.02866912656586
20
-3.87803765655894
30
0
41
1
10
4.06263803360446
20
-3.83014462335987
30
0
41
1
10
4.08395139855031
20
-3.81009379915042
30
0
41
1
10
4.13005077483305
20
-3.78056850491529
30
0
41
1
10
4.15484117860603
20
-3.77092698287231
30
0
41
1
10
4.20341210145875
20
-3.76041867779364
30
0
41
1
10
4.22772898770182
20
-3.75933992541474
30
0
41
1
10
4.25111117526296
20
-3.76151043685485
30
0
0
SPLINE
5
BC
100
AcDbEntity
8
1
62
256
6
ByLayer
370
18
48
1
60
0
100
AcDbSpline
70
4
71
3
72
12
73
8
40
0
40
0
40
0
40
0
40
0.215321820256712
40
0.215321820256712
40
0.583713307818197
40
0.583713307818197
40
1
40
1
40
1
40
1
41
1
10
53.0221607667305
20
-3.81475481676932
30
0
41
1
10
52.7214893837255
20
-3.81504207186106
30
0
41
1
10
52.421449628413
20
-3.8017242586005
30
0
41
1
10
51.6078851480902
20
-3.72936123678872
30
0
41
1
10
51.0941144548078
20
-3.64450085364814
30
0
41
1
10
49.9897730529055
20
-3.38210579514927
30
0
41
1
10
49.4109779701129
20
-3.19729594477093
30
0
41
1
10
48.8330046143276
20
-2.97372523661846
30
0
0
SPLINE
5
BD
100
AcDbEntity
8
1
62
256
6
ByLayer
370
13
48
1
60
0
100
AcDbSpline
70
4
71
3
72
28
73
24
40
0
40
0
40
0
40
0
40
0.146290562952914
40
0.146290562952914
40
0.230366730089713
40
0.230366730089713
40
0.272404813658111
40
0.272404813658111
40
0.314442897226508
40
0.314442897226508
40
0.4825952315001
40
0.4825952315001
40
0.650747565773691
40
0.650747565773691
40
0.692785649342089
40
0.692785649342089
40
0.734823732910487
40
0.734823732910487
40
0.818899900047286
40
0.818899900047286
40
0.987052234320887
40
0.987052234320887
40
1
40
1
40
1
40
1
41
1
10
48.8330046143242
20
-2.97372523661718
30
0
41
1
10
48.38802687267
20
-2.80159967439536
30
0
41
1
10
47.9435361977843
20
-2.60649917575566
30
0
41
1
10
47.239858095528
20
-2.26800911712795
30
0
41
1
10
46.9822601907297
20
-2.13787282883345
30
0
41
1
10
46.5938066907723
20
-1.93373805571727
30
0
41
1
10
46.4641021507729
20
-1.8642731530791
30
0
41
1
10
46.2057277129333
20
-1.72357756601707
30
0
41
1
10
46.0768456230425
20
-1.65221399406101
30
0
41
1
10
45.4337324268314
20
-1.29071994200334
30
0
41
1
10
44.9229457267718
20
-0.987156921430199
30
0
41
1
10
43.8995801160228
20
-0.366105920331904
30
0
41
1
10
43.3870746411888
20
-0.048510059906846
30
0
41
1
10
42.7405458673816
20
0.349499546091891
30
0
41
1
10
42.6107379446682
20
0.429243729431022
30
0
41
1
10
42.3520376087583
20
0.587411780427686
30
0
41
1
10
42.2229912451575
20
0.665940944222825
30
0
41
1
10
41.8365528454664
20
0.899537677496539
30
0
41
1
10
41.5798510787913
20
1.05257501838392
30
0
41
1
10
40.8115134953472
20
1.50250936662044
30
0
41
1
10
40.3005854267003
20
1.78826475402869
30
0
41
1
10
39.7479715961456
20
2.07517467341393
30
0
41
1
10
39.708447354301
20
2.09556964996773
30
0
41
1
10
39.6689055770445
20
2.11584309215317
30
0
0
SPLINE
5
BE
100
AcDbEntity
8
1
62
256
6
ByLayer
370
18
48
1
60
0
100
AcDbSpline
70
4
71
3
72
16
73
12
40
0
40
0
40
0
40
0
40
0.168565547471868
40
0.168565547471868
40
0.554292099111639
40
0.554292099111639
40
0.747155374931527
40
0.747155374931527
40
0.940018650751413
40
0.940018650751413
40
1
40
1
40
1
40
1
41
1
10
14.1953686099773
20
-3.7913351549935
30
0
41
1
10
13.9705902147455
20
-3.79091359343062
30
0
41
1
10
13.7463794271376
20
-3.78295261756213
30
0
41
1
10
13.0097154045023
20
-3.73229004642835
30
0
41
1
10
12.4982664568522
20
-3.65832409540343
30
0
41
1
10
11.7260732529408
20
-3.49073675640983
30
0
41
1
10
11.4679035809929
20
-3.42548488802282
30
0
41
1
10
10.9488124486887
20
-3.27645967647501
30
0
41
1
10
10.6900485802997
20
-3.19328277877574
30
0
41
1
10
10.352330339765
20
-3.07414024652695
30
0
41
1
10
10.2723006769994
20
-3.04512501786718
30
0
41
1
10
10.1923402875281
20
-3.01537795908678
30
0
0
SPLINE
5
BF
100
AcDbEntity
8
1
62
256
6
ByLayer
370
13
48
1
60
0
100
AcDbSpline
70
4
71
3
72
16
73
12
40
0
40
0
40
0
40
0
40
0.479775998377095
40
0.479775998377095
40
0.544803998579959
40
0.544803998579959
40
0.609831998782823
40
0.609831998782823
40
0.739887999188549
40
0.739887999188549
40
1
40
1
40
1
40
1
41
1
10
10.1923402867856
20
-3.01537795881049
30
0
41
1
10
9.24388615483238
20
-2.66253174326863
30
0
41
1
10
8.30517852329152
20
-2.20671969307151
30
0
41
1
10
7.21875154975549
20
-1.60949717924089
30
0
41
1
10
7.08874769805703
20
-1.53691863112994
30
0
41
1
10
6.82968969452895
20
-1.39028476119626
30
0
41
1
10
6.70042047886326
20
-1.31611409949721
30
0
41
1
10
6.31311407359692
20
-1.09148650841078
30
0
41
1
10
6.05557106374721
20
-0.938925065411809
30
0
41
1
10
5.28324234324165
20
-0.47553789114545
30
0
41
1
10
4.76865254579667
20
-0.159188499006916
30
0
41
1
10
4.25037177191678
20
0.158244703675678
30
0
0
SPLINE
5
C0
100
AcDbEntity
8
1
62
256
6
ByLayer
370
18
48
1
60
0
100
AcDbSpline
70
4
71
3
72
57
73
53
40
0
40
0
40
0
40
0
40
0.0624999999999989
40
0.0624999999999989
40
0.124999999999998
40
0.124999999999998
40
0.249999999999996
40
0.249999999999996
40
0.374999999999993
40
0.374999999999993
40
0.437499999999992
40
0.437499999999992
40
0.499999999999991
40
0.499999999999991
40
0.624999999999989
40
0.624999999999989
40
0.640624999999989
40
0.648437499999989
40
0.648437499999989
40
0.652343749999989
40
0.652343749999989
40
0.656249999999989
40
0.656249999999989
40
0.687499999999988
40
0.687499999999988
40
0.718749999999987
40
0.718749999999987
40
0.734374999999986
40
0.734374999999986
40
0.742187499999986
40
0.742187499999986
40
0.749999999999986
40
0.749999999999986
40
0.765624999999987
40
0.765624999999987
40
0.781249999999988
40
0.781249999999988
40
0.796874999999989
40
0.796874999999989
40
0.81249999999999
40
0.81249999999999
40
0.82812499999999
40
0.82812499999999
40
0.843749999999991
40
0.843749999999991
40
0.874999999999993
40
0.874999999999993
40
0.906249999999994
40
0.906249999999994
40
0.937499999999996
40
0.937499999999996
40
1
40
1
40
1
40
1
41
1
10
11.947489092241
20
-3.8593654103521
30
0
41
1
10
11.6888658603305
20
-3.81922256901149
30
0
41
1
10
11.4286324159698
20
-3.76968051199256
30
0
41
1
10
10.9039895431657
20
-3.65444883803653
30
0
41
1
10
10.6389486698801
20
-3.58856746768666
30
0
41
1
10
9.84042364179362
20
-3.37238394753908
30
0
41
1
10
9.30484192541121
20
-3.20388241548054
30
0
41
1
10
8.21569107674372
20
-2.85048069861909
30
0
41
1
10
7.6620094389863
20
-2.66576437881605
30
0
41
1
10
6.81052279109826
20
-2.40346835849516
30
0
41
1
10
6.52322606401307
20
-2.31850640382623
30
0
41
1
10
5.94083741274483
20
-2.15776865630696
30
0
41
1
10
5.64509771821793
20
-2.08187185957814
30
0
41
1
10
4.7537017224993
20
-1.87556357306022
30
0
41
1
10
4.15195261348077
20
-1.76615591185887
30
0
41
1
10
3.46552253101294
20
-1.6851358730091
30
0
41
1
10
3.35092076463729
20
-1.67250182266614
30
0
41
1
10
3.23601976054306
20
-1.66120529076753
30
0
41
1
10
3.1785190179661
20
-1.65578271337236
30
0
41
1
10
3.15896237306543
20
-1.65450886026295
30
0
41
1
10
3.11973616776851
20
-1.65817758574244
30
0
41
1
10
3.10051296733957
20
-1.66273327720828
30
0
41
1
10
2.94287070453368
20
-1.73971732781976
30
0
41
1
10
2.80702027995369
20
-1.81492191513695
30
0
41
1
10
2.55338125869156
20
-1.98016170259234
30
0
41
1
10
2.43468640547422
20
-2.07046124282351
30
0
41
1
10
2.27770095678454
20
-2.2220955820415
30
0
41
1
10
2.2299887891019
20
-2.27439747275798
30
0
41
1
10
2.16674327497748
20
-2.3558270769862
30
0
41
1
10
2.14705380248267
20
-2.38346778705926
30
0
41
1
10
2.11077626945323
20
-2.43982268654372
30
0
41
1
10
2.09414217026935
20
-2.46866474054531
30
0
41
1
10
2.05040628054809
20
-2.55490049567993
30
0
41
1
10
2.02906296073644
20
-2.61252532459736
30
0
41
1
10
2.00261265838765
20
-2.72771860899058
30
0
41
1
10
1.99766809102542
20
-2.78592806828158
30
0
41
1
10
2.00411710936223
20
-2.89680232541954
30
0
41
1
10
2.01520258989956
20
-2.94993365429613
30
0
41
1
10
2.05084871358901
20
-3.05193533306928
30
0
41
1
10
2.07516446444563
20
-3.09997768174173
30
0
41
1
10
2.13303633541733
20
-3.18975220819249
30
0
41
1
10
2.16671389403714
20
-3.2317699099095
30
0
41
1
10
2.24157973107361
20
-3.3110324529703
30
0
41
1
10
2.28293447137108
20
-3.34835699759739
30
0
41
1
10
2.41367370593721
20
-3.4522856933543
30
0
41
1
10
2.51023941362965
20
-3.51180392936689
30
0
41
1
10
2.71531134087013
20
-3.61719684201893
30
0
41
1
10
2.82421759984379
20
-3.66308404978173
30
0
41
1
10
3.04941231819163
20
-3.74351015694148
30
0
41
1
10
3.16492095087796
20
-3.77779176668636
30
0
41
1
10
3.51760495809009
20
-3.86650303549919
30
0
41
1
10
3.76080412014824
20
-3.90699047202926
30
0
41
1
10
4.00891036122863
20
-3.93326723731613
30
0
0
SPLINE
5
C1
100
AcDbEntity
8
1
62
256
6
ByLayer
370
18
48
1
60
0
100
AcDbSpline
70
4
71
3
72
14
73
10
40
0
40
0
40
0
40
0
40
0.25
40
0.25
40
0.5
40
0.5
40
0.75
40
0.75
40
1
40
1
40
1
40
1
41
1
10
4.25111117571254
20
-3.7615104368966
30
0
41
1
10
4.53599726599305
20
-3.78795571777357
30
0
41
1
10
4.82619233328998
20
-3.79420391790117
30
0
41
1
10
5.4143546684212
20
-3.7723193148467
30
0
41
1
10
5.71306276717786
20
-3.74392530612104
30
0
41
1
10
6.30951641290935
20
-3.657959696989
30
0
41
1
10
6.60833784199099
20
-3.60034380096764
30
0
41
1
10
7.20912618257785
20
-3.46145608577856
30
0
41
1
10
7.51109205156928
20
-3.37956533043791
30
0
41
1
10
7.81620208150793
20
-3.28650580843646
30
0
0
SPLINE
5
C2
100
AcDbEntity
8
1
62
256
6
ByLayer
370
18
48
1
60
0
100
AcDbSpline
70
4
71
3
72
16
73
12
40
0
40
0
40
0
40
0
40
0.0015835225610185
40
0.0015835225610185
40
0.397468493040222
40
0.397468493040222
40
0.595410978279823
40
0.595410978279823
40
0.793353463519424
40
0.793353463519424
40
1
40
1
40
1
40
1
41
1
10
33.6175917173734
20
-3.80325498978138
30
0
41
1
10
33.615540380905
20
-3.80325579443505
30
0
41
1
10
33.61348908464
20
-3.80325597246639
30
0
41
1
10
33.0986181460993
20
-3.80314340357182
30
0
41
1
10
32.5876949182748
20
-3.76361725614146
30
0
41
1
10
31.818283391001
20
-3.64669729434795
30
0
41
1
10
31.5612944013464
20
-3.59808037872909
30
0
41
1
10
31.045030993236
20
-3.48187197964503
30
0
41
1
10
30.7851630084973
20
-3.4140761630986
30
0
41
1
10
30.2558301041902
20
-3.25783038316928
30
0
41
1
10
29.9859217751373
20
-3.16859600486441
30
0
41
1
10
29.7158654307651
20
-3.07049811569857
30
0
0
SPLINE
5
C3
100
AcDbEntity
8
1
62
256
6
ByLayer
370
13
48
1
60
0
100
AcDbSpline
70
4
71
3
72
24
73
20
40
0
40
0
40
0
40
0
40
0.0796555876328964
40
0.0796555876328964
40
0.246294305187285
40
0.246294305187285
40
0.329613663964479
40
0.329613663964479
40
0.412933022741674
40
0.412933022741674
40
0.579571740296064
40
0.579571740296064
40
0.662891099073259
40
0.662891099073259
40
0.704550778461856
40
0.704550778461856
40
0.746210457850453
40
0.746210457850453
40
1
40
1
40
1
40
1
41
1
10
29.7158654308832
20
-3.07049811574146
30
0
41
1
10
29.4685588920032
20
-2.98066408685838
30
0
41
1
10
29.2211282253125
20
-2.88339698817583
30
0
41
1
10
28.4542664884551
20
-2.56101215364677
30
0
41
1
10
27.9376934123994
20
-2.31480825942739
30
0
41
1
10
27.1614529843048
20
-1.91188267178961
30
0
41
1
10
26.9015836194722
20
-1.77165120304821
30
0
41
1
10
26.3840532232726
20
-1.48397942469711
30
0
41
1
10
26.1265572014334
20
-1.33647906073213
30
0
41
1
10
25.356069444983
20
-0.88588641443414
30
0
41
1
10
24.8448221302032
20
-0.575098922844887
30
0
41
1
10
24.0757433926026
20
-0.102942121720702
30
0
41
1
10
23.8188762683464
20
0.0552307179612512
30
0
41
1
10
23.432091169288
20
0.292477660741326
30
0
41
1
10
23.3029255872338
20
0.371576504571834
30
0
41
1
10
23.0440226217184
20
0.529643228874505
30
0
41
1
10
22.9140944456763
20
0.608712440888127
30
0
41
1
10
21.9960798832874
20
1.16419474758527
30
0
41
1
10
21.218826572077
20
1.61666841516924
30
0
41
1
10
20.4378896218117
20
2.02244951761503
30
0
0
SPLINE
5
C4
100
AcDbEntity
8
1
62
256
6
ByLayer
370
18
48
1
60
0
100
AcDbSpline
70
2053
71
3
72
62
73
58
40
0
40
0
40
0
40
0
40
0.0312499999999987
40
0.0312499999999987
40
0.0624999999999974
40
0.0624999999999974
40
0.0937499999999961
40
0.0937499999999961
40
0.124999999999995
40
0.124999999999995
40
0.156249999999993
40
0.156249999999993
40
0.187499999999992
40
0.187499999999992
40
0.218749999999991
40
0.218749999999991
40
0.24999999999999
40
0.24999999999999
40
0.281249999999988
40
0.281249999999988
40
0.312499999999987
40
0.312499999999987
40
0.374999999999984
40
0.374999999999984
40
0.437499999999982
40
0.437499999999982
40
0.468749999999983
40
0.468749999999983
40
0.499999999999984
40
0.499999999999984
40
0.531249999999985
40
0.531249999999985
40
0.562499999999986
40
0.562499999999986
40
0.593749999999987
40
0.593749999999987
40
0.624999999999988
40
0.624999999999988
40
0.656249999999989
40
0.656249999999989
40
0.68749999999999
40
0.68749999999999
40
0.718749999999991
40
0.718749999999991
40
0.749999999999992
40
0.749999999999992
40
0.781249999999993
40
0.781249999999993
40
0.812499999999994
40
0.812499999999994
40
0.874999999999996
40
0.874999999999996
40
0.937499999999998
40
0.937499999999998
40
0.968749999999999
40
0.968749999999999
40
1
40
1
40
1
40
1
41
1
10
54.1883794227088
20
-1.80268571795777
30
0
41
1
10
54.2082168565969
20
-1.77379389785602
30
0
41
1
10
54.2276099734433
20
-1.74291754725502
30
0
41
1
10
54.265439218314
20
-1.67689048037616
30
0
41
1
10
54.2840753925115
20
-1.64131671861338
30
0
41
1
10
54.3191173969877
20
-1.56728943684476
30
0
41
1
10
54.3354603336982
20
-1.52906724445492
30
0
41
1
10
54.3654573592257
20
-1.44986442978006
30
0
41
1
10
54.3788244073571
20
-1.40949886375228
30
0
41
1
10
54.4009974529938
20
-1.33049054190195
30
0
41
1
10
54.410080310996
20
-1.29072096986232
30
0
41
1
10
54.4227991243254
20
-1.21609059738003
30
0
41
1
10
54.4265620884424
20
-1.1809348332684
30
0
41
1
10
54.4288903556185
20
-1.11597583729704
30
0
41
1
10
54.4274498252182
20
-1.08717886829635
30
0
41
1
10
54.4199465871732
20
-1.03611986215219
30
0
41
1
10
54.4138933683384
20
-1.01427863704617
30
0
41
1
10
54.3981354580517
20
-0.978132588547936
30
0
41
1
10
54.3882899674281
20
-0.963566710345759
30
0
41
1
10
54.3658664668499
20
-0.941707249738101
30
0
41
1
10
54.3532573381192
20
-0.934257040762532
30
0
41
1
10
54.3116071587346
20
-0.921425302959108
30
0
41
1
10
54.279729515948
20
-0.925672771936917
30
0
41
1
10
54.2096999686312
20
-0.956813051944835
30
0
41
1
10
54.1726468214817
20
-0.98319045481378
30
0
41
1
10
54.1144985977423
20
-1.03867169786343
30
0
41
1
10
54.0946502891926
20
-1.05994657577071
30
0
41
1
10
54.0553560872776
20
-1.10680750281884
30
0
41
1
10
54.0357413342426
20
-1.13253880210317
30
0
41
1
10
53.9965825690643
20
-1.18903304292985
30
0
41
1
10
53.9768196694349
20
-1.22018019199211
30
0
41
1
10
53.9386338526067
20
-1.28639088329834
30
0
41
1
10
53.9202389207423
20
-1.32132156484451
30
0
41
1
10
53.8850419632412
20
-1.39534866805099
30
0
41
1
10
53.8683357794974
20
-1.43437694116392
30
0
41
1
10
53.8386336825723
20
-1.51274664663765
30
0
41
1
10
53.8252842071488
20
-1.55293789482656
30
0
41
1
10
53.8027772563921
20
-1.63329687051649
30
0
41
1
10
53.7939668629646
20
-1.67210886577576
30
0
41
1
10
53.7812160114042
20
-1.74700695493613
30
0
41
1
10
53.7774118868471
20
-1.78276237014586
30
0
41
1
10
53.7750402986647
20
-1.84731903724432
30
0
41
1
10
53.7764415980831
20
-1.87690654470606
30
0
41
1
10
53.7837685274791
20
-1.92809459232319
30
0
41
1
10
53.7897156093396
20
-1.95021846837773
30
0
41
1
10
53.8053715491241
20
-1.9870499371398
30
0
41
1
10
53.8149703898186
20
-2.00165383932844
30
0
41
1
10
53.8372950754335
20
-2.02413070920784
30
0
41
1
10
53.8500167879665
20
-2.03189645226431
30
0
41
1
10
53.8912906585159
20
-2.04522366441154
30
0
41
1
10
53.9237071769012
20
-2.04107780481201
30
0
41
1
10
53.9932438914389
20
-2.01010402210949
30
0
41
1
10
54.0312251395358
20
-1.98285790255423
30
0
41
1
10
54.0891711089953
20
-1.92703791621611
30
0
41
1
10
54.1087245884807
20
-1.90591956575878
30
0
41
1
10
54.1483418722699
20
-1.85830078288143
30
0
41
1
10
54.1685419888206
20
-1.83157753805952
30
0
41
1
10
54.1883794227087
20
-1.80268571795777
30
0
0
SPLINE
5
C5
100
AcDbEntity
8
1
62
256
6
ByLayer
370
18
48
1
60
0
100
AcDbSpline
70
4
71
3
72
26
73
22
40
0
40
0
40
0
40
0
40
0.0352688533029541
40
0.0352688533029541
40
0.353006597340839
40
0.353006597340839
40
0.392723815345574
40
0.392723815345574
40
0.43244103335031
40
0.43244103335031
40
0.511875469359779
40
0.511875469359779
40
0.670744341378719
40
0.670744341378719
40
0.750178777388187
40
0.750178777388187
40
0.829613213397655
40
0.829613213397655
40
0.988482085416589
40
0.988482085416589
40
1
40
1
40
1
40
1
41
1
10
19.3171201645914
20
2.54714516734708
30
0
41
1
10
19.4320070401757
20
2.49240300038238
30
0
41
1
10
19.5466536898705
20
2.43645096031827
30
0
41
1
10
20.6922887888515
20
1.86506952180446
30
0
41
1
10
21.7084732024842
20
1.25909375348053
30
0
41
1
10
22.8748118768344
20
0.532061137033935
30
0
41
1
10
23.0048775807342
20
0.450579532147344
30
0
41
1
10
23.2639749136578
20
0.287853853417602
30
0
41
1
10
23.393225193269
20
0.206485581979308
30
0
41
1
10
23.7802323539244
20
-0.0373881092538682
30
0
41
1
10
24.0372325410774
20
-0.199691442881573
30
0
41
1
10
24.8067053800046
20
-0.683406576697166
30
0
41
1
10
25.3181516438869
20
-1.00089771734707
30
0
41
1
10
26.089229483071
20
-1.45969966163432
30
0
41
1
10
26.3469446386966
20
-1.60967315497041
30
0
41
1
10
26.8650294605157
20
-1.90169815402061
30
0
41
1
10
27.125150659071
20
-2.04370748029399
30
0
41
1
10
27.9020731038201
20
-2.45085758236164
30
0
41
1
10
28.419209181047
20
-2.69852142577366
30
0
41
1
10
28.9761768382274
20
-2.93231041898847
30
0
41
1
10
29.0138131710093
20
-2.9479453827326
30
0
41
1
10
29.0514372895601
20
-2.96340998746936
30
0
0
SPLINE
5
C6
100
AcDbEntity
8
1
62
256
6
ByLayer
370
13
48
1
60
0
100
AcDbSpline
70
4
71
3
72
18
73
14
40
0
40
0
40
0
40
0
40
0.249125586701054
40
0.249125586701054
40
0.383425022655995
40
0.383425022655995
40
0.517724458610936
40
0.517724458610936
40
0.786323330520818
40
0.786323330520818
40
0.920622766475757
40
0.920622766475757
40
1
40
1
40
1
40
1
41
1
10
29.0514372892599
20
-2.96340998734593
30
0
41
1
10
29.5327700732588
20
-3.16125173191063
30
0
41
1
10
30.0121038040685
20
-3.33121151528923
30
0
41
1
10
30.7522644983125
20
-3.5450298867365
30
0
41
1
10
31.0123596788841
20
-3.61090130768113
30
0
41
1
10
31.5289120940618
20
-3.72254982573085
30
0
41
1
10
31.7860311352363
20
-3.7685433185315
30
0
41
1
10
32.5558212870051
20
-3.87665928402896
30
0
41
1
10
33.0669420983878
20
-3.90906836267041
30
0
41
1
10
33.8367108681141
20
-3.89696316050185
30
0
41
1
10
34.0939533515437
20
-3.88284586783661
30
0
41
1
10
34.5050602438202
20
-3.8440393745843
30
0
41
1
10
34.6584375658251
20
-3.82596800556863
30
0
41
1
10
34.8117042969014
20
-3.80441488946579
30
0
0
SPLINE
5
C7
100
AcDbEntity
8
1
62
256
6
ByLayer
370
18
48
1
60
0
100
AcDbSpline
70
4
71
3
72
14
73
10
40
0
40
0
40
0
40
0
40
0.250000000000001
40
0.250000000000001
40
0.5
40
0.5
40
0.75
40
0.75
40
1
40
1
40
1
40
1
41
1
10
53.2962691141491
20
0.874121323816581
30
0
41
1
10
53.2907769160104
20
0.902661859248724
30
0
41
1
10
53.2892887432209
20
0.931775640632253
30
0
41
1
10
53.296337913736
20
0.991570906705732
30
0
41
1
10
53.3048888380776
20
1.02122683914075
30
0
41
1
10
53.3340008989648
20
1.07628894678925
30
0
41
1
10
53.3546981605795
20
1.10110888144581
30
0
41
1
10
53.404676771061
20
1.13895009919753
30
0
41
1
10
53.4339043176771
20
1.15230780604989
30
0
41
1
10
53.4645159942791
20
1.15973964029595
30
0
0
SPLINE
5
C8
100
AcDbEntity
8
1
62
256
6
ByLayer
370
18
48
1
60
0
100
AcDbSpline
70
4
71
3
72
16
73
12
40
0
40
0
40
0
40
0
40
0.112506322167827
40
0.112506322167827
40
0.427014017084787
40
0.427014017084787
40
0.741521712001747
40
0.741521712001747
40
0.898775559460227
40
0.898775559460227
40
1
40
1
40
1
40
1
41
1
10
11.9474761360524
20
3.85936280872065
30
0
41
1
10
11.8640562511552
20
3.82250840298971
30
0
41
1
10
11.7806100708576
20
3.7842233565712
30
0
41
1
10
11.4636323895185
20
3.63306325755187
30
0
41
1
10
11.229468286806
20
3.50944898898052
30
0
41
1
10
10.7565884195367
20
3.2363669600791
30
0
41
1
10
10.5241709457812
20
3.09056567695114
30
0
41
1
10
10.1772779465224
20
2.86419982450096
30
0
41
1
10
10.0619127560773
20
2.78750762791518
30
0
41
1
10
9.87195935171425
20
2.66058296345506
30
0
41
1
10
9.79738426486179
20
2.61059140915813
30
0
41
1
10
9.72269669127519
20
2.56066325637502
30
0
0
SPLINE
5
C9
100
AcDbEntity
8
1
62
256
6
ByLayer
370
18
48
1
60
0
100
AcDbSpline
70
4
71
3
72
10
73
6
40
0
40
0
40
0
40
0
40
0.35212332776151
40
0.35212332776151
40
1
40
1
40
1
40
1
41
1
10
8.312310854739
20
-2.8773466170841
30
0
41
1
10
8.25588278576555
20
-2.92837459292448
30
0
41
1
10
8.19866150341841
20
-2.97885874353079
30
0
41
1
10
8.03324544223153
20
-3.12001322037764
30
0
41
1
10
7.92534615093405
20
-3.20608050115581
30
0
41
1
10
7.81611919864406
20
-3.28646665859142
30
0
0
SPLINE
5
CA
100
AcDbEntity
8
1
62
256
6
ByLayer
370
18
48
1
60
0
100
AcDbSpline
70
4
71
3
72
36
73
32
40
0
40
0
40
0
40
0
40
0.125000000000001
40
0.125000000000001
40
0.250000000000001
40
0.250000000000001
40
0.375000000000002
40
0.375000000000002
40
0.500000000000002
40
0.500000000000002
40
0.625000000000003
40
0.625000000000003
40
0.687499999999999
40
0.687499999999999
40
0.718749999999998
40
0.718749999999998
40
0.749999999999996
40
0.749999999999996
40
0.812499999999993
40
0.812499999999993
40
0.843749999999994
40
0.843749999999994
40
0.874999999999995
40
0.874999999999995
40
0.906249999999996
40
0.906249999999996
40
0.937499999999998
40
0.937499999999998
40
0.968749999999999
40
0.968749999999999
40
1
40
1
40
1
40
1
41
1
10
50.3174706809083
20
1.66052196311765
30
0
41
1
10
50.4521366530127
20
1.53999827592443
30
0
41
1
10
50.5891016611702
20
1.4246503881655
30
0
41
1
10
50.868237134225
20
1.20567361114399
30
0
41
1
10
51.0096598859261
20
1.10263063620962
30
0
41
1
10
51.2955529296933
20
0.911504880037
30
0
41
1
10
51.440901715703
20
0.82297024683615
30
0
41
1
10
51.7310640465557
20
0.664765127998521
30
0
41
1
10
51.8758702773317
20
0.595054775439962
30
0
41
1
10
52.1648792305638
20
0.476250878591856
30
0
41
1
10
52.3090825515319
20
0.427136888185487
30
0
41
1
10
52.5248557909574
20
0.371631059641345
30
0
41
1
10
52.5968342209978
20
0.356138952404336
30
0
41
1
10
52.704171598432
20
0.338035117968417
30
0
41
1
10
52.7397583142549
20
0.332873158558527
30
0
41
1
10
52.8105349113817
20
0.324349034368993
30
0
41
1
10
52.8458463056153
20
0.320577125566075
30
0
41
1
10
52.9501165191985
20
0.315310184970883
30
0
41
1
10
53.0168130013359
20
0.321821648363397
30
0
41
1
10
53.1065388071921
20
0.350593649602729
30
0
41
1
10
53.1349150347963
20
0.36324573093026
30
0
41
1
10
53.1878818300407
20
0.396112975913098
30
0
41
1
10
53.212103586504
20
0.416212858566638
30
0
41
1
10
53.2536196405758
20
0.464060206439058
30
0
41
1
10
53.2713197920419
20
0.492421377819539
30
0
41
1
10
53.2974672135081
20
0.555911645339165
30
0
41
1
10
53.3059309529841
20
0.591045386381751
30
0
41
1
10
53.314877089772
20
0.667179636972548
30
0
41
1
10
53.3153844979726
20
0.7073558645248
30
0
41
1
10
53.3102041413367
20
0.789216004107459
30
0
41
1
10
53.3045247106734
20
0.831220623739455
30
0
41
1
10
53.2962691141491
20
0.874121323816581
30
0
0
SPLINE
5
CB
100
AcDbEntity
8
1
62
256
6
ByLayer
370
18
48
1
60
0
100
AcDbSpline
70
4
71
3
72
74
73
70
40
0
40
0
40
0
40
0
40
0.055432322785928
40
0.055432322785928
40
0.083513529746005
40
0.083513529746005
40
0.111594736706082
40
0.111594736706082
40
0.139675943666159
40
0.139675943666159
40
0.167757150626236
40
0.167757150626236
40
0.195838357586313
40
0.195838357586313
40
0.22391956454639
40
0.22391956454639
40
0.252000771506467
40
0.252000771506467
40
0.280081978466544
40
0.280081978466544
40
0.308163185426621
40
0.308163185426621
40
0.336244392386698
40
0.336244392386698
40
0.364325599346775
40
0.364325599346775
40
0.392406806306852
40
0.392406806306852
40
0.448569220227006
40
0.448569220227006
40
0.476650427187083
40
0.476650427187083
40
0.50473163414716
40
0.50473163414716
40
0.532812841107237
40
0.532812841107237
40
0.560894048067314
40
0.560894048067314
40
0.588975255027391
40
0.588975255027391
40
0.617056461987468
40
0.617056461987468
40
0.645137668947545
40
0.645137668947545
40
0.673218875907622
40
0.673218875907622
40
0.701300082867699
40
0.701300082867699
40
0.729381289827775
40
0.729381289827775
40
0.757462496787852
40
0.757462496787852
40
0.785543703747929
40
0.785543703747929
40
0.813624910708006
40
0.813624910708006
40
0.841706117668083
40
0.841706117668083
40
0.86978732462816
40
0.86978732462816
40
0.897868531588237
40
0.897868531588237
40
0.925949738548315
40
0.925949738548315
40
0.954030945508392
40
0.954030945508392
40
0.98211215246847
40
0.98211215246847
40
1
40
1
40
1
40
1
41
1
10
47.6435877402565
20
-2.94656055006666
30
0
41
1
10
47.2104918765272
20
-3.1167007269062
30
0
41
1
10
46.7771487753629
20
-3.26439834400304
30
0
41
1
10
46.1228607044725
20
-3.44867278543134
30
0
41
1
10
45.9024213795734
20
-3.50393588376454
30
0
41
1
10
45.4593778778987
20
-3.60153371587407
30
0
41
1
10
45.2369327415445
20
-3.64403239020791
30
0
41
1
10
44.7900906806929
20
-3.71561240397463
30
0
41
1
10
44.5677961316745
20
-3.74441472433261
30
0
41
1
10
44.1244356527022
20
-3.78703086731468
30
0
41
1
10
43.9032930347081
20
-3.80107139064765
30
0
41
1
10
43.4618876676052
20
-3.81334712288472
30
0
41
1
10
43.2417834214818
20
-3.81119015215722
30
0
41
1
10
42.8016810192296
20
-3.79302622865882
30
0
41
1
10
42.5814098079684
20
-3.77790503349527
30
0
41
1
10
42.1401798235962
20
-3.7332251771482
30
0
41
1
10
41.9192114042854
20
-3.70371057192401
30
0
41
1
10
41.4763935393143
20
-3.62790957676646
30
0
41
1
10
41.2543208734737
20
-3.58297595377573
30
0
41
1
10
40.807857039087
20
-3.48061984104839
30
0
41
1
10
40.5847745149425
20
-3.42290317254324
30
0
41
1
10
40.1413784799548
20
-3.29316011098777
30
0
41
1
10
39.9208246085613
20
-3.22105073726991
30
0
41
1
10
39.4796770617484
20
-3.06761173569276
30
0
41
1
10
39.2592891074192
20
-2.98564913669657
30
0
41
1
10
38.8187538669342
20
-2.80980737357981
30
0
41
1
10
38.5987686924739
20
-2.71528875419392
30
0
41
1
10
37.9379109254451
20
-2.41788152360218
30
0
41
1
10
37.4952997641969
20
-2.20231738893875
30
0
41
1
10
36.826491488531
20
-1.84719663280612
30
0
41
1
10
36.6034100805255
20
-1.72533369345626
30
0
41
1
10
36.1592591190589
20
-1.47750016483198
30
0
41
1
10
35.9378093725518
20
-1.35109230791304
30
0
41
1
10
35.4961585769209
20
-1.09306447158164
30
0
41
1
10
35.2760465537981
20
-0.961393628115388
30
0
41
1
10
34.8352328112522
20
-0.696370005409193
30
0
41
1
10
34.6147096409126
20
-0.562593747450251
30
0
41
1
10
34.1731615134413
20
-0.292669608771121
30
0
41
1
10
33.9523083331411
20
-0.156134043060064
30
0
41
1
10
33.5092776575489
20
0.117359964511451
30
0
41
1
10
33.286958615475
20
0.254143121301837
30
0
41
1
10
32.8401834851209
20
0.527355758776935
30
0
41
1
10
32.6171051817032
20
0.662928866582291
30
0
41
1
10
32.1738003907087
20
0.930572362408071
30
0
41
1
10
31.9526809552636
20
1.06249384063048
30
0
41
1
10
31.5110001112868
20
1.32061015798388
30
0
41
1
10
31.2904623381576
20
1.44683236713783
30
0
41
1
10
30.8499293138387
20
1.69349948879287
30
0
41
1
10
30.6299925690399
20
1.81444109288444
30
0
41
1
10
30.1889272414952
20
2.048656831383
30
0
41
1
10
29.9679348454251
20
2.16187976891928
30
0
41
1
10
29.5247257211847
20
2.37985522930273
30
0
41
1
10
29.3027464125508
20
2.48495259807703
30
0
41
1
10
28.8568017923477
20
2.68692224117123
30
0
41
1
10
28.6334279838382
20
2.78290355415473
30
0
41
1
10
28.1894383931909
20
2.96161660350762
30
0
41
1
10
27.9683620377074
20
3.04404905514343
30
0
41
1
10
27.527371088306
20
3.19909542056686
30
0
41
1
10
27.3071023461787
20
3.27087636873623
30
0
41
1
10
26.866499201491
20
3.4010522893164
30
0
41
1
10
26.6461530929915
20
3.45885917063057
30
0
41
1
10
26.2054202536937
20
3.56176001169325
30
0
41
1
10
25.985057963804
20
3.60750713152606
30
0
41
1
10
25.5425132478648
20
3.6848648921501
30
0
41
1
10
25.3204802357508
20
3.71646151714234
30
0
41
1
10
24.8743869798659
20
3.76353149202552
30
0
41
1
10
24.6510838027531
20
3.7803818147911
30
0
41
1
10
24.2874915249802
20
3.7962442710417
30
0
41
1
10
24.1462336695622
20
3.79958277185321
30
0
41
1
10
24.0051847283811
20
3.79969790817259
30
0
0
SPLINE
5
CC
100
AcDbEntity
8
1
62
256
6
ByLayer
370
18
48
1
60
0
100
AcDbSpline
70
4
71
3
72
10
73
6
40
0
40
0
40
0
40
0
40
0.208797861185286
40
0.208797861185286
40
1
40
1
40
1
40
1
41
1
10
8.66376883832581
20
-2.99812033831279
30
0
41
1
10
8.60475954029994
20
-3.02020823736208
30
0
41
1
10
8.54575017091062
20
-3.04186940644701
30
0
41
1
10
8.26326197877052
20
-3.1434949968465
30
0
41
1
10
8.0396923620402
20
-3.21801577616813
30
0
41
1
10
7.81609371338931
20
-3.28648541447959
30
0
0
SPLINE
5
CD
100
AcDbEntity
8
1
62
256
6
ByLayer
370
18
48
1
60
0
100
AcDbSpline
70
4
71
3
72
16
73
12
40
0
40
0
40
0
40
0
40
0.30902196755
40
0.30902196755
40
0.463532951325002
40
0.463532951325002
40
0.540788443212504
40
0.540788443212504
40
0.618043935100006
40
0.618043935100006
40
1
40
1
40
1
40
1
41
1
10
4.19697306554207
20
0.0777763342823903
30
0
41
1
10
4.71603005910333
20
-0.248691574457439
30
0
41
1
10
5.23118575366891
20
-0.572967007976075
30
0
41
1
10
6.004274873555
20
-1.04657397249204
30
0
41
1
10
6.2620565334833
20
-1.20226340423753
30
0
41
1
10
6.64972697043405
20
-1.4311525312477
30
0
41
1
10
6.77911763231413
20
-1.50667337665382
30
0
41
1
10
7.03842829892344
20
-1.65586025782451
30
0
41
1
10
7.16857207089046
20
-1.72964415538661
30
0
41
1
10
7.94009891688231
20
-2.1599019158609
30
0
41
1
10
8.57341155272641
20
-2.48411479380306
30
0
41
1
10
9.20702427904664
20
-2.76482474834788
30
0
0
SPLINE
5
CE
100
AcDbEntity
8
1
62
256
6
ByLayer
370
13
48
1
60
0
100
AcDbSpline
70
4
71
3
72
18
73
14
40
0
40
0
40
0
40
0
40
0.192145740925623
40
0.192145740925623
40
0.317898180558824
40
0.317898180558824
40
0.443650620192024
40
0.443650620192024
40
0.695155499458422
40
0.695155499458422
40
0.94666037872482
40
0.94666037872482
40
1
40
1
40
1
40
1
41
1
10
9.20702420729262
20
-2.76482471655868
30
0
41
1
10
9.59866162836093
20
-2.93833215949596
30
0
41
1
10
9.99041369896938
20
-3.09521929626621
30
0
41
1
10
10.6421484826984
20
-3.32344028187134
30
0
41
1
10
10.9012103429924
20
-3.40569600095466
30
0
41
1
10
11.420779219307
20
-3.55214660163941
30
0
41
1
10
11.6791189559066
20
-3.61575043109247
30
0
41
1
10
12.4518230263737
20
-3.77733191724323
30
0
41
1
10
12.9634569307595
20
-3.84604251837806
30
0
41
1
10
13.9893372173566
20
-3.9036109310955
30
0
41
1
10
14.5032458382226
20
-3.89230350855326
30
0
41
1
10
15.1332545331141
20
-3.82859942027571
30
0
41
1
10
15.2432503144198
20
-3.81563565633084
30
0
41
1
10
15.3530428179327
20
-3.80089263537732
30
0
0
SPLINE
5
CF
100
AcDbEntity
8
1
62
256
6
ByLayer
370
18
48
1
60
0
100
AcDbSpline
70
4
71
3
72
32
73
28
40
0
40
0
40
0
40
0
40
0.0183042192569992
40
0.0183042192569992
40
0.0900866014125479
40
0.0900866014125479
40
0.161868983568096
40
0.161868983568096
40
0.305433747879193
40
0.305433747879193
40
0.377216130034742
40
0.377216130034742
40
0.413107321112517
40
0.413107321112517
40
0.448998512190293
40
0.448998512190293
40
0.592563276501393
40
0.592563276501393
40
0.736128040812492
40
0.736128040812492
40
0.772019231890266
40
0.772019231890266
40
0.80791042296804
40
0.80791042296804
40
0.879692805123586
40
0.879692805123586
40
1
40
1
40
1
40
1
41
1
10
38.0136918635968
20
2.87383168950183
30
0
41
1
10
38.0793689535065
20
2.84571965931278
30
0
41
1
10
38.1451049593464
20
2.81709114822789
30
0
41
1
10
38.468967800668
20
2.67368677658979
30
0
41
1
10
38.7292530654189
20
2.55142593823635
30
0
41
1
10
39.2465489722345
20
2.29514656319756
30
0
41
1
10
39.503861869624
20
2.1610777030123
30
0
41
1
10
40.2738423460982
20
1.74421766854013
30
0
41
1
10
40.7850031601654
20
1.44735507699792
30
0
41
1
10
41.5538396101575
20
0.981543156065783
30
0
41
1
10
41.8107523895257
20
0.82333120897178
30
0
41
1
10
42.197612867334
20
0.582249803095692
30
0
41
1
10
42.3268143881154
20
0.50126611183677
30
0
41
1
10
42.5858562899553
20
0.33826300361693
30
0
41
1
10
42.7157828991227
20
0.256177779855164
30
0
41
1
10
43.3626435495007
20
-0.153045353373528
30
0
41
1
10
43.8753220331968
20
-0.478407568026739
30
0
41
1
10
44.8991836665342
20
-1.11257065727492
30
0
41
1
10
45.4102475255473
20
-1.42154052727366
30
0
41
1
10
46.0539803385403
20
-1.78822387509584
30
0
41
1
10
46.1830050120479
20
-1.86053942554798
30
0
41
1
10
46.441701034343
20
-2.00297312824674
30
0
41
1
10
46.5716081182118
20
-2.07323589726258
30
0
41
1
10
46.9602707110551
20
-2.27924977266156
30
0
41
1
10
47.2179849265411
20
-2.41023436339674
30
0
41
1
10
47.905517145723
20
-2.74209995829381
30
0
41
1
10
48.3339160097767
20
-2.93041783350247
30
0
41
1
10
48.7627475923402
20
-3.09653813924203
30
0
0
SPLINE
5
D0
100
AcDbEntity
8
1
62
256
6
ByLayer
370
13
48
1
60
0
100
AcDbSpline
70
4
71
3
72
16
73
12
40
0
40
0
40
0
40
0
40
0.0512335588126533
40
0.0512335588126533
40
0.367489039208435
40
0.367489039208435
40
0.683744519604218
40
0.683744519604218
40
0.841872259802108
40
0.841872259802108
40
1
40
1
40
1
40
1
41
1
10
48.7627475922945
20
-3.09653813922435
30
0
41
1
10
48.8456485386538
20
-3.12865221644111
30
0
41
1
10
48.9285656565361
20
-3.15993672779004
30
0
41
1
10
49.5235679632224
20
-3.3782464098114
30
0
41
1
10
50.0372887222374
20
-3.53392332546917
30
0
41
1
10
51.0750198981694
20
-3.7703246500671
30
0
41
1
10
51.588872190684
20
-3.8487606709152
30
0
41
1
10
52.359324468321
20
-3.90588456502638
30
0
41
1
10
52.6160751565042
20
-3.91483112283461
30
0
41
1
10
53.1304151642642
20
-3.91235068135515
30
0
41
1
10
53.3880404889173
20
-3.90057108298254
30
0
41
1
10
53.646451930638
20
-3.87917109860649
30
0
0
SPLINE
5
D1
100
AcDbEntity
8
1
62
256
6
ByLayer
370
18
48
1
60
0
100
AcDbSpline
70
4
71
3
72
20
73
16
40
0
40
0
40
0
40
0
40
0.249999999999995
40
0.249999999999995
40
0.374999999999996
40
0.374999999999996
40
0.499999999999997
40
0.499999999999997
40
0.624999999999997
40
0.624999999999997
40
0.749999999999998
40
0.749999999999998
40
0.874999999999999
40
0.874999999999999
40
1
40
1
40
1
40
1
41
1
10
54.4243473415913
20
-1.95150351922123
30
0
41
1
10
54.3637276556735
20
-2.11528303384327
30
0
41
1
10
54.3029071276072
20
-2.2788821918075
30
0
41
1
10
54.2112217205694
20
-2.52339810788365
30
0
41
1
10
54.1805589387251
20
-2.60472763770886
30
0
41
1
10
54.1192027792815
20
-2.76733343917175
30
0
41
1
10
54.0885109229588
20
-2.84859742935305
30
0
41
1
10
54.0270544744642
20
-3.01089023090574
30
0
41
1
10
53.9962928186503
20
-3.09193063524424
30
0
41
1
10
53.9346281798015
20
-3.25356335896564
30
0
41
1
10
53.9036931635225
20
-3.33409383844338
30
0
41
1
10
53.8417071055116
20
-3.49457264153304
30
0
41
1
10
53.8107042590666
20
-3.5747446977216
30
0
41
1
10
53.7486115954682
20
-3.73449221122598
30
0
41
1
10
53.7175382841755
20
-3.81405154747938
30
0
41
1
10
53.6864289667203
20
-3.89231186486225
30
0
0
SPLINE
5
D2
100
AcDbEntity
8
1
62
256
6
ByLayer
370
13
48
1
60
0
100
AcDbSpline
70
4
71
3
72
10
73
6
40
0
40
0
40
0
40
0
40
0.5
40
0.5
40
1
40
1
40
1
40
1
41
1
10
4.11626045338517
20
0.209149044678441
30
0
41
1
10
4.13654783481792
20
0.201081252950644
30
0
41
1
10
4.15859716429085
20
0.192564884588194
30
0
41
1
10
4.20372756033902
20
0.175479179169059
30
0
41
1
10
4.22680229731554
20
0.166905917071119
30
0
41
1
10
4.2503717719168
20
0.158244703675678
30
0
0
SPLINE
5
D3
100
AcDbEntity
8
1
62
256
6
ByLayer
370
18
48
1
60
0
100
AcDbSpline
70
4
71
3
72
8
73
4
40
0
40
0
40
0
40
0
40
1
40
1
40
1
40
1
41
1
10
4.0239233525287
20
0.235758211960047
30
0
41
1
10
4.0140800561125
20
0.256580368256237
30
0
41
1
10
4.00870460827133
20
0.278985135733336
30
0
41
1
10
4.008705798562
20
0.302006433324152
30
0
0
SPLINE
5
D4
100
AcDbEntity
8
1
62
256
6
ByLayer
370
18
48
1
60
0
100
AcDbSpline
70
4
71
3
72
10
73
6
40
0
40
0
40
0
40
0
40
0.5
40
0.5
40
1
40
1
40
1
40
1
41
1
10
4.11472633734019
20
0.132342742150882
30
0
41
1
10
4.09497649543209
20
0.145042796257144
30
0
41
1
10
4.07744723896204
20
0.16016959120995
30
0
41
1
10
4.04672228256098
20
0.195152202667288
30
0
41
1
10
4.03381701087426
20
0.214829521841637
30
0
41
1
10
4.02392335252534
20
0.23575821196718
30
0
0
SPLINE
5
D5
100
AcDbEntity
8
1
62
256
6
ByLayer
370
18
48
1
60
0
100
AcDbSpline
70
4
71
3
72
44
73
40
40
0
40
0
40
0
40
0
40
0.0765520948992478
40
0.0765520948992478
40
0.114828142348872
40
0.114828142348872
40
0.153104189798497
40
0.153104189798497
40
0.229656284697746
40
0.229656284697746
40
0.267932332147371
40
0.267932332147371
40
0.306208379596995
40
0.306208379596995
40
0.382760474496243
40
0.382760474496243
40
0.459312569395491
40
0.459312569395491
40
0.497588616845115
40
0.497588616845115
40
0.535864664294739
40
0.535864664294739
40
0.612416759193988
40
0.612416759193988
40
0.650692806643613
40
0.650692806643613
40
0.688968854093238
40
0.688968854093238
40
0.765520948992488
40
0.765520948992488
40
0.842073043891737
40
0.842073043891737
40
0.880349091341361
40
0.880349091341361
40
0.918625138790986
40
0.918625138790986
40
0.995177233690234
40
0.995177233690234
40
1
40
1
40
1
40
1
41
1
10
53.6133550989766
20
-3.96707099343993
30
0
41
1
10
53.095346780568
20
-4.0098297662928
30
0
41
1
10
52.5785305264807
20
-4.0103081822644
30
0
41
1
10
51.7991235895571
20
-3.94770490538937
30
0
41
1
10
51.5401954630015
20
-3.91635216156166
30
0
41
1
10
51.0248388498627
20
-3.83374306622639
30
0
41
1
10
50.7680795168319
20
-3.78246676415154
30
0
41
1
10
49.9987612946074
20
-3.60001141238399
30
0
41
1
10
49.4871384606474
20
-3.44025049992979
30
0
41
1
10
48.7146628124448
20
-3.14802595816116
30
0
41
1
10
48.4563263262489
20
-3.04185069796108
30
0
41
1
10
47.9367541391931
20
-2.81268994421876
30
0
41
1
10
47.677895825548
20
-2.69074502142945
30
0
41
1
10
46.9049015368368
20
-2.30660638007572
30
0
41
1
10
46.3930501149088
20
-2.02582876438288
30
0
41
1
10
45.3677185630165
20
-1.42682564841823
30
0
41
1
10
44.8539830159537
20
-1.10892878029958
30
0
41
1
10
44.0743519850739
20
-0.614645447789684
30
0
41
1
10
43.815322651764
20
-0.448489316904613
30
0
41
1
10
43.2998144498673
20
-0.116062696670127
30
0
41
1
10
43.0429832637333
20
0.0503084956729367
30
0
41
1
10
42.2736744443982
20
0.547429726144571
30
0
41
1
10
41.7617063086843
20
0.875139226004222
30
0
41
1
10
40.9893426540106
20
1.35211256188916
30
0
41
1
10
40.7309796155567
20
1.50840328301263
30
0
41
1
10
40.2111875748074
20
1.81363523020374
30
0
41
1
10
39.9521115353897
20
1.96125681638645
30
0
41
1
10
39.1790526547611
20
2.38618771005753
30
0
41
1
10
38.6668527202125
20
2.64484924617486
30
0
41
1
10
37.6412563637835
20
3.10456788972851
30
0
41
1
10
37.1270195345905
20
3.30470525445216
30
0
41
1
10
36.3476104943102
20
3.55300770771916
30
0
41
1
10
36.0885515587432
20
3.62621764814671
30
0
41
1
10
35.5728249647421
20
3.75259122198327
30
0
41
1
10
35.3158406228626
20
3.80589875097243
30
0
41
1
10
34.5461919546746
20
3.93588684072102
30
0
41
1
10
34.0341747560415
20
3.98240959746701
30
0
41
1
10
33.4866058125938
20
3.98770915352938
30
0
41
1
10
33.4541398329986
20
3.98785795646069
30
0
41
1
10
33.4216588525986
20
3.9878410632729
30
0
0
SPLINE
5
D6
100
AcDbEntity
8
1
62
256
6
ByLayer
370
18
48
1
60
0
100
AcDbSpline
70
4
71
3
72
30
73
26
40
0
40
0
40
0
40
0
40
0.209121865145875
40
0.209121865145875
40
0.242075120764796
40
0.242075120764796
40
0.275028376383718
40
0.275028376383718
40
0.340934887621561
40
0.340934887621561
40
0.472747910097247
40
0.472747910097247
40
0.53865442133509
40
0.53865442133509
40
0.571607676954012
40
0.571607676954012
40
0.604560932572934
40
0.604560932572934
40
0.736373955048623
40
0.736373955048623
40
0.868186977524311
40
0.868186977524311
40
0.934093488762155
40
0.934093488762155
40
1
40
1
40
1
40
1
41
1
10
15.8629505575512
20
-3.80169746436644
30
0
41
1
10
15.0476157721509
20
-3.95565655944341
30
0
41
1
10
14.2368497017039
20
-4.00929342914947
30
0
41
1
10
13.2818349989193
20
-3.94820296613796
30
0
41
1
10
13.151659884089
20
-3.93723426183593
30
0
41
1
10
12.8924100502442
20
-3.91019291165779
30
0
41
1
10
12.7630993198124
20
-3.89410965714646
30
0
41
1
10
12.3758416158646
20
-3.83835443023386
30
0
41
1
10
12.1185773354683
20
-3.7911802841792
30
0
41
1
10
11.3478766810161
20
-3.62084515461922
30
0
41
1
10
10.8356177058917
20
-3.46880912974527
30
0
41
1
10
10.06223792385
20
-3.18775944163511
30
0
41
1
10
9.80370265525536
20
-3.08515862634812
30
0
41
1
10
9.41375987246232
20
-2.91851146281277
30
0
41
1
10
9.2835451884354
20
-2.86088273008565
30
0
41
1
10
9.02421269255905
20
-2.74241759570307
30
0
41
1
10
8.89485872102631
20
-2.6814807669279
30
0
41
1
10
8.24926658260395
20
-2.36881889388434
30
0
41
1
10
7.73646448884568
20
-2.09330767113255
30
0
41
1
10
6.70921427902425
20
-1.50409170869199
30
0
41
1
10
6.19500314831791
20
-1.19001247572408
30
0
41
1
10
5.414973869834
20
-0.700354539965161
30
0
41
1
10
5.15455181397391
20
-0.53465511364098
30
0
41
1
10
4.63476983525595
20
-0.202115787542766
30
0
41
1
10
4.37493564754163
20
-0.0349837779241398
30
0
41
1
10
4.11472633734056
20
0.132342742150655
30
0
0
SPLINE
5
D7
100
AcDbEntity
8
1
62
256
6
ByLayer
370
18
48
1
60
0
100
AcDbSpline
70
4
71
3
72
10
73
6
40
0
40
0
40
0
40
0
40
0.874151715830403
40
0.874151715830403
40
1
40
1
40
1
40
1
41
1
10
11.9474522791261
20
-3.85935226883473
30
0
41
1
10
12.3857098763556
20
-3.92778327018391
30
0
41
1
10
12.8227724180228
20
-3.96528380599855
30
0
41
1
10
13.3187564312704
20
-3.97519565023103
30
0
41
1
10
13.3811063768382
20
-3.97582648218909
30
0
41
1
10
13.4434270639022
20
-3.97584482364525
30
0
0
SPLINE
5
D8
100
AcDbEntity
8
1
62
256
6
ByLayer
370
18
48
1
60
0
100
AcDbSpline
70
4
71
3
72
82
73
78
40
0
40
0
40
0
40
0
40
0.000434664620466
40
0.000434664620466
40
0.0276004992398822
40
0.0276004992398822
40
0.0819321684787147
40
0.0819321684787147
40
0.109098003098131
40
0.109098003098131
40
0.136263837717547
40
0.136263837717547
40
0.163429672336963
40
0.163429672336963
40
0.19059550695638
40
0.19059550695638
40
0.217761341575795
40
0.217761341575795
40
0.244927176195212
40
0.244927176195212
40
0.272093010814628
40
0.272093010814628
40
0.299258845434044
40
0.299258845434044
40
0.32642468005346
40
0.32642468005346
40
0.353590514672877
40
0.353590514672877
40
0.40792218391171
40
0.40792218391171
40
0.435088018531127
40
0.435088018531127
40
0.462253853150544
40
0.462253853150544
40
0.489419687769961
40
0.489419687769961
40
0.516585522389377
40
0.516585522389377
40
0.543751357008794
40
0.543751357008794
40
0.570917191628211
40
0.570917191628211
40
0.598083026247628
40
0.598083026247628
40
0.611665943557336
40
0.611665943557336
40
0.625248860867044
40
0.625248860867044
40
0.652414695486461
40
0.652414695486461
40
0.679580530105878
40
0.679580530105878
40
0.706746364725295
40
0.706746364725295
40
0.733912199344712
40
0.733912199344712
40
0.761078033964128
40
0.761078033964128
40
0.788243868583545
40
0.788243868583545
40
0.815409703202962
40
0.815409703202962
40
0.842575537822379
40
0.842575537822379
40
0.869741372441795
40
0.869741372441795
40
0.896907207061212
40
0.896907207061212
40
0.924073041680629
40
0.924073041680629
40
0.937655958990337
40
0.937655958990337
40
0.951238876300044
40
0.951238876300044
40
0.978404710919461
40
0.978404710919461
40
1
40
1
40
1
40
1
41
1
10
28.2589109326407
20
2.93534688461571
30
0
41
1
10
28.2623937358938
20
2.93686178968684
30
0
41
1
10
28.2658763484584
20
2.93837529654832
30
0
41
1
10
28.4870044169578
20
3.03439189017163
30
0
41
1
10
28.7037758162505
20
3.12354985944847
30
0
41
1
10
29.3521822687754
20
3.37401704639123
30
0
41
1
10
29.7861612832961
20
3.5147639113919
30
0
41
1
10
30.4368639843578
20
3.68886952330621
30
0
41
1
10
30.6537572159852
20
3.74053639199369
30
0
41
1
10
31.0908233852466
20
3.8291188112762
30
0
41
1
10
31.3111557427528
20
3.86647004430563
30
0
41
1
10
31.7489139014951
20
3.92639718183759
30
0
41
1
10
31.9661089182133
20
3.94911990923816
30
0
41
1
10
32.4003166201214
20
3.97941564237601
30
0
41
1
10
32.617451375909
20
3.98708034878777
30
0
41
1
10
33.0510435720578
20
3.98788182733387
30
0
41
1
10
33.2674833335039
20
3.98100138558408
30
0
41
1
10
33.6995050060389
20
3.95231372247335
30
0
41
1
10
33.9160643234838
20
3.93064691539664
30
0
41
1
10
34.3508024045576
20
3.87302072258203
30
0
41
1
10
34.5687823520099
20
3.83702505748721
30
0
41
1
10
35.0055248366526
20
3.75002228009691
30
0
41
1
10
35.2247051519087
20
3.69860678082964
30
0
41
1
10
35.6620916662051
20
3.58364738636982
30
0
41
1
10
35.8802334130652
20
3.51982669006046
30
0
41
1
10
36.3149288129673
20
3.37940191911053
30
0
41
1
10
36.531109837262
20
3.30243792196035
30
0
41
1
10
37.1795564165199
20
3.05412015095163
30
0
41
1
10
37.6136631889073
20
2.86773736048528
30
0
41
1
10
38.26393492209
20
2.5526669915385
30
0
41
1
10
38.4813295426035
20
2.44252808763966
30
0
41
1
10
38.9188871516726
20
2.21391482322394
30
0
41
1
10
39.13918115763
20
2.09474831318707
30
0
41
1
10
39.5760362507282
20
1.84939486185371
30
0
41
1
10
39.7928105688201
20
1.72236364720783
30
0
41
1
10
40.2269747239948
20
1.46530134760007
30
0
41
1
10
40.4439631776379
20
1.33471762110278
30
0
41
1
10
40.8772004839568
20
1.06868653682389
30
0
41
1
10
41.0932100919838
20
0.932867309786303
30
0
41
1
10
41.5252505059816
20
0.657423702938218
30
0
41
1
10
41.7421714844121
20
0.519187302538995
30
0
41
1
10
42.1770927523252
20
0.240606097488552
30
0
41
1
10
42.3951108144396
20
0.100288533413732
30
0
41
1
10
42.7226245186108
20
-0.112407668331287
30
0
41
1
10
42.8319863103764
20
-0.183837103003896
30
0
41
1
10
43.0509545803268
20
-0.3257081174024
30
0
41
1
10
43.1603561503899
20
-0.396070617869299
30
0
41
1
10
43.4880795573085
20
-0.605878317203832
30
0
41
1
10
43.7059491453136
20
-0.744003870453383
30
0
41
1
10
44.140003155335
20
-1.01755996459292
30
0
41
1
10
44.3557312613615
20
-1.15365560832538
30
0
41
1
10
44.7882810400544
20
-1.41889295663938
30
0
41
1
10
45.0049239221598
20
-1.54834379248041
30
0
41
1
10
45.4382964921345
20
-1.80190741764031
30
0
41
1
10
45.6549165024739
20
-1.92616721340011
30
0
41
1
10
46.0884335539119
20
-2.16888066743621
30
0
41
1
10
46.3063563883924
20
-2.28593406451606
30
0
41
1
10
46.7443591039012
20
-2.5116878838638
30
0
41
1
10
46.9643568065829
20
-2.62046306583431
30
0
41
1
10
47.4002540267532
20
-2.82756854083232
30
0
41
1
10
47.6169108548016
20
-2.92612147696272
30
0
41
1
10
48.0509187828612
20
-3.10995314112589
30
0
41
1
10
48.2677508838979
20
-3.19585838394227
30
0
41
1
10
48.7005818192367
20
-3.35620224316412
30
0
41
1
10
48.9161311921232
20
-3.43096316239115
30
0
41
1
10
49.3485727872391
20
-3.5669455778073
30
0
41
1
10
49.5656434595506
20
-3.62812013366391
30
0
41
1
10
50.000711554954
20
-3.73742434543792
30
0
41
1
10
50.2187026000644
20
-3.78554632154925
30
0
41
1
10
50.5462693942207
20
-3.84754633201243
30
0
41
1
10
50.6558482110789
20
-3.86645613701989
30
0
41
1
10
50.8746225165414
20
-3.90030225577746
30
0
41
1
10
50.9838590362669
20
-3.91531136161777
30
0
41
1
10
51.3109767864096
20
-3.95478264142435
30
0
41
1
10
51.5282832586591
20
-3.9737063135087
30
0
41
1
10
51.9165473032583
20
-3.99459628723997
30
0
41
1
10
52.0877308227087
20
-3.99918768588634
30
0
41
1
10
52.2590886574292
20
-3.99913211112374
30
0
0
SPLINE
5
D9
100
AcDbEntity
8
1
62
256
6
ByLayer
370
18
48
1
60
0
100
AcDbSpline
70
4
71
3
72
29
73
25
40
0
40
0
40
0
40
0
40
0.0680210907702406
40
0.0680210907702406
40
0.136042181540481
40
0.136042181540481
40
0.272084363080962
40
0.272084363080962
40
0.340105453851203
40
0.340105453851203
40
0.408126544621443
40
0.476147635391684
40
0.476147635391684
40
0.544168726161924
40
0.544168726161924
40
0.680210907702405
40
0.680210907702405
40
0.748231998472646
40
0.748231998472646
40
0.816253089242887
40
0.816253089242887
40
0.952295270783367
40
0.952295270783367
40
1
40
1
40
1
40
1
41
1
10
4.008705798562
20
0.302006433322333
30
0
41
1
10
4.00871280562228
20
0.437529301183474
30
0
41
1
10
4.00871888170659
20
0.572887322867501
30
0
41
1
10
4.00872941106277
20
0.839896843601252
30
0
41
1
10
4.00873385715508
20
0.971168009820047
30
0
41
1
10
4.00874540588001
20
1.35847228082903
30
0
41
1
10
4.00875072601673
20
1.60806393765833
30
0
41
1
10
4.00875750753659
20
1.96906444914413
30
0
41
1
10
4.00875954051648
20
2.0856899816616
30
0
41
1
10
4.00876350827264
20
2.30990607850913
30
0
41
1
10
4.00876738805295
20
2.52570650760322
30
0
41
1
10
4.00877175491826
20
2.72480008619334
30
0
41
1
10
4.008776652195
20
2.91534087352341
30
0
41
1
10
4.00877937659635
20
3.00643765527229
30
0
41
1
10
4.0087884876188
20
3.26059544677531
30
0
41
1
10
4.00879589021167
20
3.40697766336694
30
0
41
1
10
4.00880953246406
20
3.59207274122772
30
0
41
1
10
4.00881452773368
20
3.64824839984175
30
0
41
1
10
4.00882517509496
20
3.74695619218173
30
0
41
1
10
4.00883081415924
20
3.78951298056617
30
0
41
1
10
4.00884847425425
20
3.89733138389437
30
0
41
1
10
4.00886127530146
20
3.94294976051341
30
0
41
1
10
4.0088786960429
20
3.96764348852841
30
0
41
1
10
4.00888317430795
20
3.97061416934162
30
0
41
1
10
4.00888754684169
20
3.97019290869625
30
0
0
SPLINE
5
DA
100
AcDbEntity
8
1
62
256
6
ByLayer
370
18
48
1
60
0
100
AcDbSpline
70
4
71
3
72
8
73
4
40
0
40
0
40
0
40
0
40
1
40
1
40
1
40
1
41
1
10
53.6133550989765
20
-3.9670709934399
30
0
41
1
10
53.624397333124
20
-3.93779340609802
30
0
41
1
10
53.6354299075953
20
-3.90849264699287
30
0
41
1
10
53.646451930638
20
-3.87917109860643
30
0
0
SPLINE
5
DB
100
AcDbEntity
8
1
62
256
6
ByLayer
370
13
48
1
60
0
100
AcDbSpline
70
4
71
3
72
30
73
26
40
0
40
0
40
0
40
0
40
0.134432083418632
40
0.134432083418632
40
0.201648125127948
40
0.201648125127948
40
0.268864166837264
40
0.268864166837264
40
0.403296250255895
40
0.403296250255895
40
0.470512291965211
40
0.470512291965211
40
0.537728333674527
40
0.604944375383843
40
0.604944375383843
40
0.672160417093159
40
0.672160417093159
40
0.739376458802475
40
0.739376458802475
40
0.806592500511791
40
0.873808542221107
40
0.873808542221107
40
0.941024583930422
40
0.941024583930422
40
1
40
1
40
1
40
1
41
1
10
4.2503717719168
20
0.158244703675678
30
0
41
1
10
4.2504211747158
20
0.419566102194466
30
0
41
1
10
4.25045660188135
20
0.67575389824151
30
0
41
1
10
4.2504978091273
20
1.0525528974523
30
0
41
1
10
4.25050956866605
20
1.17726652297327
30
0
41
1
10
4.25053032466917
20
1.4224645563157
30
0
41
1
10
4.25053923644467
20
1.54174807563038
30
0
41
1
10
4.25056384448249
20
1.88997470199342
30
0
41
1
10
4.25057746657012
20
2.10939414536327
30
0
41
1
10
4.25060124840317
20
2.41885736071765
30
0
41
1
10
4.25060967725665
20
2.51796845022048
30
0
41
1
10
4.25062822312185
20
2.70530200065349
30
0
41
1
10
4.2506485260472
20
2.88270552886445
30
0
41
1
10
4.25067371609415
20
3.04045106069975
30
0
41
1
10
4.25070184201672
20
3.18815550469975
30
0
41
1
10
4.25071742512955
20
3.25710818730474
30
0
41
1
10
4.25075128744643
20
3.38268103563559
30
0
41
1
10
4.25076966461171
20
3.43966472146471
30
0
41
1
10
4.25080846299437
20
3.54031146346748
30
0
41
1
10
4.25084939742339
20
3.62809499069169
30
0
41
1
10
4.25089359436589
20
3.69065321720731
30
0
41
1
10
4.25093869838986
20
3.74044820872817
30
0
41
1
10
4.25096182710203
20
3.75901639897026
30
0
41
1
10
4.25100459244598
20
3.78110840173119
30
0
41
1
10
4.25102425091885
20
3.78626453802843
30
0
41
1
10
4.25104315985215
20
3.78631029851803
30
0
0
SPLINE
5
DC
100
AcDbEntity
8
1
62
256
6
ByLayer
370
18
48
1
60
0
100
AcDbSpline
70
4
71
3
72
14
73
10
40
0
40
0
40
0
40
0
40
0.245413890487776
40
0.245413890487776
40
0.490827780975552
40
0.490827780975552
40
0.981655561951105
40
0.981655561951105
40
1
40
1
40
1
40
1
41
1
10
11.9474890922411
20
3.8593654103521
30
0
41
1
10
11.6888658603297
20
3.81922256901135
30
0
41
1
10
11.428632415968
20
3.76968051199225
30
0
41
1
10
10.903989543162
20
3.65444883803573
30
0
41
1
10
10.6389486698755
20
3.58856746768549
30
0
41
1
10
9.8404236417862
20
3.37238394753695
30
0
41
1
10
9.30484192540189
20
3.20388241547761
30
0
41
1
10
8.73991327225167
20
3.02057745255914
30
0
41
1
10
8.71954732340015
20
3.0139621516548
30
0
41
1
10
8.69916840026963
20
3.00733658714938
30
0
0
SPLINE
5
DD
100
AcDbEntity
8
1
62
256
6
ByLayer
370
18
48
1
60
0
100
AcDbSpline
70
4
71
3
72
8
73
4
40
0
40
0
40
0
40
0
40
1
40
1
40
1
40
1
41
1
10
4.02392335252534
20
0.235758211967152
30
0
41
1
10
4.0432063663676
20
0.194150317951284
30
0
41
1
10
4.07435778457227
20
0.156338660202579
30
0
41
1
10
4.11626045338517
20
0.129309620091675
30
0
0
SPLINE
5
DE
100
AcDbEntity
8
1
62
256
6
ByLayer
370
18
48
1
60
0
100
AcDbSpline
70
4
71
3
72
8
73
4
40
0
40
0
40
0
40
0
40
1
40
1
40
1
40
1
41
1
10
53.664601414462
20
-3.79343334826629
30
0
41
1
10
53.6443730244857
20
-3.80775891290853
30
0
41
1
10
53.6266432748283
20
-3.81498708896993
30
0
41
1
10
53.611456844919
20
-3.81499096452325
30
0
0
SPLINE
5
DF
100
AcDbEntity
8
1
62
256
6
ByLayer
370
18
48
1
60
0
100
AcDbSpline
70
4
71
3
72
20
73
16
40
0
40
0
40
0
40
0
40
0.250000000000002
40
0.250000000000002
40
0.500000000000003
40
0.500000000000003
40
0.625000000000004
40
0.625000000000004
40
0.750000000000004
40
0.750000000000004
40
0.875000000000005
40
0.875000000000005
40
0.937500000000003
40
0.937500000000003
40
1
40
1
40
1
40
1
41
1
10
53.46451599428
20
1.15973964029413
30
0
41
1
10
53.5754447429218
20
1.18667067330327
30
0
41
1
10
53.6851885640565
20
1.21756774089729
30
0
41
1
10
53.9006311756444
20
1.29349063936755
30
0
41
1
10
54.0064018429868
20
1.3381707032172
30
0
41
1
10
54.1540396239986
20
1.42527353230474
30
0
41
1
10
54.2007998443609
20
1.45741004692741
30
0
41
1
10
54.2866809894842
20
1.5311811786049
30
0
41
1
10
54.3262717921669
20
1.57352211993688
30
0
41
1
10
54.3888291886731
20
1.66862741563386
30
0
41
1
10
54.4119917425495
20
1.7226111801605
30
0
41
1
10
54.4287797394594
20
1.80681719860687
30
0
41
1
10
54.4315833073023
20
1.83594493938688
30
0
41
1
10
54.4317205411122
20
1.89403394075188
30
0
41
1
10
54.4291372311605
20
1.92285861174261
30
0
41
1
10
54.4243473415912
20
1.95150351922115
30
0
0
SPLINE
5
E0
100
AcDbEntity
8
1
62
256
6
ByLayer
370
18
48
1
60
0
100
AcDbSpline
70
4
71
3
72
70
73
66
40
0
40
0
40
0
40
0
40
0.0325149315181189
40
0.0325149315181189
40
0.0650298630362378
40
0.0650298630362378
40
0.0975447945543567
40
0.0975447945543567
40
0.130059726072476
40
0.130059726072476
40
0.162574657590595
40
0.162574657590595
40
0.195089589108713
40
0.195089589108713
40
0.227604520626832
40
0.227604520626832
40
0.260119452144951
40
0.260119452144951
40
0.29263438366307
40
0.29263438366307
40
0.325149315181189
40
0.325149315181189
40
0.357664246699308
40
0.357664246699308
40
0.390179178217427
40
0.390179178217427
40
0.422694109735546
40
0.422694109735546
40
0.455209041253664
40
0.455209041253664
40
0.487723972771783
40
0.487723972771783
40
0.520238904289902
40
0.520238904289902
40
0.552753835808021
40
0.552753835808021
40
0.58526876732614
40
0.58526876732614
40
0.617783698844259
40
0.617783698844259
40
0.650298630362378
40
0.650298630362378
40
0.682813561880497
40
0.682813561880497
40
0.699071027639556
40
0.699071027639556
40
0.715328493398616
40
0.715328493398616
40
0.747843424916735
40
0.747843424916735
40
0.780358356434853
40
0.780358356434853
40
0.812873287952972
40
0.812873287952972
40
0.845388219471091
40
0.845388219471091
40
0.87790315098921
40
0.87790315098921
40
0.910418082507329
40
0.910418082507329
40
0.942933014025448
40
0.942933014025448
40
0.975447945543568
40
0.975447945543568
40
1
40
1
40
1
40
1
41
1
10
7.81609371338925
20
3.28648541447967
30
0
41
1
10
8.03972856336253
20
3.21800469071906
30
0
41
1
10
8.26257278892754
20
3.14370441124331
30
0
41
1
10
8.70669362791475
20
2.98400788816986
30
0
41
1
10
8.92792316537464
20
2.89836475443306
30
0
41
1
10
9.36942398878148
20
2.71582857026067
30
0
41
1
10
9.58980162423316
20
2.61920880751012
30
0
41
1
10
10.0311030217192
20
2.41792081286377
30
0
41
1
10
10.2517772447041
20
2.31242245841344
30
0
41
1
10
10.6934693475967
20
2.09142154776114
30
0
41
1
10
10.9143529924115
20
1.97596361394002
30
0
41
1
10
11.358118033919
20
1.73873829475312
30
0
41
1
10
11.5807608157412
20
1.61692751087966
30
0
41
1
10
12.0281263812838
20
1.36459686262333
30
0
41
1
10
12.2508317046793
20
1.23539399782166
30
0
41
1
10
12.6945569803876
20
0.974014614449686
30
0
41
1
10
12.9161285476697
20
0.842365627710763
30
0
41
1
10
13.3582963613936
20
0.576328412379837
30
0
41
1
10
13.5788858537745
20
0.44186288736131
30
0
41
1
10
14.0196616451206
20
0.17125037884324
30
0
41
1
10
14.240093349639
20
0.0355002636715653
30
0
41
1
10
14.6819595068528
20
-0.235310657423355
30
0
41
1
10
14.9032555279629
20
-0.370710206425429
30
0
41
1
10
15.3468916932869
20
-0.640923512377157
30
0
41
1
10
15.56909602256
20
-0.775934596175716
30
0
41
1
10
16.0161424705891
20
-1.04256620324966
30
0
41
1
10
16.2394077131663
20
-1.17380122508601
30
0
41
1
10
16.6832874952103
20
-1.42965325945062
30
0
41
1
10
16.9042152499961
20
-1.55490399551698
30
0
41
1
10
17.3455292268114
20
-1.79875224689496
30
0
41
1
10
17.5661756141441
20
-1.91730341446436
30
0
41
1
10
18.0070974341738
20
-2.14605917936214
30
0
41
1
10
18.2274344344162
20
-2.25617976816176
30
0
41
1
10
18.6682893868659
20
-2.46867446236689
30
0
41
1
10
18.8891315106001
20
-2.57067100423015
30
0
41
1
10
19.3323335641542
20
-2.76504380597154
30
0
41
1
10
19.5546741573871
20
-2.85668646609642
30
0
41
1
10
20.0009853667154
20
-3.02977490288515
30
0
41
1
10
20.2241005836588
20
-3.11095729024075
30
0
41
1
10
20.6686420178596
20
-3.26073775167706
30
0
41
1
10
20.8902369801629
20
-3.3291337454576
30
0
41
1
10
21.3321644766337
20
-3.45053071997867
30
0
41
1
10
21.5524672752646
20
-3.50456245307328
30
0
41
1
10
21.8830949317513
20
-3.57700215036857
30
0
41
1
10
21.9933806432527
20
-3.59990204606436
30
0
41
1
10
22.213997611138
20
-3.64220225934866
30
0
41
1
10
22.3243481388118
20
-3.66093626112775
30
0
41
1
10
22.6555912108663
20
-3.71165090964223
30
0
41
1
10
22.8766448931889
20
-3.73799693073531
30
0
41
1
10
23.3196021424423
20
-3.77722000052441
30
0
41
1
10
23.5418018344464
20
-3.79088273085932
30
0
41
1
10
23.9884168056643
20
-3.80252697414028
30
0
41
1
10
24.2118288452895
20
-3.79964597583032
30
0
41
1
10
24.6556425082728
20
-3.78007998116516
30
0
41
1
10
24.8766370948281
20
-3.76329754489248
30
0
41
1
10
25.318548544473
20
-3.71666186297742
30
0
41
1
10
25.5391192416572
20
-3.68536591892663
30
0
41
1
10
25.9798426533244
20
-3.60850924733916
30
0
41
1
10
26.1998381224173
20
-3.5629689431606
30
0
41
1
10
26.6407649353927
20
-3.46020922475421
30
0
41
1
10
26.8617401571303
20
-3.40238664783209
30
0
41
1
10
27.3048307647134
20
-3.27161807560248
30
0
41
1
10
27.526908496286
20
-3.19928877052786
30
0
41
1
10
27.9179785022022
20
-3.06173980029411
30
0
41
1
10
28.0866610115959
20
-2.99963843399166
30
0
41
1
10
28.2547963117032
20
-2.93423397987712
30
0
0
SPLINE
5
E1
100
AcDbEntity
8
1
62
256
6
ByLayer
370
18
48
1
60
0
100
AcDbSpline
70
4
71
3
72
26
73
22
40
0
40
0
40
0
40
0
40
0.0427036985546168
40
0.0427036985546168
40
0.138433328699155
40
0.138433328699155
40
0.234162958843693
40
0.234162958843693
40
0.329892588988231
40
0.329892588988231
40
0.425622219132769
40
0.425622219132769
40
0.617081479421846
40
0.617081479421846
40
0.712811109566385
40
0.712811109566385
40
0.808540739710923
40
0.808540739710923
40
0.904270369855461
40
0.904270369855461
40
1
40
1
40
1
40
1
41
1
10
43.3821674719066
20
3.81056516812654
30
0
41
1
10
43.4810240077359
20
3.81106766504138
30
0
41
1
10
43.5800658134951
20
3.81002525977661
30
0
41
1
10
43.9019300217503
20
3.80118651163039
30
0
41
1
10
44.1257864537869
20
3.78694072276076
30
0
41
1
10
44.5700492341053
20
3.74415813563931
30
0
41
1
10
44.7910797718703
20
3.71542424281756
30
0
41
1
10
45.2330202058115
20
3.64468866452728
30
0
41
1
10
45.4537008896102
20
3.60264843384536
30
0
41
1
10
45.8944916310579
20
3.50581445604192
30
0
41
1
10
46.1144503252772
20
3.45087369632574
30
0
41
1
10
46.7751318191271
20
3.26529281463692
30
0
41
1
10
47.2175259387923
20
3.11459338249088
30
0
41
1
10
47.8848356099145
20
2.85143794944608
30
0
41
1
10
48.1084872280776
20
2.7576034960822
30
0
41
1
10
48.5530478358523
20
2.56131462858767
30
0
41
1
10
48.7745378299204
20
2.45850113735645
30
0
41
1
10
49.2161451761253
20
2.24395385101488
30
0
41
1
10
49.4362090878642
20
2.13208002257986
30
0
41
1
10
49.8768238003934
20
1.90167228735893
30
0
41
1
10
50.0971233550182
20
1.78284033465002
30
0
41
1
10
50.3174706809084
20
1.66052196311784
30
0
0
SPLINE
5
E2
100
AcDbEntity
8
1
62
256
6
ByLayer
370
18
48
1
60
0
100
AcDbSpline
70
4
71
3
72
8
73
4
40
0
40
0
40
0
40
0
40
1
40
1
40
1
40
1
41
1
10
4.00888754356589
20
-3.97019322366216
30
0
41
1
10
4.00889564161514
20
-3.96941618464015
30
0
41
1
10
4.00890337706682
20
-3.95700501606564
30
0
41
1
10
4.00891036123016
20
-3.9332672373163
30
0
0
SPLINE
5
E3
100
AcDbEntity
8
1
62
256
6
ByLayer
370
18
48
1
60
0
100
AcDbSpline
70
4
71
3
72
10
73
6
40
0
40
0
40
0
40
0
40
0.974660876039562
40
0.974660876039562
40
1
40
1
40
1
40
1
41
1
10
53.6133550989823
20
3.96707099343945
30
0
41
1
10
53.3545957379999
20
3.98843017310256
30
0
41
1
10
53.0959205387653
20
3.99922598597874
30
0
41
1
10
52.8301269653127
20
3.99948492142576
30
0
41
1
10
52.8233912533109
20
3.99948430777306
30
0
41
1
10
52.8166548409059
20
3.99947652179176
30
0
0
SPLINE
5
E4
100
AcDbEntity
8
1
62
256
6
ByLayer
370
18
48
1
60
0
100
AcDbSpline
70
4
71
3
72
56
73
52
40
0
40
0
40
0
40
0
40
0.0087816862698994
40
0.0087816862698994
40
0.0816600256657656
40
0.0816600256657656
40
0.0998796105147323
40
0.0998796105147323
40
0.118099195363699
40
0.118099195363699
40
0.154538365061631
40
0.154538365061631
40
0.227416704457494
40
0.227416704457494
40
0.263855874155426
40
0.263855874155426
40
0.282075459004391
40
0.282075459004391
40
0.300295043853356
40
0.300295043853356
40
0.446051722645078
40
0.446051722645078
40
0.464271307494043
40
0.464271307494043
40
0.482490892343008
40
0.482490892343008
40
0.518930062040939
40
0.518930062040939
40
0.591808401436798
40
0.591808401436798
40
0.628247571134728
40
0.628247571134728
40
0.646467155983693
40
0.646467155983693
40
0.664686740832657
40
0.664686740832657
40
0.737565080228518
40
0.737565080228518
40
0.810443419624378
40
0.810443419624378
40
0.828663004473344
40
0.828663004473344
40
0.846882589322309
40
0.846882589322309
40
0.883321759020241
40
0.883321759020241
40
0.956200098416105
40
0.956200098416105
40
0.992639268114036
40
0.992639268114036
40
1
40
1
40
1
40
1
41
1
10
35.2472357759116
20
-3.81571694764435
30
0
41
1
10
35.1854139722957
20
-3.82732031693641
30
0
41
1
10
35.1236112162615
20
-3.83834879787742
30
0
41
1
10
34.5490246293477
20
-3.93553910187364
30
0
41
1
10
34.0365539476502
20
-3.98232487990074
30
0
41
1
10
33.3911087085781
20
-3.98864874429114
30
0
41
1
10
33.2617543899551
20
-3.987298547774
30
0
41
1
10
33.0023514216683
20
-3.97930491449546
30
0
41
1
10
32.8721310899555
20
-3.97264102598007
30
0
41
1
10
32.4830281895664
20
-3.94486271775818
30
0
41
1
10
32.2249159641896
20
-3.91597231207359
30
0
41
1
10
31.4529318546098
20
-3.79929307436936
30
0
41
1
10
30.9411205351408
20
-3.68161024142915
30
0
41
1
10
30.1707702609336
20
-3.44948428600568
30
0
41
1
10
29.9135463044774
20
-3.36283391170463
30
0
41
1
10
29.5261118397982
20
-3.21949063388394
30
0
41
1
10
29.3967072956449
20
-3.16947596971389
30
0
41
1
10
29.1372554932859
20
-3.06502731255944
30
0
41
1
10
29.0070264625817
20
-3.01050713382315
30
0
41
1
10
27.8396331527941
20
-2.50424450998102
30
0
41
1
10
26.8227625120462
20
-1.93943013386053
30
0
41
1
10
25.6605497712127
20
-1.23101523645909
30
0
41
1
10
25.5311464837834
20
-1.15130628450908
30
0
41
1
10
25.2716451908799
20
-0.990105963718264
30
0
41
1
10
25.1413618061763
20
-0.908477827358666
30
0
41
1
10
24.7520709655459
20
-0.662895297798997
30
0
41
1
10
24.4939664129465
20
-0.497706583891329
30
0
41
1
10
23.7217213745203
20
-0.0012007157143046
30
0
41
1
10
23.2095534691032
20
0.330913306967858
30
0
41
1
10
22.4391365731399
20
0.821075068589778
30
0
41
1
10
22.181798165842
20
0.982857921995759
30
0
41
1
10
21.7943268314838
20
1.22207514831507
30
0
41
1
10
21.6649157862934
20
1.30122239537366
30
0
41
1
10
21.4054348664183
20
1.45809479942437
30
0
41
1
10
21.2751588348438
20
1.53593905825821
30
0
41
1
10
20.626286272716
20
1.91831043044493
30
0
41
1
10
20.1124055180314
20
2.20369351285504
30
0
41
1
10
19.0859719506802
20
2.72289471960764
30
0
41
1
10
18.5733244087804
20
2.95658520550921
30
0
41
1
10
17.9274960913693
20
3.20928970233243
30
0
41
1
10
17.7980784789894
20
3.25785704208195
30
0
41
1
10
17.5385743855624
20
3.35084136642141
30
0
41
1
10
17.4082700036165
20
3.39532398343999
30
0
41
1
10
17.0187940255279
20
3.52141705376042
30
0
41
1
10
16.7604826469643
20
3.5959160699166
30
0
41
1
10
15.9878054747235
20
3.79020408341418
30
0
41
1
10
15.4756606899304
20
3.88077163961427
30
0
41
1
10
14.704818281958
20
3.95564423802884
30
0
41
1
10
14.4475165733266
20
3.97044882662556
30
0
41
1
10
14.1369804811293
20
3.97571020365814
30
0
41
1
10
14.0847511580154
20
3.97616913609909
30
0
41
1
10
14.0324744238936
20
3.97620065844959
30
0
0
SPLINE
5
E5
100
AcDbEntity
8
1
62
256
6
ByLayer
370
18
48
1
60
0
100
AcDbSpline
70
4
71
3
72
20
73
16
40
0
40
0
40
0
40
0
40
0.250000000000005
40
0.250000000000005
40
0.375000000000004
40
0.375000000000004
40
0.500000000000003
40
0.500000000000003
40
0.625000000000003
40
0.625000000000003
40
0.750000000000002
40
0.750000000000002
40
0.875000000000001
40
0.875000000000001
40
1
40
1
40
1
40
1
41
1
10
54.4243473415912
20
1.9515035192212
30
0
41
1
10
54.363727655674
20
2.11528303384185
30
0
41
1
10
54.3029071276083
20
2.27888219180474
30
0
41
1
10
54.2112217205713
20
2.52339810787888
30
0
41
1
10
54.180558938727
20
2.60472763770341
30
0
41
1
10
54.119202779284
20
2.7673334391649
30
0
41
1
10
54.0885109229617
20
2.84859742934555
30
0
41
1
10
54.0270544744675
20
3.01089023089691
30
0
41
1
10
53.9962928186539
20
3.09193063523472
30
0
41
1
10
53.9346281798055
20
3.25356335895481
30
0
41
1
10
53.903693163527
20
3.33409383843193
30
0
41
1
10
53.8417071055165
20
3.49457264152031
30
0
41
1
10
53.8107042590718
20
3.57474469770818
30
0
41
1
10
53.7486115954739
20
3.73449221121132
30
0
41
1
10
53.7175382841814
20
3.81405154746415
30
0
41
1
10
53.6864289667266
20
3.89231186484653
30
0
0
SPLINE
5
E6
100
AcDbEntity
8
1
62
256
6
ByLayer
370
18
48
1
60
0
100
AcDbSpline
70
4
71
3
72
14
73
10
40
0
40
0
40
0
40
0
40
0.25
40
0.25
40
0.5
40
0.5
40
0.75
40
0.75
40
1
40
1
40
1
40
1
41
1
10
7.81620208228418
20
3.28650580819974
30
0
41
1
10
7.5085194775701
20
3.38034997364238
30
0
41
1
10
7.20510934362864
20
3.46249664614854
30
0
41
1
10
6.60346036193974
20
3.60135772469667
30
0
41
1
10
6.30518377247222
20
3.65867138377743
30
0
41
1
10
5.71196360390269
20
3.74399569144237
30
0
41
1
10
5.41699374757218
20
3.77209584251125
30
0
41
1
10
4.82997081537348
20
3.79418724049191
30
0
41
1
10
4.53696356451934
20
3.7880454169142
30
0
41
1
10
4.25111117560479
20
3.76151043688662
30
0
0
SPLINE
5
E7
100
AcDbEntity
8
1
62
256
6
ByLayer
370
18
48
1
60
0
100
AcDbSpline
70
4
71
3
72
26
73
22
40
0
40
0
40
0
40
0
40
0.125000000000001
40
0.125000000000001
40
0.187500000000002
40
0.187500000000002
40
0.250000000000003
40
0.250000000000003
40
0.312500000000003
40
0.312500000000003
40
0.375000000000004
40
0.375000000000004
40
0.500000000000005
40
0.500000000000005
40
0.625000000000007
40
0.625000000000007
40
0.687500000000004
40
0.687500000000004
40
0.750000000000002
40
0.750000000000002
40
1
40
1
40
1
40
1
41
1
10
50.3174706809072
20
1.66052196311716
30
0
41
1
10
50.3441374184033
20
1.48025268238649
30
0
41
1
10
50.3892050451831
20
1.2972034218015
30
0
41
1
10
50.4819114648868
20
1.01883670676696
30
0
41
1
10
50.517064485227
20
0.925459711186647
30
0
41
1
10
50.5935406230437
20
0.741863107967362
30
0
41
1
10
50.6350455788574
20
0.651060657380583
30
0
41
1
10
50.723952415883
20
0.471253326603346
30
0
41
1
10
50.7713562930893
20
0.38224905485535
30
0
41
1
10
50.8716059432194
20
0.205899374238442
30
0
41
1
10
50.9246505347375
20
0.118270775212977
30
0
41
1
10
51.0889516420402
20
-0.138510861569472
30
0
41
1
10
51.205836959891
20
-0.302639189806826
30
0
41
1
10
51.4515135714749
20
-0.619462492648353
30
0
41
1
10
51.580326280276
20
-0.772136902281886
30
0
41
1
10
51.7812758676452
20
-0.993724865159976
30
0
41
1
10
51.8497094647968
20
-1.06649679699299
30
0
41
1
10
51.9878678761808
20
-1.20851757182655
30
0
41
1
10
52.0576702406048
20
-1.2778648356078
30
0
41
1
10
52.410017563515
20
-1.6169301551133
30
0
41
1
10
52.7023807275624
20
-1.86406825846589
30
0
41
1
10
53.0033688559659
20
-2.09137063082343
30
0
0
SPLINE
5
E8
100
AcDbEntity
8
SK1
62
256
6
ByLayer
370
18
48
1
60
0
100
AcDbSpline
70
4
71
3
72
8
73
4
40
0
40
0
40
0
40
0
40
1
40
1
40
1
40
1
41
1
10
-36
20
1.11629420920943
30
0
41
1
10
-35.7560848054632
20
1.46991696835914
30
0
41
1
10
-35.5039315622472
20
1.82044276104534
30
0
41
1
10
-35.25
20
2.17018640114381
30
0
0
SPLINE
5
E9
100
AcDbEntity
8
SK1
62
256
6
ByLayer
370
18
48
1
60
0
100
AcDbSpline
70
4
71
3
72
14
73
10
40
0
40
0
40
0
40
0
40
0.125000000000001
40
0.125000000000001
40
0.250000000000001
40
0.250000000000001
40
0.500000000000002
40
0.500000000000002
40
1
40
1
40
1
40
1
41
1
10
-35.15
20
3.54538059464232
30
0
41
1
10
-35.15
20
3.5503564652584
30
0
41
1
10
-35.1517507934569
20
3.55250559843455
30
0
41
1
10
-35.1569069278761
20
3.55319632678868
30
0
41
1
10
-35.160234831946
20
3.55186233853317
30
0
41
1
10
-35.1714888412645
20
3.54501541554583
30
0
41
1
10
-35.1802429568047
20
3.53699431221767
30
0
41
1
10
-35.2083191353841
20
3.50787129419652
30
0
41
1
10
-35.2286409685639
20
3.48253967555741
30
0
41
1
10
-35.25
20
3.45312157039024
30
0
0
SPLINE
5
EA
100
AcDbEntity
8
SK1
62
256
6
ByLayer
370
18
48
1
60
0
100
AcDbSpline
70
4
71
3
72
14
73
10
40
0
40
0
40
0
40
0
40
0.5
40
0.5
40
0.75
40
0.75
40
0.875
40
0.875
40
1
40
1
40
1
40
1
41
1
10
-35.25
20
2.17018640114367
30
0
41
1
10
-35.2287404812744
20
2.19946744600486
30
0
41
1
10
-35.208362723075
20
2.23270876926111
30
0
41
1
10
-35.1802905070704
20
2.28909943791166
30
0
41
1
10
-35.1714466180788
20
2.30881648537979
30
0
41
1
10
-35.1602396792677
20
2.33988816136605
30
0
41
1
10
-35.1568594217207
20
2.35051712731649
30
0
41
1
10
-35.1517495297275
20
2.37142417380798
30
0
41
1
10
-35.15
20
2.38189728114119
30
0
41
1
10
-35.15
20
2.39073894232055
30
0
0
SPLINE
5
EB
100
AcDbEntity
8
SK1
62
256
6
ByLayer
370
18
48
1
60
0
100
AcDbSpline
70
4
71
3
72
8
73
4
40
0
40
0
40
0
40
0
40
1
40
1
40
1
40
1
41
1
10
-35.25
20
3.45312157039024
30
0
41
1
10
-35.5038880941382
20
3.10343779955158
30
0
41
1
10
-35.7559775883504
20
2.75300757856246
30
0
41
1
10
-36
20
2.39922937845586
30
0
0
LINE
5
76
100
AcDbEntity
8
81
62
256
6
ByLayer
370
18
48
1
60
0
100
AcDbLine
10
55
20
0
30
0
11
60
21
0
31
0
39
0
210
0
220
0
230
1
0
LINE
5
77
100
AcDbEntity
8
1
62
256
6
ByLayer
370
18
48
1
60
0
100
AcDbLine
10
4.008875
20
3.970193
30
0
11
0.8
21
3.968268
31
0
39
0
210
0
220
0
230
1
0
LINE
5
79
100
AcDbEntity
8
1
62
256
6
ByLayer
370
18
48
1
60
0
100
AcDbLine
10
14.020737
20
3.976201
30
0
11
13.440347
21
3.975852
31
0
39
0
210
0
220
0
230
1
0
LINE
5
7A
100
AcDbEntity
8
1
62
256
6
ByLayer
370
18
48
1
60
0
100
AcDbLine
10
33.420968
20
3.987841
30
0
11
32.846273
21
3.987496
31
0
39
0
210
0
220
0
230
1
0
LINE
5
7B
100
AcDbEntity
8
1
62
256
6
ByLayer
370
18
48
1
60
0
100
AcDbLine
10
52.821019
20
3.999481
30
0
11
52.249443
21
3.999138
31
0
39
0
210
0
220
0
230
1
0
LINE
5
7C
100
AcDbEntity
8
1
62
256
6
ByLayer
370
18
48
1
60
0
100
AcDbLine
10
52.249443
20
-3.999138
30
0
11
52.821808
21
-3.999481
31
0
39
0
210
0
220
0
230
1
0
LINE
5
7D
100
AcDbEntity
8
1
62
256
6
ByLayer
370
18
48
1
60
0
100
AcDbLine
10
32.846273
20
-3.987496
30
0
11
33.420812
21
-3.987841
31
0
39
0
210
0
220
0
230
1
0
LINE
5
7E
100
AcDbEntity
8
1
62
256
6
ByLayer
370
18
48
1
60
0
100
AcDbLine
10
13.440347
20
-3.975852
30
0
11
14.021015
21
-3.976201
31
0
39
0
210
0
220
0
230
1
0
LINE
5
7F
100
AcDbEntity
8
1
62
256
6
ByLayer
370
18
48
1
60
0
100
AcDbLine
10
0.8
20
-3.968268
30
0
11
4.008875
21
-3.970193
31
0
39
0
210
0
220
0
230
1
0
LINE
5
80
100
AcDbEntity
8
1
62
256
6
ByLayer
370
18
48
1
60
0
100
AcDbLine
10
0
20
-4
30
0
11
0.8
21
-3.968268
31
0
39
0
210
0
220
0
230
1
0
LINE
5
81
100
AcDbEntity
8
1
62
256
6
ByLayer
370
18
48
1
60
0
100
AcDbLine
10
0.8
20
3.968268
30
0
11
0
21
4
31
0
39
0
210
0
220
0
230
1
0
LINE
5
82
100
AcDbEntity
8
SK1
62
256
6
ByLayer
370
18
48
1
60
0
100
AcDbLine
10
-35.133975
20
4
30
0
11
-36
21
2.5
31
0
39
0
210
0
220
0
230
1
0
LINE
5
84
100
AcDbEntity
8
SK1
62
256
6
ByLayer
370
18
48
1
60
0
100
AcDbLine
10
-36
20
-2.5
30
0
11
-35.133975
21
-4
31
0
39
0
210
0
220
0
230
1
0
LINE
5
85
100
AcDbEntity
8
SK1
62
256
6
ByLayer
370
18
48
1
60
0
100
AcDbLine
10
0
20
4
30
0
11
-35.133975
21
4
31
0
39
0
210
0
220
0
230
1
0
LINE
5
86
100
AcDbEntity
8
SK1
62
256
6
ByLayer
370
18
48
1
60
0
100
AcDbLine
10
-35.133975
20
-4
30
0
11
0
21
-4
31
0
39
0
210
0
220
0
230
1
0
LINE
5
87
100
AcDbEntity
8
SK4
62
256
6
ByLayer
370
18
48
0.05
60
0
100
AcDbLine
10
60
20
0
30
0
11
-41
21
0
31
0
39
0
210
0
220
0
230
1
0
LINE
5
89
100
AcDbEntity
8
4
62
256
6
ByLayer
370
18
48
0.05
60
0
100
AcDbLine
10
55
20
0
30
0
11
0
21
0
31
0
39
0
210
0
220
0
230
1
0
LINE
5
8B
100
AcDbEntity
8
80
62
256
6
ByLayer
370
18
48
1
60
0
100
AcDbLine
10
0
20
0
30
0
11
-5
21
0
31
0
39
0
210
0
220
0
230
1
0
LINE
5
8C
100
AcDbEntity
8
1
62
256
6
ByLayer
370
18
48
1
60
0
100
AcDbLine
10
0
20
-4
30
0
11
0
21
4
31
0
39
0
210
0
220
0
230
1
0
LINE
5
8D
100
AcDbEntity
8
1
62
256
6
ByLayer
370
18
48
1
60
0
100
AcDbLine
10
55
20
0
30
0
11
53.611457
21
-3.814991
31
0
39
0
210
0
220
0
230
1
0
LINE
5
8E
100
AcDbEntity
8
1
62
256
6
ByLayer
370
18
48
1
60
0
100
AcDbLine
10
55
20
0
30
0
11
54.992152
21
-0.039073
31
0
39
0
210
0
220
0
230
1
0
LINE
5
8F
100
AcDbEntity
8
1
62
256
6
ByLayer
370
13
48
1
60
0
100
AcDbLine
10
54.099354
20
0.782485
30
0
11
54.917145
21
0.297262
31
0
39
0
210
0
220
0
230
1
0
LINE
5
90
100
AcDbEntity
8
1
62
256
6
ByLayer
370
18
48
1
60
0
100
AcDbLine
10
54.917145
20
-0.297262
30
0
11
54.79481
21
-0.782485
31
0
39
0
210
0
220
0
230
1
0
LINE
5
91
100
AcDbEntity
8
1
62
256
6
ByLayer
370
18
48
1
60
0
100
AcDbLine
10
54.992152
20
0.039073
30
0
11
55
21
0
31
0
39
0
210
0
220
0
230
1
0
LINE
5
92
100
AcDbEntity
8
1
62
256
6
ByLayer
370
13
48
1
60
0
100
AcDbLine
10
53.909447
20
0.447156
30
0
11
54.894806
21
-0.13749
31
0
39
0
210
0
220
0
230
1
0
LINE
5
93
100
AcDbEntity
8
1
62
256
6
ByLayer
370
13
48
1
60
0
100
AcDbLine
10
54.79481
20
0.782485
30
0
11
54.099354
21
0.782485
31
0
39
0
210
0
220
0
230
1
0
LINE
5
94
100
AcDbEntity
8
1
62
256
6
ByLayer
370
18
48
1
60
0
100
AcDbLine
10
54.917145
20
0.297262
30
0
11
54.79481
21
0.782485
31
0
39
0
210
0
220
0
230
1
0
LINE
5
95
100
AcDbEntity
8
1
62
256
6
ByLayer
370
18
48
1
60
0
100
AcDbLine
10
53.003369
20
-2.091371
30
0
11
54.894806
21
-0.13749
31
0
39
0
210
0
220
0
230
1
0
LINE
5
96
100
AcDbEntity
8
1
62
256
6
ByLayer
370
18
48
1
60
0
100
AcDbLine
10
0.8
20
3.968268
30
0
11
0.8
21
-3.968268
31
0
39
0
210
0
220
0
230
1
0
LINE
5
97
100
AcDbEntity
8
SK1
62
256
6
ByLayer
370
18
48
1
60
0
100
AcDbLine
10
-36
20
2.399229
30
0
11
-36
21
1.116283
31
0
39
0
210
0
220
0
230
1
0
LINE
5
98
100
AcDbEntity
8
SK1
62
256
6
ByLayer
370
18
48
1
60
0
100
AcDbLine
10
-35.133975
20
4
30
0
11
-35.133975
21
-4
31
0
39
0
210
0
220
0
230
1
0
LINE
5
99
100
AcDbEntity
8
SK1
62
256
6
ByLayer
370
18
48
1
60
0
100
AcDbLine
10
0
20
-4
30
0
11
0
21
4
31
0
39
0
210
0
220
0
230
1
0
LINE
5
9A
100
AcDbEntity
8
SK1
62
256
6
ByLayer
370
18
48
1
60
0
100
AcDbLine
10
-36
20
2.5
30
0
11
-36
21
2.399229
31
0
39
0
210
0
220
0
230
1
0
LINE
5
9B
100
AcDbEntity
8
SK1
62
256
6
ByLayer
370
13
48
1
60
0
100
AcDbLine
10
-35.25
20
3.453122
30
0
11
-35.25
21
2.170129
31
0
39
0
210
0
220
0
230
1
0
LINE
5
9C
100
AcDbEntity
8
SK1
62
256
6
ByLayer
370
18
48
1
60
0
100
AcDbLine
10
-35.15
20
2.390739
30
0
11
-35.15
21
3.545381
31
0
39
0
210
0
220
0
230
1
0
LINE
5
9D
100
AcDbEntity
8
SK1
62
256
6
ByLayer
370
18
48
1
60
0
100
AcDbLine
10
-36
20
1.116294
30
0
11
-36
21
-2.5
31
0
39
0
210
0
220
0
230
1
0
MTEXT
5
EC
100
AcDbEntity
8
SK6
62
256
6
ByLayer
370
13
48
1
60
0
100
AcDbMText
10
11.629169
20
36.382694
30
0
210
0
220
0
230
1
1
\W0.7542;R840-0800-50-A1A1220
40
3.5
41
0
44
1.084337
50
0
71
8
72
5
7
iso_b_vert
0
DIMENSION
5
F9
100
AcDbEntity
8
SK2
62
256
6
ByLayer
370
13
48
1
60
0
100
AcDbDimension
2
DimnDraft3D1
10
53.63
20
-14.213398
30
0
11
25.380059
21
-14.213398
31
0
70
32
71
5
72
1
41
1
210
0
220
0
230
1
3
Standard
100
AcDbAlignedDimension
13
0
23
-1.5875
33
0
14
53.63
24
-5.5875
34
0
50
0
100
AcDbRotatedDimension
1001
ACAD
1000
DSTYLE
1002
{
1070
   279
1070
     0
1070
   172
1070
     1
1070
   173
1070
     1
1070
   340
1005
ED
1070
   271
1070
     2
1070
   272
1070
     2
1070
    77
1070
     1
1070
    73
1070
     0
1070
   171
1070
     3
1070
   274
1070
     4
1070
   177
1070
    35
1070
   176
1070
    35
1070
   178
1070
    35
1070
    48
1040
-0.005
1070
    41
1041
3.5
1070
   147
1041
1.75
1070
    42
1041
1.5875
1070
    44
1041
2.0
1070
   140
1041
3.5
1070
   343
1005
0
1070
   344
1005
0
1002
}
0
DIMENSION
5
103
100
AcDbEntity
8
SK2
62
256
6
ByLayer
370
13
48
1
60
0
100
AcDbDimension
2
DimnDraft3D2
10
55
20
-32.692985
30
0
11
9.4713
21
-32.692985
31
0
70
32
71
5
72
1
41
1
210
0
220
0
230
1
3
Standard
100
AcDbAlignedDimension
13
-36
23
-5.5875
33
0
14
55
24
-1.5875
34
0
50
0
100
AcDbRotatedDimension
1001
ACAD
1000
DSTYLE
1002
{
1070
   279
1070
     0
1070
   172
1070
     1
1070
   173
1070
     1
1070
   340
1005
ED
1070
   271
1070
     2
1070
   272
1070
     2
1070
    77
1070
     1
1070
    73
1070
     0
1070
   171
1070
     3
1070
   274
1070
     4
1070
   177
1070
    35
1070
   176
1070
    35
1070
   178
1070
    35
1070
    48
1040
-0.005
1070
    41
1041
3.5
1070
   147
1041
1.75
1070
    42
1041
1.5875
1070
    44
1041
2.0
1070
   140
1041
3.5
1070
   343
1005
0
1070
   344
1005
0
1002
}
0
DIMENSION
5
10D
100
AcDbEntity
8
SK2
62
256
6
ByLayer
370
13
48
1
60
0
100
AcDbDimension
2
DimnDraft3D3
10
55
20
15.609119
30
0
11
34.315
21
15.609119
31
0
70
32
71
5
72
1
41
1
210
0
220
0
230
1
3
Standard
100
AcDbAlignedDimension
13
13.63
23
5.5875
33
0
14
55
24
1.5875
34
0
50
0
100
AcDbRotatedDimension
1001
ACAD
1000
DSTYLE
1002
{
1070
   279
1070
     0
1070
   172
1070
     1
1070
   173
1070
     1
1070
   340
1005
ED
1070
   271
1070
     2
1070
   272
1070
     2
1070
    77
1070
     1
1070
    73
1070
     0
1070
   171
1070
     3
1070
   274
1070
     4
1070
   177
1070
    35
1070
   176
1070
    35
1070
   178
1070
    35
1070
    48
1040
-0.005
1070
    41
1041
3.5
1070
   147
1041
1.75
1070
    42
1041
1.5875
1070
    44
1041
2.0
1070
   140
1041
3.5
1070
   343
1005
0
1070
   344
1005
0
1002
}
0
DIMENSION
5
117
100
AcDbEntity
8
SK2
62
256
6
ByLayer
370
13
48
1
60
0
100
AcDbDimension
2
DimnDraft3D4
10
53.63
20
-16.802503
30
0
11
64.981425
21
-16.802503
31
0
70
32
71
5
72
1
41
1
210
0
220
0
230
1
3
Standard
100
AcDbAlignedDimension
13
55
23
-1.5875
33
0
14
53.63
24
-5.5875
34
0
50
0
100
AcDbRotatedDimension
1001
ACAD
1000
DSTYLE
1002
{
1070
   279
1070
     0
1070
   172
1070
     1
1070
   173
1070
     1
1070
   340
1005
ED
1070
   271
1070
     2
1070
   272
1070
     2
1070
    77
1070
     1
1070
    73
1070
     0
1070
   171
1070
     3
1070
   274
1070
     4
1070
   177
1070
    35
1070
   176
1070
    35
1070
   178
1070
    35
1070
    48
1040
-0.005
1070
    41
1041
3.5
1070
   147
1041
1.75
1070
    42
1041
1.5875
1070
    44
1041
2.0
1070
   140
1041
3.5
1070
   343
1005
0
1070
   344
1005
0
1002
}
0
DIMENSION
5
121
100
AcDbEntity
8
SK2
62
256
6
ByLayer
370
13
48
1
60
0
100
AcDbDimension
2
DimnDraft3D5
10
53.63
20
-22.343428
30
0
11
6.390676
21
-22.343428
31
0
70
32
71
5
72
1
41
1
210
0
220
0
230
1
3
Standard
100
AcDbAlignedDimension
13
-36
23
-5.5875
33
0
14
53.63
24
-5.5875
34
0
50
0
100
AcDbRotatedDimension
1001
ACAD
1000
DSTYLE
1002
{
1070
   279
1070
     0
1070
   172
1070
     1
1070
   173
1070
     1
1070
   340
1005
ED
1070
   271
1070
     2
1070
   272
1070
     2
1070
    77
1070
     1
1070
    73
1070
     0
1070
   171
1070
     3
1070
   274
1070
     4
1070
   177
1070
    35
1070
   176
1070
    35
1070
   178
1070
    35
1070
    48
1040
-0.005
1070
    41
1041
3.5
1070
   147
1041
1.75
1070
    42
1041
1.5875
1070
    44
1041
2.0
1070
   140
1041
3.5
1070
   343
1005
0
1070
   344
1005
0
1002
}
0
DIMENSION
5
12C
100
AcDbEntity
8
SK2
62
256
6
ByLayer
370
13
48
1
60
0
100
AcDbDimension
2
DimnDraft3D6
10
-46.625163
20
4
30
0
11
-47.250163
21
22.47418
31
0
70
33
71
5
72
1
41
1
210
0
220
0
230
1
3
Standard
100
AcDbAlignedDimension
13
-37.5875
23
-4
33
0
14
-37.5875
24
4
34
0
1001
ACAD
1000
DSTYLE
1002
{
1070
   279
1070
     0
1070
    74
1070
     0
1070
   173
1070
     1
1070
   340
1005
ED
1070
   271
1070
     3
1070
   272
1070
     2
1070
    77
1070
     1
1070
    73
1070
     0
1070
   171
1070
     3
1070
   274
1070
     4
1070
   177
1070
    35
1070
   176
1070
    35
1070
   178
1070
    35
1070
    48
1040
-0.005
1070
    41
1041
3.5
1070
   147
1041
1.75
1070
    42
1041
1.5875
1070
    44
1041
2.0
1070
   140
1041
3.5
1070
   343
1005
0
1070
   344
1005
0
1002
}
0
DIMENSION
5
137
100
AcDbEntity
8
2
62
256
6
ByLayer
370
13
48
1
60
0
100
AcDbDimension
2
DimnDraft3D7
10
69.083343
20
4
30
0
11
64.458343
21
21.067266
31
0
70
33
71
5
72
1
41
1
210
0
220
0
230
1
3
Standard
100
AcDbAlignedDimension
13
55.2175
23
-4
33
0
14
55.2175
24
4
34
0
1001
ACAD
1000
DSTYLE
1002
{
1070
   279
1070
     0
1070
    74
1070
     0
1070
   173
1070
     1
1070
   340
1005
ED
1070
   271
1070
     3
1070
   272
1070
     2
1070
    77
1070
     1
1070
    73
1070
     0
1070
   171
1070
     3
1070
   274
1070
     4
1070
   177
1070
    35
1070
   176
1070
    35
1070
   178
1070
    35
1070
    48
1040
-0.005
1070
    41
1041
3.5
1070
   147
1041
1.75
1070
    42
1041
1.5875
1070
    44
1041
2.0
1070
   140
1041
3.5
1070
   343
1005
0
1070
   344
1005
0
1002
}
0
ENDSEC
0
SECTION
2
OBJECTS
0
DICTIONARY
5
1a2
330
0
100
AcDbDictionary
280
0
281
1
3
ACAD_GROUP
350
1a3
3
ACAD_MLINESTYLE
350
1a4
0
DICTIONARY
5
1a3
330
0
100
AcDbDictionary
280
0
281
1
0
DICTIONARY
5
1a4
330
0
100
AcDbDictionary
280
0
281
1
3
Standard
350
18
0
MLINESTYLE
5
18
330
1a4
100
AcDbMlineStyle
2
Standard
70
0
3

62
256
51
90
52
90
71
2
49
-0.5
62
256
6
ByLayer
49
0.5
62
256
6
ByLayer
0
RASTERVARIABLES
5
190
330

100
AcDbRasterVariables
90
0
70
1
71
1
72
1
0
ENDSEC
0
EOF
