0
SECTION
2
HEADER
9
$ACADVER
1
AC1015
9
$DWGCODEPAGE
3
ANSI_1252
9
$HANDSEED
5
19d
9
$ANGBASE
50
0
9
$ANGDIR
70
0
9
$ATTMODE
70
1
9
$AUNITS
70
0
9
$AUPREC
70
0
9
$CECOLOR
62
256
9
$CELTSCALE
40
1
9
$CELTYPE
6
ByLayer
9
$CELWEIGHT
370
18
9
$CLAYER
8
0
9
$CMLJUST
70
0
9
$CMLSCALE
40
1
9
$CMLSTYLE
2
Standard
9
$DIMSTYLE
2
Standard
9
$TEXTSIZE
40
0.2
9
$TEXTSTYLE
7
Standard
9
$LUNITS
70
2
9
$LUPREC
70
4
9
$EXTNAMES
290
1
9
$INSUNITS
70
4
9
$LTSCALE
40
1
9
$LWDISPLAY
290
1
9
$PDMODE
70
0
9
$PDSIZE
40
0
9
$PLINEGEN
70
0
0
ENDSEC
0
SECTION
2
CLASSES
0
CLASS
1
RASTERVARIABLES
2
AcDbRasterVariables
3
ISM
90
0
280
0
281
0
0
ENDSEC
0
SECTION
2
TABLES
0
TABLE
2
VPORT
5
193
100
AcDbSymbolTable
0
VPORT
5
1
100
AcDbSymbolTableRecord
100
AcDbViewportTableRecord
2
*Active
70
0
10
0
20
0
11
1
21
1
12
-1
22
1
13
0
23
0
14
0.5
24
0.5
15
10
25
10
16
0
26
0
36
1
17
0
27
0
37
0
0
ENDTAB
0
TABLE
2
LTYPE
5
194
100
AcDbSymbolTable
0
LTYPE
5
14
100
AcDbSymbolTableRecord
100
AcDbLinetypeTableRecord
70
0
2
ByBlock
3

72
65
73
0
40
0
0
LTYPE
5
15
100
AcDbSymbolTableRecord
100
AcDbLinetypeTableRecord
70
0
2
ByLayer
3

72
65
73
0
40
0
0
LTYPE
5
16
100
AcDbSymbolTableRecord
100
AcDbLinetypeTableRecord
70
0
2
CONTINUOUS
3
Solid line
72
65
73
0
40
0
0
LTYPE
5
6A
100
AcDbSymbolTableRecord
100
AcDbLinetypeTableRecord
70
0
2
CENTER
3
____ _ ____ _ ____ _ ____
72
65
73
4
40
47.5
49
22
74
0
49
-8.5
74
0
49
8.5
74
0
49
-8.5
74
0
0
LTYPE
5
6B
100
AcDbSymbolTableRecord
100
AcDbLinetypeTableRecord
70
0
2
DASHED
3
__ __ __ __ __ __ __ __ __
72
65
73
2
40
25.72
49
12.86
74
0
49
-12.86
74
0
0
ENDTAB
0
TABLE
2
LAYER
5
195
100
AcDbSymbolTable
0
LAYER
5
10
100
AcDbSymbolTableRecord
100
AcDbLayerTableRecord
2
0
70
0
62
7
6
CONTINUOUS
290
1
370
-3
390
0
0
LAYER
5
6D
100
AcDbSymbolTableRecord
100
AcDbLayerTableRecord
2
81
70
0
62
-3
6
CONTINUOUS
290
1
370
-3
390
0
0
LAYER
5
6F
100
AcDbSymbolTableRecord
100
AcDbLayerTableRecord
2
80
70
0
62
-6
6
CONTINUOUS
290
1
370
-3
390
0
0
LAYER
5
74
100
AcDbSymbolTableRecord
100
AcDbLayerTableRecord
2
2
70
0
62
7
6
CONTINUOUS
290
1
370
-3
390
0
0
LAYER
5
78
100
AcDbSymbolTableRecord
100
AcDbLayerTableRecord
2
1
70
0
62
4
6
CONTINUOUS
290
1
370
-3
390
0
0
LAYER
5
88
100
AcDbSymbolTableRecord
100
AcDbLayerTableRecord
2
4
70
0
62
-2
6
CENTER
290
1
370
-3
390
0
0
LAYER
5
17f
100
AcDbSymbolTableRecord
100
AcDbLayerTableRecord
2
SK2
70
0
62
7
6
CONTINUOUS
290
1
370
-3
390
0
0
LAYER
5
180
100
AcDbSymbolTableRecord
100
AcDbLayerTableRecord
2
SK1
70
0
62
4
6
CONTINUOUS
290
1
370
-3
390
0
0
LAYER
5
181
100
AcDbSymbolTableRecord
100
AcDbLayerTableRecord
2
SK4
70
0
62
2
6
CENTER
290
1
370
-3
390
0
0
LAYER
5
182
100
AcDbSymbolTableRecord
100
AcDbLayerTableRecord
2
SK6
70
0
62
5
6
CONTINUOUS
290
1
370
-3
390
0
0
ENDTAB
0
TABLE
2
STYLE
5
196
100
AcDbSymbolTable
0
STYLE
5
11
100
AcDbSymbolTableRecord
100
AcDbTextStyleTableRecord
2
Standard
3
txt
70
0
71
0
40
0
41
1
42
0
50
0
0
STYLE
5
DB
100
AcDbSymbolTableRecord
100
AcDbTextStyleTableRecord
2
iso_b_vert
3
simplex.shx
70
0
71
0
40
0
41
1
42
0
50
0
0
STYLE
5
DC
100
AcDbSymbolTableRecord
100
AcDbTextStyleTableRecord
2
DWGDirectTextStyle
3
simplex
70
0
71
0
40
0
41
1
42
0
50
0
0
ENDTAB
0
TABLE
2
DIMSTYLE
5
197
100
AcDbSymbolTable
100
AcDbDimStyleTable
0
DIMSTYLE
105
27
100
AcDbSymbolTableRecord
100
AcDbDimStyleTableRecord
2
Standard
70
0
3
<>
41
0.18
42
0.0625
44
0.18
140
0.18
147
0.09
73
0
74
0
77
1
271
2
275
0
278
52
280
0
340
11
0
ENDTAB
0
TABLE
2
VIEW
5
198
100
AcDbSymbolTable
0
ENDTAB
0
TABLE
2
UCS
5
199
100
AcDbSymbolTable
0
ENDTAB
0
TABLE
2
APPID
5
19a
100
AcDbSymbolTable
0
APPID
5
12
100
AcDbSymbolTableRecord
100
AcDbRegAppTableRecord
2
ACAD
70
0
0
ENDTAB
0
TABLE
2
BLOCK_RECORD
5
19b
100
AcDbSymbolTable
0
BLOCK_RECORD
5
1F
100
AcDbSymbolTableRecord
100
AcDbBlockTableRecord
2
*Model_Space
340
0
70
0
0
BLOCK_RECORD
5
1B
100
AcDbSymbolTableRecord
100
AcDbBlockTableRecord
2
*Paper_Space
340
0
70
0
0
BLOCK_RECORD
5
23
100
AcDbSymbolTableRecord
100
AcDbBlockTableRecord
2
*Paper_Space0
340
0
70
0
0
BLOCK_RECORD
5
DE
100
AcDbSymbolTableRecord
100
AcDbBlockTableRecord
2
DimnDraft3D1
340
0
70
0
0
BLOCK_RECORD
5
E8
100
AcDbSymbolTableRecord
100
AcDbBlockTableRecord
2
DimnDraft3D2
340
0
70
0
0
BLOCK_RECORD
5
F2
100
AcDbSymbolTableRecord
100
AcDbBlockTableRecord
2
DimnDraft3D3
340
0
70
0
0
BLOCK_RECORD
5
FC
100
AcDbSymbolTableRecord
100
AcDbBlockTableRecord
2
DimnDraft3D4
340
0
70
0
0
BLOCK_RECORD
5
106
100
AcDbSymbolTableRecord
100
AcDbBlockTableRecord
2
DimnDraft3D5
340
0
70
0
0
BLOCK_RECORD
5
110
100
AcDbSymbolTableRecord
100
AcDbBlockTableRecord
2
DimnDraft3D6
340
0
70
0
0
BLOCK_RECORD
5
11B
100
AcDbSymbolTableRecord
100
AcDbBlockTableRecord
2
DimnDraft3D7
340
0
70
0
0
ENDTAB
0
ENDSEC
0
SECTION
2
BLOCKS
0
BLOCK
5
20
100
AcDbEntity
8
0
100
AcDbBlockBegin
2
*Model_Space
70
0
10
0
20
0
30
0
3
*Model_Space
0
ENDBLK
5
21
100
AcDbEntity
8
0
100
AcDbBlockEnd
0
BLOCK
5
1C
100
AcDbEntity
8
0
100
AcDbBlockBegin
2
*Paper_Space
70
0
10
0
20
0
30
0
3
*Paper_Space
0
ENDBLK
5
1D
100
AcDbEntity
8
0
100
AcDbBlockEnd
0
BLOCK
5
24
100
AcDbEntity
8
0
100
AcDbBlockBegin
2
*Paper_Space0
70
0
10
0
20
0
30
0
3
*Paper_Space0
0
ENDBLK
5
25
100
AcDbEntity
8
0
100
AcDbBlockEnd
0
BLOCK
5
E5
100
AcDbEntity
8
0
100
AcDbBlockBegin
2
DimnDraft3D1
70
0
10
0
20
0
30
0
3
DimnDraft3D1
0
MTEXT
5
DF
100
AcDbEntity
8
SK2
62
256
6
ByLayer
370
13
48
1
60
0
100
AcDbMText
10
15.204664
20
-13.308398
30
0
210
0
220
0
230
1
1
\W0.6977;41,65
40
3.5
41
0
44
1.084337
50
0
71
7
72
5
7
iso_b_vert
0
LINE
5
E0
100
AcDbEntity
8
SK2
62
256
6
ByLayer
370
13
48
1
60
0
100
AcDbLine
10
0
20
-1.5875
30
0
11
0
21
-16.183398
31
0
39
0
210
0
220
0
230
1
0
LINE
5
E1
100
AcDbEntity
8
SK2
62
256
6
ByLayer
370
13
48
1
60
0
100
AcDbLine
10
41.65
20
-5.5575
30
0
11
41.65
21
-16.183398
31
0
39
0
210
0
220
0
230
1
0
LINE
5
E2
100
AcDbEntity
8
SK2
62
256
6
ByLayer
370
13
48
1
60
0
100
AcDbLine
10
0
20
-14.183398
30
0
11
41.65
21
-14.183398
31
0
39
0
210
0
220
0
230
1
0
SOLID
5
E3
100
AcDbEntity
8
SK2
62
256
6
ByLayer
370
13
48
1
60
0
100
AcDbTrace
10
0
20
-14.183398
30
0
11
3.499998
21
-13.722615
31
0
12
3.500002
22
-14.644182
32
0
13
0
23
-14.183398
33
0
39
0
210
0
220
0
230
1
0
SOLID
5
E4
100
AcDbEntity
8
SK2
62
256
6
ByLayer
370
13
48
1
60
0
100
AcDbTrace
10
41.65
20
-14.183398
30
0
11
38.150002
21
-14.644182
31
0
12
38.149998
22
-13.722615
32
0
13
41.65
23
-14.183398
33
0
39
0
210
0
220
0
230
1
0
ENDBLK
5
E6
100
AcDbEntity
8
0
100
AcDbBlockEnd
0
BLOCK
5
EF
100
AcDbEntity
8
0
100
AcDbBlockBegin
2
DimnDraft3D2
70
0
10
0
20
0
30
0
3
DimnDraft3D2
0
MTEXT
5
E9
100
AcDbEntity
8
SK2
62
256
6
ByLayer
370
13
48
1
60
0
100
AcDbMText
10
-0.957384
20
-31.817985
30
0
210
0
220
0
230
1
1
\W0.7317;79,00
40
3.5
41
0
44
1.084337
50
0
71
7
72
5
7
iso_b_vert
0
LINE
5
EA
100
AcDbEntity
8
SK2
62
256
6
ByLayer
370
13
48
1
60
0
100
AcDbLine
10
-36
20
-5.5875
30
0
11
-36
21
-34.692985
31
0
39
0
210
0
220
0
230
1
0
LINE
5
EB
100
AcDbEntity
8
SK2
62
256
6
ByLayer
370
13
48
1
60
0
100
AcDbLine
10
43
20
-1.5875
30
0
11
43
21
-34.692985
31
0
39
0
210
0
220
0
230
1
0
LINE
5
EC
100
AcDbEntity
8
SK2
62
256
6
ByLayer
370
13
48
1
60
0
100
AcDbLine
10
-36
20
-32.692985
30
0
11
43
21
-32.692985
31
0
39
0
210
0
220
0
230
1
0
SOLID
5
ED
100
AcDbEntity
8
SK2
62
256
6
ByLayer
370
13
48
1
60
0
100
AcDbTrace
10
-36
20
-32.692985
30
0
11
-32.500002
21
-32.232202
31
0
12
-32.499998
22
-33.153769
32
0
13
-36
23
-32.692985
33
0
39
0
210
0
220
0
230
1
0
SOLID
5
EE
100
AcDbEntity
8
SK2
62
256
6
ByLayer
370
13
48
1
60
0
100
AcDbTrace
10
43
20
-32.692985
30
0
11
39.500002
21
-33.153769
31
0
12
39.499998
22
-32.232202
32
0
13
43
23
-32.692985
33
0
39
0
210
0
220
0
230
1
0
ENDBLK
5
F0
100
AcDbEntity
8
0
100
AcDbBlockEnd
0
BLOCK
5
F9
100
AcDbEntity
8
0
100
AcDbBlockBegin
2
DimnDraft3D3
70
0
10
0
20
0
30
0
3
DimnDraft3D3
0
MTEXT
5
F3
100
AcDbEntity
8
SK2
62
256
6
ByLayer
370
13
48
1
60
0
100
AcDbMText
10
26.403816
20
16.454119
30
0
210
0
220
0
230
1
1
\W0.6713;25,17
40
3.5
41
0
44
1.084337
50
0
71
7
72
5
7
iso_b_vert
0
LINE
5
F4
100
AcDbEntity
8
SK2
62
256
6
ByLayer
370
13
48
1
60
0
100
AcDbLine
10
17.83
20
5.5575
30
0
11
17.83
21
17.579119
31
0
39
0
210
0
220
0
230
1
0
LINE
5
F5
100
AcDbEntity
8
SK2
62
256
6
ByLayer
370
13
48
1
60
0
100
AcDbLine
10
43
20
1.5875
30
0
11
43
21
17.579119
31
0
39
0
210
0
220
0
230
1
0
LINE
5
F6
100
AcDbEntity
8
SK2
62
256
6
ByLayer
370
13
48
1
60
0
100
AcDbLine
10
17.83
20
15.579119
30
0
11
43
21
15.579119
31
0
39
0
210
0
220
0
230
1
0
SOLID
5
F7
100
AcDbEntity
8
SK2
62
256
6
ByLayer
370
13
48
1
60
0
100
AcDbTrace
10
17.83
20
15.579119
30
0
11
21.329998
21
16.039903
31
0
12
21.330002
22
15.118335
32
0
13
17.83
23
15.579119
33
0
39
0
210
0
220
0
230
1
0
SOLID
5
F8
100
AcDbEntity
8
SK2
62
256
6
ByLayer
370
13
48
1
60
0
100
AcDbTrace
10
43
20
15.579119
30
0
11
39.500002
21
15.118335
31
0
12
39.499998
22
16.039903
32
0
13
43
23
15.579119
33
0
39
0
210
0
220
0
230
1
0
ENDBLK
5
FA
100
AcDbEntity
8
0
100
AcDbBlockEnd
0
BLOCK
5
103
100
AcDbEntity
8
0
100
AcDbBlockBegin
2
DimnDraft3D4
70
0
10
0
20
0
30
0
3
DimnDraft3D4
0
MTEXT
5
FD
100
AcDbEntity
8
SK2
62
256
6
ByLayer
370
13
48
1
60
0
100
AcDbMText
10
50.278136
20
-15.897503
30
0
210
0
220
0
230
1
1
\W0.6367;1,35
40
3.5
41
0
44
1.084337
50
0
71
7
72
5
7
iso_b_vert
0
LINE
5
FE
100
AcDbEntity
8
SK2
62
256
6
ByLayer
370
13
48
1
60
0
100
AcDbLine
10
43
20
-1.5875
30
0
11
43
21
-18.772503
31
0
39
0
210
0
220
0
230
1
0
LINE
5
FF
100
AcDbEntity
8
SK2
62
256
6
ByLayer
370
13
48
1
60
0
100
AcDbLine
10
41.65
20
-5.5575
30
0
11
41.65
21
-18.772503
31
0
39
0
210
0
220
0
230
1
0
LINE
5
100
100
AcDbEntity
8
SK2
62
256
6
ByLayer
370
13
48
1
60
0
100
AcDbLine
10
32.9
20
-16.772503
30
0
11
56.559715
21
-16.772503
31
0
39
0
210
0
220
0
230
1
0
SOLID
5
101
100
AcDbEntity
8
SK2
62
256
6
ByLayer
370
13
48
1
60
0
100
AcDbTrace
10
43
20
-16.772503
30
0
11
46.499998
21
-16.311719
31
0
12
46.500002
22
-17.233287
32
0
13
43
23
-16.772503
33
0
39
0
210
0
220
0
230
1
0
SOLID
5
102
100
AcDbEntity
8
SK2
62
256
6
ByLayer
370
13
48
1
60
0
100
AcDbTrace
10
41.65
20
-16.772503
30
0
11
38.150002
21
-17.233287
31
0
12
38.149998
22
-16.311719
32
0
13
41.65
23
-16.772503
33
0
39
0
210
0
220
0
230
1
0
ENDBLK
5
104
100
AcDbEntity
8
0
100
AcDbBlockEnd
0
BLOCK
5
10D
100
AcDbEntity
8
0
100
AcDbBlockBegin
2
DimnDraft3D5
70
0
10
0
20
0
30
0
3
DimnDraft3D5
0
MTEXT
5
107
100
AcDbEntity
8
SK2
62
256
6
ByLayer
370
13
48
1
60
0
100
AcDbMText
10
-4.038008
20
-21.468428
30
0
210
0
220
0
230
1
1
\W0.7317;77,65
40
3.5
41
0
44
1.084337
50
0
71
7
72
5
7
iso_b_vert
0
LINE
5
108
100
AcDbEntity
8
SK2
62
256
6
ByLayer
370
13
48
1
60
0
100
AcDbLine
10
-36
20
-5.5875
30
0
11
-36
21
-24.343428
31
0
39
0
210
0
220
0
230
1
0
LINE
5
109
100
AcDbEntity
8
SK2
62
256
6
ByLayer
370
13
48
1
60
0
100
AcDbLine
10
41.65
20
-5.5575
30
0
11
41.65
21
-24.343428
31
0
39
0
210
0
220
0
230
1
0
LINE
5
10A
100
AcDbEntity
8
SK2
62
256
6
ByLayer
370
13
48
1
60
0
100
AcDbLine
10
-36
20
-22.343428
30
0
11
41.65
21
-22.343428
31
0
39
0
210
0
220
0
230
1
0
SOLID
5
10B
100
AcDbEntity
8
SK2
62
256
6
ByLayer
370
13
48
1
60
0
100
AcDbTrace
10
-36
20
-22.343428
30
0
11
-32.500002
21
-21.882645
31
0
12
-32.499998
22
-22.804212
32
0
13
-36
23
-22.343428
33
0
39
0
210
0
220
0
230
1
0
SOLID
5
10C
100
AcDbEntity
8
SK2
62
256
6
ByLayer
370
13
48
1
60
0
100
AcDbTrace
10
41.65
20
-22.343428
30
0
11
38.150002
21
-22.804212
31
0
12
38.149998
22
-21.882645
32
0
13
41.65
23
-22.343428
33
0
39
0
210
0
220
0
230
1
0
ENDBLK
5
10E
100
AcDbEntity
8
0
100
AcDbBlockEnd
0
BLOCK
5
118
100
AcDbEntity
8
0
100
AcDbBlockBegin
2
DimnDraft3D6
70
0
10
0
20
0
30
0
3
DimnDraft3D6
0
MTEXT
5
111
100
AcDbEntity
8
SK2
62
256
6
ByLayer
370
13
48
1
60
0
100
AcDbMText
10
-46.375163
20
23.34918
30
0
210
0
220
0
230
1
1
\W0.7317;8,000
40
3.5
41
0
44
1.084337
50
90
71
7
72
5
7
iso_b_vert
0
MTEXT
5
112
100
AcDbEntity
8
SK2
62
256
6
ByLayer
370
13
48
1
60
0
100
AcDbMText
10
-46.375163
20
18.126524
30
0
210
0
220
0
230
1
1
%%c
40
3.5
41
0
44
1.084337
50
90
71
7
72
5
7
iso_b_vert
0
LINE
5
113
100
AcDbEntity
8
SK2
62
256
6
ByLayer
370
13
48
1
60
0
100
AcDbLine
10
-37.5875
20
-4
30
0
11
-46.625163
21
-4
31
0
39
0
210
0
220
0
230
1
0
LINE
5
114
100
AcDbEntity
8
SK2
62
256
6
ByLayer
370
13
48
1
60
0
100
AcDbLine
10
-37.5875
20
4
30
0
11
-46.625163
21
4
31
0
39
0
210
0
220
0
230
1
0
LINE
5
115
100
AcDbEntity
8
SK2
62
256
6
ByLayer
370
13
48
1
60
0
100
AcDbLine
10
-44.625163
20
-4
30
0
11
-44.625163
21
33.121549
31
0
39
0
210
0
220
0
230
1
0
SOLID
5
116
100
AcDbEntity
8
SK2
62
256
6
ByLayer
370
13
48
1
60
0
100
AcDbTrace
10
-44.625163
20
-4
30
0
11
-45.085946
21
-0.500002
31
0
12
-44.164379
22
-0.499998
32
0
13
-44.625163
23
-4
33
0
39
0
210
0
220
0
230
1
0
SOLID
5
117
100
AcDbEntity
8
SK2
62
256
6
ByLayer
370
13
48
1
60
0
100
AcDbTrace
10
-44.625163
20
4
30
0
11
-44.164379
21
0.500002
31
0
12
-45.085946
22
0.499998
32
0
13
-44.625163
23
4
33
0
39
0
210
0
220
0
230
1
0
ENDBLK
5
119
100
AcDbEntity
8
0
100
AcDbBlockEnd
0
BLOCK
5
123
100
AcDbEntity
8
0
100
AcDbBlockBegin
2
DimnDraft3D7
70
0
10
0
20
0
30
0
3
DimnDraft3D7
0
MTEXT
5
11C
100
AcDbEntity
8
2
62
256
6
ByLayer
370
13
48
1
60
0
100
AcDbMText
10
53.333343
20
21.912266
30
0
210
0
220
0
230
1
1
\W0.7581;7,940
40
3.5
41
0
44
1.084337
50
90
71
7
72
5
7
iso_b_vert
0
MTEXT
5
11D
100
AcDbEntity
8
2
62
256
6
ByLayer
370
13
48
1
60
0
100
AcDbMText
10
53.333343
20
16.68961
30
0
210
0
220
0
230
1
1
%%c
40
3.5
41
0
44
1.084337
50
90
71
7
72
5
7
iso_b_vert
0
LINE
5
11E
100
AcDbEntity
8
2
62
256
6
ByLayer
370
13
48
1
60
0
100
AcDbLine
10
43.2375
20
-3.97
30
0
11
57.083343
21
-3.97
31
0
39
0
210
0
220
0
230
1
0
LINE
5
11F
100
AcDbEntity
8
2
62
256
6
ByLayer
370
13
48
1
60
0
100
AcDbLine
10
43.2375
20
3.97
30
0
11
57.083343
21
3.97
31
0
39
0
210
0
220
0
230
1
0
LINE
5
120
100
AcDbEntity
8
2
62
256
6
ByLayer
370
13
48
1
60
0
100
AcDbLine
10
55.083343
20
-3.97
30
0
11
55.083343
21
32.053056
31
0
39
0
210
0
220
0
230
1
0
SOLID
5
121
100
AcDbEntity
8
2
62
256
6
ByLayer
370
13
48
1
60
0
100
AcDbTrace
10
55.083343
20
-3.97
30
0
11
54.622559
21
-0.470002
31
0
12
55.544126
22
-0.469998
32
0
13
55.083343
23
-3.97
33
0
39
0
210
0
220
0
230
1
0
SOLID
5
122
100
AcDbEntity
8
2
62
256
6
ByLayer
370
13
48
1
60
0
100
AcDbTrace
10
55.083343
20
3.97
30
0
11
55.544126
21
0.470002
31
0
12
54.622559
22
0.469998
32
0
13
55.083343
23
3.97
33
0
39
0
210
0
220
0
230
1
0
ENDBLK
5
124
100
AcDbEntity
8
0
100
AcDbBlockEnd
0
ENDSEC
0
SECTION
2
ENTITIES
0
ELLIPSE
5
9C
100
AcDbEntity
8
1
62
256
6
ByLayer
370
18
48
1
60
0
100
AcDbEllipse
10
4.25
20
-4.013966
30
0
11
-0.25
21
3.06151588455594E-17
31
0
210
0
220
0
230
1
40
1
41
-1.56318693818731
42
-0.314631952785936
0
ELLIPSE
5
9D
100
AcDbEntity
8
1
62
256
6
ByLayer
370
18
48
1
60
0
100
AcDbEllipse
10
4.25
20
4.013966
30
0
11
-0.25
21
3.06151588455594E-17
31
0
210
0
220
0
230
1
40
1
41
0.314546171822715
42
1.58116663574825
0
ELLIPSE
5
9E
100
AcDbEntity
8
1
62
256
6
ByLayer
370
13
48
1
60
0
100
AcDbEllipse
10
42.639463
20
1.959642
30
0
11
2.33106583069808
21
-1.20691411565244
31
0
210
0
220
0
230
-1
40
0.493538
41
1.54685733592315
42
1.82519391524176
0
ELLIPSE
5
9F
100
AcDbEntity
8
1
62
256
6
ByLayer
370
18
48
1
60
0
100
AcDbEllipse
10
43.000356
20
-0.000867
30
0
11
1.465997623225
21
-3.96718044466078
31
0
210
0
220
0
230
-1
40
0.115174
41
-2.97204895198096
42
-2.86622298229598
0
ELLIPSE
5
A0
100
AcDbEntity
8
1
62
256
6
ByLayer
370
18
48
1
60
0
100
AcDbEllipse
10
43.044319
20
0.00805
30
0
11
0.137979128863288
21
-0.428995648132296
31
0
210
0
220
0
230
-1
40
0.08774
41
1.67248586824672
42
2.32337572126248
0
ELLIPSE
5
A1
100
AcDbEntity
8
1
62
256
6
ByLayer
370
18
48
1
60
0
100
AcDbEllipse
10
42.86032
20
0.117223
30
0
11
0.0727819104959855
21
0.301917195698763
31
0
210
0
220
0
230
-1
40
0.478434
41
1.71438765104621
42
2.45976119971561
0
ELLIPSE
5
A2
100
AcDbEntity
8
1
62
256
6
ByLayer
370
13
48
1
60
0
100
AcDbEllipse
10
42.449557
20
1.836444
30
0
11
2.25828908150308
21
-1.55489625017046
31
0
210
0
220
0
230
-1
40
0.533762
41
1.44484622740854
42
1.71310230878408
0
ELLIPSE
5
A3
100
AcDbEntity
8
1
62
256
6
ByLayer
370
18
48
1
60
0
100
AcDbEllipse
10
42.22545
20
1.959642
30
0
11
0.615599310904725
21
-1.66589189700866
31
0
210
0
220
0
230
-1
40
0.115174
41
-1.52323292830016
42
-0.742863466705274
0
ELLIPSE
5
A4
100
AcDbEntity
8
1
62
256
6
ByLayer
370
18
48
1
60
0
100
AcDbEllipse
10
43.044319
20
-0.00805
30
0
11
0.137979128920679
21
0.428995648279637
31
0
210
0
220
0
230
-1
40
0.08774
41
-2.32337572128484
42
-1.67248586846886
0
ELLIPSE
5
A5
100
AcDbEntity
8
1
62
256
6
ByLayer
370
13
48
1
60
0
100
AcDbEllipse
10
42.099774
20
0.56848
30
0
11
0.153082081612423
21
0.258003636193771
31
0
210
0
220
0
230
1
40
0.454519
41
0.917105603404735
42
2.31336900500037
0
ELLIPSE
5
A6
100
AcDbEntity
8
1
62
256
6
ByLayer
370
18
48
1
60
0
100
AcDbEllipse
10
43.000356
20
0.000867
30
0
11
1.465997626221
21
3.96718045339308
31
0
210
0
220
0
230
-1
40
0.115174
41
2.86622298260284
42
2.97204895217004
0
ELLIPSE
5
A7
100
AcDbEntity
8
1
62
256
6
ByLayer
370
18
48
1
60
0
100
AcDbEllipse
10
42.22545
20
-1.959642
30
0
11
0.61559931087317
21
1.66589189694054
31
0
210
0
220
0
230
-1
40
0.115174
41
0.742863466705034
42
1.52323292832922
0
POINT
5
6C
100
AcDbEntity
8
81
62
256
6
ByLayer
370
18
48
1
60
0
100
AcDbPoint
10
43
20
0
30
0
39
0
210
0
220
0
230
1
50
360
0
POINT
5
6E
100
AcDbEntity
8
80
62
256
6
ByLayer
370
18
48
1
60
0
100
AcDbPoint
10
0
20
0
30
0
39
0
210
0
220
0
230
1
50
360
0
POINT
5
70
100
AcDbEntity
8
SK2
62
256
6
ByLayer
370
18
48
1
60
1
100
AcDbPoint
10
-36
20
-4
30
0
39
0
210
0
220
0
230
1
50
360
0
POINT
5
72
100
AcDbEntity
8
SK2
62
256
6
ByLayer
370
18
48
1
60
1
100
AcDbPoint
10
-36
20
4
30
0
39
0
210
0
220
0
230
1
50
360
0
POINT
5
73
100
AcDbEntity
8
2
62
256
6
ByLayer
370
18
48
1
60
1
100
AcDbPoint
10
41.65
20
-3.97
30
0
39
0
210
0
220
0
230
1
50
360
0
POINT
5
75
100
AcDbEntity
8
2
62
256
6
ByLayer
370
18
48
1
60
1
100
AcDbPoint
10
41.65
20
3.97
30
0
39
0
210
0
220
0
230
1
50
360
0
SPLINE
5
A8
100
AcDbEntity
8
1
62
256
6
ByLayer
370
18
48
1
60
0
100
AcDbSpline
70
4
71
3
72
10
73
6
40
0
40
0
40
0
40
0
40
0.110946681252882
40
0.47053191956512
40
1
40
1
40
1
40
1
41
1
10
12.6583068304297
20
-0.950344266742917
30
0
41
1
10
12.6583056106181
20
-0.950435885339544
30
0
41
1
10
12.6634727860363
20
-0.953623549520017
30
0
41
1
10
12.7365154960404
20
-0.994773904422942
30
0
41
1
10
12.7996567646927
20
-1.03284546859933
30
0
41
1
10
12.8474542372642
20
-1.06179214358758
30
0
0
SPLINE
5
A9
100
AcDbEntity
8
1
62
256
6
ByLayer
370
18
48
1
60
0
100
AcDbSpline
70
4
71
1
72
4
73
2
40
0
40
0
40
1
40
1
41
1
10
31.1465542710916
20
0.000565861919597
30
0
41
1
10
31.1465409693952
20
0.0005742977478178
30
0
0
SPLINE
5
AA
100
AcDbEntity
8
1
62
256
6
ByLayer
370
18
48
1
60
0
100
AcDbSpline
70
4
71
2
72
6
73
3
40
0
40
0
40
0
40
1
40
1
40
1
41
1
10
41.0512375062554
20
-3.785981877978
30
0
41
1
10
41.3357011639967
20
-3.7850399564731
30
0
41
1
10
41.6195721674812
20
-3.78687462525505
30
0
0
SPLINE
5
AB
100
AcDbEntity
8
1
62
256
6
ByLayer
370
18
48
1
60
0
100
AcDbSpline
70
4
71
3
72
10
73
6
40
0
40
0
40
0
40
0
40
0.076708190963183
40
0.461795423436637
40
1
40
1
40
1
40
1
41
1
10
32.0740473654371
20
-0.958098688768473
30
0
41
1
10
32.0739474380769
20
-0.957994645870286
30
0
41
1
10
32.0774346978456
20
-0.959711411819427
30
0
41
1
10
32.1677814441895
20
-1.01223348869155
30
0
41
1
10
32.2637486150738
20
-1.07176362179149
30
0
41
1
10
32.3379845826724
20
-1.11812149148415
30
0
0
SPLINE
5
AC
100
AcDbEntity
8
1
62
256
6
ByLayer
370
18
48
1
60
0
100
AcDbSpline
70
4
71
3
72
29
73
25
40
0
40
0
40
0
40
0
40
0.0726303099631734
40
0.123283072712357
40
0.152197287392381
40
0.187685668314232
40
0.236140288573782
40
0.28217802695066
40
0.316470225594113
40
0.370336099828799
40
0.434018753764828
40
0.511887875920867
40
0.559544273456874
40
0.601838841417248
40
0.638963225030667
40
0.67117303406667
40
0.705300349180396
40
0.754504726394663
40
0.799037764123045
40
0.833576319881027
40
0.858486320513763
40
0.897573397113636
40
0.95970252267517
40
1
40
1
40
1
40
1
41
1
10
21.6360405177558
20
-3.77416538962999
30
0
41
1
10
21.8720298350488
20
-3.77432526318964
30
0
41
1
10
22.2726121627062
20
-3.7745711028422
30
0
41
1
10
22.7671741393788
20
-3.775013864236
30
0
41
1
10
23.1410547031639
20
-3.77509356849842
30
0
41
1
10
23.507750193084
20
-3.77546926538992
30
0
41
1
10
23.930135305258
20
-3.77579503999661
30
0
41
1
10
24.3486319760784
20
-3.77580772745162
30
0
41
1
10
24.7846422209615
20
-3.77661676140352
30
0
41
1
10
25.278071388718
20
-3.77618854244909
30
0
41
1
10
25.9130816045953
20
-3.77744430361596
30
0
41
1
10
26.5279302901802
20
-3.77659619274996
30
0
41
1
10
27.073263612294
20
-3.77781049455777
30
0
41
1
10
27.4862004653926
20
-3.77755804507555
30
0
41
1
10
27.848944316212
20
-3.77745833444942
30
0
41
1
10
28.1851479718796
20
-3.77836246493621
30
0
41
1
10
28.5606035091875
20
-3.77828608251198
30
0
41
1
10
28.976114001255
20
-3.77793288099448
30
0
41
1
10
29.3929187349342
20
-3.77931629344928
30
0
41
1
10
29.7308941214052
20
-3.77893529933058
30
0
41
1
10
30.0505443848261
20
-3.7784393232842
30
0
41
1
10
30.4604753719811
20
-3.77975239283586
30
0
41
1
10
30.9203746382229
20
-3.77908120561162
30
0
41
1
10
31.253030130534
20
-3.77967726676405
30
0
41
1
10
31.3838833538611
20
-3.77992421375507
30
0
0
SPLINE
5
AD
100
AcDbEntity
8
1
62
256
6
ByLayer
370
18
48
1
60
0
100
AcDbSpline
70
4
71
3
72
29
73
25
40
0
40
0
40
0
40
0
40
0.0411223120068631
40
0.109503986885987
40
0.161186764433308
40
0.207600054121216
40
0.250041136945041
40
0.288541157876258
40
0.323121121557187
40
0.36737766215006
40
0.427664970111329
40
0.490935635075481
40
0.545248052802093
40
0.590634016401255
40
0.627894212198161
40
0.661427280335341
40
0.691538869310146
40
0.730787482855493
40
0.785879156902188
40
0.841368778028959
40
0.904483006295011
40
0.954371995931575
40
0.982894566824677
40
1
40
1
40
1
40
1
41
1
10
31.4398325191052
20
3.77984253522743
30
0
41
1
10
31.3282407171765
20
3.77955034893995
30
0
41
1
10
31.0310431752195
20
3.77887846705642
30
0
41
1
10
30.5921902986711
20
3.77985838513982
30
0
41
1
10
30.1409682327902
20
3.77852599193025
30
0
41
1
10
29.7591635044288
20
3.77887951372657
30
0
41
1
10
29.4128756279022
20
3.77927123835195
30
0
41
1
10
29.0988260797761
20
3.77843857154747
30
0
41
1
10
28.7798213061957
20
3.77799115549578
30
0
41
1
10
28.401588417755
20
3.77851217547527
30
0
41
1
10
27.9453539380852
20
3.77766739211216
30
0
41
1
10
27.4617822318559
20
3.77753659599503
30
0
41
1
10
27.0187236073357
20
3.77776745954355
30
0
41
1
10
26.6463709917542
20
3.77682753664578
30
0
41
1
10
26.3305325011817
20
3.77722056026857
30
0
41
1
10
26.0562330123033
20
3.77729163807814
30
0
41
1
10
25.7771206800212
20
3.77681810599219
30
0
41
1
10
25.4386578679568
20
3.77611651279543
30
0
41
1
10
25.031417794444
20
3.77655076479675
30
0
41
1
10
24.559465861382
20
3.77620980559689
30
0
41
1
10
24.1013976301858
20
3.77573518650343
30
0
41
1
10
23.7166730523564
20
3.77572551571876
30
0
41
1
10
23.4578504429337
20
3.77524689293742
30
0
41
1
10
23.333933038138
20
3.77508720039094
30
0
41
1
10
23.2874529690278
20
3.77503486458178
30
0
0
SPLINE
5
AE
100
AcDbEntity
8
1
62
256
6
ByLayer
370
18
48
1
60
0
100
AcDbSpline
70
4
71
3
72
24
73
20
40
0
40
0
40
0
40
0
40
0.0388265520510251
40
0.109679406588367
40
0.156566240026093
40
0.182602854310181
40
0.210695891259131
40
0.245413128171037
40
0.286778577732588
40
0.358344875716861
40
0.411432992958288
40
0.469115283522419
40
0.539623382188892
40
0.61551361271624
40
0.684196824649789
40
0.740743864197809
40
0.811532698450987
40
0.906312188094375
40
1
40
1
40
1
40
1
41
1
10
11.9853970219171
20
3.76864738098561
30
0
41
1
10
11.8853382860153
20
3.7683134946239
30
0
41
1
10
11.6026484056571
20
3.76760098355834
30
0
41
1
10
11.1989134891301
20
3.76809927923395
30
0
41
1
10
10.8280730565427
20
3.76858075531467
30
0
41
1
10
10.5679729703308
20
3.76893545750164
30
0
41
1
10
10.3389614901239
20
3.76912369762448
30
0
41
1
10
10.0703456604779
20
3.76903112314005
30
0
41
1
10
9.68961960459296
20
3.76781253460663
30
0
41
1
10
9.26153246008323
20
3.76570555915345
30
0
41
1
10
8.79136174703058
20
3.76543313973386
30
0
41
1
10
8.3239244408532
20
3.76613603065081
30
0
41
1
10
7.79768992791679
20
3.76720742447395
30
0
41
1
10
7.24308616822071
20
3.76635835093592
30
0
41
1
10
6.72448319291954
20
3.76593233575301
30
0
41
1
10
6.21903127633479
20
3.76501739097753
30
0
41
1
10
5.64632460822816
20
3.76451129979012
30
0
41
1
10
4.97782267264569
20
3.76480888189533
30
0
41
1
10
4.49187539831638
20
3.76421035797762
30
0
41
1
10
4.25031082581279
20
3.76383962924194
30
0
0
SPLINE
5
AF
100
AcDbEntity
8
1
62
256
6
ByLayer
370
18
48
1
60
0
100
AcDbSpline
70
4
71
3
72
24
73
20
40
0
40
0
40
0
40
0
40
0.0797474689298422
40
0.167503133520598
40
0.234793431181392
40
0.287922131544609
40
0.339488722973585
40
0.403857839101703
40
0.46946890170873
40
0.530821695665587
40
0.586262062225068
40
0.636007058863347
40
0.702274702297447
40
0.772683160898652
40
0.806856196712351
40
0.833952764803902
40
0.878917947901862
40
0.952896412021432
40
1
40
1
40
1
40
1
41
1
10
4.25031674854142
20
-3.76385578172042
30
0
41
1
10
4.45595577484252
20
-3.76417911498268
30
0
41
1
10
4.88789123540815
20
-3.76470084346883
30
0
41
1
10
5.49339618617844
20
-3.7646404585374
30
0
41
1
10
6.03022715295413
20
-3.76472080345039
30
0
41
1
10
6.47374234312409
20
-3.76554600211858
30
0
41
1
10
6.90974257431188
20
-3.76598183618091
30
0
41
1
10
7.3779282890695
20
-3.76676662331403
30
0
41
1
10
7.87135290183946
20
-3.76702075992952
30
0
41
1
10
8.34174914883033
20
-3.76611912039547
30
0
41
1
10
8.77122866775844
20
-3.76546140358747
30
0
41
1
10
9.21338613431297
20
-3.76563680708028
30
0
41
1
10
9.69414149291174
20
-3.76778594598619
30
0
41
1
10
10.1347298945026
20
-3.76922388267477
30
0
41
1
10
10.4743269146757
20
-3.76903425064185
30
0
41
1
10
10.7478700692599
20
-3.76869586501704
30
0
41
1
10
11.1245241872431
20
-3.76820516953299
30
0
41
1
10
11.5527875208227
20
-3.76754088001428
30
0
41
1
10
11.8649094247925
20
-3.76829865149796
30
0
41
1
10
11.9863162503009
20
-3.76870560125303
30
0
0
SPLINE
5
B0
100
AcDbEntity
8
1
62
256
6
ByLayer
370
18
48
1
60
0
100
AcDbSpline
70
4
71
3
72
48
73
44
40
0
40
0
40
0
40
0
40
0.0580602079711172
40
0.0580602079711172
40
0.0870903119566758
40
0.0870903119566758
40
0.116120415942234
40
0.116120415942234
40
0.232240831884467
40
0.232240831884467
40
0.261270935870025
40
0.261270935870025
40
0.290301039855584
40
0.290301039855584
40
0.348361247826702
40
0.348361247826702
40
0.377391351812261
40
0.377391351812261
40
0.40642145579782
40
0.40642145579782
40
0.464481663768937
40
0.464481663768937
40
0.580602079711174
40
0.580602079711174
40
0.638662287682293
40
0.638662287682293
40
0.667692391667852
40
0.667692391667852
40
0.696722495653411
40
0.696722495653411
40
0.812842911595651
40
0.812842911595651
40
0.841873015581211
40
0.841873015581211
40
0.870903119566771
40
0.870903119566771
40
0.92896332753789
40
0.92896332753789
40
0.95799343152345
40
0.95799343152345
40
0.98702353550901
40
0.98702353550901
40
1
40
1
40
1
40
1
41
1
10
41.6324749069046
20
-3.93792092121907
30
0
41
1
10
41.2403069800531
20
-3.96972387530843
30
0
41
1
10
40.8490422709622
20
-3.97747097903547
30
0
41
1
10
40.2607631354379
20
-3.95318029844967
30
0
41
1
10
40.0641493596168
20
-3.93906068403533
30
0
41
1
10
39.6712773189028
20
-3.8989304961498
30
0
41
1
10
39.4756586935462
20
-3.87300335221178
30
0
41
1
10
38.5003113224273
20
-3.71506169360313
30
0
41
1
10
37.7285733679224
20
-3.49843244396413
30
0
41
1
10
36.7548673038778
20
-3.1286797489276
30
0
41
1
10
36.5596743476027
20
-3.04976848740333
30
0
41
1
10
36.1678420206095
20
-2.88237590523261
30
0
41
1
10
35.9709265465732
20
-2.79375312207512
30
0
41
1
10
35.3820556163327
20
-2.51647236951439
30
0
41
1
10
34.9905643520415
20
-2.31584199350789
30
0
41
1
10
34.4017924555894
20
-1.99524675737325
30
0
41
1
10
34.2049980149215
20
-1.8849567817856
30
0
41
1
10
33.8119479666993
20
-1.65923122287217
30
0
41
1
10
33.6158021555981
20
-1.54384025305657
30
0
41
1
10
33.0277373477664
20
-1.19120471151211
30
0
41
1
10
32.635712834287
20
-0.947734156778807
30
0
41
1
10
31.4558499617742
20
-0.202137045430391
30
0
41
1
10
30.6824487781349
20
0.30318652366725
30
0
41
1
10
29.5177799795727
20
1.03548584454791
30
0
41
1
10
29.1287728745052
20
1.27526638920233
30
0
41
1
10
28.5411670627769
20
1.62384961196833
30
0
41
1
10
28.3441006363948
20
1.7384689709597
30
0
41
1
10
27.9519727771014
20
1.96080693094507
30
0
41
1
10
27.7566226416629
20
2.06873371849991
30
0
41
1
10
26.7823954521365
20
2.59106853830801
30
0
41
1
10
26.0104285066646
20
2.9527851673661
30
0
41
1
10
25.0348749483616
20
3.3119538505853
30
0
41
1
10
24.8392310132889
20
3.37912782015641
30
0
41
1
10
24.446368411827
20
3.50353892910533
30
0
41
1
10
24.249512804698
20
3.56063463449121
30
0
41
1
10
23.6606787506982
20
3.71494816741338
30
0
41
1
10
23.2689862252483
20
3.79569667068219
30
0
41
1
10
22.6796095004875
20
3.88198363596604
30
0
41
1
10
22.4826615867285
20
3.90493913763797
30
0
41
1
10
22.0898108331866
20
3.93880928427419
30
0
41
1
10
21.8936693016743
20
3.94976818913918
30
0
41
1
10
21.6098748763161
20
3.95696564503288
30
0
41
1
10
21.5222100377547
20
3.95799337495052
30
0
41
1
10
21.4345259599277
20
3.95782400721319
30
0
0
SPLINE
5
B1
100
AcDbEntity
8
1
62
256
6
ByLayer
370
18
48
1
60
0
100
AcDbSpline
70
4
71
3
72
28
73
24
40
0
40
0
40
0
40
0
40
0.0028448741057888
40
0.0028448741057888
40
0.225972134738874
40
0.225972134738874
40
0.281753949897144
40
0.281753949897144
40
0.337535765055415
40
0.337535765055415
40
0.449099395371955
40
0.449099395371955
40
0.560663025688496
40
0.560663025688496
40
0.616444840846767
40
0.616444840846767
40
0.672226656005038
40
0.672226656005038
40
0.895353916638123
40
0.895353916638123
40
0.951135731796394
40
0.951135731796394
40
1
40
1
40
1
40
1
41
1
10
6.51881934132999
20
2.89472085840637
30
0
41
1
10
6.52873269537125
20
2.89061382353236
30
0
41
1
10
6.53864555129954
20
2.88649584264633
30
0
41
1
10
7.32600005993174
20
2.55853289045658
30
0
41
1
10
8.1008464647775
20
2.16801275171446
30
0
41
1
10
9.08430924952853
20
1.61707742488611
30
0
41
1
10
9.28106952079293
20
1.50414402130505
30
0
41
1
10
9.67255795357113
20
1.27535320024702
30
0
41
1
10
9.86772148219904
20
1.15928888066389
30
0
41
1
10
10.4521433252198
20
0.807170583452546
30
0
41
1
10
10.8402612398426
20
0.567083172669356
30
0
41
1
10
11.6171725905174
20
0.0821722339271673
30
0
41
1
10
12.0060606144113
20
-0.162490357879221
30
0
41
1
10
12.5930392834384
20
-0.528012913002925
30
0
41
1
10
12.7895029181195
20
-0.649762013963425
30
0
41
1
10
13.1832197923619
20
-0.89146970277676
30
0
41
1
10
13.3792444756812
20
-1.01067364372986
30
0
41
1
10
14.3564440393695
20
-1.59670801822878
30
0
41
1
10
15.1294108821039
20
-2.03293376175327
30
0
41
1
10
16.1037550793355
20
-2.5103017311641
30
0
41
1
10
16.2989981888064
20
-2.60241453807353
30
0
41
1
10
16.6665254965273
20
-2.76815236947226
30
0
41
1
10
16.8391077919906
20
-2.84280598705862
30
0
41
1
10
17.011321668204
20
-2.91391207868358
30
0
0
SPLINE
5
B2
100
AcDbEntity
8
1
62
256
6
ByLayer
370
13
48
1
60
0
100
AcDbSpline
70
4
71
3
72
18
73
14
40
0
40
0
40
0
40
0
40
0.0124748176692231
40
0.0124748176692231
40
0.213664048142125
40
0.213664048142125
40
0.61604250908793
40
0.61604250908793
40
0.716637124324381
40
0.716637124324381
40
0.817231739560832
40
0.817231739560832
40
1
40
1
40
1
40
1
41
1
10
17.0113216683015
20
-2.91391207872383
30
0
41
1
10
17.0357013964169
20
-2.92397832436706
30
0
41
1
10
17.0600737410074
20
-2.93397347370788
30
0
41
1
10
17.4773228996197
20
-3.10390960057802
30
0
41
1
10
17.8671613776257
20
-3.24492569703804
30
0
41
1
10
19.0338273693505
20
-3.60686253570538
30
0
41
1
10
19.8073868990031
20
-3.76711628108566
30
0
41
1
10
20.7888288122157
20
-3.85265082520829
30
0
41
1
10
20.9859877724249
20
-3.86398186113701
30
0
41
1
10
21.3789183907925
20
-3.87480263762174
30
0
41
1
10
21.5750981935944
20
-3.87434246374298
30
0
41
1
10
22.1276015218158
20
-3.85651313855135
30
0
41
1
10
22.4842491118558
20
-3.8256539134735
30
0
41
1
10
22.841559878041
20
-3.77570349205939
30
0
0
SPLINE
5
B3
100
AcDbEntity
8
1
62
256
6
ByLayer
370
13
48
1
60
0
100
AcDbSpline
70
4
71
3
72
12
73
8
40
0
40
0
40
0
40
0
40
0.621282152405129
40
0.621282152405129
40
0.94792594165063
40
0.94792594165063
40
1
40
1
40
1
40
1
41
1
10
4.25032926941466
20
3.57750396033066
30
0
41
1
10
4.25035041331589
20
3.65413136995724
30
0
41
1
10
4.25035785215633
20
3.70711611545067
30
0
41
1
10
4.250357328398
20
3.75221792838673
30
0
41
1
10
4.25035496681795
20
3.76113261044486
30
0
41
1
10
4.2503508053849
20
3.76374577407515
30
0
41
1
10
4.25035020204317
20
3.763938146888
30
0
41
1
10
4.25034957099845
20
3.76396395132085
30
0
0
SPLINE
5
B4
100
AcDbEntity
8
1
62
256
6
ByLayer
370
18
48
1
60
0
100
AcDbSpline
70
4
71
3
72
14
73
10
40
0
40
0
40
0
40
0
40
0.25
40
0.25
40
0.5
40
0.5
40
0.75
40
0.75
40
1
40
1
40
1
40
1
41
1
10
4.25077879187114
20
-0.957506028792182
30
0
41
1
10
4.22745918078436
20
-0.940151075106485
30
0
41
1
10
4.20369638054763
20
-0.924915714221868
30
0
41
1
10
4.15498719574688
20
-0.900084328849147
30
0
41
1
10
4.13052258629921
20
-0.89081369085801
30
0
41
1
10
4.08402681452182
20
-0.881943531844371
30
0
41
1
10
4.06306143479498
20
-0.882658382747991
30
0
41
1
10
4.02910424509275
20
-0.894982557576242
30
0
41
1
10
4.01664193670985
20
-0.906492658184476
30
0
41
1
10
4.00916081575343
20
-0.921362261977379
30
0
0
SPLINE
5
B5
100
AcDbEntity
8
1
62
256
6
ByLayer
370
18
48
1
60
0
100
AcDbSpline
70
4
71
3
72
28
73
24
40
0
40
0
40
0
40
0
40
0.112580716177543
40
0.112580716177543
40
0.225161432355087
40
0.225161432355087
40
0.33774214853263
40
0.33774214853263
40
0.450322864710173
40
0.450322864710173
40
0.562903580887717
40
0.562903580887717
40
0.67548429706526
40
0.67548429706526
40
0.731774655154032
40
0.731774655154032
40
0.788065013242803
40
0.788065013242803
40
0.844355371331575
40
0.844355371331575
40
0.900645729420346
40
0.900645729420346
40
1
40
1
40
1
40
1
41
1
10
7.78356930874781
20
-2.91994980435402
30
0
41
1
10
8.10301844751973
20
-3.04324351777893
30
0
41
1
10
8.42170264021834
20
-3.15317486482968
30
0
41
1
10
9.05830408157874
20
-3.34864949147413
30
0
41
1
10
9.37653715798959
20
-3.43426934460601
30
0
41
1
10
10.0153917973463
20
-3.57918023790705
30
0
41
1
10
10.3337067788518
20
-3.63659972394243
30
0
41
1
10
10.9699645714049
20
-3.72053013519809
30
0
41
1
10
11.2884689879406
20
-3.74740736318799
30
0
41
1
10
11.926364919231
20
-3.77278957773004
30
0
41
1
10
12.2451191385816
20
-3.77180115801082
30
0
41
1
10
12.8817113069782
20
-3.73717913135207
30
0
41
1
10
13.1994428802033
20
-3.70491964501761
30
0
41
1
10
13.6780143086363
20
-3.63418680676685
30
0
41
1
10
13.8377942298755
20
-3.60676450049729
30
0
41
1
10
14.1565174687986
20
-3.5455483283429
30
0
41
1
10
14.3155971106853
20
-3.51198064952379
30
0
41
1
10
14.6337210356238
20
-3.43654418182308
30
0
41
1
10
14.7927382695815
20
-3.39497919225497
30
0
41
1
10
15.1112087968648
20
-3.30575892999107
30
0
41
1
10
15.2705877212373
20
-3.25813161216371
30
0
41
1
10
15.7115033577179
20
-3.11747015202937
30
0
41
1
10
15.9926898969076
20
-3.0159335651681
30
0
41
1
10
16.2737058184929
20
-2.90682300390211
30
0
0
SPLINE
5
B6
100
AcDbEntity
8
1
62
256
6
ByLayer
370
18
48
1
60
0
100
AcDbSpline
70
4
71
3
72
24
73
20
40
0
40
0
40
0
40
0
40
0.03314835046323
40
0.03314835046323
40
0.171270014682768
40
0.171270014682768
40
0.309391678902307
40
0.309391678902307
40
0.378452511012077
40
0.378452511012077
40
0.447513343121846
40
0.447513343121846
40
0.585635007341384
40
0.585635007341384
40
0.723756671560923
40
0.723756671560923
40
0.861878335780461
40
0.861878335780461
40
1
40
1
40
1
40
1
41
1
10
31.4401916100442
20
3.7798702644036
30
0
41
1
10
31.5166418309774
20
3.77983304856562
30
0
41
1
10
31.5930399730225
20
3.778937754482
30
0
41
1
10
31.9874556580635
20
3.7692370489093
30
0
41
1
10
32.3048770615321
20
3.74508772425779
30
0
41
1
10
32.9416796213083
20
3.67002598159831
30
0
41
1
10
33.2607734147179
20
3.61602620278589
30
0
41
1
10
33.7379620144633
20
3.51619951580241
30
0
41
1
10
33.8970095529793
20
3.47988482641762
30
0
41
1
10
34.2150960489415
20
3.39927878455833
30
0
41
1
10
34.3740826793779
20
3.35515170412052
30
0
41
1
10
34.8512491914906
20
3.21254983245848
30
0
41
1
10
35.1706035892546
20
3.10399194513724
30
0
41
1
10
35.8074520666826
20
2.865479278343
30
0
41
1
10
36.1249003887181
20
2.73514684060083
30
0
41
1
10
36.7615003758444
20
2.45178950081132
30
0
41
1
10
37.0810115603373
20
2.29910107636292
30
0
41
1
10
37.7173995820478
20
1.97709670600855
30
0
41
1
10
38.0353791801325
20
1.80822381117059
30
0
41
1
10
38.3536339306251
20
1.63254263249786
30
0
0
SPLINE
5
B7
100
AcDbEntity
8
1
62
256
6
ByLayer
370
18
48
1
60
0
100
AcDbSpline
70
4
71
3
72
12
73
8
40
0
40
0
40
0
40
0
40
0.342703041638458
40
0.342703041638458
40
0.685406083276917
40
0.685406083276917
40
1
40
1
40
1
40
1
41
1
10
4.00902343260623
20
3.7803750820845
30
0
41
1
10
4.00902706702911
20
3.81916898823826
30
0
41
1
10
4.00902948833587
20
3.85141603750557
30
0
41
1
10
4.00903237093976
20
3.90209931895447
30
0
41
1
10
4.0090328377608
20
3.9205098435105
30
0
41
1
10
4.00903242961283
20
3.94291054505268
30
0
41
1
10
4.00903166297377
20
3.94800364666531
30
0
41
1
10
4.00903053091815
20
3.94737709781492
30
0
0
SPLINE
5
B8
100
AcDbEntity
8
1
62
256
6
ByLayer
370
18
48
1
60
0
100
AcDbSpline
70
4
71
3
72
24
73
20
40
0
40
0
40
0
40
0
40
0.249999999999996
40
0.249999999999996
40
0.499999999999992
40
0.499999999999992
40
0.624999999999978
40
0.624999999999978
40
0.687499999999982
40
0.687499999999982
40
0.749999999999985
40
0.749999999999985
40
0.812499999999989
40
0.812499999999989
40
0.874999999999993
40
0.874999999999993
40
0.937499999999996
40
0.937499999999996
40
1
40
1
40
1
40
1
41
1
10
41.4763347348062
20
1.14993458329559
30
0
41
1
10
41.5894066399361
20
1.17718686712246
30
0
41
1
10
41.701245786702
20
1.20830387338833
30
0
41
1
10
41.9200509386307
20
1.28441070285544
30
0
41
1
10
42.0268266713001
20
1.32896584995808
30
0
41
1
10
42.1753257864888
20
1.41582749531136
30
0
41
1
10
42.2233835503657
20
1.44860352116021
30
0
41
1
10
42.2889511597107
20
1.50512439100052
30
0
41
1
10
42.3096589314591
20
1.52513337855044
30
0
41
1
10
42.348153352057
20
1.56815471976535
30
0
41
1
10
42.3660508426379
20
1.59137981988499
30
0
41
1
10
42.3970979663545
20
1.63997967887326
30
0
41
1
10
42.4103726445135
20
1.66544643477437
30
0
41
1
10
42.4319583859534
20
1.71899291739348
30
0
41
1
10
42.440321477825
20
1.74745167291235
30
0
41
1
10
42.4512008791375
20
1.80490709923416
30
0
41
1
10
42.4538225247792
20
1.83393182511659
30
0
41
1
10
42.4538874351761
20
1.89254260448766
30
0
41
1
10
42.4512705644693
20
1.92230001979999
30
0
41
1
10
42.446369445145
20
1.95125697021527
30
0
0
SPLINE
5
B9
100
AcDbEntity
8
1
62
256
6
ByLayer
370
18
48
1
60
0
100
AcDbSpline
70
4
71
3
72
36
73
32
40
0
40
0
40
0
40
0
40
0.104690241172431
40
0.104690241172431
40
0.209380482344863
40
0.209380482344863
40
0.261725602931077
40
0.261725602931077
40
0.314070723517292
40
0.314070723517292
40
0.41876096468972
40
0.41876096468972
40
0.471106085275934
40
0.471106085275934
40
0.523451205862148
40
0.523451205862148
40
0.575796326448362
40
0.575796326448362
40
0.628141447034576
40
0.628141447034576
40
0.732831688207004
40
0.732831688207004
40
0.785176808793218
40
0.785176808793218
40
0.837521929379432
40
0.837521929379432
40
0.889867049965646
40
0.889867049965646
40
0.94221217055186
40
0.94221217055186
40
1
40
1
40
1
40
1
41
1
10
11.993674880548
20
-0.527414158138754
30
0
41
1
10
12.3035252662152
20
-0.725382825002043
30
0
41
1
10
12.6137033558609
20
-0.918539539039557
30
0
41
1
10
13.2328944735274
20
-1.29828398123954
30
0
41
1
10
13.5414938472654
20
-1.48540576791498
30
0
41
1
10
14.0074687241192
20
-1.75519065087758
30
0
41
1
10
14.1627863730629
20
-1.8434203693451
30
0
41
1
10
14.4726618755516
20
-2.01637795798155
30
0
41
1
10
14.6271411526679
20
-2.1013824091788
30
0
41
1
10
15.0906229437059
20
-2.3500066030924
30
0
41
1
10
15.4007070552034
20
-2.5059950941953
30
0
41
1
10
15.8661974767905
20
-2.72696688996342
30
0
41
1
10
16.0210844743434
20
-2.79855952761375
30
0
41
1
10
16.3305313260346
20
-2.93567170904782
30
0
41
1
10
16.4854134418459
20
-3.0011039287555
30
0
41
1
10
16.7951094902143
20
-3.12623079652818
30
0
41
1
10
16.9499563149205
20
-3.1858894655897
30
0
41
1
10
17.2594756334739
20
-3.29951166909206
30
0
41
1
10
17.4139343827875
20
-3.35364013523881
30
0
41
1
10
17.8787673603354
20
-3.50585984315342
30
0
41
1
10
18.1896564097401
20
-3.59365767826523
30
0
41
1
10
18.6536499007974
20
-3.70530084405081
30
0
41
1
10
18.8078726655479
20
-3.73925549392936
30
0
41
1
10
19.1171953758851
20
-3.79969182105705
30
0
41
1
10
19.2721809584427
20
-3.82626578216409
30
0
41
1
10
19.5825112745678
20
-3.87228031716151
30
0
41
1
10
19.7379662717778
20
-3.89170768609947
30
0
41
1
10
20.0476957402951
20
-3.92321394424684
30
0
41
1
10
20.2020198777458
20
-3.93530933403966
30
0
41
1
10
20.5274486615099
20
-3.95276769269231
30
0
41
1
10
20.6983804936318
20
-3.95741383585371
30
0
41
1
10
20.8693475682171
20
-3.9575208092518
30
0
0
SPLINE
5
BA
100
AcDbEntity
8
1
62
256
6
ByLayer
370
18
48
1
60
0
100
AcDbSpline
70
4
71
3
72
28
73
24
40
0
40
0
40
0
40
0
40
0.0788373014751497
40
0.0788373014751497
40
0.155600859685554
40
0.155600859685554
40
0.232364417895958
40
0.232364417895958
40
0.309127976106362
40
0.309127976106362
40
0.385891534316766
40
0.385891534316766
40
0.539418650737575
40
0.539418650737575
40
0.616182208947979
40
0.616182208947979
40
0.692945767158384
40
0.692945767158384
40
0.769709325368787
40
0.769709325368787
40
0.846472883579191
40
0.846472883579191
40
1
40
1
40
1
40
1
41
1
10
35.6686519468206
20
2.91379903708307
30
0
41
1
10
35.8275656394697
20
2.98285456896267
30
0
41
1
10
35.9864347819237
20
3.04901551887176
30
0
41
1
10
36.2996805135015
20
3.17412374018502
30
0
41
1
10
36.4539786733926
20
3.23324923844751
30
0
41
1
10
36.7638404703592
20
3.34468678828003
30
0
41
1
10
36.9191607755229
20
3.3972015374805
30
0
41
1
10
37.2290376569046
20
3.49560808314416
30
0
41
1
10
37.3837946541227
20
3.54154504072815
30
0
41
1
10
37.6926470073346
20
3.62703635022248
30
0
41
1
10
37.8467951318593
20
3.66652283546088
30
0
41
1
10
38.3106788639036
20
3.77387609603321
30
0
41
1
10
38.621669175786
20
3.83145542375354
30
0
41
1
10
39.0854494265324
20
3.8963373823419
30
0
41
1
10
39.2397228855953
20
3.9142850767804
30
0
41
1
10
39.5488231195807
20
3.94261425324038
30
0
41
1
10
39.7034340977026
20
3.95306951584899
30
0
41
1
10
40.0126283001897
20
3.96661739177532
30
0
41
1
10
40.1672086453909
20
3.96971165781537
30
0
41
1
10
40.4761278183156
20
3.96839163098096
30
0
41
1
10
40.6309030898153
20
3.96395171750942
30
0
41
1
10
41.0960479056115
20
3.93951800313974
30
0
41
1
10
41.4055300167687
20
3.90857025481606
30
0
41
1
10
41.7138270833084
20
3.86275809982021
30
0
0
SPLINE
5
BB
100
AcDbEntity
8
1
62
256
6
ByLayer
370
18
48
1
60
0
100
AcDbSpline
70
4
71
3
72
88
73
84
40
0
40
0
40
0
40
0
40
0.0075421082778439
40
0.0075421082778439
40
0.0478776792877761
40
0.0478776792877761
40
0.0680454647927416
40
0.0680454647927416
40
0.0882132502977071
40
0.0882132502977071
40
0.128548821307637
40
0.128548821307637
40
0.168884392317566
40
0.168884392317566
40
0.189052177822531
40
0.189052177822531
40
0.209219963327496
40
0.209219963327496
40
0.229387748832461
40
0.229387748832461
40
0.249555534337426
40
0.249555534337426
40
0.26972331984239
40
0.26972331984239
40
0.289891105347355
40
0.289891105347355
40
0.31005889085232
40
0.31005889085232
40
0.330226676357285
40
0.330226676357285
40
0.370562247367213
40
0.370562247367213
40
0.410897818377142
40
0.410897818377142
40
0.431065603882106
40
0.431065603882106
40
0.45123338938707
40
0.45123338938707
40
0.491568960396998
40
0.491568960396998
40
0.511736745901962
40
0.511736745901962
40
0.531904531406927
40
0.531904531406927
40
0.552072316911891
40
0.552072316911891
40
0.572240102416855
40
0.572240102416855
40
0.612575673426783
40
0.612575673426783
40
0.632743458931747
40
0.632743458931747
40
0.652911244436712
40
0.652911244436712
40
0.673079029941676
40
0.673079029941676
40
0.69324681544664
40
0.69324681544664
40
0.713414600951604
40
0.713414600951604
40
0.733582386456569
40
0.733582386456569
40
0.753750171961533
40
0.753750171961533
40
0.773917957466497
40
0.773917957466497
40
0.794085742971461
40
0.794085742971461
40
0.814253528476426
40
0.814253528476426
40
0.854589099486355
40
0.854589099486355
40
0.874756884991319
40
0.874756884991319
40
0.894924670496283
40
0.894924670496283
40
0.915092456001247
40
0.915092456001247
40
0.935260241506212
40
0.935260241506212
40
0.975595812516139
40
0.975595812516139
40
1
40
1
40
1
40
1
41
1
10
35.6671388711888
20
-2.91683241182358
30
0
41
1
10
35.6075622618867
20
-2.9399444733304
30
0
41
1
10
35.5479936996129
20
-2.96265430979727
30
0
41
1
10
35.1699537030123
20
-3.10422128683373
30
0
41
1
10
34.8520967611822
20
-3.21227234764447
30
0
41
1
10
34.374960360186
20
-3.35490145230074
30
0
41
1
10
34.2157278872643
20
-3.39911703157935
30
0
41
1
10
33.8965823295229
20
-3.47999472705891
30
0
41
1
10
33.7370617616383
20
-3.51640134172078
30
0
41
1
10
33.2595170164297
20
-3.61626191777981
30
0
41
1
10
32.9418144518544
20
-3.6700082162223
30
0
41
1
10
32.3048631468553
20
-3.74509123657822
30
0
41
1
10
31.9857216744105
20
-3.76935037181914
30
0
41
1
10
31.5081633436265
20
-3.78098963003916
30
0
41
1
10
31.3490136802076
20
-3.78059916192186
30
0
41
1
10
31.0307950366947
20
-3.77358404378398
30
0
41
1
10
30.8718285807785
20
-3.76664262215513
30
0
41
1
10
30.5537162820452
20
-3.74486748547886
30
0
41
1
10
30.3946001201999
20
-3.72983663174404
30
0
41
1
10
30.0756247345202
20
-3.69224266317011
30
0
41
1
10
29.9159219664278
20
-3.67022601834518
30
0
41
1
10
29.5973019851125
20
-3.61903692811265
30
0
41
1
10
29.438279022103
20
-3.58978025554643
30
0
41
1
10
29.1202677071637
20
-3.52344084698567
30
0
41
1
10
28.9613083428293
20
-3.48647430526361
30
0
41
1
10
28.6429542800607
20
-3.40676178522767
30
0
41
1
10
28.4835998760947
20
-3.36367228826248
30
0
41
1
10
28.1646748633021
20
-3.27018669853101
30
0
41
1
10
28.0051161299713
20
-3.21968434229171
30
0
41
1
10
27.5274424471915
20
-3.05944335471605
30
0
41
1
10
27.209211298653
20
-2.94170069049679
30
0
41
1
10
26.572704507448
20
-2.68056227646576
30
0
41
1
10
26.2535823182548
20
-2.53899326446461
30
0
41
1
10
25.7754707741727
20
-2.31250006085614
30
0
41
1
10
25.6163004100081
20
-2.23453350615233
30
0
41
1
10
25.2982210652413
20
-2.07448299112011
30
0
41
1
10
25.1392714798865
20
-1.99246084657594
30
0
41
1
10
24.6620684911332
20
-1.74049510347552
30
0
41
1
10
24.3424535144403
20
-1.56437455079791
30
0
41
1
10
23.8645689383098
20
-1.29223684861114
30
0
41
1
10
23.7055177501708
20
-1.20014632214395
30
0
41
1
10
23.3873277090256
20
-1.0139638078584
30
0
41
1
10
23.2281553683489
20
-0.919965951993333
30
0
41
1
10
22.909754522557
20
-0.730306010659461
30
0
41
1
10
22.7506120577913
20
-0.634477707727825
30
0
41
1
10
22.4318842379849
20
-0.441362684543663
30
0
41
1
10
22.2722541418077
20
-0.343950978419116
30
0
41
1
10
21.7940064813504
20
-0.0523585502906769
30
0
41
1
10
21.475787736998
20
0.14237855230246
30
0
41
1
10
20.9984504930827
20
0.4332756960236
30
0
41
1
10
20.8392716044935
20
0.529954556793882
30
0
41
1
10
20.5203133041585
20
0.72199947830191
30
0
41
1
10
20.3604361276171
20
0.817488356785049
30
0
41
1
10
20.0416481084374
20
1.00647347501061
30
0
41
1
10
19.8825072372063
20
1.09994937150717
30
0
41
1
10
19.5643574650654
20
1.2846334346647
30
0
41
1
10
19.4052893209825
20
1.37577679844154
30
0
41
1
10
19.0868714181788
20
1.55483052889116
30
0
41
1
10
18.9275544975385
20
1.6426097067324
30
0
41
1
10
18.6087781384153
20
1.81549739690641
30
0
41
1
10
18.4491128641342
20
1.90062606498179
30
0
41
1
10
18.1303770621632
20
2.06679377253803
30
0
41
1
10
17.9711130187989
20
2.1477921349545
30
0
41
1
10
17.6526827070906
20
2.30391874209713
30
0
41
1
10
17.4935606072116
20
2.37973491024604
30
0
41
1
10
17.1753767176328
20
2.5275534094755
30
0
41
1
10
17.0162952950646
20
2.59939392119753
30
0
41
1
10
16.6976344934819
20
2.73733899608556
30
0
41
1
10
16.5377871031017
20
2.80290997966233
30
0
41
1
10
16.0590288175447
20
2.99189850949244
30
0
41
1
10
15.7411049995581
20
3.10823755169875
30
0
41
1
10
15.2634550051643
20
3.26029791119143
30
0
41
1
10
15.1040612478528
20
3.30785553768314
30
0
41
1
10
14.7850730779041
20
3.39702793076154
30
0
41
1
10
14.6253499236844
20
3.43867050592735
30
0
41
1
10
14.3064262496583
20
3.51400605463527
30
0
41
1
10
14.1472435757147
20
3.54745063938319
30
0
41
1
10
13.8287194371707
20
3.6083791852233
30
0
41
1
10
13.6694374356423
20
3.63558153019755
30
0
41
1
10
13.191817699297
20
3.70578237058192
30
0
41
1
10
12.8730680609701
20
3.73795847581621
30
0
41
1
10
12.3607584755427
20
3.76531729544919
30
0
41
1
10
12.1679896378643
20
3.76961538348331
30
0
41
1
10
11.9753577187308
20
3.76853688583526
30
0
0
SPLINE
5
BC
100
AcDbEntity
8
1
62
256
6
ByLayer
370
13
48
1
60
0
100
AcDbSpline
70
4
71
3
72
25
73
21
40
0
40
0
40
0
40
0
40
0.0654626313289915
40
0.143340745384909
40
0.143340745384909
40
0.221218859440826
40
0.221218859440826
40
0.299096973496744
40
0.299096973496744
40
0.376975087552661
40
0.376975087552661
40
0.532731315664496
40
0.532731315664496
40
0.610609429720413
40
0.610609429720413
40
0.688487543776331
40
0.688487543776331
40
0.844243771888166
40
0.844243771888166
40
1
40
1
40
1
40
1
41
1
10
4.25034957099334
20
-3.76396395152833
30
0
41
1
10
4.25034624369863
20
-3.76410000521085
30
0
41
1
10
4.25033727164521
20
-3.75425808362257
30
0
41
1
10
4.25032702306501
20
-3.72247432449947
30
0
41
1
10
4.25031670391354
20
-3.67475786609506
30
0
41
1
10
4.25031194077303
20
-3.64412819843983
30
0
41
1
10
4.25030483029036
20
-3.57024797838073
30
0
41
1
10
4.25030246721016
20
-3.5270143379696
30
0
41
1
10
4.25030131996243
20
-3.42792011138414
30
0
41
1
10
4.25030255717857
20
-3.37221082696212
30
0
41
1
10
4.25031281020404
20
-3.18916636327481
30
0
41
1
10
4.25032844086809
20
-3.04536746598768
30
0
41
1
10
4.25036742450877
20
-2.79671266815632
30
0
41
1
10
4.25038308894841
20
-2.70782483795318
30
0
41
1
10
4.25041875157689
20
-2.52279778291955
30
0
41
1
10
4.25043878686489
20
-2.42632074983624
30
0
41
1
10
4.25050459633647
20
-2.12527465838986
30
0
41
1
10
4.2505561973723
20
-1.90921549314467
30
0
41
1
10
4.25066750463242
20
-1.44488202775767
30
0
41
1
10
4.25072511113694
20
-1.20492051402795
30
0
41
1
10
4.25077879186813
20
-0.957506028826828
30
0
0
SPLINE
5
BD
100
AcDbEntity
8
1
62
256
6
ByLayer
370
18
48
1
60
0
100
AcDbSpline
70
4
71
3
72
14
73
10
40
0
40
0
40
0
40
0
40
0.250000000000001
40
0.250000000000001
40
0.5
40
0.5
40
0.75
40
0.75
40
1
40
1
40
1
40
1
41
1
10
41.3077177030524
20
0.863765807816037
30
0
41
1
10
41.3024105464083
20
0.892274470381466
30
0
41
1
10
41.3011525457978
20
0.921346040393217
30
0
41
1
10
41.3085824424339
20
0.981043339212931
30
0
41
1
10
41.3172369493902
20
1.0105977242832
30
0
41
1
10
41.3460747400677
20
1.06593970499449
30
0
41
1
10
41.3664381037535
20
1.09104052782146
30
0
41
1
10
41.4161106210438
20
1.12921767219601
30
0
41
1
10
41.4456847894081
20
1.14254741660454
30
0
41
1
10
41.4763347348063
20
1.14993458329559
30
0
0
SPLINE
5
BE
100
AcDbEntity
8
1
62
256
6
ByLayer
370
18
48
1
60
0
100
AcDbSpline
70
4
71
3
72
25
73
21
40
0
40
0
40
0
40
0
40
0.0827160211760642
40
0.0827160211760642
40
0.159156352744726
40
0.159156352744726
40
0.235596684313387
40
0.312037015882048
40
0.312037015882048
40
0.388477347450709
40
0.388477347450709
40
0.541358010588031
40
0.541358010588031
40
0.617798342156693
40
0.617798342156693
40
0.694238673725354
40
0.694238673725354
40
0.847119336862677
40
0.847119336862677
40
1
40
1
40
1
40
1
41
1
10
4.00903053120433
20
-3.94737725613709
30
0
41
1
10
4.00902919682645
20
-3.94663982622941
30
0
41
1
10
4.00902735466548
20
-3.93795475373096
30
0
41
1
10
4.00902348191727
20
-3.90566325065487
30
0
41
1
10
4.00902149707917
20
-3.88331155246254
30
0
41
1
10
4.00901782180409
20
-3.82572614042363
30
0
41
1
10
4.00901442855024
20
-3.75516678211341
30
0
41
1
10
4.00901247222973
20
-3.65886924911041
30
0
41
1
10
4.00901162626812
20
-3.54940466164305
30
0
41
1
10
4.00901176862104
20
-3.48783943032709
30
0
41
1
10
4.00901429671504
20
-3.28737629231947
30
0
41
1
10
4.00901878820335
20
-3.131823828557
30
0
41
1
10
4.00903048042812
20
-2.8657897560341
30
0
41
1
10
4.00903522888939
20
-2.77105552821627
30
0
41
1
10
4.00904622877104
20
-2.57307795550682
30
0
41
1
10
4.00905245419162
20
-2.4701697930866
30
0
41
1
10
4.00907302828546
20
-2.15001023063726
30
0
41
1
10
4.00908931349357
20
-1.92144274426062
30
0
41
1
10
4.0091247542552
20
-1.43289424687163
30
0
41
1
10
4.0091433377238
20
-1.18038450186555
30
0
41
1
10
4.00916081575323
20
-0.921362261977407
30
0
0
SPLINE
5
BF
100
AcDbEntity
8
1
62
256
6
ByLayer
370
18
48
1
60
0
100
AcDbSpline
70
4
71
3
72
8
73
4
40
0
40
0
40
0
40
0
40
1
40
1
40
1
40
1
41
1
10
41.6324749069046
20
-3.9379209212191
30
0
41
1
10
41.6434288273809
20
-3.90905468238458
30
0
41
1
10
41.6543704958529
20
-3.8801641931538
30
0
41
1
10
41.6652990067626
20
-3.85125186407524
30
0
0
SPLINE
5
C0
100
AcDbEntity
8
1
62
256
6
ByLayer
370
18
48
1
60
0
100
AcDbSpline
70
4
71
3
72
14
73
10
40
0
40
0
40
0
40
0
40
0.25
40
0.25
40
0.500000000000001
40
0.500000000000001
40
0.75
40
0.75
40
1
40
1
40
1
40
1
41
1
10
41.6652990067476
20
-3.8512518640766
30
0
41
1
10
41.6703764328042
20
-3.83781909045956
30
0
41
1
10
41.6751442303956
20
-3.82397607628633
30
0
41
1
10
41.6825090017998
20
-3.79933532694162
30
0
41
1
10
41.6850414193216
20
-3.78867803014708
30
0
41
1
10
41.6873393321553
20
-3.77366342953201
30
0
41
1
10
41.6872211348506
20
-3.7690122639417
30
0
41
1
10
41.6852961638656
20
-3.76422927773657
30
0
41
1
10
41.683491127707
20
-3.76402899781843
30
0
41
1
10
41.6811105271622
20
-3.76550804553989
30
0
0
SPLINE
5
C1
100
AcDbEntity
8
1
62
256
6
ByLayer
370
18
48
1
60
0
100
AcDbSpline
70
4
71
3
72
8
73
4
40
0
40
0
40
0
40
0
40
1
40
1
40
1
40
1
41
1
10
4.02483222485964
20
3.76038110994099
30
0
41
1
10
4.01462224700316
20
3.7668144189945
30
0
41
1
10
4.00902279823316
20
3.77360376752253
30
0
41
1
10
4.00902343260626
20
3.78037508208575
30
0
0
SPLINE
5
C2
100
AcDbEntity
8
1
62
256
6
ByLayer
370
18
48
1
60
0
100
AcDbSpline
70
4
71
3
72
16
73
12
40
0
40
0
40
0
40
0
40
0.401786129310469
40
0.401786129310469
40
0.676890321967544
40
0.676890321967544
40
0.814442418296082
40
0.814442418296082
40
0.951994514624619
40
0.951994514624619
40
1
40
1
40
1
40
1
41
1
10
41.0497883110762
20
-3.78600662878412
30
0
41
1
10
40.481690818439
20
-3.78655381426739
30
0
41
1
10
39.9171922660644
20
-3.73878604128734
30
0
41
1
10
38.9631260012181
20
-3.58068754382504
30
0
41
1
10
38.5744796028453
20
-3.4947158120271
30
0
41
1
10
37.9872228288133
20
-3.33404116488748
30
0
41
1
10
37.7903700763373
20
-3.27504107909491
30
0
41
1
10
37.3989625749767
20
-3.14802302456198
30
0
41
1
10
37.2039708026665
20
-3.0799069180666
30
0
41
1
10
36.9415615607494
20
-2.98220298333453
30
0
41
1
10
36.8737302000239
20
-2.95640223410504
30
0
41
1
10
36.8059451412439
20
-2.93009014072192
30
0
0
SPLINE
5
C3
100
AcDbEntity
8
1
62
256
6
ByLayer
370
13
48
1
60
0
100
AcDbSpline
70
4
71
3
72
22
73
18
40
0
40
0
40
0
40
0
40
0.23378376312224
40
0.23378376312224
40
0.297816540927227
40
0.297816540927227
40
0.361849318732214
40
0.361849318732214
40
0.489914874342189
40
0.489914874342189
40
0.746045985562135
40
0.746045985562135
40
0.810078763367122
40
0.810078763367122
40
0.87411154117211
40
0.87411154117211
40
1
40
1
40
1
40
1
41
1
10
36.8059451412597
20
-2.93009014072808
30
0
41
1
10
36.0968209062694
20
-2.65482973043962
30
0
41
1
10
35.3927639633848
20
-2.32360773637754
30
0
41
1
10
34.4876397102524
20
-1.84857955376685
30
0
41
1
10
34.2925354377271
20
-1.74333126085347
30
0
41
1
10
33.9009095209236
20
-1.5271149114985
30
0
41
1
10
33.7039972089026
20
-1.41590840789638
30
0
41
1
10
33.1168369577143
20
-1.07808801378226
30
0
41
1
10
32.7281410419176
20
-0.846778423323514
30
0
41
1
10
31.5647100115838
20
-0.143845025838317
30
0
41
1
10
30.7927817855541
20
0.337042946917847
30
0
41
1
10
29.8137496734058
20
0.922400661398456
30
0
41
1
10
29.6168723109529
20
1.03894316023261
30
0
41
1
10
29.2252606527825
20
1.26710330087295
30
0
41
1
10
29.0300851087896
20
1.37896017691116
30
0
41
1
10
28.4526304854604
20
1.70366155039281
30
0
41
1
10
28.0714944478307
20
1.90923381343791
30
0
41
1
10
27.6903107835272
20
2.10289023062046
30
0
0
SPLINE
5
C4
100
AcDbEntity
8
1
62
256
6
ByLayer
370
18
48
1
60
0
100
AcDbSpline
70
4
71
3
72
24
73
20
40
0
40
0
40
0
40
0
40
0.125
40
0.125
40
0.187500000000001
40
0.187500000000001
40
0.250000000000002
40
0.250000000000002
40
0.312500000000004
40
0.312500000000004
40
0.375000000000005
40
0.375000000000005
40
0.500000000000003
40
0.500000000000003
40
0.625
40
0.625
40
0.749999999999998
40
0.749999999999998
40
1
40
1
40
1
40
1
41
1
10
38.3536339306245
20
1.63254263249735
30
0
41
1
10
38.3809690348936
20
1.45393424328466
30
0
41
1
10
38.4263867054091
20
1.27274533544724
30
0
41
1
10
38.5191315163498
20
0.997448755813025
30
0
41
1
10
38.5542436654043
20
0.905062558821328
30
0
41
1
10
38.630516632568
20
0.723458997779005
30
0
41
1
10
38.6718569195485
20
0.633669643399827
30
0
41
1
10
38.7603152036877
20
0.455916734822381
30
0
41
1
10
38.8074349527137
20
0.367953734227342
30
0
41
1
10
38.9069930858758
20
0.193708462019657
30
0
41
1
10
38.9596444685793
20
0.107116696069028
30
0
41
1
10
39.1227466678732
20
-0.146802143798311
30
0
41
1
10
39.2386238539399
20
-0.309087508366986
30
0
41
1
10
39.481932101402
20
-0.622344622747676
30
0
41
1
10
39.6093988714711
20
-0.773281406440958
30
0
41
1
10
39.8745615060833
20
-1.06513859136777
30
0
41
1
10
40.0123510883883
20
-1.20595642717049
30
0
41
1
10
40.4315805550635
20
-1.60781480676366
30
0
41
1
10
40.7212837022041
20
-1.85185698156576
30
0
41
1
10
41.0192096845735
20
-2.07669312222279
30
0
0
SPLINE
5
C5
100
AcDbEntity
8
1
62
256
6
ByLayer
370
18
48
1
60
0
100
AcDbSpline
70
4
71
3
72
10
73
6
40
0
40
0
40
0
40
0
40
0.5
40
0.5
40
1
40
1
40
1
40
1
41
1
10
4.11539175960274
20
3.72814033490135
30
0
41
1
10
4.09578972202473
20
3.73224578247624
30
0
41
1
10
4.07835953555548
20
3.7370840948708
30
0
41
1
10
4.04773393467286
20
3.74803564514372
30
0
41
1
10
4.03480433947402
20
3.75409767855393
30
0
41
1
10
4.02483222486359
20
3.76038110992917
30
0
0
SPLINE
5
C6
100
AcDbEntity
8
1
62
256
6
ByLayer
370
18
48
1
60
0
100
AcDbSpline
70
4
71
3
72
14
73
10
40
0
40
0
40
0
40
0
40
0.25
40
0.25
40
0.5
40
0.5
40
0.75
40
0.75
40
1
40
1
40
1
40
1
41
1
10
7.78356930874932
20
-2.91994980435464
30
0
41
1
10
7.47925915665189
20
-2.80292254403165
30
0
41
1
10
7.17893432487244
20
-2.67280426048666
30
0
41
1
10
6.58297296896518
20
-2.39118668455768
30
0
41
1
10
6.28744814031984
20
-2.23876314999191
30
0
41
1
10
5.69939906986247
20
-1.91240585862607
30
0
41
1
10
5.40684922509971
20
-1.73873227230351
30
0
41
1
10
4.82447009032029
20
-1.36681871038954
30
0
41
1
10
4.53407865742662
20
-1.16834385224391
30
0
41
1
10
4.25077879220723
20
-0.957506029033084
30
0
0
SPLINE
5
C7
100
AcDbEntity
8
1
62
256
6
ByLayer
370
18
48
1
60
0
100
AcDbSpline
70
4
71
3
72
88
73
84
40
0
40
0
40
0
40
0
40
0.015303066034404
40
0.015303066034404
40
0.0346495393731166
40
0.0346495393731166
40
0.0539960127118292
40
0.0539960127118292
40
0.0926889593892545
40
0.0926889593892545
40
0.112035432727967
40
0.112035432727967
40
0.131381906066679
40
0.131381906066679
40
0.150728379405391
40
0.150728379405391
40
0.170074852744104
40
0.170074852744104
40
0.208767799421528
40
0.208767799421528
40
0.22811427276024
40
0.22811427276024
40
0.247460746098952
40
0.247460746098952
40
0.266807219437665
40
0.266807219437665
40
0.286153692776376
40
0.286153692776376
40
0.3248466394538
40
0.3248466394538
40
0.344193112792512
40
0.344193112792512
40
0.363539586131224
40
0.363539586131224
40
0.402232532808647
40
0.402232532808647
40
0.440925479486071
40
0.440925479486071
40
0.479618426163494
40
0.479618426163494
40
0.518311372840918
40
0.518311372840918
40
0.53765784617963
40
0.53765784617963
40
0.557004319518342
40
0.557004319518342
40
0.595697266195766
40
0.595697266195766
40
0.615043739534478
40
0.615043739534478
40
0.634390212873191
40
0.634390212873191
40
0.653736686211903
40
0.653736686211903
40
0.673083159550615
40
0.673083159550615
40
0.71177610622804
40
0.71177610622804
40
0.731122579566752
40
0.731122579566752
40
0.750469052905465
40
0.750469052905465
40
0.769815526244177
40
0.769815526244177
40
0.789161999582889
40
0.789161999582889
40
0.827854946260313
40
0.827854946260313
40
0.847201419599025
40
0.847201419599025
40
0.866547892937736
40
0.866547892937736
40
0.885894366276448
40
0.885894366276448
40
0.90524083961516
40
0.90524083961516
40
0.943933786292585
40
0.943933786292585
40
0.963280259631297
40
0.963280259631297
40
0.98262673297001
40
0.98262673297001
40
1
40
1
40
1
40
1
41
1
10
16.2728383884648
20
2.90969319588515
30
0
41
1
10
16.3952704712516
20
2.96289702776207
30
0
41
1
10
16.5177766338903
20
3.01417966825224
30
0
41
1
10
16.7951094902142
20
3.12623079652815
30
0
41
1
10
16.9499563149205
20
3.18588946558967
30
0
41
1
10
17.2594756334739
20
3.29951166909203
30
0
41
1
10
17.4139343827875
20
3.35364013523878
30
0
41
1
10
17.8787673603353
20
3.50585984315339
30
0
41
1
10
18.1896564097401
20
3.5936576782652
30
0
41
1
10
18.6536499007974
20
3.70530084405078
30
0
41
1
10
18.8078726655479
20
3.73925549392934
30
0
41
1
10
19.117195375885
20
3.79969182105702
30
0
41
1
10
19.2721809584427
20
3.82626578216409
30
0
41
1
10
19.5825112745677
20
3.87228031716151
30
0
41
1
10
19.7379662717777
20
3.89170768609944
30
0
41
1
10
20.047695740295
20
3.92321394424684
30
0
41
1
10
20.2020198777458
20
3.93530933403966
30
0
41
1
10
20.6660392903659
20
3.9602026985221
30
0
41
1
10
20.9759638089731
20
3.96198188821256
30
0
41
1
10
21.4404609224047
20
3.94220542289372
30
0
41
1
10
21.5953641062321
20
3.93178915232562
30
0
41
1
10
21.905341956611
20
3.90372713602736
30
0
41
1
10
22.0602989081984
20
3.88606331097301
30
0
41
1
10
22.3699808912182
20
3.84350235054137
30
0
41
1
10
22.5247280783929
20
3.81861549492675
30
0
41
1
10
22.8337169759861
20
3.76139318421025
30
0
41
1
10
22.9881221620764
20
3.72910130254996
30
0
41
1
10
23.4529937472804
20
3.622231797626
30
0
41
1
10
23.7641480101631
20
3.53732455240541
30
0
41
1
10
24.2275939256093
20
3.38961677908594
30
0
41
1
10
24.3819689038126
20
3.33712105374852
30
0
41
1
10
24.691422321689
20
3.22646046688521
30
0
41
1
10
24.8463153535549
20
3.16815043968416
30
0
41
1
10
25.3112740508712
20
2.98406132244134
30
0
41
1
10
25.6209352032648
20
2.8480903742115
30
0
41
1
10
26.2401183265005
20
2.55882093818534
30
0
41
1
10
26.5496683094369
20
2.40468366172547
30
0
41
1
10
27.1679273237602
20
2.07611993091945
30
0
41
1
10
27.4789689125868
20
1.90414779900115
30
0
41
1
10
28.0981943374174
20
1.54758047650512
30
0
41
1
10
28.4063392598871
20
1.36154810417023
30
0
41
1
10
28.8710319139956
20
1.07769301940073
30
0
41
1
10
29.0262224870739
20
0.981953698388338
30
0
41
1
10
29.3365687009121
20
0.788263095917273
30
0
41
1
10
29.4912149544205
20
0.69030995090327
30
0
41
1
10
29.9546984764916
20
0.394859889515402
30
0
41
1
10
30.264362118185
20
0.197773449628528
30
0
41
1
10
30.7287051060426
20
-0.0998297686651313
30
0
41
1
10
30.8832871021214
20
-0.199636105212903
30
0
41
1
10
31.1931276259928
20
-0.398780395471277
30
0
41
1
10
31.3481370188604
20
-0.497421461327321
30
0
41
1
10
31.6578967328131
20
-0.693338134784085
30
0
41
1
10
31.8126838515574
20
-0.790593381683607
30
0
41
1
10
32.1219090193505
20
-0.983944120248594
30
0
41
1
10
32.276141257587
20
-1.08034662551097
30
0
41
1
10
32.7397594912113
20
-1.36559012500987
30
0
41
1
10
33.0510418864257
20
-1.5503439313276
30
0
41
1
10
33.5152637695724
20
-1.81867258990141
30
0
41
1
10
33.6694582757989
20
-1.90695308856996
30
0
41
1
10
33.9784059104239
20
-2.07890181671465
30
0
41
1
10
34.1331354877815
20
-2.16262191944293
30
0
41
1
10
34.4427634803705
20
-2.32604636410565
30
0
41
1
10
34.5976973942698
20
-2.40570357089746
30
0
41
1
10
34.9076002780461
20
-2.5611043076778
30
0
41
1
10
35.0622527755064
20
-2.63694819820239
30
0
41
1
10
35.5264003533861
20
-2.85500482923951
30
0
41
1
10
35.836074007752
20
-2.98896244514859
30
0
41
1
10
36.2996805135012
20
-3.17412374018491
30
0
41
1
10
36.4539786733923
20
-3.23324923844737
30
0
41
1
10
36.7638404703589
20
-3.34468678827994
30
0
41
1
10
36.9191607755226
20
-3.39720153748041
30
0
41
1
10
37.2290376569043
20
-3.49560808314408
30
0
41
1
10
37.3837946541224
20
-3.5415450407281
30
0
41
1
10
37.6926470073344
20
-3.6270363502224
30
0
41
1
10
37.846795131859
20
-3.66652283546083
30
0
41
1
10
38.3106788639033
20
-3.77387609603315
30
0
41
1
10
38.6216691757857
20
-3.83145542375351
30
0
41
1
10
39.085449426532
20
-3.89633738234187
30
0
41
1
10
39.2397228855949
20
-3.91428507678037
30
0
41
1
10
39.5488231195803
20
-3.94261425324035
30
0
41
1
10
39.7034340977024
20
-3.95306951584897
30
0
41
1
10
39.9968604664274
20
-3.96592649701171
30
0
41
1
10
40.1356762215611
20
-3.96904219228929
30
0
41
1
10
40.2744031489694
20
-3.96913651129006
30
0
0
SPLINE
5
C8
100
AcDbEntity
8
1
62
256
6
ByLayer
370
18
48
1
60
0
100
AcDbSpline
70
4
71
3
72
30
73
26
40
0
40
0
40
0
40
0
40
0.0061389331768662
40
0.0061389331768662
40
0.0560490962166246
40
0.0560490962166246
40
0.105959259256383
40
0.105959259256383
40
0.2057795853359
40
0.2057795853359
40
0.305599911415417
40
0.305599911415417
40
0.355510074455176
40
0.355510074455176
40
0.405420237494934
40
0.405420237494934
40
0.605060889653966
40
0.605060889653966
40
0.704881215733483
40
0.704881215733483
40
0.754791378773241
40
0.754791378773241
40
0.804701541812998
40
0.804701541812998
40
1
40
1
40
1
40
1
41
1
10
25.226514013521
20
3.17217567252942
30
0
41
1
10
25.2506266871714
20
3.16349539752454
30
0
41
1
10
25.2747453389142
20
3.1547404770335
30
0
41
1
10
25.4950099631231
20
3.07412868143652
30
0
41
1
10
25.69204098443
20
2.99721182784151
30
0
41
1
10
26.0848211621174
20
2.8349741798742
30
0
41
1
10
26.2804447987683
20
2.74974404999028
30
0
41
1
10
26.8658345667824
20
2.48282703363185
30
0
41
1
10
27.2540571744898
20
2.28984961844282
30
0
41
1
10
28.030246237723
20
1.87913958871812
30
0
41
1
10
28.4182884148049
20
1.66152346277991
30
0
41
1
10
29.003061139673
20
1.32044511205737
30
0
41
1
10
29.1984915302624
20
1.20440220414062
30
0
41
1
10
29.5906988154385
20
0.968010940339866
30
0
41
1
10
29.7878545139863
20
0.847457854394889
30
0
41
1
10
30.7677252501227
20
0.243032224241034
30
0
41
1
10
31.5400276107675
20
-0.250896284357708
30
0
41
1
10
32.7045651109038
20
-0.969519666155463
30
0
41
1
10
33.0937054802234
20
-1.20543474786862
30
0
41
1
10
33.6817876974553
20
-1.54911496167787
30
0
41
1
10
33.8789673120987
20
-1.66205911781233
30
0
41
1
10
34.2709191812831
20
-1.88114631379827
30
0
41
1
10
34.4661771807868
20
-1.98760030512852
30
0
41
1
10
35.4229988468108
20
-2.49429535316244
30
0
41
1
10
36.1774866495296
20
-2.84678940199129
30
0
41
1
10
36.9392809126511
20
-3.13053816927905
30
0
0
SPLINE
5
C9
100
AcDbEntity
8
1
62
256
6
ByLayer
370
13
48
1
60
0
100
AcDbSpline
70
4
71
3
72
16
73
12
40
0
40
0
40
0
40
0
40
0.010758030693997
40
0.010758030693997
40
0.134413276857248
40
0.134413276857248
40
0.2580685230205
40
0.2580685230205
40
0.505379015347002
40
0.505379015347002
40
1
40
1
40
1
40
1
41
1
10
36.9392809125163
20
-3.1305381692288
30
0
41
1
10
36.956218365565
20
-3.13684693480548
30
0
41
1
10
36.9731594304482
20
-3.14312171722625
30
0
41
1
10
37.1848721110424
20
-3.22109325193674
30
0
41
1
10
37.3801434879409
20
-3.28830262567666
30
0
41
1
10
37.772202045442
20
-3.41306934581451
30
0
41
1
10
37.9693313957965
20
-3.47069078276238
30
0
41
1
10
38.556995128427
20
-3.62650941248074
30
0
41
1
10
38.9458182005278
20
-3.70840311675448
30
0
41
1
10
40.1095747572696
20
-3.88672465803947
30
0
41
1
10
40.8820475802821
20
-3.91591318573089
30
0
41
1
10
41.6652990067624
20
-3.85125186407535
30
0
0
SPLINE
5
CA
100
AcDbEntity
8
1
62
256
6
ByLayer
370
18
48
1
60
0
100
AcDbSpline
70
4
71
3
72
32
73
28
40
0
40
0
40
0
40
0
40
0.249999999999997
40
0.249999999999997
40
0.374999999999992
40
0.374999999999992
40
0.499999999999987
40
0.499999999999987
40
0.624999999999982
40
0.624999999999982
40
0.687499999999979
40
0.687499999999979
40
0.718749999999981
40
0.718749999999981
40
0.749999999999983
40
0.749999999999983
40
0.812499999999988
40
0.812499999999988
40
0.84374999999999
40
0.84374999999999
40
0.874999999999992
40
0.874999999999992
40
0.906249999999994
40
0.906249999999994
40
0.937499999999996
40
0.937499999999996
40
1
40
1
40
1
40
1
41
1
10
38.3536339306252
20
1.6325426324978
30
0
41
1
10
38.619264951101
20
1.39768714470822
30
0
41
1
10
38.8915201138303
20
1.184128093456
30
0
41
1
10
39.3125208364988
20
0.904355973282975
30
0
41
1
10
39.4549521947023
20
0.817842918130395
30
0
41
1
10
39.7446857583035
20
0.660476448603077
30
0
41
1
10
39.8898151070349
20
0.590821577095937
30
0
41
1
10
40.1803122960714
20
0.472010034717499
30
0
41
1
10
40.3257385242419
20
0.42293138951797
30
0
41
1
10
40.5404724316012
20
0.368221631610226
30
0
41
1
10
40.6116272758879
20
0.353063883460436
30
0
41
1
10
40.7176687097279
20
0.335354055551306
30
0
41
1
10
40.7529160134483
20
0.330287562910314
30
0
41
1
10
40.8229626220767
20
0.321918907627861
30
0
41
1
10
40.8579126214884
20
0.318172951646062
30
0
41
1
10
40.9609652972396
20
0.313328957292498
30
0
41
1
10
41.0267884757902
20
0.319440470376634
30
0
41
1
10
41.1157499888383
20
0.34738798359183
30
0
41
1
10
41.1439594678126
20
0.359734699947012
30
0
41
1
10
41.1968539938366
20
0.391823889192182
30
0
41
1
10
41.2209572274567
20
0.411336798090048
30
0
41
1
10
41.2623341180432
20
0.458405957344837
30
0
41
1
10
41.2796969084347
20
0.486726995265485
30
0
41
1
10
41.3054778519978
20
0.549712135646217
30
0
41
1
10
41.3142452043247
20
0.584343515247696
30
0
41
1
10
41.3290876406891
20
0.696961525731012
30
0
41
1
10
41.3235184206736
20
0.778888470069205
30
0
41
1
10
41.3077177030523
20
0.863765807816037
30
0
0
SPLINE
5
CB
100
AcDbEntity
8
1
62
256
6
ByLayer
370
18
48
1
60
0
100
AcDbSpline
70
4
71
3
72
63
73
59
40
0
40
0
40
0
40
0
40
0.0625000000000056
40
0.0625000000000056
40
0.125000000000011
40
0.125000000000011
40
0.250000000000024
40
0.250000000000024
40
0.375000000000036
40
0.375000000000036
40
0.437500000000042
40
0.437500000000042
40
0.500000000000048
40
0.500000000000048
40
0.562500000000054
40
0.562500000000054
40
0.625000000000061
40
0.625000000000061
40
0.632812500000061
40
0.636718750000061
40
0.636718750000061
40
0.640625000000061
40
0.640625000000061
40
0.644531250000061
40
0.644531250000061
40
0.648437500000061
40
0.648437500000061
40
0.65625000000006
40
0.65625000000006
40
0.687500000000056
40
0.687500000000056
40
0.718750000000053
40
0.718750000000053
40
0.734375000000051
40
0.734375000000051
40
0.742187500000049
40
0.742187500000049
40
0.750000000000048
40
0.750000000000048
40
0.765625000000045
40
0.765625000000045
40
0.781250000000042
40
0.781250000000042
40
0.79687500000004
40
0.79687500000004
40
0.812500000000037
40
0.812500000000037
40
0.828125000000034
40
0.828125000000034
40
0.843750000000032
40
0.843750000000032
40
0.875000000000025
40
0.875000000000025
40
0.906250000000019
40
0.906250000000019
40
0.937500000000013
40
0.937500000000013
40
1
40
1
40
1
40
1
41
1
10
11.9937218328642
20
-0.527479705113819
30
0
41
1
10
11.7296016241615
20
-0.359349717699217
30
0
41
1
10
11.4638150330066
20
-0.193306807257301
30
0
41
1
10
10.9279317653442
20
0.132895586477076
30
0
41
1
10
10.6571731799525
20
0.293413320655986
30
0
41
1
10
9.84153486386879
20
0.759496526387665
30
0
41
1
10
9.29442985405046
20
1.04889425700841
30
0
41
1
10
8.18153367749366
20
1.56774411252121
30
0
41
1
10
7.61562200548462
20
1.79695668023896
30
0
41
1
10
6.74504110376736
20
2.08784469275716
30
0
41
1
10
6.45125716050978
20
2.17606795520692
30
0
41
1
10
5.85563975306266
20
2.3347136252886
30
0
41
1
10
5.55342033884881
20
2.4051831900118
30
0
41
1
10
4.94561218156647
20
2.52756192237467
30
0
41
1
10
4.63944026522856
20
2.57966813439978
30
0
41
1
10
4.0222363768838
20
2.66665601730747
30
0
41
1
10
3.71124591432687
20
2.70152395818488
30
0
41
1
10
3.36003754375818
20
2.73131890722095
30
0
41
1
10
3.30147956912219
20
2.73608773737902
30
0
41
1
10
3.24288655058982
20
2.74056242421986
30
0
41
1
10
3.20381673055905
20
2.74348030653911
30
0
41
1
10
3.18434768588992
20
2.74546897060472
30
0
41
1
10
3.14496494875721
20
2.74585998823648
30
0
41
1
10
3.12440343568935
20
2.74426358944717
30
0
41
1
10
3.08728087984812
20
2.73589634241486
30
0
41
1
10
3.07102309541474
20
2.72845146337212
30
0
41
1
10
3.0205654847432
20
2.70841429494584
30
0
41
1
10
2.98718425070842
20
2.69460339902361
30
0
41
1
10
2.82168030217579
20
2.62304098652419
30
0
41
1
10
2.69521107553663
20
2.5585738326964
30
0
41
1
10
2.4608783647906
20
2.40911951013683
30
0
41
1
10
2.35246442548845
20
2.32428562422305
30
0
41
1
10
2.21195399330762
20
2.17065220135845
30
0
41
1
10
2.17022461655233
20
2.11633478972337
30
0
41
1
10
2.11661595400733
20
2.02922512299537
30
0
41
1
10
2.10024858701536
20
1.99924635725677
30
0
41
1
10
2.07081018167966
20
1.93719101831871
30
0
41
1
10
2.05773368685095
20
1.90501869283068
30
0
41
1
10
2.024650344935
20
1.80742266944213
30
0
41
1
10
2.01040613160726
20
1.74023896382172
30
0
41
1
10
1.99753330117963
20
1.60142697053163
30
0
41
1
10
1.9991243307835
20
1.52935123643889
30
0
41
1
10
2.01664922912676
20
1.38714096758994
30
0
41
1
10
2.03241230785406
20
1.31623615881281
30
0
41
1
10
2.07578140542694
20
1.17463443125237
30
0
41
1
10
2.10284547441083
20
1.10562612002786
30
0
41
1
10
2.16504526319068
20
0.970496638224148
30
0
41
1
10
2.20021507574668
20
0.90433424128554
30
0
41
1
10
2.2770294156642
20
0.774178749754327
30
0
41
1
10
2.31886827884409
20
0.709949359057873
30
0
41
1
10
2.45028253950844
20
0.522762254898026
30
0
41
1
10
2.54598928764455
20
0.404404050206665
30
0
41
1
10
2.74780847375243
20
0.175854081240487
30
0
41
1
10
2.85400587929507
20
0.0657313529693795
30
0
41
1
10
3.07400855874874
20
-0.148621440098538
30
0
41
1
10
3.18737616278392
20
-0.252351246917101
30
0
41
1
10
3.53176003697877
20
-0.553101030480121
30
0
41
1
10
3.76834992996874
20
-0.741257804186773
30
0
41
1
10
4.00916081575338
20
-0.92136226197735
30
0
0
SPLINE
5
CC
100
AcDbEntity
8
1
62
256
6
ByLayer
370
18
48
1
60
0
100
AcDbSpline
70
4
71
3
72
79
73
75
40
0
40
0
40
0
40
0
40
0.0285449034467677
40
0.0285449034467677
40
0.0645800056214626
40
0.0645800056214626
40
0.100615107796158
40
0.100615107796158
40
0.172685312145547
40
0.172685312145547
40
0.208720414320242
40
0.208720414320242
40
0.244755516494937
40
0.244755516494937
40
0.316825720844327
40
0.316825720844327
40
0.388895925193717
40
0.388895925193717
40
0.424931027368412
40
0.424931027368412
40
0.44294857845576
40
0.44294857845576
40
0.451957353999434
40
0.451957353999434
40
0.45646174177127
40
0.45702479024275
40
0.45702479024275
40
0.45730631447849
40
0.45730631447849
40
0.45758783871423
40
0.45758783871423
40
0.458713935657189
40
0.458713935657189
40
0.460966129543107
40
0.460966129543107
40
0.469974905086781
40
0.469974905086781
40
0.478983680630454
40
0.478983680630454
40
0.497001231717801
40
0.497001231717801
40
0.533036333892495
40
0.533036333892495
40
0.605106538241882
40
0.605106538241882
40
0.67717674259127
40
0.67717674259127
40
0.713211844765963
40
0.713211844765963
40
0.722220620309637
40
0.722220620309637
40
0.726725008081474
40
0.726725008081474
40
0.728977201967392
40
0.728977201967392
40
0.729540250438872
40
0.729540250438872
40
0.729821774674611
40
0.729821774674611
40
0.730103298910351
40
0.73122939585331
40
0.749246946940656
40
0.749246946940656
40
0.785282049115347
40
0.785282049115347
40
0.821317151290038
40
0.821317151290038
40
0.85735225346473
40
0.85735225346473
40
0.893387355639421
40
0.893387355639421
40
0.965457559988804
40
0.965457559988804
40
1
40
1
40
1
40
1
41
1
10
11.9937046034963
20
-0.527431633378399
30
0
41
1
10
11.9002347803546
20
-0.472477086775882
30
0
41
1
10
11.8066312836398
20
-0.418583472527331
30
0
41
1
10
11.5943981116798
20
-0.299538058225835
30
0
41
1
10
11.4756316094937
20
-0.235170096431034
30
0
41
1
10
11.236886439867
20
-0.111792482013669
30
0
41
1
10
11.1177768690873
20
-0.0532569011603528
30
0
41
1
10
10.7630133713717
20
0.10993150660687
30
0
41
1
10
10.5290018294238
20
0.202651651138837
30
0
41
1
10
10.1774523836927
20
0.311117621242488
30
0
41
1
10
10.0601573740982
20
0.342178902802971
30
0
41
1
10
9.82439884495983
20
0.393163567675828
30
0
41
1
10
9.7070474758824
20
0.412814198269217
30
0
41
1
10
9.35770142997032
20
0.453935409733845
30
0
41
1
10
9.12720040405031
20
0.457840287941792
30
0
41
1
10
8.66292635957228
20
0.420949696835123
30
0
41
1
10
8.42789532001743
20
0.37970960548995
30
0
41
1
10
8.07557021321946
20
0.288210710753248
30
0
41
1
10
7.95795470158708
20
0.252797592550593
30
0
41
1
10
7.78070924367734
20
0.19276101049519
30
0
41
1
10
7.72152278337165
20
0.171604416761426
30
0
41
1
10
7.63269093117461
20
0.138276236313857
30
0
41
1
10
7.60306207440337
20
0.126897902647556
30
0
41
1
10
7.5586021821303
20
0.109442231028368
30
0
41
1
10
7.54192571511191
20
0.102823234226349
30
0
41
1
10
7.52524459537256
20
0.0961230992760136
30
0
41
1
10
7.52246433959254
20
0.095004917134446
30
0
41
1
10
7.52103767312931
20
0.0948062267250407
30
0
41
1
10
7.5211230556362
20
0.0930398129458752
30
0
41
1
10
7.52183281908091
20
0.0922143157193034
30
0
41
1
10
7.52493601484645
20
0.0883668481287998
30
0
41
1
10
7.52812581572431
20
0.0856670289118426
30
0
41
1
10
7.53749866669466
20
0.0776025090104042
30
0
41
1
10
7.54406758210479
20
0.0724652046781102
30
0
41
1
10
7.57711701105012
20
0.0470458756866776
30
0
41
1
10
7.6045396884312
20
0.0275885894638463
30
0
41
1
10
7.65945706940329
20
-0.0112279087967977
30
0
41
1
10
7.68710328896037
20
-0.0304568924193234
30
0
41
1
10
7.77028627253057
20
-0.0879270057653798
30
0
41
1
10
7.82607678908073
20
-0.125944436415466
30
0
41
1
10
7.99383068367172
20
-0.239711140614276
30
0
41
1
10
8.1061922638095
20
-0.315142650674119
30
0
41
1
10
8.4438668725256
20
-0.541251861771457
30
0
41
1
10
8.66941292767834
20
-0.692264538767091
30
0
41
1
10
9.12048897722244
20
-0.996063303324661
30
0
41
1
10
9.3463962645489
20
-1.14818389510887
30
0
41
1
10
9.68317545477686
20
-1.38032841265101
30
0
41
1
10
9.79529897296422
20
-1.45805842809713
30
0
41
1
10
9.93370536990793
20
-1.558167595432
30
0
41
1
10
9.96130261265924
20
-1.57833759711275
30
0
41
1
10
10.0021740576168
20
-1.60935927094385
30
0
41
1
10
10.0157367195595
20
-1.61979532033109
30
0
41
1
10
10.0355636336815
20
-1.63614898126596
30
0
41
1
10
10.0421901027449
20
-1.64161325454276
30
0
41
1
10
10.0496852496401
20
-1.64932623704775
30
0
41
1
10
10.0511854636765
20
-1.65088361325832
30
0
41
1
10
10.0529180838936
20
-1.65364835760849
30
0
41
1
10
10.0533458567301
20
-1.65490156372562
30
0
41
1
10
10.0517846466755
20
-1.65634694382339
30
0
41
1
10
10.0478817822558
20
-1.65995985968163
30
0
41
1
10
9.99403341202853
20
-1.70978092465251
30
0
41
1
10
9.9411219666801
20
-1.75836818829535
30
0
41
1
10
9.79217033069867
20
-1.89375789891363
30
0
41
1
10
9.69325051173203
20
-1.98181680473857
30
0
41
1
10
9.497445095876
20
-2.14992705223946
30
0
41
1
10
9.40029341685474
20
-2.23023819098978
30
0
41
1
10
9.20583444783927
20
-2.38174436261534
30
0
41
1
10
9.10853595911559
20
-2.45294640074906
30
0
41
1
10
8.911626459415
20
-2.58396839024303
30
0
41
1
10
8.81166427887518
20
-2.64386781501801
30
0
41
1
10
8.51215927501099
20
-2.7982008783996
30
0
41
1
10
8.31063275917219
20
-2.86882100589568
30
0
41
1
10
7.99490998613641
20
-2.9160489253382
30
0
41
1
10
7.88931452239663
20
-2.92232914508421
30
0
41
1
10
7.78354705417806
20
-2.91989176006484
30
0
0
SPLINE
5
CD
100
AcDbEntity
8
1
62
256
6
ByLayer
370
18
48
1
60
0
100
AcDbSpline
70
4
71
3
72
8
73
4
40
0
40
0
40
0
40
0
40
1
40
1
40
1
40
1
41
1
10
41.6811105271644
20
-3.76550804553847
30
0
41
1
10
41.6589955047032
20
-3.77924792879324
30
0
41
1
10
41.6392619846346
20
-3.78617071948227
30
0
41
1
10
41.621954906402
20
-3.78614777765066
30
0
0
SPLINE
5
CE
100
AcDbEntity
8
1
62
256
6
ByLayer
370
18
48
1
60
0
100
AcDbSpline
70
4
71
3
72
22
73
18
40
0
40
0
40
0
40
0
40
0.124999999999996
40
0.124999999999996
40
0.187499999999994
40
0.187499999999994
40
0.249999999999992
40
0.249999999999992
40
0.499999999999994
40
0.499999999999994
40
0.624999999999995
40
0.624999999999995
40
0.749999999999997
40
0.749999999999997
40
0.874999999999998
40
0.874999999999998
40
1
40
1
40
1
40
1
41
1
10
41.6219549063986
20
-3.78614777765066
30
0
41
1
10
41.564551507085
20
-3.78610260803151
30
0
41
1
10
41.5100289280199
20
-3.77736113851606
30
0
41
1
10
41.4327944175643
20
-3.75051583764818
30
0
41
1
10
41.4078098406759
20
-3.73927241586909
30
0
41
1
10
41.3594275843886
20
-3.71199522258925
30
0
41
1
10
41.335996955287
20
-3.69591098217853
30
0
41
1
10
41.2246326399809
20
-3.60438836412945
30
0
41
1
10
41.1524068422077
20
-3.49556367032062
30
0
41
1
10
41.0710085047156
20
-3.27545041544272
30
0
41
1
10
41.0483412171707
20
-3.19170741934056
30
0
41
1
10
41.0139722533232
20
-3.00933400698304
30
0
41
1
10
41.0020437318847
20
-2.91041664585873
30
0
41
1
10
40.9886520124138
20
-2.6971891510843
30
0
41
1
10
40.9871872043369
20
-2.5828813855457
30
0
41
1
10
40.9951844978
20
-2.33819416441111
30
0
41
1
10
41.0046197250375
20
-2.20974131862471
30
0
41
1
10
41.0192096845735
20
-2.07669312222282
30
0
0
SPLINE
5
CF
100
AcDbEntity
8
1
62
256
6
ByLayer
370
18
48
1
60
0
100
AcDbSpline
70
4
71
3
72
14
73
10
40
0
40
0
40
0
40
0
40
0.140670334547498
40
0.140670334547498
40
0.289213421131195
40
0.289213421131195
40
0.883385767465982
40
0.883385767465982
40
1
40
1
40
1
40
1
41
1
10
21.7748645797179
20
-3.77329860685703
30
0
41
1
10
21.5893408345876
20
-3.77574016596279
30
0
41
1
10
21.4037633544907
20
-3.77305832813426
30
0
41
1
10
21.0216901677626
20
-3.75703361022352
30
0
41
1
10
20.8247981863519
20
-3.74304801061945
30
0
41
1
10
19.8447918605643
20
-3.6452209689329
30
0
41
1
10
19.0717500215529
20
-3.47821006681502
30
0
41
1
10
18.1421201170837
20
-3.18523664023365
30
0
41
1
10
17.9894507293213
20
-3.13416622982072
30
0
41
1
10
17.8365136917785
20
-3.08017210324758
30
0
0
SPLINE
5
D0
100
AcDbEntity
8
1
62
256
6
ByLayer
370
13
48
1
60
0
100
AcDbSpline
70
4
71
3
72
28
73
24
40
0
40
0
40
0
40
0
40
0.0751314183575527
40
0.0751314183575527
40
0.136970686794299
40
0.136970686794299
40
0.198809955231045
40
0.198809955231045
40
0.44616702897803
40
0.44616702897803
40
0.508006297414776
40
0.508006297414776
40
0.569845565851522
40
0.569845565851522
40
0.693524102725015
40
0.693524102725015
40
0.817202639598508
40
0.817202639598508
40
0.879041908035255
40
0.879041908035255
40
0.940881176472002
40
0.940881176472002
40
1
40
1
40
1
40
1
41
1
10
17.8365136917858
20
-3.08017210325013
30
0
41
1
10
17.5998286546287
20
-2.99661090669807
30
0
41
1
10
17.3625025803919
20
-2.90604723674042
30
0
41
1
10
16.9278804087543
20
-2.72871957024085
30
0
41
1
10
16.7310298138522
20
-2.64414442081375
30
0
41
1
10
16.3396937219687
20
-2.46828686964642
30
0
41
1
10
16.1446718957483
20
-2.37677871098361
30
0
41
1
10
15.1713639478786
20
-1.90334556972846
30
0
41
1
10
14.3988316138236
20
-1.47343269452645
30
0
41
1
10
13.4225908371589
20
-0.899002300412036
30
0
41
1
10
13.2267738298888
20
-0.782313039161863
30
0
41
1
10
12.8335300966184
20
-0.54601742570793
30
0
41
1
10
12.6373792821906
20
-0.427170429186134
30
0
41
1
10
12.0511007520275
20
-0.0706443502383536
30
0
41
1
10
11.6625441695722
20
0.167482402525735
30
0
41
1
10
10.886300833948
20
0.638566057124535
30
0
41
1
10
10.4985064267487
20
0.871330647118299
30
0
41
1
10
9.91460464974693
20
1.21181648596601
30
0
41
1
10
9.71961058964121
20
1.3238808605162
30
0
41
1
10
9.32851100848825
20
1.54451671182156
30
0
41
1
10
9.13197811280818
20
1.65329191653845
30
0
41
1
10
8.74777629844777
20
1.86058739138559
30
0
41
1
10
8.56065088969279
20
1.95902386022382
30
0
41
1
10
8.37398894319477
20
2.05436446032479
30
0
0
SPLINE
5
D1
100
AcDbEntity
8
1
62
256
6
ByLayer
370
18
48
1
60
0
100
AcDbSpline
70
4
71
3
72
8
73
4
40
0
40
0
40
0
40
0
40
1
40
1
40
1
40
1
41
1
10
41.6324749069047
20
3.93792092121907
30
0
41
1
10
41.3697118441148
20
3.95922975615969
30
0
41
1
10
41.1072246810771
20
3.96974958419327
30
0
41
1
10
40.8444636316145
20
3.96948300911399
30
0
0
SPLINE
5
D2
100
AcDbEntity
8
1
62
256
6
ByLayer
370
18
48
1
60
0
100
AcDbSpline
70
4
71
3
72
42
73
38
40
0
40
0
40
0
40
0
40
0.0205380179645884
40
0.0205380179645884
40
0.0817543918418014
40
0.0817543918418014
40
0.112362578780408
40
0.112362578780408
40
0.142970765719014
40
0.142970765719014
40
0.204187139596227
40
0.204187139596227
40
0.234795326534833
40
0.234795326534833
40
0.265403513473439
40
0.265403513473439
40
0.387836261227865
40
0.387836261227865
40
0.418444448166471
40
0.418444448166471
40
0.449052635105077
40
0.449052635105077
40
0.51026900898229
40
0.51026900898229
40
0.632701756736717
40
0.632701756736717
40
0.693918130613931
40
0.693918130613931
40
0.755134504491144
40
0.755134504491144
40
0.816350878368358
40
0.816350878368358
40
0.846959065306965
40
0.846959065306965
40
0.877567252245572
40
0.877567252245572
40
1
40
1
40
1
40
1
41
1
10
23.2642786948519
20
-3.78880725286217
30
0
41
1
10
23.1338637295368
20
-3.81297855954631
30
0
41
1
10
23.0035486660915
20
-3.83459437935318
30
0
41
1
10
22.4849033830588
20
-3.91037850047579
30
0
41
1
10
22.0967788670853
20
-3.94423478939547
30
0
41
1
10
21.51193539008
20
-3.95963386943146
30
0
41
1
10
21.3165411784868
20
-3.95886714003282
30
0
41
1
10
20.9243485396925
20
-3.9453315040067
30
0
41
1
10
20.7271680926336
20
-3.9325106972247
30
0
41
1
10
20.1372251669707
20
-3.87623944209602
30
0
41
1
10
19.7451534395137
20
-3.81504837801941
30
0
41
1
10
19.1557581618639
20
-3.68903886849776
30
0
41
1
10
18.9587341412909
20
-3.64123447864625
30
0
41
1
10
18.5654140504707
20
-3.53484252535847
30
0
41
1
10
18.3695557880694
20
-3.4763980228042
30
0
41
1
10
17.3927059823334
20
-3.15962130230562
30
0
41
1
10
16.6198814356689
20
-2.82702377109976
30
0
41
1
10
15.6440921804728
20
-2.334182818199
30
0
41
1
10
15.4484608845539
20
-2.2317394927978
30
0
41
1
10
15.0557887429523
20
-2.01953948623318
30
0
41
1
10
14.8584662724738
20
-1.90965669954522
30
0
41
1
10
14.2700366172929
20
-1.57408920494356
30
0
41
1
10
13.8806247264158
20
-1.34097708700338
30
0
41
1
10
12.7145130683881
20
-0.623553327071193
30
0
41
1
10
11.9398794118817
20
-0.121292793147035
30
0
41
1
10
10.7583323914124
20
0.631354535275676
30
0
41
1
10
10.3669289414146
20
0.878044547447672
30
0
41
1
10
9.58785664178663
20
1.3559152569795
30
0
41
1
10
9.19990209315398
20
1.58759573027155
30
0
41
1
10
8.42251805635667
20
2.0296908851673
30
0
41
1
10
8.03307575982382
20
2.24010575941634
30
0
41
1
10
7.44492899255195
20
2.53560126613627
30
0
41
1
10
7.24775729099667
20
2.63103381810299
30
0
41
1
10
6.85435891145062
20
2.81317653816885
30
0
41
1
10
6.65829703735392
20
2.89981481018518
30
0
41
1
10
5.67986546257436
20
3.3097628212175
30
0
41
1
10
4.90286425718801
20
3.56321222257475
30
0
41
1
10
4.1153917596034
20
3.72814033490121
30
0
0
SPLINE
5
D3
100
AcDbEntity
8
1
62
256
6
ByLayer
370
18
48
1
60
0
100
AcDbSpline
70
4
71
3
72
16
73
12
40
0
40
0
40
0
40
0
40
0.25
40
0.25
40
0.375000000000001
40
0.375000000000001
40
0.500000000000001
40
0.500000000000001
40
0.75
40
0.75
40
1
40
1
40
1
40
1
41
1
10
42.4463694451447
20
-1.95125697021504
30
0
41
1
10
42.3863511579996
20
-2.11256602244052
30
0
41
1
10
42.3262496697774
20
-2.27376850116602
30
0
41
1
10
42.2355344420156
20
-2.51485107001582
30
0
41
1
10
42.2052216662473
20
-2.59511666912206
30
0
41
1
10
42.1443468829616
20
-2.75532862267144
30
0
41
1
10
42.1138523492563
20
-2.83538177060987
30
0
41
1
10
42.0223204888313
20
-3.07529387002216
30
0
41
1
10
41.9611149391665
20
-3.23471246782356
30
0
41
1
10
41.8377433984375
20
-3.55082532842721
30
0
41
1
10
41.7760331476398
20
-3.70873740855515
30
0
41
1
10
41.7138270833251
20
-3.86275809980918
30
0
0
SPLINE
5
D4
100
AcDbEntity
8
1
62
256
6
ByLayer
370
18
48
1
60
0
100
AcDbSpline
70
4
71
3
72
16
73
12
40
0
40
0
40
0
40
0
40
0.25
40
0.25
40
0.375
40
0.375
40
0.5
40
0.5
40
0.75
40
0.75
40
1
40
1
40
1
40
1
41
1
10
42.4463694451448
20
1.95125697021498
30
0
41
1
10
42.3863511579996
20
2.11256602244046
30
0
41
1
10
42.3262496697775
20
2.27376850116596
30
0
41
1
10
42.2355344420156
20
2.51485107001579
30
0
41
1
10
42.2052216662473
20
2.59511666912201
30
0
41
1
10
42.1443468829616
20
2.75532862267139
30
0
41
1
10
42.1138523492563
20
2.83538177060981
30
0
41
1
10
42.0223204888313
20
3.07529387002214
30
0
41
1
10
41.9611149391666
20
3.23471246782356
30
0
41
1
10
41.8377433984376
20
3.55082532842721
30
0
41
1
10
41.7760331476397
20
3.70873740855515
30
0
41
1
10
41.713827083325
20
3.86275809980918
30
0
0
SPLINE
5
D5
100
AcDbEntity
8
1
62
256
6
ByLayer
370
18
48
1
60
0
100
AcDbSpline
70
2053
71
3
72
62
73
58
40
0
40
0
40
0
40
0
40
0.0312499999999995
40
0.0312499999999995
40
0.062499999999999
40
0.062499999999999
40
0.0937499999999985
40
0.0937499999999985
40
0.124999999999998
40
0.124999999999998
40
0.156249999999997
40
0.156249999999997
40
0.187499999999997
40
0.187499999999997
40
0.218749999999996
40
0.218749999999996
40
0.249999999999996
40
0.249999999999996
40
0.281249999999995
40
0.281249999999995
40
0.312499999999995
40
0.312499999999995
40
0.374999999999994
40
0.374999999999994
40
0.437499999999993
40
0.437499999999993
40
0.468749999999992
40
0.468749999999992
40
0.499999999999992
40
0.499999999999992
40
0.531249999999991
40
0.531249999999991
40
0.562499999999991
40
0.562499999999991
40
0.59374999999999
40
0.59374999999999
40
0.62499999999999
40
0.62499999999999
40
0.656249999999989
40
0.656249999999989
40
0.687499999999989
40
0.687499999999989
40
0.718749999999988
40
0.718749999999988
40
0.749999999999988
40
0.749999999999988
40
0.812499999999988
40
0.812499999999988
40
0.84374999999999
40
0.84374999999999
40
0.874999999999992
40
0.874999999999992
40
0.906249999999994
40
0.906249999999994
40
0.937499999999996
40
0.937499999999996
40
1
40
1
40
1
40
1
41
1
10
42.0215690102598
20
-1.15305113662735
30
0
41
1
10
42.0016853090924
20
-1.18125860929618
30
0
41
1
10
41.982203125305
20
-1.21150673385364
30
0
41
1
10
41.9441077429132
20
-1.27641943505816
30
0
41
1
10
41.9252919104963
20
-1.3115025272304
30
0
41
1
10
41.8897985398771
20
-1.38476337517551
30
0
41
1
10
41.8731889016935
20
-1.42270434646972
30
0
41
1
10
41.8425632211696
20
-1.50157563752771
30
0
41
1
10
41.8288388996311
20
-1.54189390212972
30
0
41
1
10
41.805872617764
20
-1.6210750689645
30
0
41
1
10
41.7963434328045
20
-1.66106091683977
30
0
41
1
10
41.7826625593374
20
-1.73640464971152
30
0
41
1
10
41.7783803429089
20
-1.7720646772504
30
0
41
1
10
41.7749543572005
20
-1.83831406653414
30
0
41
1
10
41.7758342843243
20
-1.8678828177726
30
0
41
1
10
41.7822158569765
20
-1.92068207255451
30
0
41
1
10
41.7877206261783
20
-1.94349867833637
30
0
41
1
10
41.8024501522128
20
-1.98162177747508
30
0
41
1
10
41.8118126376817
20
-1.99722125630842
30
0
41
1
10
41.8333779258558
20
-2.02107856119963
30
0
41
1
10
41.8456030052814
20
-2.02949646313843
30
0
41
1
10
41.8862433525314
20
-2.04509947060689
30
0
41
1
10
41.9176562217629
20
-2.04244672911821
30
0
41
1
10
41.9870666406346
20
-2.01394762987672
30
0
41
1
10
42.0239037792447
20
-1.98863013501048
30
0
41
1
10
42.081955403352
20
-1.9344437219236
30
0
41
1
10
42.1017281139219
20
-1.9136320600154
30
0
41
1
10
42.1409756871278
20
-1.86760402096809
30
0
41
1
10
42.1606077349841
20
-1.84225178622367
30
0
41
1
10
42.1998898058476
20
-1.78645973844578
30
0
41
1
10
42.2197402101404
20
-1.75566091227393
30
0
41
1
10
42.2580355587542
20
-1.69041955145696
30
0
41
1
10
42.2765651243701
20
-1.65592326268836
30
0
41
1
10
42.3122098926619
20
-1.58263889797399
30
0
41
1
10
42.3291969492914
20
-1.54401122605765
30
0
41
1
10
42.3598286096758
20
-1.46568606664832
30
0
41
1
10
42.3738586191157
20
-1.42493101195933
30
0
41
1
10
42.397269087696
20
-1.34514361214221
30
0
41
1
10
42.4067476050948
20
-1.30605468367389
30
0
41
1
10
42.4209296773213
20
-1.22960257531361
30
0
41
1
10
42.4253238202224
20
-1.19379285477325
30
0
41
1
10
42.4289376284441
20
-1.12769134412645
30
0
41
1
10
42.4280982671938
20
-1.09741854028857
30
0
41
1
10
42.4217418258092
20
-1.04480067578805
30
0
41
1
10
42.4161621557504
20
-1.02183962773299
30
0
41
1
10
42.3938177476826
20
-0.96486438425822
30
0
41
1
10
42.3712360498552
20
-0.941645317851879
30
0
41
1
10
42.3305751821416
20
-0.926600817369803
30
0
41
1
10
42.3156867560896
20
-0.924818583982926
30
0
41
1
10
42.2843307075624
20
-0.92735913917997
30
0
41
1
10
42.2678454146663
20
-0.931622380834881
30
0
41
1
10
42.2333450466318
20
-0.945820561371931
30
0
41
1
10
42.2151897166452
20
-0.955867803402583
30
0
41
1
10
42.1782108611237
20
-0.981188839265116
30
0
41
1
10
42.1593577539861
20
-0.996433537173772
30
0
41
1
10
42.1017005248397
20
-1.0499689838509
30
0
41
1
10
42.0613364125948
20
-1.09663619128969
30
0
41
1
10
42.0215690102598
20
-1.15305113662735
30
0
0
SPLINE
5
D6
100
AcDbEntity
8
SK1
62
256
6
ByLayer
370
18
48
1
60
0
100
AcDbSpline
70
4
71
3
72
8
73
4
40
0
40
0
40
0
40
0
40
1
40
1
40
1
40
1
41
1
10
-35.25
20
-2.7318790158586
30
0
41
1
10
-35.5038946288025
20
-2.33227006452151
30
0
41
1
10
-35.7559872437786
20
-1.93181268619455
30
0
41
1
10
-36
20
-1.52755113603456
30
0
0
SPLINE
5
D7
100
AcDbEntity
8
SK1
62
256
6
ByLayer
370
18
48
1
60
0
100
AcDbSpline
70
4
71
3
72
14
73
10
40
0
40
0
40
0
40
0
40
0.5
40
0.5
40
0.750000000000001
40
0.750000000000001
40
0.875000000000001
40
0.875000000000001
40
1
40
1
40
1
40
1
41
1
10
-35.25
20
-3.69411656394075
30
0
41
1
10
-35.2287404812744
20
-3.72757727173098
30
0
41
1
10
-35.208362723075
20
-3.7581574381735
30
0
41
1
10
-35.1802905070704
20
-3.79679898417086
30
0
41
1
10
-35.1714466180788
20
-3.80833160272556
30
0
41
1
10
-35.1602396792677
20
-3.82088146316826
30
0
41
1
10
-35.1568594217207
20
-3.82424019804043
30
0
41
1
10
-35.1517495297274
20
-3.82767534847201
30
0
41
1
10
-35.15
20
-3.82772537421278
30
0
41
1
10
-35.15
20
-3.82473629317545
30
0
0
SPLINE
5
D8
100
AcDbEntity
8
SK1
62
256
6
ByLayer
370
18
48
1
60
0
100
AcDbSpline
70
4
71
3
72
8
73
4
40
0
40
0
40
0
40
0
40
1
40
1
40
1
40
1
41
1
10
-36
20
-2.48978868411652
30
0
41
1
10
-35.7560023534748
20
-2.89402520169492
30
0
41
1
10
-35.5039048565556
20
-3.29449151497391
30
0
41
1
10
-35.25
20
-3.69411656394058
30
0
0
SPLINE
5
D9
100
AcDbEntity
8
SK1
62
256
6
ByLayer
370
18
48
1
60
0
100
AcDbSpline
70
4
71
3
72
14
73
10
40
0
40
0
40
0
40
0
40
0.125000000000002
40
0.125000000000002
40
0.250000000000004
40
0.250000000000004
40
0.500000000000002
40
0.500000000000002
40
1
40
1
40
1
40
1
41
1
10
-35.15
20
-2.95872249990165
30
0
41
1
10
-35.15
20
-2.95136046418807
30
0
41
1
10
-35.1517507934569
20
-2.94181767385581
30
0
41
1
10
-35.1569069278761
20
-2.92202783098261
30
0
41
1
10
-35.160234831946
20
-2.91188113661255
30
0
41
1
10
-35.1714888412645
20
-2.88101453358644
30
0
41
1
10
-35.1802429568046
20
-2.86098270977334
30
0
41
1
10
-35.2083191353841
20
-2.80186934291973
30
0
41
1
10
-35.2286409685638
20
-2.76549634834817
30
0
41
1
10
-35.25
20
-2.7318790158586
30
0
0
LINE
5
76
100
AcDbEntity
8
81
62
256
6
ByLayer
370
18
48
1
60
0
100
AcDbLine
10
43
20
0
30
0
11
48
21
0
31
0
39
0
210
0
220
0
230
1
0
LINE
5
77
100
AcDbEntity
8
1
62
256
6
ByLayer
370
18
48
1
60
0
100
AcDbLine
10
4.009023
20
3.947377
30
0
11
0.8
21
3.945452
31
0
39
0
210
0
220
0
230
1
0
LINE
5
79
100
AcDbEntity
8
1
62
256
6
ByLayer
370
18
48
1
60
0
100
AcDbLine
10
21.447515
20
3.95784
30
0
11
20.868722
21
3.957493
31
0
39
0
210
0
220
0
230
1
0
LINE
5
7A
100
AcDbEntity
8
1
62
256
6
ByLayer
370
18
48
1
60
0
100
AcDbLine
10
40.847621
20
3.96948
30
0
11
40.274084
21
3.969136
31
0
39
0
210
0
220
0
230
1
0
LINE
5
7B
100
AcDbEntity
8
1
62
256
6
ByLayer
370
18
48
1
60
0
100
AcDbLine
10
40.274084
20
-3.969136
30
0
11
40.848169
21
-3.969481
31
0
39
0
210
0
220
0
230
1
0
LINE
5
7C
100
AcDbEntity
8
1
62
256
6
ByLayer
370
18
48
1
60
0
100
AcDbLine
10
20.868722
20
-3.957493
30
0
11
21.447472
21
-3.95784
31
0
39
0
210
0
220
0
230
1
0
LINE
5
7D
100
AcDbEntity
8
1
62
256
6
ByLayer
370
18
48
1
60
0
100
AcDbLine
10
0.8
20
-3.945452
30
0
11
4.009023
21
-3.947377
31
0
39
0
210
0
220
0
230
1
0
LINE
5
7E
100
AcDbEntity
8
1
62
256
6
ByLayer
370
18
48
1
60
0
100
AcDbLine
10
0
20
-4
30
0
11
0.8
21
-3.945452
31
0
39
0
210
0
220
0
230
1
0
LINE
5
7F
100
AcDbEntity
8
1
62
256
6
ByLayer
370
18
48
1
60
0
100
AcDbLine
10
0.8
20
3.945452
30
0
11
0
21
4
31
0
39
0
210
0
220
0
230
1
0
LINE
5
80
100
AcDbEntity
8
SK1
62
256
6
ByLayer
370
18
48
1
60
0
100
AcDbLine
10
-35.133975
20
4
30
0
11
-36
21
2.5
31
0
39
0
210
0
220
0
230
1
0
LINE
5
82
100
AcDbEntity
8
SK1
62
256
6
ByLayer
370
18
48
1
60
0
100
AcDbLine
10
-36
20
-2.5
30
0
11
-35.133975
21
-4
31
0
39
0
210
0
220
0
230
1
0
LINE
5
83
100
AcDbEntity
8
SK1
62
256
6
ByLayer
370
18
48
1
60
0
100
AcDbLine
10
0
20
4
30
0
11
-35.133975
21
4
31
0
39
0
210
0
220
0
230
1
0
LINE
5
84
100
AcDbEntity
8
SK1
62
256
6
ByLayer
370
18
48
1
60
0
100
AcDbLine
10
-35.133975
20
-4
30
0
11
0
21
-4
31
0
39
0
210
0
220
0
230
1
0
LINE
5
85
100
AcDbEntity
8
SK4
62
256
6
ByLayer
370
18
48
0.05
60
0
100
AcDbLine
10
48
20
0
30
0
11
-41
21
0
31
0
39
0
210
0
220
0
230
1
0
LINE
5
87
100
AcDbEntity
8
4
62
256
6
ByLayer
370
18
48
0.05
60
0
100
AcDbLine
10
43
20
0
30
0
11
0
21
0
31
0
39
0
210
0
220
0
230
1
0
LINE
5
89
100
AcDbEntity
8
80
62
256
6
ByLayer
370
18
48
1
60
0
100
AcDbLine
10
0
20
0
30
0
11
-5
21
0
31
0
39
0
210
0
220
0
230
1
0
LINE
5
8A
100
AcDbEntity
8
1
62
256
6
ByLayer
370
13
48
1
60
0
100
AcDbLine
10
41.909867
20
0.445282
30
0
11
42.894844
21
-0.139137
31
0
39
0
210
0
220
0
230
1
0
LINE
5
8B
100
AcDbEntity
8
1
62
256
6
ByLayer
370
13
48
1
60
0
100
AcDbLine
10
42.808639
20
0.780612
30
0
11
42.099774
21
0.780612
31
0
39
0
210
0
220
0
230
1
0
LINE
5
8C
100
AcDbEntity
8
1
62
256
6
ByLayer
370
18
48
1
60
0
100
AcDbLine
10
42.922532
20
-0.292442
30
0
11
42.808639
21
-0.780612
31
0
39
0
210
0
220
0
230
1
0
LINE
5
8D
100
AcDbEntity
8
1
62
256
6
ByLayer
370
18
48
1
60
0
100
AcDbLine
10
42.922532
20
0.292442
30
0
11
42.808639
21
0.780612
31
0
39
0
210
0
220
0
230
1
0
LINE
5
8E
100
AcDbEntity
8
1
62
256
6
ByLayer
370
18
48
1
60
0
100
AcDbLine
10
43
20
0
30
0
11
42.992866
21
-0.039556
31
0
39
0
210
0
220
0
230
1
0
LINE
5
8F
100
AcDbEntity
8
1
62
256
6
ByLayer
370
13
48
1
60
0
100
AcDbLine
10
42.099774
20
0.780612
30
0
11
42.922532
21
0.292442
31
0
39
0
210
0
220
0
230
1
0
LINE
5
90
100
AcDbEntity
8
1
62
256
6
ByLayer
370
18
48
1
60
0
100
AcDbLine
10
42.992866
20
0.039556
30
0
11
43
21
0
31
0
39
0
210
0
220
0
230
1
0
LINE
5
91
100
AcDbEntity
8
1
62
256
6
ByLayer
370
18
48
1
60
0
100
AcDbLine
10
43
20
0
30
0
11
41.621955
21
-3.786148
31
0
39
0
210
0
220
0
230
1
0
LINE
5
92
100
AcDbEntity
8
1
62
256
6
ByLayer
370
18
48
1
60
0
100
AcDbLine
10
0
20
-4
30
0
11
0
21
4
31
0
39
0
210
0
220
0
230
1
0
LINE
5
93
100
AcDbEntity
8
1
62
256
6
ByLayer
370
18
48
1
60
0
100
AcDbLine
10
0.8
20
3.945452
30
0
11
0.8
21
-3.945452
31
0
39
0
210
0
220
0
230
1
0
LINE
5
94
100
AcDbEntity
8
1
62
256
6
ByLayer
370
18
48
1
60
0
100
AcDbLine
10
41.01921
20
-2.076693
30
0
11
42.894844
21
-0.139137
31
0
39
0
210
0
220
0
230
1
0
LINE
5
95
100
AcDbEntity
8
SK1
62
256
6
ByLayer
370
18
48
1
60
0
100
AcDbLine
10
0
20
-4
30
0
11
0
21
4
31
0
39
0
210
0
220
0
230
1
0
LINE
5
96
100
AcDbEntity
8
SK1
62
256
6
ByLayer
370
18
48
1
60
0
100
AcDbLine
10
-35.133975
20
4
30
0
11
-35.133975
21
-4
31
0
39
0
210
0
220
0
230
1
0
LINE
5
97
100
AcDbEntity
8
SK1
62
256
6
ByLayer
370
18
48
1
60
0
100
AcDbLine
10
-36
20
2.5
30
0
11
-36
21
-1.527551
31
0
39
0
210
0
220
0
230
1
0
LINE
5
98
100
AcDbEntity
8
SK1
62
256
6
ByLayer
370
18
48
1
60
0
100
AcDbLine
10
-36
20
-2.5
30
0
11
-36
21
-2.489789
31
0
39
0
210
0
220
0
230
1
0
LINE
5
99
100
AcDbEntity
8
SK1
62
256
6
ByLayer
370
18
48
1
60
0
100
AcDbLine
10
-36
20
-1.52751
30
0
11
-36
21
-2.489789
31
0
39
0
210
0
220
0
230
1
0
LINE
5
9A
100
AcDbEntity
8
SK1
62
256
6
ByLayer
370
13
48
1
60
0
100
AcDbLine
10
-35.25
20
-2.731824
30
0
11
-35.25
21
-3.694117
31
0
39
0
210
0
220
0
230
1
0
LINE
5
9B
100
AcDbEntity
8
SK1
62
256
6
ByLayer
370
18
48
1
60
0
100
AcDbLine
10
-35.15
20
-3.824736
30
0
11
-35.15
21
-2.958722
31
0
39
0
210
0
220
0
230
1
0
MTEXT
5
DA
100
AcDbEntity
8
SK6
62
256
6
ByLayer
370
13
48
1
60
0
100
AcDbMText
10
5.629169
20
36.352694
30
0
210
0
220
0
230
1
1
\W0.7598;R840-0794-30-A1A1220
40
3.5
41
0
44
1.084337
50
0
71
8
72
5
7
iso_b_vert
0
DIMENSION
5
E7
100
AcDbEntity
8
SK2
62
256
6
ByLayer
370
13
48
1
60
0
100
AcDbDimension
2
DimnDraft3D1
10
41.65
20
-14.183398
30
0
11
19.400059
21
-14.183398
31
0
70
32
71
5
72
1
41
1
210
0
220
0
230
1
3
Standard
100
AcDbAlignedDimension
13
0
23
-1.5875
33
0
14
41.65
24
-5.5575
34
0
50
0
100
AcDbRotatedDimension
1001
ACAD
1000
DSTYLE
1002
{
1070
   279
1070
     0
1070
   172
1070
     1
1070
   173
1070
     1
1070
   340
1005
DB
1070
   271
1070
     2
1070
   272
1070
     2
1070
    77
1070
     1
1070
    73
1070
     0
1070
   171
1070
     3
1070
   274
1070
     4
1070
   177
1070
    35
1070
   176
1070
    35
1070
   178
1070
    35
1070
    48
1040
-0.005
1070
    41
1041
3.5
1070
   147
1041
1.75
1070
    42
1041
1.5875
1070
    44
1041
2.0
1070
   140
1041
3.5
1070
   343
1005
0
1070
   344
1005
0
1002
}
0
DIMENSION
5
F1
100
AcDbEntity
8
SK2
62
256
6
ByLayer
370
13
48
1
60
0
100
AcDbDimension
2
DimnDraft3D2
10
43
20
-32.692985
30
0
11
3.4913
21
-32.692985
31
0
70
32
71
5
72
1
41
1
210
0
220
0
230
1
3
Standard
100
AcDbAlignedDimension
13
-36
23
-5.5875
33
0
14
43
24
-1.5875
34
0
50
0
100
AcDbRotatedDimension
1001
ACAD
1000
DSTYLE
1002
{
1070
   279
1070
     0
1070
   172
1070
     1
1070
   173
1070
     1
1070
   340
1005
DB
1070
   271
1070
     2
1070
   272
1070
     2
1070
    77
1070
     1
1070
    73
1070
     0
1070
   171
1070
     3
1070
   274
1070
     4
1070
   177
1070
    35
1070
   176
1070
    35
1070
   178
1070
    35
1070
    48
1040
-0.005
1070
    41
1041
3.5
1070
   147
1041
1.75
1070
    42
1041
1.5875
1070
    44
1041
2.0
1070
   140
1041
3.5
1070
   343
1005
0
1070
   344
1005
0
1002
}
0
DIMENSION
5
FB
100
AcDbEntity
8
SK2
62
256
6
ByLayer
370
13
48
1
60
0
100
AcDbDimension
2
DimnDraft3D3
10
43
20
15.579119
30
0
11
30.415
21
15.579119
31
0
70
32
71
5
72
1
41
1
210
0
220
0
230
1
3
Standard
100
AcDbAlignedDimension
13
17.83
23
5.5575
33
0
14
43
24
1.5875
34
0
50
0
100
AcDbRotatedDimension
1001
ACAD
1000
DSTYLE
1002
{
1070
   279
1070
     0
1070
   172
1070
     1
1070
   173
1070
     1
1070
   340
1005
DB
1070
   271
1070
     2
1070
   272
1070
     2
1070
    77
1070
     1
1070
    73
1070
     0
1070
   171
1070
     3
1070
   274
1070
     4
1070
   177
1070
    35
1070
   176
1070
    35
1070
   178
1070
    35
1070
    48
1040
-0.005
1070
    41
1041
3.5
1070
   147
1041
1.75
1070
    42
1041
1.5875
1070
    44
1041
2.0
1070
   140
1041
3.5
1070
   343
1005
0
1070
   344
1005
0
1002
}
0
DIMENSION
5
105
100
AcDbEntity
8
SK2
62
256
6
ByLayer
370
13
48
1
60
0
100
AcDbDimension
2
DimnDraft3D4
10
41.65
20
-16.772503
30
0
11
52.981425
21
-16.772503
31
0
70
32
71
5
72
1
41
1
210
0
220
0
230
1
3
Standard
100
AcDbAlignedDimension
13
43
23
-1.5875
33
0
14
41.65
24
-5.5575
34
0
50
0
100
AcDbRotatedDimension
1001
ACAD
1000
DSTYLE
1002
{
1070
   279
1070
     0
1070
   172
1070
     1
1070
   173
1070
     1
1070
   340
1005
DB
1070
   271
1070
     2
1070
   272
1070
     2
1070
    77
1070
     1
1070
    73
1070
     0
1070
   171
1070
     3
1070
   274
1070
     4
1070
   177
1070
    35
1070
   176
1070
    35
1070
   178
1070
    35
1070
    48
1040
-0.005
1070
    41
1041
3.5
1070
   147
1041
1.75
1070
    42
1041
1.5875
1070
    44
1041
2.0
1070
   140
1041
3.5
1070
   343
1005
0
1070
   344
1005
0
1002
}
0
DIMENSION
5
10F
100
AcDbEntity
8
SK2
62
256
6
ByLayer
370
13
48
1
60
0
100
AcDbDimension
2
DimnDraft3D5
10
41.65
20
-22.343428
30
0
11
0.410676
21
-22.343428
31
0
70
32
71
5
72
1
41
1
210
0
220
0
230
1
3
Standard
100
AcDbAlignedDimension
13
-36
23
-5.5875
33
0
14
41.65
24
-5.5575
34
0
50
0
100
AcDbRotatedDimension
1001
ACAD
1000
DSTYLE
1002
{
1070
   279
1070
     0
1070
   172
1070
     1
1070
   173
1070
     1
1070
   340
1005
DB
1070
   271
1070
     2
1070
   272
1070
     2
1070
    77
1070
     1
1070
    73
1070
     0
1070
   171
1070
     3
1070
   274
1070
     4
1070
   177
1070
    35
1070
   176
1070
    35
1070
   178
1070
    35
1070
    48
1040
-0.005
1070
    41
1041
3.5
1070
   147
1041
1.75
1070
    42
1041
1.5875
1070
    44
1041
2.0
1070
   140
1041
3.5
1070
   343
1005
0
1070
   344
1005
0
1002
}
0
DIMENSION
5
11A
100
AcDbEntity
8
SK2
62
256
6
ByLayer
370
13
48
1
60
0
100
AcDbDimension
2
DimnDraft3D6
10
-46.625163
20
4
30
0
11
-47.250163
21
22.47418
31
0
70
33
71
5
72
1
41
1
210
0
220
0
230
1
3
Standard
100
AcDbAlignedDimension
13
-37.5875
23
-4
33
0
14
-37.5875
24
4
34
0
1001
ACAD
1000
DSTYLE
1002
{
1070
   279
1070
     0
1070
    74
1070
     0
1070
   173
1070
     1
1070
   340
1005
DB
1070
   271
1070
     3
1070
   272
1070
     2
1070
    77
1070
     1
1070
    73
1070
     0
1070
   171
1070
     3
1070
   274
1070
     4
1070
   177
1070
    35
1070
   176
1070
    35
1070
   178
1070
    35
1070
    48
1040
-0.005
1070
    41
1041
3.5
1070
   147
1041
1.75
1070
    42
1041
1.5875
1070
    44
1041
2.0
1070
   140
1041
3.5
1070
   343
1005
0
1070
   344
1005
0
1002
}
0
DIMENSION
5
125
100
AcDbEntity
8
2
62
256
6
ByLayer
370
13
48
1
60
0
100
AcDbDimension
2
DimnDraft3D7
10
57.083343
20
3.97
30
0
11
52.458343
21
21.037266
31
0
70
33
71
5
72
1
41
1
210
0
220
0
230
1
3
Standard
100
AcDbAlignedDimension
13
43.2375
23
-3.97
33
0
14
43.2375
24
3.97
34
0
1001
ACAD
1000
DSTYLE
1002
{
1070
   279
1070
     0
1070
    74
1070
     0
1070
   173
1070
     1
1070
   340
1005
DB
1070
   271
1070
     3
1070
   272
1070
     2
1070
    77
1070
     1
1070
    73
1070
     0
1070
   171
1070
     3
1070
   274
1070
     4
1070
   177
1070
    35
1070
   176
1070
    35
1070
   178
1070
    35
1070
    48
1040
-0.005
1070
    41
1041
3.5
1070
   147
1041
1.75
1070
    42
1041
1.5875
1070
    44
1041
2.0
1070
   140
1041
3.5
1070
   343
1005
0
1070
   344
1005
0
1002
}
0
ENDSEC
0
SECTION
2
OBJECTS
0
DICTIONARY
5
190
330
0
100
AcDbDictionary
280
0
281
1
3
ACAD_GROUP
350
191
3
ACAD_MLINESTYLE
350
192
0
DICTIONARY
5
191
330
0
100
AcDbDictionary
280
0
281
1
0
DICTIONARY
5
192
330
0
100
AcDbDictionary
280
0
281
1
3
Standard
350
18
0
MLINESTYLE
5
18
330
192
100
AcDbMlineStyle
2
Standard
70
0
3

62
256
51
90
52
90
71
2
49
-0.5
62
256
6
ByLayer
49
0.5
62
256
6
ByLayer
0
RASTERVARIABLES
5
17e
330

100
AcDbRasterVariables
90
0
70
1
71
1
72
1
0
ENDSEC
0
EOF
