0
SECTION
2
HEADER
9
$ACADVER
1
AC1015
9
$DWGCODEPAGE
3
ANSI_1252
9
$HANDSEED
5
1b2
9
$ANGBASE
50
0
9
$ANGDIR
70
0
9
$ATTMODE
70
1
9
$AUNITS
70
0
9
$AUPREC
70
0
9
$CECOLOR
62
256
9
$CELTSCALE
40
1
9
$CELTYPE
6
ByLayer
9
$CELWEIGHT
370
18
9
$CLAYER
8
0
9
$CMLJUST
70
0
9
$CMLSCALE
40
1
9
$CMLSTYLE
2
Standard
9
$DIMSTYLE
2
Standard
9
$TEXTSIZE
40
0.2
9
$TEXTSTYLE
7
Standard
9
$LUNITS
70
2
9
$LUPREC
70
4
9
$EXTNAMES
290
1
9
$INSUNITS
70
4
9
$LTSCALE
40
1
9
$LWDISPLAY
290
1
9
$PDMODE
70
0
9
$PDSIZE
40
0
9
$PLINEGEN
70
0
0
ENDSEC
0
SECTION
2
CLASSES
0
CLASS
1
RASTERVARIABLES
2
AcDbRasterVariables
3
ISM
90
0
280
0
281
0
0
ENDSEC
0
SECTION
2
TABLES
0
TABLE
2
VPORT
5
1a8
100
AcDbSymbolTable
0
VPORT
5
1
100
AcDbSymbolTableRecord
100
AcDbViewportTableRecord
2
*Active
70
0
10
0
20
0
11
1
21
1
12
-1
22
1
13
0
23
0
14
0.5
24
0.5
15
10
25
10
16
0
26
0
36
1
17
0
27
0
37
0
0
ENDTAB
0
TABLE
2
LTYPE
5
1a9
100
AcDbSymbolTable
0
LTYPE
5
14
100
AcDbSymbolTableRecord
100
AcDbLinetypeTableRecord
70
0
2
ByBlock
3

72
65
73
0
40
0
0
LTYPE
5
15
100
AcDbSymbolTableRecord
100
AcDbLinetypeTableRecord
70
0
2
ByLayer
3

72
65
73
0
40
0
0
LTYPE
5
16
100
AcDbSymbolTableRecord
100
AcDbLinetypeTableRecord
70
0
2
CONTINUOUS
3
Solid line
72
65
73
0
40
0
0
LTYPE
5
6A
100
AcDbSymbolTableRecord
100
AcDbLinetypeTableRecord
70
0
2
CENTER
3
____ _ ____ _ ____ _ ____
72
65
73
4
40
47.5
49
22
74
0
49
-8.5
74
0
49
8.5
74
0
49
-8.5
74
0
0
LTYPE
5
6B
100
AcDbSymbolTableRecord
100
AcDbLinetypeTableRecord
70
0
2
DASHED
3
__ __ __ __ __ __ __ __ __
72
65
73
2
40
25.72
49
12.86
74
0
49
-12.86
74
0
0
ENDTAB
0
TABLE
2
LAYER
5
1aa
100
AcDbSymbolTable
0
LAYER
5
10
100
AcDbSymbolTableRecord
100
AcDbLayerTableRecord
2
0
70
0
62
7
6
CONTINUOUS
290
1
370
-3
390
0
0
LAYER
5
6D
100
AcDbSymbolTableRecord
100
AcDbLayerTableRecord
2
81
70
0
62
-3
6
CONTINUOUS
290
1
370
-3
390
0
0
LAYER
5
6F
100
AcDbSymbolTableRecord
100
AcDbLayerTableRecord
2
80
70
0
62
-6
6
CONTINUOUS
290
1
370
-3
390
0
0
LAYER
5
74
100
AcDbSymbolTableRecord
100
AcDbLayerTableRecord
2
2
70
0
62
7
6
CONTINUOUS
290
1
370
-3
390
0
0
LAYER
5
78
100
AcDbSymbolTableRecord
100
AcDbLayerTableRecord
2
1
70
0
62
4
6
CONTINUOUS
290
1
370
-3
390
0
0
LAYER
5
88
100
AcDbSymbolTableRecord
100
AcDbLayerTableRecord
2
4
70
0
62
-2
6
CENTER
290
1
370
-3
390
0
0
LAYER
5
194
100
AcDbSymbolTableRecord
100
AcDbLayerTableRecord
2
SK2
70
0
62
7
6
CONTINUOUS
290
1
370
-3
390
0
0
LAYER
5
195
100
AcDbSymbolTableRecord
100
AcDbLayerTableRecord
2
SK1
70
0
62
4
6
CONTINUOUS
290
1
370
-3
390
0
0
LAYER
5
196
100
AcDbSymbolTableRecord
100
AcDbLayerTableRecord
2
SK4
70
0
62
2
6
CENTER
290
1
370
-3
390
0
0
LAYER
5
197
100
AcDbSymbolTableRecord
100
AcDbLayerTableRecord
2
SK6
70
0
62
5
6
CONTINUOUS
290
1
370
-3
390
0
0
ENDTAB
0
TABLE
2
STYLE
5
1ab
100
AcDbSymbolTable
0
STYLE
5
11
100
AcDbSymbolTableRecord
100
AcDbTextStyleTableRecord
2
Standard
3
txt
70
0
71
0
40
0
41
1
42
0
50
0
0
STYLE
5
F0
100
AcDbSymbolTableRecord
100
AcDbTextStyleTableRecord
2
iso_b_vert
3
simplex.shx
70
0
71
0
40
0
41
1
42
0
50
0
0
STYLE
5
F1
100
AcDbSymbolTableRecord
100
AcDbTextStyleTableRecord
2
DWGDirectTextStyle
3
simplex
70
0
71
0
40
0
41
1
42
0
50
0
0
ENDTAB
0
TABLE
2
DIMSTYLE
5
1ac
100
AcDbSymbolTable
100
AcDbDimStyleTable
0
DIMSTYLE
105
27
100
AcDbSymbolTableRecord
100
AcDbDimStyleTableRecord
2
Standard
70
0
3
<>
41
0.18
42
0.0625
44
0.18
140
0.18
147
0.09
73
0
74
0
77
1
271
2
275
0
278
52
280
0
340
11
0
ENDTAB
0
TABLE
2
VIEW
5
1ad
100
AcDbSymbolTable
0
ENDTAB
0
TABLE
2
UCS
5
1ae
100
AcDbSymbolTable
0
ENDTAB
0
TABLE
2
APPID
5
1af
100
AcDbSymbolTable
0
APPID
5
12
100
AcDbSymbolTableRecord
100
AcDbRegAppTableRecord
2
ACAD
70
0
0
ENDTAB
0
TABLE
2
BLOCK_RECORD
5
1b0
100
AcDbSymbolTable
0
BLOCK_RECORD
5
1F
100
AcDbSymbolTableRecord
100
AcDbBlockTableRecord
2
*Model_Space
340
0
70
0
0
BLOCK_RECORD
5
1B
100
AcDbSymbolTableRecord
100
AcDbBlockTableRecord
2
*Paper_Space
340
0
70
0
0
BLOCK_RECORD
5
23
100
AcDbSymbolTableRecord
100
AcDbBlockTableRecord
2
*Paper_Space0
340
0
70
0
0
BLOCK_RECORD
5
F3
100
AcDbSymbolTableRecord
100
AcDbBlockTableRecord
2
DimnDraft3D1
340
0
70
0
0
BLOCK_RECORD
5
FD
100
AcDbSymbolTableRecord
100
AcDbBlockTableRecord
2
DimnDraft3D2
340
0
70
0
0
BLOCK_RECORD
5
107
100
AcDbSymbolTableRecord
100
AcDbBlockTableRecord
2
DimnDraft3D3
340
0
70
0
0
BLOCK_RECORD
5
111
100
AcDbSymbolTableRecord
100
AcDbBlockTableRecord
2
DimnDraft3D4
340
0
70
0
0
BLOCK_RECORD
5
11B
100
AcDbSymbolTableRecord
100
AcDbBlockTableRecord
2
DimnDraft3D5
340
0
70
0
0
BLOCK_RECORD
5
125
100
AcDbSymbolTableRecord
100
AcDbBlockTableRecord
2
DimnDraft3D6
340
0
70
0
0
BLOCK_RECORD
5
130
100
AcDbSymbolTableRecord
100
AcDbBlockTableRecord
2
DimnDraft3D7
340
0
70
0
0
ENDTAB
0
ENDSEC
0
SECTION
2
BLOCKS
0
BLOCK
5
20
100
AcDbEntity
8
0
100
AcDbBlockBegin
2
*Model_Space
70
0
10
0
20
0
30
0
3
*Model_Space
0
ENDBLK
5
21
100
AcDbEntity
8
0
100
AcDbBlockEnd
0
BLOCK
5
1C
100
AcDbEntity
8
0
100
AcDbBlockBegin
2
*Paper_Space
70
0
10
0
20
0
30
0
3
*Paper_Space
0
ENDBLK
5
1D
100
AcDbEntity
8
0
100
AcDbBlockEnd
0
BLOCK
5
24
100
AcDbEntity
8
0
100
AcDbBlockBegin
2
*Paper_Space0
70
0
10
0
20
0
30
0
3
*Paper_Space0
0
ENDBLK
5
25
100
AcDbEntity
8
0
100
AcDbBlockEnd
0
BLOCK
5
FA
100
AcDbEntity
8
0
100
AcDbBlockBegin
2
DimnDraft3D1
70
0
10
0
20
0
30
0
3
DimnDraft3D1
0
MTEXT
5
F4
100
AcDbEntity
8
SK2
62
256
6
ByLayer
370
13
48
1
60
0
100
AcDbMText
10
20.991375
20
-13.188398
30
0
210
0
220
0
230
1
1
\W0.7402;53,69
40
3.5
41
0
44
1.084337
50
0
71
7
72
5
7
iso_b_vert
0
LINE
5
F5
100
AcDbEntity
8
SK2
62
256
6
ByLayer
370
13
48
1
60
0
100
AcDbLine
10
0
20
-1.5875
30
0
11
0
21
-16.063398
31
0
39
0
210
0
220
0
230
1
0
LINE
5
F6
100
AcDbEntity
8
SK2
62
256
6
ByLayer
370
13
48
1
60
0
100
AcDbLine
10
53.69
20
-5.4375
30
0
11
53.69
21
-16.063398
31
0
39
0
210
0
220
0
230
1
0
LINE
5
F7
100
AcDbEntity
8
SK2
62
256
6
ByLayer
370
13
48
1
60
0
100
AcDbLine
10
0
20
-14.063398
30
0
11
53.69
21
-14.063398
31
0
39
0
210
0
220
0
230
1
0
SOLID
5
F8
100
AcDbEntity
8
SK2
62
256
6
ByLayer
370
13
48
1
60
0
100
AcDbTrace
10
0
20
-14.063398
30
0
11
3.499998
21
-13.602615
31
0
12
3.500002
22
-14.524182
32
0
13
0
23
-14.063398
33
0
39
0
210
0
220
0
230
1
0
SOLID
5
F9
100
AcDbEntity
8
SK2
62
256
6
ByLayer
370
13
48
1
60
0
100
AcDbTrace
10
53.69
20
-14.063398
30
0
11
50.190002
21
-14.524182
31
0
12
50.189998
22
-13.602615
32
0
13
53.69
23
-14.063398
33
0
39
0
210
0
220
0
230
1
0
ENDBLK
5
FB
100
AcDbEntity
8
0
100
AcDbBlockEnd
0
BLOCK
5
104
100
AcDbEntity
8
0
100
AcDbBlockBegin
2
DimnDraft3D2
70
0
10
0
20
0
30
0
3
DimnDraft3D2
0
MTEXT
5
FE
100
AcDbEntity
8
SK2
62
256
6
ByLayer
370
13
48
1
60
0
100
AcDbMText
10
5.520116
20
-31.817985
30
0
210
0
220
0
230
1
1
\W0.6713;91,00
40
3.5
41
0
44
1.084337
50
0
71
7
72
5
7
iso_b_vert
0
LINE
5
FF
100
AcDbEntity
8
SK2
62
256
6
ByLayer
370
13
48
1
60
0
100
AcDbLine
10
-36
20
-5.5875
30
0
11
-36
21
-34.692985
31
0
39
0
210
0
220
0
230
1
0
LINE
5
100
100
AcDbEntity
8
SK2
62
256
6
ByLayer
370
13
48
1
60
0
100
AcDbLine
10
55
20
-1.5875
30
0
11
55
21
-34.692985
31
0
39
0
210
0
220
0
230
1
0
LINE
5
101
100
AcDbEntity
8
SK2
62
256
6
ByLayer
370
13
48
1
60
0
100
AcDbLine
10
-36
20
-32.692985
30
0
11
55
21
-32.692985
31
0
39
0
210
0
220
0
230
1
0
SOLID
5
102
100
AcDbEntity
8
SK2
62
256
6
ByLayer
370
13
48
1
60
0
100
AcDbTrace
10
-36
20
-32.692985
30
0
11
-32.500002
21
-32.232202
31
0
12
-32.499998
22
-33.153769
32
0
13
-36
23
-32.692985
33
0
39
0
210
0
220
0
230
1
0
SOLID
5
103
100
AcDbEntity
8
SK2
62
256
6
ByLayer
370
13
48
1
60
0
100
AcDbTrace
10
55
20
-32.692985
30
0
11
51.500002
21
-33.153769
31
0
12
51.499998
22
-32.232202
32
0
13
55
23
-32.692985
33
0
39
0
210
0
220
0
230
1
0
ENDBLK
5
105
100
AcDbEntity
8
0
100
AcDbBlockEnd
0
BLOCK
5
10E
100
AcDbEntity
8
0
100
AcDbBlockBegin
2
DimnDraft3D3
70
0
10
0
20
0
30
0
3
DimnDraft3D3
0
MTEXT
5
108
100
AcDbEntity
8
SK2
62
256
6
ByLayer
370
13
48
1
60
0
100
AcDbMText
10
31.083816
20
16.334119
30
0
210
0
220
0
230
1
1
\W0.7211;39,81
40
3.5
41
0
44
1.084337
50
0
71
7
72
5
7
iso_b_vert
0
LINE
5
109
100
AcDbEntity
8
SK2
62
256
6
ByLayer
370
13
48
1
60
0
100
AcDbLine
10
15.19
20
5.4375
30
0
11
15.19
21
17.459119
31
0
39
0
210
0
220
0
230
1
0
LINE
5
10A
100
AcDbEntity
8
SK2
62
256
6
ByLayer
370
13
48
1
60
0
100
AcDbLine
10
55
20
1.5875
30
0
11
55
21
17.459119
31
0
39
0
210
0
220
0
230
1
0
LINE
5
10B
100
AcDbEntity
8
SK2
62
256
6
ByLayer
370
13
48
1
60
0
100
AcDbLine
10
15.19
20
15.459119
30
0
11
55
21
15.459119
31
0
39
0
210
0
220
0
230
1
0
SOLID
5
10C
100
AcDbEntity
8
SK2
62
256
6
ByLayer
370
13
48
1
60
0
100
AcDbTrace
10
15.19
20
15.459119
30
0
11
18.689998
21
15.919903
31
0
12
18.690002
22
14.998335
32
0
13
15.19
23
15.459119
33
0
39
0
210
0
220
0
230
1
0
SOLID
5
10D
100
AcDbEntity
8
SK2
62
256
6
ByLayer
370
13
48
1
60
0
100
AcDbTrace
10
55
20
15.459119
30
0
11
51.500002
21
14.998335
31
0
12
51.499998
22
15.919903
32
0
13
55
23
15.459119
33
0
39
0
210
0
220
0
230
1
0
ENDBLK
5
10F
100
AcDbEntity
8
0
100
AcDbBlockEnd
0
BLOCK
5
118
100
AcDbEntity
8
0
100
AcDbBlockBegin
2
DimnDraft3D4
70
0
10
0
20
0
30
0
3
DimnDraft3D4
0
MTEXT
5
112
100
AcDbEntity
8
SK2
62
256
6
ByLayer
370
13
48
1
60
0
100
AcDbMText
10
62.715636
20
-15.777503
30
0
210
0
220
0
230
1
1
\W0.6132;1,31
40
3.5
41
0
44
1.084337
50
0
71
7
72
5
7
iso_b_vert
0
LINE
5
113
100
AcDbEntity
8
SK2
62
256
6
ByLayer
370
13
48
1
60
0
100
AcDbLine
10
55
20
-1.5875
30
0
11
55
21
-18.652503
31
0
39
0
210
0
220
0
230
1
0
LINE
5
114
100
AcDbEntity
8
SK2
62
256
6
ByLayer
370
13
48
1
60
0
100
AcDbLine
10
53.69
20
-5.4375
30
0
11
53.69
21
-18.652503
31
0
39
0
210
0
220
0
230
1
0
LINE
5
115
100
AcDbEntity
8
SK2
62
256
6
ByLayer
370
13
48
1
60
0
100
AcDbLine
10
44.94
20
-16.652503
30
0
11
68.122215
21
-16.652503
31
0
39
0
210
0
220
0
230
1
0
SOLID
5
116
100
AcDbEntity
8
SK2
62
256
6
ByLayer
370
13
48
1
60
0
100
AcDbTrace
10
55
20
-16.652503
30
0
11
58.499998
21
-16.191719
31
0
12
58.500002
22
-17.113287
32
0
13
55
23
-16.652503
33
0
39
0
210
0
220
0
230
1
0
SOLID
5
117
100
AcDbEntity
8
SK2
62
256
6
ByLayer
370
13
48
1
60
0
100
AcDbTrace
10
53.69
20
-16.652503
30
0
11
50.190002
21
-17.113287
31
0
12
50.189998
22
-16.191719
32
0
13
53.69
23
-16.652503
33
0
39
0
210
0
220
0
230
1
0
ENDBLK
5
119
100
AcDbEntity
8
0
100
AcDbBlockEnd
0
BLOCK
5
122
100
AcDbEntity
8
0
100
AcDbBlockBegin
2
DimnDraft3D5
70
0
10
0
20
0
30
0
3
DimnDraft3D5
0
MTEXT
5
11C
100
AcDbEntity
8
SK2
62
256
6
ByLayer
370
13
48
1
60
0
100
AcDbMText
10
2.001992
20
-21.468428
30
0
210
0
220
0
230
1
1
\W0.7402;89,69
40
3.5
41
0
44
1.084337
50
0
71
7
72
5
7
iso_b_vert
0
LINE
5
11D
100
AcDbEntity
8
SK2
62
256
6
ByLayer
370
13
48
1
60
0
100
AcDbLine
10
-36
20
-5.5875
30
0
11
-36
21
-24.343428
31
0
39
0
210
0
220
0
230
1
0
LINE
5
11E
100
AcDbEntity
8
SK2
62
256
6
ByLayer
370
13
48
1
60
0
100
AcDbLine
10
53.69
20
-5.4375
30
0
11
53.69
21
-24.343428
31
0
39
0
210
0
220
0
230
1
0
LINE
5
11F
100
AcDbEntity
8
SK2
62
256
6
ByLayer
370
13
48
1
60
0
100
AcDbLine
10
-36
20
-22.343428
30
0
11
53.69
21
-22.343428
31
0
39
0
210
0
220
0
230
1
0
SOLID
5
120
100
AcDbEntity
8
SK2
62
256
6
ByLayer
370
13
48
1
60
0
100
AcDbTrace
10
-36
20
-22.343428
30
0
11
-32.500002
21
-21.882645
31
0
12
-32.499998
22
-22.804212
32
0
13
-36
23
-22.343428
33
0
39
0
210
0
220
0
230
1
0
SOLID
5
121
100
AcDbEntity
8
SK2
62
256
6
ByLayer
370
13
48
1
60
0
100
AcDbTrace
10
53.69
20
-22.343428
30
0
11
50.190002
21
-22.804212
31
0
12
50.189998
22
-21.882645
32
0
13
53.69
23
-22.343428
33
0
39
0
210
0
220
0
230
1
0
ENDBLK
5
123
100
AcDbEntity
8
0
100
AcDbBlockEnd
0
BLOCK
5
12D
100
AcDbEntity
8
0
100
AcDbBlockBegin
2
DimnDraft3D6
70
0
10
0
20
0
30
0
3
DimnDraft3D6
0
MTEXT
5
126
100
AcDbEntity
8
SK2
62
256
6
ByLayer
370
13
48
1
60
0
100
AcDbMText
10
-46.375163
20
23.34918
30
0
210
0
220
0
230
1
1
\W0.7317;8,000
40
3.5
41
0
44
1.084337
50
90
71
7
72
5
7
iso_b_vert
0
MTEXT
5
127
100
AcDbEntity
8
SK2
62
256
6
ByLayer
370
13
48
1
60
0
100
AcDbMText
10
-46.375163
20
18.126524
30
0
210
0
220
0
230
1
1
%%c
40
3.5
41
0
44
1.084337
50
90
71
7
72
5
7
iso_b_vert
0
LINE
5
128
100
AcDbEntity
8
SK2
62
256
6
ByLayer
370
13
48
1
60
0
100
AcDbLine
10
-37.5875
20
-4
30
0
11
-46.625163
21
-4
31
0
39
0
210
0
220
0
230
1
0
LINE
5
129
100
AcDbEntity
8
SK2
62
256
6
ByLayer
370
13
48
1
60
0
100
AcDbLine
10
-37.5875
20
4
30
0
11
-46.625163
21
4
31
0
39
0
210
0
220
0
230
1
0
LINE
5
12A
100
AcDbEntity
8
SK2
62
256
6
ByLayer
370
13
48
1
60
0
100
AcDbLine
10
-44.625163
20
-4
30
0
11
-44.625163
21
33.121549
31
0
39
0
210
0
220
0
230
1
0
SOLID
5
12B
100
AcDbEntity
8
SK2
62
256
6
ByLayer
370
13
48
1
60
0
100
AcDbTrace
10
-44.625163
20
-4
30
0
11
-45.085946
21
-0.500002
31
0
12
-44.164379
22
-0.499998
32
0
13
-44.625163
23
-4
33
0
39
0
210
0
220
0
230
1
0
SOLID
5
12C
100
AcDbEntity
8
SK2
62
256
6
ByLayer
370
13
48
1
60
0
100
AcDbTrace
10
-44.625163
20
4
30
0
11
-44.164379
21
0.500002
31
0
12
-45.085946
22
0.499998
32
0
13
-44.625163
23
4
33
0
39
0
210
0
220
0
230
1
0
ENDBLK
5
12E
100
AcDbEntity
8
0
100
AcDbBlockEnd
0
BLOCK
5
138
100
AcDbEntity
8
0
100
AcDbBlockBegin
2
DimnDraft3D7
70
0
10
0
20
0
30
0
3
DimnDraft3D7
0
MTEXT
5
131
100
AcDbEntity
8
2
62
256
6
ByLayer
370
13
48
1
60
0
100
AcDbMText
10
65.333343
20
21.792266
30
0
210
0
220
0
230
1
1
\W0.7317;7,700
40
3.5
41
0
44
1.084337
50
90
71
7
72
5
7
iso_b_vert
0
MTEXT
5
132
100
AcDbEntity
8
2
62
256
6
ByLayer
370
13
48
1
60
0
100
AcDbMText
10
65.333343
20
16.56961
30
0
210
0
220
0
230
1
1
%%c
40
3.5
41
0
44
1.084337
50
90
71
7
72
5
7
iso_b_vert
0
LINE
5
133
100
AcDbEntity
8
2
62
256
6
ByLayer
370
13
48
1
60
0
100
AcDbLine
10
55.2775
20
-3.85
30
0
11
69.083343
21
-3.85
31
0
39
0
210
0
220
0
230
1
0
LINE
5
134
100
AcDbEntity
8
2
62
256
6
ByLayer
370
13
48
1
60
0
100
AcDbLine
10
55.2775
20
3.85
30
0
11
69.083343
21
3.85
31
0
39
0
210
0
220
0
230
1
0
LINE
5
135
100
AcDbEntity
8
2
62
256
6
ByLayer
370
13
48
1
60
0
100
AcDbLine
10
67.083343
20
-3.85
30
0
11
67.083343
21
31.564635
31
0
39
0
210
0
220
0
230
1
0
SOLID
5
136
100
AcDbEntity
8
2
62
256
6
ByLayer
370
13
48
1
60
0
100
AcDbTrace
10
67.083343
20
-3.85
30
0
11
66.622559
21
-0.350002
31
0
12
67.544126
22
-0.349998
32
0
13
67.083343
23
-3.85
33
0
39
0
210
0
220
0
230
1
0
SOLID
5
137
100
AcDbEntity
8
2
62
256
6
ByLayer
370
13
48
1
60
0
100
AcDbTrace
10
67.083343
20
3.85
30
0
11
67.544126
21
0.350002
31
0
12
66.622559
22
0.349998
32
0
13
67.083343
23
3.85
33
0
39
0
210
0
220
0
230
1
0
ENDBLK
5
139
100
AcDbEntity
8
0
100
AcDbBlockEnd
0
ENDSEC
0
SECTION
2
ENTITIES
0
ARC
5
9D
100
AcDbEntity
8
1
62
256
6
ByLayer
370
18
48
1
60
0
100
AcDbCircle
39
0
10
-0.335408
20
4.017949
30
0
40
0.199999999999997
210
0
220
0
230
-1
100
AcDbArc
50
269.965623
51
326.98404
0
ARC
5
9E
100
AcDbEntity
8
1
62
256
6
ByLayer
370
18
48
1
60
0
100
AcDbCircle
39
0
10
0
20
3.8
30
0
40
0.200000000000003
210
0
220
0
230
1
100
AcDbArc
50
33.01596
51
90
0
ARC
5
9F
100
AcDbEntity
8
1
62
256
6
ByLayer
370
18
48
1
60
0
100
AcDbCircle
39
0
10
0
20
-3.8
30
0
40
0.200000000000003
210
0
220
0
230
1
100
AcDbArc
50
270
51
326.98404
0
ARC
5
A0
100
AcDbEntity
8
1
62
256
6
ByLayer
370
18
48
1
60
0
100
AcDbCircle
39
0
10
-0.335408
20
-4.017949
30
0
40
0.199999999999997
210
0
220
0
230
-1
100
AcDbArc
50
33.01596
51
90.034377
0
ELLIPSE
5
A1
100
AcDbEntity
8
1
62
256
6
ByLayer
370
18
48
1
60
0
100
AcDbEllipse
10
4.25
20
3.892349
30
0
11
0.25
21
0
31
0
210
0
220
0
230
1
40
0.999999
41
-2.79971441181299
42
-1.56155322552636
0
ELLIPSE
5
A2
100
AcDbEntity
8
1
62
256
6
ByLayer
370
18
48
1
60
0
100
AcDbEllipse
10
4.25
20
-3.892349
30
0
11
0.25
21
0
31
0
210
0
220
0
230
1
40
0.999999
41
1.57093344993258
42
2.81507180659014
0
ELLIPSE
5
A3
100
AcDbEntity
8
1
62
256
6
ByLayer
370
18
48
1
60
0
100
AcDbEllipse
10
54.860361
20
0.115469
30
0
11
0.0727819104919187
21
0.301917195719868
31
0
210
0
220
0
230
-1
40
0.478434
41
1.71249629151221
42
2.45976119973148
0
ELLIPSE
5
A4
100
AcDbEntity
8
1
62
256
6
ByLayer
370
13
48
1
60
0
100
AcDbEllipse
10
4.171921
20
0.246286
30
0
11
0.0535695155348342
21
0.0844411452158434
31
0
210
0
220
0
230
1
40
0.433373
41
1.90270065524702
42
-3.10131702669427
0
ELLIPSE
5
A5
100
AcDbEntity
8
1
62
256
6
ByLayer
370
18
48
1
60
0
100
AcDbEllipse
10
54.246274
20
-1.910306
30
0
11
0.596991775041588
21
1.61553748194873
31
0
210
0
220
0
230
-1
40
0.115174
41
0.742863466705196
42
1.51461169556433
0
ELLIPSE
5
A6
100
AcDbEntity
8
1
62
256
6
ByLayer
370
13
48
1
60
0
100
AcDbEllipse
10
54.119944
20
0.554783
30
0
11
0.153082081612419
21
0.258003636193773
31
0
210
0
220
0
230
1
40
0.454519
41
0.917105603404884
42
2.31336900500022
0
ELLIPSE
5
A7
100
AcDbEntity
8
1
62
256
6
ByLayer
370
18
48
1
60
0
100
AcDbEllipse
10
55.000346
20
-0.000841
30
0
11
1.42168513782337
21
-3.84726508876717
31
0
210
0
220
0
230
-1
40
0.115174
41
-2.97126106806579
42
-2.86495262700965
0
ELLIPSE
5
A8
100
AcDbEntity
8
1
62
256
6
ByLayer
370
13
48
1
60
0
100
AcDbEllipse
10
54.455902
20
1.787109
30
0
11
2.20043721114021
21
-1.51506359232464
31
0
210
0
220
0
230
-1
40
0.533762
41
1.44484622740916
42
1.70930728805949
0
ELLIPSE
5
A9
100
AcDbEntity
8
1
62
256
6
ByLayer
370
18
48
1
60
0
100
AcDbEllipse
10
55.044787
20
-0.006043
30
0
11
0.137979128819064
21
0.428995648018993
31
0
210
0
220
0
230
-1
40
0.08774
41
-2.32337572123698
42
-1.67437722766048
0
ELLIPSE
5
AA
100
AcDbEntity
8
1
62
256
6
ByLayer
370
13
48
1
60
0
100
AcDbEllipse
10
4.250228
20
0.197978
30
0
11
0.0517683788850493
21
0.0855572027804438
31
0
210
0
220
0
230
1
40
0.028585
41
3.11626059110966
42
-1.61507263416226
0
ELLIPSE
5
AB
100
AcDbEntity
8
1
62
256
6
ByLayer
370
13
48
1
60
0
100
AcDbEllipse
10
54.645808
20
1.910306
30
0
11
2.272802087582
21
-1.16762346620809
31
0
210
0
220
0
230
-1
40
0.492183
41
1.54937228804783
42
1.82601310310966
0
ELLIPSE
5
AC
100
AcDbEntity
8
1
62
256
6
ByLayer
370
18
48
1
60
0
100
AcDbEllipse
10
55.044787
20
0.006043
30
0
11
0.13797912888779
21
-0.42899564819483
31
0
210
0
220
0
230
-1
40
0.08774
41
1.6743772279371
42
2.32337572128139
0
ELLIPSE
5
AD
100
AcDbEntity
8
1
62
256
6
ByLayer
370
18
48
1
60
0
100
AcDbEllipse
10
54.246274
20
1.910306
30
0
11
0.596991775059066
21
-1.61553748198578
31
0
210
0
220
0
230
-1
40
0.115174
41
-1.5146116955465
42
-0.742863466702698
0
ELLIPSE
5
AE
100
AcDbEntity
8
1
62
256
6
ByLayer
370
18
48
1
60
0
100
AcDbEllipse
10
55.000346
20
0.000841
30
0
11
1.42168514802056
21
3.84726511883445
31
0
210
0
220
0
230
-1
40
0.115174
41
2.86495262810095
42
2.97126106873439
0
POINT
5
6C
100
AcDbEntity
8
81
62
256
6
ByLayer
370
18
48
1
60
0
100
AcDbPoint
10
55
20
0
30
0
39
0
210
0
220
0
230
1
50
360
0
POINT
5
6E
100
AcDbEntity
8
80
62
256
6
ByLayer
370
18
48
1
60
0
100
AcDbPoint
10
0
20
0
30
0
39
0
210
0
220
0
230
1
50
360
0
POINT
5
70
100
AcDbEntity
8
SK2
62
256
6
ByLayer
370
18
48
1
60
1
100
AcDbPoint
10
-36
20
-4
30
0
39
0
210
0
220
0
230
1
50
360
0
POINT
5
72
100
AcDbEntity
8
SK2
62
256
6
ByLayer
370
18
48
1
60
1
100
AcDbPoint
10
-36
20
4
30
0
39
0
210
0
220
0
230
1
50
360
0
POINT
5
73
100
AcDbEntity
8
2
62
256
6
ByLayer
370
18
48
1
60
1
100
AcDbPoint
10
53.69
20
-3.85
30
0
39
0
210
0
220
0
230
1
50
360
0
POINT
5
75
100
AcDbEntity
8
2
62
256
6
ByLayer
370
18
48
1
60
1
100
AcDbPoint
10
53.69
20
3.85
30
0
39
0
210
0
220
0
230
1
50
360
0
SPLINE
5
AF
100
AcDbEntity
8
1
62
256
6
ByLayer
370
18
48
1
60
0
100
AcDbSpline
70
4
71
2
72
6
73
3
40
0
40
0
40
0
40
1
40
1
40
1
41
1
10
4.79568989446852
20
3.64430775244657
30
0
41
1
10
4.52319742562887
20
3.64381985354936
30
0
41
1
10
4.25109765278367
20
3.64202947148417
30
0
0
SPLINE
5
B0
100
AcDbEntity
8
1
62
256
6
ByLayer
370
18
48
1
60
0
100
AcDbSpline
70
4
71
3
72
10
73
6
40
0
40
0
40
0
40
0
40
0.135666221633778
40
0.387813460066218
40
1
40
1
40
1
40
1
41
1
10
24.8178809107649
20
-0.99463087159674
30
0
41
1
10
24.8178010315955
20
-0.995051371612561
30
0
41
1
10
24.8264256544275
20
-1.00044352472858
30
0
41
1
10
24.8801205818428
20
-1.02981577148375
30
0
41
1
10
24.955470075392
20
-1.07478743933291
30
0
41
1
10
25.0269422283334
20
-1.11762141140096
30
0
0
SPLINE
5
B1
100
AcDbEntity
8
1
62
256
6
ByLayer
370
18
48
1
60
0
100
AcDbSpline
70
4
71
3
72
26
73
22
40
0
40
0
40
0
40
0
40
0.0397274216758882
40
0.106080417248885
40
0.14761470606347
40
0.175908988587248
40
0.207927246153091
40
0.282129402764004
40
0.358212864292498
40
0.410335231729576
40
0.447703491444739
40
0.488327928260729
40
0.542123520657979
40
0.619157447153348
40
0.698447859573634
40
0.76867262608075
40
0.83006774632404
40
0.869409921190858
40
0.909198089009941
40
0.950037906300312
40
1
40
1
40
1
40
1
41
1
10
43.375409196466
20
3.665808163799
30
0
41
1
10
43.2690694998178
20
3.66538071584452
30
0
41
1
10
42.9851210763429
20
3.66451388024268
30
0
41
1
10
42.5899521639065
20
3.66440814731513
30
0
41
1
10
42.2254615513358
20
3.66514712226271
30
0
41
1
10
41.9528520607681
20
3.66543173304925
30
0
41
1
10
41.592766764933
20
3.66443013584609
30
0
41
1
10
41.1047574995908
20
3.66339257116962
30
0
41
1
10
40.5629289980026
20
3.66501209890598
30
0
41
1
10
40.1197074063608
20
3.66323272965036
30
0
41
1
10
39.7714082864811
20
3.66259236532102
30
0
41
1
10
39.4186386270236
20
3.66284507411618
30
0
41
1
10
38.9596941820938
20
3.66342667759903
30
0
41
1
10
38.3973282728011
20
3.66130258159626
30
0
41
1
10
37.7909199199785
20
3.66219216722539
30
0
41
1
10
37.2262745120157
20
3.66190041106469
30
0
41
1
10
36.7688038317675
20
3.6609684602044
30
0
41
1
10
36.3927925122084
20
3.66111650943714
30
0
41
1
10
36.07169559457
20
3.66109176119548
30
0
41
1
10
35.7221162406221
20
3.66079783193899
30
0
41
1
10
35.4790974266043
20
3.66044285549347
30
0
41
1
10
35.3453706906273
20
3.6602990621235
30
0
0
SPLINE
5
B2
100
AcDbEntity
8
1
62
256
6
ByLayer
370
18
48
1
60
0
100
AcDbSpline
70
4
71
3
72
23
73
19
40
0
40
0
40
0
40
0
40
0.11054783794411
40
0.20113496747788
40
0.274593440660003
40
0.33415675682722
40
0.383761590192082
40
0.433386175949769
40
0.49736122020295
40
0.587105463185597
40
0.667839184036487
40
0.735753386507226
40
0.765649086945378
40
0.793180181352193
40
0.821922014738259
40
0.872075016936773
40
0.946873634465548
40
1
40
1
40
1
40
1
41
1
10
14.223863151636
20
-3.6473212194648
30
0
41
1
10
14.5800141756257
20
-3.64684294648367
30
0
41
1
10
15.2285027815799
20
-3.64659122604394
30
0
41
1
10
16.1236022797183
20
-3.64722852875323
30
0
41
1
10
16.8407220083654
20
-3.64958666666723
30
0
41
1
10
17.4337554811138
20
-3.64966714342629
30
0
41
1
10
17.9488490116282
20
-3.65104167524561
30
0
41
1
10
18.4784588262593
20
-3.65006432734282
30
0
41
1
10
19.1377257451983
20
-3.65173706119086
30
0
41
1
10
19.8970613345847
20
-3.64979172942571
30
0
41
1
10
20.6712960703869
20
-3.65276218219361
30
0
41
1
10
21.249554737226
20
-3.65252075139398
30
0
41
1
10
21.6538910068647
20
-3.65213662938285
30
0
41
1
10
21.9313412712023
20
-3.65229212358065
30
0
41
1
10
22.2743993880364
20
-3.65380256186029
30
0
41
1
10
22.7740366124112
20
-3.65394873823465
30
0
41
1
10
23.3515304463574
20
-3.65291694781126
30
0
41
1
10
23.7659217871338
20
-3.65383821286247
30
0
41
1
10
23.9378994075984
20
-3.65434552344314
30
0
0
SPLINE
5
B3
100
AcDbEntity
8
1
62
256
6
ByLayer
370
18
48
1
60
0
100
AcDbSpline
70
4
71
2
72
6
73
3
40
0
40
0
40
0
40
1
40
1
40
1
41
1
10
53.0937328291919
20
-3.67073771772831
30
0
41
1
10
53.379234469436
20
-3.66889941679841
30
0
41
1
10
53.6645084908452
20
-3.67197706254595
30
0
0
SPLINE
5
B4
100
AcDbEntity
8
1
62
256
6
ByLayer
370
18
48
1
60
0
100
AcDbSpline
70
4
71
3
72
27
73
23
40
0
40
0
40
0
40
0
40
0.0620213206306519
40
0.113502305285309
40
0.149081767488723
40
0.175786664736535
40
0.206668761220377
40
0.24202786681535
40
0.280587210835121
40
0.317887795419602
40
0.424381271722554
40
0.518812450190091
40
0.586278685643333
40
0.654681982123825
40
0.725543596537423
40
0.749805701626897
40
0.772332576676165
40
0.793122424543776
40
0.818861361897051
40
0.87210796172653
40
0.946817834114325
40
1
40
1
40
1
40
1
41
1
10
33.6774558604631
20
-3.65922286828075
30
0
41
1
10
33.8778230785006
20
-3.65939647491351
30
0
41
1
10
34.2445444779227
20
-3.65967656029767
30
0
41
1
10
34.7264241257425
20
-3.66010187035741
30
0
41
1
10
35.0940634279817
20
-3.66018267253415
30
0
41
1
10
35.3951540789606
20
-3.66027554507607
30
0
41
1
10
35.6955486041979
20
-3.66075684384472
30
0
41
1
10
36.0342547888296
20
-3.66109895448653
30
0
41
1
10
36.3937020840104
20
-3.66109385377649
30
0
41
1
10
36.9830357168492
20
-3.66106376130938
30
0
41
1
10
37.752993713576
20
-3.66227057701195
30
0
41
1
10
38.620380913385
20
-3.66240155590384
30
0
41
1
10
39.3647128116783
20
-3.6631316548343
30
0
41
1
10
40.0328553174203
20
-3.66253636699591
30
0
41
1
10
40.5613669993107
20
-3.66474036084475
30
0
41
1
10
40.9416055307373
20
-3.66408278000569
30
0
41
1
10
41.1600157138366
20
-3.66383731561584
30
0
41
1
10
41.3832011451651
20
-3.663782949454
30
0
41
1
10
41.7056654906497
20
-3.66474309111177
30
0
41
1
10
42.2023757158068
20
-3.66574636982776
30
0
41
1
10
42.7878310083126
20
-3.66370129613162
30
0
41
1
10
43.2011274014084
20
-3.66512766232415
30
0
41
1
10
43.3729868379078
20
-3.66588887300975
30
0
0
SPLINE
5
B5
100
AcDbEntity
8
1
62
256
6
ByLayer
370
18
48
1
60
0
100
AcDbSpline
70
4
71
3
72
25
73
21
40
0
40
0
40
0
40
0
40
0.0391414235588949
40
0.104885725395547
40
0.14879378049939
40
0.194197339115402
40
0.253557323780275
40
0.324318277996876
40
0.42188519318768
40
0.496621324587697
40
0.559444754182726
40
0.601625872415439
40
0.643302121437317
40
0.69070108631137
40
0.751378683239898
40
0.81807029966509
40
0.862513862916908
40
0.896314372558396
40
0.940725338907879
40
1
40
1
40
1
40
1
41
1
10
23.992706608477
20
3.6548603403169
30
0
41
1
10
23.8873466154267
20
3.65480886342067
30
0
41
1
10
23.605017715906
20
3.65470613465098
30
0
41
1
10
23.2044472679731
20
3.65306193391089
30
0
41
1
10
22.7871080325585
20
3.65433142941149
30
0
41
1
10
22.3868638677105
20
3.65531401338521
30
0
41
1
10
21.9143785252913
20
3.65177268454508
30
0
41
1
10
21.3022510795178
20
3.65239012235313
30
0
41
1
10
20.6479437610176
20
3.6525780497027
30
0
41
1
10
20.0149630751218
20
3.65056533332316
30
0
41
1
10
19.5322229891937
20
3.65210401758174
30
0
41
1
10
19.1374104699405
20
3.6515691174159
30
0
41
1
10
18.7840614898848
20
3.6504126463972
30
0
41
1
10
18.3809249243786
20
3.65038807660161
30
0
41
1
10
17.910444950236
20
3.65100116416497
30
0
41
1
10
17.4479148589536
20
3.64974461259271
30
0
41
1
10
17.0577330680371
20
3.64938658135714
30
0
41
1
10
16.7277988180784
20
3.64937479016709
30
0
41
1
10
16.3575629713336
20
3.6495451598374
30
0
41
1
10
16.07855273484
20
3.64900634283032
30
0
41
1
10
15.9190269894454
20
3.6487686342231
30
0
0
SPLINE
5
B6
100
AcDbEntity
8
1
62
256
6
ByLayer
370
18
48
1
60
0
100
AcDbSpline
70
4
71
3
72
11
73
7
40
0
40
0
40
0
40
0
40
0.0739681391043831
40
0.330814246549334
40
0.651221412100898
40
1
40
1
40
1
40
1
41
1
10
44.1869453289606
20
-0.978851606486614
30
0
41
1
10
44.1867938067499
20
-0.978775610174353
30
0
41
1
10
44.1891779163508
20
-0.979855349967949
30
0
41
1
10
44.2308670868688
20
-1.00012322617531
30
0
41
1
10
44.3214990797972
20
-1.05472865920044
30
0
41
1
10
44.4057099126068
20
-1.10475948579898
30
0
41
1
10
44.4553485376198
20
-1.13467711620336
30
0
0
SPLINE
5
B7
100
AcDbEntity
8
1
62
256
6
ByLayer
370
18
48
1
60
0
100
AcDbSpline
70
4
71
2
72
6
73
3
40
0
40
0
40
0
40
1
40
1
40
1
41
1
10
4.25109765315148
20
-3.64202947148635
30
0
41
1
10
4.5307804073189
20
-3.64386231665159
30
0
41
1
10
4.81086679805662
20
-3.64435639125068
30
0
0
SPLINE
5
B8
100
AcDbEntity
8
1
62
256
6
ByLayer
370
18
48
1
60
0
100
AcDbSpline
70
4
71
3
72
14
73
10
40
0
40
0
40
0
40
0
40
0.25
40
0.25
40
0.5
40
0.5
40
0.75
40
0.75
40
1
40
1
40
1
40
1
41
1
10
53.3511526789287
20
0.833031020527301
30
0
41
1
10
53.345414516387
20
0.861693310621973
30
0
41
1
10
53.3436426292333
20
0.890956659477098
30
0
41
1
10
53.3498888331341
20
0.951117052506106
30
0
41
1
10
53.3579167335403
20
0.981037925199189
30
0
41
1
10
53.3859712736892
20
1.03704133731554
30
0
41
1
10
53.4058570342092
20
1.06236895528093
30
0
41
1
10
53.4558769635267
20
1.10201439373537
30
0
41
1
10
53.4852331866471
20
1.115289277024
30
0
41
1
10
53.5159577182869
20
1.12267791045608
30
0
0
SPLINE
5
B9
100
AcDbEntity
8
1
62
256
6
ByLayer
370
18
48
1
60
0
100
AcDbSpline
70
4
71
3
72
66
73
62
40
0
40
0
40
0
40
0
40
0.0624512100809708
40
0.0624512100809708
40
0.0936768151214565
40
0.0936768151214565
40
0.124902420161942
40
0.124902420161942
40
0.156128025202428
40
0.156128025202428
40
0.187353630242914
40
0.187353630242914
40
0.2185792352834
40
0.2185792352834
40
0.249804840323885
40
0.249804840323885
40
0.281030445364371
40
0.281030445364371
40
0.312256050404857
40
0.312256050404857
40
0.343481655445342
40
0.343481655445342
40
0.374707260485828
40
0.374707260485828
40
0.4371584705668
40
0.4371584705668
40
0.468384075607285
40
0.468384075607285
40
0.499609680647771
40
0.499609680647771
40
0.530835285688257
40
0.530835285688257
40
0.562060890728742
40
0.562060890728742
40
0.593286495769228
40
0.593286495769228
40
0.624512100809714
40
0.624512100809714
40
0.6557377058502
40
0.6557377058502
40
0.686963310890685
40
0.686963310890685
40
0.718188915931169
40
0.718188915931169
40
0.749414520971654
40
0.749414520971654
40
0.780640126012138
40
0.780640126012138
40
0.811865731052622
40
0.811865731052622
40
0.874316941133591
40
0.874316941133591
40
0.905542546174075
40
0.905542546174075
40
0.936768151214559
40
0.936768151214559
40
0.967993756255044
40
0.967993756255044
40
0.999219361295528
40
0.999219361295528
40
1
40
1
40
1
40
1
41
1
10
11.9985850816032
20
3.71298180445564
30
0
41
1
10
12.4337351309869
20
3.7786044500385
30
0
41
1
10
12.8698976604093
20
3.81514396639099
30
0
41
1
10
13.5218839277914
20
3.82821114193837
30
0
41
1
10
13.7389150735117
20
3.82538142680244
30
0
41
1
10
14.1754993327902
20
3.80549885992122
30
0
41
1
10
14.3935757342698
20
3.78853641296223
30
0
41
1
10
14.8287823287937
20
3.74057363540717
30
0
41
1
10
15.0454612514175
20
3.70934172465931
30
0
41
1
10
15.4800421707813
20
3.6333658732255
30
0
41
1
10
15.6981333178764
20
3.58878758456382
30
0
41
1
10
16.1348964170494
20
3.48618610515564
30
0
41
1
10
16.35262856921
20
3.42834867117051
30
0
41
1
10
16.7866465202591
20
3.29928879334537
30
0
41
1
10
17.0039086729068
20
3.2288093923915
30
0
41
1
10
17.4393656641988
20
3.07661842986101
30
0
41
1
10
17.6574384773784
20
2.99473681347359
30
0
41
1
10
18.0934106351994
20
2.81878240800808
30
0
41
1
10
18.3102576968016
20
2.72480963111627
30
0
41
1
10
18.7453209427394
20
2.52911687713072
30
0
41
1
10
18.9630286453732
20
2.42687494053371
30
0
41
1
10
19.3982646473676
20
2.21296020590415
30
0
41
1
10
19.6154940219236
20
2.10068161363867
30
0
41
1
10
20.2688064991101
20
1.75285086558813
30
0
41
1
10
20.704793971636
20
1.51064156743871
30
0
41
1
10
21.3558792184764
20
1.12666422652461
30
0
41
1
10
21.5734285670692
20
0.996453318761297
30
0
41
1
10
22.0099448370895
20
0.733847530404461
30
0
41
1
10
22.2278755406229
20
0.601462716745857
30
0
41
1
10
22.6625859193593
20
0.333731947540713
30
0
41
1
10
22.8790522218671
20
0.197871892923359
30
0
41
1
10
23.314015026078
20
-0.0716791708363473
30
0
41
1
10
23.5322094329547
20
-0.206174439169018
30
0
41
1
10
23.9685640560763
20
-0.474951376990248
30
0
41
1
10
24.1857312300979
20
-0.609288861785387
30
0
41
1
10
24.619707389739
20
-0.87514506835484
30
0
41
1
10
24.8372671717362
20
-1.00548758205918
30
0
41
1
10
25.2726700454812
20
-1.26242664809683
30
0
41
1
10
25.4907302659635
20
-1.38904849792442
30
0
41
1
10
25.9259427840529
20
-1.63868515892111
30
0
41
1
10
26.143055247852
20
-1.76040019665365
30
0
41
1
10
26.5781709988208
20
-1.99510441060079
30
0
41
1
10
26.7957875943559
20
-2.1086736923323
30
0
41
1
10
27.2306403229265
20
-2.32886429240497
30
0
41
1
10
27.4476600020677
20
-2.43605407766552
30
0
41
1
10
27.8834491351902
20
-2.63908875216205
30
0
41
1
10
28.1013187389049
20
-2.73514709974225
30
0
41
1
10
28.5364090863832
20
-2.91722173602517
30
0
41
1
10
28.7534277756624
20
-3.00342532861413
30
0
41
1
10
29.4043308879545
20
-3.24565985311187
30
0
41
1
10
29.8424474377403
20
-3.38227012386159
30
0
41
1
10
30.4935560026289
20
-3.55017318752172
30
0
41
1
10
30.7102005369854
20
-3.59971574106251
30
0
41
1
10
31.1453441246293
20
-3.68458956353231
30
0
41
1
10
31.3636042405298
20
-3.72027623232995
30
0
41
1
10
31.7994411057187
20
-3.77796852767673
30
0
41
1
10
32.0160994551827
20
-3.79997214555112
30
0
41
1
10
32.4504587202639
20
-3.82939162969146
30
0
41
1
10
32.6680290564909
20
-3.83695075612869
30
0
41
1
10
32.8910919668151
20
-3.83747650966805
30
0
41
1
10
32.8965326426639
20
-3.83748490015412
30
0
41
1
10
32.9019734346163
20
-3.8374888549717
30
0
0
SPLINE
5
BA
100
AcDbEntity
8
1
62
256
6
ByLayer
370
18
48
1
60
0
100
AcDbSpline
70
4
71
3
72
26
73
22
40
0
40
0
40
0
40
0
40
0.0344438204551151
40
0.0344438204551151
40
0.141727840404546
40
0.141727840404546
40
0.249011860353978
40
0.249011860353978
40
0.35629588030341
40
0.35629588030341
40
0.463579900252842
40
0.463579900252842
40
0.570863920202273
40
0.570863920202273
40
0.678147940151705
40
0.678147940151705
40
0.785431960101136
40
0.785431960101136
40
0.892715980050568
40
0.892715980050568
40
1
40
1
40
1
40
1
41
1
10
47.6776291751513
20
2.81573414006391
30
0
41
1
10
47.7473187896476
20
2.84538032910834
30
0
41
1
10
47.8170309765571
20
2.8744372628677
30
0
41
1
10
48.1041090701739
20
2.99144046259627
30
0
41
1
10
48.3215568534391
20
3.0744555996987
30
0
41
1
10
48.7562325937127
20
3.22976483789131
30
0
41
1
10
48.9733741976682
20
3.30245227792648
30
0
41
1
10
49.4083570503085
20
3.43369210062198
30
0
41
1
10
49.6259096994066
20
3.49260876796572
30
0
41
1
10
50.0605261602951
20
3.59766880963133
30
0
41
1
10
50.2774098460063
20
3.64388785521058
30
0
41
1
10
50.7111372284713
20
3.72289784398157
30
0
41
1
10
50.9292838340313
20
3.75530250818724
30
0
41
1
10
51.3648099091349
20
3.80602344333838
30
0
41
1
10
51.582221120972
20
3.82438051864773
30
0
41
1
10
52.0158100652571
20
3.84702159412595
30
0
41
1
10
52.2322208831495
20
3.8511801936171
30
0
41
1
10
52.6670852280533
20
3.84520329913005
30
0
41
1
10
52.8853926545429
20
3.83510901666128
30
0
41
1
10
53.3205269612341
20
3.80068160258051
30
0
41
1
10
53.536877550735
20
3.77617263538582
30
0
41
1
10
53.7537377995874
20
3.7448673654761
30
0
0
SPLINE
5
BB
100
AcDbEntity
8
1
62
256
6
ByLayer
370
18
48
1
60
0
100
AcDbSpline
70
4
71
3
72
16
73
12
40
0
40
0
40
0
40
0
40
0.118546827478171
40
0.118546827478171
40
0.277140703503817
40
0.277140703503817
40
0.435734579529463
40
0.435734579529463
40
0.752922331580754
40
0.752922331580754
40
1
40
1
40
1
40
1
41
1
10
11.9986045244102
20
3.71299017696714
30
0
41
1
10
11.9087296526439
20
3.67428813171176
30
0
41
1
10
11.8188079676024
20
3.63413952830166
30
0
41
1
10
11.6083658346278
20
3.53665012327494
30
0
41
1
10
11.4877576372217
20
3.47809165014218
30
0
41
1
10
11.2457448955033
20
3.35514796876436
30
0
41
1
10
11.1240414100899
20
3.29059275350491
30
0
41
1
10
10.7588180929436
20
3.08926705539562
30
0
41
1
10
10.5188083118404
20
2.94670139578093
30
0
41
1
10
10.0934580061473
20
2.68524788044567
30
0
41
1
10
9.90773608481251
20
2.56813213083686
30
0
41
1
10
9.72086413628801
20
2.45112579599808
30
0
0
SPLINE
5
BC
100
AcDbEntity
8
1
62
256
6
ByLayer
370
18
48
1
60
0
100
AcDbSpline
70
4
71
3
72
14
73
10
40
0
40
0
40
0
40
0
40
0.0320610498529658
40
0.0320610498529658
40
0.30868624358484
40
0.30868624358484
40
0.585311437316714
40
0.585311437316714
40
1
40
1
40
1
40
1
41
1
10
8.26849629028627
20
-2.75318929095906
30
0
41
1
10
8.26217007129176
20
-2.75839070204953
30
0
41
1
10
8.25583526823075
20
-2.76358598383402
30
0
41
1
10
8.19475835846907
20
-2.81354498850556
30
0
41
1
10
8.13932604080324
20
-2.85785901768105
30
0
41
1
10
8.02857174464106
20
-2.94390630342139
30
0
41
1
10
7.97304376756566
20
-2.98581092855989
30
0
41
1
10
7.83366482277432
20
-3.0875314681256
30
0
41
1
10
7.74943514778775
20
-3.14577206531746
30
0
41
1
10
7.6644595852338
20
-3.20122205461442
30
0
0
SPLINE
5
BD
100
AcDbEntity
8
1
62
256
6
ByLayer
370
18
48
1
60
0
100
AcDbSpline
70
4
71
3
72
14
73
10
40
0
40
0
40
0
40
0
40
0.25
40
0.25
40
0.5
40
0.5
40
0.75
40
0.75
40
1
40
1
40
1
40
1
41
1
10
53.7052057100964
20
-3.73677859330263
30
0
41
1
10
53.7102465772024
20
-3.72340502949265
30
0
41
1
10
53.7149743259813
20
-3.70965236111562
30
0
41
1
10
53.7223050557623
20
-3.6851444684979
30
0
41
1
10
53.7248564554814
20
-3.67448786120318
30
0
41
1
10
53.7272201766209
20
-3.65937715042853
30
0
41
1
10
53.7271406158229
20
-3.65465262083839
30
0
41
1
10
53.7252777849446
20
-3.64977132541614
30
0
41
1
10
53.7234933400685
20
-3.64953396063035
30
0
41
1
10
53.7211260850336
20
-3.65100280216873
30
0
0
SPLINE
5
BE
100
AcDbEntity
8
1
62
256
6
ByLayer
370
18
48
1
60
0
100
AcDbSpline
70
4
71
3
72
36
73
32
40
0
40
0
40
0
40
0
40
0.250000000000011
40
0.250000000000011
40
0.375000000000013
40
0.375000000000013
40
0.500000000000015
40
0.500000000000015
40
0.625000000000017
40
0.625000000000017
40
0.687500000000014
40
0.687500000000014
40
0.718750000000013
40
0.718750000000013
40
0.750000000000011
40
0.750000000000011
40
0.78125000000001
40
0.78125000000001
40
0.812500000000008
40
0.812500000000008
40
0.843750000000007
40
0.843750000000007
40
0.875000000000006
40
0.875000000000006
40
0.906250000000004
40
0.906250000000004
40
0.937500000000003
40
0.937500000000003
40
0.968750000000001
40
0.968750000000001
40
1
40
1
40
1
40
1
41
1
10
50.5057616836892
20
1.48738279836445
30
0
41
1
10
50.7665960073228
20
1.26958026708817
30
0
41
1
10
51.0327232994476
20
1.07099136418003
30
0
41
1
10
51.4427542499874
20
0.812457567479726
30
0
41
1
10
51.5816043411511
20
0.732551573667905
30
0
41
1
10
51.8617791676263
20
0.588837955105703
30
0
41
1
10
52.0018452199049
20
0.525552717534623
30
0
41
1
10
52.2819286901446
20
0.418497870850985
30
0
41
1
10
52.4221042978686
20
0.374727264495931
30
0
41
1
10
52.6288430356166
20
0.326905463346577
30
0
41
1
10
52.6973002993109
20
0.313892056175604
30
0
41
1
10
52.7992529976925
20
0.299082172538363
30
0
41
1
10
52.8331139153041
20
0.29493299794197
30
0
41
1
10
52.9003972237156
20
0.288283075055631
30
0
41
1
10
52.9339697061264
20
0.28534507708028
30
0
41
1
10
52.9996052733542
20
0.284612036778611
30
0
41
1
10
53.0315710372829
20
0.286615122703779
30
0
41
1
10
53.093474985814
20
0.2958029037313
30
0
41
1
10
53.1235912589207
20
0.303030117598695
30
0
41
1
10
53.1801691611086
20
0.323160214704444
30
0
41
1
10
53.2067752692263
20
0.336028215759285
30
0
41
1
10
53.2558547144428
20
0.368647783971113
30
0
41
1
10
53.2785777791106
20
0.388746099745447
30
0
41
1
10
53.3169794786928
20
0.436343991108345
30
0
41
1
10
53.3326066739588
20
0.463734618697174
30
0
41
1
10
53.3557327419488
20
0.526685199926447
30
0
41
1
10
53.3630434816079
20
0.561391034616406
30
0
41
1
10
53.3705738411901
20
0.634400115875593
30
0
41
1
10
53.3707585856108
20
0.673333804230168
30
0
41
1
10
53.3650790719418
20
0.7521639717406
30
0
41
1
10
53.3593062934441
20
0.792303477020511
30
0
41
1
10
53.3511526789286
20
0.833031020527301
30
0
0
SPLINE
5
BF
100
AcDbEntity
8
1
62
256
6
ByLayer
370
18
48
1
60
0
100
AcDbSpline
70
4
71
3
72
48
73
44
40
0
40
0
40
0
40
0
40
0.0766518473253922
40
0.0766518473253922
40
0.114977770988088
40
0.114977770988088
40
0.153303694650784
40
0.153303694650784
40
0.229955541976177
40
0.229955541976177
40
0.268281465638874
40
0.268281465638874
40
0.287444427470221
40
0.287444427470221
40
0.306607389301569
40
0.306607389301569
40
0.383259236626964
40
0.383259236626964
40
0.459911083952359
40
0.459911083952359
40
0.479074045783709
40
0.479074045783709
40
0.498237007615059
40
0.498237007615059
40
0.536562931277757
40
0.536562931277757
40
0.613214778603154
40
0.613214778603154
40
0.651540702265853
40
0.651540702265853
40
0.689866625928552
40
0.689866625928552
40
0.76651847325395
40
0.76651847325395
40
0.843170320579348
40
0.843170320579348
40
0.881496244242047
40
0.881496244242047
40
0.919822167904747
40
0.919822167904747
40
0.996474015230146
40
0.996474015230146
40
1
40
1
40
1
40
1
41
1
10
53.6743443973306
20
-3.81850450945708
30
0
41
1
10
53.1554664097193
20
-3.85958153771821
30
0
41
1
10
52.6377173996634
20
-3.85982665188641
30
0
41
1
10
51.8571024818935
20
-3.79905455289904
30
0
41
1
10
51.5977604144325
20
-3.76867275481641
30
0
41
1
10
51.0815185526134
20
-3.68868830706359
30
0
41
1
10
50.8243004310715
20
-3.63906895500125
30
0
41
1
10
50.0536698975841
20
-3.46259113817504
30
0
41
1
10
49.5412662696765
20
-3.30813837252782
30
0
41
1
10
48.7680748457591
20
-3.02597445609544
30
0
41
1
10
48.5095830170553
20
-2.92349836186932
30
0
41
1
10
48.1198381589022
20
-2.75773303249522
30
0
41
1
10
47.9895479417225
20
-2.70044425848528
30
0
41
1
10
47.7300763045328
20
-2.58286578708029
30
0
41
1
10
47.6006549916339
20
-2.52247585324429
30
0
41
1
10
46.9547511175981
20
-2.21306894441005
30
0
41
1
10
46.4417304726928
20
-1.94191258730294
30
0
41
1
10
45.4152248847115
20
-1.36384025324898
30
0
41
1
10
44.9013091070941
20
-1.0575231841479
30
0
41
1
10
44.2523615536279
20
-0.661378016692851
30
0
41
1
10
44.1220023798482
20
-0.581341211538785
30
0
41
1
10
43.862056512575
20
-0.421069355352131
30
0
41
1
10
43.732431903961
20
-0.34079064045298
30
0
41
1
10
43.344373939335
20
-0.0998961016465785
30
0
41
1
10
43.0867396701946
20
0.0607507836955392
30
0
41
1
10
42.3154872166208
20
0.540327530517459
30
0
41
1
10
41.8029038355158
20
0.855900413019953
30
0
41
1
10
41.0309188705001
20
1.3141842304764
30
0
41
1
10
40.7729055764325
20
1.46416553398441
30
0
41
1
10
40.2543723565129
20
1.7567419303937
30
0
41
1
10
39.9933153250499
20
1.89967919183667
30
0
41
1
10
39.2164953899221
20
2.30964534543494
30
0
41
1
10
38.7026849358298
20
2.55842082518816
30
0
41
1
10
37.6759486003259
20
2.99921742539524
30
0
41
1
10
37.1622171580987
20
3.19032582266755
30
0
41
1
10
36.3856089587094
20
3.42661338905472
30
0
41
1
10
36.1246530562476
20
3.49700634034292
30
0
41
1
10
35.605786943352
20
3.61795133049617
30
0
41
1
10
35.3475420500763
20
3.66872245280254
30
0
41
1
10
34.5750200109434
20
3.7918088644972
30
0
41
1
10
34.0623465171832
20
3.83468301285049
30
0
41
1
10
33.5243980026504
20
3.83781007986008
30
0
41
1
10
33.5007364859166
20
3.83786301492373
30
0
41
1
10
33.4770703881368
20
3.83783128828353
30
0
0
SPLINE
5
C0
100
AcDbEntity
8
1
62
256
6
ByLayer
370
18
48
1
60
0
100
AcDbSpline
70
4
71
3
72
28
73
24
40
0
40
0
40
0
40
0
40
0.0157481140416903
40
0.0157481140416903
40
0.0813649064389111
40
0.0813649064389111
40
0.212598491233353
40
0.212598491233353
40
0.278215283630574
40
0.278215283630574
40
0.343832076027794
40
0.343832076027794
40
0.475065660822236
40
0.475065660822236
40
0.606299245616678
40
0.606299245616678
40
0.671916038013899
40
0.671916038013899
40
0.737532830411119
40
0.737532830411119
40
0.868766415205559
40
0.868766415205559
40
1
40
1
40
1
40
1
41
1
10
15.9177807597775
20
-3.6598521765373
30
0
41
1
10
15.8555059950357
20
-3.67111245731709
30
0
41
1
10
15.7932987136194
20
-3.68180096448
30
0
41
1
10
15.4721916255639
20
-3.73406565495756
30
0
41
1
10
15.2142427426505
20
-3.76628507704103
30
0
41
1
10
14.4418496810961
20
-3.8332061316367
30
0
41
1
10
13.9289734589081
20
-3.8381661641566
30
0
41
1
10
13.1557635244798
20
-3.78578428254886
30
0
41
1
10
12.8974771077547
20
-3.75833257912754
30
0
41
1
10
12.3784469073123
20
-3.68339400898699
30
0
41
1
10
12.1171196093203
20
-3.63572352609864
30
0
41
1
10
11.3390641201573
20
-3.46530836178698
30
0
41
1
10
10.8249695748726
20
-3.31480647809366
30
0
41
1
10
9.79663967385932
20
-2.94903616836436
30
0
41
1
10
9.28270634811943
20
-2.73347718216616
30
0
41
1
10
8.50506263437796
20
-2.36775985128344
30
0
41
1
10
8.24375992005781
20
-2.23826030028724
30
0
41
1
10
7.7244202659156
20
-1.96978634627538
30
0
41
1
10
7.46604878778436
20
-1.83070750356504
30
0
41
1
10
6.69325257205765
20
-1.4014767167314
30
0
41
1
10
6.18126917214971
20
-1.09913015294069
30
0
41
1
10
5.15416384062712
20
-0.477197915110736
30
0
41
1
10
4.63902620821122
20
-0.157678315891502
30
0
41
1
10
4.11840026314837
20
0.164340787599457
30
0
0
SPLINE
5
C1
100
AcDbEntity
8
1
62
256
6
ByLayer
370
18
48
1
60
0
100
AcDbSpline
70
4
71
3
72
29
73
25
40
0
40
0
40
0
40
0
40
0.068056077081406
40
0.068056077081406
40
0.136112154162812
40
0.136112154162812
40
0.272224308325624
40
0.272224308325624
40
0.340280385407029
40
0.340280385407029
40
0.408336462488435
40
0.476392539569841
40
0.476392539569841
40
0.544448616651247
40
0.544448616651247
40
0.680560770814059
40
0.680560770814059
40
0.748616847895465
40
0.748616847895465
40
0.816672924976871
40
0.816672924976871
40
0.952785079139682
40
0.952785079139682
40
1
40
1
40
1
40
1
41
1
10
4.01041550491323
20
0.332478166764275
30
0
41
1
10
4.01042471802867
20
0.461422797774446
30
0
41
1
10
4.01043300339953
20
0.590057865561818
30
0
41
1
10
4.01044792536146
20
0.844124306952466
30
0
41
1
10
4.01045453271257
20
0.968945825173478
30
0
41
1
10
4.01047244828766
20
1.33697603100953
30
0
41
1
10
4.01048185872304
20
1.57381537387596
30
0
41
1
10
4.01049447190854
20
1.91590835853759
30
0
41
1
10
4.01049839448746
20
2.02692422400935
30
0
41
1
10
4.01050594116637
20
2.23981062063922
30
0
41
1
10
4.0105132262299
20
2.4445811044304
30
0
41
1
10
4.01052064223802
20
2.63329014209779
30
0
41
1
10
4.010528401675
20
2.81380771022648
30
0
41
1
10
4.01053247516953
20
2.90031131096265
30
0
41
1
10
4.01054528558103
20
3.14192498473366
30
0
41
1
10
4.01055469975773
20
3.28093966425175
30
0
41
1
10
4.01057069923917
20
3.4567550557766
30
0
41
1
10
4.01057636010731
20
3.51004286933861
30
0
41
1
10
4.01058819045488
20
3.60439548213418
30
0
41
1
10
4.0105943052651
20
3.64509308633109
30
0
41
1
10
4.01061307088344
20
3.74835717823828
30
0
41
1
10
4.01062618035004
20
3.79228440070267
30
0
41
1
10
4.01064345813813
20
3.81692310480838
30
0
41
1
10
4.01064785196485
20
3.82010226303251
30
0
41
1
10
4.01065210260873
20
3.82014613212229
30
0
0
SPLINE
5
C2
100
AcDbEntity
8
1
62
256
6
ByLayer
370
18
48
1
60
0
100
AcDbSpline
70
4
71
3
72
62
73
58
40
0
40
0
40
0
40
0
40
0.0625000000000015
40
0.0625000000000015
40
0.125000000000003
40
0.125000000000003
40
0.250000000000006
40
0.250000000000006
40
0.375000000000009
40
0.375000000000009
40
0.43750000000001
40
0.43750000000001
40
0.500000000000012
40
0.500000000000012
40
0.625000000000015
40
0.625000000000015
40
0.640625000000016
40
0.640625000000016
40
0.644531250000016
40
0.644531250000016
40
0.648437500000016
40
0.648437500000016
40
0.650390625000016
40
0.650390625000016
40
0.652343750000016
40
0.652343750000016
40
0.656250000000016
40
0.656250000000016
40
0.687500000000014
40
0.687500000000014
40
0.703125000000014
40
0.703125000000014
40
0.718750000000013
40
0.718750000000013
40
0.734375000000013
40
0.734375000000013
40
0.750000000000012
40
0.750000000000012
40
0.765625000000012
40
0.765625000000012
40
0.773437500000011
40
0.773437500000011
40
0.781250000000011
40
0.781250000000011
40
0.796875000000011
40
0.796875000000011
40
0.81250000000001
40
0.81250000000001
40
0.843750000000008
40
0.843750000000008
40
0.875000000000007
40
0.875000000000007
40
0.906250000000005
40
0.906250000000005
40
0.937500000000003
40
0.937500000000003
40
1
40
1
40
1
40
1
41
1
10
11.9986134990228
20
-3.71299326598233
30
0
41
1
10
11.7351210234691
20
-3.67349879572848
30
0
41
1
10
11.4699210584314
20
-3.62468398713193
30
0
41
1
10
10.9352610303517
20
-3.51122518724012
30
0
41
1
10
10.6651493901835
20
-3.44638806280261
30
0
41
1
10
9.85190802633784
20
-3.23404183867808
30
0
41
1
10
9.30653051259179
20
-3.06887383614406
30
0
41
1
10
8.19866245735807
20
-2.72371960058638
30
0
41
1
10
7.63606527578571
20
-2.54391811701006
30
0
41
1
10
6.77247961851975
20
-2.2898043427758
30
0
41
1
10
6.48136142316901
20
-2.20770041100516
30
0
41
1
10
5.89183971471792
20
-2.05282496576646
30
0
41
1
10
5.59286195902564
20
-1.97994342088256
30
0
41
1
10
4.6899068476385
20
-1.78205807071066
30
0
41
1
10
4.0784775934452
20
-1.67781207058275
30
0
41
1
10
3.38479958770844
20
-1.60268088232851
30
0
41
1
10
3.3076300873505
20
-1.59490908352711
30
0
41
1
10
3.21104902769179
20
-1.58593085270689
30
0
41
1
10
3.19171796486972
20
-1.58403829769006
30
0
41
1
10
3.15308516532815
20
-1.58087743112617
30
0
41
1
10
3.13385931187719
20
-1.58121705443142
30
0
41
1
10
3.10521382918228
20
-1.58582230634991
30
0
41
1
10
3.09553830153124
20
-1.58811933134507
30
0
41
1
10
3.07743998301356
20
-1.59456068617655
30
0
41
1
10
3.06911932260263
20
-1.59894465293186
30
0
41
1
10
3.04367358125148
20
-1.61131057462336
30
0
41
1
10
3.02677907821914
20
-1.61965118820291
30
0
41
1
10
2.87537851951478
20
-1.6956176919642
30
0
41
1
10
2.7448395954039
20
-1.76978447529305
30
0
41
1
10
2.56267132082286
20
-1.89190518891277
30
0
41
1
10
2.50413191524513
20
-1.93448135478394
30
0
41
1
10
2.39250320742605
20
-2.02415262880069
30
0
41
1
10
2.33908183295151
20
-2.07157404262494
30
0
41
1
10
2.2410424523643
20
-2.17045351718744
30
0
41
1
10
2.19661446754952
20
-2.22164323859749
30
0
41
1
10
2.1189841556847
20
-2.32805302935833
30
0
41
1
10
2.08563929688137
20
-2.38384459942691
30
0
41
1
10
2.03516382178668
20
-2.49496813642432
30
0
41
1
10
2.01759989163136
20
-2.55071226654036
30
0
41
1
10
2.00341778951051
20
-2.63437581477132
30
0
41
1
10
2.00073280477747
20
-2.6624363884315
30
0
41
1
10
1.99952727155966
20
-2.71721915455365
30
0
41
1
10
2.00096202658435
20
-2.74404999617289
30
0
41
1
10
2.01090640417436
20
-2.82293015821151
30
0
41
1
10
2.0252024228987
20
-2.87372540800917
30
0
41
1
10
2.06605573318012
20
-2.96961913926194
30
0
41
1
10
2.09225872559514
20
-3.01427136209804
30
0
41
1
10
2.18410659583984
20
-3.14031018542266
30
0
41
1
10
2.26362612832659
20
-3.21428612844372
30
0
41
1
10
2.43891828419825
20
-3.34280181537659
30
0
41
1
10
2.53527662811189
20
-3.39812653377831
30
0
41
1
10
2.7392971525089
20
-3.4960880886963
30
0
41
1
10
2.84750584486193
20
-3.53877292833164
30
0
41
1
10
3.0688771092602
20
-3.61292385891241
30
0
41
1
10
3.18231238110198
20
-3.64454308877598
30
0
41
1
10
3.52855112433002
20
-3.72628970312715
30
0
41
1
10
3.7671641533118
20
-3.76347824579545
30
0
41
1
10
4.01067418997749
20
-3.78739927642084
30
0
0
SPLINE
5
C3
100
AcDbEntity
8
1
62
256
6
ByLayer
370
13
48
1
60
0
100
AcDbSpline
70
4
71
3
72
10
73
6
40
0
40
0
40
0
40
0
40
0.5
40
0.5
40
1
40
1
40
1
40
1
41
1
10
4.25038008923832
20
0.192712788064625
30
0
41
1
10
4.22750052464835
20
0.200796198107298
30
0
41
1
10
4.20508831540565
20
0.208835026635228
30
0
41
1
10
4.16122139250439
20
0.224929150418177
30
0
41
1
10
4.13973128446452
20
0.233004285689617
30
0
41
1
10
4.1198687914146
20
0.24071962510385
30
0
0
SPLINE
5
C4
100
AcDbEntity
8
1
62
256
6
ByLayer
370
18
48
1
60
0
100
AcDbSpline
70
4
71
3
72
10
73
6
40
0
40
0
40
0
40
0
40
0.979432486593157
40
0.979432486593157
40
1
40
1
40
1
40
1
41
1
10
53.6743443973306
20
3.81850450945708
30
0
41
1
10
53.4151849032679
20
3.8390208969623
30
0
41
1
10
53.1561091853687
20
3.84933925979442
30
0
41
1
10
52.8912243007139
20
3.849482275832
30
0
41
1
10
52.8857758215793
20
3.84948069975764
30
0
41
1
10
52.8803269042798
20
3.84947460736583
30
0
0
SPLINE
5
C5
100
AcDbEntity
8
1
62
256
6
ByLayer
370
18
48
1
60
0
100
AcDbSpline
70
4
71
3
72
42
73
38
40
0
40
0
40
0
40
0
40
0.0116887534732951
40
0.0116887534732951
40
0.0845194387269833
40
0.0845194387269833
40
0.120934781353827
40
0.120934781353827
40
0.157350123980671
40
0.157350123980671
40
0.303011494488048
40
0.303011494488048
40
0.339426837114893
40
0.339426837114893
40
0.375842179741737
40
0.375842179741737
40
0.448672864995424
40
0.448672864995424
40
0.485088207622268
40
0.485088207622268
40
0.50329587893569
40
0.50329587893569
40
0.521503550249111
40
0.521503550249111
40
0.594334235502797
40
0.594334235502797
40
0.667164920756483
40
0.667164920756483
40
0.685372592069905
40
0.685372592069905
40
0.703580263383326
40
0.703580263383326
40
0.73999560601017
40
0.73999560601017
40
0.885656976517545
40
0.885656976517545
40
1
40
1
40
1
40
1
41
1
10
35.3436842835994
20
-3.66623409979135
30
0
41
1
10
35.26102656471
20
-3.68142267564929
30
0
41
1
10
35.1784414769173
20
-3.69561641284883
30
0
41
1
10
34.5817027746177
20
-3.79103684893082
30
0
41
1
10
34.0691345396403
20
-3.83431996296744
30
0
41
1
10
33.29681424162
20
-3.83929190381937
30
0
41
1
10
33.0387123628379
20
-3.83093437063351
30
0
41
1
10
32.5200023735711
20
-3.79390521644464
30
0
41
1
10
32.2589617654663
20
-3.7650981533227
30
0
41
1
10
30.9641177887774
20
-3.57278866161261
30
0
41
1
10
29.94573482247
20
-3.26483398569249
30
0
41
1
10
28.6505900555868
20
-2.72128000499714
30
0
41
1
10
28.3895093657294
20
-2.60424811116369
30
0
41
1
10
27.8707437866387
20
-2.35856770938327
30
0
41
1
10
27.612613683351
20
-2.22966768619807
30
0
41
1
10
26.8400853618156
20
-1.82758564868144
30
0
41
1
10
26.327420016194
20
-1.53922946290444
30
0
41
1
10
25.5557146451985
20
-1.08554132091788
30
0
41
1
10
25.2979366768279
20
-0.93092657045807
30
0
41
1
10
24.9097402223409
20
-0.694970574813112
30
0
41
1
10
24.7800922374688
20
-0.615636096447901
30
0
41
1
10
24.5201626998864
20
-0.455794226749361
30
0
41
1
10
24.3897695649605
20
-0.375229635012801
30
0
41
1
10
23.7404856047124
20
0.0267653958876792
30
0
41
1
10
23.2258575660852
20
0.347735962262249
30
0
41
1
10
22.1983883830871
20
0.976020276526043
30
0
41
1
10
21.6850344659247
20
1.28249879504906
30
0
41
1
10
21.0387581806691
20
1.6478781938961
30
0
41
1
10
20.9092661546546
20
1.72005540666709
30
0
41
1
10
20.6496301495502
20
1.86232853437832
30
0
41
1
10
20.519250178668
20
1.93255451380594
30
0
41
1
10
20.1289610761099
20
2.13877881741561
30
0
41
1
10
19.8701399725756
20
2.2702122437978
30
0
41
1
10
18.5800098484508
20
2.89410359891661
30
0
41
1
10
17.5604848063221
20
3.28677760441326
30
0
41
1
10
15.699432792082
20
3.72853904037771
30
0
41
1
10
14.8952431436611
20
3.82644170812014
30
0
41
1
10
14.0878252629913
20
3.82621292688162
30
0
0
SPLINE
5
C6
100
AcDbEntity
8
1
62
256
6
ByLayer
370
18
48
1
60
0
100
AcDbSpline
70
4
71
3
72
14
73
10
40
0
40
0
40
0
40
0
40
0.25
40
0.25
40
0.5
40
0.5
40
0.75
40
0.75
40
1
40
1
40
1
40
1
41
1
10
4.2512062270053
20
-3.6203096731779
30
0
41
1
10
4.52422329305685
20
-3.64404527731949
30
0
41
1
10
4.80206503131433
20
-3.64970036663729
30
0
41
1
10
5.36491729592171
20
-3.63046717826572
30
0
41
1
10
5.65079083978821
20
-3.60536311849893
30
0
41
1
10
6.22225931945945
20
-3.52929438220605
30
0
41
1
10
6.50860150366682
20
-3.47827916427911
30
0
41
1
10
7.08396896398233
20
-3.35525888416313
30
0
41
1
10
7.37297407343766
20
-3.28340089272083
30
0
41
1
10
7.66451299668512
20
-3.20125011473294
30
0
0
SPLINE
5
C7
100
AcDbEntity
8
1
62
256
6
ByLayer
370
18
48
1
60
0
100
AcDbSpline
70
4
71
3
72
8
73
4
40
0
40
0
40
0
40
0
40
1
40
1
40
1
40
1
41
1
10
53.6743443973306
20
-3.81850450945711
30
0
41
1
10
53.6846429743076
20
-3.79128212184327
30
0
41
1
10
53.6949303247461
20
-3.7640394829443
30
0
41
1
10
53.7052057101135
20
-3.73677859330112
30
0
0
SPLINE
5
C8
100
AcDbEntity
8
1
62
256
6
ByLayer
370
18
48
1
60
0
100
AcDbSpline
70
2053
71
3
72
62
73
58
40
0
40
0
40
0
40
0
40
0.0312500000000013
40
0.0312500000000013
40
0.0625000000000027
40
0.0625000000000027
40
0.093750000000004
40
0.093750000000004
40
0.125000000000005
40
0.125000000000005
40
0.156250000000007
40
0.156250000000007
40
0.187500000000008
40
0.187500000000008
40
0.218750000000009
40
0.218750000000009
40
0.250000000000011
40
0.250000000000011
40
0.281250000000012
40
0.281250000000012
40
0.312500000000014
40
0.312500000000014
40
0.375000000000016
40
0.375000000000016
40
0.437500000000019
40
0.437500000000019
40
0.468750000000018
40
0.468750000000018
40
0.500000000000017
40
0.500000000000017
40
0.531250000000016
40
0.531250000000016
40
0.562500000000015
40
0.562500000000015
40
0.593750000000014
40
0.593750000000014
40
0.625000000000013
40
0.625000000000013
40
0.656250000000012
40
0.656250000000012
40
0.687500000000011
40
0.687500000000011
40
0.71875000000001
40
0.71875000000001
40
0.750000000000009
40
0.750000000000009
40
0.781250000000008
40
0.781250000000008
40
0.812500000000007
40
0.812500000000007
40
0.875000000000005
40
0.875000000000005
40
0.937500000000003
40
0.937500000000003
40
0.968750000000001
40
0.968750000000001
40
1
40
1
40
1
40
1
41
1
10
54.1883794227088
20
-1.80268571795774
30
0
41
1
10
54.2082168565969
20
-1.773793897856
30
0
41
1
10
54.2276099734435
20
-1.74291754725499
30
0
41
1
10
54.265439218314
20
-1.67689048037613
30
0
41
1
10
54.2840753925116
20
-1.64131671861335
30
0
41
1
10
54.3191173969877
20
-1.56728943684473
30
0
41
1
10
54.3354603336982
20
-1.52906724445489
30
0
41
1
10
54.3654573592257
20
-1.44986442978003
30
0
41
1
10
54.3788244073572
20
-1.40949886375225
30
0
41
1
10
54.4009974529939
20
-1.33049054190192
30
0
41
1
10
54.410080310996
20
-1.29072096986229
30
0
41
1
10
54.4227991243255
20
-1.21609059738
30
0
41
1
10
54.4265620884424
20
-1.18093483326837
30
0
41
1
10
54.4288903556185
20
-1.11597583729701
30
0
41
1
10
54.4274498252182
20
-1.08717886829632
30
0
41
1
10
54.4199465871732
20
-1.03611986215216
30
0
41
1
10
54.4138933683384
20
-1.01427863704615
30
0
41
1
10
54.3981354580517
20
-0.978132588547879
30
0
41
1
10
54.3882899674281
20
-0.963566710345731
30
0
41
1
10
54.3658664668499
20
-0.941707249738073
30
0
41
1
10
54.3532573381193
20
-0.934257040762503
30
0
41
1
10
54.3116071587347
20
-0.921425302959108
30
0
41
1
10
54.2797295159481
20
-0.925672771936888
30
0
41
1
10
54.2096999686312
20
-0.956813051944806
30
0
41
1
10
54.1726468214817
20
-0.983190454813723
30
0
41
1
10
54.1144985977424
20
-1.03867169786338
30
0
41
1
10
54.0946502891928
20
-1.05994657577068
30
0
41
1
10
54.0553560872777
20
-1.10680750281881
30
0
41
1
10
54.0357413342426
20
-1.13253880210314
30
0
41
1
10
53.9965825690643
20
-1.18903304292985
30
0
41
1
10
53.9768196694349
20
-1.22018019199208
30
0
41
1
10
53.9386338526067
20
-1.28639088329831
30
0
41
1
10
53.9202389207423
20
-1.32132156484448
30
0
41
1
10
53.8850419632412
20
-1.39534866805096
30
0
41
1
10
53.8683357794974
20
-1.43437694116389
30
0
41
1
10
53.8386336825724
20
-1.51274664663762
30
0
41
1
10
53.8252842071489
20
-1.55293789482653
30
0
41
1
10
53.8027772563921
20
-1.63329687051646
30
0
41
1
10
53.7939668629647
20
-1.67210886577573
30
0
41
1
10
53.7812160114043
20
-1.7470069549361
30
0
41
1
10
53.7774118868472
20
-1.7827623701458
30
0
41
1
10
53.7750402986648
20
-1.84731903724429
30
0
41
1
10
53.7764415980832
20
-1.87690654470603
30
0
41
1
10
53.7837685274792
20
-1.92809459232316
30
0
41
1
10
53.7897156093396
20
-1.95021846837767
30
0
41
1
10
53.8053715491242
20
-1.98704993713977
30
0
41
1
10
53.8149703898186
20
-2.00165383932838
30
0
41
1
10
53.8372950754336
20
-2.02413070920778
30
0
41
1
10
53.8500167879665
20
-2.03189645226428
30
0
41
1
10
53.8912906585159
20
-2.04522366441151
30
0
41
1
10
53.9237071769013
20
-2.04107780481198
30
0
41
1
10
53.9932438914389
20
-2.01010402210946
30
0
41
1
10
54.0312251395357
20
-1.9828579025542
30
0
41
1
10
54.0891711089954
20
-1.92703791621608
30
0
41
1
10
54.1087245884809
20
-1.90591956575878
30
0
41
1
10
54.14834187227
20
-1.85830078288143
30
0
41
1
10
54.1685419888206
20
-1.83157753805949
30
0
41
1
10
54.1883794227088
20
-1.80268571795774
30
0
0
SPLINE
5
C9
100
AcDbEntity
8
1
62
256
6
ByLayer
370
18
48
1
60
0
100
AcDbSpline
70
4
71
3
72
18
73
14
40
0
40
0
40
0
40
0
40
0.0348359601370813
40
0.0348359601370813
40
0.221125077654862
40
0.221125077654862
40
0.593703312690415
40
0.593703312690415
40
0.779992430208196
40
0.779992430208196
40
0.966281547725976
40
0.966281547725976
40
1
40
1
40
1
40
1
41
1
10
53.089380425787
20
-3.67074187815339
30
0
41
1
10
53.0409371716569
20
-3.67077737456097
30
0
41
1
10
52.99248854656
20
-3.67047310064294
30
0
41
1
10
52.6849050287809
20
-3.6663856838648
30
0
41
1
10
52.4250684983537
20
-3.65317647502803
30
0
41
1
10
51.6480109959435
20
-3.58486569046772
30
0
41
1
10
51.1330430853634
20
-3.5012925784153
30
0
41
1
10
50.3585998914297
20
-3.32233698945728
30
0
41
1
10
50.1001315663166
20
-3.25374240040594
30
0
41
1
10
49.5814864222849
20
-3.0992645498475
30
0
41
1
10
49.3223575155003
20
-3.01366935319516
30
0
41
1
10
49.0181842733417
20
-2.90421787800045
30
0
41
1
10
48.971599392666
20
-2.88720565564949
30
0
41
1
10
48.9250442446695
20
-2.86995995797864
30
0
0
SPLINE
5
CA
100
AcDbEntity
8
1
62
256
6
ByLayer
370
13
48
1
60
0
100
AcDbSpline
70
4
71
3
72
24
73
20
40
0
40
0
40
0
40
0
40
0.151457075651842
40
0.151457075651842
40
0.317984981297054
40
0.317984981297054
40
0.359616957708357
40
0.359616957708357
40
0.40124893411966
40
0.40124893411966
40
0.484512886942265
40
0.484512886942265
40
0.651040792587477
40
0.651040792587477
40
0.817568698232689
40
0.817568698232689
40
0.9840966038779
40
0.9840966038779
40
1
40
1
40
1
40
1
41
1
10
48.9250442446531
20
-2.86995995797261
30
0
41
1
10
48.457179729161
20
-2.69664614989
30
0
41
1
10
47.9923180996287
20
-2.49975223478441
30
0
41
1
10
47.016026223392
20
-2.04574784084903
30
0
41
1
10
46.5044616609565
20
-1.78467769428778
30
0
41
1
10
45.8601025443714
20
-1.4352974792701
30
0
41
1
10
45.7309796182172
20
-1.36428282327665
30
0
41
1
10
45.4720354849007
20
-1.22022740614935
30
0
41
1
10
45.3420729420229
20
-1.14709358123946
30
0
41
1
10
44.9536759727067
20
-0.926475460818693
30
0
41
1
10
44.6959283780891
20
-0.777338998579665
30
0
41
1
10
43.9246476999239
20
-0.326482768135378
30
0
41
1
10
43.4130867569082
20
-0.0212988672869869
30
0
41
1
10
42.3878808942628
20
0.585707303456616
30
0
41
1
10
41.8732756660444
20
0.886699359602659
30
0
41
1
10
40.8352047437347
20
1.47038543081402
30
0
41
1
10
40.3211202774111
20
1.74583408704231
30
0
41
1
10
39.7596353449289
20
2.02495051396343
30
0
41
1
10
39.7106951784676
20
2.04908223271488
30
0
41
1
10
39.6617592466499
20
2.07300996938588
30
0
0
SPLINE
5
CB
100
AcDbEntity
8
1
62
256
6
ByLayer
370
18
48
1
60
0
100
AcDbSpline
70
4
71
3
72
14
73
10
40
0
40
0
40
0
40
0
40
0.19276137053724
40
0.19276137053724
40
0.599430747390728
40
0.599430747390728
40
0.802765435817469
40
0.802765435817469
40
1
40
1
40
1
40
1
41
1
10
14.2683857183329
20
-3.64735512784364
30
0
41
1
10
14.0234288636048
20
-3.6470181029413
30
0
41
1
10
13.7793581883476
20
-3.6380493984783
30
0
41
1
10
13.0217517111705
20
-3.58392588373832
30
0
41
1
10
12.5098964774193
20
-3.50986924138735
30
0
41
1
10
11.7388807063643
20
-3.34500897901069
30
0
41
1
10
11.481395753998
20
-3.28113131527101
30
0
41
1
10
10.9721192456901
20
-3.13814179422542
30
0
41
1
10
10.7195242969564
20
-3.05921649026126
30
0
41
1
10
10.4681296885529
20
-2.9732523613032
30
0
0
SPLINE
5
CC
100
AcDbEntity
8
1
62
256
6
ByLayer
370
13
48
1
60
0
100
AcDbSpline
70
4
71
3
72
16
73
12
40
0
40
0
40
0
40
0
40
0.003735890005934
40
0.003735890005934
40
0.501867945002969
40
0.501867945002969
40
0.626400958752227
40
0.626400958752227
40
0.750933972501485
40
0.750933972501485
40
1
40
1
40
1
40
1
41
1
10
10.4681287420386
20
-2.97325203764353
30
0
41
1
10
10.4603538568144
20
-2.97059342302302
30
0
41
1
10
10.4525801196959
20
-2.96792807590629
30
0
41
1
10
9.40844653582985
20
-2.60897502238996
30
0
41
1
10
8.39071345261476
20
-2.13417886481935
30
0
41
1
10
7.10002867440431
20
-1.44845213136514
30
0
41
1
10
6.84052635164409
20
-1.30634496522461
30
0
41
1
10
6.32094268430265
20
-1.0155117660519
30
0
41
1
10
6.06197151396532
20
-0.867533230905821
30
0
41
1
10
5.28589693457252
20
-0.418656833174879
30
0
41
1
10
4.76953489795423
20
-0.112988330212659
30
0
41
1
10
4.25038008923838
20
0.192712788064625
30
0
0
SPLINE
5
CD
100
AcDbEntity
8
1
62
256
6
ByLayer
370
18
48
1
60
0
100
AcDbSpline
70
4
71
3
72
26
73
22
40
0
40
0
40
0
40
0
40
0.0275240615940371
40
0.0275240615940371
40
0.102717587194918
40
0.102717587194918
40
0.403491689598443
40
0.403491689598443
40
0.478685215199323
40
0.478685215199323
40
0.553878740800204
40
0.553878740800204
40
0.704265792001966
40
0.704265792001966
40
0.779459317602847
40
0.779459317602847
40
0.854652843203727
40
0.854652843203727
40
0.929846368804608
40
0.929846368804608
40
1
40
1
40
1
40
1
41
1
10
18.6329879353371
20
2.77711021806971
30
0
41
1
10
18.7281507404381
20
2.73834647506894
30
0
41
1
10
18.8234788476452
20
2.69852471703507
30
0
41
1
10
19.1785362525321
20
2.54664187561787
30
0
41
1
10
19.4371070042811
20
2.42894341155323
30
0
41
1
10
20.7260948115235
20
1.81217492941431
30
0
41
1
10
21.7450000594679
20
1.22831635741818
30
0
41
1
10
23.0456201587721
20
0.44808001917599
30
0
41
1
10
23.3050260091834
20
0.291016956659178
30
0
41
1
10
23.8214408067788
20
-0.0223353117341674
30
0
41
1
10
24.0787172198354
20
-0.178893118911674
30
0
41
1
10
24.8493207701375
20
-0.645623953926645
30
0
41
1
10
25.3618485004104
20
-0.952204812362311
30
0
41
1
10
26.1346361395665
20
-1.39551211799815
30
0
41
1
10
26.392948103991
20
-1.5404458650419
30
0
41
1
10
26.9121918830262
20
-1.82270005578582
30
0
41
1
10
27.1727188651908
20
-1.95988956673546
30
0
41
1
10
27.6916495129495
20
-2.2222342012987
30
0
41
1
10
27.9508172469667
20
-2.34768831440093
30
0
41
1
10
28.4523003459862
20
-2.57767856778017
30
0
41
1
10
28.6948587832877
20
-2.68325453273124
30
0
41
1
10
28.9373903370462
20
-2.7824429283589
30
0
0
SPLINE
5
CE
100
AcDbEntity
8
1
62
256
6
ByLayer
370
13
48
1
60
0
100
AcDbSpline
70
4
71
3
72
16
73
12
40
0
40
0
40
0
40
0
40
0.0087854249429288
40
0.0087854249429288
40
0.533097026759438
40
0.533097026759438
40
0.664174927213563
40
0.664174927213563
40
0.79525282766769
40
0.79525282766769
40
1
40
1
40
1
40
1
41
1
10
28.9373912629447
20
-2.78244330702458
30
0
41
1
10
28.9548146200548
20
-2.78956895533156
30
0
41
1
10
28.9722378384174
20
-2.79666163789412
30
0
41
1
10
30.0294531267363
20
-3.22502169404154
30
0
41
1
10
31.0460922064089
20
-3.51738604855805
30
0
41
1
10
32.3304231377932
20
-3.69515725636222
30
0
41
1
10
32.5880331130906
20
-3.72129843321503
30
0
41
1
10
33.1056032420357
20
-3.75408239548875
30
0
41
1
10
33.3663719797159
20
-3.76065960207487
30
0
41
1
10
34.0297628646449
20
-3.75183010318528
30
0
41
1
10
34.4315453811606
20
-3.72230705753017
30
0
41
1
10
34.8325111018574
20
-3.66967079922037
30
0
0
SPLINE
5
CF
100
AcDbEntity
8
1
62
256
6
ByLayer
370
18
48
1
60
0
100
AcDbSpline
70
4
71
3
72
14
73
10
40
0
40
0
40
0
40
0
40
0.25
40
0.25
40
0.5
40
0.5
40
0.75
40
0.75
40
1
40
1
40
1
40
1
41
1
10
4.01067418998397
20
-3.78739927642147
30
0
41
1
10
4.01863117245281
20
-3.76013586486397
30
0
41
1
10
4.03111122567478
20
-3.73410735871508
30
0
41
1
10
4.06497415625051
20
-3.68785627558637
30
0
41
1
10
4.08602736227135
20
-3.66837909292238
30
0
41
1
10
4.1315553033445
20
-3.63951336782779
30
0
41
1
10
4.15606889656979
20
-3.6299708724417
30
0
41
1
10
4.20405049461937
20
-3.61947904724099
30
0
41
1
10
4.22809388813954
20
-3.61830032871961
30
0
41
1
10
4.2512062246654
20
-3.62030967297449
30
0
0
SPLINE
5
D0
100
AcDbEntity
8
1
62
256
6
ByLayer
370
18
48
1
60
0
100
AcDbSpline
70
4
71
3
72
10
73
6
40
0
40
0
40
0
40
0
40
0.5
40
0.5
40
1
40
1
40
1
40
1
41
1
10
4.11840026314752
20
0.164340787599969
30
0
41
1
10
4.09938466700444
20
0.176102370518379
30
0
41
1
10
4.08234787786409
20
0.190102157859286
30
0
41
1
10
4.05212006624546
20
0.222444087148773
30
0
41
1
10
4.03910133742244
20
0.240753202120516
30
0
41
1
10
4.02882324770431
20
0.260220954992008
30
0
0
SPLINE
5
D1
100
AcDbEntity
8
1
62
256
6
ByLayer
370
18
48
1
60
0
100
AcDbSpline
70
4
71
3
72
14
73
10
40
0
40
0
40
0
40
0
40
0.24397689151746
40
0.24397689151746
40
0.487953783034921
40
0.487953783034921
40
0.975907566069847
40
0.975907566069847
40
1
40
1
40
1
40
1
41
1
10
11.9986134990228
20
3.71299326598233
30
0
41
1
10
11.7351210234692
20
3.67349879572848
30
0
41
1
10
11.4699210584316
20
3.62468398713196
30
0
41
1
10
10.935261030352
20
3.51122518724017
30
0
41
1
10
10.6651493901839
20
3.44638806280273
30
0
41
1
10
9.85190802633838
20
3.23404183867825
30
0
41
1
10
9.30653051259247
20
3.06887383614426
30
0
41
1
10
8.72524631488585
20
2.8877758236568
30
0
41
1
10
8.69787502547223
20
2.87923731714986
30
0
41
1
10
8.67048207948633
20
2.87068331930274
30
0
0
SPLINE
5
D2
100
AcDbEntity
8
1
62
256
6
ByLayer
370
18
48
1
60
0
100
AcDbSpline
70
4
71
3
72
8
73
4
40
0
40
0
40
0
40
0
40
1
40
1
40
1
40
1
41
1
10
53.7211260850335
20
-3.65100280216873
30
0
41
1
10
53.6997292386617
20
-3.66427918189032
30
0
41
1
10
53.680629951549
20
-3.67098052658403
30
0
41
1
10
53.6638724376843
20
-3.67098030697324
30
0
0
SPLINE
5
D3
100
AcDbEntity
8
1
62
256
6
ByLayer
370
18
48
1
60
0
100
AcDbSpline
70
4
71
3
72
78
73
74
40
0
40
0
40
0
40
0
40
0.0218948036598667
40
0.0218948036598667
40
0.050146539557572
40
0.050146539557572
40
0.0783982754552773
40
0.0783982754552773
40
0.106650011352983
40
0.106650011352983
40
0.134901747250688
40
0.134901747250688
40
0.163153483148393
40
0.163153483148393
40
0.191405219046099
40
0.191405219046099
40
0.219656954943804
40
0.219656954943804
40
0.247908690841509
40
0.247908690841509
40
0.276160426739214
40
0.276160426739214
40
0.30441216263692
40
0.30441216263692
40
0.332663898534625
40
0.332663898534625
40
0.36091563443233
40
0.36091563443233
40
0.389167370330036
40
0.389167370330036
40
0.417419106227741
40
0.417419106227741
40
0.445670842125447
40
0.445670842125447
40
0.473922578023152
40
0.473922578023152
40
0.502174313920857
40
0.502174313920857
40
0.530426049818562
40
0.530426049818562
40
0.558677785716268
40
0.558677785716268
40
0.586929521613973
40
0.586929521613973
40
0.615181257511678
40
0.615181257511678
40
0.643432993409384
40
0.643432993409384
40
0.671684729307089
40
0.671684729307089
40
0.699936465204794
40
0.699936465204794
40
0.7281882011025
40
0.7281882011025
40
0.756439937000205
40
0.756439937000205
40
0.78469167289791
40
0.78469167289791
40
0.812943408795616
40
0.812943408795616
40
0.841195144693321
40
0.841195144693321
40
0.869446880591026
40
0.869446880591026
40
0.897698616488732
40
0.897698616488732
40
0.925950352386437
40
0.925950352386437
40
0.954202088284142
40
0.954202088284142
40
0.982453824181848
40
0.982453824181848
40
1
40
1
40
1
40
1
41
1
10
47.6796791760131
20
-2.81510211415369
30
0
41
1
10
47.5068432893636
20
-2.88101863703375
30
0
41
1
10
47.33438706664
20
-2.94367038798981
30
0
41
1
10
46.9391620116936
20
-3.07868408040801
30
0
41
1
10
46.7164451253851
20
-3.14867713001001
30
0
41
1
10
46.2706679469998
20
-3.27537178462578
30
0
41
1
10
46.047588201546
20
-3.33225828144867
30
0
41
1
10
45.6012145172639
20
-3.43346409146733
30
0
41
1
10
45.378184616973
20
-3.47759342839362
30
0
41
1
10
44.9323001976087
20
-3.55265391364347
30
0
41
1
10
44.7094611361894
20
-3.58357417080111
30
0
41
1
10
44.2640465280532
20
-3.63158276247927
30
0
41
1
10
44.0408047658706
20
-3.64865035967452
30
0
41
1
10
43.5940092182153
20
-3.66731456416483
30
0
41
1
10
43.3709862498449
20
-3.66859436328869
30
0
41
1
10
42.9255195990157
20
-3.65657608578959
30
0
41
1
10
42.7031610007572
20
-3.64453276051788
30
0
41
1
10
42.2573634558005
20
-3.60663989137856
30
0
41
1
10
42.0337842850076
20
-3.58080062361125
30
0
41
1
10
41.5870711507142
20
-3.51310812787992
30
0
41
1
10
41.3644765606974
20
-3.4720457953982
30
0
41
1
10
40.9191177917214
20
-3.37851472789151
30
0
41
1
10
40.6963350626489
20
-3.32555014919154
30
0
41
1
10
40.2502568049275
20
-3.20515233636627
30
0
41
1
10
40.0267042867719
20
-3.13746146799554
30
0
41
1
10
39.5804469523379
20
-2.99177161404495
30
0
41
1
10
39.3575151359483
20
-2.91374965436202
30
0
41
1
10
38.9116544568598
20
-2.74624954113946
30
0
41
1
10
38.6887024792246
20
-2.65636817991123
30
0
41
1
10
38.2428606301325
20
-2.46641501636222
30
0
41
1
10
38.0195399383223
20
-2.36662448128774
30
0
41
1
10
37.5729008150369
20
-2.15888258369773
30
0
41
1
10
37.3498811156854
20
-2.05073263358656
30
0
41
1
10
36.9042284574306
20
-1.82598902096939
30
0
41
1
10
36.6818267308374
20
-1.70962445613785
30
0
41
1
10
36.2359666195673
20
-1.47145087850572
30
0
41
1
10
36.012220381503
20
-1.34923320172771
30
0
41
1
10
35.565557335339
20
-1.09988264091822
30
0
41
1
10
35.3428176688869
20
-0.972668467195149
30
0
41
1
10
34.8975764910064
20
-0.715188936521173
30
0
41
1
10
34.6747954921341
20
-0.585230601752869
30
0
41
1
10
34.2285440439084
20
-0.323216242012137
30
0
41
1
10
34.0047182340192
20
-0.190976395072681
30
0
41
1
10
33.5584472317075
20
0.0742498604863613
30
0
41
1
10
33.3356437312497
20
0.206723158288923
30
0
41
1
10
32.8897281550788
20
0.46953336339098
30
0
41
1
10
32.6666879270297
20
0.599965830679082
30
0
41
1
10
32.2203779621476
20
0.858923710546264
30
0
41
1
10
31.9969818482741
20
0.988089424546587
30
0
41
1
10
31.5505083719351
20
1.24026893131642
30
0
41
1
10
31.3274927129681
20
1.36354698676999
30
0
41
1
10
30.8816396231764
20
1.60408829756369
30
0
41
1
10
30.6590378120025
20
1.72213849300636
30
0
41
1
10
30.21306760368
20
1.95137591257563
30
0
41
1
10
29.9892230581684
20
2.06225612138567
30
0
41
1
10
29.5425686816341
20
2.27434287838807
30
0
41
1
10
29.3196218960421
20
2.37579670264498
30
0
41
1
10
28.8742991231728
20
2.57114455227975
30
0
41
1
10
28.6515239879677
20
2.66399457862886
30
0
41
1
10
28.2050357654796
20
2.83792585133705
30
0
41
1
10
27.9810159558338
20
2.91859614233212
30
0
41
1
10
27.5345358289101
20
3.07028776943474
30
0
41
1
10
27.3118380420627
20
3.14083754051379
30
0
41
1
10
26.8658576910951
20
3.26833453386965
30
0
41
1
10
26.6427093340833
20
3.32473663601743
30
0
41
1
10
26.1959556516786
20
3.42540826725374
30
0
41
1
10
25.9724087367606
20
3.47021122602814
30
0
41
1
10
25.5259847435388
20
3.5454434069039
30
0
41
1
10
25.3029301059456
20
3.57567036728173
30
0
41
1
10
24.8568122363196
20
3.62080280924692
30
0
41
1
10
24.6338905573385
20
3.63707290389701
30
0
41
1
10
24.2722167514636
20
3.65222918410976
30
0
41
1
10
24.1333527584035
20
3.65529283438946
30
0
41
1
10
23.9945108088793
20
3.65534414866627
30
0
0
SPLINE
5
D4
100
AcDbEntity
8
1
62
256
6
ByLayer
370
18
48
1
60
0
100
AcDbSpline
70
4
71
3
72
10
73
6
40
0
40
0
40
0
40
0
40
0.328407492605527
40
0.328407492605527
40
1
40
1
40
1
40
1
41
1
10
8.66147319445494
20
-2.87978964265852
30
0
41
1
10
8.55260301144173
20
-2.91910747636422
30
0
41
1
10
8.44366362044912
20
-2.95705293260309
30
0
41
1
10
8.11162977687255
20
-3.0684857529078
30
0
41
1
10
7.88824188784295
20
-3.137878456165
30
0
41
1
10
7.66444424906757
20
-3.20123206204721
30
0
0
SPLINE
5
D5
100
AcDbEntity
8
1
62
256
6
ByLayer
370
13
48
1
60
0
100
AcDbSpline
70
4
71
3
72
8
73
4
40
0
40
0
40
0
40
0
40
1
40
1
40
1
40
1
41
1
10
4.25114266920889
20
-3.64216330549218
30
0
41
1
10
4.25116560846811
20
-3.64385078087688
30
0
41
1
10
4.25118711191192
20
-3.63658144748649
30
0
41
1
10
4.25120622466108
20
-3.62030967316647
30
0
0
SPLINE
5
D6
100
AcDbEntity
8
1
62
256
6
ByLayer
370
18
48
1
60
0
100
AcDbSpline
70
4
71
3
72
14
73
10
40
0
40
0
40
0
40
0
40
0.283767040277096
40
0.283767040277096
40
0.425650560415643
40
0.425650560415643
40
0.56753408055419
40
0.56753408055419
40
1
40
1
40
1
40
1
41
1
10
4.19841445848297
20
0.112485799610283
30
0
41
1
10
4.7186483473555
20
-0.20251018072247
30
0
41
1
10
5.23591616432458
20
-0.516396425669825
30
0
41
1
10
6.01331899575374
20
-0.975939538018224
30
0
41
1
10
6.27272813193036
20
-1.12719641576908
30
0
41
1
10
6.79322152378145
20
-1.42400560341932
30
0
41
1
10
7.05310031344115
20
-1.56875792252998
30
0
41
1
10
8.0994874656835
20
-2.13304460655584
30
0
41
1
10
8.8784278101825
20
-2.51185968486621
30
0
41
1
10
9.66390816504469
20
-2.82470133779307
30
0
0
SPLINE
5
D7
100
AcDbEntity
8
1
62
256
6
ByLayer
370
13
48
1
60
0
100
AcDbSpline
70
4
71
3
72
20
73
16
40
0
40
0
40
0
40
0
40
0.127319522770126
40
0.127319522770126
40
0.261063476191242
40
0.261063476191242
40
0.394807429612357
40
0.394807429612357
40
0.662295336454588
40
0.662295336454588
40
0.796039289875702
40
0.796039289875702
40
0.929783243296816
40
0.929783243296816
40
1
40
1
40
1
40
1
41
1
10
9.66390848180384
20
-2.8247014639521
30
0
41
1
10
9.90923033705872
20
-2.92240841448114
30
0
41
1
10
10.1551901331425
20
-3.01368003423252
30
0
41
1
10
10.66179659402
20
-3.18639030498886
30
0
41
1
10
10.9227152448862
20
-3.26706414486313
30
0
41
1
10
11.4404554568166
20
-3.40955317470574
30
0
41
1
10
11.6982430272545
20
-3.47172183361019
30
0
41
1
10
12.470199047541
20
-3.6303633785675
30
0
41
1
10
12.982577721294
20
-3.6989745327258
30
0
41
1
10
13.7545981736588
20
-3.74392954024222
30
0
41
1
10
14.0124631595968
20
-3.74923696112001
30
0
41
1
10
14.5302987755065
20
-3.73999995414064
30
0
41
1
10
14.7912039208888
20
-3.72537216730078
30
0
41
1
10
15.1867896792692
20
-3.68824561514805
30
0
41
1
10
15.3226359186997
20
-3.67278636461239
30
0
41
1
10
15.4582254701686
20
-3.65471111766973
30
0
0
SPLINE
5
D8
100
AcDbEntity
8
1
62
256
6
ByLayer
370
18
48
1
60
0
100
AcDbSpline
70
4
71
3
72
30
73
26
40
0
40
0
40
0
40
0
40
0.122454575839267
40
0.122454575839267
40
0.257316323627766
40
0.257316323627766
40
0.392178071416264
40
0.392178071416264
40
0.527039819204764
40
0.527039819204764
40
0.594470693099013
40
0.594470693099013
40
0.628186130046138
40
0.628186130046138
40
0.661901566993263
40
0.661901566993263
40
0.796763314781764
40
0.796763314781764
40
0.931625062570265
40
0.931625062570265
40
0.965340499517391
40
0.965340499517391
40
0.999055936464518
40
0.999055936464518
40
1
40
1
40
1
40
1
41
1
10
38.4074115167287
20
2.62777562431805
30
0
41
1
10
38.8744443404723
20
2.42438497449626
30
0
41
1
10
39.3396629943813
20
2.199655779686
30
0
41
1
10
40.318891189494
20
1.68998042406719
30
0
41
1
10
40.8342357034264
20
1.40220829451741
30
0
41
1
10
41.8740493668798
20
0.795690202660438
30
0
41
1
10
42.3887337312875
20
0.484707519439212
30
0
41
1
10
43.4149419117738
20
-0.140550057792439
30
0
41
1
10
43.9271286366503
20
-0.453715971109062
30
0
41
1
10
44.6997487724369
20
-0.914723237461828
30
0
41
1
10
44.9580043052713
20
-1.06694843129944
30
0
41
1
10
45.3472935251714
20
-1.29172827650925
30
0
41
1
10
45.4774514949074
20
-1.3661004215694
30
0
41
1
10
45.7365903528031
20
-1.51232362319669
30
0
41
1
10
45.8658032072627
20
-1.58432377984127
30
0
41
1
10
46.5106370768632
20
-1.93807353175089
30
0
41
1
10
47.0225902586518
20
-2.20092828390676
30
0
41
1
10
48.046222588848
20
-2.67700021009398
30
0
41
1
10
48.558023443398
20
-2.89007992949061
30
0
41
1
10
49.2032016168378
20
-3.11815136801459
30
0
41
1
10
49.3325088914033
20
-3.16185137949523
30
0
41
1
10
49.5918026746132
20
-3.24524460765832
30
0
41
1
10
49.7219949166496
20
-3.28499291010976
30
0
41
1
10
49.8552958727432
20
-3.32343167640721
30
0
41
1
10
49.8589264813034
20
-3.32447688041464
30
0
41
1
10
49.8625568175028
20
-3.32552028394767
30
0
0
SPLINE
5
D9
100
AcDbEntity
8
1
62
256
6
ByLayer
370
13
48
1
60
0
100
AcDbSpline
70
4
71
3
72
12
73
8
40
0
40
0
40
0
40
0
40
0.197753635593687
40
0.197753635593687
40
0.598876817796844
40
0.598876817796844
40
1
40
1
40
1
40
1
41
1
10
49.862556818019
20
-3.32552028409603
30
0
41
1
10
50.1182276126087
20
-3.39900323324309
30
0
41
1
10
50.3725475380054
20
-3.46355609921483
30
0
41
1
10
51.1402518192072
20
-3.63155437799492
30
0
41
1
10
51.6510821855034
20
-3.70678791595623
30
0
41
1
10
52.6748118671585
20
-3.78025558409235
30
0
41
1
10
53.1877446341813
20
-3.77831283849571
30
0
41
1
10
53.7052057101128
20
-3.73677859330127
30
0
0
SPLINE
5
DA
100
AcDbEntity
8
1
62
256
6
ByLayer
370
18
48
1
60
0
100
AcDbSpline
70
4
71
3
72
24
73
20
40
0
40
0
40
0
40
0
40
0.250000000000031
40
0.250000000000031
40
0.500000000000061
40
0.500000000000061
40
0.625000000000063
40
0.625000000000063
40
0.687500000000053
40
0.687500000000053
40
0.750000000000042
40
0.750000000000042
40
0.812500000000032
40
0.812500000000032
40
0.875000000000021
40
0.875000000000021
40
0.937500000000011
40
0.937500000000011
40
1
40
1
40
1
40
1
41
1
10
53.5159577182876
20
1.1226779104546
30
0
41
1
10
53.6252305038532
20
1.14895582303961
30
0
41
1
10
53.7332214440432
20
1.17903579779386
30
0
41
1
10
53.9448361432286
20
1.2523666172641
30
0
41
1
10
54.0478839707812
20
1.29505592882427
30
0
41
1
10
54.1923024979141
20
1.37792568871237
30
0
41
1
10
54.2391540086089
20
1.40911575413014
30
0
41
1
10
54.3033743953254
20
1.46256650272366
30
0
41
1
10
54.3237741706758
20
1.48149276549319
30
0
41
1
10
54.3620286459068
20
1.52217909845226
30
0
41
1
10
54.3799121922547
20
1.54404155187996
30
0
41
1
10
54.4113628938163
20
1.58984664545724
30
0
41
1
10
54.4250826314125
20
1.61392623643914
30
0
41
1
10
54.4478256974684
20
1.66487273800021
30
0
41
1
10
54.456891435676
20
1.69212806585173
30
0
41
1
10
54.4688973695359
20
1.74710193740915
30
0
41
1
10
54.4719768832162
20
1.77497830898125
30
0
41
1
10
54.4726883616129
20
1.8314744265079
30
0
41
1
10
54.4702475155877
20
1.86026231837323
30
0
41
1
10
54.4655720352201
20
1.88823498626053
30
0
0
SPLINE
5
DB
100
AcDbEntity
8
1
62
256
6
ByLayer
370
18
48
1
60
0
100
AcDbSpline
70
4
71
3
72
14
73
10
40
0
40
0
40
0
40
0
40
0.299281689502913
40
0.299281689502913
40
0.598563379005825
40
0.598563379005825
40
0.897845068508738
40
0.897845068508738
40
1
40
1
40
1
40
1
41
1
10
7.66451299659974
20
3.20125011475702
30
0
41
1
10
7.3715187677858
20
3.28381097343899
30
0
41
1
10
7.0818264039516
20
3.35576788572541
30
0
41
1
10
6.50638442537422
20
3.47870191727245
30
0
41
1
10
6.22066754864187
20
3.52951314114367
30
0
41
1
10
5.6519215040783
20
3.60520573233134
30
0
41
1
10
5.36886923154776
20
3.63020379605081
30
0
41
1
10
4.99081026076988
20
3.64329350269011
30
0
41
1
10
4.89465109416872
20
3.64483186126756
30
0
41
1
10
4.79894276041728
20
3.64446508039453
30
0
0
SPLINE
5
DC
100
AcDbEntity
8
1
62
256
6
ByLayer
370
18
48
1
60
0
100
AcDbSpline
70
4
71
3
72
10
73
6
40
0
40
0
40
0
40
0
40
0.5
40
0.5
40
1
40
1
40
1
40
1
41
1
10
4.02882324770462
20
0.260220954991326
30
0
41
1
10
4.03885295834343
20
0.240732452404387
30
0
41
1
10
4.05170392699972
20
0.221982442382284
30
0
41
1
10
4.08222734304078
20
0.188389536872847
30
0
41
1
10
4.09973483037297
20
0.173547424112257
30
0
41
1
10
4.1198687914146
20
0.160978282212682
30
0
0
SPLINE
5
DD
100
AcDbEntity
8
1
62
256
6
ByLayer
370
18
48
1
60
0
100
AcDbSpline
70
4
71
3
72
22
73
18
40
0
40
0
40
0
40
0
40
0.124999999999999
40
0.124999999999999
40
0.1875
40
0.1875
40
0.250000000000002
40
0.250000000000002
40
0.500000000000001
40
0.500000000000001
40
0.625000000000001
40
0.625000000000001
40
0.75
40
0.75
40
0.875
40
0.875
40
1
40
1
40
1
40
1
41
1
10
53.6638724376874
20
-3.67098030697324
30
0
41
1
10
53.6082455456582
20
-3.67096995905317
30
0
41
1
10
53.555399847289
20
-3.66256330448445
30
0
41
1
10
53.4805291349642
20
-3.63667644310053
30
0
41
1
10
53.4563071379623
20
-3.62582883567126
30
0
41
1
10
53.4093976912313
20
-3.59950088715701
30
0
41
1
10
53.3866745746536
20
-3.5839695430619
30
0
41
1
10
53.2786568592707
20
-3.49556021323468
30
0
41
1
10
53.2085726866284
20
-3.3903623919858
30
0
41
1
10
53.1295200161139
20
-3.17752794237302
30
0
41
1
10
53.1074833346601
20
-3.09653268337186
30
0
41
1
10
53.0740194537301
20
-2.92006648720567
30
0
41
1
10
53.0623785102514
20
-2.82434898336013
30
0
41
1
10
53.0492260937863
20
-2.61802238026536
30
0
41
1
10
53.0477130734957
20
-2.50741555574771
30
0
41
1
10
53.0552561377665
20
-2.27066399351608
30
0
41
1
10
53.0642967381433
20
-2.14624680160765
30
0
41
1
10
53.0783323011144
20
-2.01741490949087
30
0
0
SPLINE
5
DE
100
AcDbEntity
8
1
62
256
6
ByLayer
370
18
48
1
60
0
100
AcDbSpline
70
4
71
3
72
64
73
60
40
0
40
0
40
0
40
0
40
0.0324896810682871
40
0.0324896810682871
40
0.0649793621365743
40
0.0649793621365743
40
0.0974690432048614
40
0.0974690432048614
40
0.129958724273149
40
0.129958724273149
40
0.162448405341436
40
0.162448405341436
40
0.194938086409723
40
0.194938086409723
40
0.22742776747801
40
0.22742776747801
40
0.259917448546297
40
0.259917448546297
40
0.324896810682871
40
0.324896810682871
40
0.357386491751158
40
0.357386491751158
40
0.389876172819445
40
0.389876172819445
40
0.422365853887733
40
0.422365853887733
40
0.45485553495602
40
0.45485553495602
40
0.487345216024307
40
0.487345216024307
40
0.519834897092594
40
0.519834897092594
40
0.552324578160881
40
0.552324578160881
40
0.584814259229168
40
0.584814259229168
40
0.617303940297455
40
0.617303940297455
40
0.649793621365742
40
0.649793621365742
40
0.68228330243403
40
0.68228330243403
40
0.714772983502317
40
0.714772983502317
40
0.747262664570604
40
0.747262664570604
40
0.779752345638891
40
0.779752345638891
40
0.844731707775464
40
0.844731707775464
40
0.877221388843751
40
0.877221388843751
40
0.909711069912038
40
0.909711069912038
40
0.942200750980326
40
0.942200750980326
40
0.974690432048613
40
0.974690432048613
40
1
40
1
40
1
40
1
41
1
10
7.66444424906746
20
3.20123206204727
30
0
41
1
10
7.88820539342811
20
3.13788878716218
30
0
41
1
10
8.1117207515461
20
3.06846149991486
30
0
41
1
10
8.55825031084393
20
2.91859056955892
30
0
41
1
10
8.78123494010268
20
2.83794432215996
30
0
41
1
10
9.22725468256249
20
2.66478694474156
30
0
41
1
10
9.4504212632566
20
2.572476916623
30
0
41
1
10
9.89823114421466
20
2.37916825989709
30
0
41
1
10
10.1217713873861
20
2.27819111548212
30
0
41
1
10
10.567951514469
20
2.06637446703249
30
0
41
1
10
10.7905530238422
20
1.95564405833056
30
0
41
1
10
11.2368338716269
20
1.72830136022049
30
0
41
1
10
11.4602581925925
20
1.61167584726704
30
0
41
1
10
11.9078682072934
20
1.37081352300646
30
0
41
1
10
12.1310017966032
20
1.24694070733443
30
0
41
1
10
12.5769485829998
20
0.995554908388897
30
0
41
1
10
12.8001001526971
20
0.868482167173653
30
0
41
1
10
13.4696497561628
20
0.482293372447174
30
0
41
1
10
13.9169684162445
20
0.216036763996016
30
0
41
1
10
14.5868055907743
20
-0.178946672237004
30
0
41
1
10
14.809888331284
20
-0.310458683749005
30
0
41
1
10
15.2560122698946
20
-0.572451697740803
30
0
41
1
10
15.4790479615423
20
-0.703002123546582
30
0
41
1
10
15.9267754631432
20
-0.960434056128122
30
0
41
1
10
16.1502762658745
20
-1.08745111360241
30
0
41
1
10
16.5964936434931
20
-1.3361071937951
30
0
41
1
10
16.8191214462228
20
-1.45826889899911
30
0
41
1
10
17.2652365510311
20
-1.69627622911992
30
0
41
1
10
17.4887332983558
20
-1.81231527154568
30
0
41
1
10
17.9363463118628
20
-2.03740957422411
30
0
41
1
10
18.1594299983935
20
-2.14553366824418
30
0
41
1
10
18.6050939064915
20
-2.35352389709303
30
0
41
1
10
18.8280906858202
20
-2.45281730297128
30
0
41
1
10
19.2743993287751
20
-2.64249397195451
30
0
41
1
10
19.4978126434223
20
-2.73204118951554
30
0
41
1
10
19.9448773843106
20
-2.900335306404
30
0
41
1
10
20.1678853003369
20
-2.97885197060384
30
0
41
1
10
20.6142133805653
20
-3.12461033210622
30
0
41
1
10
20.8372550060949
20
-3.19199146779289
30
0
41
1
10
21.2834245463849
20
-3.31156827001391
30
0
41
1
10
21.5065733762546
20
-3.36502200622922
30
0
41
1
10
21.953912690417
20
-3.45956731227312
30
0
41
1
10
22.1773544899054
20
-3.50145169706235
30
0
41
1
10
22.6235556422482
20
-3.56914821777835
30
0
41
1
10
22.8462794260243
20
-3.5947176784008
30
0
41
1
10
23.2922518088158
20
-3.63303067643417
30
0
41
1
10
23.5159884865517
20
-3.64596575837467
30
0
41
1
10
24.186957101387
20
-3.66404003808162
30
0
41
1
10
24.631501107036
20
-3.64351134782916
30
0
41
1
10
25.3009130243261
20
-3.57591689415182
30
0
41
1
10
25.5245860445891
20
-3.54565354801468
30
0
41
1
10
25.9713886954547
20
-3.47040855737063
30
0
41
1
10
26.1941304298043
20
-3.42578355556742
30
0
41
1
10
26.6401943763879
20
-3.32533901668538
30
0
41
1
10
26.8632194985693
20
-3.26903882836044
30
0
41
1
10
27.3094950914822
20
-3.14155670270026
30
0
41
1
10
27.5328766198122
20
-3.07082913960309
30
0
41
1
10
27.9302780859768
20
-2.93585160744334
30
0
41
1
10
28.1042322524388
20
-2.8740120488051
30
0
41
1
10
28.2780620491419
20
-2.80851063635322
30
0
0
SPLINE
5
DF
100
AcDbEntity
8
1
62
256
6
ByLayer
370
18
48
1
60
0
100
AcDbSpline
70
4
71
3
72
28
73
24
40
0
40
0
40
0
40
0
40
0.0618153245000669
40
0.0618153245000669
40
0.15563379205006
40
0.15563379205006
40
0.249452259600053
40
0.249452259600053
40
0.343270727150047
40
0.343270727150047
40
0.43708919470004
40
0.43708919470004
40
0.530907662250033
40
0.530907662250033
40
0.624726129800027
40
0.624726129800027
40
0.71854459735002
40
0.71854459735002
40
0.812363064900013
40
0.812363064900013
40
0.906181532450006
40
0.906181532450006
40
1
40
1
40
1
40
1
41
1
10
43.3773375905095
20
3.66615964326681
30
0
41
1
10
43.5245393913459
20
3.66676636058486
30
0
41
1
10
43.6717754044727
20
3.66408534641482
30
0
41
1
10
44.0416394860566
20
3.64858591612435
30
0
41
1
10
44.2641281336185
20
3.63157170000707
30
0
41
1
10
44.7091628116512
20
3.58360859102018
30
0
41
1
10
44.9321064478609
20
3.55269039326995
30
0
41
1
10
45.3787688659228
20
3.47749120848783
30
0
41
1
10
45.6022916248946
20
3.43323203728912
30
0
41
1
10
46.0477606993235
20
3.33220697982955
30
0
41
1
10
46.2702345028187
20
3.27548465511225
30
0
41
1
10
46.715848652454
20
3.14885694919093
30
0
41
1
10
46.9388109283828
20
3.0788076529949
30
0
41
1
10
47.3852382555676
20
2.9262953610081
30
0
41
1
10
47.6082440094888
20
2.84384176995653
30
0
41
1
10
48.0540204653014
20
2.66927558396298
30
0
41
1
10
48.2768483842555
20
2.57680908055141
30
0
41
1
10
48.722458687913
20
2.38190696972484
30
0
41
1
10
48.9450930665559
20
2.27934033798286
30
0
41
1
10
49.3914063714495
20
2.06558158161442
30
0
41
1
10
49.6148337147229
20
1.95491866489886
30
0
41
1
10
50.0606433945432
20
1.72644037858285
30
0
41
1
10
50.2832535239809
20
1.60856679246865
30
0
41
1
10
50.5057616836893
20
1.48738279836451
30
0
0
SPLINE
5
E0
100
AcDbEntity
8
1
62
256
6
ByLayer
370
18
48
1
60
0
100
AcDbSpline
70
4
71
3
72
8
73
4
40
0
40
0
40
0
40
0
40
1
40
1
40
1
40
1
41
1
10
4.02882324769996
20
0.260220955000733
30
0
41
1
10
4.0170098547899
20
0.28259672910508
30
0
41
1
10
4.01041369855824
20
0.307196808943246
30
0
41
1
10
4.01041550491323
20
0.332478166757113
30
0
0
SPLINE
5
E1
100
AcDbEntity
8
1
62
256
6
ByLayer
370
18
48
1
60
0
100
AcDbSpline
70
4
71
3
72
14
73
10
40
0
40
0
40
0
40
0
40
0.0106211661474851
40
0.0106211661474851
40
0.21102371950433
40
0.21102371950433
40
0.411426272861174
40
0.411426272861174
40
1
40
1
40
1
40
1
41
1
10
33.6770119208136
20
-3.65921519924112
30
0
41
1
10
33.6633092282661
20
-3.65920780837345
30
0
41
1
10
33.6496035890972
20
-3.65917340649349
30
0
41
1
10
33.3772369579851
20
-3.65795256587813
30
0
41
1
10
33.1169840840064
20
-3.64701981685235
30
0
41
1
10
32.6004169072826
20
-3.60626209519236
30
0
41
1
10
32.3432303290075
20
-3.57647195663802
30
0
41
1
10
31.3334679979206
20
-3.42349506270207
30
0
41
1
10
30.5855046705212
20
-3.2313433793949
30
0
41
1
10
29.8300538083549
20
-2.96996677366525
30
0
0
SPLINE
5
E2
100
AcDbEntity
8
1
62
256
6
ByLayer
370
13
48
1
60
0
100
AcDbSpline
70
4
71
3
72
22
73
18
40
0
40
0
40
0
40
0
40
0.0880001043646343
40
0.0880001043646343
40
0.253562591772402
40
0.253562591772402
40
0.336343835476288
40
0.336343835476288
40
0.419125079180176
40
0.419125079180176
40
0.58468756658795
40
0.58468756658795
40
0.667468810291837
40
0.667468810291837
40
0.750250053995724
40
0.750250053995724
40
1
40
1
40
1
40
1
41
1
10
29.8300547535931
20
-2.96996710070593
30
0
41
1
10
29.5566161444
20
-2.87536076172731
30
0
41
1
10
29.2821965876727
20
-2.77168520689781
30
0
41
1
10
28.4869109948756
20
-2.44802686749372
30
0
41
1
10
27.9694408258191
20
-2.20958202335029
30
0
41
1
10
27.1922212230379
20
-1.81993470691407
30
0
41
1
10
26.9320805096668
20
-1.68441935910332
30
0
41
1
10
26.4138454402205
20
-1.40646049992765
30
0
41
1
10
26.1559706845819
20
-1.26398751170791
30
0
41
1
10
25.3843690482351
20
-0.828945013722887
30
0
41
1
10
24.8724033274706
20
-0.529171186150137
30
0
41
1
10
24.1026556730314
20
-0.0742767413336196
30
0
41
1
10
23.8456491163914
20
0.0780301941475159
30
0
41
1
10
23.3298110568223
20
0.382323687854608
30
0
41
1
10
23.0706010629655
20
0.534679326610927
30
0
41
1
10
22.0278530735972
20
1.14091489759917
30
0
41
1
10
21.2562292738048
20
1.57189295005267
30
0
41
1
10
20.4823363842743
20
1.95780915619625
30
0
0
SPLINE
5
E3
100
AcDbEntity
8
1
62
256
6
ByLayer
370
13
48
1
60
0
100
AcDbSpline
70
4
71
3
72
30
73
26
40
0
40
0
40
0
40
0
40
0.135124742294476
40
0.135124742294476
40
0.202687113441714
40
0.202687113441714
40
0.270249484588952
40
0.33781185573619
40
0.33781185573619
40
0.405374226883428
40
0.405374226883428
40
0.472936598030666
40
0.472936598030666
40
0.540498969177904
40
0.540498969177904
40
0.67562371147238
40
0.67562371147238
40
0.743186082619618
40
0.743186082619618
40
0.810748453766856
40
0.878310824914095
40
0.878310824914095
40
0.945873196061333
40
0.945873196061333
40
1
40
1
40
1
40
1
41
1
10
4.25038008923835
20
0.192712788064625
30
0
41
1
10
4.25043788930057
20
0.441337871019925
30
0
41
1
10
4.25048297391203
20
0.685635748833562
30
0
41
1
10
4.25053928835402
20
1.04565677985153
30
0
41
1
10
4.2505561323693
20
1.16448696478662
30
0
41
1
10
4.25058670628283
20
1.39539854855442
30
0
41
1
10
4.25061436024959
20
1.62076118730306
30
0
41
1
10
4.25063874472934
20
1.8351881365432
30
0
41
1
10
4.25066264914747
20
2.0440583988397
30
0
41
1
10
4.25067441206158
20
2.14612784804197
30
0
41
1
10
4.25069819539419
20
2.34176549061118
30
0
41
1
10
4.25071022674899
20
2.43545305234846
30
0
41
1
10
4.25073545435896
20
2.61455260172735
30
0
41
1
10
4.25074863164988
20
2.69972767414365
30
0
41
1
10
4.25079020667039
20
2.93870226547179
30
0
41
1
10
4.25082094791912
20
3.07762198465622
30
0
41
1
10
4.25087327853547
20
3.25525822958548
30
0
41
1
10
4.25089183318948
20
3.3095136312233
30
0
41
1
10
4.25093023057045
20
3.40556244509261
30
0
41
1
10
4.25096997768151
20
3.48954417433643
30
0
41
1
10
4.25101163167889
20
3.5496857576382
30
0
41
1
10
4.25105361740773
20
3.59767926526507
30
0
41
1
10
4.25107467152782
20
3.61542451561485
30
0
41
1
10
4.25111137514162
20
3.63591030151687
30
0
41
1
10
4.25112734451929
20
3.64103659059018
30
0
41
1
10
4.25114267276788
20
3.64216356722801
30
0
0
SPLINE
5
E4
100
AcDbEntity
8
1
62
256
6
ByLayer
370
18
48
1
60
0
100
AcDbSpline
70
4
71
3
72
10
73
6
40
0
40
0
40
0
40
0
40
0.87148944923395
40
0.87148944923395
40
1
40
1
40
1
40
1
41
1
10
11.9985850816032
20
-3.71298180445564
30
0
41
1
10
12.4337351309869
20
-3.7786044500385
30
0
41
1
10
12.8698976604093
20
-3.81514396639099
30
0
41
1
10
13.3686501260532
20
-3.82514001438972
30
0
41
1
10
13.432719194349
20
-3.82579963121677
30
0
41
1
10
13.496802357819
20
-3.82583616219634
30
0
0
SPLINE
5
E5
100
AcDbEntity
8
1
62
256
6
ByLayer
370
18
48
1
60
0
100
AcDbSpline
70
4
71
3
72
80
73
76
40
0
40
0
40
0
40
0
40
0.001682768258563
40
0.001682768258563
40
0.0288242867314477
40
0.0288242867314477
40
0.0831073236772173
40
0.0831073236772173
40
0.110248842150102
40
0.110248842150102
40
0.137390360622987
40
0.137390360622987
40
0.164531879095872
40
0.164531879095872
40
0.191673397568757
40
0.191673397568757
40
0.218814916041642
40
0.218814916041642
40
0.245956434514526
40
0.245956434514526
40
0.273097952987411
40
0.273097952987411
40
0.300239471460296
40
0.300239471460296
40
0.32738098993318
40
0.32738098993318
40
0.354522508406065
40
0.354522508406065
40
0.38166402687895
40
0.38166402687895
40
0.408805545351835
40
0.408805545351835
40
0.435947063824719
40
0.435947063824719
40
0.463088582297604
40
0.463088582297604
40
0.490230100770489
40
0.490230100770489
40
0.517371619243374
40
0.517371619243374
40
0.544513137716258
40
0.544513137716258
40
0.571654656189143
40
0.571654656189143
40
0.598796174662028
40
0.598796174662028
40
0.625937693134913
40
0.625937693134913
40
0.653079211607797
40
0.653079211607797
40
0.680220730080682
40
0.680220730080682
40
0.707362248553567
40
0.707362248553567
40
0.734503767026451
40
0.734503767026451
40
0.761645285499336
40
0.761645285499336
40
0.788786803972221
40
0.788786803972221
40
0.815928322445106
40
0.815928322445106
40
0.84306984091799
40
0.84306984091799
40
0.870211359390875
40
0.870211359390875
40
0.89735287786376
40
0.89735287786376
40
0.924494396336645
40
0.924494396336645
40
0.951635914809529
40
0.951635914809529
40
0.978777433282414
40
0.978777433282414
40
1
40
1
40
1
40
1
41
1
10
28.2783969819502
20
2.80919352946162
30
0
41
1
10
28.291887158368
20
2.81487652922257
30
0
41
1
10
28.3053761590563
20
2.82054012390429
30
0
41
1
10
28.5364090863837
20
2.91722173602537
30
0
41
1
10
28.7534277756628
20
3.0034253286143
30
0
41
1
10
29.4043308879549
20
3.24565985311202
30
0
41
1
10
29.8424474377407
20
3.38227012386176
30
0
41
1
10
30.4935560026294
20
3.55017318752181
30
0
41
1
10
30.7102005369859
20
3.59971574106262
30
0
41
1
10
31.1453441246299
20
3.6845895635324
30
0
41
1
10
31.3636042405304
20
3.72027623233004
30
0
41
1
10
31.7994411057193
20
3.77796852767682
30
0
41
1
10
32.0160994551832
20
3.79997214555118
30
0
41
1
10
32.4504587202645
20
3.82939162969149
30
0
41
1
10
32.6680290564915
20
3.83695075612872
30
0
41
1
10
33.1032737788943
20
3.83797661673887
30
0
41
1
10
33.3210989023935
20
3.83139712409133
30
0
41
1
10
33.7557950091176
20
3.8036794923882
30
0
41
1
10
33.9732761301245
20
3.78277367088293
30
0
41
1
10
34.4083234716417
20
3.72729348444955
30
0
41
1
10
34.625809249929
20
3.69270041465526
30
0
41
1
10
35.0601900886535
20
3.60934519762066
30
0
41
1
10
35.2774049573343
20
3.56043059797935
30
0
41
1
10
35.7132456638441
20
3.45049832017574
30
0
41
1
10
35.9310088391607
20
3.38934317376265
30
0
41
1
10
36.365708603643
20
3.254351391771
30
0
41
1
10
36.5821924290093
20
3.18006005350102
30
0
41
1
10
37.0165331010855
20
3.02047225774768
30
0
41
1
10
37.2348101708043
20
2.93527391887582
30
0
41
1
10
37.6708165750912
20
2.75418165232355
30
0
41
1
10
37.8882313447739
20
2.65838241412124
30
0
41
1
10
38.3217492103101
20
2.45595053324138
30
0
41
1
10
38.5388309481701
20
2.35048901006809
30
0
41
1
10
38.9740509757777
20
2.13180650559258
30
0
41
1
10
39.1923129189787
20
2.01819839020212
30
0
41
1
10
39.6275117273749
20
1.78272659821854
30
0
41
1
10
39.8440391691121
20
1.66072160511661
30
0
41
1
10
40.2785998302402
20
1.41353099609685
30
0
41
1
10
40.4961231929843
20
1.28763562204313
30
0
41
1
10
40.9311281687155
20
1.03044687933286
30
0
41
1
10
41.1485406629375
20
0.898331000524252
30
0
41
1
10
41.5832986666488
20
0.632086350971662
30
0
41
1
10
41.8009227402482
20
0.49884523018838
30
0
41
1
10
42.2357987099738
20
0.230772754068965
30
0
41
1
10
42.4530880525975
20
0.0960006839726475
30
0
41
1
10
42.8869233501185
20
-0.175761727691452
30
0
41
1
10
43.1046210980755
20
-0.31161200067649
30
0
41
1
10
43.540363463096
20
-0.579891260615995
30
0
41
1
10
43.7579790197385
20
-0.712719311734077
30
0
41
1
10
44.1922044836919
20
-0.976530337630749
30
0
41
1
10
44.4084887324872
20
-1.1079968209439
30
0
41
1
10
44.8432207306207
20
-1.36411015216552
30
0
41
1
10
45.0615592642407
20
-1.48964282424063
30
0
41
1
10
45.4971499109528
20
-1.73508586979932
30
0
41
1
10
45.7140227297657
20
-1.85535239009562
30
0
41
1
10
46.147487661143
20
-2.08862549568059
30
0
41
1
10
46.3648635037424
20
-2.20058257227367
30
0
41
1
10
46.8000587759193
20
-2.41642621911998
30
0
41
1
10
47.0182571310898
20
-2.52040510253494
30
0
41
1
10
47.4527201222585
20
-2.71970259748608
30
0
41
1
10
47.6694888595695
20
-2.81430414868692
30
0
41
1
10
48.104109070175
20
-2.99144046259664
30
0
41
1
10
48.3215568534401
20
-3.07445559969909
30
0
41
1
10
48.7562325937137
20
-3.22976483789165
30
0
41
1
10
48.9733741976692
20
-3.30245227792682
30
0
41
1
10
49.4083570503095
20
-3.43369210062227
30
0
41
1
10
49.6259096994077
20
-3.492608767966
30
0
41
1
10
50.0605261602961
20
-3.59766880963159
30
0
41
1
10
50.2774098460072
20
-3.64388785521081
30
0
41
1
10
50.7111372284724
20
-3.72289784398171
30
0
41
1
10
50.9292838340324
20
-3.75530250818738
30
0
41
1
10
51.3648099091361
20
-3.80602344333846
30
0
41
1
10
51.5822211209731
20
-3.82438051864781
30
0
41
1
10
51.9685320906412
20
-3.84455284069981
30
0
41
1
10
52.1378140208251
20
-3.84902579481263
30
0
41
1
10
52.3075330759307
20
-3.84912703790798
30
0
0
SPLINE
5
E6
100
AcDbEntity
8
1
62
256
6
ByLayer
370
18
48
1
60
0
100
AcDbSpline
70
4
71
3
72
16
73
12
40
0
40
0
40
0
40
0
40
0.25
40
0.25
40
0.5
40
0.5
40
0.75
40
0.75
40
0.875
40
0.875
40
1
40
1
40
1
40
1
41
1
10
54.4655720352201
20
-1.8882349862601
30
0
41
1
10
54.407359923369
20
-2.04530150773917
30
0
41
1
10
54.348952181837
20
-2.20212496793619
30
0
41
1
10
54.2313395129569
20
-2.51478141998254
30
0
41
1
10
54.1720313483295
20
-2.67060299092969
30
0
41
1
10
54.0533508265531
20
-2.98160738250388
30
0
41
1
10
53.9938977476414
20
-3.13655740713062
30
0
41
1
10
53.9040914486637
20
-3.36591524834381
30
0
41
1
10
53.8741232871862
20
-3.44220767734396
30
0
41
1
10
53.8140798962763
20
-3.5942685070458
30
0
41
1
10
53.7839989537479
20
-3.67000894584282
30
0
41
1
10
53.7537377996002
20
-3.74486736547442
30
0
0
SPLINE
5
E7
100
AcDbEntity
8
1
62
256
6
ByLayer
370
18
48
1
60
0
100
AcDbSpline
70
4
71
3
72
22
73
18
40
0
40
0
40
0
40
0
40
0.125
40
0.125
40
0.187499999999999
40
0.187499999999999
40
0.249999999999998
40
0.249999999999998
40
0.374999999999999
40
0.374999999999999
40
0.500000000000001
40
0.500000000000001
40
0.625000000000002
40
0.625000000000002
40
0.750000000000004
40
0.750000000000004
40
1
40
1
40
1
40
1
41
1
10
50.5057616836885
20
1.48738279836397
30
0
41
1
10
50.5381383558317
20
1.31655275986691
30
0
41
1
10
50.5867871446461
20
1.14444247691083
30
0
41
1
10
50.6814564576321
20
0.884570061892703
30
0
41
1
10
50.7168573623532
20
0.797245861789378
30
0
41
1
10
50.7931138716012
20
0.625434858717881
30
0
41
1
10
50.8340451374216
20
0.540646363659221
30
0
41
1
10
50.9643871739507
20
0.289288869296996
30
0
41
1
10
51.0614108861544
20
0.125533391140806
30
0
41
1
10
51.272139697488
20
-0.194431659240507
30
0
41
1
10
51.3837086605877
20
-0.34745648418027
30
0
41
1
10
51.6168017678522
20
-0.642342539147052
30
0
41
1
10
51.7383474899712
20
-0.784179571970839
30
0
41
1
10
51.9899917754293
20
-1.05826260616351
30
0
41
1
10
52.1205872793894
20
-1.19096051657803
30
0
41
1
10
52.5201157790033
20
-1.57247162290801
30
0
41
1
10
52.7955189871416
20
-1.8041998785645
30
0
41
1
10
53.0783323011143
20
-2.01741490949081
30
0
0
SPLINE
5
E8
100
AcDbEntity
8
1
62
256
6
ByLayer
370
18
48
1
60
0
100
AcDbSpline
70
4
71
3
72
16
73
12
40
0
40
0
40
0
40
0
40
0.25
40
0.25
40
0.5
40
0.5
40
0.75
40
0.75
40
0.875
40
0.875
40
1
40
1
40
1
40
1
41
1
10
54.4655720352201
20
1.88823498626027
30
0
41
1
10
54.407359923369
20
2.04530150773931
30
0
41
1
10
54.348952181837
20
2.20212496793633
30
0
41
1
10
54.2313395129569
20
2.51478141998265
30
0
41
1
10
54.1720313483295
20
2.67060299092984
30
0
41
1
10
54.0533508265531
20
2.98160738250397
30
0
41
1
10
53.9938977476414
20
3.13655740713068
30
0
41
1
10
53.9040914486636
20
3.36591524834384
30
0
41
1
10
53.8741232871861
20
3.44220767734396
30
0
41
1
10
53.8140798962763
20
3.59426850704582
30
0
41
1
10
53.7839989537479
20
3.67000894584282
30
0
41
1
10
53.7537377996002
20
3.74486736547442
30
0
0
SPLINE
5
E9
100
AcDbEntity
8
1
62
256
6
ByLayer
370
18
48
1
60
0
100
AcDbSpline
70
4
71
3
72
10
73
6
40
0
40
0
40
0
40
0
40
0.229116283780089
40
0.229116283780089
40
1
40
1
40
1
40
1
41
1
10
4.0106522683771
20
-3.82014625290782
30
0
41
1
10
4.01065408777322
20
-3.82013011245257
30
0
41
1
10
4.01065588068272
20
-3.81953862348925
30
0
41
1
10
4.01066356047818
20
-3.81445652913459
30
0
41
1
10
4.01066913577642
20
-3.80410695096512
30
0
41
1
10
4.01067418998252
20
-3.7873992764215
30
0
0
SPLINE
5
EA
100
AcDbEntity
8
1
62
256
6
ByLayer
370
13
48
1
60
0
100
AcDbSpline
70
4
71
3
72
10
73
6
40
0
40
0
40
0
40
0
40
0.5
40
0.5
40
1
40
1
40
1
40
1
41
1
10
4.1198687914146
20
0.24071962510385
30
0
41
1
10
4.09208969568726
20
0.251510070775851
30
0
41
1
10
4.06907262428928
20
0.265128776258422
30
0
41
1
10
4.03203227708491
20
0.296739943141148
30
0
41
1
10
4.0188519369276
20
0.313951760703588
30
0
41
1
10
4.01041550491328
20
0.332478166764218
30
0
0
SPLINE
5
EB
100
AcDbEntity
8
SK1
62
256
6
ByLayer
370
18
48
1
60
0
100
AcDbSpline
70
4
71
3
72
14
73
10
40
0
40
0
40
0
40
0
40
0.5
40
0.5
40
0.75
40
0.75
40
0.875
40
0.875
40
1
40
1
40
1
40
1
41
1
10
-35.25
20
2.17018640114367
30
0
41
1
10
-35.2287404812744
20
2.19946744600486
30
0
41
1
10
-35.208362723075
20
2.23270876926111
30
0
41
1
10
-35.1802905070704
20
2.28909943791166
30
0
41
1
10
-35.1714466180788
20
2.30881648537979
30
0
41
1
10
-35.1602396792677
20
2.33988816136605
30
0
41
1
10
-35.1568594217207
20
2.35051712731649
30
0
41
1
10
-35.1517495297275
20
2.37142417380798
30
0
41
1
10
-35.15
20
2.38189728114119
30
0
41
1
10
-35.15
20
2.39073894232055
30
0
0
SPLINE
5
EC
100
AcDbEntity
8
SK1
62
256
6
ByLayer
370
18
48
1
60
0
100
AcDbSpline
70
4
71
3
72
8
73
4
40
0
40
0
40
0
40
0
40
1
40
1
40
1
40
1
41
1
10
-36
20
1.11629420920943
30
0
41
1
10
-35.7560848054632
20
1.46991696835914
30
0
41
1
10
-35.5039315622472
20
1.82044276104534
30
0
41
1
10
-35.25
20
2.17018640114381
30
0
0
SPLINE
5
ED
100
AcDbEntity
8
SK1
62
256
6
ByLayer
370
18
48
1
60
0
100
AcDbSpline
70
4
71
3
72
8
73
4
40
0
40
0
40
0
40
0
40
1
40
1
40
1
40
1
41
1
10
-35.25
20
3.45312157039024
30
0
41
1
10
-35.5038880941382
20
3.10343779955158
30
0
41
1
10
-35.7559775883504
20
2.75300757856246
30
0
41
1
10
-36
20
2.39922937845586
30
0
0
SPLINE
5
EE
100
AcDbEntity
8
SK1
62
256
6
ByLayer
370
18
48
1
60
0
100
AcDbSpline
70
4
71
3
72
14
73
10
40
0
40
0
40
0
40
0
40
0.125000000000001
40
0.125000000000001
40
0.250000000000001
40
0.250000000000001
40
0.500000000000002
40
0.500000000000002
40
1
40
1
40
1
40
1
41
1
10
-35.15
20
3.54538059464232
30
0
41
1
10
-35.15
20
3.5503564652584
30
0
41
1
10
-35.1517507934569
20
3.55250559843455
30
0
41
1
10
-35.1569069278761
20
3.55319632678868
30
0
41
1
10
-35.160234831946
20
3.55186233853317
30
0
41
1
10
-35.1714888412645
20
3.54501541554583
30
0
41
1
10
-35.1802429568047
20
3.53699431221767
30
0
41
1
10
-35.2083191353841
20
3.50787129419652
30
0
41
1
10
-35.2286409685639
20
3.48253967555741
30
0
41
1
10
-35.25
20
3.45312157039024
30
0
0
LINE
5
76
100
AcDbEntity
8
81
62
256
6
ByLayer
370
18
48
1
60
0
100
AcDbLine
10
55
20
0
30
0
11
60
21
0
31
0
39
0
210
0
220
0
230
1
0
LINE
5
77
100
AcDbEntity
8
1
62
256
6
ByLayer
370
18
48
1
60
0
100
AcDbLine
10
4.010644
20
3.820154
30
0
11
0.335528
21
3.817949
31
0
39
0
210
0
220
0
230
1
0
LINE
5
79
100
AcDbEntity
8
1
62
256
6
ByLayer
370
18
48
1
60
0
100
AcDbLine
10
14.084333
20
3.826198
30
0
11
13.496524
21
3.825846
31
0
39
0
210
0
220
0
230
1
0
LINE
5
7A
100
AcDbEntity
8
1
62
256
6
ByLayer
370
18
48
1
60
0
100
AcDbLine
10
33.484243
20
3.837838
30
0
11
32.902101
21
3.837489
31
0
39
0
210
0
220
0
230
1
0
LINE
5
7B
100
AcDbEntity
8
1
62
256
6
ByLayer
370
18
48
1
60
0
100
AcDbLine
10
52.884562
20
3.849479
30
0
11
52.308688
21
3.849133
31
0
39
0
210
0
220
0
230
1
0
LINE
5
7C
100
AcDbEntity
8
1
62
256
6
ByLayer
370
18
48
1
60
0
100
AcDbLine
10
52.308688
20
-3.849133
30
0
11
52.884683
21
-3.849479
31
0
39
0
210
0
220
0
230
1
0
LINE
5
7D
100
AcDbEntity
8
1
62
256
6
ByLayer
370
18
48
1
60
0
100
AcDbLine
10
32.902101
20
-3.837489
30
0
11
33.484386
21
-3.837838
31
0
39
0
210
0
220
0
230
1
0
LINE
5
7E
100
AcDbEntity
8
1
62
256
6
ByLayer
370
18
48
1
60
0
100
AcDbLine
10
13.496524
20
-3.825846
30
0
11
14.08458
21
-3.826199
31
0
39
0
210
0
220
0
230
1
0
LINE
5
7F
100
AcDbEntity
8
1
62
256
6
ByLayer
370
18
48
1
60
0
100
AcDbLine
10
0.335528
20
-3.817949
30
0
11
4.010644
21
-3.820154
31
0
39
0
210
0
220
0
230
1
0
LINE
5
80
100
AcDbEntity
8
SK1
62
256
6
ByLayer
370
18
48
1
60
0
100
AcDbLine
10
-35.133975
20
4
30
0
11
-36
21
2.5
31
0
39
0
210
0
220
0
230
1
0
LINE
5
82
100
AcDbEntity
8
SK1
62
256
6
ByLayer
370
18
48
1
60
0
100
AcDbLine
10
-36
20
-2.5
30
0
11
-35.133975
21
-4
31
0
39
0
210
0
220
0
230
1
0
LINE
5
83
100
AcDbEntity
8
SK1
62
256
6
ByLayer
370
18
48
1
60
0
100
AcDbLine
10
0
20
4
30
0
11
-35.133975
21
4
31
0
39
0
210
0
220
0
230
1
0
LINE
5
84
100
AcDbEntity
8
SK1
62
256
6
ByLayer
370
18
48
1
60
0
100
AcDbLine
10
-35.133975
20
-4
30
0
11
0
21
-4
31
0
39
0
210
0
220
0
230
1
0
LINE
5
85
100
AcDbEntity
8
SK4
62
256
6
ByLayer
370
18
48
0.05
60
0
100
AcDbLine
10
60
20
0
30
0
11
-41
21
0
31
0
39
0
210
0
220
0
230
1
0
LINE
5
87
100
AcDbEntity
8
4
62
256
6
ByLayer
370
18
48
0.05
60
0
100
AcDbLine
10
55
20
0
30
0
11
0
21
0
31
0
39
0
210
0
220
0
230
1
0
LINE
5
89
100
AcDbEntity
8
80
62
256
6
ByLayer
370
18
48
1
60
0
100
AcDbLine
10
0
20
0
30
0
11
-5
21
0
31
0
39
0
210
0
220
0
230
1
0
LINE
5
8A
100
AcDbEntity
8
1
62
256
6
ByLayer
370
18
48
1
60
0
100
AcDbLine
10
53.078332
20
-2.017415
30
0
11
54.894885
21
-0.140891
31
0
39
0
210
0
220
0
230
1
0
LINE
5
8B
100
AcDbEntity
8
1
62
256
6
ByLayer
370
13
48
1
60
0
100
AcDbLine
10
54.119944
20
0.766915
30
0
11
54.923001
21
0.290435
31
0
39
0
210
0
220
0
230
1
0
LINE
5
8C
100
AcDbEntity
8
1
62
256
6
ByLayer
370
18
48
1
60
0
100
AcDbLine
10
55
20
0
30
0
11
54.993082
21
-0.038358
31
0
39
0
210
0
220
0
230
1
0
LINE
5
8D
100
AcDbEntity
8
1
62
256
6
ByLayer
370
18
48
1
60
0
100
AcDbLine
10
54.993082
20
0.038358
30
0
11
55
21
0
31
0
39
0
210
0
220
0
230
1
0
LINE
5
8E
100
AcDbEntity
8
1
62
256
6
ByLayer
370
13
48
1
60
0
100
AcDbLine
10
53.930038
20
0.431585
30
0
11
54.894885
21
-0.140891
31
0
39
0
210
0
220
0
230
1
0
LINE
5
8F
100
AcDbEntity
8
1
62
256
6
ByLayer
370
18
48
1
60
0
100
AcDbLine
10
0
20
-4
30
0
11
0
21
4
31
0
39
0
210
0
220
0
230
1
0
LINE
5
90
100
AcDbEntity
8
1
62
256
6
ByLayer
370
18
48
1
60
0
100
AcDbLine
10
55
20
0
30
0
11
53.663872
21
-3.67098
31
0
39
0
210
0
220
0
230
1
0
LINE
5
91
100
AcDbEntity
8
1
62
256
6
ByLayer
370
13
48
1
60
0
100
AcDbLine
10
54.811835
20
0.766915
30
0
11
54.119944
21
0.766915
31
0
39
0
210
0
220
0
230
1
0
LINE
5
92
100
AcDbEntity
8
1
62
256
6
ByLayer
370
18
48
1
60
0
100
AcDbLine
10
54.923001
20
-0.290435
30
0
11
54.811835
21
-0.766915
31
0
39
0
210
0
220
0
230
1
0
LINE
5
93
100
AcDbEntity
8
1
62
256
6
ByLayer
370
18
48
1
60
0
100
AcDbLine
10
54.923001
20
0.290435
30
0
11
54.811835
21
0.766915
31
0
39
0
210
0
220
0
230
1
0
LINE
5
94
100
AcDbEntity
8
1
62
256
6
ByLayer
370
13
48
1
60
0
100
AcDbLine
10
0.335528
20
3.817949
30
0
11
0.335528
21
-3.817949
31
0
39
0
210
0
220
0
230
1
0
LINE
5
95
100
AcDbEntity
8
1
62
256
6
ByLayer
370
13
48
1
60
0
100
AcDbLine
10
0.167704
20
3.908975
30
0
11
0.167704
21
-3.908975
31
0
39
0
210
0
220
0
230
1
0
LINE
5
96
100
AcDbEntity
8
SK1
62
256
6
ByLayer
370
18
48
1
60
0
100
AcDbLine
10
0
20
-4
30
0
11
0
21
4
31
0
39
0
210
0
220
0
230
1
0
LINE
5
97
100
AcDbEntity
8
SK1
62
256
6
ByLayer
370
18
48
1
60
0
100
AcDbLine
10
-36
20
1.116294
30
0
11
-36
21
-2.5
31
0
39
0
210
0
220
0
230
1
0
LINE
5
98
100
AcDbEntity
8
SK1
62
256
6
ByLayer
370
18
48
1
60
0
100
AcDbLine
10
-36
20
2.5
30
0
11
-36
21
2.399229
31
0
39
0
210
0
220
0
230
1
0
LINE
5
99
100
AcDbEntity
8
SK1
62
256
6
ByLayer
370
18
48
1
60
0
100
AcDbLine
10
-35.15
20
2.390739
30
0
11
-35.15
21
3.545381
31
0
39
0
210
0
220
0
230
1
0
LINE
5
9A
100
AcDbEntity
8
SK1
62
256
6
ByLayer
370
13
48
1
60
0
100
AcDbLine
10
-35.25
20
3.453122
30
0
11
-35.25
21
2.170129
31
0
39
0
210
0
220
0
230
1
0
LINE
5
9B
100
AcDbEntity
8
SK1
62
256
6
ByLayer
370
18
48
1
60
0
100
AcDbLine
10
-35.133975
20
4
30
0
11
-35.133975
21
-4
31
0
39
0
210
0
220
0
230
1
0
LINE
5
9C
100
AcDbEntity
8
SK1
62
256
6
ByLayer
370
18
48
1
60
0
100
AcDbLine
10
-36
20
2.399229
30
0
11
-36
21
1.116283
31
0
39
0
210
0
220
0
230
1
0
MTEXT
5
EF
100
AcDbEntity
8
SK6
62
256
6
ByLayer
370
13
48
1
60
0
100
AcDbMText
10
11.629169
20
36.232694
30
0
210
0
220
0
230
1
1
\W0.7542;R840-0770-50-A1A1220
40
3.5
41
0
44
1.084337
50
0
71
8
72
5
7
iso_b_vert
0
DIMENSION
5
FC
100
AcDbEntity
8
SK2
62
256
6
ByLayer
370
13
48
1
60
0
100
AcDbDimension
2
DimnDraft3D1
10
53.69
20
-14.063398
30
0
11
25.440059
21
-14.063398
31
0
70
32
71
5
72
1
41
1
210
0
220
0
230
1
3
Standard
100
AcDbAlignedDimension
13
0
23
-1.5875
33
0
14
53.69
24
-5.4375
34
0
50
0
100
AcDbRotatedDimension
1001
ACAD
1000
DSTYLE
1002
{
1070
   279
1070
     0
1070
   172
1070
     1
1070
   173
1070
     1
1070
   340
1005
F0
1070
   271
1070
     2
1070
   272
1070
     2
1070
    77
1070
     1
1070
    73
1070
     0
1070
   171
1070
     3
1070
   274
1070
     4
1070
   177
1070
    35
1070
   176
1070
    35
1070
   178
1070
    35
1070
    48
1040
-0.005
1070
    41
1041
3.5
1070
   147
1041
1.75
1070
    42
1041
1.5875
1070
    44
1041
2.0
1070
   140
1041
3.5
1070
   343
1005
0
1070
   344
1005
0
1002
}
0
DIMENSION
5
106
100
AcDbEntity
8
SK2
62
256
6
ByLayer
370
13
48
1
60
0
100
AcDbDimension
2
DimnDraft3D2
10
55
20
-32.692985
30
0
11
9.5313
21
-32.692985
31
0
70
32
71
5
72
1
41
1
210
0
220
0
230
1
3
Standard
100
AcDbAlignedDimension
13
-36
23
-5.5875
33
0
14
55
24
-1.5875
34
0
50
0
100
AcDbRotatedDimension
1001
ACAD
1000
DSTYLE
1002
{
1070
   279
1070
     0
1070
   172
1070
     1
1070
   173
1070
     1
1070
   340
1005
F0
1070
   271
1070
     2
1070
   272
1070
     2
1070
    77
1070
     1
1070
    73
1070
     0
1070
   171
1070
     3
1070
   274
1070
     4
1070
   177
1070
    35
1070
   176
1070
    35
1070
   178
1070
    35
1070
    48
1040
-0.005
1070
    41
1041
3.5
1070
   147
1041
1.75
1070
    42
1041
1.5875
1070
    44
1041
2.0
1070
   140
1041
3.5
1070
   343
1005
0
1070
   344
1005
0
1002
}
0
DIMENSION
5
110
100
AcDbEntity
8
SK2
62
256
6
ByLayer
370
13
48
1
60
0
100
AcDbDimension
2
DimnDraft3D3
10
55
20
15.459119
30
0
11
35.095
21
15.459119
31
0
70
32
71
5
72
1
41
1
210
0
220
0
230
1
3
Standard
100
AcDbAlignedDimension
13
15.19
23
5.4375
33
0
14
55
24
1.5875
34
0
50
0
100
AcDbRotatedDimension
1001
ACAD
1000
DSTYLE
1002
{
1070
   279
1070
     0
1070
   172
1070
     1
1070
   173
1070
     1
1070
   340
1005
F0
1070
   271
1070
     2
1070
   272
1070
     2
1070
    77
1070
     1
1070
    73
1070
     0
1070
   171
1070
     3
1070
   274
1070
     4
1070
   177
1070
    35
1070
   176
1070
    35
1070
   178
1070
    35
1070
    48
1040
-0.005
1070
    41
1041
3.5
1070
   147
1041
1.75
1070
    42
1041
1.5875
1070
    44
1041
2.0
1070
   140
1041
3.5
1070
   343
1005
0
1070
   344
1005
0
1002
}
0
DIMENSION
5
11A
100
AcDbEntity
8
SK2
62
256
6
ByLayer
370
13
48
1
60
0
100
AcDbDimension
2
DimnDraft3D4
10
53.69
20
-16.652503
30
0
11
64.981425
21
-16.652503
31
0
70
32
71
5
72
1
41
1
210
0
220
0
230
1
3
Standard
100
AcDbAlignedDimension
13
55
23
-1.5875
33
0
14
53.69
24
-5.4375
34
0
50
0
100
AcDbRotatedDimension
1001
ACAD
1000
DSTYLE
1002
{
1070
   279
1070
     0
1070
   172
1070
     1
1070
   173
1070
     1
1070
   340
1005
F0
1070
   271
1070
     2
1070
   272
1070
     2
1070
    77
1070
     1
1070
    73
1070
     0
1070
   171
1070
     3
1070
   274
1070
     4
1070
   177
1070
    35
1070
   176
1070
    35
1070
   178
1070
    35
1070
    48
1040
-0.005
1070
    41
1041
3.5
1070
   147
1041
1.75
1070
    42
1041
1.5875
1070
    44
1041
2.0
1070
   140
1041
3.5
1070
   343
1005
0
1070
   344
1005
0
1002
}
0
DIMENSION
5
124
100
AcDbEntity
8
SK2
62
256
6
ByLayer
370
13
48
1
60
0
100
AcDbDimension
2
DimnDraft3D5
10
53.69
20
-22.343428
30
0
11
6.450676
21
-22.343428
31
0
70
32
71
5
72
1
41
1
210
0
220
0
230
1
3
Standard
100
AcDbAlignedDimension
13
-36
23
-5.5875
33
0
14
53.69
24
-5.4375
34
0
50
0
100
AcDbRotatedDimension
1001
ACAD
1000
DSTYLE
1002
{
1070
   279
1070
     0
1070
   172
1070
     1
1070
   173
1070
     1
1070
   340
1005
F0
1070
   271
1070
     2
1070
   272
1070
     2
1070
    77
1070
     1
1070
    73
1070
     0
1070
   171
1070
     3
1070
   274
1070
     4
1070
   177
1070
    35
1070
   176
1070
    35
1070
   178
1070
    35
1070
    48
1040
-0.005
1070
    41
1041
3.5
1070
   147
1041
1.75
1070
    42
1041
1.5875
1070
    44
1041
2.0
1070
   140
1041
3.5
1070
   343
1005
0
1070
   344
1005
0
1002
}
0
DIMENSION
5
12F
100
AcDbEntity
8
SK2
62
256
6
ByLayer
370
13
48
1
60
0
100
AcDbDimension
2
DimnDraft3D6
10
-46.625163
20
4
30
0
11
-47.250163
21
22.47418
31
0
70
33
71
5
72
1
41
1
210
0
220
0
230
1
3
Standard
100
AcDbAlignedDimension
13
-37.5875
23
-4
33
0
14
-37.5875
24
4
34
0
1001
ACAD
1000
DSTYLE
1002
{
1070
   279
1070
     0
1070
    74
1070
     0
1070
   173
1070
     1
1070
   340
1005
F0
1070
   271
1070
     3
1070
   272
1070
     2
1070
    77
1070
     1
1070
    73
1070
     0
1070
   171
1070
     3
1070
   274
1070
     4
1070
   177
1070
    35
1070
   176
1070
    35
1070
   178
1070
    35
1070
    48
1040
-0.005
1070
    41
1041
3.5
1070
   147
1041
1.75
1070
    42
1041
1.5875
1070
    44
1041
2.0
1070
   140
1041
3.5
1070
   343
1005
0
1070
   344
1005
0
1002
}
0
DIMENSION
5
13A
100
AcDbEntity
8
2
62
256
6
ByLayer
370
13
48
1
60
0
100
AcDbDimension
2
DimnDraft3D7
10
69.083343
20
3.85
30
0
11
64.458343
21
20.917266
31
0
70
33
71
5
72
1
41
1
210
0
220
0
230
1
3
Standard
100
AcDbAlignedDimension
13
55.2775
23
-3.85
33
0
14
55.2775
24
3.85
34
0
1001
ACAD
1000
DSTYLE
1002
{
1070
   279
1070
     0
1070
    74
1070
     0
1070
   173
1070
     1
1070
   340
1005
F0
1070
   271
1070
     3
1070
   272
1070
     2
1070
    77
1070
     1
1070
    73
1070
     0
1070
   171
1070
     3
1070
   274
1070
     4
1070
   177
1070
    35
1070
   176
1070
    35
1070
   178
1070
    35
1070
    48
1040
-0.005
1070
    41
1041
3.5
1070
   147
1041
1.75
1070
    42
1041
1.5875
1070
    44
1041
2.0
1070
   140
1041
3.5
1070
   343
1005
0
1070
   344
1005
0
1002
}
0
ENDSEC
0
SECTION
2
OBJECTS
0
DICTIONARY
5
1a5
330
0
100
AcDbDictionary
280
0
281
1
3
ACAD_GROUP
350
1a6
3
ACAD_MLINESTYLE
350
1a7
0
DICTIONARY
5
1a6
330
0
100
AcDbDictionary
280
0
281
1
0
DICTIONARY
5
1a7
330
0
100
AcDbDictionary
280
0
281
1
3
Standard
350
18
0
MLINESTYLE
5
18
330
1a7
100
AcDbMlineStyle
2
Standard
70
0
3

62
256
51
90
52
90
71
2
49
-0.5
62
256
6
ByLayer
49
0.5
62
256
6
ByLayer
0
RASTERVARIABLES
5
193
330

100
AcDbRasterVariables
90
0
70
1
71
1
72
1
0
ENDSEC
0
EOF
