0
SECTION
2
HEADER
9
$ACADVER
1
AC1015
9
$DWGCODEPAGE
3
ANSI_1252
9
$HANDSEED
5
1a9
9
$ANGBASE
50
0
9
$ANGDIR
70
0
9
$ATTMODE
70
1
9
$AUNITS
70
0
9
$AUPREC
70
0
9
$CECOLOR
62
256
9
$CELTSCALE
40
1
9
$CELTYPE
6
ByLayer
9
$CELWEIGHT
370
18
9
$CLAYER
8
0
9
$CMLJUST
70
0
9
$CMLSCALE
40
1
9
$CMLSTYLE
2
Standard
9
$DIMSTYLE
2
Standard
9
$TEXTSIZE
40
0.2
9
$TEXTSTYLE
7
Standard
9
$LUNITS
70
2
9
$LUPREC
70
4
9
$EXTNAMES
290
1
9
$INSUNITS
70
4
9
$LTSCALE
40
1
9
$LWDISPLAY
290
1
9
$PDMODE
70
0
9
$PDSIZE
40
0
9
$PLINEGEN
70
0
0
ENDSEC
0
SECTION
2
CLASSES
0
CLASS
1
RASTERVARIABLES
2
AcDbRasterVariables
3
ISM
90
0
280
0
281
0
0
ENDSEC
0
SECTION
2
TABLES
0
TABLE
2
VPORT
5
19f
100
AcDbSymbolTable
0
VPORT
5
1
100
AcDbSymbolTableRecord
100
AcDbViewportTableRecord
2
*Active
70
0
10
0
20
0
11
1
21
1
12
-1
22
1
13
0
23
0
14
0.5
24
0.5
15
10
25
10
16
0
26
0
36
1
17
0
27
0
37
0
0
ENDTAB
0
TABLE
2
LTYPE
5
1a0
100
AcDbSymbolTable
0
LTYPE
5
14
100
AcDbSymbolTableRecord
100
AcDbLinetypeTableRecord
70
0
2
ByBlock
3

72
65
73
0
40
0
0
LTYPE
5
15
100
AcDbSymbolTableRecord
100
AcDbLinetypeTableRecord
70
0
2
ByLayer
3

72
65
73
0
40
0
0
LTYPE
5
16
100
AcDbSymbolTableRecord
100
AcDbLinetypeTableRecord
70
0
2
CONTINUOUS
3
Solid line
72
65
73
0
40
0
0
LTYPE
5
6A
100
AcDbSymbolTableRecord
100
AcDbLinetypeTableRecord
70
0
2
CENTER
3
____ _ ____ _ ____ _ ____
72
65
73
4
40
47.5
49
22
74
0
49
-8.5
74
0
49
8.5
74
0
49
-8.5
74
0
0
LTYPE
5
6B
100
AcDbSymbolTableRecord
100
AcDbLinetypeTableRecord
70
0
2
DASHED
3
__ __ __ __ __ __ __ __ __
72
65
73
2
40
25.72
49
12.86
74
0
49
-12.86
74
0
0
ENDTAB
0
TABLE
2
LAYER
5
1a1
100
AcDbSymbolTable
0
LAYER
5
10
100
AcDbSymbolTableRecord
100
AcDbLayerTableRecord
2
0
70
0
62
7
6
CONTINUOUS
290
1
370
-3
390
0
0
LAYER
5
6D
100
AcDbSymbolTableRecord
100
AcDbLayerTableRecord
2
81
70
0
62
-3
6
CONTINUOUS
290
1
370
-3
390
0
0
LAYER
5
6F
100
AcDbSymbolTableRecord
100
AcDbLayerTableRecord
2
80
70
0
62
-6
6
CONTINUOUS
290
1
370
-3
390
0
0
LAYER
5
74
100
AcDbSymbolTableRecord
100
AcDbLayerTableRecord
2
2
70
0
62
7
6
CONTINUOUS
290
1
370
-3
390
0
0
LAYER
5
78
100
AcDbSymbolTableRecord
100
AcDbLayerTableRecord
2
1
70
0
62
4
6
CONTINUOUS
290
1
370
-3
390
0
0
LAYER
5
88
100
AcDbSymbolTableRecord
100
AcDbLayerTableRecord
2
4
70
0
62
-2
6
CENTER
290
1
370
-3
390
0
0
LAYER
5
18b
100
AcDbSymbolTableRecord
100
AcDbLayerTableRecord
2
SK2
70
0
62
7
6
CONTINUOUS
290
1
370
-3
390
0
0
LAYER
5
18c
100
AcDbSymbolTableRecord
100
AcDbLayerTableRecord
2
SK1
70
0
62
4
6
CONTINUOUS
290
1
370
-3
390
0
0
LAYER
5
18d
100
AcDbSymbolTableRecord
100
AcDbLayerTableRecord
2
SK4
70
0
62
2
6
CENTER
290
1
370
-3
390
0
0
LAYER
5
18e
100
AcDbSymbolTableRecord
100
AcDbLayerTableRecord
2
SK6
70
0
62
5
6
CONTINUOUS
290
1
370
-3
390
0
0
ENDTAB
0
TABLE
2
STYLE
5
1a2
100
AcDbSymbolTable
0
STYLE
5
11
100
AcDbSymbolTableRecord
100
AcDbTextStyleTableRecord
2
Standard
3
txt
70
0
71
0
40
0
41
1
42
0
50
0
0
STYLE
5
E7
100
AcDbSymbolTableRecord
100
AcDbTextStyleTableRecord
2
iso_b_vert
3
simplex.shx
70
0
71
0
40
0
41
1
42
0
50
0
0
STYLE
5
E8
100
AcDbSymbolTableRecord
100
AcDbTextStyleTableRecord
2
DWGDirectTextStyle
3
simplex
70
0
71
0
40
0
41
1
42
0
50
0
0
ENDTAB
0
TABLE
2
DIMSTYLE
5
1a3
100
AcDbSymbolTable
100
AcDbDimStyleTable
0
DIMSTYLE
105
27
100
AcDbSymbolTableRecord
100
AcDbDimStyleTableRecord
2
Standard
70
0
3
<>
41
0.18
42
0.0625
44
0.18
140
0.18
147
0.09
73
0
74
0
77
1
271
2
275
0
278
52
280
0
340
11
0
ENDTAB
0
TABLE
2
VIEW
5
1a4
100
AcDbSymbolTable
0
ENDTAB
0
TABLE
2
UCS
5
1a5
100
AcDbSymbolTable
0
ENDTAB
0
TABLE
2
APPID
5
1a6
100
AcDbSymbolTable
0
APPID
5
12
100
AcDbSymbolTableRecord
100
AcDbRegAppTableRecord
2
ACAD
70
0
0
ENDTAB
0
TABLE
2
BLOCK_RECORD
5
1a7
100
AcDbSymbolTable
0
BLOCK_RECORD
5
1F
100
AcDbSymbolTableRecord
100
AcDbBlockTableRecord
2
*Model_Space
340
0
70
0
0
BLOCK_RECORD
5
1B
100
AcDbSymbolTableRecord
100
AcDbBlockTableRecord
2
*Paper_Space
340
0
70
0
0
BLOCK_RECORD
5
23
100
AcDbSymbolTableRecord
100
AcDbBlockTableRecord
2
*Paper_Space0
340
0
70
0
0
BLOCK_RECORD
5
EA
100
AcDbSymbolTableRecord
100
AcDbBlockTableRecord
2
DimnDraft3D1
340
0
70
0
0
BLOCK_RECORD
5
F4
100
AcDbSymbolTableRecord
100
AcDbBlockTableRecord
2
DimnDraft3D2
340
0
70
0
0
BLOCK_RECORD
5
FE
100
AcDbSymbolTableRecord
100
AcDbBlockTableRecord
2
DimnDraft3D3
340
0
70
0
0
BLOCK_RECORD
5
108
100
AcDbSymbolTableRecord
100
AcDbBlockTableRecord
2
DimnDraft3D4
340
0
70
0
0
BLOCK_RECORD
5
112
100
AcDbSymbolTableRecord
100
AcDbBlockTableRecord
2
DimnDraft3D5
340
0
70
0
0
BLOCK_RECORD
5
11C
100
AcDbSymbolTableRecord
100
AcDbBlockTableRecord
2
DimnDraft3D6
340
0
70
0
0
BLOCK_RECORD
5
127
100
AcDbSymbolTableRecord
100
AcDbBlockTableRecord
2
DimnDraft3D7
340
0
70
0
0
ENDTAB
0
ENDSEC
0
SECTION
2
BLOCKS
0
BLOCK
5
20
100
AcDbEntity
8
0
100
AcDbBlockBegin
2
*Model_Space
70
0
10
0
20
0
30
0
3
*Model_Space
0
ENDBLK
5
21
100
AcDbEntity
8
0
100
AcDbBlockEnd
0
BLOCK
5
1C
100
AcDbEntity
8
0
100
AcDbBlockBegin
2
*Paper_Space
70
0
10
0
20
0
30
0
3
*Paper_Space
0
ENDBLK
5
1D
100
AcDbEntity
8
0
100
AcDbBlockEnd
0
BLOCK
5
24
100
AcDbEntity
8
0
100
AcDbBlockBegin
2
*Paper_Space0
70
0
10
0
20
0
30
0
3
*Paper_Space0
0
ENDBLK
5
25
100
AcDbEntity
8
0
100
AcDbBlockEnd
0
BLOCK
5
F1
100
AcDbEntity
8
0
100
AcDbBlockBegin
2
DimnDraft3D1
70
0
10
0
20
0
30
0
3
DimnDraft3D1
0
MTEXT
5
EB
100
AcDbEntity
8
SK2
62
256
6
ByLayer
370
13
48
1
60
0
100
AcDbMText
10
21.031375
20
-13.088398
30
0
210
0
220
0
230
1
1
\W0.7317;53,73
40
3.5
41
0
44
1.084337
50
0
71
7
72
5
7
iso_b_vert
0
LINE
5
EC
100
AcDbEntity
8
SK2
62
256
6
ByLayer
370
13
48
1
60
0
100
AcDbLine
10
0
20
-1.5875
30
0
11
0
21
-15.963398
31
0
39
0
210
0
220
0
230
1
0
LINE
5
ED
100
AcDbEntity
8
SK2
62
256
6
ByLayer
370
13
48
1
60
0
100
AcDbLine
10
53.73
20
-5.3375
30
0
11
53.73
21
-15.963398
31
0
39
0
210
0
220
0
230
1
0
LINE
5
EE
100
AcDbEntity
8
SK2
62
256
6
ByLayer
370
13
48
1
60
0
100
AcDbLine
10
0
20
-13.963398
30
0
11
53.73
21
-13.963398
31
0
39
0
210
0
220
0
230
1
0
SOLID
5
EF
100
AcDbEntity
8
SK2
62
256
6
ByLayer
370
13
48
1
60
0
100
AcDbTrace
10
0
20
-13.963398
30
0
11
3.499998
21
-13.502615
31
0
12
3.500002
22
-14.424182
32
0
13
0
23
-13.963398
33
0
39
0
210
0
220
0
230
1
0
SOLID
5
F0
100
AcDbEntity
8
SK2
62
256
6
ByLayer
370
13
48
1
60
0
100
AcDbTrace
10
53.73
20
-13.963398
30
0
11
50.230002
21
-14.424182
31
0
12
50.229998
22
-13.502615
32
0
13
53.73
23
-13.963398
33
0
39
0
210
0
220
0
230
1
0
ENDBLK
5
F2
100
AcDbEntity
8
0
100
AcDbBlockEnd
0
BLOCK
5
FB
100
AcDbEntity
8
0
100
AcDbBlockBegin
2
DimnDraft3D2
70
0
10
0
20
0
30
0
3
DimnDraft3D2
0
MTEXT
5
F5
100
AcDbEntity
8
SK2
62
256
6
ByLayer
370
13
48
1
60
0
100
AcDbMText
10
5.560116
20
-31.817985
30
0
210
0
220
0
230
1
1
\W0.6713;91,00
40
3.5
41
0
44
1.084337
50
0
71
7
72
5
7
iso_b_vert
0
LINE
5
F6
100
AcDbEntity
8
SK2
62
256
6
ByLayer
370
13
48
1
60
0
100
AcDbLine
10
-36
20
-5.5875
30
0
11
-36
21
-34.692985
31
0
39
0
210
0
220
0
230
1
0
LINE
5
F7
100
AcDbEntity
8
SK2
62
256
6
ByLayer
370
13
48
1
60
0
100
AcDbLine
10
55
20
-1.5875
30
0
11
55
21
-34.692985
31
0
39
0
210
0
220
0
230
1
0
LINE
5
F8
100
AcDbEntity
8
SK2
62
256
6
ByLayer
370
13
48
1
60
0
100
AcDbLine
10
-36
20
-32.692985
30
0
11
55
21
-32.692985
31
0
39
0
210
0
220
0
230
1
0
SOLID
5
F9
100
AcDbEntity
8
SK2
62
256
6
ByLayer
370
13
48
1
60
0
100
AcDbTrace
10
-36
20
-32.692985
30
0
11
-32.500002
21
-32.232202
31
0
12
-32.499998
22
-33.153769
32
0
13
-36
23
-32.692985
33
0
39
0
210
0
220
0
230
1
0
SOLID
5
FA
100
AcDbEntity
8
SK2
62
256
6
ByLayer
370
13
48
1
60
0
100
AcDbTrace
10
55
20
-32.692985
30
0
11
51.500002
21
-33.153769
31
0
12
51.499998
22
-32.232202
32
0
13
55
23
-32.692985
33
0
39
0
210
0
220
0
230
1
0
ENDBLK
5
FC
100
AcDbEntity
8
0
100
AcDbBlockEnd
0
BLOCK
5
105
100
AcDbEntity
8
0
100
AcDbBlockBegin
2
DimnDraft3D3
70
0
10
0
20
0
30
0
3
DimnDraft3D3
0
MTEXT
5
FF
100
AcDbEntity
8
SK2
62
256
6
ByLayer
370
13
48
1
60
0
100
AcDbMText
10
31.166316
20
16.234119
30
0
210
0
220
0
230
1
1
\W0.7317;38,77
40
3.5
41
0
44
1.084337
50
0
71
7
72
5
7
iso_b_vert
0
LINE
5
100
100
AcDbEntity
8
SK2
62
256
6
ByLayer
370
13
48
1
60
0
100
AcDbLine
10
16.23
20
5.3375
30
0
11
16.23
21
17.359119
31
0
39
0
210
0
220
0
230
1
0
LINE
5
101
100
AcDbEntity
8
SK2
62
256
6
ByLayer
370
13
48
1
60
0
100
AcDbLine
10
55
20
1.5875
30
0
11
55
21
17.359119
31
0
39
0
210
0
220
0
230
1
0
LINE
5
102
100
AcDbEntity
8
SK2
62
256
6
ByLayer
370
13
48
1
60
0
100
AcDbLine
10
16.23
20
15.359119
30
0
11
55
21
15.359119
31
0
39
0
210
0
220
0
230
1
0
SOLID
5
103
100
AcDbEntity
8
SK2
62
256
6
ByLayer
370
13
48
1
60
0
100
AcDbTrace
10
16.23
20
15.359119
30
0
11
19.729998
21
15.819903
31
0
12
19.730002
22
14.898335
32
0
13
16.23
23
15.359119
33
0
39
0
210
0
220
0
230
1
0
SOLID
5
104
100
AcDbEntity
8
SK2
62
256
6
ByLayer
370
13
48
1
60
0
100
AcDbTrace
10
55
20
15.359119
30
0
11
51.500002
21
14.898335
31
0
12
51.499998
22
15.819903
32
0
13
55
23
15.359119
33
0
39
0
210
0
220
0
230
1
0
ENDBLK
5
106
100
AcDbEntity
8
0
100
AcDbBlockEnd
0
BLOCK
5
10F
100
AcDbEntity
8
0
100
AcDbBlockBegin
2
DimnDraft3D4
70
0
10
0
20
0
30
0
3
DimnDraft3D4
0
MTEXT
5
109
100
AcDbEntity
8
SK2
62
256
6
ByLayer
370
13
48
1
60
0
100
AcDbMText
10
62.278136
20
-15.677503
30
0
210
0
220
0
230
1
1
\W0.6367;1,27
40
3.5
41
0
44
1.084337
50
0
71
7
72
5
7
iso_b_vert
0
LINE
5
10A
100
AcDbEntity
8
SK2
62
256
6
ByLayer
370
13
48
1
60
0
100
AcDbLine
10
55
20
-1.5875
30
0
11
55
21
-18.552503
31
0
39
0
210
0
220
0
230
1
0
LINE
5
10B
100
AcDbEntity
8
SK2
62
256
6
ByLayer
370
13
48
1
60
0
100
AcDbLine
10
53.73
20
-5.3375
30
0
11
53.73
21
-18.552503
31
0
39
0
210
0
220
0
230
1
0
LINE
5
10C
100
AcDbEntity
8
SK2
62
256
6
ByLayer
370
13
48
1
60
0
100
AcDbLine
10
44.98
20
-16.552503
30
0
11
68.559715
21
-16.552503
31
0
39
0
210
0
220
0
230
1
0
SOLID
5
10D
100
AcDbEntity
8
SK2
62
256
6
ByLayer
370
13
48
1
60
0
100
AcDbTrace
10
55
20
-16.552503
30
0
11
58.499998
21
-16.091719
31
0
12
58.500002
22
-17.013287
32
0
13
55
23
-16.552503
33
0
39
0
210
0
220
0
230
1
0
SOLID
5
10E
100
AcDbEntity
8
SK2
62
256
6
ByLayer
370
13
48
1
60
0
100
AcDbTrace
10
53.73
20
-16.552503
30
0
11
50.230002
21
-17.013287
31
0
12
50.229998
22
-16.091719
32
0
13
53.73
23
-16.552503
33
0
39
0
210
0
220
0
230
1
0
ENDBLK
5
110
100
AcDbEntity
8
0
100
AcDbBlockEnd
0
BLOCK
5
119
100
AcDbEntity
8
0
100
AcDbBlockBegin
2
DimnDraft3D5
70
0
10
0
20
0
30
0
3
DimnDraft3D5
0
MTEXT
5
113
100
AcDbEntity
8
SK2
62
256
6
ByLayer
370
13
48
1
60
0
100
AcDbMText
10
2.041992
20
-21.468428
30
0
210
0
220
0
230
1
1
\W0.7317;89,73
40
3.5
41
0
44
1.084337
50
0
71
7
72
5
7
iso_b_vert
0
LINE
5
114
100
AcDbEntity
8
SK2
62
256
6
ByLayer
370
13
48
1
60
0
100
AcDbLine
10
-36
20
-5.5875
30
0
11
-36
21
-24.343428
31
0
39
0
210
0
220
0
230
1
0
LINE
5
115
100
AcDbEntity
8
SK2
62
256
6
ByLayer
370
13
48
1
60
0
100
AcDbLine
10
53.73
20
-5.3375
30
0
11
53.73
21
-24.343428
31
0
39
0
210
0
220
0
230
1
0
LINE
5
116
100
AcDbEntity
8
SK2
62
256
6
ByLayer
370
13
48
1
60
0
100
AcDbLine
10
-36
20
-22.343428
30
0
11
53.73
21
-22.343428
31
0
39
0
210
0
220
0
230
1
0
SOLID
5
117
100
AcDbEntity
8
SK2
62
256
6
ByLayer
370
13
48
1
60
0
100
AcDbTrace
10
-36
20
-22.343428
30
0
11
-32.500002
21
-21.882645
31
0
12
-32.499998
22
-22.804212
32
0
13
-36
23
-22.343428
33
0
39
0
210
0
220
0
230
1
0
SOLID
5
118
100
AcDbEntity
8
SK2
62
256
6
ByLayer
370
13
48
1
60
0
100
AcDbTrace
10
53.73
20
-22.343428
30
0
11
50.230002
21
-22.804212
31
0
12
50.229998
22
-21.882645
32
0
13
53.73
23
-22.343428
33
0
39
0
210
0
220
0
230
1
0
ENDBLK
5
11A
100
AcDbEntity
8
0
100
AcDbBlockEnd
0
BLOCK
5
124
100
AcDbEntity
8
0
100
AcDbBlockBegin
2
DimnDraft3D6
70
0
10
0
20
0
30
0
3
DimnDraft3D6
0
MTEXT
5
11D
100
AcDbEntity
8
SK2
62
256
6
ByLayer
370
13
48
1
60
0
100
AcDbMText
10
-46.375163
20
23.34918
30
0
210
0
220
0
230
1
1
\W0.7317;8,000
40
3.5
41
0
44
1.084337
50
90
71
7
72
5
7
iso_b_vert
0
MTEXT
5
11E
100
AcDbEntity
8
SK2
62
256
6
ByLayer
370
13
48
1
60
0
100
AcDbMText
10
-46.375163
20
18.126524
30
0
210
0
220
0
230
1
1
%%c
40
3.5
41
0
44
1.084337
50
90
71
7
72
5
7
iso_b_vert
0
LINE
5
11F
100
AcDbEntity
8
SK2
62
256
6
ByLayer
370
13
48
1
60
0
100
AcDbLine
10
-37.5875
20
-4
30
0
11
-46.625163
21
-4
31
0
39
0
210
0
220
0
230
1
0
LINE
5
120
100
AcDbEntity
8
SK2
62
256
6
ByLayer
370
13
48
1
60
0
100
AcDbLine
10
-37.5875
20
4
30
0
11
-46.625163
21
4
31
0
39
0
210
0
220
0
230
1
0
LINE
5
121
100
AcDbEntity
8
SK2
62
256
6
ByLayer
370
13
48
1
60
0
100
AcDbLine
10
-44.625163
20
-4
30
0
11
-44.625163
21
33.121549
31
0
39
0
210
0
220
0
230
1
0
SOLID
5
122
100
AcDbEntity
8
SK2
62
256
6
ByLayer
370
13
48
1
60
0
100
AcDbTrace
10
-44.625163
20
-4
30
0
11
-45.085946
21
-0.500002
31
0
12
-44.164379
22
-0.499998
32
0
13
-44.625163
23
-4
33
0
39
0
210
0
220
0
230
1
0
SOLID
5
123
100
AcDbEntity
8
SK2
62
256
6
ByLayer
370
13
48
1
60
0
100
AcDbTrace
10
-44.625163
20
4
30
0
11
-44.164379
21
0.500002
31
0
12
-45.085946
22
0.499998
32
0
13
-44.625163
23
4
33
0
39
0
210
0
220
0
230
1
0
ENDBLK
5
125
100
AcDbEntity
8
0
100
AcDbBlockEnd
0
BLOCK
5
12F
100
AcDbEntity
8
0
100
AcDbBlockBegin
2
DimnDraft3D7
70
0
10
0
20
0
30
0
3
DimnDraft3D7
0
MTEXT
5
128
100
AcDbEntity
8
2
62
256
6
ByLayer
370
13
48
1
60
0
100
AcDbMText
10
65.333343
20
21.692266
30
0
210
0
220
0
230
1
1
\W0.7317;7,500
40
3.5
41
0
44
1.084337
50
90
71
7
72
5
7
iso_b_vert
0
MTEXT
5
129
100
AcDbEntity
8
2
62
256
6
ByLayer
370
13
48
1
60
0
100
AcDbMText
10
65.333343
20
16.46961
30
0
210
0
220
0
230
1
1
%%c
40
3.5
41
0
44
1.084337
50
90
71
7
72
5
7
iso_b_vert
0
LINE
5
12A
100
AcDbEntity
8
2
62
256
6
ByLayer
370
13
48
1
60
0
100
AcDbLine
10
55.3175
20
-3.75
30
0
11
69.083343
21
-3.75
31
0
39
0
210
0
220
0
230
1
0
LINE
5
12B
100
AcDbEntity
8
2
62
256
6
ByLayer
370
13
48
1
60
0
100
AcDbLine
10
55.3175
20
3.75
30
0
11
69.083343
21
3.75
31
0
39
0
210
0
220
0
230
1
0
LINE
5
12C
100
AcDbEntity
8
2
62
256
6
ByLayer
370
13
48
1
60
0
100
AcDbLine
10
67.083343
20
-3.75
30
0
11
67.083343
21
31.464635
31
0
39
0
210
0
220
0
230
1
0
SOLID
5
12D
100
AcDbEntity
8
2
62
256
6
ByLayer
370
13
48
1
60
0
100
AcDbTrace
10
67.083343
20
-3.75
30
0
11
66.622559
21
-0.250002
31
0
12
67.544126
22
-0.249998
32
0
13
67.083343
23
-3.75
33
0
39
0
210
0
220
0
230
1
0
SOLID
5
12E
100
AcDbEntity
8
2
62
256
6
ByLayer
370
13
48
1
60
0
100
AcDbTrace
10
67.083343
20
3.75
30
0
11
67.544126
21
0.250002
31
0
12
66.622559
22
0.249998
32
0
13
67.083343
23
3.75
33
0
39
0
210
0
220
0
230
1
0
ENDBLK
5
130
100
AcDbEntity
8
0
100
AcDbBlockEnd
0
ENDSEC
0
SECTION
2
ENTITIES
0
ARC
5
99
100
AcDbEntity
8
1
62
256
6
ByLayer
370
18
48
1
60
0
100
AcDbCircle
39
0
10
0
20
3.2
30
0
40
0.800000000000002
210
0
220
0
230
1
100
AcDbArc
50
55.479152
51
90
0
ARC
5
9A
100
AcDbEntity
8
1
62
256
6
ByLayer
370
18
48
1
60
0
100
AcDbCircle
39
0
10
0
20
-3.2
30
0
40
0.800000000000002
210
0
220
0
230
1
100
AcDbArc
50
270
51
304.520848
0
ARC
5
9B
100
AcDbEntity
8
1
62
256
6
ByLayer
370
18
48
1
60
0
100
AcDbCircle
39
0
10
-0.90673
20
-4.518272
30
0
40
0.800000000000001
210
0
220
0
230
-1
100
AcDbArc
50
55.479152
51
90.034377
0
ARC
5
9C
100
AcDbEntity
8
1
62
256
6
ByLayer
370
18
48
1
60
0
100
AcDbCircle
39
0
10
-0.90673
20
4.518272
30
0
40
0.800000000000001
210
0
220
0
230
-1
100
AcDbArc
50
269.965623
51
304.520848
0
ELLIPSE
5
9D
100
AcDbEntity
8
1
62
256
6
ByLayer
370
18
48
1
60
0
100
AcDbEllipse
10
4.25
20
3.796432
30
0
11
0.25
21
0
31
0
210
0
220
0
230
1
40
1
41
-2.79375972762254
42
-1.56088152650707
0
ELLIPSE
5
9E
100
AcDbEntity
8
1
62
256
6
ByLayer
370
18
48
1
60
0
100
AcDbEllipse
10
4.25
20
-3.796432
30
0
11
0.25
21
0
31
0
210
0
220
0
230
1
40
1
41
1.57097364451797
42
2.7984325587285
0
ELLIPSE
5
9F
100
AcDbEntity
8
1
62
256
6
ByLayer
370
13
48
1
60
0
100
AcDbEllipse
10
4.250231
20
0.213295
30
0
11
0.0507745927873777
21
0.086150686168341
31
0
210
0
220
0
230
1
40
0.030921
41
3.11193349260909
42
-1.62018343353937
0
ELLIPSE
5
A0
100
AcDbEntity
8
1
62
256
6
ByLayer
370
13
48
1
60
0
100
AcDbEllipse
10
54.135046
20
0.54438
30
0
11
0.153082081612423
21
0.258003636193771
31
0
210
0
220
0
230
1
40
0.454519
41
0.917105603404823
42
2.31336900500025
0
ELLIPSE
5
A1
100
AcDbEntity
8
1
62
256
6
ByLayer
370
18
48
1
60
0
100
AcDbEllipse
10
55.045178
20
-0.004369
30
0
11
0.137979128892125
21
0.428995648206423
31
0
210
0
220
0
230
-1
40
0.08774
41
-2.32337572126937
42
-1.67595680222652
0
ELLIPSE
5
A2
100
AcDbEntity
8
1
62
256
6
ByLayer
370
13
48
1
60
0
100
AcDbEllipse
10
4.173402
20
0.25956
30
0
11
0.05272959036122
21
0.0849681722784357
31
0
210
0
220
0
230
1
40
0.424353
41
1.89733771914115
42
-3.09687822045409
0
ELLIPSE
5
A3
100
AcDbEntity
8
1
62
256
6
ByLayer
370
18
48
1
60
0
100
AcDbEllipse
10
55.000337
20
-0.000819
30
0
11
1.38475808823298
21
-3.74733568739718
31
0
210
0
220
0
230
-1
40
0.115174
41
-2.9706162149095
42
-2.86381407480665
0
ELLIPSE
5
A4
100
AcDbEntity
8
1
62
256
6
ByLayer
370
18
48
1
60
0
100
AcDbEllipse
10
54.263391
20
1.870205
30
0
11
0.58148549520284
21
-1.57357546950004
31
0
210
0
220
0
230
-1
40
0.115174
41
-1.50212041099576
42
-0.74286346670316
0
ELLIPSE
5
A5
100
AcDbEntity
8
1
62
256
6
ByLayer
370
13
48
1
60
0
100
AcDbEllipse
10
54.459482
20
1.747007
30
0
11
2.15222731881551
21
-1.48186971055917
31
0
210
0
220
0
230
-1
40
0.533762
41
1.44484622737889
42
1.70466589730029
0
ELLIPSE
5
A6
100
AcDbEntity
8
1
62
256
6
ByLayer
370
18
48
1
60
0
100
AcDbEllipse
10
54.860395
20
0.114006
30
0
11
0.072781910488853
21
0.301917195735053
31
0
210
0
220
0
230
-1
40
0.478434
41
1.71091671727365
42
2.45976119974809
0
ELLIPSE
5
A7
100
AcDbEntity
8
1
62
256
6
ByLayer
370
18
48
1
60
0
100
AcDbEllipse
10
55.000337
20
0.000819
30
0
11
1.38475807771092
21
3.74733565643405
31
0
210
0
220
0
230
-1
40
0.115174
41
2.86381407364757
42
2.97061621419896
0
ELLIPSE
5
A8
100
AcDbEntity
8
1
62
256
6
ByLayer
370
18
48
1
60
0
100
AcDbEllipse
10
54.263391
20
-1.870205
30
0
11
0.581485495181815
21
1.57357546945523
31
0
210
0
220
0
230
-1
40
0.115174
41
0.742863466705369
42
1.50212041101702
0
ELLIPSE
5
A9
100
AcDbEntity
8
1
62
256
6
ByLayer
370
18
48
1
60
0
100
AcDbEllipse
10
55.045178
20
0.004369
30
0
11
0.137979128849166
21
-0.428995648096776
31
0
210
0
220
0
230
-1
40
0.08774
41
1.67595680205455
42
2.32337572124281
0
ELLIPSE
5
AA
100
AcDbEntity
8
1
62
256
6
ByLayer
370
13
48
1
60
0
100
AcDbEllipse
10
54.649389
20
1.870205
30
0
11
2.22423249607685
21
-1.13490647177055
31
0
210
0
220
0
230
-1
40
0.490986
41
1.55156247800474
42
1.82643831093533
0
POINT
5
6C
100
AcDbEntity
8
81
62
256
6
ByLayer
370
18
48
1
60
0
100
AcDbPoint
10
55
20
0
30
0
39
0
210
0
220
0
230
1
50
360
0
POINT
5
6E
100
AcDbEntity
8
80
62
256
6
ByLayer
370
18
48
1
60
0
100
AcDbPoint
10
0
20
0
30
0
39
0
210
0
220
0
230
1
50
360
0
POINT
5
70
100
AcDbEntity
8
SK2
62
256
6
ByLayer
370
18
48
1
60
1
100
AcDbPoint
10
-36
20
-4
30
0
39
0
210
0
220
0
230
1
50
360
0
POINT
5
72
100
AcDbEntity
8
SK2
62
256
6
ByLayer
370
18
48
1
60
1
100
AcDbPoint
10
-36
20
4
30
0
39
0
210
0
220
0
230
1
50
360
0
POINT
5
73
100
AcDbEntity
8
2
62
256
6
ByLayer
370
18
48
1
60
1
100
AcDbPoint
10
53.73
20
-3.75
30
0
39
0
210
0
220
0
230
1
50
360
0
POINT
5
75
100
AcDbEntity
8
2
62
256
6
ByLayer
370
18
48
1
60
1
100
AcDbPoint
10
53.73
20
3.75
30
0
39
0
210
0
220
0
230
1
50
360
0
SPLINE
5
AB
100
AcDbEntity
8
1
62
256
6
ByLayer
370
18
48
1
60
0
100
AcDbSpline
70
4
71
2
72
6
73
3
40
0
40
0
40
0
40
1
40
1
40
1
41
1
10
4.77868016141866
20
3.54843511991726
30
0
41
1
10
4.51474197583468
20
3.54793596522615
30
0
41
1
10
4.25117163396345
20
3.54604183815152
30
0
0
SPLINE
5
AC
100
AcDbEntity
8
1
62
256
6
ByLayer
370
18
48
1
60
0
100
AcDbSpline
70
4
71
3
72
27
73
23
40
0
40
0
40
0
40
0
40
0.0618748843203991
40
0.113349493842116
40
0.149034618178094
40
0.175917372091844
40
0.206902556669031
40
0.242280975981838
40
0.280797947684399
40
0.318148235336284
40
0.425553557737037
40
0.520571551333536
40
0.586897434936333
40
0.65528503996819
40
0.728421691420796
40
0.75292294887791
40
0.775164199165721
40
0.795146336603761
40
0.819914710596021
40
0.872241652376716
40
0.946464385614669
40
1
40
1
40
1
40
1
41
1
10
33.7121632312116
20
-3.56316405369904
30
0
41
1
10
33.9108485065327
20
-3.56335071511043
30
0
41
1
10
34.2748583462437
20
-3.56364569538513
30
0
41
1
10
34.753652208226
20
-3.56405271004206
30
0
41
1
10
35.1199500820338
20
-3.56412618154303
30
0
41
1
10
35.4204551556834
20
-3.56421447395152
30
0
41
1
10
35.7199888025867
20
-3.56468499716465
30
0
41
1
10
36.0568942221427
20
-3.56502108625318
30
0
41
1
10
36.4142443555924
20
-3.56501836895055
30
0
41
1
10
37.0029534713643
20
-3.56497039194951
30
0
41
1
10
37.7731976960811
20
-3.56618453805876
30
0
41
1
10
38.6364729447134
20
-3.56623070915757
30
0
41
1
10
39.3744482299228
20
-3.56699832609223
30
0
41
1
10
40.0421230807129
20
-3.56663351852475
30
0
41
1
10
40.5754475348608
20
-3.56902185834773
30
0
41
1
10
40.9605334829092
20
-3.56826586582221
30
0
41
1
10
41.1748717670595
20
-3.5679865494333
30
0
41
1
10
41.3900700064447
20
-3.56774588209615
30
0
41
1
10
41.7019064712067
20
-3.56831721806955
30
0
41
1
10
42.1879616778356
20
-3.56964969046899
30
0
41
1
10
42.7664700912686
20
-3.56742916706395
30
0
41
1
10
43.1768282078255
20
-3.56891273055763
30
0
41
1
10
43.3487800862606
20
-3.56969823609626
30
0
0
SPLINE
5
AD
100
AcDbEntity
8
1
62
256
6
ByLayer
370
18
48
1
60
0
100
AcDbSpline
70
4
71
3
72
26
73
22
40
0
40
0
40
0
40
0
40
0.0365521377773861
40
0.100245086203464
40
0.141042221828807
40
0.169329381950662
40
0.201354050502364
40
0.275716523481866
40
0.352429130471581
40
0.405022616427071
40
0.442725293957383
40
0.48376111910236
40
0.538095579762686
40
0.61586537647678
40
0.695500608273368
40
0.765949091571945
40
0.827484127996465
40
0.866961725402749
40
0.906847718490196
40
0.947889622778388
40
1
40
1
40
1
40
1
41
1
10
43.356888810703
20
3.56956097730679
30
0
41
1
10
43.2592845605865
20
3.56913611092054
30
0
41
1
10
42.9916052017254
20
3.56823687330512
30
0
41
1
10
42.6150064418928
20
3.56819962075704
30
0
41
1
10
42.26047156004
20
3.5688601464895
30
0
41
1
10
41.9904837233913
20
3.56918640152534
30
0
41
1
10
41.6308756928228
20
3.56828759931676
30
0
41
1
10
41.1419503421004
20
3.56754796655025
30
0
41
1
10
40.5981024746566
20
3.56933129643159
30
0
41
1
10
40.1521471404998
20
3.56755558717603
30
0
41
1
10
39.8014621834272
20
3.56654783610807
30
0
41
1
10
39.4461368767179
20
3.5667324105645
30
0
41
1
10
38.9838268084784
20
3.56727616672904
30
0
41
1
10
38.4185237772955
20
3.56517938190007
30
0
41
1
10
37.8101324449586
20
3.56610913961498
30
0
41
1
10
37.2450032926178
20
3.56578067465037
30
0
41
1
10
36.7873225994614
20
3.56489032823069
30
0
41
1
10
36.4112282528144
20
3.56503921830273
30
0
41
1
10
36.0897603469572
20
3.56501483296458
30
0
41
1
10
35.7345120907838
20
3.56470896661585
30
0
41
1
10
35.4858194257971
20
3.56435527299112
30
0
41
1
10
35.3466867246649
20
3.56421655137083
30
0
0
SPLINE
5
AE
100
AcDbEntity
8
1
62
256
6
ByLayer
370
18
48
1
60
0
100
AcDbSpline
70
4
71
3
72
12
73
8
40
0
40
0
40
0
40
0
40
0.0745042006267039
40
0.183828040052789
40
0.293678163663941
40
0.587825739130789
40
1
40
1
40
1
40
1
41
1
10
24.8491553289636
20
-0.97869130903419
30
0
41
1
10
24.8488115887906
20
-0.978694355692937
30
0
41
1
10
24.850128898544
20
-0.979720552545075
30
0
41
1
10
24.86489503519
20
-0.987279063281932
30
0
41
1
10
24.9175265069385
20
-1.01441898353775
30
0
41
1
10
25.0175118841829
20
-1.06695251475807
30
0
41
1
10
25.0952267387335
20
-1.11172856232861
30
0
41
1
10
25.1409279520273
20
-1.13911363779027
30
0
0
SPLINE
5
AF
100
AcDbEntity
8
1
62
256
6
ByLayer
370
18
48
1
60
0
100
AcDbSpline
70
4
71
3
72
23
73
19
40
0
40
0
40
0
40
0
40
0.108815718354705
40
0.198984382061012
40
0.273025511313241
40
0.332990757524007
40
0.382955301779617
40
0.432913467727277
40
0.497352858075503
40
0.587856329067849
40
0.669359493042929
40
0.737933733942979
40
0.768091952935842
40
0.795833475095103
40
0.824869387947918
40
0.874815007957388
40
0.948641955061517
40
1
40
1
40
1
40
1
41
1
10
14.2585203175365
20
-3.55128769728549
30
0
41
1
10
14.6067751216553
20
-3.55076032763662
30
0
41
1
10
15.243968195414
20
-3.5504421853903
30
0
41
1
10
16.1288557278482
20
-3.55145280157541
30
0
41
1
10
16.8415413929722
20
-3.55364184911977
30
0
41
1
10
17.4359055633155
20
-3.55357239681908
30
0
41
1
10
17.9507637358627
20
-3.55500561023084
30
0
41
1
10
18.480842908712
20
-3.5540674159414
30
0
41
1
10
19.1409063007642
20
-3.55567858150769
30
0
41
1
10
19.9019896808838
20
-3.55390061408286
30
0
41
1
10
20.678201025866
20
-3.5567643985809
30
0
41
1
10
21.2583966545517
20
-3.55652017591126
30
0
41
1
10
21.6638895075933
20
-3.55613558811618
30
0
41
1
10
21.9418139843619
20
-3.55625505397055
30
0
41
1
10
22.283269164765
20
-3.55756986156331
30
0
41
1
10
22.7770233604479
20
-3.55775336700796
30
0
41
1
10
23.3412165081517
20
-3.55676649838162
30
0
41
1
10
23.7440256515935
20
-3.55771635861498
30
0
41
1
10
23.9091538327127
20
-3.55822725423877
30
0
0
SPLINE
5
B0
100
AcDbEntity
8
1
62
256
6
ByLayer
370
18
48
1
60
0
100
AcDbSpline
70
4
71
2
72
6
73
3
40
0
40
0
40
0
40
1
40
1
40
1
41
1
10
53.1287923798336
20
-3.57473656191826
30
0
41
1
10
53.4143082039893
20
-3.57293798569296
30
0
41
1
10
53.6996104063713
20
-3.57595926822873
30
0
0
SPLINE
5
B1
100
AcDbEntity
8
1
62
256
6
ByLayer
370
18
48
1
60
0
100
AcDbSpline
70
4
71
3
72
11
73
7
40
0
40
0
40
0
40
0
40
0.188778200932037
40
0.329627079703434
40
0.49159334114765
40
1
40
1
40
1
40
1
41
1
10
44.2418155986414
20
-0.97557211285698
30
0
41
1
10
44.2419382022879
20
-0.975612787609947
30
0
41
1
10
44.2464421400388
20
-0.977462412064739
30
0
41
1
10
44.2660293441037
20
-0.986238815098773
30
0
41
1
10
44.3574532532561
20
-1.03463894790994
30
0
41
1
10
44.4640588246091
20
-1.09515735159675
30
0
41
1
10
44.5713949744011
20
-1.15750530976612
30
0
0
SPLINE
5
B2
100
AcDbEntity
8
1
62
256
6
ByLayer
370
18
48
1
60
0
100
AcDbSpline
70
4
71
3
72
25
73
21
40
0
40
0
40
0
40
0
40
0.0381083751325647
40
0.103589857520644
40
0.148834459770962
40
0.195666299054232
40
0.256006096221908
40
0.327245711884247
40
0.425071555399577
40
0.499765878424152
40
0.562771940678939
40
0.605176996592145
40
0.647157063493071
40
0.694994784825388
40
0.756032156381174
40
0.822908120904685
40
0.86767779793443
40
0.902082142344048
40
0.947147764833037
40
1
40
1
40
1
40
1
41
1
10
23.9725111372059
20
3.55875932849668
30
0
41
1
10
23.8709686876969
20
3.55868802551851
30
0
41
1
10
23.5949417014935
20
3.55854408084701
30
0
41
1
10
23.1982431160816
20
3.55701161300578
30
0
41
1
10
22.7784426124725
20
3.55833145751464
30
0
41
1
10
22.3722337080287
20
3.55915087675604
30
0
41
1
10
21.8967331855271
20
3.55564304349474
30
0
41
1
10
21.2861713040477
20
3.55652163952624
30
0
41
1
10
20.6365054874081
20
3.55630534947033
30
0
41
1
10
20.0088152173317
20
3.55460806202456
30
0
41
1
10
19.5299241001726
20
3.5560758769696
30
0
41
1
10
19.1371578264657
20
3.55550615388913
30
0
41
1
10
18.7847579983305
20
3.55439974960027
30
0
41
1
10
18.3827049222437
20
3.55438291348096
30
0
41
1
10
17.9142982456049
20
3.55494422384024
30
0
41
1
10
17.4540637951328
20
3.5537290234829
30
0
41
1
10
17.0648053363048
20
3.55337181823364
30
0
41
1
10
16.7339704070512
20
3.55334385413477
30
0
41
1
10
16.3811868546833
20
3.55347488511231
30
0
41
1
10
16.1203064831213
20
3.55302655734951
30
0
41
1
10
15.9794857398062
20
3.55281301907308
30
0
0
SPLINE
5
B3
100
AcDbEntity
8
1
62
256
6
ByLayer
370
18
48
1
60
0
100
AcDbSpline
70
4
71
2
72
6
73
3
40
0
40
0
40
0
40
1
40
1
40
1
41
1
10
4.25117163436371
20
-3.54604183815442
30
0
41
1
10
4.52074519725574
20
-3.54797276230221
30
0
41
1
10
4.79069497973776
20
-3.54847695025711
30
0
0
SPLINE
5
B4
100
AcDbEntity
8
1
62
256
6
ByLayer
370
13
48
1
60
0
100
AcDbSpline
70
4
71
3
72
30
73
26
40
0
40
0
40
0
40
0
40
0.134169318556916
40
0.134169318556916
40
0.201253977835373
40
0.201253977835373
40
0.268338637113831
40
0.335423296392289
40
0.335423296392289
40
0.402507955670747
40
0.402507955670747
40
0.469592614949205
40
0.469592614949205
40
0.536677274227663
40
0.536677274227663
40
0.670846592784579
40
0.670846592784579
40
0.737931252063037
40
0.737931252063037
40
0.805015911341495
40
0.872100570619953
40
0.872100570619953
40
0.939185229898411
40
0.939185229898411
40
1
40
1
40
1
40
1
41
1
10
4.25038473658822
20
0.207473844249165
30
0
41
1
10
4.25044855625771
20
0.447876476957816
30
0
41
1
10
4.25050033908803
20
0.683988821814324
30
0
41
1
10
4.25056708652573
20
1.0317881643777
30
0
41
1
10
4.25058747963993
20
1.14660537004124
30
0
41
1
10
4.25062503856841
20
1.36969035404613
30
0
41
1
10
4.25065959909867
20
1.58738223099064
30
0
41
1
10
4.25069053843791
20
1.79445131236403
30
0
41
1
10
4.25072072668672
20
1.99612786504738
30
0
41
1
10
4.25073550774198
20
2.09467137732298
30
0
41
1
10
4.2507649124982
20
2.28370571532543
30
0
41
1
10
4.25077953853707
20
2.37422607237906
30
0
41
1
10
4.25080945942344
20
2.54727082808688
30
0
41
1
10
4.25082474844609
20
2.62968216250994
30
0
41
1
10
4.25087175487855
20
2.86087836176904
30
0
41
1
10
4.25090495981013
20
2.9953049657806
30
0
41
1
10
4.25095919200558
20
3.16735093079527
30
0
41
1
10
4.25097808368764
20
3.21994965353727
30
0
41
1
10
4.25101664820414
20
3.31332993916246
30
0
41
1
10
4.25105599591836
20
3.39509033699591
30
0
41
1
10
4.25109623275409
20
3.45391110309555
30
0
41
1
10
4.25113635549513
20
3.5010558488332
30
0
41
1
10
4.25115625167223
20
3.5186131903844
30
0
41
1
10
4.25119262468956
20
3.5404236789806
30
0
41
1
10
4.25120933942543
20
3.54589071736626
30
0
41
1
10
4.25122510022175
20
3.54643559043237
30
0
0
SPLINE
5
B5
100
AcDbEntity
8
1
62
256
6
ByLayer
370
18
48
1
60
0
100
AcDbSpline
70
4
71
3
72
10
73
6
40
0
40
0
40
0
40
0
40
0.874153060216464
40
0.874153060216464
40
1
40
1
40
1
40
1
41
1
10
12.0282724097577
20
-3.61654192565271
30
0
41
1
10
12.4665764460369
20
-3.68075010609249
30
0
41
1
10
12.9037797870843
20
-3.71589573063466
30
0
41
1
10
13.3999469223883
20
-3.72521875212459
30
0
41
1
10
13.4623214168146
20
-3.72581330186165
30
0
41
1
10
13.5246659752715
20
-3.72583335589823
30
0
0
SPLINE
5
B6
100
AcDbEntity
8
1
62
256
6
ByLayer
370
18
48
1
60
0
100
AcDbSpline
70
4
71
3
72
76
73
72
40
0
40
0
40
0
40
0
40
0.0029838788179843
40
0.0029838788179843
40
0.0300981239292898
40
0.0300981239292898
40
0.0843266141518993
40
0.0843266141518993
40
0.111440859263204
40
0.111440859263204
40
0.138555104374509
40
0.138555104374509
40
0.165669349485814
40
0.165669349485814
40
0.192783594597118
40
0.192783594597118
40
0.219897839708423
40
0.219897839708423
40
0.247012084819728
40
0.247012084819728
40
0.274126329931032
40
0.274126329931032
40
0.301240575042337
40
0.301240575042337
40
0.328354820153642
40
0.328354820153642
40
0.341911942709293
40
0.341911942709293
40
0.355469065264945
40
0.355469065264945
40
0.409697555487553
40
0.409697555487553
40
0.463926045710161
40
0.463926045710161
40
0.491040290821465
40
0.491040290821465
40
0.518154535932769
40
0.518154535932769
40
0.545268781044072
40
0.545268781044072
40
0.572383026155376
40
0.572383026155376
40
0.599497271266679
40
0.599497271266679
40
0.626611516377983
40
0.626611516377983
40
0.653725761489286
40
0.653725761489286
40
0.68084000660059
40
0.68084000660059
40
0.707954251711893
40
0.707954251711893
40
0.735068496823197
40
0.735068496823197
40
0.789296987045804
40
0.789296987045804
40
0.816411232157106
40
0.816411232157106
40
0.843525477268409
40
0.843525477268409
40
0.870639722379712
40
0.870639722379712
40
0.897753967491015
40
0.897753967491015
40
0.924868212602317
40
0.924868212602317
40
0.95198245771362
40
0.95198245771362
40
0.979096702824923
40
0.979096702824923
40
1
40
1
40
1
40
1
41
1
10
28.2758490308608
20
2.72427734502909
30
0
41
1
10
28.3000034173061
20
2.73423507233571
30
0
41
1
10
28.324156311717
20
2.74413306923773
30
0
41
1
10
28.5677428643772
20
2.84336524445453
30
0
41
1
10
28.7857673775123
20
2.92773105791207
30
0
41
1
10
29.4376010299241
20
3.16350760393735
30
0
41
1
10
29.8722275394667
20
3.29511746947796
30
0
41
1
10
30.5206506888802
20
3.45799366449668
30
0
41
1
10
30.736690362522
20
3.50601896321746
30
0
41
1
10
31.1706639633682
20
3.58842909025012
30
0
41
1
10
31.38818696983
20
3.62310286000547
30
0
41
1
10
31.8238261103212
20
3.67935281429368
30
0
41
1
10
32.0415308367959
20
3.70096438528895
30
0
41
1
10
32.4803044545582
20
3.72980867304017
30
0
41
1
10
32.6995292022275
20
3.73709671459716
30
0
41
1
10
33.1358134790021
20
3.73784732069078
30
0
41
1
10
33.3529033956329
20
3.7312809375139
30
0
41
1
10
33.7857467614884
20
3.70418561315878
30
0
41
1
10
34.0024327882389
20
3.68386022824387
30
0
41
1
10
34.435806977753
20
3.62995435698929
30
0
41
1
10
34.65247955567
20
3.59636779863527
30
0
41
1
10
35.0852707570989
20
3.51540195840931
30
0
41
1
10
35.3016066060636
20
3.46804188190785
30
0
41
1
10
35.7368584219468
20
3.36125895650002
30
0
41
1
10
35.9553016849152
20
3.30160143133227
30
0
41
1
10
36.2838414122431
20
3.20218575742024
30
0
41
1
10
36.3936525861821
20
3.16732533484495
30
0
41
1
10
36.6123481007681
20
3.09453628387681
30
0
41
1
10
36.7213848630537
20
3.05665095601222
30
0
41
1
10
37.2666727317646
20
2.86155533368896
30
0
41
1
10
37.701438108159
20
2.68589686415936
30
0
41
1
10
38.5653543984253
20
2.29274893579523
30
0
41
1
10
38.9992368717578
20
2.08123157104726
30
0
41
1
10
39.6502746481341
20
1.73787950740208
30
0
41
1
10
39.8673093252958
20
1.61893022225465
30
0
41
1
10
40.3046017176356
20
1.37686355191229
30
0
41
1
10
40.5248908029205
20
1.25269921215215
30
0
41
1
10
40.9622338495151
20
1.00065708168583
30
0
41
1
10
41.1793276540367
20
0.871790107351842
30
0
41
1
10
41.6133368202301
20
0.613332067082553
30
0
41
1
10
41.8303776285268
20
0.483953943374786
30
0
41
1
10
42.2638049970246
20
0.223694508305897
30
0
41
1
10
42.4801680566753
20
0.0927732861285335
30
0
41
1
10
42.9120372363785
20
-0.170924072668328
30
0
41
1
10
43.128485517033
20
-0.302116913893883
30
0
41
1
10
43.5628250161185
20
-0.562483597608491
30
0
41
1
10
43.7805383513343
20
-0.691956561148061
30
0
41
1
10
44.2165828660451
20
-0.950287090889844
30
0
41
1
10
44.4354080006023
20
-1.07977100583457
30
0
41
1
10
44.8734271670923
20
-1.33080848718598
30
0
41
1
10
45.0918274816207
20
-1.45304333568615
30
0
41
1
10
45.5269254458069
20
-1.6919138364704
30
0
41
1
10
45.7432339126301
20
-1.8091017557357
30
0
41
1
10
46.3920212212114
20
-2.14849179316494
30
0
41
1
10
46.8257604888453
20
-2.35695917804958
30
0
41
1
10
47.4747136215898
20
-2.64744919052203
30
0
41
1
10
47.6916042994905
20
-2.73943191703168
30
0
41
1
10
48.1275892276409
20
-2.91252615774206
30
0
41
1
10
48.3465636702499
20
-2.9940304115168
30
0
41
1
10
48.785091814801
20
-3.14680501883933
30
0
41
1
10
49.002645019679
20
-3.21766144471343
30
0
41
1
10
49.4380083491045
20
-3.34529813566684
30
0
41
1
10
49.6553847808518
20
-3.40256253143213
30
0
41
1
10
50.0890068695264
20
-3.50462097258506
30
0
41
1
10
50.3049517499903
20
-3.54954929388961
30
0
41
1
10
50.7367585455534
20
-3.62605334959034
30
0
41
1
10
50.9533196468074
20
-3.65736069066739
30
0
41
1
10
51.3869108810865
20
-3.70668880736932
30
0
41
1
10
51.6039877396143
20
-3.72468770363363
30
0
41
1
10
51.9884505606927
20
-3.74443330750856
30
0
41
1
10
52.1561798345078
20
-3.74886714183691
30
0
41
1
10
52.324678013941
20
-3.74911580932735
30
0
0
SPLINE
5
B7
100
AcDbEntity
8
1
62
256
6
ByLayer
370
13
48
1
60
0
100
AcDbSpline
70
4
71
3
72
8
73
4
40
0
40
0
40
0
40
0
40
1
40
1
40
1
40
1
41
1
10
4.25123420862232
20
-3.54619271415967
30
0
41
1
10
4.25124975533734
20
-3.5448018506415
30
0
41
1
10
4.2512642521157
20
-3.53837426917727
30
0
41
1
10
4.25127731255577
20
-3.52689078279974
30
0
0
SPLINE
5
B8
100
AcDbEntity
8
1
62
256
6
ByLayer
370
18
48
1
60
0
100
AcDbSpline
70
4
71
3
72
14
73
10
40
0
40
0
40
0
40
0
40
0.298935818574223
40
0.298935818574223
40
0.597871637148445
40
0.597871637148445
40
0.896807455722668
40
0.896807455722668
40
1
40
1
40
1
40
1
41
1
10
7.56595943004359
20
3.13736971492784
30
0
41
1
10
7.28224795985665
20
3.21337662902954
30
0
41
1
10
7.00130040238818
20
3.2796295235942
30
0
41
1
10
6.44271332458496
20
3.39358445052733
30
0
41
1
10
6.16512815261319
20
3.4407643600687
30
0
41
1
10
5.61228010851499
20
3.51129424360707
30
0
41
1
10
5.33699742510387
20
3.53475990637327
30
0
41
1
10
4.9680990462148
20
3.54733683520638
30
0
41
1
10
4.87377506629355
20
3.54886945064919
30
0
41
1
10
4.7799001691958
20
3.54860034065752
30
0
0
SPLINE
5
B9
100
AcDbEntity
8
1
62
256
6
ByLayer
370
18
48
1
60
0
100
AcDbSpline
70
4
71
3
72
8
73
4
40
0
40
0
40
0
40
0
40
1
40
1
40
1
40
1
41
1
10
53.754452146511
20
-3.55559892079887
30
0
41
1
10
53.7336635317455
20
-3.56847867436409
30
0
41
1
10
53.7151034771525
20
-3.57497889082362
30
0
41
1
10
53.6988151888521
20
-3.57497588716649
30
0
0
SPLINE
5
BA
100
AcDbEntity
8
1
62
256
6
ByLayer
370
18
48
1
60
0
100
AcDbSpline
70
4
71
3
72
8
73
4
40
0
40
0
40
0
40
0
40
1
40
1
40
1
40
1
41
1
10
53.7092030960279
20
-3.71901307359207
30
0
41
1
10
53.7189589220612
20
-3.69315922796304
30
0
41
1
10
53.7287043166454
20
-3.66728798928921
30
0
41
1
10
53.7384386504774
20
-3.64140107018048
30
0
0
SPLINE
5
BB
100
AcDbEntity
8
1
62
256
6
ByLayer
370
18
48
1
60
0
100
AcDbSpline
70
4
71
3
72
66
73
62
40
0
40
0
40
0
40
0
40
0.0325203180474759
40
0.0325203180474759
40
0.0650406360949518
40
0.0650406360949518
40
0.0975609541424277
40
0.0975609541424277
40
0.130081272189904
40
0.130081272189904
40
0.16260159023738
40
0.16260159023738
40
0.195121908284855
40
0.195121908284855
40
0.227642226332331
40
0.227642226332331
40
0.260162544379807
40
0.260162544379807
40
0.325203180474759
40
0.325203180474759
40
0.357723498522235
40
0.357723498522235
40
0.390243816569711
40
0.390243816569711
40
0.422764134617187
40
0.422764134617187
40
0.455284452664663
40
0.455284452664663
40
0.487804770712139
40
0.487804770712139
40
0.520325088759614
40
0.520325088759614
40
0.55284540680709
40
0.55284540680709
40
0.585365724854566
40
0.585365724854566
40
0.617886042902042
40
0.617886042902042
40
0.650406360949518
40
0.650406360949518
40
0.682926678996994
40
0.682926678996994
40
0.71544699704447
40
0.71544699704447
40
0.747967315091946
40
0.747967315091946
40
0.780487633139422
40
0.780487633139422
40
0.813007951186898
40
0.813007951186898
40
0.845528269234374
40
0.845528269234374
40
0.87804858728185
40
0.87804858728185
40
0.910568905329326
40
0.910568905329326
40
0.943089223376802
40
0.943089223376802
40
0.975609541424279
40
0.975609541424279
40
1
40
1
40
1
40
1
41
1
10
7.56614128382756
20
3.1373191687116
30
0
41
1
10
7.7927761741937
20
3.07629187575674
30
0
41
1
10
8.01861514138517
20
3.00913716116349
30
0
41
1
10
8.46887470030629
20
2.8642206506062
30
0
41
1
10
8.69325912743253
20
2.78630993380327
30
0
41
1
10
9.14094707600813
20
2.61917479733944
30
0
41
1
10
9.36441355130805
20
2.53009604848438
30
0
41
1
10
9.81180861214446
20
2.34364253948726
30
0
41
1
10
10.0355016850078
20
2.24616646186377
30
0
41
1
10
10.4831127281282
20
2.04092933876203
30
0
41
1
10
10.706939091809
20
1.93322359484392
30
0
41
1
10
11.1565448023933
20
1.71139365112251
30
0
41
1
10
11.3820334420204
20
1.59722483851468
30
0
41
1
10
11.8346612747862
20
1.36110828169507
30
0
41
1
10
12.0610540365444
20
1.23900483313938
30
0
41
1
10
12.5113478219555
20
0.992506814828232
30
0
41
1
10
12.7360832746301
20
0.868084344579415
30
0
41
1
10
13.4087261001291
20
0.49080928929115
30
0
41
1
10
13.8545335013462
20
0.232581888725093
30
0
41
1
10
14.5257421345898
20
-0.152784918586747
30
0
41
1
10
14.7496294911011
20
-0.281400573254075
30
0
41
1
10
15.1982424011214
20
-0.538243130070015
30
0
41
1
10
15.42299604968
20
-0.666351593838641
30
0
41
1
10
15.8747429681683
20
-0.919422328997769
30
0
41
1
10
16.1019315197966
20
-1.04531861284792
30
0
41
1
10
16.5528037046864
20
-1.29048771684455
30
0
41
1
10
16.7769862240085
20
-1.41047170270693
30
0
41
1
10
17.2250908317689
20
-1.64327666614091
30
0
41
1
10
17.4488577330187
20
-1.75647755281904
30
0
41
1
10
17.8956599963942
20
-1.97579587565841
30
0
41
1
10
18.1186082517138
20
-2.08144311849932
30
0
41
1
10
18.564769579335
20
-2.28448339273658
30
0
41
1
10
18.7883114184068
20
-2.38141501643733
30
0
41
1
10
19.2360268055736
20
-2.56711853869939
30
0
41
1
10
19.4602779694956
20
-2.65509445882969
30
0
41
1
10
19.9100097189159
20
-2.82046019836085
30
0
41
1
10
20.136308300764
20
-2.89799621336667
30
0
41
1
10
20.5886276881125
20
-3.04182027506082
30
0
41
1
10
20.8139084370596
20
-3.10824182059264
30
0
41
1
10
21.2625127223451
20
-3.22546143613556
30
0
41
1
10
21.4859687978307
20
-3.27739917265228
30
0
41
1
10
21.9331121182166
20
-3.36908523943347
30
0
41
1
10
22.1565222487305
20
-3.40970331220075
30
0
41
1
10
22.6029999171986
20
-3.47584827587346
30
0
41
1
10
22.8259792543302
20
-3.50077445511371
30
0
41
1
10
23.2731422723069
20
-3.53784784502611
30
0
41
1
10
23.4973017015187
20
-3.55024326202948
30
0
41
1
10
23.9466018304375
20
-3.56187888979139
30
0
41
1
10
24.1718638434229
20
-3.55968649952337
30
0
41
1
10
24.6243043132522
20
-3.54045175046124
30
0
41
1
10
24.8500142391403
20
-3.52404067141697
30
0
41
1
10
25.2999996604122
20
-3.47919432467214
30
0
41
1
10
25.5241762658706
20
-3.44909770697848
30
0
41
1
10
25.9713499525223
20
-3.37470163497915
30
0
41
1
10
26.1945692391016
20
-3.33077325569081
30
0
41
1
10
26.6414492226929
20
-3.23183529230812
30
0
41
1
10
26.8648685208991
20
-3.17649578308635
30
0
41
1
10
27.3119736393835
20
-3.05106446345579
30
0
41
1
10
27.5355399455659
20
-2.9815794593089
30
0
41
1
10
27.9284090125783
20
-2.85101821250046
30
0
41
1
10
28.0971241983071
20
-2.79238473863168
30
0
41
1
10
28.2663283422945
20
-2.7301625908085
30
0
0
SPLINE
5
BC
100
AcDbEntity
8
1
62
256
6
ByLayer
370
18
48
1
60
0
100
AcDbSpline
70
4
71
3
72
26
73
22
40
0
40
0
40
0
40
0
40
0.0762123299542509
40
0.0762123299542509
40
0.168591096958825
40
0.168591096958825
40
0.260969863963398
40
0.260969863963398
40
0.353348630967972
40
0.353348630967972
40
0.445727397972546
40
0.445727397972546
40
0.630484931981697
40
0.630484931981697
40
0.722863698986274
40
0.722863698986274
40
0.815242465990849
40
0.815242465990849
40
0.907621232995425
40
0.907621232995425
40
1
40
1
40
1
40
1
41
1
10
43.3539374425781
20
3.56984995445205
30
0
41
1
10
43.5381100382941
20
3.57067331630009
30
0
41
1
10
43.7222778611753
20
3.56639228832191
30
0
41
1
10
44.129854073468
20
3.54528591503413
30
0
41
1
10
44.3531644628673
20
3.52620280280223
30
0
41
1
10
44.8017275738592
20
3.47448654341321
30
0
41
1
10
45.0268033431415
20
3.4417549131345
30
0
41
1
10
45.4785079239276
20
3.36280518232252
30
0
41
1
10
45.7047424912468
20
3.31653000311206
30
0
41
1
10
46.1545041581891
20
3.21234212216865
30
0
41
1
10
46.3789188973626
20
3.15448543697085
30
0
41
1
10
47.0503646656446
20
2.96116450681262
30
0
41
1
10
47.49528670492
20
2.80646298358431
30
0
41
1
10
48.1651645385894
20
2.54506254089654
30
0
41
1
10
48.3886888201139
20
2.45265785942044
30
0
41
1
10
48.8363388773548
20
2.25771528565878
30
0
41
1
10
49.060463301262
20
2.15522895864243
30
0
41
1
10
49.5110863332653
20
1.94236481087174
30
0
41
1
10
49.7379498905019
20
1.83125839208233
30
0
41
1
10
50.1886890789074
20
1.60280625332709
30
0
41
1
10
50.4128337325901
20
1.48502663500858
30
0
41
1
10
50.6367291380022
20
1.36533814122882
30
0
0
SPLINE
5
BD
100
AcDbEntity
8
1
62
256
6
ByLayer
370
18
48
1
60
0
100
AcDbSpline
70
4
71
3
72
36
73
32
40
0
40
0
40
0
40
0
40
0.124999999999997
40
0.124999999999997
40
0.249999999999995
40
0.249999999999995
40
0.374999999999992
40
0.374999999999992
40
0.499999999999989
40
0.499999999999989
40
0.624999999999986
40
0.624999999999986
40
0.687499999999989
40
0.687499999999989
40
0.71874999999999
40
0.71874999999999
40
0.749999999999991
40
0.749999999999991
40
0.812499999999994
40
0.812499999999994
40
0.843749999999995
40
0.843749999999995
40
0.874999999999996
40
0.874999999999996
40
0.906249999999997
40
0.906249999999997
40
0.937499999999998
40
0.937499999999998
40
0.968749999999999
40
0.968749999999999
40
1
40
1
40
1
40
1
41
1
10
50.6367291380023
20
1.36533814122879
30
0
41
1
10
50.7654861731383
20
1.2629211610053
30
0
41
1
10
50.895647365679
20
1.16485923317504
30
0
41
1
10
51.1594129368538
20
0.979414561902644
30
0
41
1
10
51.2929813872504
20
0.892063619358197
30
0
41
1
10
51.5617537330845
20
0.731123043217849
30
0
41
1
10
51.6974318277584
20
0.657284037870113
30
0
41
1
10
51.9670140248944
20
0.526709386896158
30
0
41
1
10
52.1013905489753
20
0.469643817465595
30
0
41
1
10
52.3692164317504
20
0.373900032060135
30
0
41
1
10
52.5026681575175
20
0.335174872783284
30
0
41
1
10
52.7020363523508
20
0.293138865766963
30
0
41
1
10
52.7685289004489
20
0.281801972047703
30
0
41
1
10
52.8671113607559
20
0.269334893327425
30
0
41
1
10
52.8997984316257
20
0.265929751780561
30
0
41
1
10
52.9648078547141
20
0.260664193912191
30
0
41
1
10
52.9971735076333
20
0.258646785051582
30
0
41
1
10
53.0918013367274
20
0.260547256602933
30
0
41
1
10
53.151699313607
20
0.270350480634249
30
0
41
1
10
53.2335364893821
20
0.302145824118298
30
0
41
1
10
53.2590324006137
20
0.3154789429814
30
0
41
1
10
53.3056123303702
20
0.348911349035831
30
0
41
1
10
53.3269587549464
20
0.369294001706152
30
0
41
1
10
53.3624197825395
20
0.417528662659407
30
0
41
1
10
53.3763538809752
20
0.445229085309137
30
0
41
1
10
53.3968808391851
20
0.507558660025126
30
0
41
1
10
53.4033950956161
20
0.541682503975238
30
0
41
1
10
53.4095565751544
20
0.613037668353087
30
0
41
1
10
53.4092182589279
20
0.650955401962136
30
0
41
1
10
53.402717530893
20
0.727789935001312
30
0
41
1
10
53.396673625859
20
0.766799194390529
30
0
41
1
10
53.3883359522735
20
0.806294537434496
30
0
0
SPLINE
5
BE
100
AcDbEntity
8
1
62
256
6
ByLayer
370
18
48
1
60
0
100
AcDbSpline
70
4
71
3
72
74
73
70
40
0
40
0
40
0
40
0
40
0.0452490096412323
40
0.0452490096412323
40
0.0736363814427926
40
0.0736363814427926
40
0.102023753244353
40
0.102023753244353
40
0.130411125045913
40
0.130411125045913
40
0.158798496847473
40
0.158798496847473
40
0.187185868649034
40
0.187185868649034
40
0.215573240450594
40
0.215573240450594
40
0.243960612252154
40
0.243960612252154
40
0.272347984053715
40
0.272347984053715
40
0.300735355855275
40
0.300735355855275
40
0.329122727656835
40
0.329122727656835
40
0.357510099458396
40
0.357510099458396
40
0.385897471259956
40
0.385897471259956
40
0.414284843061516
40
0.414284843061516
40
0.442672214863076
40
0.442672214863076
40
0.471059586664637
40
0.471059586664637
40
0.499446958466197
40
0.499446958466197
40
0.527834330267757
40
0.527834330267757
40
0.556221702069317
40
0.556221702069317
40
0.584609073870878
40
0.584609073870878
40
0.612996445672438
40
0.612996445672438
40
0.641383817473998
40
0.641383817473998
40
0.669771189275558
40
0.669771189275558
40
0.698158561077119
40
0.698158561077119
40
0.726545932878679
40
0.726545932878679
40
0.754933304680239
40
0.754933304680239
40
0.7833206764818
40
0.7833206764818
40
0.81170804828336
40
0.81170804828336
40
0.84009542008492
40
0.84009542008492
40
0.86848279188648
40
0.86848279188648
40
0.896870163688041
40
0.896870163688041
40
0.95364490729116
40
0.95364490729116
40
0.982032279092719
40
0.982032279092719
40
1
40
1
40
1
40
1
41
1
10
47.6696942384431
20
-2.73599245522149
30
0
41
1
10
47.3137258194267
20
-2.86849711442739
30
0
41
1
10
46.9587083574997
20
-2.98756271329879
30
0
41
1
10
46.378954844617
20
-3.15446958639879
30
0
41
1
10
46.1550549753707
20
-3.21219244564148
30
0
41
1
10
45.7066787819343
20
-3.31610341569675
30
0
41
1
10
45.481952262929
20
-3.36213584854895
30
0
41
1
10
45.0302039845196
20
-3.44122685655515
30
0
41
1
10
44.8033799062296
20
-3.4742800348381
30
0
41
1
10
44.3530923513747
20
-3.52622706664312
30
0
41
1
10
44.1291319302931
20
-3.54534907448903
30
0
41
1
10
43.6816264024008
20
-3.5684715326139
30
0
41
1
10
43.458223711467
20
-3.57225994218282
30
0
41
1
10
43.0118005701179
20
-3.5649609108078
30
0
41
1
10
42.7889650169324
20
-3.55527111566772
30
0
41
1
10
42.3428630046996
20
-3.52273263903379
30
0
41
1
10
42.1194470994164
20
-3.49990696279323
30
0
41
1
10
41.6714940689302
20
-3.4385771737949
30
0
41
1
10
41.4469854832569
20
-3.40057249390463
30
0
41
1
10
40.9970716327205
20
-3.31258715440313
30
0
41
1
10
40.7704469684271
20
-3.26193097589481
30
0
41
1
10
40.3191795108001
20
-3.14719759904972
30
0
41
1
10
40.0945074495476
20
-3.0825863302648
30
0
41
1
10
39.6465410074185
20
-2.94341286413933
30
0
41
1
10
39.4232708602214
20
-2.86847665006016
30
0
41
1
10
38.9766767265906
20
-2.70788740026066
30
0
41
1
10
38.7535115603906
20
-2.62170061579889
30
0
41
1
10
38.307215458398
20
-2.43952693937067
30
0
41
1
10
38.0843601105151
20
-2.34367743422422
30
0
41
1
10
37.6373921202942
20
-2.14322716861375
30
0
41
1
10
37.413313505942
20
-2.03850511800636
30
0
41
1
10
36.9636034117435
20
-1.8197928961805
30
0
41
1
10
36.7378545811647
20
-1.70606010247718
30
0
41
1
10
36.2861119885638
20
-1.47201446134099
30
0
41
1
10
36.0610059157891
20
-1.35271900064259
30
0
41
1
10
35.6121361453849
20
-1.10977219476192
30
0
41
1
10
35.3883225640505
20
-0.986237453592594
30
0
41
1
10
34.9418771262194
20
-0.735512988504809
30
0
41
1
10
34.7189575980814
20
-0.608712985512057
30
0
41
1
10
34.2727289798002
20
-0.353805900973498
30
0
41
1
10
34.0494776944703
20
-0.225525650166247
30
0
41
1
10
33.6027530337717
20
0.0322223943421989
30
0
41
1
10
33.3794358463021
20
0.162018396431762
30
0
41
1
10
32.9307928554737
20
0.420071802601228
30
0
41
1
10
32.7055922315612
20
0.548558254792113
30
0
41
1
10
32.253359161245
20
0.804161700142913
30
0
41
1
10
32.0275921614306
20
0.931343809613537
30
0
41
1
10
31.5781228264174
20
1.17967060105784
30
0
41
1
10
31.3539648511044
20
1.30084327323951
30
0
41
1
10
30.9065017080545
20
1.53660881804217
30
0
41
1
10
30.6831940871249
20
1.65186307381808
30
0
41
1
10
30.2371936889682
20
1.87639936671852
30
0
41
1
10
30.0140894172889
20
1.98476565578704
30
0
41
1
10
29.5671391764292
20
2.19266962039086
30
0
41
1
10
29.3432807179099
20
2.2922778960164
30
0
41
1
10
28.8951763769398
20
2.48471573815871
30
0
41
1
10
28.6707212810843
20
2.5768299005955
30
0
41
1
10
28.2192933100312
20
2.7494796182686
30
0
41
1
10
27.9923546553007
20
2.82966242434799
30
0
41
1
10
27.5415858197328
20
2.97967195377962
30
0
41
1
10
27.3173126164984
20
3.04947049182945
30
0
41
1
10
26.8692095739101
20
3.17537205374254
30
0
41
1
10
26.645514486671
20
3.23087000375992
30
0
41
1
10
25.974889180708
20
3.37953857928039
30
0
41
1
10
25.529229930944
20
3.45612031559168
30
0
41
1
10
24.8562916676677
20
3.52352718501532
30
0
41
1
10
24.6315073239334
20
3.5399741988866
30
0
41
1
10
24.2636667292601
20
3.55588711507951
30
0
41
1
10
24.1204365859293
20
3.55914079227782
30
0
41
1
10
23.9772565472464
20
3.55925053796381
30
0
0
SPLINE
5
BF
100
AcDbEntity
8
1
62
256
6
ByLayer
370
18
48
1
60
0
100
AcDbSpline
70
4
71
3
72
10
73
6
40
0
40
0
40
0
40
0
40
0.389125849490911
40
0.389125849490911
40
1
40
1
40
1
40
1
41
1
10
8.67354473771289
20
-2.79136829790329
30
0
41
1
10
8.53053501158806
20
-2.84206124695263
30
0
41
1
10
8.38731512293171
20
-2.89046977537126
30
0
41
1
10
8.01857731512291
20
-3.00915076444809
30
0
41
1
10
7.7927046398911
20
-3.07631113821381
30
0
41
1
10
7.56614128382742
20
-3.13731916871166
30
0
0
SPLINE
5
C0
100
AcDbEntity
8
1
62
256
6
ByLayer
370
18
48
1
60
0
100
AcDbSpline
70
4
71
3
72
10
73
6
40
0
40
0
40
0
40
0
40
0.202654536362367
40
0.202654536362367
40
1
40
1
40
1
40
1
41
1
10
4.01192662582253
20
-3.72012626009482
30
0
41
1
10
4.01192815189759
20
-3.72013554614983
30
0
41
1
10
4.01192965367773
20
-3.71973971440986
30
0
41
1
10
4.01193692061884
20
-3.71578721631843
30
0
41
1
10
4.01194230252491
20
-3.70644202783853
30
0
41
1
10
4.01194710544314
20
-3.69100062993991
30
0
0
SPLINE
5
C1
100
AcDbEntity
8
1
62
256
6
ByLayer
370
18
48
1
60
0
100
AcDbSpline
70
4
71
3
72
12
73
8
40
0
40
0
40
0
40
0
40
0.249999999999999
40
0.249999999999999
40
0.499999999999998
40
0.499999999999998
40
1
40
1
40
1
40
1
41
1
10
53.7384386504623
20
-3.64140107018173
30
0
41
1
10
53.7434482877562
20
-3.62807873322166
30
0
41
1
10
53.7481421053807
20
-3.61440331525441
30
0
41
1
10
53.7554443126296
20
-3.59000679245864
30
0
41
1
10
53.7580105097769
20
-3.57935548847186
30
0
41
1
10
53.7616404188327
20
-3.55656353002161
30
0
41
1
10
53.7591634186616
20
-3.55268001422465
30
0
41
1
10
53.7544521465092
20
-3.55559892079998
30
0
0
SPLINE
5
C2
100
AcDbEntity
8
1
62
256
6
ByLayer
370
18
48
1
60
0
100
AcDbSpline
70
4
71
3
72
22
73
18
40
0
40
0
40
0
40
0
40
0.124999999999999
40
0.124999999999999
40
0.187499999999998
40
0.187499999999998
40
0.249999999999998
40
0.249999999999998
40
0.499999999999999
40
0.499999999999999
40
0.624999999999999
40
0.624999999999999
40
0.749999999999999
40
0.749999999999999
40
0.875
40
0.875
40
1
40
1
40
1
40
1
41
1
10
53.698815188855
20
-3.57497588716649
30
0
41
1
10
53.6446939000086
20
-3.57496118154282
30
0
41
1
10
53.593276727104
20
-3.56678194103222
30
0
41
1
10
53.5204260185752
20
-3.54160542305547
30
0
41
1
10
53.4968568401149
20
-3.53105629012936
30
0
41
1
10
53.4512100529683
20
-3.50545452896816
30
0
41
1
10
53.4290979713055
20
-3.49035250448898
30
0
41
1
10
53.3239781205966
20
-3.40438952139812
30
0
41
1
10
53.2557529095418
20
-3.30210871737538
30
0
41
1
10
53.1787543160407
20
-3.09518454190547
30
0
41
1
10
53.15728029449
20
-3.01644039848659
30
0
41
1
10
53.1246439678959
20
-2.844873129484
30
0
41
1
10
53.1132740847162
20
-2.75181137542913
30
0
41
1
10
53.1003797574966
20
-2.551206819073
30
0
41
1
10
53.0988538185906
20
-2.44366621547786
30
0
41
1
10
53.1060736219644
20
-2.21347702694587
30
0
41
1
10
53.1148070661779
20
-2.09247917800647
30
0
41
1
10
53.1283971149504
20
-1.96719529805117
30
0
0
SPLINE
5
C3
100
AcDbEntity
8
1
62
256
6
ByLayer
370
18
48
1
60
0
100
AcDbSpline
70
4
71
3
72
14
73
10
40
0
40
0
40
0
40
0
40
0.25
40
0.25
40
0.5
40
0.5
40
0.75
40
0.75
40
1
40
1
40
1
40
1
41
1
10
4.25127731478793
20
-3.52689078281122
30
0
41
1
10
4.51660252947448
20
-3.54854000571893
30
0
41
1
10
4.78644470290715
20
-3.55342321867636
30
0
41
1
10
5.33289826124204
20
-3.5350052538067
30
0
41
1
10
5.61038892625024
20
-3.51151479240528
30
0
41
1
10
6.16556137889836
20
-3.44072975644093
30
0
41
1
10
6.44375736373649
20
-3.39339723137042
30
0
41
1
10
7.0025753107542
20
-3.27934355715328
30
0
41
1
10
7.28316898490709
20
-3.21312988443421
30
0
41
1
10
7.56595943003998
20
-3.13736971492887
30
0
0
SPLINE
5
C4
100
AcDbEntity
8
1
62
256
6
ByLayer
370
18
48
1
60
0
100
AcDbSpline
70
4
71
3
72
20
73
16
40
0
40
0
40
0
40
0
40
0.25
40
0.25
40
0.5
40
0.5
40
0.625
40
0.625
40
0.75
40
0.75
40
0.875
40
0.875
40
0.9375
40
0.9375
40
1
40
1
40
1
40
1
41
1
10
53.5478403005802
20
1.10060776513973
30
0
41
1
10
53.6533063770369
20
1.1259933320892
30
0
41
1
10
53.7575490879545
20
1.15490036821274
30
0
41
1
10
53.9615234075662
20
1.22468211531753
30
0
41
1
10
54.062185278943
20
1.26563365393159
30
0
41
1
10
54.2028163935906
20
1.34422353777631
30
0
41
1
10
54.248131789113
20
1.37345449757788
30
0
41
1
10
54.3323247149502
20
1.44075069307945
30
0
41
1
10
54.3705442881805
20
1.47820173879791
30
0
41
1
10
54.4348720620366
20
1.56525181674479
30
0
41
1
10
54.4597802899744
20
1.61380661352251
30
0
41
1
10
54.4811587002384
20
1.69308916752513
30
0
41
1
10
54.4854686784721
20
1.71986580287143
30
0
41
1
10
54.4887270787857
20
1.77409692839498
30
0
41
1
10
54.4875990691348
20
1.80184736272915
30
0
41
1
10
54.4841010126528
20
1.82903707431498
30
0
0
SPLINE
5
C5
100
AcDbEntity
8
1
62
256
6
ByLayer
370
18
48
1
60
0
100
AcDbSpline
70
4
71
3
72
12
73
8
40
0
40
0
40
0
40
0
40
0.147672071518512
40
0.147672071518512
40
0.656995843676405
40
0.656995843676405
40
1
40
1
40
1
40
1
41
1
10
8.23936857241983
20
-2.66902653229258
30
0
41
1
10
8.20668711868584
20
-2.69433599747248
30
0
41
1
10
8.17385358083067
20
-2.71945373189354
30
0
41
1
10
8.02770110036334
20
-2.8296815208752
30
0
41
1
10
7.91402472211672
20
-2.91118311131336
30
0
41
1
10
7.72207070709271
20
-3.03995369518398
30
0
41
1
10
7.64435557057939
20
-3.08971187315541
30
0
41
1
10
7.56605870156753
20
-3.1373694356065
30
0
0
SPLINE
5
C6
100
AcDbEntity
8
1
62
256
6
ByLayer
370
18
48
1
60
0
100
AcDbSpline
70
4
71
3
72
16
73
12
40
0
40
0
40
0
40
0
40
0.29564522453232
40
0.29564522453232
40
0.443467836798481
40
0.443467836798481
40
0.591290449064643
40
0.591290449064643
40
0.886935673596965
40
0.886935673596965
40
1
40
1
40
1
40
1
41
1
10
4.1993994197374
20
0.127228714775896
30
0
41
1
10
4.71976004925682
20
-0.17970946730523
30
0
41
1
10
5.23779316220384
20
-0.486150953349977
30
0
41
1
10
6.0171069221922
20
-0.935443082979276
30
0
41
1
10
6.27798918365687
20
-1.0838246241332
30
0
41
1
10
6.79699856773891
20
-1.37262678020667
30
0
41
1
10
7.05533892816325
20
-1.513095968247
30
0
41
1
10
7.828486233375
20
-1.92032223972942
30
0
41
1
10
8.34124522148434
20
-2.1732145911061
30
0
41
1
10
9.05195680339651
20
-2.48938868137037
30
0
41
1
10
9.24881991811782
20
-2.57333912056146
30
0
41
1
10
9.44611619600428
20
-2.65340871768134
30
0
0
SPLINE
5
C7
100
AcDbEntity
8
1
62
256
6
ByLayer
370
13
48
1
60
0
100
AcDbSpline
70
4
71
3
72
18
73
14
40
0
40
0
40
0
40
0
40
0.156521611871997
40
0.156521611871997
40
0.663418766413392
40
0.663418766413392
40
0.79014305504874
40
0.79014305504874
40
0.853505199366413
40
0.853505199366413
40
0.916867343684086
40
0.916867343684086
40
1
40
1
40
1
40
1
41
1
10
9.4461162328036
20
-2.65340873261576
30
0
41
1
10
9.76471831874017
20
-2.78270838679606
30
0
41
1
10
10.0844499690207
20
-2.90188792667746
30
0
41
1
10
11.447626462733
20
-3.35761008129924
30
0
41
1
10
12.4670267894047
20
-3.57009328910911
30
0
41
1
10
13.7557132166315
20
-3.6469204113516
30
0
41
1
10
14.0141366682765
20
-3.65284291814371
30
0
41
1
10
14.4035727276132
20
-3.64714106669337
30
0
41
1
10
14.5339052294176
20
-3.6427902972078
30
0
41
1
10
14.7937831014924
20
-3.62931062674483
30
0
41
1
10
14.9234204051598
20
-3.62018928522471
30
0
41
1
10
15.222551401743
20
-3.59364935966411
30
0
41
1
10
15.3918475410211
20
-3.57452275066544
30
0
41
1
10
15.5608455964685
20
-3.55143817004813
30
0
0
SPLINE
5
C8
100
AcDbEntity
8
1
62
256
6
ByLayer
370
18
48
1
60
0
100
AcDbSpline
70
4
71
3
72
24
73
20
40
0
40
0
40
0
40
0
40
0.0327322123869646
40
0.0327322123869646
40
0.0735451029774949
40
0.0735451029774949
40
0.114357993568025
40
0.114357993568025
40
0.440861118292242
40
0.440861118292242
40
0.522486899473296
40
0.522486899473296
40
0.60411268065435
40
0.60411268065435
40
0.767364243016457
40
0.767364243016457
40
0.930615805378564
40
0.930615805378564
40
1
40
1
40
1
40
1
41
1
10
40.2781400808291
20
1.67861039232091
30
0
41
1
10
40.381516755729
20
1.62411395533079
30
0
41
1
10
40.4850332478837
20
1.56885056351476
30
0
41
1
10
40.7179880286266
20
1.44300643901221
30
0
41
1
10
40.8475115453799
20
1.37201121166493
30
0
41
1
10
41.1071814460714
20
1.22787481034319
30
0
41
1
10
41.237322058628
20
1.15472340179704
30
0
41
1
10
42.4037373830024
20
0.492614896921623
30
0
41
1
10
43.421576648787
20
-0.129855431375176
30
0
41
1
10
44.7110943613794
20
-0.880128681427209
30
0
41
1
10
44.9698498542557
20
-1.02887967366942
30
0
41
1
10
45.4899533574226
20
-1.32181934687182
30
0
41
1
10
45.7484764462428
20
-1.46445377602458
30
0
41
1
10
46.5213398421125
20
-1.87829559304257
30
0
41
1
10
47.0332420424954
20
-2.13500534320698
30
0
41
1
10
48.057612080273
20
-2.60053180366896
30
0
41
1
10
48.5701858534792
20
-2.80922989366593
30
0
41
1
10
49.3071945655979
20
-3.06414589875411
30
0
41
1
10
49.5284259728173
20
-3.1349339678564
30
0
41
1
10
49.7489348529885
20
-3.1993954282228
30
0
0
SPLINE
5
C9
100
AcDbEntity
8
1
62
256
6
ByLayer
370
13
48
1
60
0
100
AcDbSpline
70
4
71
3
72
16
73
12
40
0
40
0
40
0
40
0
40
0.0291211789013996
40
0.0291211789013996
40
0.223296943121118
40
0.223296943121118
40
0.61164847156056
40
0.61164847156056
40
0.80582423578028
40
0.80582423578028
40
1
40
1
40
1
40
1
41
1
10
49.7489338929988
20
-3.19939514758852
30
0
41
1
10
49.7878390181052
20
-3.21076830348446
30
0
41
1
10
49.8267216519561
20
-3.22194452010973
30
0
41
1
10
50.1246054550015
20
-3.30608630694445
30
0
41
1
10
50.3826248531471
20
-3.37044546106884
30
0
41
1
10
51.1552311918135
20
-3.53637112278378
30
0
41
1
10
51.6683294156445
20
-3.61086116190336
30
0
41
1
10
52.4414762619679
20
-3.66570052692825
30
0
41
1
10
52.6997737689585
20
-3.67448961107655
30
0
41
1
10
53.2184576622339
20
-3.67260110027252
30
0
41
1
10
53.4786967962378
20
-3.66180421160996
30
0
41
1
10
53.7384386504767
20
-3.64140107018059
30
0
0
SPLINE
5
CA
100
AcDbEntity
8
1
62
256
6
ByLayer
370
18
48
1
60
0
100
AcDbSpline
70
4
71
3
72
10
73
6
40
0
40
0
40
0
40
0
40
0.5
40
0.5
40
1
40
1
40
1
40
1
41
1
10
4.12091558174308
20
0.177106124661947
30
0
41
1
10
4.1024154012116
20
0.188247163039819
30
0
41
1
10
4.08573872388163
20
0.20149985052916
30
0
41
1
10
4.05592042743504
20
0.232091323461674
30
0
41
1
10
4.04287917503882
20
0.249473265744285
30
0
41
1
10
4.0323968686269
20
0.267962763551623
30
0
0
SPLINE
5
CB
100
AcDbEntity
8
1
62
256
6
ByLayer
370
18
48
1
60
0
100
AcDbSpline
70
4
71
3
72
16
73
12
40
0
40
0
40
0
40
0
40
0.25
40
0.25
40
0.5
40
0.5
40
0.75
40
0.75
40
0.875
40
0.875
40
1
40
1
40
1
40
1
41
1
10
54.4841010126537
20
1.8290370743153
30
0
41
1
10
54.4270859913175
20
1.98301005390442
30
0
41
1
10
54.3698759558367
20
2.13684626730898
30
0
41
1
10
54.2545743978783
20
2.44380327325052
30
0
41
1
10
54.1966183424731
20
2.59607968945261
30
0
41
1
10
54.080556823524
20
2.90004419753316
30
0
41
1
10
54.0224183479945
20
3.0516022981397
30
0
41
1
10
53.9344553235782
20
3.27596526097258
30
0
41
1
10
53.9050647189911
20
3.35047886536461
30
0
41
1
10
53.8462000947467
20
3.49917761068508
30
0
41
1
10
53.8166993498456
20
3.57325751563943
30
0
41
1
10
53.787012511607
20
3.64660464098932
30
0
0
SPLINE
5
CC
100
AcDbEntity
8
1
62
256
6
ByLayer
370
13
48
1
60
0
100
AcDbSpline
70
4
71
3
72
10
73
6
40
0
40
0
40
0
40
0
40
0.5
40
0.5
40
1
40
1
40
1
40
1
41
1
10
4.12233664709055
20
0.25349814396867
30
0
41
1
10
4.09455759350971
20
0.264080606772694
30
0
41
1
10
4.07142251956222
20
0.277506117348366
30
0
41
1
10
4.03394238494206
20
0.308782866674448
30
0
41
1
10
4.0204726529152
20
0.325844237398513
30
0
41
1
10
4.0116453208874
20
0.344225538971727
30
0
0
SPLINE
5
CD
100
AcDbEntity
8
1
62
256
6
ByLayer
370
18
48
1
60
0
100
AcDbSpline
70
4
71
3
72
10
73
6
40
0
40
0
40
0
40
0
40
0.5
40
0.5
40
1
40
1
40
1
40
1
41
1
10
4.03239686862707
20
0.267962763551168
30
0
41
1
10
4.04262920094592
20
0.249398156341016
30
0
41
1
10
4.05551646980808
20
0.231543230482089
30
0
41
1
10
4.08564130544738
20
0.199677746008803
30
0
41
1
10
4.10277840477661
20
0.18560024818504
30
0
41
1
10
4.12233664709052
20
0.173676329450814
30
0
0
SPLINE
5
CE
100
AcDbEntity
8
1
62
256
6
ByLayer
370
18
48
1
60
0
100
AcDbSpline
70
4
71
3
72
61
73
57
40
0
40
0
40
0
40
0
40
0.0625000000000039
40
0.0625000000000039
40
0.125000000000008
40
0.125000000000008
40
0.250000000000016
40
0.250000000000016
40
0.375000000000024
40
0.375000000000024
40
0.437500000000027
40
0.437500000000027
40
0.50000000000003
40
0.50000000000003
40
0.625000000000037
40
0.625000000000037
40
0.640625000000039
40
0.644531250000038
40
0.644531250000038
40
0.648437500000038
40
0.648437500000038
40
0.650390625000038
40
0.650390625000038
40
0.652343750000038
40
0.652343750000038
40
0.656250000000038
40
0.656250000000038
40
0.687500000000033
40
0.687500000000033
40
0.703125000000032
40
0.703125000000032
40
0.71875000000003
40
0.71875000000003
40
0.734375000000028
40
0.734375000000028
40
0.750000000000027
40
0.750000000000027
40
0.765625000000025
40
0.765625000000025
40
0.773437500000024
40
0.773437500000024
40
0.781250000000023
40
0.781250000000023
40
0.796875000000021
40
0.796875000000021
40
0.812500000000019
40
0.812500000000019
40
0.843750000000016
40
0.843750000000016
40
0.875000000000013
40
0.875000000000013
40
0.906250000000009
40
0.906250000000009
40
0.937500000000006
40
0.937500000000006
40
1
40
1
40
1
40
1
41
1
10
12.0282943134601
20
-3.61655192881801
30
0
41
1
10
11.7630488320972
20
-3.57793546655859
30
0
41
1
10
11.4960548261662
20
-3.53016038122863
30
0
41
1
10
10.9578120534456
20
-3.41916516424283
30
0
41
1
10
10.6859173229338
20
-3.35575769308488
30
0
41
1
10
9.86757066441211
20
-3.14827631922231
30
0
41
1
10
9.31886351460008
20
-2.98705971642173
30
0
41
1
10
8.20522196826079
20
-2.65062167056143
30
0
41
1
10
7.64018767543092
20
-2.47557753353408
30
0
41
1
10
6.7741056120804
20
-2.22846768035362
30
0
41
1
10
6.48234703695533
20
-2.14867420238792
30
0
41
1
10
5.89198914342486
20
-1.99823233970056
30
0
41
1
10
5.59284849770538
20
-1.92747808229754
30
0
41
1
10
4.68878257365489
20
-1.73519032040073
30
0
41
1
10
4.07724915118462
20
-1.63396532678709
30
0
41
1
10
3.38379851383132
20
-1.56101189590353
30
0
41
1
10
3.28737769787918
20
-1.55157925751229
30
0
41
1
10
3.19081993223369
20
-1.54304096191041
30
0
41
1
10
3.15218583404385
20
-1.53969757324859
30
0
41
1
10
3.1327801912721
20
-1.53928093291864
30
0
41
1
10
3.10418000027465
20
-1.54290601359861
30
0
41
1
10
3.09457809324664
20
-1.54479410102658
30
0
41
1
10
3.07625454871666
20
-1.55029755307694
30
0
41
1
10
3.06781590882232
20
-1.5542709675461
30
0
41
1
10
3.04260689659267
20
-1.56635997675534
30
0
41
1
10
3.02586499058126
20
-1.57451396934061
30
0
41
1
10
2.87578952397351
20
-1.64878331685773
30
0
41
1
10
2.74663070206276
20
-1.721015925422
30
0
41
1
10
2.56572531859808
20
-1.84007378477264
30
0
41
1
10
2.50745494673009
20
-1.88161978617339
30
0
41
1
10
2.39603666291109
20
-1.96926209119877
30
0
41
1
10
2.34252857068213
20
-2.01571236998856
30
0
41
1
10
2.24433209915446
20
-2.11242842175901
30
0
41
1
10
2.19966404179121
20
-2.1625810308139
30
0
41
1
10
2.12131840085357
20
-2.26709577004081
30
0
41
1
10
2.08756096067151
20
-2.32194026733828
30
0
41
1
10
2.0363110943546
20
-2.43121353153717
30
0
41
1
10
2.01833545818326
20
-2.48613806700393
30
0
41
1
10
2.00368146612908
20
-2.5687467264473
30
0
41
1
10
2.00086880815974
20
-2.59646989751292
30
0
41
1
10
1.99948149497428
20
-2.65051631736583
30
0
41
1
10
2.00085736877225
20
-2.67698579475598
30
0
41
1
10
2.01072317179899
20
-2.75479823067909
30
0
41
1
10
2.02513615814581
20
-2.80496160029043
30
0
41
1
10
2.06626123382705
20
-2.89921223373477
30
0
41
1
10
2.09266689266295
20
-2.94304992014787
30
0
41
1
10
2.18525861954743
20
-3.06667552999483
30
0
41
1
10
2.2653243933415
20
-3.13890677657199
30
0
41
1
10
2.4412180933603
20
-3.26393358824032
30
0
41
1
10
2.53786142420884
20
-3.31764597528627
30
0
41
1
10
2.74244633956351
20
-3.41258178906574
30
0
41
1
10
2.85072284764533
20
-3.45375420374572
30
0
41
1
10
3.07170484043016
20
-3.52501483937769
30
0
41
1
10
3.18493163527091
20
-3.5553276089145
30
0
41
1
10
3.53055172989937
20
-3.63348194323848
30
0
41
1
10
3.76876362843458
20
-3.66870645453525
30
0
41
1
10
4.01194710542566
20
-3.69100062993795
30
0
0
SPLINE
5
CF
100
AcDbEntity
8
1
62
256
6
ByLayer
370
18
48
1
60
0
100
AcDbSpline
70
4
71
3
72
16
73
12
40
0
40
0
40
0
40
0
40
0.25
40
0.25
40
0.5
40
0.5
40
0.75
40
0.75
40
0.875
40
0.875
40
1
40
1
40
1
40
1
41
1
10
54.4841010126537
20
-1.82903707431527
30
0
41
1
10
54.4270859913175
20
-1.98301005390439
30
0
41
1
10
54.3698759558367
20
-2.13684626730901
30
0
41
1
10
54.2545743978783
20
-2.44380327325052
30
0
41
1
10
54.1966183424732
20
-2.59607968945264
30
0
41
1
10
54.080556823524
20
-2.90004419753316
30
0
41
1
10
54.0224183479946
20
-3.0516022981397
30
0
41
1
10
53.9344553235782
20
-3.27596526097258
30
0
41
1
10
53.9050647189911
20
-3.35047886536461
30
0
41
1
10
53.8462000947467
20
-3.49917761068508
30
0
41
1
10
53.8166993498455
20
-3.57325751563943
30
0
41
1
10
53.7870125116069
20
-3.64660464098932
30
0
0
SPLINE
5
D0
100
AcDbEntity
8
1
62
256
6
ByLayer
370
18
48
1
60
0
100
AcDbSpline
70
4
71
3
72
24
73
20
40
0
40
0
40
0
40
0
40
0.124999999999996
40
0.124999999999996
40
0.187499999999994
40
0.187499999999994
40
0.249999999999993
40
0.249999999999993
40
0.374999999999989
40
0.374999999999989
40
0.437499999999987
40
0.437499999999987
40
0.499999999999985
40
0.499999999999985
40
0.749999999999989
40
0.749999999999989
40
0.874999999999995
40
0.874999999999995
40
1
40
1
40
1
40
1
41
1
10
50.6367291380018
20
1.36533814122839
30
0
41
1
10
50.6728842748878
20
1.20133080265046
30
0
41
1
10
50.7237999284875
20
1.0369780843711
30
0
41
1
10
50.8195727066655
20
0.789995084923305
30
0
41
1
10
50.854946488276
20
0.707184865969651
30
0
41
1
10
50.930915430205
20
0.543590407017916
30
0
41
1
10
50.9713929482543
20
0.462970837057639
30
0
41
1
10
51.0995192910729
20
0.224274122781281
30
0
41
1
10
51.1938191279483
20
0.0693387673800032
30
0
41
1
10
51.3465920563783
20
-0.157715452757344
30
0
41
1
10
51.399370642648
20
-0.232410175226221
30
0
41
1
10
51.5070076137786
20
-0.37821940020865
30
0
41
1
10
51.5620411640609
20
-0.449598307325175
30
0
41
1
10
51.8426907143153
20
-0.799609579951465
30
0
41
1
10
52.0844057650789
20
-1.05802704828435
30
0
41
1
10
52.466618318627
20
-1.42099216182336
30
0
41
1
10
52.5966913729584
20
-1.53711545031243
30
0
41
1
10
52.8599001395544
20
-1.759201385621
30
0
41
1
10
52.9933084455041
20
-1.86543725880517
30
0
41
1
10
53.1283971149504
20
-1.96719529805111
30
0
0
SPLINE
5
D1
100
AcDbEntity
8
1
62
256
6
ByLayer
370
18
48
1
60
0
100
AcDbSpline
70
4
71
3
72
29
73
25
40
0
40
0
40
0
40
0
40
0.0677944741817159
40
0.0677944741817159
40
0.135588948363432
40
0.135588948363432
40
0.271177896726864
40
0.271177896726864
40
0.33897237090858
40
0.33897237090858
40
0.406766845090296
40
0.474561319272012
40
0.474561319272012
40
0.542355793453728
40
0.542355793453728
40
0.67794474181716
40
0.67794474181716
40
0.745739215998876
40
0.745739215998876
40
0.813533690180592
40
0.813533690180592
40
0.949122638544024
40
0.949122638544024
40
1
40
1
40
1
40
1
41
1
10
4.0116453208874
20
0.344225538972239
30
0
41
1
10
4.01165623981476
20
0.468833271867794
30
0
41
1
10
4.01166623496337
20
0.593031808450831
30
0
41
1
10
4.01168457740221
20
0.838632916379709
30
0
41
1
10
4.0116928715826
20
0.959250796637576
30
0
41
1
10
4.01171576628718
20
1.31476231039309
30
0
41
1
10
4.01172838882798
20
1.54337657606726
30
0
41
1
10
4.01174559726798
20
1.87336659921576
30
0
41
1
10
4.01175102041739
20
1.98075630722229
30
0
41
1
10
4.01176141147684
20
2.18645868669188
30
0
41
1
10
4.01177140865622
20
2.3842654295147
30
0
41
1
10
4.01178126180028
20
2.56648100740918
30
0
41
1
10
4.01179131437425
20
2.74076544362927
30
0
41
1
10
4.01179647058461
20
2.8243559734041
30
0
41
1
10
4.01181227549361
20
3.05831046296393
30
0
41
1
10
4.01182332647343
20
3.19290272580841
30
0
41
1
10
4.01184125952062
20
3.36328650975935
30
0
41
1
10
4.01184745994809
20
3.41482667859631
30
0
41
1
10
4.01186027463979
20
3.50679140222468
30
0
41
1
10
4.01186678813525
20
3.54650620677543
30
0
41
1
10
4.01188649072668
20
3.64749798199958
30
0
41
1
10
4.0118998798134
20
3.6907998694532
30
0
41
1
10
4.01191748967807
20
3.71662659948143
30
0
41
1
10
4.01192220569351
20
3.72014249179708
30
0
41
1
10
4.01192670913122
20
3.72012636450683
30
0
0
SPLINE
5
D2
100
AcDbEntity
8
1
62
256
6
ByLayer
370
18
48
1
60
0
100
AcDbSpline
70
4
71
3
72
14
73
10
40
0
40
0
40
0
40
0
40
0.120824135832011
40
0.120824135832011
40
0.437724415745953
40
0.437724415745953
40
0.754624695659896
40
0.754624695659896
40
1
40
1
40
1
40
1
41
1
10
12.0282883005277
20
3.61654864041779
30
0
41
1
10
11.935046132918
20
3.57714853645945
30
0
41
1
10
11.8417566415701
20
3.53633096936335
30
0
41
1
10
11.5034374806493
20
3.38297024831726
30
0
41
1
10
11.2575531713478
20
3.26126032116017
30
0
41
1
10
10.7619779060907
20
2.99684343665231
30
0
41
1
10
10.5179027498247
20
2.85717355762327
30
0
41
1
10
10.0873075747486
20
2.60299690455213
30
0
41
1
10
9.90020898425971
20
2.48996362966409
30
0
41
1
10
9.71242726907639
20
2.3773771497541
30
0
0
SPLINE
5
D3
100
AcDbEntity
8
1
62
256
6
ByLayer
370
18
48
1
60
0
100
AcDbSpline
70
4
71
3
72
26
73
22
40
0
40
0
40
0
40
0
40
0.0140424357783756
40
0.0140424357783756
40
0.0835542458784619
40
0.0835542458784619
40
0.222577866078636
40
0.222577866078636
40
0.361601486278809
40
0.361601486278809
40
0.639648726679157
40
0.639648726679157
40
0.709160536779245
40
0.709160536779245
40
0.778672346879334
40
0.778672346879334
40
0.848184156979424
40
0.848184156979424
40
0.917695967079513
40
0.917695967079513
40
1
40
1
40
1
40
1
41
1
10
18.7635042567717
20
2.66602720803155
30
0
41
1
10
18.8159994232981
20
2.64482594874758
30
0
41
1
10
18.8684656992446
20
2.62334621873049
30
0
41
1
10
19.1803090717971
20
2.49398095984125
30
0
41
1
10
19.4385275656352
20
2.37994421856664
30
0
41
1
10
20.2111762796125
20
2.02107432532304
30
0
41
1
10
20.72365950177
20
1.75948834849018
30
0
41
1
10
21.7512787685315
20
1.20369997897421
30
0
41
1
10
22.2669567924941
20
0.909541874284656
30
0
41
1
10
23.8282092083149
20
-0.0023412607655189
30
0
41
1
10
24.8476943097542
20
-0.622273410589543
30
0
41
1
10
26.1358492523026
20
-1.34341175534203
30
0
41
1
10
26.3941682424902
20
-1.48495354381669
30
0
41
1
10
26.9133948006414
20
-1.7606307366629
30
0
41
1
10
27.173943504999
20
-1.89468720003276
30
0
41
1
10
27.692944735701
20
-2.15116947890607
30
0
41
1
10
27.9521481205295
20
-2.27388147870457
30
0
41
1
10
28.4710621877918
20
-2.50674062486399
30
0
41
1
10
28.7310038424501
20
-2.61707932688086
30
0
41
1
10
29.298926933245
20
-2.84249973943696
30
0
41
1
10
29.6050305522273
20
-2.95382091822748
30
0
41
1
10
29.910198743593
20
-3.05365960693027
30
0
0
SPLINE
5
D4
100
AcDbEntity
8
1
62
256
6
ByLayer
370
13
48
1
60
0
100
AcDbSpline
70
4
71
3
72
14
73
10
40
0
40
0
40
0
40
0
40
0.432362731662214
40
0.432362731662214
40
0.585902241325911
40
0.585902241325911
40
0.739441750989607
40
0.739441750989607
40
1
40
1
40
1
40
1
41
1
10
29.9101987435059
20
-3.05365960690185
30
0
41
1
10
30.6359784955005
20
-3.29110538525586
30
0
41
1
10
31.3564672037062
20
-3.46360294443738
30
0
41
1
10
32.3411300725903
20
-3.59847401694532
30
0
41
1
10
32.5999978997881
20
-3.62458609033661
30
0
41
1
10
33.1203976453635
20
-3.65753992727872
30
0
41
1
10
33.3793344035966
20
-3.6642358571043
30
0
41
1
10
34.0750940849308
20
-3.65652237390432
30
0
41
1
10
34.5104741019257
20
-3.62407538597333
30
0
41
1
10
34.9457874941896
20
-3.56503463224593
30
0
0
SPLINE
5
D5
100
AcDbEntity
8
1
62
256
6
ByLayer
370
18
48
1
60
0
100
AcDbSpline
70
4
71
3
72
14
73
10
40
0
40
0
40
0
40
0
40
0.25
40
0.25
40
0.5
40
0.5
40
0.75
40
0.75
40
1
40
1
40
1
40
1
41
1
10
53.3883359522735
20
0.806294537434496
30
0
41
1
10
53.3822411123595
20
0.835165635677413
30
0
41
1
10
53.380064711826
20
0.8646688529046
30
0
41
1
10
53.3852603220776
20
0.92538069001813
30
0
41
1
10
53.3925917825422
20
0.955666579743166
30
0
41
1
10
53.419177413098
20
1.01303588334804
30
0
41
1
10
53.4382367405689
20
1.03923487920085
30
0
41
1
10
53.4875970272788
20
1.08014658352113
30
0
41
1
10
53.5169998419652
20
1.09318450115543
30
0
41
1
10
53.5478403005802
20
1.10060776513973
30
0
0
SPLINE
5
D6
100
AcDbEntity
8
1
62
256
6
ByLayer
370
18
48
1
60
0
100
AcDbSpline
70
4
71
3
72
70
73
66
40
0
40
0
40
0
40
0
40
0.0624668138745133
40
0.0624668138745133
40
0.0937002208117699
40
0.0937002208117699
40
0.124933627749026
40
0.124933627749026
40
0.156167034686283
40
0.156167034686283
40
0.18740044162354
40
0.18740044162354
40
0.218633848560796
40
0.218633848560796
40
0.249867255498053
40
0.249867255498053
40
0.28110066243531
40
0.28110066243531
40
0.312334069372566
40
0.312334069372566
40
0.343567476309823
40
0.343567476309823
40
0.37480088324708
40
0.37480088324708
40
0.406034290184336
40
0.406034290184336
40
0.437267697121593
40
0.437267697121593
40
0.468501104058849
40
0.468501104058849
40
0.499734510996106
40
0.499734510996106
40
0.530967917933363
40
0.530967917933363
40
0.562201324870619
40
0.562201324870619
40
0.577818028339247
40
0.577818028339247
40
0.593434731807875
40
0.593434731807875
40
0.624668138745132
40
0.624668138745132
40
0.655901545682389
40
0.655901545682389
40
0.687134952619645
40
0.687134952619645
40
0.718368359556902
40
0.718368359556902
40
0.749601766494159
40
0.749601766494159
40
0.780835173431415
40
0.780835173431415
40
0.812068580368672
40
0.812068580368672
40
0.874535394243185
40
0.874535394243185
40
0.905768801180442
40
0.905768801180442
40
0.9370022081177
40
0.9370022081177
40
0.968235615054957
40
0.968235615054957
40
0.999469021992215
40
0.999469021992215
40
1
40
1
40
1
40
1
41
1
10
12.0282724097577
20
3.61654192565271
30
0
41
1
10
12.4665764460369
20
3.68075010609249
30
0
41
1
10
12.9037797870842
20
3.71589573063466
30
0
41
1
10
13.5543688166416
20
3.7281203522835
30
0
41
1
10
13.770428222792
20
3.72521449138719
30
0
41
1
10
14.2040135555212
20
3.70579557371437
30
0
41
1
10
14.4210480390452
20
3.68932511252208
30
0
41
1
10
14.8550893756797
20
3.64268720567185
30
0
41
1
10
15.0716618357428
20
3.61228401813423
30
0
41
1
10
15.5068860264735
20
3.53814415014105
30
0
41
1
10
15.7256664245924
20
3.49458347961681
30
0
41
1
10
16.1648349667068
20
3.39399567730504
30
0
41
1
10
16.3844541664629
20
3.3370554404438
30
0
41
1
10
16.8201188391647
20
3.21059870213054
30
0
41
1
10
17.0376485571434
20
3.14175029306168
30
0
41
1
10
17.4724033870909
20
2.99352606261138
30
0
41
1
10
17.6894765315285
20
2.91401926905746
30
0
41
1
10
18.1225073918999
20
2.74361380120038
30
0
41
1
10
18.338340825886
20
2.65249229678327
30
0
41
1
10
18.772076867815
20
2.46247295035343
30
0
41
1
10
18.9894834323831
20
2.36305147988421
30
0
41
1
10
19.4248609775819
20
2.15462769037688
30
0
41
1
10
19.6424409755502
20
2.04502480349643
30
0
41
1
10
20.0798804317863
20
1.81823709445348
30
0
41
1
10
20.3002085185416
20
1.70157313236857
30
0
41
1
10
20.7377206178082
20
1.46355684505468
30
0
41
1
10
20.9555874535807
20
1.34187922458383
30
0
41
1
10
21.3892018595437
20
1.09261714711502
30
0
41
1
10
21.6058227258075
20
0.966436355089115
30
0
41
1
10
22.0394899128903
20
0.712359210413098
30
0
41
1
10
22.2563039205358
20
0.584087077702378
30
0
41
1
10
22.6893965448075
20
0.324223009775835
30
0
41
1
10
22.9054167006923
20
0.192176070137151
30
0
41
1
10
23.3400209636006
20
-0.0700375225463006
30
0
41
1
10
23.5581486400024
20
-0.200961957170932
30
0
41
1
10
23.8861917921324
20
-0.397767291967995
30
0
41
1
10
23.995685688886
20
-0.463432632591804
30
0
41
1
10
24.2148989566933
20
-0.595025159675714
30
0
41
1
10
24.3243961409124
20
-0.660960629270193
30
0
41
1
10
24.6521931545749
20
-0.856386816859668
30
0
41
1
10
24.8705089898199
20
-0.983646803954514
30
0
41
1
10
25.3058969621937
20
-1.23376363291754
30
0
41
1
10
25.5230142304982
20
-1.35654076569085
30
0
41
1
10
25.9555754369852
20
-1.59826842431025
30
0
41
1
10
26.1717291776271
20
-1.71609181242877
30
0
41
1
10
26.6051853016737
20
-1.94369625629557
30
0
41
1
10
26.8221672096389
20
-2.05397384336541
30
0
41
1
10
27.2561519686959
20
-2.26807382484108
30
0
41
1
10
27.4727984466526
20
-2.37233183335212
30
0
41
1
10
27.9090891905667
20
-2.57020432620985
30
0
41
1
10
28.1288673045471
20
-2.6645763253791
30
0
41
1
10
28.567742864377
20
-2.84336524445445
30
0
41
1
10
28.7857673775121
20
-2.92773105791198
30
0
41
1
10
29.4376010299237
20
-3.16350760393729
30
0
41
1
10
29.8722275394665
20
-3.2951174694779
30
0
41
1
10
30.52065068888
20
-3.45799366449663
30
0
41
1
10
30.7366903625218
20
-3.5060189632174
30
0
41
1
10
31.1706639633679
20
-3.58842909025006
30
0
41
1
10
31.3881869698298
20
-3.62310286000542
30
0
41
1
10
31.823826110321
20
-3.67935281429365
30
0
41
1
10
32.0415308367956
20
-3.70096438528895
30
0
41
1
10
32.4803044545579
20
-3.72980867304017
30
0
41
1
10
32.6995292022272
20
-3.73709671459716
30
0
41
1
10
32.9213798274372
20
-3.73747839791702
30
0
41
1
10
32.9250880101563
20
-3.73748277196651
30
0
41
1
10
32.9287958906583
20
-3.73748513959791
30
0
0
SPLINE
5
D7
100
AcDbEntity
8
1
62
256
6
ByLayer
370
18
48
1
60
0
100
AcDbSpline
70
4
71
3
72
26
73
22
40
0
40
0
40
0
40
0
40
0.0392872473959899
40
0.0392872473959899
40
0.146033108796435
40
0.146033108796435
40
0.252778970196881
40
0.252778970196881
40
0.359524831597327
40
0.359524831597327
40
0.466270692997772
40
0.466270692997772
40
0.573016554398218
40
0.573016554398218
40
0.679762415798663
40
0.679762415798663
40
0.786508277199108
40
0.786508277199108
40
0.893254138599553
40
0.893254138599553
40
1
40
1
40
1
40
1
41
1
10
47.6693252271618
20
2.72823987298904
30
0
41
1
10
47.7492840706656
20
2.76153633101714
30
0
41
1
10
47.8293657948493
20
2.79412582936348
30
0
41
1
10
48.1275892276406
20
2.91252615774189
30
0
41
1
10
48.3465636702495
20
2.99403041151666
30
0
41
1
10
48.7850918148006
20
3.14680501883919
30
0
41
1
10
49.0026450196786
20
3.21766144471329
30
0
41
1
10
49.4380083491041
20
3.34529813566672
30
0
41
1
10
49.6553847808514
20
3.40256253143204
30
0
41
1
10
50.089006869526
20
3.50462097258495
30
0
41
1
10
50.3049517499898
20
3.54954929388953
30
0
41
1
10
50.7367585455529
20
3.62605334959025
30
0
41
1
10
50.953319646807
20
3.65736069066733
30
0
41
1
10
51.3869108810861
20
3.70668880736926
30
0
41
1
10
51.6039877396139
20
3.72468770363361
30
0
41
1
10
52.0381798565169
20
3.74698735154738
30
0
41
1
10
52.2558858546106
20
3.75113453479676
30
0
41
1
10
52.6942916169196
20
3.74532226055152
30
0
41
1
10
52.9140227584845
20
3.73539543175042
30
0
41
1
10
53.3512289145982
20
3.7015282311979
30
0
41
1
10
53.568729677931
20
3.67737840877086
30
0
41
1
10
53.7870125115958
20
3.64660464099077
30
0
0
SPLINE
5
D8
100
AcDbEntity
8
1
62
256
6
ByLayer
370
18
48
1
60
0
100
AcDbSpline
70
4
71
3
72
14
73
10
40
0
40
0
40
0
40
0
40
0.0462609583101242
40
0.0462609583101242
40
0.239015268781042
40
0.239015268781042
40
0.431769579251961
40
0.431769579251961
40
1
40
1
40
1
40
1
41
1
10
33.8616849939468
20
-3.56219661280951
30
0
41
1
10
33.7998751895557
20
-3.56302627180091
30
0
41
1
10
33.7380253106788
20
-3.563320842304
30
0
41
1
10
33.418227611218
20
-3.5620657847459
30
0
41
1
10
33.1593244293229
20
-3.5517471928604
30
0
41
1
10
32.6393727179477
20
-3.51212702739963
30
0
41
1
10
32.3806562187783
20
-3.48299971470081
30
0
41
1
10
31.3624338943965
20
-3.33282908898673
30
0
41
1
10
30.6084661681238
20
-3.14345827006602
30
0
41
1
10
29.8483364483415
20
-2.88643842933803
30
0
0
SPLINE
5
D9
100
AcDbEntity
8
1
62
256
6
ByLayer
370
13
48
1
60
0
100
AcDbSpline
70
4
71
3
72
20
73
16
40
0
40
0
40
0
40
0
40
0.0855319921240825
40
0.0855319921240825
40
0.248132895648115
40
0.248132895648115
40
0.329433347410133
40
0.329433347410133
40
0.410733799172151
40
0.410733799172151
40
0.735935606220221
40
0.735935606220221
40
0.898536509744257
40
0.898536509744257
40
1
40
1
40
1
40
1
41
1
10
29.8483364481131
20
-2.88643842926075
30
0
41
1
10
29.5770657032638
20
-2.79471465919312
30
0
41
1
10
29.3050101715411
20
-2.69437516043021
30
0
41
1
10
28.5118369042415
20
-2.37955454520025
30
0
41
1
10
27.9936896857832
20
-2.14676040474342
30
0
41
1
10
27.2156581432943
20
-1.7665314362709
30
0
41
1
10
26.955298319004
20
-1.63433021400078
30
0
41
1
10
26.4364255192007
20
-1.36310178095695
30
0
41
1
10
26.1782268579734
20
-1.22407446169208
30
0
41
1
10
24.8905773988145
20
-0.516777160219846
30
0
41
1
10
23.8708521290778
20
0.0874548552135366
30
0
41
1
10
22.3106034850805
20
0.9702601796632
30
0
41
1
10
21.7951939867568
20
1.25397727170926
30
0
41
1
10
20.9609837228707
20
1.68808198484635
30
0
41
1
10
20.6409153410487
20
1.848361178218
30
0
41
1
10
20.3204206394164
20
2.00074016461977
30
0
0
SPLINE
5
DA
100
AcDbEntity
8
1
62
256
6
ByLayer
370
18
48
1
60
0
100
AcDbSpline
70
4
71
3
72
10
73
6
40
0
40
0
40
0
40
0
40
0.974660388738425
40
0.974660388738425
40
1
40
1
40
1
40
1
41
1
10
53.7092030960281
20
3.71901307359204
30
0
41
1
10
53.4498400910362
20
3.73910934574781
30
0
41
1
10
53.1905634005703
20
3.74925677554904
30
0
41
1
10
52.9241944626443
20
3.74948153209465
30
0
41
1
10
52.9174441137091
20
3.74948047562199
30
0
41
1
10
52.9106931322024
20
3.7494726695609
30
0
0
SPLINE
5
DB
100
AcDbEntity
8
1
62
256
6
ByLayer
370
18
48
1
60
0
100
AcDbSpline
70
4
71
3
72
46
73
42
40
0
40
0
40
0
40
0
40
0.0113043060778128
40
0.0113043060778128
40
0.084238609486022
40
0.084238609486022
40
0.120705761190126
40
0.120705761190126
40
0.157172912894231
40
0.157172912894231
40
0.303041519710651
40
0.303041519710651
40
0.339508671414755
40
0.339508671414755
40
0.357742247266807
40
0.357742247266807
40
0.375975823118858
40
0.375975823118858
40
0.448910126527068
40
0.448910126527068
40
0.521844429935278
40
0.521844429935278
40
0.558311581639383
40
0.558311581639383
40
0.594778733343489
40
0.594778733343489
40
0.667713036751699
40
0.667713036751699
40
0.704180188455805
40
0.704180188455805
40
0.722413764307857
40
0.722413764307857
40
0.74064734015991
40
0.74064734015991
40
0.886515946976328
40
0.886515946976328
40
0.922983098680432
40
0.922983098680432
40
0.959450250384537
40
0.959450250384537
40
1
40
1
40
1
40
1
41
1
10
35.3578841136599
20
-3.57370462846535
30
0
41
1
10
35.2778135867955
20
-3.58790863040417
30
0
41
1
10
35.1978314486648
20
-3.60119918822286
30
0
41
1
10
34.6023744865741
20
-3.69342476338861
30
0
41
1
10
34.0894035839034
20
-3.73498535264315
30
0
41
1
10
33.317930078043
20
-3.7390530023325
30
0
41
1
10
33.0603843391666
20
-3.73068109906399
30
0
41
1
10
32.5434077345579
20
-3.69432406948812
30
0
41
1
10
32.2836369330468
20
-3.6662745934899
30
0
41
1
10
30.9816893015549
20
-3.47695020567534
30
0
41
1
10
29.9616889710211
20
-3.17444611436429
30
0
41
1
10
28.6712787224686
20
-2.64594472992442
30
0
41
1
10
28.4123700295468
20
-2.53277875682815
30
0
41
1
10
28.0219987181476
20
-2.35250262318004
30
0
41
1
10
27.8915508443378
20
-2.29064401427843
30
0
41
1
10
27.6317834629807
20
-2.16444263326503
30
0
41
1
10
27.5022214858372
20
-2.0999977800453
30
0
41
1
10
26.8555696131942
20
-1.7717510151254
30
0
41
1
10
26.3419384795706
20
-1.48992229281853
30
0
41
1
10
25.3138549855948
20
-0.900850201145659
30
0
41
1
10
24.7993063612932
20
-0.59375890569288
30
0
41
1
10
24.0204510195148
20
-0.124142304401829
30
0
41
1
10
23.7592222988749
20
0.0340163179682236
30
0
41
1
10
23.2406885973089
20
0.346776823006706
30
0
41
1
10
22.9825316142991
20
0.502018951679588
30
0
41
1
10
22.2098841105052
20
0.961908124439617
30
0
41
1
10
21.6967328134044
20
1.25992276610705
30
0
41
1
10
20.9241244397845
20
1.68477985143889
30
0
41
1
10
20.6660520148083
20
1.82261348501197
30
0
41
1
10
20.2773266497219
20
2.02238090243682
30
0
41
1
10
20.1474881447849
20
2.08781512796494
30
0
41
1
10
19.8871455804685
20
2.2161489035683
30
0
41
1
10
19.7566860994153
20
2.27901927472647
30
0
41
1
10
18.5874558976002
20
2.82850829432715
30
0
41
1
10
17.5675343447808
20
3.20792050837989
30
0
41
1
10
16.273980547917
20
3.50505489859089
30
0
41
1
10
16.013906776312
20
3.55573244017955
30
0
41
1
10
15.4928915514189
20
3.63789024162949
30
0
41
1
10
15.2337106907764
20
3.66913025718205
30
0
41
1
10
14.6880352953177
20
3.71451320984778
30
0
41
1
10
14.4017682969994
20
3.72634775760446
30
0
41
1
10
14.115760743762
20
3.72619279712851
30
0
0
SPLINE
5
DC
100
AcDbEntity
8
1
62
256
6
ByLayer
370
13
48
1
60
0
100
AcDbSpline
70
4
71
3
72
10
73
6
40
0
40
0
40
0
40
0
40
0.5
40
0.5
40
1
40
1
40
1
40
1
41
1
10
4.25038473658822
20
0.207473844249165
30
0
41
1
10
4.22797273635027
20
0.215180868243408
30
0
41
1
10
4.2060112936297
20
0.222863777205333
30
0
41
1
10
4.16300781618901
20
0.238280790247103
30
0
41
1
10
4.14190403747966
20
0.246043923819201
30
0
41
1
10
4.12233664709055
20
0.253498143968642
30
0
0
SPLINE
5
DD
100
AcDbEntity
8
1
62
256
6
ByLayer
370
18
48
1
60
0
100
AcDbSpline
70
4
71
3
72
16
73
12
40
0
40
0
40
0
40
0
40
0.220982539213341
40
0.220982539213341
40
0.592385356355714
40
0.592385356355714
40
0.778086764926901
40
0.778086764926901
40
0.963788173498087
40
0.963788173498087
40
1
40
1
40
1
40
1
41
1
10
53.1265370564462
20
-3.57474411447822
30
0
41
1
10
52.8199588331387
20
-3.57503320547775
30
0
41
1
10
52.5145640249549
20
-3.5620600762739
30
0
41
1
10
51.6972210806894
20
-3.49275314137114
30
0
41
1
10
51.1861335651911
20
-3.41290527987388
30
0
41
1
10
50.4153849202749
20
-3.24086390669791
30
0
41
1
10
50.1577961581269
20
-3.17479424421359
30
0
41
1
10
49.6402490431296
20
-3.02566144680307
30
0
41
1
10
49.3798546822756
20
-2.94240547139575
30
0
41
1
10
49.0710309834103
20
-2.83469633331899
30
0
41
1
10
49.0206789216491
20
-2.81685020538407
30
0
41
1
10
48.9703649068776
20
-2.79873923513623
30
0
0
SPLINE
5
DE
100
AcDbEntity
8
1
62
256
6
ByLayer
370
13
48
1
60
0
100
AcDbSpline
70
4
71
3
72
24
73
20
40
0
40
0
40
0
40
0
40
0.151642418626042
40
0.151642418626042
40
0.319667285190565
40
0.319667285190565
40
0.403679718472827
40
0.403679718472827
40
0.487692151755089
40
0.487692151755089
40
0.823741884884139
40
0.823741884884139
40
0.865748101525273
40
0.865748101525273
40
0.907754318166407
40
0.907754318166407
40
0.991766751448675
40
0.991766751448675
40
1
40
1
40
1
40
1
41
1
10
48.9703649068777
20
-2.79873923513623
30
0
41
1
10
48.5046384831231
20
-2.63109693025228
30
0
41
1
10
48.0421719581303
20
-2.4407627084797
30
0
41
1
10
47.0678344732445
20
-2.00055145101149
30
0
41
1
10
46.5559337006424
20
-1.74653988063531
30
0
41
1
10
45.7831623041928
20
-1.33902460844621
30
0
41
1
10
45.5246217198355
20
-1.19880615863332
30
0
41
1
10
45.0049344880271
20
-0.911583768627906
30
0
41
1
10
44.7463886220301
20
-0.765986523639356
30
0
41
1
10
43.4575683674586
20
-0.0326165347561016
30
0
41
1
10
42.4394954258228
20
0.572144705252725
30
0
41
1
10
41.2735373662448
20
1.21075998240974
30
0
41
1
10
41.1434743850547
20
1.28124747523276
30
0
41
1
10
40.8840280040622
20
1.41997333099337
30
0
41
1
10
40.7546022718255
20
1.48824809999545
30
0
41
1
10
40.3670295470779
20
1.6895327169355
30
0
41
1
10
40.1095890953221
20
1.81897597264211
30
0
41
1
10
39.8276055039381
20
1.95564655306325
30
0
41
1
10
39.8024411177296
20
1.96779242339326
30
0
41
1
10
39.7772799907839
20
1.97988536093496
30
0
0
SPLINE
5
DF
100
AcDbEntity
8
1
62
256
6
ByLayer
370
18
48
1
60
0
100
AcDbSpline
70
4
71
3
72
12
73
8
40
0
40
0
40
0
40
0
40
0.19504357252609
40
0.19504357252609
40
0.987903217333177
40
0.987903217333177
40
1
40
1
40
1
40
1
41
1
10
14.3077737058641
20
-3.55132731203187
30
0
41
1
10
14.0525076313744
20
-3.55109896959138
30
0
41
1
10
13.7983583763841
20
-3.54174414870926
30
0
41
1
10
12.5142957561992
20
-3.44939203304503
30
0
41
1
10
11.4946951798453
20
-3.22897489440061
30
0
41
1
10
10.4379983269161
20
-2.87323148972038
30
0
41
1
10
10.4221228623769
20
-2.8678583370216
30
0
41
1
10
10.4062517503418
20
-2.86245827732802
30
0
0
SPLINE
5
E0
100
AcDbEntity
8
1
62
256
6
ByLayer
370
13
48
1
60
0
100
AcDbSpline
70
4
71
3
72
16
73
12
40
0
40
0
40
0
40
0
40
0.244234584937162
40
0.244234584937162
40
0.496156389958107
40
0.496156389958107
40
0.62211729246858
40
0.62211729246858
40
0.748078194979053
40
0.748078194979053
40
1
40
1
40
1
40
1
41
1
10
10.4062517508383
20
-2.86245827749698
30
0
41
1
10
9.90200257132261
20
-2.69089023213974
30
0
41
1
10
9.40214693461994
20
-2.49216149165304
30
0
41
1
10
8.38985096327542
20
-2.04494331754063
30
0
41
1
10
7.87714650972882
20
-1.79499371931468
30
0
41
1
10
7.10422351039878
20
-1.39420550353944
30
0
41
1
10
6.84596593607967
20
-1.25624568649116
30
0
41
1
10
6.32725443581535
20
-0.973117445579106
30
0
41
1
10
6.0665905511247
20
-0.827925529297829
30
0
41
1
10
5.28785894693522
20
-0.388949431706067
30
0
41
1
10
4.77021629176747
20
-0.0904574061013648
30
0
41
1
10
4.25038473658768
20
0.207473844249478
30
0
0
SPLINE
5
E1
100
AcDbEntity
8
1
62
256
6
ByLayer
370
18
48
1
60
0
100
AcDbSpline
70
4
71
3
72
14
73
10
40
0
40
0
40
0
40
0
40
0.25
40
0.25
40
0.5
40
0.5
40
0.75
40
0.75
40
1
40
1
40
1
40
1
41
1
10
4.01194710544729
20
-3.69100062993965
30
0
41
1
10
4.0201894885148
20
-3.66443559255606
30
0
41
1
10
4.03280962926652
20
-3.63900732634878
30
0
41
1
10
4.06658900107541
20
-3.5938465057452
30
0
41
1
10
4.08746238085843
20
-3.57475135399335
30
0
41
1
10
4.13259913061609
20
-3.54630779643193
30
0
41
1
10
4.15691650713546
20
-3.53681778804778
30
0
41
1
10
4.2044972331783
20
-3.52629271570382
30
0
41
1
10
4.22834770420519
20
-3.5250198401886
30
0
41
1
10
4.25127731255972
20
-3.52689078262944
30
0
0
SPLINE
5
E2
100
AcDbEntity
8
1
62
256
6
ByLayer
370
18
48
1
60
0
100
AcDbSpline
70
4
71
3
72
46
73
42
40
0
40
0
40
0
40
0
40
0.0766899631245586
40
0.0766899631245586
40
0.115034944686837
40
0.115034944686837
40
0.153379926249116
40
0.153379926249116
40
0.230069889373673
40
0.230069889373673
40
0.268414870935951
40
0.268414870935951
40
0.287587361717089
40
0.287587361717089
40
0.306759852498228
40
0.306759852498228
40
0.383449815622781
40
0.383449815622781
40
0.460139778747334
40
0.460139778747334
40
0.498484760309609
40
0.498484760309609
40
0.536829741871884
40
0.536829741871884
40
0.613519704996435
40
0.613519704996435
40
0.65186468655871
40
0.65186468655871
40
0.671037177339848
40
0.671037177339848
40
0.690209668120987
40
0.690209668120987
40
0.766899631245544
40
0.766899631245544
40
0.843589594370101
40
0.843589594370101
40
0.881934575932379
40
0.881934575932379
40
0.920279557494658
40
0.920279557494658
40
1
40
1
40
1
40
1
41
1
10
53.7092030960279
20
-3.71901307359207
30
0
41
1
10
53.1900767628757
20
-3.75923663621842
30
0
41
1
10
52.6720624494326
20
-3.75964708171057
30
0
41
1
10
51.8912352052027
20
-3.70067571406778
30
0
41
1
10
51.6317062581476
20
-3.67113678499774
30
0
41
1
10
51.1151638560957
20
-3.59331884646411
30
0
41
1
10
50.8577916522007
20
-3.54502232542603
30
0
41
1
10
50.0867662630518
20
-3.37321182920965
30
0
41
1
10
49.5741948198852
20
-3.22278897532596
30
0
41
1
10
48.8011125682204
20
-2.94812235691475
30
0
41
1
10
48.5427210602718
20
-2.84838581174799
30
0
41
1
10
48.1532577797155
20
-2.68710901476666
30
0
41
1
10
48.022899622768
20
-2.63130419008851
30
0
41
1
10
47.7630373943404
20
-2.51664766037155
30
0
41
1
10
47.6334313425867
20
-2.45775955269161
30
0
41
1
10
46.9866693965896
20
-2.15606323966031
30
0
41
1
10
46.4731835164823
20
-1.89170493503326
30
0
41
1
10
45.4464317068043
20
-1.32853885223724
30
0
41
1
10
44.9327471013554
20
-1.03033226337251
30
0
41
1
10
44.1552057182502
20
-0.568054007449945
30
0
41
1
10
43.8940736365562
20
-0.410981813429089
30
0
41
1
10
43.3755037972672
20
-0.0974471220602595
30
0
41
1
10
43.1173966332325
20
0.0593141028067521
30
0
41
1
10
42.345078738319
20
0.527061511183348
30
0
41
1
10
41.8323125433783
20
0.834580971931246
30
0
41
1
10
41.0608681960791
20
1.28041278657668
30
0
41
1
10
40.803210656465
20
1.42623976700938
30
0
41
1
10
40.415157368878
20
1.63948932245339
30
0
41
1
10
40.2855415193382
20
1.70965203291195
30
0
41
1
10
40.0257359110499
20
1.84805287174703
30
0
41
1
10
39.89535803423
20
1.91640672631527
30
0
41
1
10
39.2458761296364
20
2.2503218984042
30
0
41
1
10
38.7309727425138
20
2.49300379862086
30
0
41
1
10
37.7035511097738
20
2.922382737568
30
0
41
1
10
37.1902446281684
20
3.10815510373951
30
0
41
1
10
36.4156869524516
20
3.33757189031837
30
0
41
1
10
36.1565857318699
20
3.40568741175909
30
0
41
1
10
35.6354157220908
20
3.52399373258433
30
0
41
1
10
35.3761770940739
20
3.57357665677634
30
0
41
1
10
34.5810096979883
20
3.69673378121073
30
0
41
1
10
34.0477344007336
20
3.73832843001105
30
0
41
1
10
33.5133797559205
20
3.73790635431621
30
0
0
SPLINE
5
E3
100
AcDbEntity
8
1
62
256
6
ByLayer
370
18
48
1
60
0
100
AcDbSpline
70
4
71
3
72
32
73
28
40
0
40
0
40
0
40
0
40
0.0171665538363333
40
0.0171665538363333
40
0.0499276687084558
40
0.0499276687084558
40
0.0826887835805782
40
0.0826887835805782
40
0.213733243069066
40
0.213733243069066
40
0.344777702557555
40
0.344777702557555
40
0.410299932301799
40
0.410299932301799
40
0.475822162046042
40
0.475822162046042
40
0.606866621534531
40
0.606866621534531
40
0.672388851278774
40
0.672388851278774
40
0.705149966150896
40
0.705149966150896
40
0.737911081023018
40
0.737911081023018
40
0.868955540511509
40
0.868955540511509
40
1
40
1
40
1
40
1
41
1
10
15.9617040440695
20
-3.5619194288318
30
0
41
1
10
15.8937121604703
20
-3.57397327653817
30
0
41
1
10
15.8256405418914
20
-3.58539266111421
30
0
41
1
10
15.627394068153
20
-3.61673022770768
30
0
41
1
10
15.4968472662418
20
-3.63495230494809
30
0
41
1
10
15.236802622707
20
-3.6663839870678
30
0
41
1
10
15.1070901359247
20
-3.679632180129
30
0
41
1
10
14.4597636327533
20
-3.73361256050418
30
0
41
1
10
13.9459468636224
20
-3.73755874835916
30
0
41
1
10
12.9173473999578
20
-3.6684119122225
30
0
41
1
10
12.4028397084987
20
-3.59526942782335
30
0
41
1
10
11.6239445136943
20
-3.42876449237096
30
0
41
1
10
11.3625968458094
20
-3.3635115757404
30
0
41
1
10
10.8436648991135
20
-3.21653274558798
30
0
41
1
10
10.5852858605737
20
-3.13468690120212
30
0
41
1
10
9.81188785225015
20
-2.86590920626659
30
0
41
1
10
9.29874460473721
20
-2.65557421046054
30
0
41
1
10
8.52597649820396
20
-2.30108040979252
30
0
41
1
10
8.26789107021349
20
-2.17640531775558
30
0
41
1
10
7.87919217066698
20
-1.98058581944883
30
0
41
1
10
7.74936490696837
20
-1.91384374029204
30
0
41
1
10
7.48905640545075
20
-1.77757047863491
30
0
41
1
10
7.35846056213285
20
-1.70797423462827
30
0
41
1
10
6.70781988611401
20
-1.35574160869379
30
0
41
1
10
6.19169525907853
20
-1.05856067678113
30
0
41
1
10
5.15874641338945
20
-0.448977295918638
30
0
41
1
10
4.64190152834155
20
-0.136638079915798
30
0
41
1
10
4.12091558174382
20
0.17710612466152
30
0
0
SPLINE
5
E4
100
AcDbEntity
8
1
62
256
6
ByLayer
370
18
48
1
60
0
100
AcDbSpline
70
4
71
3
72
8
73
4
40
0
40
0
40
0
40
0
40
1
40
1
40
1
40
1
41
1
10
4.0323968686269
20
0.26796276355202
30
0
41
1
10
4.01915284146619
20
0.29132359670308
30
0
41
1
10
4.01164297031002
20
0.317400528600075
30
0
41
1
10
4.0116453208874
20
0.34422553896303
30
0
0
SPLINE
5
E5
100
AcDbEntity
8
1
62
256
6
ByLayer
370
18
48
1
60
0
100
AcDbSpline
70
4
71
3
72
14
73
10
40
0
40
0
40
0
40
0
40
0.241677314578809
40
0.241677314578809
40
0.483354629157619
40
0.483354629157619
40
0.966709258315232
40
0.966709258315232
40
1
40
1
40
1
40
1
41
1
10
12.02829431346
20
3.61655192881801
30
0
41
1
10
11.7630488320972
20
3.57793546655861
30
0
41
1
10
11.4960548261661
20
3.53016038122863
30
0
41
1
10
10.9578120534455
20
3.41916516424283
30
0
41
1
10
10.6859173229337
20
3.35575769308488
30
0
41
1
10
9.86757066441203
20
3.14827631922231
30
0
41
1
10
9.31886351460008
20
2.9870597164217
30
0
41
1
10
8.72369206595096
20
2.80725471561735
30
0
41
1
10
8.68530242818119
20
2.79563636160134
30
0
41
1
10
8.64687247543441
20
2.78399122790637
30
0
0
LINE
5
76
100
AcDbEntity
8
81
62
256
6
ByLayer
370
18
48
1
60
0
100
AcDbLine
10
55
20
0
30
0
11
60
21
0
31
0
39
0
210
0
220
0
230
1
0
LINE
5
77
100
AcDbEntity
8
1
62
256
6
ByLayer
370
18
48
1
60
0
100
AcDbLine
10
4.01192
20
3.720135
30
0
11
0.90721
21
3.718272
31
0
39
0
210
0
220
0
230
1
0
LINE
5
79
100
AcDbEntity
8
1
62
256
6
ByLayer
370
18
48
1
60
0
100
AcDbLine
10
52.915439
20
3.749477
30
0
11
52.334673
21
3.749129
31
0
39
0
210
0
220
0
230
1
0
LINE
5
7A
100
AcDbEntity
8
1
62
256
6
ByLayer
370
18
48
1
60
0
100
AcDbLine
10
52.334673
20
-3.749129
30
0
11
52.91557
21
-3.749477
31
0
39
0
210
0
220
0
230
1
0
LINE
5
7B
100
AcDbEntity
8
1
62
256
6
ByLayer
370
18
48
1
60
0
100
AcDbLine
10
0.90721
20
-3.718272
30
0
11
4.01192
21
-3.720135
31
0
39
0
210
0
220
0
230
1
0
LINE
5
7C
100
AcDbEntity
8
1
62
256
6
ByLayer
370
18
48
1
60
0
100
AcDbLine
10
33.515264
20
3.737837
30
0
11
32.928665
21
3.737485
31
0
39
0
210
0
220
0
230
1
0
LINE
5
7D
100
AcDbEntity
8
1
62
256
6
ByLayer
370
18
48
1
60
0
100
AcDbLine
10
32.928665
20
-3.737485
30
0
11
33.515069
21
-3.737837
31
0
39
0
210
0
220
0
230
1
0
LINE
5
7E
100
AcDbEntity
8
1
62
256
6
ByLayer
370
18
48
1
60
0
100
AcDbLine
10
14.115024
20
3.726197
30
0
11
13.521962
21
3.725841
31
0
39
0
210
0
220
0
230
1
0
LINE
5
7F
100
AcDbEntity
8
1
62
256
6
ByLayer
370
18
48
1
60
0
100
AcDbLine
10
13.521962
20
-3.725841
30
0
11
14.115192
21
-3.726197
31
0
39
0
210
0
220
0
230
1
0
LINE
5
80
100
AcDbEntity
8
SK1
62
256
6
ByLayer
370
18
48
1
60
0
100
AcDbLine
10
-35.133975
20
4
30
0
11
-36
21
2.5
31
0
39
0
210
0
220
0
230
1
0
LINE
5
82
100
AcDbEntity
8
SK1
62
256
6
ByLayer
370
18
48
1
60
0
100
AcDbLine
10
-36
20
-2.5
30
0
11
-35.133975
21
-4
31
0
39
0
210
0
220
0
230
1
0
LINE
5
83
100
AcDbEntity
8
SK1
62
256
6
ByLayer
370
18
48
1
60
0
100
AcDbLine
10
0
20
4
30
0
11
-35.133975
21
4
31
0
39
0
210
0
220
0
230
1
0
LINE
5
84
100
AcDbEntity
8
SK1
62
256
6
ByLayer
370
18
48
1
60
0
100
AcDbLine
10
-35.133975
20
-4
30
0
11
0
21
-4
31
0
39
0
210
0
220
0
230
1
0
LINE
5
85
100
AcDbEntity
8
SK4
62
256
6
ByLayer
370
18
48
0.05
60
0
100
AcDbLine
10
60
20
0
30
0
11
-41
21
0
31
0
39
0
210
0
220
0
230
1
0
LINE
5
87
100
AcDbEntity
8
4
62
256
6
ByLayer
370
18
48
0.05
60
0
100
AcDbLine
10
55
20
0
30
0
11
0
21
0
31
0
39
0
210
0
220
0
230
1
0
LINE
5
89
100
AcDbEntity
8
80
62
256
6
ByLayer
370
18
48
1
60
0
100
AcDbLine
10
0
20
0
30
0
11
-5
21
0
31
0
39
0
210
0
220
0
230
1
0
LINE
5
8A
100
AcDbEntity
8
1
62
256
6
ByLayer
370
18
48
1
60
0
100
AcDbLine
10
0
20
-4
30
0
11
0
21
4
31
0
39
0
210
0
220
0
230
1
0
LINE
5
8B
100
AcDbEntity
8
1
62
256
6
ByLayer
370
13
48
1
60
0
100
AcDbLine
10
54.814262
20
0.756512
30
0
11
54.135046
21
0.756512
31
0
39
0
210
0
220
0
230
1
0
LINE
5
8C
100
AcDbEntity
8
1
62
256
6
ByLayer
370
18
48
1
60
0
100
AcDbLine
10
53.128397
20
-1.967195
30
0
11
54.894919
21
-0.142354
31
0
39
0
210
0
220
0
230
1
0
LINE
5
8D
100
AcDbEntity
8
1
62
256
6
ByLayer
370
18
48
1
60
0
100
AcDbLine
10
54.923391
20
-0.288761
30
0
11
54.814262
21
-0.756512
31
0
39
0
210
0
220
0
230
1
0
LINE
5
8E
100
AcDbEntity
8
1
62
256
6
ByLayer
370
18
48
1
60
0
100
AcDbLine
10
55
20
0
30
0
11
53.698815
21
-3.574976
31
0
39
0
210
0
220
0
230
1
0
LINE
5
8F
100
AcDbEntity
8
1
62
256
6
ByLayer
370
13
48
1
60
0
100
AcDbLine
10
0.90721
20
3.718272
30
0
11
0.90721
21
-3.718272
31
0
39
0
210
0
220
0
230
1
0
LINE
5
90
100
AcDbEntity
8
1
62
256
6
ByLayer
370
13
48
1
60
0
100
AcDbLine
10
0.453365
20
3.859136
30
0
11
0.453365
21
-3.859136
31
0
39
0
210
0
220
0
230
1
0
LINE
5
91
100
AcDbEntity
8
1
62
256
6
ByLayer
370
13
48
1
60
0
100
AcDbLine
10
54.135046
20
0.756512
30
0
11
54.923391
21
0.288761
31
0
39
0
210
0
220
0
230
1
0
LINE
5
92
100
AcDbEntity
8
1
62
256
6
ByLayer
370
13
48
1
60
0
100
AcDbLine
10
53.94514
20
0.421182
30
0
11
54.894919
21
-0.142354
31
0
39
0
210
0
220
0
230
1
0
LINE
5
93
100
AcDbEntity
8
1
62
256
6
ByLayer
370
18
48
1
60
0
100
AcDbLine
10
55
20
0
30
0
11
54.993262
21
-0.037359
31
0
39
0
210
0
220
0
230
1
0
LINE
5
94
100
AcDbEntity
8
1
62
256
6
ByLayer
370
18
48
1
60
0
100
AcDbLine
10
54.923391
20
0.288761
30
0
11
54.814262
21
0.756512
31
0
39
0
210
0
220
0
230
1
0
LINE
5
95
100
AcDbEntity
8
1
62
256
6
ByLayer
370
18
48
1
60
0
100
AcDbLine
10
54.993262
20
0.037359
30
0
11
55
21
0
31
0
39
0
210
0
220
0
230
1
0
LINE
5
96
100
AcDbEntity
8
SK1
62
256
6
ByLayer
370
18
48
1
60
0
100
AcDbLine
10
0
20
-4
30
0
11
0
21
4
31
0
39
0
210
0
220
0
230
1
0
LINE
5
97
100
AcDbEntity
8
SK1
62
256
6
ByLayer
370
18
48
1
60
0
100
AcDbLine
10
-36
20
2.5
30
0
11
-36
21
-2.5
31
0
39
0
210
0
220
0
230
1
0
LINE
5
98
100
AcDbEntity
8
SK1
62
256
6
ByLayer
370
18
48
1
60
0
100
AcDbLine
10
-35.133975
20
4
30
0
11
-35.133975
21
-4
31
0
39
0
210
0
220
0
230
1
0
MTEXT
5
E6
100
AcDbEntity
8
SK6
62
256
6
ByLayer
370
13
48
1
60
0
100
AcDbMText
10
11.629169
20
36.132694
30
0
210
0
220
0
230
1
1
\W0.7670;R840-0750-50-A0A1220
40
3.5
41
0
44
1.084337
50
0
71
8
72
5
7
iso_b_vert
0
DIMENSION
5
F3
100
AcDbEntity
8
SK2
62
256
6
ByLayer
370
13
48
1
60
0
100
AcDbDimension
2
DimnDraft3D1
10
53.73
20
-13.963398
30
0
11
25.480059
21
-13.963398
31
0
70
32
71
5
72
1
41
1
210
0
220
0
230
1
3
Standard
100
AcDbAlignedDimension
13
0
23
-1.5875
33
0
14
53.73
24
-5.3375
34
0
50
0
100
AcDbRotatedDimension
1001
ACAD
1000
DSTYLE
1002
{
1070
   279
1070
     0
1070
   172
1070
     1
1070
   173
1070
     1
1070
   340
1005
E7
1070
   271
1070
     2
1070
   272
1070
     2
1070
    77
1070
     1
1070
    73
1070
     0
1070
   171
1070
     3
1070
   274
1070
     4
1070
   177
1070
    35
1070
   176
1070
    35
1070
   178
1070
    35
1070
    48
1040
-0.005
1070
    41
1041
3.5
1070
   147
1041
1.75
1070
    42
1041
1.5875
1070
    44
1041
2.0
1070
   140
1041
3.5
1070
   343
1005
0
1070
   344
1005
0
1002
}
0
DIMENSION
5
FD
100
AcDbEntity
8
SK2
62
256
6
ByLayer
370
13
48
1
60
0
100
AcDbDimension
2
DimnDraft3D2
10
55
20
-32.692985
30
0
11
9.5713
21
-32.692985
31
0
70
32
71
5
72
1
41
1
210
0
220
0
230
1
3
Standard
100
AcDbAlignedDimension
13
-36
23
-5.5875
33
0
14
55
24
-1.5875
34
0
50
0
100
AcDbRotatedDimension
1001
ACAD
1000
DSTYLE
1002
{
1070
   279
1070
     0
1070
   172
1070
     1
1070
   173
1070
     1
1070
   340
1005
E7
1070
   271
1070
     2
1070
   272
1070
     2
1070
    77
1070
     1
1070
    73
1070
     0
1070
   171
1070
     3
1070
   274
1070
     4
1070
   177
1070
    35
1070
   176
1070
    35
1070
   178
1070
    35
1070
    48
1040
-0.005
1070
    41
1041
3.5
1070
   147
1041
1.75
1070
    42
1041
1.5875
1070
    44
1041
2.0
1070
   140
1041
3.5
1070
   343
1005
0
1070
   344
1005
0
1002
}
0
DIMENSION
5
107
100
AcDbEntity
8
SK2
62
256
6
ByLayer
370
13
48
1
60
0
100
AcDbDimension
2
DimnDraft3D3
10
55
20
15.359119
30
0
11
35.615
21
15.359119
31
0
70
32
71
5
72
1
41
1
210
0
220
0
230
1
3
Standard
100
AcDbAlignedDimension
13
16.23
23
5.3375
33
0
14
55
24
1.5875
34
0
50
0
100
AcDbRotatedDimension
1001
ACAD
1000
DSTYLE
1002
{
1070
   279
1070
     0
1070
   172
1070
     1
1070
   173
1070
     1
1070
   340
1005
E7
1070
   271
1070
     2
1070
   272
1070
     2
1070
    77
1070
     1
1070
    73
1070
     0
1070
   171
1070
     3
1070
   274
1070
     4
1070
   177
1070
    35
1070
   176
1070
    35
1070
   178
1070
    35
1070
    48
1040
-0.005
1070
    41
1041
3.5
1070
   147
1041
1.75
1070
    42
1041
1.5875
1070
    44
1041
2.0
1070
   140
1041
3.5
1070
   343
1005
0
1070
   344
1005
0
1002
}
0
DIMENSION
5
111
100
AcDbEntity
8
SK2
62
256
6
ByLayer
370
13
48
1
60
0
100
AcDbDimension
2
DimnDraft3D4
10
53.73
20
-16.552503
30
0
11
64.981425
21
-16.552503
31
0
70
32
71
5
72
1
41
1
210
0
220
0
230
1
3
Standard
100
AcDbAlignedDimension
13
55
23
-1.5875
33
0
14
53.73
24
-5.3375
34
0
50
0
100
AcDbRotatedDimension
1001
ACAD
1000
DSTYLE
1002
{
1070
   279
1070
     0
1070
   172
1070
     1
1070
   173
1070
     1
1070
   340
1005
E7
1070
   271
1070
     2
1070
   272
1070
     2
1070
    77
1070
     1
1070
    73
1070
     0
1070
   171
1070
     3
1070
   274
1070
     4
1070
   177
1070
    35
1070
   176
1070
    35
1070
   178
1070
    35
1070
    48
1040
-0.005
1070
    41
1041
3.5
1070
   147
1041
1.75
1070
    42
1041
1.5875
1070
    44
1041
2.0
1070
   140
1041
3.5
1070
   343
1005
0
1070
   344
1005
0
1002
}
0
DIMENSION
5
11B
100
AcDbEntity
8
SK2
62
256
6
ByLayer
370
13
48
1
60
0
100
AcDbDimension
2
DimnDraft3D5
10
53.73
20
-22.343428
30
0
11
6.490676
21
-22.343428
31
0
70
32
71
5
72
1
41
1
210
0
220
0
230
1
3
Standard
100
AcDbAlignedDimension
13
-36
23
-5.5875
33
0
14
53.73
24
-5.3375
34
0
50
0
100
AcDbRotatedDimension
1001
ACAD
1000
DSTYLE
1002
{
1070
   279
1070
     0
1070
   172
1070
     1
1070
   173
1070
     1
1070
   340
1005
E7
1070
   271
1070
     2
1070
   272
1070
     2
1070
    77
1070
     1
1070
    73
1070
     0
1070
   171
1070
     3
1070
   274
1070
     4
1070
   177
1070
    35
1070
   176
1070
    35
1070
   178
1070
    35
1070
    48
1040
-0.005
1070
    41
1041
3.5
1070
   147
1041
1.75
1070
    42
1041
1.5875
1070
    44
1041
2.0
1070
   140
1041
3.5
1070
   343
1005
0
1070
   344
1005
0
1002
}
0
DIMENSION
5
126
100
AcDbEntity
8
SK2
62
256
6
ByLayer
370
13
48
1
60
0
100
AcDbDimension
2
DimnDraft3D6
10
-46.625163
20
4
30
0
11
-47.250163
21
22.47418
31
0
70
33
71
5
72
1
41
1
210
0
220
0
230
1
3
Standard
100
AcDbAlignedDimension
13
-37.5875
23
-4
33
0
14
-37.5875
24
4
34
0
1001
ACAD
1000
DSTYLE
1002
{
1070
   279
1070
     0
1070
    74
1070
     0
1070
   173
1070
     1
1070
   340
1005
E7
1070
   271
1070
     3
1070
   272
1070
     2
1070
    77
1070
     1
1070
    73
1070
     0
1070
   171
1070
     3
1070
   274
1070
     4
1070
   177
1070
    35
1070
   176
1070
    35
1070
   178
1070
    35
1070
    48
1040
-0.005
1070
    41
1041
3.5
1070
   147
1041
1.75
1070
    42
1041
1.5875
1070
    44
1041
2.0
1070
   140
1041
3.5
1070
   343
1005
0
1070
   344
1005
0
1002
}
0
DIMENSION
5
131
100
AcDbEntity
8
2
62
256
6
ByLayer
370
13
48
1
60
0
100
AcDbDimension
2
DimnDraft3D7
10
69.083343
20
3.75
30
0
11
64.458343
21
20.817266
31
0
70
33
71
5
72
1
41
1
210
0
220
0
230
1
3
Standard
100
AcDbAlignedDimension
13
55.3175
23
-3.75
33
0
14
55.3175
24
3.75
34
0
1001
ACAD
1000
DSTYLE
1002
{
1070
   279
1070
     0
1070
    74
1070
     0
1070
   173
1070
     1
1070
   340
1005
E7
1070
   271
1070
     3
1070
   272
1070
     2
1070
    77
1070
     1
1070
    73
1070
     0
1070
   171
1070
     3
1070
   274
1070
     4
1070
   177
1070
    35
1070
   176
1070
    35
1070
   178
1070
    35
1070
    48
1040
-0.005
1070
    41
1041
3.5
1070
   147
1041
1.75
1070
    42
1041
1.5875
1070
    44
1041
2.0
1070
   140
1041
3.5
1070
   343
1005
0
1070
   344
1005
0
1002
}
0
ENDSEC
0
SECTION
2
OBJECTS
0
DICTIONARY
5
19c
330
0
100
AcDbDictionary
280
0
281
1
3
ACAD_GROUP
350
19d
3
ACAD_MLINESTYLE
350
19e
0
DICTIONARY
5
19d
330
0
100
AcDbDictionary
280
0
281
1
0
DICTIONARY
5
19e
330
0
100
AcDbDictionary
280
0
281
1
3
Standard
350
18
0
MLINESTYLE
5
18
330
19e
100
AcDbMlineStyle
2
Standard
70
0
3

62
256
51
90
52
90
71
2
49
-0.5
62
256
6
ByLayer
49
0.5
62
256
6
ByLayer
0
RASTERVARIABLES
5
18a
330

100
AcDbRasterVariables
90
0
70
1
71
1
72
1
0
ENDSEC
0
EOF
