0
SECTION
2
HEADER
9
$ACADVER
1
AC1015
9
$DWGCODEPAGE
3
ANSI_1252
9
$HANDSEED
5
19f
9
$ANGBASE
50
0
9
$ANGDIR
70
0
9
$ATTMODE
70
1
9
$AUNITS
70
0
9
$AUPREC
70
0
9
$CECOLOR
62
256
9
$CELTSCALE
40
1
9
$CELTYPE
6
ByLayer
9
$CELWEIGHT
370
18
9
$CLAYER
8
0
9
$CMLJUST
70
0
9
$CMLSCALE
40
1
9
$CMLSTYLE
2
Standard
9
$DIMSTYLE
2
Standard
9
$TEXTSIZE
40
0.2
9
$TEXTSTYLE
7
Standard
9
$LUNITS
70
2
9
$LUPREC
70
4
9
$EXTNAMES
290
1
9
$INSUNITS
70
4
9
$LTSCALE
40
1
9
$LWDISPLAY
290
1
9
$PDMODE
70
0
9
$PDSIZE
40
0
9
$PLINEGEN
70
0
0
ENDSEC
0
SECTION
2
CLASSES
0
CLASS
1
RASTERVARIABLES
2
AcDbRasterVariables
3
ISM
90
0
280
0
281
0
0
ENDSEC
0
SECTION
2
TABLES
0
TABLE
2
VPORT
5
195
100
AcDbSymbolTable
0
VPORT
5
1
100
AcDbSymbolTableRecord
100
AcDbViewportTableRecord
2
*Active
70
0
10
0
20
0
11
1
21
1
12
-1
22
1
13
0
23
0
14
0.5
24
0.5
15
10
25
10
16
0
26
0
36
1
17
0
27
0
37
0
0
ENDTAB
0
TABLE
2
LTYPE
5
196
100
AcDbSymbolTable
0
LTYPE
5
14
100
AcDbSymbolTableRecord
100
AcDbLinetypeTableRecord
70
0
2
ByBlock
3

72
65
73
0
40
0
0
LTYPE
5
15
100
AcDbSymbolTableRecord
100
AcDbLinetypeTableRecord
70
0
2
ByLayer
3

72
65
73
0
40
0
0
LTYPE
5
16
100
AcDbSymbolTableRecord
100
AcDbLinetypeTableRecord
70
0
2
CONTINUOUS
3
Solid line
72
65
73
0
40
0
0
LTYPE
5
6A
100
AcDbSymbolTableRecord
100
AcDbLinetypeTableRecord
70
0
2
CENTER
3
____ _ ____ _ ____ _ ____
72
65
73
4
40
47.5
49
22
74
0
49
-8.5
74
0
49
8.5
74
0
49
-8.5
74
0
0
LTYPE
5
6B
100
AcDbSymbolTableRecord
100
AcDbLinetypeTableRecord
70
0
2
DASHED
3
__ __ __ __ __ __ __ __ __
72
65
73
2
40
25.72
49
12.86
74
0
49
-12.86
74
0
0
ENDTAB
0
TABLE
2
LAYER
5
197
100
AcDbSymbolTable
0
LAYER
5
10
100
AcDbSymbolTableRecord
100
AcDbLayerTableRecord
2
0
70
0
62
7
6
CONTINUOUS
290
1
370
-3
390
0
0
LAYER
5
6D
100
AcDbSymbolTableRecord
100
AcDbLayerTableRecord
2
81
70
0
62
-3
6
CONTINUOUS
290
1
370
-3
390
0
0
LAYER
5
6F
100
AcDbSymbolTableRecord
100
AcDbLayerTableRecord
2
80
70
0
62
-6
6
CONTINUOUS
290
1
370
-3
390
0
0
LAYER
5
74
100
AcDbSymbolTableRecord
100
AcDbLayerTableRecord
2
2
70
0
62
7
6
CONTINUOUS
290
1
370
-3
390
0
0
LAYER
5
78
100
AcDbSymbolTableRecord
100
AcDbLayerTableRecord
2
1
70
0
62
4
6
CONTINUOUS
290
1
370
-3
390
0
0
LAYER
5
86
100
AcDbSymbolTableRecord
100
AcDbLayerTableRecord
2
4
70
0
62
-2
6
CENTER
290
1
370
-3
390
0
0
LAYER
5
181
100
AcDbSymbolTableRecord
100
AcDbLayerTableRecord
2
SK2
70
0
62
7
6
CONTINUOUS
290
1
370
-3
390
0
0
LAYER
5
182
100
AcDbSymbolTableRecord
100
AcDbLayerTableRecord
2
SK1
70
0
62
4
6
CONTINUOUS
290
1
370
-3
390
0
0
LAYER
5
183
100
AcDbSymbolTableRecord
100
AcDbLayerTableRecord
2
SK4
70
0
62
2
6
CENTER
290
1
370
-3
390
0
0
LAYER
5
184
100
AcDbSymbolTableRecord
100
AcDbLayerTableRecord
2
SK6
70
0
62
5
6
CONTINUOUS
290
1
370
-3
390
0
0
ENDTAB
0
TABLE
2
STYLE
5
198
100
AcDbSymbolTable
0
STYLE
5
11
100
AcDbSymbolTableRecord
100
AcDbTextStyleTableRecord
2
Standard
3
txt
70
0
71
0
40
0
41
1
42
0
50
0
0
STYLE
5
DD
100
AcDbSymbolTableRecord
100
AcDbTextStyleTableRecord
2
iso_b_vert
3
simplex.shx
70
0
71
0
40
0
41
1
42
0
50
0
0
STYLE
5
DE
100
AcDbSymbolTableRecord
100
AcDbTextStyleTableRecord
2
DWGDirectTextStyle
3
simplex
70
0
71
0
40
0
41
1
42
0
50
0
0
ENDTAB
0
TABLE
2
DIMSTYLE
5
199
100
AcDbSymbolTable
100
AcDbDimStyleTable
0
DIMSTYLE
105
27
100
AcDbSymbolTableRecord
100
AcDbDimStyleTableRecord
2
Standard
70
0
3
<>
41
0.18
42
0.0625
44
0.18
140
0.18
147
0.09
73
0
74
0
77
1
271
2
275
0
278
52
280
0
340
11
0
ENDTAB
0
TABLE
2
VIEW
5
19a
100
AcDbSymbolTable
0
ENDTAB
0
TABLE
2
UCS
5
19b
100
AcDbSymbolTable
0
ENDTAB
0
TABLE
2
APPID
5
19c
100
AcDbSymbolTable
0
APPID
5
12
100
AcDbSymbolTableRecord
100
AcDbRegAppTableRecord
2
ACAD
70
0
0
ENDTAB
0
TABLE
2
BLOCK_RECORD
5
19d
100
AcDbSymbolTable
0
BLOCK_RECORD
5
1F
100
AcDbSymbolTableRecord
100
AcDbBlockTableRecord
2
*Model_Space
340
0
70
0
0
BLOCK_RECORD
5
1B
100
AcDbSymbolTableRecord
100
AcDbBlockTableRecord
2
*Paper_Space
340
0
70
0
0
BLOCK_RECORD
5
23
100
AcDbSymbolTableRecord
100
AcDbBlockTableRecord
2
*Paper_Space0
340
0
70
0
0
BLOCK_RECORD
5
E0
100
AcDbSymbolTableRecord
100
AcDbBlockTableRecord
2
DimnDraft3D1
340
0
70
0
0
BLOCK_RECORD
5
EA
100
AcDbSymbolTableRecord
100
AcDbBlockTableRecord
2
DimnDraft3D2
340
0
70
0
0
BLOCK_RECORD
5
F4
100
AcDbSymbolTableRecord
100
AcDbBlockTableRecord
2
DimnDraft3D3
340
0
70
0
0
BLOCK_RECORD
5
FE
100
AcDbSymbolTableRecord
100
AcDbBlockTableRecord
2
DimnDraft3D4
340
0
70
0
0
BLOCK_RECORD
5
108
100
AcDbSymbolTableRecord
100
AcDbBlockTableRecord
2
DimnDraft3D5
340
0
70
0
0
BLOCK_RECORD
5
112
100
AcDbSymbolTableRecord
100
AcDbBlockTableRecord
2
DimnDraft3D6
340
0
70
0
0
BLOCK_RECORD
5
11D
100
AcDbSymbolTableRecord
100
AcDbBlockTableRecord
2
DimnDraft3D7
340
0
70
0
0
ENDTAB
0
ENDSEC
0
SECTION
2
BLOCKS
0
BLOCK
5
20
100
AcDbEntity
8
0
100
AcDbBlockBegin
2
*Model_Space
70
0
10
0
20
0
30
0
3
*Model_Space
0
ENDBLK
5
21
100
AcDbEntity
8
0
100
AcDbBlockEnd
0
BLOCK
5
1C
100
AcDbEntity
8
0
100
AcDbBlockBegin
2
*Paper_Space
70
0
10
0
20
0
30
0
3
*Paper_Space
0
ENDBLK
5
1D
100
AcDbEntity
8
0
100
AcDbBlockEnd
0
BLOCK
5
24
100
AcDbEntity
8
0
100
AcDbBlockBegin
2
*Paper_Space0
70
0
10
0
20
0
30
0
3
*Paper_Space0
0
ENDBLK
5
25
100
AcDbEntity
8
0
100
AcDbBlockEnd
0
BLOCK
5
E7
100
AcDbEntity
8
0
100
AcDbBlockBegin
2
DimnDraft3D1
70
0
10
0
20
0
30
0
3
DimnDraft3D1
0
MTEXT
5
E1
100
AcDbEntity
8
SK2
62
256
6
ByLayer
370
13
48
1
60
0
100
AcDbMText
10
15.284664
20
-13.088398
30
0
210
0
220
0
230
1
1
\W0.6977;41,73
40
3.5
41
0
44
1.084337
50
0
71
7
72
5
7
iso_b_vert
0
LINE
5
E2
100
AcDbEntity
8
SK2
62
256
6
ByLayer
370
13
48
1
60
0
100
AcDbLine
10
0
20
-1.5875
30
0
11
0
21
-15.963398
31
0
39
0
210
0
220
0
230
1
0
LINE
5
E3
100
AcDbEntity
8
SK2
62
256
6
ByLayer
370
13
48
1
60
0
100
AcDbLine
10
41.73
20
-5.3375
30
0
11
41.73
21
-15.963398
31
0
39
0
210
0
220
0
230
1
0
LINE
5
E4
100
AcDbEntity
8
SK2
62
256
6
ByLayer
370
13
48
1
60
0
100
AcDbLine
10
0
20
-13.963398
30
0
11
41.73
21
-13.963398
31
0
39
0
210
0
220
0
230
1
0
SOLID
5
E5
100
AcDbEntity
8
SK2
62
256
6
ByLayer
370
13
48
1
60
0
100
AcDbTrace
10
0
20
-13.963398
30
0
11
3.499998
21
-13.502615
31
0
12
3.500002
22
-14.424182
32
0
13
0
23
-13.963398
33
0
39
0
210
0
220
0
230
1
0
SOLID
5
E6
100
AcDbEntity
8
SK2
62
256
6
ByLayer
370
13
48
1
60
0
100
AcDbTrace
10
41.73
20
-13.963398
30
0
11
38.230002
21
-14.424182
31
0
12
38.229998
22
-13.502615
32
0
13
41.73
23
-13.963398
33
0
39
0
210
0
220
0
230
1
0
ENDBLK
5
E8
100
AcDbEntity
8
0
100
AcDbBlockEnd
0
BLOCK
5
F1
100
AcDbEntity
8
0
100
AcDbBlockBegin
2
DimnDraft3D2
70
0
10
0
20
0
30
0
3
DimnDraft3D2
0
MTEXT
5
EB
100
AcDbEntity
8
SK2
62
256
6
ByLayer
370
13
48
1
60
0
100
AcDbMText
10
-0.877384
20
-31.817985
30
0
210
0
220
0
230
1
1
\W0.7317;79,00
40
3.5
41
0
44
1.084337
50
0
71
7
72
5
7
iso_b_vert
0
LINE
5
EC
100
AcDbEntity
8
SK2
62
256
6
ByLayer
370
13
48
1
60
0
100
AcDbLine
10
-36
20
-5.5875
30
0
11
-36
21
-34.692985
31
0
39
0
210
0
220
0
230
1
0
LINE
5
ED
100
AcDbEntity
8
SK2
62
256
6
ByLayer
370
13
48
1
60
0
100
AcDbLine
10
43
20
-1.5875
30
0
11
43
21
-34.692985
31
0
39
0
210
0
220
0
230
1
0
LINE
5
EE
100
AcDbEntity
8
SK2
62
256
6
ByLayer
370
13
48
1
60
0
100
AcDbLine
10
-36
20
-32.692985
30
0
11
43
21
-32.692985
31
0
39
0
210
0
220
0
230
1
0
SOLID
5
EF
100
AcDbEntity
8
SK2
62
256
6
ByLayer
370
13
48
1
60
0
100
AcDbTrace
10
-36
20
-32.692985
30
0
11
-32.500002
21
-32.232202
31
0
12
-32.499998
22
-33.153769
32
0
13
-36
23
-32.692985
33
0
39
0
210
0
220
0
230
1
0
SOLID
5
F0
100
AcDbEntity
8
SK2
62
256
6
ByLayer
370
13
48
1
60
0
100
AcDbTrace
10
43
20
-32.692985
30
0
11
39.500002
21
-33.153769
31
0
12
39.499998
22
-32.232202
32
0
13
43
23
-32.692985
33
0
39
0
210
0
220
0
230
1
0
ENDBLK
5
F2
100
AcDbEntity
8
0
100
AcDbBlockEnd
0
BLOCK
5
FB
100
AcDbEntity
8
0
100
AcDbBlockBegin
2
DimnDraft3D3
70
0
10
0
20
0
30
0
3
DimnDraft3D3
0
MTEXT
5
F5
100
AcDbEntity
8
SK2
62
256
6
ByLayer
370
13
48
1
60
0
100
AcDbMText
10
26.666316
20
16.234119
30
0
210
0
220
0
230
1
1
\W0.7317;23,77
40
3.5
41
0
44
1.084337
50
0
71
7
72
5
7
iso_b_vert
0
LINE
5
F6
100
AcDbEntity
8
SK2
62
256
6
ByLayer
370
13
48
1
60
0
100
AcDbLine
10
19.23
20
5.3375
30
0
11
19.23
21
17.359119
31
0
39
0
210
0
220
0
230
1
0
LINE
5
F7
100
AcDbEntity
8
SK2
62
256
6
ByLayer
370
13
48
1
60
0
100
AcDbLine
10
43
20
1.5875
30
0
11
43
21
17.359119
31
0
39
0
210
0
220
0
230
1
0
LINE
5
F8
100
AcDbEntity
8
SK2
62
256
6
ByLayer
370
13
48
1
60
0
100
AcDbLine
10
19.23
20
15.359119
30
0
11
43
21
15.359119
31
0
39
0
210
0
220
0
230
1
0
SOLID
5
F9
100
AcDbEntity
8
SK2
62
256
6
ByLayer
370
13
48
1
60
0
100
AcDbTrace
10
19.23
20
15.359119
30
0
11
22.729998
21
15.819903
31
0
12
22.730002
22
14.898335
32
0
13
19.23
23
15.359119
33
0
39
0
210
0
220
0
230
1
0
SOLID
5
FA
100
AcDbEntity
8
SK2
62
256
6
ByLayer
370
13
48
1
60
0
100
AcDbTrace
10
43
20
15.359119
30
0
11
39.500002
21
14.898335
31
0
12
39.499998
22
15.819903
32
0
13
43
23
15.359119
33
0
39
0
210
0
220
0
230
1
0
ENDBLK
5
FC
100
AcDbEntity
8
0
100
AcDbBlockEnd
0
BLOCK
5
105
100
AcDbEntity
8
0
100
AcDbBlockBegin
2
DimnDraft3D4
70
0
10
0
20
0
30
0
3
DimnDraft3D4
0
MTEXT
5
FF
100
AcDbEntity
8
SK2
62
256
6
ByLayer
370
13
48
1
60
0
100
AcDbMText
10
50.278136
20
-15.677503
30
0
210
0
220
0
230
1
1
\W0.6367;1,27
40
3.5
41
0
44
1.084337
50
0
71
7
72
5
7
iso_b_vert
0
LINE
5
100
100
AcDbEntity
8
SK2
62
256
6
ByLayer
370
13
48
1
60
0
100
AcDbLine
10
43
20
-1.5875
30
0
11
43
21
-18.552503
31
0
39
0
210
0
220
0
230
1
0
LINE
5
101
100
AcDbEntity
8
SK2
62
256
6
ByLayer
370
13
48
1
60
0
100
AcDbLine
10
41.73
20
-5.3375
30
0
11
41.73
21
-18.552503
31
0
39
0
210
0
220
0
230
1
0
LINE
5
102
100
AcDbEntity
8
SK2
62
256
6
ByLayer
370
13
48
1
60
0
100
AcDbLine
10
32.98
20
-16.552503
30
0
11
56.559715
21
-16.552503
31
0
39
0
210
0
220
0
230
1
0
SOLID
5
103
100
AcDbEntity
8
SK2
62
256
6
ByLayer
370
13
48
1
60
0
100
AcDbTrace
10
43
20
-16.552503
30
0
11
46.499998
21
-16.091719
31
0
12
46.500002
22
-17.013287
32
0
13
43
23
-16.552503
33
0
39
0
210
0
220
0
230
1
0
SOLID
5
104
100
AcDbEntity
8
SK2
62
256
6
ByLayer
370
13
48
1
60
0
100
AcDbTrace
10
41.73
20
-16.552503
30
0
11
38.230002
21
-17.013287
31
0
12
38.229998
22
-16.091719
32
0
13
41.73
23
-16.552503
33
0
39
0
210
0
220
0
230
1
0
ENDBLK
5
106
100
AcDbEntity
8
0
100
AcDbBlockEnd
0
BLOCK
5
10F
100
AcDbEntity
8
0
100
AcDbBlockBegin
2
DimnDraft3D5
70
0
10
0
20
0
30
0
3
DimnDraft3D5
0
MTEXT
5
109
100
AcDbEntity
8
SK2
62
256
6
ByLayer
370
13
48
1
60
0
100
AcDbMText
10
-3.958008
20
-21.468428
30
0
210
0
220
0
230
1
1
\W0.7317;77,73
40
3.5
41
0
44
1.084337
50
0
71
7
72
5
7
iso_b_vert
0
LINE
5
10A
100
AcDbEntity
8
SK2
62
256
6
ByLayer
370
13
48
1
60
0
100
AcDbLine
10
-36
20
-5.5875
30
0
11
-36
21
-24.343428
31
0
39
0
210
0
220
0
230
1
0
LINE
5
10B
100
AcDbEntity
8
SK2
62
256
6
ByLayer
370
13
48
1
60
0
100
AcDbLine
10
41.73
20
-5.3375
30
0
11
41.73
21
-24.343428
31
0
39
0
210
0
220
0
230
1
0
LINE
5
10C
100
AcDbEntity
8
SK2
62
256
6
ByLayer
370
13
48
1
60
0
100
AcDbLine
10
-36
20
-22.343428
30
0
11
41.73
21
-22.343428
31
0
39
0
210
0
220
0
230
1
0
SOLID
5
10D
100
AcDbEntity
8
SK2
62
256
6
ByLayer
370
13
48
1
60
0
100
AcDbTrace
10
-36
20
-22.343428
30
0
11
-32.500002
21
-21.882645
31
0
12
-32.499998
22
-22.804212
32
0
13
-36
23
-22.343428
33
0
39
0
210
0
220
0
230
1
0
SOLID
5
10E
100
AcDbEntity
8
SK2
62
256
6
ByLayer
370
13
48
1
60
0
100
AcDbTrace
10
41.73
20
-22.343428
30
0
11
38.230002
21
-22.804212
31
0
12
38.229998
22
-21.882645
32
0
13
41.73
23
-22.343428
33
0
39
0
210
0
220
0
230
1
0
ENDBLK
5
110
100
AcDbEntity
8
0
100
AcDbBlockEnd
0
BLOCK
5
11A
100
AcDbEntity
8
0
100
AcDbBlockBegin
2
DimnDraft3D6
70
0
10
0
20
0
30
0
3
DimnDraft3D6
0
MTEXT
5
113
100
AcDbEntity
8
SK2
62
256
6
ByLayer
370
13
48
1
60
0
100
AcDbMText
10
-46.375163
20
23.34918
30
0
210
0
220
0
230
1
1
\W0.7317;8,000
40
3.5
41
0
44
1.084337
50
90
71
7
72
5
7
iso_b_vert
0
MTEXT
5
114
100
AcDbEntity
8
SK2
62
256
6
ByLayer
370
13
48
1
60
0
100
AcDbMText
10
-46.375163
20
18.126524
30
0
210
0
220
0
230
1
1
%%c
40
3.5
41
0
44
1.084337
50
90
71
7
72
5
7
iso_b_vert
0
LINE
5
115
100
AcDbEntity
8
SK2
62
256
6
ByLayer
370
13
48
1
60
0
100
AcDbLine
10
-37.5875
20
-4
30
0
11
-46.625163
21
-4
31
0
39
0
210
0
220
0
230
1
0
LINE
5
116
100
AcDbEntity
8
SK2
62
256
6
ByLayer
370
13
48
1
60
0
100
AcDbLine
10
-37.5875
20
4
30
0
11
-46.625163
21
4
31
0
39
0
210
0
220
0
230
1
0
LINE
5
117
100
AcDbEntity
8
SK2
62
256
6
ByLayer
370
13
48
1
60
0
100
AcDbLine
10
-44.625163
20
-4
30
0
11
-44.625163
21
33.121549
31
0
39
0
210
0
220
0
230
1
0
SOLID
5
118
100
AcDbEntity
8
SK2
62
256
6
ByLayer
370
13
48
1
60
0
100
AcDbTrace
10
-44.625163
20
-4
30
0
11
-45.085946
21
-0.500002
31
0
12
-44.164379
22
-0.499998
32
0
13
-44.625163
23
-4
33
0
39
0
210
0
220
0
230
1
0
SOLID
5
119
100
AcDbEntity
8
SK2
62
256
6
ByLayer
370
13
48
1
60
0
100
AcDbTrace
10
-44.625163
20
4
30
0
11
-44.164379
21
0.500002
31
0
12
-45.085946
22
0.499998
32
0
13
-44.625163
23
4
33
0
39
0
210
0
220
0
230
1
0
ENDBLK
5
11B
100
AcDbEntity
8
0
100
AcDbBlockEnd
0
BLOCK
5
125
100
AcDbEntity
8
0
100
AcDbBlockBegin
2
DimnDraft3D7
70
0
10
0
20
0
30
0
3
DimnDraft3D7
0
MTEXT
5
11E
100
AcDbEntity
8
2
62
256
6
ByLayer
370
13
48
1
60
0
100
AcDbMText
10
53.333343
20
21.692266
30
0
210
0
220
0
230
1
1
\W0.7317;7,500
40
3.5
41
0
44
1.084337
50
90
71
7
72
5
7
iso_b_vert
0
MTEXT
5
11F
100
AcDbEntity
8
2
62
256
6
ByLayer
370
13
48
1
60
0
100
AcDbMText
10
53.333343
20
16.46961
30
0
210
0
220
0
230
1
1
%%c
40
3.5
41
0
44
1.084337
50
90
71
7
72
5
7
iso_b_vert
0
LINE
5
120
100
AcDbEntity
8
2
62
256
6
ByLayer
370
13
48
1
60
0
100
AcDbLine
10
43.3175
20
-3.75
30
0
11
57.083343
21
-3.75
31
0
39
0
210
0
220
0
230
1
0
LINE
5
121
100
AcDbEntity
8
2
62
256
6
ByLayer
370
13
48
1
60
0
100
AcDbLine
10
43.3175
20
3.75
30
0
11
57.083343
21
3.75
31
0
39
0
210
0
220
0
230
1
0
LINE
5
122
100
AcDbEntity
8
2
62
256
6
ByLayer
370
13
48
1
60
0
100
AcDbLine
10
55.083343
20
-3.75
30
0
11
55.083343
21
31.464635
31
0
39
0
210
0
220
0
230
1
0
SOLID
5
123
100
AcDbEntity
8
2
62
256
6
ByLayer
370
13
48
1
60
0
100
AcDbTrace
10
55.083343
20
-3.75
30
0
11
54.622559
21
-0.250002
31
0
12
55.544126
22
-0.249998
32
0
13
55.083343
23
-3.75
33
0
39
0
210
0
220
0
230
1
0
SOLID
5
124
100
AcDbEntity
8
2
62
256
6
ByLayer
370
13
48
1
60
0
100
AcDbTrace
10
55.083343
20
3.75
30
0
11
55.544126
21
0.250002
31
0
12
54.622559
22
0.249998
32
0
13
55.083343
23
3.75
33
0
39
0
210
0
220
0
230
1
0
ENDBLK
5
126
100
AcDbEntity
8
0
100
AcDbBlockEnd
0
ENDSEC
0
SECTION
2
ENTITIES
0
ARC
5
9B
100
AcDbEntity
8
1
62
256
6
ByLayer
370
18
48
1
60
0
100
AcDbCircle
39
0
10
0
20
3.2
30
0
40
0.8
210
0
220
0
230
1
100
AcDbArc
50
55.936373
51
90
0
ARC
5
9C
100
AcDbEntity
8
1
62
256
6
ByLayer
370
18
48
1
60
0
100
AcDbCircle
39
0
10
0
20
-3.2
30
0
40
0.8
210
0
220
0
230
1
100
AcDbArc
50
270
51
304.063627
0
ARC
5
9D
100
AcDbEntity
8
1
62
256
6
ByLayer
370
18
48
1
60
0
100
AcDbCircle
39
0
10
-0.896181
20
-4.525466
30
0
40
0.8
210
0
220
0
230
-1
100
AcDbArc
50
55.936373
51
90.034377
0
ARC
5
9E
100
AcDbEntity
8
1
62
256
6
ByLayer
370
18
48
1
60
0
100
AcDbCircle
39
0
10
-0.896181
20
4.525466
30
0
40
0.8
210
0
220
0
230
-1
100
AcDbArc
50
269.965623
51
304.063627
0
ELLIPSE
5
9F
100
AcDbEntity
8
1
62
256
6
ByLayer
370
18
48
1
60
0
100
AcDbEllipse
10
4.25
20
3.802735
30
0
11
-0.25
21
3.06151588455594E-17
31
0
210
0
220
0
230
1
40
0.999986
41
0.339029536604489
42
1.5810080417193
0
ELLIPSE
5
A0
100
AcDbEntity
8
1
62
256
6
ByLayer
370
18
48
1
60
0
100
AcDbEllipse
10
4.25
20
-3.802735
30
0
11
-0.25
21
3.06151588455594E-17
31
0
210
0
220
0
230
1
40
0.999986
41
-1.56383357257206
42
-0.32428225771188
0
ELLIPSE
5
A1
100
AcDbEntity
8
1
62
256
6
ByLayer
370
18
48
1
60
0
100
AcDbEllipse
10
42.860395
20
0.114006
30
0
11
0.0727819104909411
21
0.301917195724415
31
0
210
0
220
0
230
-1
40
0.478434
41
1.71091671724552
42
2.4597611997381
0
ELLIPSE
5
A2
100
AcDbEntity
8
1
62
256
6
ByLayer
370
18
48
1
60
0
100
AcDbEllipse
10
43.045178
20
0.004369
30
0
11
0.137979128854774
21
-0.42899564811071
31
0
210
0
220
0
230
-1
40
0.08774
41
1.67595680207826
42
2.32337572125039
0
ELLIPSE
5
A3
100
AcDbEntity
8
1
62
256
6
ByLayer
370
18
48
1
60
0
100
AcDbEllipse
10
42.263391
20
-1.870206
30
0
11
0.581485495177747
21
1.57357546944577
31
0
210
0
220
0
230
-1
40
0.115174
41
0.742863466701894
42
1.50944426229324
0
ELLIPSE
5
A4
100
AcDbEntity
8
1
62
256
6
ByLayer
370
18
48
1
60
0
100
AcDbEllipse
10
43.000337
20
0.000819
30
0
11
1.38475807385237
21
3.74733564509885
31
0
210
0
220
0
230
-1
40
0.115174
41
2.86393831787409
42
2.97060566673709
0
ELLIPSE
5
A5
100
AcDbEntity
8
1
62
256
6
ByLayer
370
18
48
1
60
0
100
AcDbEllipse
10
43.000337
20
-0.000819
30
0
11
1.38475807722514
21
-3.74733565503246
31
0
210
0
220
0
230
-1
40
0.115174
41
-2.9706056669651
42
-2.86393831824574
0
ELLIPSE
5
A6
100
AcDbEntity
8
1
62
256
6
ByLayer
370
13
48
1
60
0
100
AcDbEllipse
10
42.459481
20
1.747008
30
0
11
2.15222731908292
21
-1.48186971072671
31
0
210
0
220
0
230
-1
40
0.533762
41
1.44484622740398
42
1.70422163199431
0
ELLIPSE
5
A7
100
AcDbEntity
8
1
62
256
6
ByLayer
370
13
48
1
60
0
100
AcDbEllipse
10
42.649388
20
1.870206
30
0
11
2.224232496714
21
-1.13490647198378
31
0
210
0
220
0
230
-1
40
0.490986
41
1.55156247809129
42
1.82686854321823
0
ELLIPSE
5
A8
100
AcDbEntity
8
1
62
256
6
ByLayer
370
13
48
1
60
0
100
AcDbEllipse
10
42.135045
20
0.54438
30
0
11
0.153082081612425
21
0.258003636193769
31
0
210
0
220
0
230
1
40
0.454519
41
0.917105603404851
42
2.31336900500021
0
ELLIPSE
5
A9
100
AcDbEntity
8
1
62
256
6
ByLayer
370
18
48
1
60
0
100
AcDbEllipse
10
43.045178
20
-0.004369
30
0
11
0.137979128906251
21
0.428995648242741
31
0
210
0
220
0
230
-1
40
0.08774
41
-2.32337572128123
42
-1.67595680228446
0
ELLIPSE
5
AA
100
AcDbEntity
8
1
62
256
6
ByLayer
370
18
48
1
60
0
100
AcDbEllipse
10
42.263391
20
1.870206
30
0
11
0.581485495173208
21
-1.57357546943665
31
0
210
0
220
0
230
-1
40
0.115174
41
-1.50944426229948
42
-0.742863466704965
0
POINT
5
6C
100
AcDbEntity
8
81
62
256
6
ByLayer
370
18
48
1
60
0
100
AcDbPoint
10
43
20
0
30
0
39
0
210
0
220
0
230
1
50
360
0
POINT
5
6E
100
AcDbEntity
8
80
62
256
6
ByLayer
370
18
48
1
60
0
100
AcDbPoint
10
0
20
0
30
0
39
0
210
0
220
0
230
1
50
360
0
POINT
5
70
100
AcDbEntity
8
SK2
62
256
6
ByLayer
370
18
48
1
60
1
100
AcDbPoint
10
-36
20
-4
30
0
39
0
210
0
220
0
230
1
50
360
0
POINT
5
72
100
AcDbEntity
8
SK2
62
256
6
ByLayer
370
18
48
1
60
1
100
AcDbPoint
10
-36
20
4
30
0
39
0
210
0
220
0
230
1
50
360
0
POINT
5
73
100
AcDbEntity
8
2
62
256
6
ByLayer
370
18
48
1
60
1
100
AcDbPoint
10
41.73
20
-3.75
30
0
39
0
210
0
220
0
230
1
50
360
0
POINT
5
75
100
AcDbEntity
8
2
62
256
6
ByLayer
370
18
48
1
60
1
100
AcDbPoint
10
41.73
20
3.75
30
0
39
0
210
0
220
0
230
1
50
360
0
SPLINE
5
AB
100
AcDbEntity
8
1
62
256
6
ByLayer
370
18
48
1
60
0
100
AcDbSpline
70
4
71
3
72
11
73
7
40
0
40
0
40
0
40
0
40
0.0301913705924216
40
0.2477267615771
40
0.555097270078876
40
1
40
1
40
1
40
1
41
1
10
12.8429614851322
20
-0.975241018502345
30
0
41
1
10
12.8429574359465
20
-0.975251373444138
30
0
41
1
10
12.8439115275278
20
-0.975836596688168
30
0
41
1
10
12.8672684076749
20
-0.987950684627322
30
0
41
1
10
12.9975113267944
20
-1.05772512764673
30
0
41
1
10
13.1109652572054
20
-1.12194029728641
30
0
41
1
10
13.1912359200593
20
-1.16790636916289
30
0
0
SPLINE
5
AC
100
AcDbEntity
8
1
62
256
6
ByLayer
370
18
48
1
60
0
100
AcDbSpline
70
4
71
3
72
12
73
8
40
0
40
0
40
0
40
0
40
0.135151687159388
40
0.266327829347961
40
0.404892421537287
40
0.651829683479056
40
1
40
1
40
1
40
1
41
1
10
32.2494410876988
20
-0.97861159935448
30
0
41
1
10
32.2488900784826
20
-0.978597593717296
30
0
41
1
10
32.2506765488747
20
-0.979853521790318
30
0
41
1
10
32.2620927807645
20
-0.985715062248801
30
0
41
1
10
32.2951080302254
20
-1.00136641685216
30
0
41
1
10
32.4180399863978
20
-1.06822599118578
30
0
41
1
10
32.5221306711528
20
-1.12824013407834
30
0
41
1
10
32.593647002957
20
-1.17036062783637
30
0
0
SPLINE
5
AD
100
AcDbEntity
8
1
62
256
6
ByLayer
370
18
48
1
60
0
100
AcDbSpline
70
4
71
3
72
28
73
24
40
0
40
0
40
0
40
0
40
0.0728585554573847
40
0.12349804624143
40
0.153810969643649
40
0.192177442734499
40
0.243497251879012
40
0.289491378161305
40
0.323336975174142
40
0.3651743729551
40
0.411570841705397
40
0.468420503668047
40
0.532605990131921
40
0.604582809075063
40
0.662173850397159
40
0.711085041824679
40
0.779416257306972
40
0.815636091693579
40
0.844879911143286
40
0.867524976178465
40
0.902749800059602
40
0.961260201997762
40
1
40
1
40
1
40
1
41
1
10
21.7113400858182
20
-3.56299578194327
30
0
41
1
10
21.9452107357201
20
-3.56316240624383
30
0
41
1
10
22.3416289262252
20
-3.56341593308505
30
0
41
1
10
22.8353679928205
20
-3.56382887976758
30
0
41
1
10
23.2183569713311
20
-3.56392198253187
30
0
41
1
10
23.6035148920305
20
-3.56436056842364
30
0
41
1
10
24.0390678315159
20
-3.56456439839846
30
0
41
1
10
24.4600898059996
20
-3.56472977131492
30
0
41
1
10
24.8506274778976
20
-3.56535821638778
30
0
41
1
10
25.2425182751793
20
-3.56503723146508
30
0
41
1
10
25.7082338449753
20
-3.56531627513436
30
0
41
1
10
26.2457001691979
20
-3.56564826605702
30
0
41
1
10
26.8652749111867
20
-3.56607576306158
30
0
41
1
10
27.4872247332848
20
-3.56626617286946
30
0
41
1
10
28.0601507437926
20
-3.56671661701887
30
0
41
1
10
28.6213527707185
20
-3.56709492315406
30
0
41
1
10
29.1139837902295
20
-3.56711718554362
30
0
41
1
10
29.5434615231601
20
-3.56794531931936
30
0
41
1
10
29.826313323706
20
-3.56760482204424
30
0
41
1
10
30.1057870451279
20
-3.56726872354815
30
0
41
1
10
30.479370754276
20
-3.56834531939703
30
0
41
1
10
30.9046635155094
20
-3.56797228723937
30
0
41
1
10
31.2167444377897
20
-3.56845911118185
30
0
41
1
10
31.341051852939
20
-3.56865582982252
30
0
0
SPLINE
5
AE
100
AcDbEntity
8
1
62
256
6
ByLayer
370
18
48
1
60
0
100
AcDbSpline
70
4
71
2
72
6
73
3
40
0
40
0
40
0
40
1
40
1
40
1
41
1
10
41.1278531353877
20
-3.57476657834789
30
0
41
1
10
41.4125958130168
20
-3.57386984994739
30
0
41
1
10
41.6968290682512
20
-3.57565519991843
30
0
0
SPLINE
5
AF
100
AcDbEntity
8
1
62
256
6
ByLayer
370
18
48
1
60
0
100
AcDbSpline
70
4
71
3
72
24
73
20
40
0
40
0
40
0
40
0
40
0.055866936817892
40
0.137997676360025
40
0.203618177096947
40
0.252638585272367
40
0.2965320451735
40
0.342330127821099
40
0.399074110153299
40
0.469854672370744
40
0.537642026376175
40
0.591099741077091
40
0.658827765801139
40
0.72660120945714
40
0.762365616379519
40
0.801309929842605
40
0.858636763335167
40
0.934982769873085
40
1
40
1
40
1
40
1
41
1
10
12.0141091534106
20
3.55736768484172
30
0
41
1
10
11.870369917354
20
3.55663641132119
30
0
41
1
10
11.5150362368611
20
3.55538219934402
30
0
41
1
10
10.986093582214
20
3.55691316245907
30
0
41
1
10
10.4801600650522
20
3.55809425926873
30
0
41
1
10
10.0692544372248
20
3.55798505468314
30
0
41
1
10
9.71015111525719
20
3.55668519721206
30
0
41
1
10
9.33094024794519
20
3.55496432415222
30
0
41
1
10
8.88213539163911
20
3.55438794756887
30
0
41
1
10
8.37638095519711
20
3.55509780627895
30
0
41
1
10
7.87913743886168
20
3.55596325070181
30
0
41
1
10
7.38979521020704
20
3.5556261108087
30
0
41
1
10
6.9004999337144
20
3.55481026214287
30
0
41
1
10
6.45701353329639
20
3.55436469410372
30
0
41
1
10
6.08805886166638
20
3.55376476921964
30
0
41
1
10
5.74616373978438
20
3.55351736962467
30
0
41
1
10
5.29925733422581
20
3.55366890167522
30
0
41
1
10
4.78471351045019
20
3.55350193774279
30
0
41
1
10
4.41871920455941
20
3.55298771439564
30
0
41
1
10
4.25039238315605
20
3.55267783881555
30
0
0
SPLINE
5
B0
100
AcDbEntity
8
1
62
256
6
ByLayer
370
18
48
1
60
0
100
AcDbSpline
70
4
71
3
72
26
73
22
40
0
40
0
40
0
40
0
40
0.0640768466458451
40
0.148761842611043
40
0.214184418474383
40
0.264712981461264
40
0.31470052623883
40
0.373394968358777
40
0.454554086731048
40
0.529963372461515
40
0.588723026416108
40
0.625720602943625
40
0.659366376054409
40
0.68996141897872
40
0.730140263645267
40
0.786601996424417
40
0.843007482128833
40
0.906514262196019
40
0.956798315708651
40
0.985629610210076
40
1
40
1
40
1
40
1
41
1
10
31.4014109053681
20
3.56860084844604
30
0
41
1
10
31.2298889663497
20
3.56824207794736
30
0
41
1
10
30.831537825115
20
3.5676175879822
30
0
41
1
10
30.2562810609987
20
3.56724134901614
30
0
41
1
10
29.7190199448171
20
3.56783611045597
30
0
41
1
10
29.2731300335666
20
3.56768488375451
30
0
41
1
10
28.8456584841663
20
3.56654497116051
30
0
41
1
10
28.3358365966421
20
3.56746022131372
30
0
41
1
10
27.7577823232305
20
3.56577997900939
30
0
41
1
10
27.1795440822292
20
3.56680209283911
30
0
41
1
10
26.7198898217792
20
3.56566960102597
30
0
41
1
10
26.3724059194009
20
3.56570611989849
30
0
41
1
10
26.1005729423098
20
3.56559219547887
30
0
41
1
10
25.8206899037431
20
3.5653339009086
30
0
41
1
10
25.4789129080722
20
3.56491152902936
30
0
41
1
10
25.0680035675336
20
3.56522353753658
30
0
41
1
10
24.5946213585852
20
3.56501723318394
30
0
41
1
10
24.1375061963135
20
3.56453927343875
30
0
41
1
10
23.7547583285492
20
3.56452159345872
30
0
41
1
10
23.5050352128905
20
3.56393977846537
30
0
41
1
10
23.3892169112894
20
3.56376194165759
30
0
41
1
10
23.350660683313
20
3.56371088559953
30
0
0
SPLINE
5
B1
100
AcDbEntity
8
1
62
256
6
ByLayer
370
18
48
1
60
0
100
AcDbSpline
70
4
71
3
72
23
73
19
40
0
40
0
40
0
40
0
40
0.0937760169075605
40
0.187227048787489
40
0.256249484926949
40
0.311882009748515
40
0.380959557356733
40
0.458851455661236
40
0.532065709203903
40
0.588533532396727
40
0.638774102384457
40
0.70584402561699
40
0.77737909374
40
0.811992319394523
40
0.839341450977707
40
0.883546154384972
40
0.954947736246922
40
1
40
1
40
1
40
1
41
1
10
4.25037388285881
20
-3.5526437321524
30
0
41
1
10
4.49077537683433
20
-3.55308489531285
30
0
41
1
10
4.97074660474681
20
-3.55376874067736
30
0
41
1
10
5.62767396784099
20
-3.55345028232003
30
0
41
1
10
6.18680669054203
20
-3.55384158110377
30
0
41
1
10
6.68347746471986
20
-3.5547770391959
30
0
41
1
10
7.20288637824626
20
-3.55507082755639
30
0
41
1
10
7.76736981195103
20
-3.55617177903591
30
0
41
1
10
8.29952377630269
20
-3.55522888851343
30
0
41
1
10
8.76078822766991
20
-3.55453702562832
30
0
41
1
10
9.20630337283396
20
-3.55461704364117
30
0
41
1
10
9.69044270528937
20
-3.55659808194849
30
0
41
1
10
10.1345160682174
20
-3.5581340188601
30
0
41
1
10
10.4767648443627
20
-3.55795320306939
30
0
41
1
10
10.7487667094631
20
-3.55763510962939
30
0
41
1
10
11.1152549021377
20
-3.55715906559337
30
0
41
1
10
11.5271754315844
20
-3.55638945910326
30
0
41
1
10
11.8256444767714
20
-3.557127615935
30
0
41
1
10
11.9411041035464
20
-3.55752368424211
30
0
0
SPLINE
5
B2
100
AcDbEntity
8
1
62
256
6
ByLayer
370
18
48
1
60
0
100
AcDbSpline
70
4
71
3
72
36
73
32
40
0
40
0
40
0
40
0
40
0.104827485956687
40
0.104827485956687
40
0.209654971913374
40
0.209654971913374
40
0.262068714891717
40
0.262068714891717
40
0.31448245787006
40
0.31448245787006
40
0.419309943826747
40
0.419309943826747
40
0.47172368680509
40
0.47172368680509
40
0.524137429783434
40
0.524137429783434
40
0.576551172761777
40
0.576551172761777
40
0.628964915740121
40
0.628964915740121
40
0.733792401696808
40
0.733792401696808
40
0.786206144675151
40
0.786206144675151
40
0.838619887653493
40
0.838619887653493
40
0.891033630631836
40
0.891033630631836
40
0.943447373610179
40
0.943447373610179
40
1
40
1
40
1
40
1
41
1
10
12.0647112625575
20
-0.505807076440561
30
0
41
1
10
12.3767405965505
20
-0.694092797357115
30
0
41
1
10
12.6880282238745
20
-0.87694412790043
30
0
41
1
10
13.3074067036521
20
-1.23536017191486
30
0
41
1
10
13.6151149854617
20
-1.41140594281614
30
0
41
1
10
14.07794492001
20
-1.66415761422664
30
0
41
1
10
14.2322430888135
20
-1.74683309296745
30
0
41
1
10
14.5407107785027
20
-1.90927572635994
30
0
41
1
10
14.6947191442847
20
-1.98926947281717
30
0
41
1
10
15.1574747396267
20
-2.22345176469756
30
0
41
1
10
15.4678287357052
20
-2.37069774324255
30
0
41
1
10
15.9348930552037
20
-2.57981918473021
30
0
41
1
10
16.0910055485002
20
-2.64790132408683
30
0
41
1
10
16.4027035925632
20
-2.77800027583802
30
0
41
1
10
16.558364333579
20
-2.8399148238646
30
0
41
1
10
16.8689807566294
20
-2.9580578195374
30
0
41
1
10
17.0239651150355
20
-3.01425140948987
30
0
41
1
10
17.3330953650817
20
-3.12109379854184
30
0
41
1
10
17.487059032883
20
-3.1718856871837
30
0
41
1
10
17.9494901232418
20
-3.31426090398375
30
0
41
1
10
18.2582277483785
20
-3.3963122897635
30
0
41
1
10
18.7207024623813
20
-3.50109158687815
30
0
41
1
10
18.8746289587054
20
-3.53298730917052
30
0
41
1
10
19.1836516169275
20
-3.58974602401213
30
0
41
1
10
19.3385954636548
20
-3.61472332597785
30
0
41
1
10
19.6491128318503
20
-3.65797313791271
30
0
41
1
10
19.804710245177
20
-3.67623718242118
30
0
41
1
10
20.1163388590482
20
-3.70593064040838
30
0
41
1
10
20.2724201278516
20
-3.71730900453792
30
0
41
1
10
20.5960742097106
20
-3.73329774519215
30
0
41
1
10
20.7637490264589
20
-3.737458213953
30
0
41
1
10
20.9309956207999
20
-3.73751446865086
30
0
0
SPLINE
5
B3
100
AcDbEntity
8
1
62
256
6
ByLayer
370
18
48
1
60
0
100
AcDbSpline
70
4
71
3
72
24
73
20
40
0
40
0
40
0
40
0
40
0.0882856550696248
40
0.0882856550696248
40
0.164261850480489
40
0.164261850480489
40
0.240238045891354
40
0.240238045891354
40
0.392190436713083
40
0.392190436713083
40
0.544142827534812
40
0.544142827534812
40
0.696095218356542
40
0.696095218356542
40
0.848047609178271
40
0.848047609178271
40
0.924023804589136
40
0.924023804589136
40
1
40
1
40
1
40
1
41
1
10
35.667786360691
20
2.72718910432542
30
0
41
1
10
35.8480451543323
20
2.80195291823904
30
0
41
1
10
36.0287373428241
20
2.87347124284503
30
0
41
1
10
36.3654619558395
20
3.00069584818675
30
0
41
1
10
36.5214087952019
20
3.05684108453693
30
0
41
1
10
36.8324398074046
20
3.16210132557353
30
0
41
1
10
36.9876645878118
20
3.21152994672733
30
0
41
1
10
37.4522362881772
20
3.35059506715743
30
0
41
1
10
37.7597353533153
20
3.43144876246117
30
0
41
1
10
38.3760652651453
20
3.5656011746193
30
0
41
1
10
38.6843046358943
20
3.61951857472772
30
0
41
1
10
39.3000890569579
20
3.70088338990269
30
0
41
1
10
39.609540113686
20
3.72762696044913
30
0
41
1
10
40.2310322826227
20
3.75324415599721
30
0
41
1
10
40.5431568117123
20
3.75180585001121
30
0
41
1
10
41.0103485000788
20
3.72826849370728
30
0
41
1
10
41.1659596015421
20
3.71691013823067
30
0
41
1
10
41.4767669681336
20
3.68714521136454
30
0
41
1
10
41.6318131128914
20
3.66867848594808
30
0
41
1
10
41.7869137738799
20
3.64671323003523
30
0
0
SPLINE
5
B4
100
AcDbEntity
8
1
62
256
6
ByLayer
370
18
48
1
60
0
100
AcDbSpline
70
4
71
3
72
27
73
23
40
0
40
0
40
0
40
0
40
0.0949028361142305
40
0.0949028361142305
40
0.170327599771378
40
0.170327599771378
40
0.245752363428525
40
0.321177127085673
40
0.321177127085673
40
0.39660189074282
40
0.39660189074282
40
0.547451418057115
40
0.547451418057115
40
0.622876181714263
40
0.622876181714263
40
0.69830094537141
40
0.69830094537141
40
0.849150472685705
40
0.849150472685705
40
0.924575236342853
40
0.924575236342853
40
1
40
1
40
1
40
1
41
1
10
4.01165762607116
20
-3.72733424601336
30
0
41
1
10
4.01165926519309
20
-3.72808881326699
30
0
41
1
10
4.01166006405654
20
-3.71903478333209
30
0
41
1
10
4.01166089672807
20
-3.68488326154997
30
0
41
1
10
4.01166105031442
20
-3.66338962703105
30
0
41
1
10
4.01166141251991
20
-3.60868546631647
30
0
41
1
10
4.01166183258886
20
-3.54212525127531
30
0
41
1
10
4.01166322082707
20
-3.45215284129571
30
0
41
1
10
4.01166546689009
20
-3.35027130113062
30
0
41
1
10
4.01166703361284
20
-3.29299848109773
30
0
41
1
10
4.01167339152784
20
-3.10619519943825
30
0
41
1
10
4.01167985703313
20
-2.96173774395771
30
0
41
1
10
4.01169366736895
20
-2.71569433531067
30
0
41
1
10
4.01169895225814
20
-2.62868752729432
30
0
41
1
10
4.01171089427802
20
-2.44470751310442
30
0
41
1
10
4.01171745589798
20
-2.34919131582697
30
0
41
1
10
4.01173867162362
20
-2.05243050971498
30
0
41
1
10
4.01175489391673
20
-1.84107346691334
30
0
41
1
10
4.01178078624073
20
-1.50334854963219
30
0
41
1
10
4.01178967286538
20
-1.38719879482514
30
0
41
1
10
4.0118071491359
20
-1.15314912852881
30
0
41
1
10
4.01181578835408
20
-1.03461024435879
30
0
41
1
10
4.01182410300706
20
-0.914581308088515
30
0
0
SPLINE
5
B5
100
AcDbEntity
8
1
62
256
6
ByLayer
370
18
48
1
60
0
100
AcDbSpline
70
4
71
3
72
82
73
78
40
0
40
0
40
0
40
0
40
0.0299833582901656
40
0.0299833582901656
40
0.102581980467124
40
0.102581980467124
40
0.175180602644083
40
0.175180602644083
40
0.247779224821042
40
0.247779224821042
40
0.284078535909521
40
0.284078535909521
40
0.320377846998
40
0.320377846998
40
0.392976469174959
40
0.392976469174959
40
0.429275780263438
40
0.429275780263438
40
0.447425435807678
40
0.447425435807678
40
0.451962849693738
40
0.453097203165253
40
0.453664379901011
40
0.453947968268889
40
0.453947968268889
40
0.454231556636768
40
0.454231556636768
40
0.454515145004647
40
0.454515145004647
40
0.454798733372526
40
0.454798733372526
40
0.455365910108283
40
0.455365910108283
40
0.456500263579798
40
0.456500263579798
40
0.465575091351916
40
0.465575091351916
40
0.50187440244039
40
0.50187440244039
40
0.538173713528863
40
0.538173713528863
40
0.610772335705809
40
0.610772335705809
40
0.683370957882756
40
0.683370957882756
40
0.701520613426993
40
0.701520613426993
40
0.71967026897123
40
0.71967026897123
40
0.721938975914259
40
0.721938975914259
40
0.723073329385774
40
0.723073329385774
40
0.723640506121531
40
0.723640506121531
40
0.72392409448941
40
0.72392409448941
40
0.724207682857289
40
0.724207682857289
40
0.728745096743348
40
0.737819924515468
40
0.737819924515468
40
0.755969580059706
40
0.755969580059706
40
0.828568202236661
40
0.828568202236661
40
0.864867513325138
40
0.864867513325138
40
0.901166824413615
40
0.901166824413615
40
0.919316479957854
40
0.919316479957854
40
0.937466135502093
40
0.937466135502093
40
0.97376544659057
40
0.97376544659057
40
1
40
1
40
1
40
1
41
1
10
12.0647279680006
20
-0.505816135780464
30
0
41
1
10
11.963733389892
20
-0.451046837975923
30
0
41
1
10
11.8626880388424
20
-0.397530539266455
30
0
41
1
10
11.5165963696406
20
-0.219518192812728
30
0
41
1
10
11.270712061302
20
-0.102098193878391
30
0
41
1
10
10.7751367976958
20
0.10506438645254
30
0
41
1
10
10.5310616422407
20
0.192289206365331
30
0
41
1
10
10.04569206595
20
0.32720650023964
30
0
41
1
10
9.80436131392156
20
0.374889583918474
30
0
41
1
10
9.43956582322323
20
0.413144889326645
30
0
41
1
10
9.3169862373089
20
0.420366901940326
30
0
41
1
10
9.07249740010775
20
0.423323517792056
30
0
41
1
10
8.95102793568145
20
0.419111031034674
30
0
41
1
10
8.5875578951603
20
0.390249386344209
30
0
41
1
10
8.34646291847199
20
0.349405310250916
30
0
41
1
10
7.98183716021847
20
0.258845634018343
30
0
41
1
10
7.85980732181997
20
0.223770543736975
30
0
41
1
10
7.6754824845795
20
0.164149780905063
30
0
41
1
10
7.61397716098614
20
0.143155208719151
30
0
41
1
10
7.53706596451721
20
0.115601968607308
30
0
41
1
10
7.51783356218206
20
0.108630838776293
30
0
41
1
10
7.4966744228999
20
0.100851370544007
30
0
41
1
10
7.48994162019528
20
0.0983655034895889
30
0
41
1
10
7.48705605987595
20
0.0972978690862192
30
0
41
1
10
7.48513233629538
20
0.0965856103033218
30
0
41
1
10
7.48362358807537
20
0.0965267754713182
30
0
41
1
10
7.48330889417281
20
0.0947871245105887
30
0
41
1
10
7.48415934963185
20
0.0939356890666261
30
0
41
1
10
7.48547366335245
20
0.0924007499205572
30
0
41
1
10
7.48619717198017
20
0.091674634889074
30
0
41
1
10
7.48842333608073
20
0.0895437975719915
30
0
41
1
10
7.48999608404799
20
0.088186023497542
30
0
41
1
10
7.49479891566762
20
0.0841725235532351
30
0
41
1
10
7.49811967353801
20
0.0815899151812971
30
0
41
1
10
7.52827995635883
20
0.0586590619269032
30
0
41
1
10
7.55671198493613
20
0.0397689980996745
30
0
41
1
10
7.69814643827806
20
-0.0551346384107774
30
0
41
1
10
7.81366557984063
20
-0.12872241629168
30
0
41
1
10
8.0446111009008
20
-0.276186358728779
30
0
41
1
10
8.16047898104961
20
-0.34963157152518
30
0
41
1
10
8.50860081312487
20
-0.569853158778869
30
0
41
1
10
8.74080313874578
20
-0.717327675375515
30
0
41
1
10
9.20545267629038
20
-1.01353998563596
30
0
41
1
10
9.43794567945861
20
-1.16213708723728
30
0
41
1
10
9.72648213809612
20
-1.35195143166135
30
0
41
1
10
9.78408511448112
20
-1.39011709059935
30
0
41
1
10
9.89877233061961
20
-1.46736234341597
30
0
41
1
10
9.95627762653581
20
-1.50579996732046
30
0
41
1
10
10.0187054953247
20
-1.55250208076646
30
0
41
1
10
10.0256004136478
20
-1.55775471162824
30
0
41
1
10
10.0357274024047
20
-1.56596152094858
30
0
41
1
10
10.0390713680041
20
-1.56874188218964
30
0
41
1
10
10.0438887802044
20
-1.5731576415339
30
0
41
1
10
10.0454707329222
20
-1.57466065176669
30
0
41
1
10
10.0476356345758
20
-1.57712466951318
30
0
41
1
10
10.0483535780254
20
-1.57796905936036
30
0
41
1
10
10.0493316327686
20
-1.57994386627777
30
0
41
1
10
10.0485757555707
20
-1.58087878989875
30
0
41
1
10
10.0344613918832
20
-1.59267222637382
30
0
41
1
10
9.99462131028426
20
-1.62586790984827
30
0
41
1
10
9.9548174986914
20
-1.65873271467632
30
0
41
1
10
9.87527060741425
20
-1.72395338751099
30
0
41
1
10
9.82226039055371
20
-1.76680461851203
30
0
41
1
10
9.55763601704913
20
-1.97683875005373
30
0
41
1
10
9.34889465824438
20
-2.1305590058935
30
0
41
1
10
9.02987216240754
20
-2.32876570821631
30
0
41
1
10
8.92238376211407
20
-2.38934927120684
30
0
41
1
10
8.70725570027719
20
-2.49520312394145
30
0
41
1
10
8.5991182950234
20
-2.54079659976242
30
0
41
1
10
8.43443561831128
20
-2.59694811271103
30
0
41
1
10
8.37912778051492
20
-2.61362588450467
30
0
41
1
10
8.2674135337115
20
-2.64271587772743
30
0
41
1
10
8.21081297483062
20
-2.65515570986071
30
0
41
1
10
8.04085999700624
20
-2.68554047229321
30
0
41
1
10
7.92718361783733
20
-2.69664470952341
30
0
41
1
10
7.72957707664762
20
-2.70126216246024
30
0
41
1
10
7.64613862047975
20
-2.69880319641968
30
0
41
1
10
7.56202048581315
20
-2.69233067984109
30
0
0
SPLINE
5
B6
100
AcDbEntity
8
1
62
256
6
ByLayer
370
18
48
1
60
0
100
AcDbSpline
70
4
71
3
72
14
73
10
40
0
40
0
40
0
40
0
40
0.25
40
0.25
40
0.5
40
0.5
40
0.75
40
0.75
40
1
40
1
40
1
40
1
41
1
10
41.3892355700273
20
0.805574766421728
30
0
41
1
10
41.3830435345619
20
0.834483532718309
30
0
41
1
10
41.3806382270328
20
0.864062253108074
30
0
41
1
10
41.3849825619567
20
0.924967806059698
30
0
41
1
10
41.3917616791022
20
0.955499633408039
30
0
41
1
10
41.4177039997313
20
1.01328372812134
30
0
41
1
10
41.4367857779887
20
1.03952267922082
30
0
41
1
10
41.4863587253221
20
1.08038881827068
30
0
41
1
10
41.5160205974455
20
1.09380135115976
30
0
41
1
10
41.5469739946576
20
1.10119975607702
30
0
0
SPLINE
5
B7
100
AcDbEntity
8
1
62
256
6
ByLayer
370
18
48
1
60
0
100
AcDbSpline
70
4
71
3
72
12
73
8
40
0
40
0
40
0
40
0
40
0.364716977120029
40
0.364716977120029
40
0.729433954240059
40
0.729433954240059
40
1
40
1
40
1
40
1
41
1
10
4.01162957254658
20
3.58233342362325
30
0
41
1
10
4.01163570942177
20
3.61695297052543
30
0
41
1
10
4.01164065412729
20
3.64552916693577
30
0
41
1
10
4.01164856724498
20
3.69013791311068
30
0
41
1
10
4.01165151799563
20
3.70606246254181
30
0
41
1
10
4.01165540169845
20
3.72303676729507
30
0
41
1
10
4.01165666011298
20
3.72689042612041
30
0
41
1
10
4.01165762645081
20
3.72733442058677
30
0
0
SPLINE
5
B8
100
AcDbEntity
8
1
62
256
6
ByLayer
370
18
48
1
60
0
100
AcDbSpline
70
4
71
3
72
12
73
8
40
0
40
0
40
0
40
0
40
0.250000000000005
40
0.250000000000005
40
0.50000000000001
40
0.50000000000001
40
1
40
1
40
1
40
1
41
1
10
41.7384426170466
20
-3.6414002644714
30
0
41
1
10
41.7434510544393
20
-3.6280803479975
30
0
41
1
10
41.7481437838637
20
-3.61440798546883
30
0
41
1
10
41.7554455215953
20
-3.59001510556814
30
0
41
1
10
41.7580126169967
20
-3.57936346243574
30
0
41
1
10
41.7616460987203
20
-3.55656618329246
30
0
41
1
10
41.7591710499279
20
-3.55267931389136
30
0
41
1
10
41.754460711641
20
-3.55559760261627
30
0
0
SPLINE
5
B9
100
AcDbEntity
8
1
62
256
6
ByLayer
370
18
48
1
60
0
100
AcDbSpline
70
4
71
3
72
36
73
32
40
0
40
0
40
0
40
0
40
0.250000000000009
40
0.250000000000009
40
0.375000000000014
40
0.375000000000014
40
0.500000000000018
40
0.500000000000018
40
0.625000000000023
40
0.625000000000023
40
0.687500000000025
40
0.687500000000025
40
0.718750000000023
40
0.718750000000023
40
0.75000000000002
40
0.75000000000002
40
0.781250000000018
40
0.781250000000018
40
0.812500000000015
40
0.812500000000015
40
0.843750000000013
40
0.843750000000013
40
0.87500000000001
40
0.87500000000001
40
0.906250000000008
40
0.906250000000008
40
0.937500000000005
40
0.937500000000005
40
0.968750000000003
40
0.968750000000003
40
1
40
1
40
1
40
1
41
1
10
38.6378505802062
20
1.36442437615693
30
0
41
1
10
38.8937206852699
20
1.16098666392008
30
0
41
1
10
39.1538765891449
20
0.975713778159474
30
0
41
1
10
39.5530920023946
20
0.735871666274335
30
0
41
1
10
39.687757988715
20
0.662141747304162
30
0
41
1
10
39.9600871076136
20
0.52959565433224
30
0
41
1
10
40.0960787239013
20
0.47156683307
30
0
41
1
10
40.3676703515592
20
0.374177052890133
30
0
41
1
10
40.5030873041116
20
0.334926791513141
30
0
41
1
10
40.7029129739947
20
0.292847759968311
30
0
41
1
10
40.7690954362239
20
0.281586830311426
30
0
41
1
10
40.8676196363503
20
0.269148180346775
30
0
41
1
10
40.9002845996056
20
0.265752560520923
30
0
41
1
10
40.96521856134
20
0.260506482431623
30
0
41
1
10
40.9975470051245
20
0.258492148775531
30
0
41
1
10
41.0606614667811
20
0.259473711385254
30
0
41
1
10
41.0913274540257
20
0.262207919378909
30
0
41
1
10
41.1506841411298
20
0.272648502928149
30
0
41
1
10
41.1795300212968
20
0.280437600888007
30
0
41
1
10
41.2337482768472
20
0.301389472069133
30
0
41
1
10
41.2591969954102
20
0.314540882776868
30
0
41
1
10
41.3057012194679
20
0.347922641217735
30
0
41
1
10
41.3268940717631
20
0.368678378803111
30
0
41
1
10
41.3618625540732
20
0.417344369420817
30
0
41
1
10
41.3759464442054
20
0.444964592468011
30
0
41
1
10
41.3968979204492
20
0.507181269717705
30
0
41
1
10
41.4036161002035
20
0.541088917215347
30
0
41
1
10
41.4101700010145
20
0.612257233906348
30
0
41
1
10
41.4100427144186
20
0.650134377179626
30
0
41
1
10
41.4037559437165
20
0.726956426608183
30
0
41
1
10
41.3977121325218
20
0.766000224977375
30
0
41
1
10
41.3892355700273
20
0.805574766421728
30
0
0
SPLINE
5
BA
100
AcDbEntity
8
1
62
256
6
ByLayer
370
18
48
1
60
0
100
AcDbSpline
70
4
71
3
72
22
73
18
40
0
40
0
40
0
40
0
40
0.124999999999994
40
0.124999999999994
40
0.187499999999993
40
0.187499999999993
40
0.249999999999992
40
0.249999999999992
40
0.499999999999995
40
0.499999999999995
40
0.624999999999996
40
0.624999999999996
40
0.749999999999997
40
0.749999999999997
40
0.874999999999999
40
0.874999999999999
40
1
40
1
40
1
40
1
41
1
10
41.6988264704281
20
-3.57494489128217
30
0
41
1
10
41.6447287314081
20
-3.57489840188398
30
0
41
1
10
41.5933404676335
20
-3.56667084433423
30
0
41
1
10
41.5205361780543
20
-3.54141207040294
30
0
41
1
10
41.4969830101621
20
-3.53083380283587
30
0
41
1
10
41.4513687951889
20
-3.50517191484062
30
0
41
1
10
41.4292766196879
20
-3.49004088639518
30
0
41
1
10
41.3242578717936
20
-3.40394165639412
30
0
41
1
10
41.2561006626575
20
-3.30156452249335
30
0
41
1
10
41.1791926766736
20
-3.09449670801863
30
0
41
1
10
41.1577527435807
20
-3.01571694516707
30
0
41
1
10
41.1251839752037
20
-2.84412984728249
30
0
41
1
10
41.1138428816227
20
-2.75105894688309
30
0
41
1
10
41.1010022273931
20
-2.55042876178319
30
0
41
1
10
41.0995011697287
20
-2.44287168094081
30
0
41
1
10
41.1067715454316
20
-2.21263469247589
30
0
41
1
10
41.1155248670359
20
-2.09168982488285
30
0
41
1
10
41.1291298928503
20
-1.96643832837879
30
0
0
SPLINE
5
BB
100
AcDbEntity
8
1
62
256
6
ByLayer
370
18
48
1
60
0
100
AcDbSpline
70
4
71
3
72
30
73
26
40
0
40
0
40
0
40
0
40
0.111538693432899
40
0.111538693432899
40
0.223077386865797
40
0.223077386865797
40
0.278846733582246
40
0.278846733582246
40
0.334616080298696
40
0.334616080298696
40
0.446154773731592
40
0.446154773731592
40
0.501924120448041
40
0.501924120448041
40
0.557693467164489
40
0.557693467164489
40
0.669232160597384
40
0.669232160597384
40
0.725001507313831
40
0.725001507313831
40
0.780770854030277
40
0.780770854030277
40
0.892309547463172
40
0.892309547463172
40
1
40
1
40
1
40
1
41
1
10
7.5621107683408
20
-2.69233762515924
30
0
41
1
10
7.88779547122471
20
-2.81549690323121
30
0
41
1
10
8.21276726190357
20
-2.92555580504683
30
0
41
1
10
8.86192167949849
20
-3.12137307524725
30
0
41
1
10
9.18643930154417
20
-3.20696179198902
30
0
41
1
10
9.67487326641196
20
-3.31701755479088
30
0
41
1
10
9.83767667940606
20
-3.35056897369481
30
0
41
1
10
10.1624195635209
20
-3.40988318319677
30
0
41
1
10
10.324612136197
20
-3.43560174318361
30
0
41
1
10
10.8112245564576
20
-3.5014623972869
30
0
41
1
10
11.1358537159417
20
-3.53044984230999
30
0
41
1
10
11.6235387976976
20
-3.55278192579937
30
0
41
1
10
11.786305596174
20
-3.55675109278923
30
0
41
1
10
12.1113519766029
20
-3.55787721304887
30
0
41
1
10
12.2737909737468
20
-3.55493457374581
30
0
41
1
10
12.7606028485498
20
-3.53387238720515
30
0
41
1
10
13.0845498937711
20
-3.5044592968278
30
0
41
1
10
13.5723686998135
20
-3.43931194831069
30
0
41
1
10
13.735404431155
20
-3.41371039259775
30
0
41
1
10
14.0599668792699
20
-3.35594681179899
30
0
41
1
10
14.2217814742021
20
-3.32415572626113
30
0
41
1
10
14.7062447416529
20
-3.21822126819615
30
0
41
1
10
15.0282110645086
20
-3.13294884170279
30
0
41
1
10
15.659599316641
20
-2.94403987562353
30
0
41
1
10
15.9695051314309
20
-2.83855287353589
30
0
41
1
10
16.2800928019884
20
-2.7235889680683
30
0
0
SPLINE
5
BC
100
AcDbEntity
8
1
62
256
6
ByLayer
370
18
48
1
60
0
100
AcDbSpline
70
4
71
3
72
28
73
24
40
0
40
0
40
0
40
0
40
0.0610959624106888
40
0.0610959624106888
40
0.12816053652421
40
0.12816053652421
40
0.195225110637732
40
0.195225110637732
40
0.329354258864774
40
0.329354258864774
40
0.463483407091817
40
0.463483407091817
40
0.597612555318859
40
0.597612555318859
40
0.664677129432383
40
0.664677129432383
40
0.731741703545906
40
0.731741703545906
40
0.865870851772953
40
0.865870851772953
40
0.932935425886476
40
0.932935425886476
40
1
40
1
40
1
40
1
41
1
10
31.4133601466028
20
3.56824127886554
30
0
41
1
10
31.5602003375251
20
3.56779533683249
30
0
41
1
10
31.707239010211
20
3.56450321720817
30
0
41
1
10
32.0166548825534
20
3.55015784853484
30
0
41
1
10
32.1794653482127
20
3.53864762533701
30
0
41
1
10
32.5040562683046
20
3.50887372507066
30
0
41
1
10
32.6658742839525
20
3.49073732982194
30
0
41
1
10
33.1498747332878
20
3.42510182125306
30
0
41
1
10
33.4711839486378
20
3.36636673503469
30
0
41
1
10
34.1132633269531
20
3.22593846310255
30
0
41
1
10
34.4333648376489
20
3.14088607696718
30
0
41
1
10
35.0753905508201
20
2.9459574225053
30
0
41
1
10
35.3971246894664
20
2.83622624686819
30
0
41
1
10
35.8813474462791
20
2.65506716551988
30
0
41
1
10
36.0430558881961
20
2.59199689664132
30
0
41
1
10
36.3677193473431
20
2.46020018710644
30
0
41
1
10
36.5304676768756
20
2.39135208259063
30
0
41
1
10
37.0170240917373
20
2.17741863092576
30
0
41
1
10
37.3404186923521
20
2.02512815842016
30
0
41
1
10
37.8266296263898
20
1.78571758997381
30
0
41
1
10
37.9887753830785
20
1.70394709391223
30
0
41
1
10
38.3131989753215
20
1.53661824942898
30
0
41
1
10
38.4757949750302
20
1.45107206310243
30
0
41
1
10
38.6378505801953
20
1.36442437616279
30
0
0
SPLINE
5
BD
100
AcDbEntity
8
1
62
256
6
ByLayer
370
18
48
1
60
0
100
AcDbSpline
70
4
71
3
72
30
73
26
40
0
40
0
40
0
40
0
40
0.0003207879479423
40
0.0003207879479423
40
0.0537909886650741
40
0.0537909886650741
40
0.107261189382206
40
0.107261189382206
40
0.321141992250742
40
0.321141992250742
40
0.374612192967878
40
0.374612192967878
40
0.428082393685012
40
0.428082393685012
40
0.535022795119279
40
0.535022795119279
40
0.748903597987816
40
0.748903597987816
40
0.802373798704952
40
0.802373798704952
40
0.855843999422088
40
0.855843999422088
40
0.962784400856363
40
0.962784400856363
40
1
40
1
40
1
40
1
41
1
10
26.4909447100253
20
2.5382919139081
30
0
41
1
10
26.4921203488318
20
2.53778889136251
30
0
41
1
10
26.4932960087026
20
2.53728572123117
30
0
41
1
10
26.6904388346618
20
2.45288742850454
30
0
41
1
10
26.8873385184671
20
2.36483561290729
30
0
41
1
10
27.2814337239877
20
2.18150451202879
30
0
41
1
10
27.477676560289
20
2.08668947651245
30
0
41
1
10
28.4562238846692
20
1.59902018135676
30
0
41
1
10
29.2304581990274
20
1.16532331622506
30
0
41
1
10
30.2053163060982
20
0.597504569523807
30
0
41
1
10
30.4006847609915
20
0.482732925572861
30
0
41
1
10
30.792502898296
20
0.251205457284641
30
0
41
1
10
30.9892027014598
20
0.134327276526591
30
0
41
1
10
31.5802860594927
20
-0.216875827525229
30
0
41
1
10
31.9711875137593
20
-0.449060529258446
30
0
41
1
10
33.1397107699106
20
-1.13135676103124
30
0
41
1
10
33.9131518492424
20
-1.5671597526634
30
0
41
1
10
34.8911277005038
20
-2.05853272695813
30
0
41
1
10
35.0872564829746
20
-2.15417939415377
30
0
41
1
10
35.4810735547923
20
-2.33941256704571
30
0
41
1
10
35.6779833398271
20
-2.42861153542981
30
0
41
1
10
36.2656565388836
20
-2.68344981786231
30
0
41
1
10
36.6548851846627
20
-2.83715279149698
30
0
41
1
10
37.1786950604336
20
-3.02017798881931
30
0
41
1
10
37.3138428080975
20
-3.0652619350077
30
0
41
1
10
37.448985197712
20
-3.10811098572108
30
0
0
SPLINE
5
BE
100
AcDbEntity
8
1
62
256
6
ByLayer
370
13
48
1
60
0
100
AcDbSpline
70
4
71
3
72
14
73
10
40
0
40
0
40
0
40
0
40
0.452354520732461
40
0.452354520732461
40
0.589265890549346
40
0.589265890549346
40
0.72617726036623
40
0.72617726036623
40
1
40
1
40
1
40
1
41
1
10
37.4489842446317
20
-3.10811068353169
30
0
41
1
10
38.0905154887897
20
-3.31151844944
30
0
41
1
10
38.7319259867714
20
-3.46456344384501
30
0
41
1
10
39.5777192867528
20
-3.58875132829604
30
0
41
1
10
39.7750927032104
20
-3.61228881462284
30
0
41
1
10
40.1683474799417
20
-3.64815418811273
30
0
41
1
10
40.364653969662
20
-3.66055117301139
30
0
41
1
10
40.9532580588671
20
-3.68104443348301
30
0
41
1
10
41.3452614028952
20
-3.67235787537552
30
0
41
1
10
41.7384426170673
20
-3.64140026446978
30
0
0
SPLINE
5
BF
100
AcDbEntity
8
1
62
256
6
ByLayer
370
18
48
1
60
0
100
AcDbSpline
70
4
71
3
72
14
73
10
40
0
40
0
40
0
40
0
40
0.141671647791631
40
0.141671647791631
40
0.287125143365499
40
0.287125143365499
40
0.86893912566097
40
0.86893912566097
40
1
40
1
40
1
40
1
41
1
10
21.8132902165853
20
-3.56257743530173
30
0
41
1
10
21.6220024633167
20
-3.56428106031552
30
0
41
1
10
21.4306664923377
20
-3.56084151531815
30
0
41
1
10
21.0423748702441
20
-3.54348080223352
30
0
41
1
10
20.8450525301763
20
-3.52922987718688
30
0
41
1
10
19.8626729708435
20
-3.43155669791744
30
0
41
1
10
19.0873740137644
20
-3.26929736026293
30
0
41
1
10
18.1333837417222
20
-2.98077499897778
30
0
41
1
10
17.9578358579857
20
-2.92401251272074
30
0
41
1
10
17.7819665648766
20
-2.86366237738406
30
0
0
SPLINE
5
C0
100
AcDbEntity
8
1
62
256
6
ByLayer
370
13
48
1
60
0
100
AcDbSpline
70
4
71
3
72
26
73
22
40
0
40
0
40
0
40
0
40
0.0678073286557483
40
0.0678073286557483
40
0.129509252853173
40
0.129509252853173
40
0.191211177050598
40
0.191211177050598
40
0.438018873840297
40
0.438018873840297
40
0.499720798037723
40
0.499720798037723
40
0.561422722235148
40
0.561422722235148
40
0.68482657063
40
0.68482657063
40
0.9316342674197
40
0.9316342674197
40
0.993336191617126
40
0.993336191617126
40
1
40
1
40
1
40
1
41
1
10
17.7819665646105
20
-2.86366237729277
30
0
41
1
10
17.5674706389608
20
-2.79005738398192
30
0
41
1
10
17.3524966156759
20
-2.71111574934508
30
0
41
1
10
16.9404267244141
20
-2.55059975395278
30
0
41
1
10
16.7429705163677
20
-2.46969416447007
30
0
41
1
10
16.3499883011457
20
-2.30138097887684
30
0
41
1
10
16.1541837301036
20
-2.21387566389342
30
0
41
1
10
15.177258281349
20
-1.76162521028147
30
0
41
1
10
14.4027511845792
20
-1.35235227799396
30
0
41
1
10
13.42661947113
20
-0.80843688884957
30
0
41
1
10
13.2309588954853
20
-0.698085320053906
30
0
41
1
10
12.8383380631194
20
-0.474940371921235
30
0
41
1
10
12.6408875534765
20
-0.361855601917711
30
0
41
1
10
12.0511261669359
20
-0.0230302708192482
30
0
41
1
10
11.6606811973588
20
0.202788888669602
30
0
41
1
10
10.4922905302471
20
0.871162825820562
30
0
41
1
10
9.71693899878326
20
1.30382509881753
30
0
41
1
10
8.73566721367854
20
1.80010006900304
30
0
41
1
10
8.53822908105525
20
1.89730362503696
30
0
41
1
10
8.32038516907039
20
2.00113152724128
30
0
41
1
10
8.2991599217759
20
2.01121189807796
30
0
41
1
10
8.27794304629901
20
2.021251911794
30
0
0
SPLINE
5
C1
100
AcDbEntity
8
1
62
256
6
ByLayer
370
18
48
1
60
0
100
AcDbSpline
70
4
71
3
72
20
73
16
40
0
40
0
40
0
40
0
40
0.124999999999998
40
0.124999999999998
40
0.249999999999996
40
0.249999999999996
40
0.374999999999994
40
0.374999999999994
40
0.499999999999992
40
0.499999999999992
40
0.749999999999996
40
0.749999999999996
40
0.874999999999998
40
0.874999999999998
40
1
40
1
40
1
40
1
41
1
10
42.4799373756206
20
-1.84056990708609
30
0
41
1
10
42.4515997743779
20
-1.91695597256663
30
0
41
1
10
42.4231837850903
20
-1.99324936145524
30
0
41
1
10
42.3663123188543
20
-2.14578945377335
30
0
41
1
10
42.3378242562271
20
-2.22199763181749
30
0
41
1
10
42.2806605712525
20
-2.37419223986095
30
0
41
1
10
42.2519998653913
20
-2.45019630531871
30
0
41
1
10
42.194445552053
20
-2.60192908138811
30
0
41
1
10
42.1655242749256
20
-2.67764201966517
30
0
41
1
10
42.0787965715465
20
-2.90460399243779
30
0
41
1
10
42.0208819320383
20
-3.05541463347296
30
0
41
1
10
41.9334250425323
20
-3.27860566103374
30
0
41
1
10
41.9042304989776
20
-3.3527841919539
30
0
41
1
10
41.8457294241012
20
-3.50056211532908
30
0
41
1
10
41.816408494757
20
-3.57408704921761
30
0
41
1
10
41.7869137738973
20
-3.64671323001829
30
0
0
SPLINE
5
C2
100
AcDbEntity
8
1
62
256
6
ByLayer
370
18
48
1
60
0
100
AcDbSpline
70
4
71
3
72
8
73
4
40
0
40
0
40
0
40
0
40
1
40
1
40
1
40
1
41
1
10
41.7092100668645
20
-3.71900800622967
30
0
41
1
10
41.7189649554021
20
-3.69315565979582
30
0
41
1
10
41.7287093524218
20
-3.66728583753968
30
0
41
1
10
41.7384426170672
20
-3.64140026446975
30
0
0
SPLINE
5
C3
100
AcDbEntity
8
1
62
256
6
ByLayer
370
18
48
1
60
0
100
AcDbSpline
70
4
71
3
72
86
73
82
40
0
40
0
40
0
40
0
40
0.0180674278811674
40
0.0180674278811674
40
0.0373702334486072
40
0.0373702334486072
40
0.056673039016047
40
0.056673039016047
40
0.0952786501509259
40
0.0952786501509259
40
0.114581455718366
40
0.114581455718366
40
0.133884261285805
40
0.133884261285805
40
0.153187066853245
40
0.153187066853245
40
0.172489872420685
40
0.172489872420685
40
0.211095483555564
40
0.211095483555564
40
0.230398289123004
40
0.230398289123004
40
0.249701094690444
40
0.249701094690444
40
0.269003900257884
40
0.269003900257884
40
0.288306705825323
40
0.288306705825323
40
0.326912316960202
40
0.326912316960202
40
0.346215122527641
40
0.346215122527641
40
0.36551792809508
40
0.36551792809508
40
0.404123539229959
40
0.404123539229959
40
0.442729150364838
40
0.442729150364838
40
0.481334761499717
40
0.481334761499717
40
0.500637567067156
40
0.500637567067156
40
0.519940372634596
40
0.519940372634596
40
0.539243178202035
40
0.539243178202035
40
0.558545983769475
40
0.558545983769475
40
0.597151594904352
40
0.597151594904352
40
0.61645440047179
40
0.61645440047179
40
0.635757206039228
40
0.635757206039228
40
0.655060011606666
40
0.655060011606666
40
0.674362817174104
40
0.674362817174104
40
0.712968428308982
40
0.712968428308982
40
0.732271233876421
40
0.732271233876421
40
0.75157403944386
40
0.75157403944386
40
0.770876845011298
40
0.770876845011298
40
0.790179650578737
40
0.790179650578737
40
0.828785261713615
40
0.828785261713615
40
0.848088067281053
40
0.848088067281053
40
0.867390872848492
40
0.867390872848492
40
0.90599648398337
40
0.90599648398337
40
0.944602095118247
40
0.944602095118247
40
0.983207706253125
40
0.983207706253125
40
1
40
1
40
1
40
1
41
1
10
16.2767751808191
20
2.72540183506138
30
0
41
1
10
16.4226266932959
20
2.78591368089047
30
0
41
1
10
16.5683040440701
20
2.84369539400319
30
0
41
1
10
16.8689807566291
20
2.95805781953726
30
0
41
1
10
17.0239651150351
20
3.01425140948973
30
0
41
1
10
17.3330953650813
20
3.12109379854172
30
0
41
1
10
17.4870590328826
20
3.17188568718356
30
0
41
1
10
17.9494901232413
20
3.31426090398364
30
0
41
1
10
18.258227748378
20
3.39631228976336
30
0
41
1
10
18.7207024623808
20
3.50109158687803
30
0
41
1
10
18.8746289587049
20
3.53298730917041
30
0
41
1
10
19.183651616927
20
3.58974602401201
30
0
41
1
10
19.3385954636543
20
3.61472332597776
30
0
41
1
10
19.6491128318497
20
3.65797313791262
30
0
41
1
10
19.8047102451764
20
3.67623718242109
30
0
41
1
10
20.1163388590476
20
3.70593064040833
30
0
41
1
10
20.272420127851
20
3.7173090045379
30
0
41
1
10
20.7394611596523
20
3.7403811619767
30
0
41
1
10
21.0497947741564
20
3.74154624309966
30
0
41
1
10
21.5125193181518
20
3.72228782716027
30
0
41
1
10
21.6664301031604
20
3.71232582116062
30
0
41
1
10
21.9747638438988
20
3.68564460310648
30
0
41
1
10
22.1289874895318
20
3.66890432468381
30
0
41
1
10
22.4373858991475
20
3.62861258141152
30
0
41
1
10
22.5915595349031
20
3.60506200460989
30
0
41
1
10
22.8996385379087
20
3.55090963218203
30
0
41
1
10
23.0538016635741
20
3.52041176625732
30
0
41
1
10
23.5179400151437
20
3.41942838268537
30
0
41
1
10
23.8288562543874
20
3.33920217532835
30
0
41
1
10
24.2966814993796
20
3.19793897906482
30
0
41
1
10
24.452523110502
20
3.14784494212463
30
0
41
1
10
24.7635286726534
20
3.04257242031792
30
0
41
1
10
24.9187328468393
20
2.98724478161046
30
0
41
1
10
25.3832144742424
20
2.81304286147014
30
0
41
1
10
25.6907487767385
20
2.68516391686421
30
0
41
1
10
26.3074184845056
20
2.41286572919969
30
0
41
1
10
26.6156495515534
20
2.2674920403021
30
0
41
1
10
27.231989269245
20
1.95798161005982
30
0
41
1
10
27.5419275901793
20
1.79644095265172
30
0
41
1
10
28.0085313034456
20
1.54242010555552
30
0
41
1
10
28.1644761077202
20
1.45535500109855
30
0
41
1
10
28.4761442400526
20
1.27883162657412
30
0
41
1
10
28.6317718070492
20
1.18999567880036
30
0
41
1
10
28.9423771632535
20
1.0108009931495
30
0
41
1
10
29.0973602939929
20
0.920450918591058
30
0
41
1
10
29.4065180721586
20
0.737967411769944
30
0
41
1
10
29.5605091929639
20
0.645527468121202
30
0
41
1
10
30.022549038351
20
0.367656148988772
30
0
41
1
10
30.3310954499818
20
0.182407355043949
30
0
41
1
10
30.7933381744972
20
-0.0977291996323686
30
0
41
1
10
30.9471496178627
20
-0.191781092893166
30
0
41
1
10
31.2557117422732
20
-0.37874167186925
30
0
41
1
10
31.4104670984661
20
-0.471640062826736
30
0
41
1
10
31.7206016053862
20
-0.656822338390214
30
0
41
1
10
31.8760097457814
20
-0.749057079465445
30
0
41
1
10
32.1873145199785
20
-0.933154598965672
30
0
41
1
10
32.3433461844899
20
-1.02542014321037
30
0
41
1
10
32.8104061681967
20
-1.29606169049612
30
0
41
1
10
33.1207998860555
20
-1.46988071518825
30
0
41
1
10
33.5836852071302
20
-1.72294473038144
30
0
41
1
10
33.7374785942625
20
-1.80606209190378
30
0
41
1
10
34.0456184836409
20
-1.96754917491501
30
0
41
1
10
34.1997656106341
20
-2.04622922836273
30
0
41
1
10
34.5080160880841
20
-2.19977967709878
30
0
41
1
10
34.6621399752714
20
-2.27462278176978
30
0
41
1
10
34.9700962137562
20
-2.42076243066947
30
0
41
1
10
35.1240172061042
20
-2.49192354627263
30
0
41
1
10
35.5875838921383
20
-2.69717033350568
30
0
41
1
10
35.8982252555946
20
-2.82415988231986
30
0
41
1
10
36.3654619558376
20
-3.00069584818607
30
0
41
1
10
36.5214087952001
20
-3.05684108453627
30
0
41
1
10
36.8324398074028
20
-3.1621013255729
30
0
41
1
10
36.9876645878099
20
-3.21152994672673
30
0
41
1
10
37.4522362881753
20
-3.35059506715692
30
0
41
1
10
37.7597353533133
20
-3.43144876246072
30
0
41
1
10
38.3760652651433
20
-3.56560117461891
30
0
41
1
10
38.6843046358923
20
-3.61951857472741
30
0
41
1
10
39.3000890569559
20
-3.70088338990249
30
0
41
1
10
39.6095401136839
20
-3.72762696044899
30
0
41
1
10
40.055451511631
20
-3.74600691767023
30
0
41
1
10
40.190877625661
20
-3.74888277503032
30
0
41
1
10
40.3263965042903
20
-3.74906260680834
30
0
0
SPLINE
5
C4
100
AcDbEntity
8
1
62
256
6
ByLayer
370
18
48
1
60
0
100
AcDbSpline
70
4
71
3
72
24
73
20
40
0
40
0
40
0
40
0
40
0.125000000000011
40
0.125000000000011
40
0.187500000000014
40
0.187500000000014
40
0.250000000000018
40
0.250000000000018
40
0.375000000000021
40
0.375000000000021
40
0.437500000000023
40
0.437500000000023
40
0.500000000000024
40
0.500000000000024
40
0.750000000000012
40
0.750000000000012
40
0.875000000000006
40
0.875000000000006
40
1
40
1
40
1
40
1
41
1
10
38.6378505802059
20
1.36442437615653
30
0
41
1
10
38.673972648777
20
1.20047908022244
30
0
41
1
10
38.7248564706251
20
1.03618412241846
30
0
41
1
10
38.8206057680826
20
0.789281599445161
30
0
41
1
10
38.855975432883
20
0.706496906162045
30
0
41
1
10
38.9319395408496
20
0.542951192896027
30
0
41
1
10
38.9724153414385
20
0.462356759766976
30
0
41
1
10
39.1005261771437
20
0.223731726589278
30
0
41
1
10
39.1948017528737
20
0.0688391234486971
30
0
41
1
10
39.3474426490508
20
-0.158194194777991
30
0
41
1
10
39.4001674514171
20
-0.232897413567969
30
0
41
1
10
39.5076939036371
20
-0.378738927576421
30
0
41
1
10
39.5626694602352
20
-0.450139959119781
30
0
41
1
10
39.8430558709199
20
-0.800239737619222
30
0
41
1
10
40.0848065154339
20
-1.05845562468267
30
0
41
1
10
40.4673178701455
20
-1.42085198653717
30
0
41
1
10
40.5974104789811
20
-1.5367415508446
30
0
41
1
10
40.8606550072293
20
-1.75856158275428
30
0
41
1
10
40.9940662994655
20
-1.86470233929498
30
0
41
1
10
41.1291298928503
20
-1.96643832837876
30
0
0
SPLINE
5
C5
100
AcDbEntity
8
1
62
256
6
ByLayer
370
18
48
1
60
0
100
AcDbSpline
70
4
71
3
72
8
73
4
40
0
40
0
40
0
40
0
40
1
40
1
40
1
40
1
41
1
10
4.03235636289031
20
3.56046757820076
30
0
41
1
10
4.01912809158196
20
3.56738700048663
30
0
41
1
10
4.01162825427846
20
3.57489675480855
30
0
41
1
10
4.01162957254661
20
3.58233342362058
30
0
0
SPLINE
5
C6
100
AcDbEntity
8
1
62
256
6
ByLayer
370
13
48
1
60
0
100
AcDbSpline
70
4
71
3
72
26
73
22
40
0
40
0
40
0
40
0
40
0.0708433072663224
40
0.148273031660796
40
0.148273031660796
40
0.225702756055269
40
0.225702756055269
40
0.303132480449742
40
0.303132480449742
40
0.380562204844215
40
0.380562204844215
40
0.535421653633161
40
0.535421653633161
40
0.612851378027634
40
0.612851378027634
40
0.690281102422108
40
0.767710826816581
40
0.767710826816581
40
0.845140551211054
40
0.845140551211054
40
1
40
1
40
1
40
1
41
1
10
4.25041056747261
20
-3.55278572233735
30
0
41
1
10
4.25041310940742
20
-3.55292974203081
30
0
41
1
10
4.2504163192053
20
-3.54269740954507
30
0
41
1
10
4.25041750422125
20
-3.51072465899716
30
0
41
1
10
4.250418946504
20
-3.46529369121367
30
0
41
1
10
4.25041977669417
20
-3.43639354694551
30
0
41
1
10
4.25042284118481
20
-3.36695092501395
30
0
41
1
10
4.25042507210446
20
-3.32647951421421
30
0
41
1
10
4.25043194603373
20
-3.23403384609011
30
0
41
1
10
4.25043660276049
20
-3.18203252454134
30
0
41
1
10
4.25045506787541
20
-3.01158127413589
30
0
41
1
10
4.25047350085933
20
-2.87808588212127
30
0
41
1
10
4.2505124790965
20
-2.64801816171487
30
0
41
1
10
4.25052743022553
20
-2.56586322320814
30
0
41
1
10
4.25056061339171
20
-2.39384787387567
30
0
41
1
10
4.25059704110268
20
-2.21417976296331
30
0
41
1
10
4.25063913741144
20
-2.01941031444235
30
0
41
1
10
4.25068346637937
20
-1.81695839958391
30
0
41
1
10
4.2507066648235
20
-1.7122580421541
30
0
41
1
10
4.2507768832954
20
-1.39284309026635
30
0
41
1
10
4.2508250220717
20
-1.17104882803156
30
0
41
1
10
4.2508697657625
20
-0.940344961015711
30
0
0
SPLINE
5
C7
100
AcDbEntity
8
1
62
256
6
ByLayer
370
18
48
1
60
0
100
AcDbSpline
70
4
71
3
72
12
73
8
40
0
40
0
40
0
40
0
40
0.499999999999998
40
0.499999999999998
40
0.749999999999999
40
0.749999999999999
40
1
40
1
40
1
40
1
41
1
10
7.56191195288187
20
-2.69226065779873
30
0
41
1
10
6.99545808170978
20
-2.47898313073077
30
0
41
1
10
6.43911103120325
20
-2.22561766138452
30
0
41
1
10
5.61062747883477
20
-1.78922397399322
30
0
41
1
10
5.33553783436889
20
-1.6345120355937
30
0
41
1
10
4.78739031809124
20
-1.3028219287925
30
0
41
1
10
4.51652311306646
20
-1.12739414878405
30
0
41
1
10
4.2508697681281
20
-0.940344961338553
30
0
0
SPLINE
5
C8
100
AcDbEntity
8
1
62
256
6
ByLayer
370
18
48
1
60
0
100
AcDbSpline
70
4
71
3
72
10
73
6
40
0
40
0
40
0
40
0
40
0.5
40
0.5
40
1
40
1
40
1
40
1
41
1
10
4.12084252681859
20
-3.5325187671979
30
0
41
1
10
4.10234659295745
20
-3.53606964085347
30
0
41
1
10
4.08567479981537
20
-3.5402506176342
30
0
41
1
10
4.05586749985758
20
-3.54970520193979
30
0
41
1
10
4.04283232498892
20
-3.55498782925625
30
0
41
1
10
4.03235636289028
20
-3.56046757819152
30
0
0
SPLINE
5
C9
100
AcDbEntity
8
1
62
256
6
ByLayer
370
18
48
1
60
0
100
AcDbSpline
70
4
71
3
72
84
73
80
40
0
40
0
40
0
40
0
40
0.0187231008165775
40
0.0187231008165775
40
0.0391633302112351
40
0.0391633302112351
40
0.080043789000549
40
0.080043789000549
40
0.100484018395207
40
0.100484018395207
40
0.120924247789864
40
0.120924247789864
40
0.141364477184522
40
0.141364477184522
40
0.161804706579179
40
0.161804706579179
40
0.182244935973837
40
0.182244935973837
40
0.202685165368494
40
0.202685165368494
40
0.243565624157808
40
0.243565624157808
40
0.264005853552465
40
0.264005853552465
40
0.284446082947122
40
0.284446082947122
40
0.325326541736436
40
0.325326541736436
40
0.345766771131093
40
0.345766771131093
40
0.366207000525751
40
0.366207000525751
40
0.407087459315068
40
0.407087459315068
40
0.447967918104384
40
0.447967918104384
40
0.4888483768937
40
0.4888483768937
40
0.509288606288359
40
0.509288606288359
40
0.529728835683017
40
0.529728835683017
40
0.550169065077675
40
0.550169065077675
40
0.570609294472334
40
0.570609294472334
40
0.611489753261649
40
0.611489753261649
40
0.652370212050965
40
0.652370212050965
40
0.672810441445623
40
0.672810441445623
40
0.693250670840281
40
0.693250670840281
40
0.713690900234939
40
0.713690900234939
40
0.734131129629597
40
0.734131129629597
40
0.754571359024255
40
0.754571359024255
40
0.775011588418912
40
0.775011588418912
40
0.79545181781357
40
0.79545181781357
40
0.815892047208228
40
0.815892047208228
40
0.836332276602886
40
0.836332276602886
40
0.856772505997544
40
0.856772505997544
40
0.89765296478686
40
0.89765296478686
40
0.918093194181518
40
0.918093194181518
40
0.938533423576176
40
0.938533423576176
40
0.979413882365492
40
0.979413882365492
40
1
40
1
40
1
40
1
41
1
10
35.702486713416
20
-2.72197384325759
30
0
41
1
10
35.5537710907433
20
-2.7774461069219
30
0
41
1
10
35.4048394110689
20
-2.83083834414037
30
0
41
1
10
35.0938035740603
20
-2.93702302514779
30
0
41
1
10
34.9315386361094
20
-2.98944061500717
30
0
41
1
10
34.4452585938441
20
-3.13763411446448
30
0
41
1
10
34.1216864476299
20
-3.22397058058004
30
0
41
1
10
33.6342824948697
20
-3.33075721648646
30
0
41
1
10
33.4714404972449
20
-3.36326273865356
30
0
41
1
10
33.1466522987934
20
-3.42175382487761
30
0
41
1
10
32.984491842786
20
-3.44760577913417
30
0
41
1
10
32.6603458150084
20
-3.49140844524791
30
0
41
1
10
32.4982349262364
20
-3.5094875933114
30
0
41
1
10
32.1738380681786
20
-3.53908104024006
30
0
41
1
10
32.0116488381134
20
-3.55047648640479
30
0
41
1
10
31.687056023181
20
-3.56534949019758
30
0
41
1
10
31.5243565167519
20
-3.56850693368986
30
0
41
1
10
31.1996125053689
20
-3.5680579198301
30
0
41
1
10
31.0375437933523
20
-3.56460898190875
30
0
41
1
10
30.5525748848632
20
-3.54312759336168
30
0
41
1
10
30.2312816990667
20
-3.51273851348623
30
0
41
1
10
29.7493246393692
20
-3.4483929070559
30
0
41
1
10
29.5886931204311
20
-3.42358173163851
30
0
41
1
10
29.2676149980409
20
-3.36637530161545
30
0
41
1
10
29.1071725914646
20
-3.33378820966581
30
0
41
1
10
28.6254036882393
20
-3.22741138662198
30
0
41
1
10
28.3034347578272
20
-3.14382944482648
30
0
41
1
10
27.8185106676955
20
-2.99724985728289
30
0
41
1
10
27.6565737478188
20
-2.94545854101071
30
0
41
1
10
27.331738102611
20
-2.83554501713439
30
0
41
1
10
27.168905935083
20
-2.77751394456214
30
0
41
1
10
26.6815414326569
20
-2.59497300510148
30
0
41
1
10
26.357588551704
20
-2.46220415767999
30
0
41
1
10
25.7089543038109
20
-2.17730749424822
30
0
41
1
10
25.3832824988768
20
-2.02512443575736
30
0
41
1
10
24.7334366635401
20
-1.70533418761141
30
0
41
1
10
24.4092577744807
20
-1.53763229836935
30
0
41
1
10
23.9225748000026
20
-1.27847946910654
30
0
41
1
10
23.7604286500103
20
-1.19046696955013
30
0
41
1
10
23.4357247616096
20
-1.01180483603619
30
0
41
1
10
23.2730498526792
20
-0.921065440527087
30
0
41
1
10
22.9477193287546
20
-0.73867846000914
30
0
41
1
10
22.7851890307261
20
-0.646949827079681
30
0
41
1
10
22.4606543273104
20
-0.4618629353985
30
0
41
1
10
22.2985567150344
20
-0.368659014061961
30
0
41
1
10
21.8121680084261
20
-0.0882820559588708
30
0
41
1
10
21.487265887585
20
0.0990147538794304
30
0
41
1
10
20.8364807870366
20
0.473614237713093
30
0
41
1
10
20.5120686612674
20
0.659356523962117
30
0
41
1
10
20.0251286702908
20
0.931698213465438
30
0
41
1
10
19.862901826439
20
1.02170761757887
30
0
41
1
10
19.5382786941678
20
1.1998173364762
30
0
41
1
10
19.3759091897681
20
1.28796983308618
30
0
41
1
10
19.0504518429717
20
1.46113737714165
30
0
41
1
10
18.8876427875243
20
1.54577773187995
30
0
41
1
10
18.562632708445
20
1.71205501544608
30
0
41
1
10
18.4003802351555
20
1.79379110429954
30
0
41
1
10
18.0759220318075
20
1.95344322848979
30
0
41
1
10
17.9137769318841
20
2.03126057292087
30
0
41
1
10
17.5889962608893
20
2.18141588360368
30
0
41
1
10
17.4264097533695
20
2.25443891509801
30
0
41
1
10
17.1011125200328
20
2.39668602637656
30
0
41
1
10
16.9382813947435
20
2.46585466087413
30
0
41
1
10
16.6142166288198
20
2.59733647345942
30
0
41
1
10
16.4526578129953
20
2.65960452463443
30
0
41
1
10
16.1298221610476
20
2.77931192060083
30
0
41
1
10
15.9686767964739
20
2.83654993149997
30
0
41
1
10
15.6470391910921
20
2.94518310482877
30
0
41
1
10
15.4864828728022
20
2.99610495210464
30
0
41
1
10
15.0049548525903
20
3.13930454055966
30
0
41
1
10
14.6837788880926
20
3.22377496584844
30
0
41
1
10
14.2016081185094
20
3.32821380090269
30
0
41
1
10
14.0407398542994
20
3.3596033812826
30
0
41
1
10
13.7183275858438
20
3.41648698961944
30
0
41
1
10
13.55673769321
20
3.44161404221978
30
0
41
1
10
13.0707919013634
20
3.50583616491926
30
0
41
1
10
12.7450073500935
20
3.5350521778889
30
0
41
1
10
12.2567993647303
20
3.55539653143225
30
0
41
1
10
12.0933945870704
20
3.55823072467462
30
0
41
1
10
11.9300090679722
20
3.5574152415073
30
0
0
SPLINE
5
CA
100
AcDbEntity
8
1
62
256
6
ByLayer
370
18
48
1
60
0
100
AcDbSpline
70
4
71
3
72
10
73
6
40
0
40
0
40
0
40
0
40
0.5
40
0.5
40
1
40
1
40
1
40
1
41
1
10
4.12084252681862
20
3.5325187671979
30
0
41
1
10
4.10234659295747
20
3.53606964085347
30
0
41
1
10
4.08567479981537
20
3.54025061763423
30
0
41
1
10
4.05586749985758
20
3.54970520193979
30
0
41
1
10
4.04283232498895
20
3.55498782925625
30
0
41
1
10
4.03235636289031
20
3.56046757819152
30
0
0
SPLINE
5
CB
100
AcDbEntity
8
1
62
256
6
ByLayer
370
18
48
1
60
0
100
AcDbSpline
70
4
71
3
72
14
73
10
40
0
40
0
40
0
40
0
40
0.25
40
0.25
40
0.5
40
0.5
40
0.75
40
0.75
40
1
40
1
40
1
40
1
41
1
10
4.25086976576429
20
-0.940344959679095
30
0
41
1
10
4.22795905196142
20
-0.924213296048947
30
0
41
1
10
4.20460385853517
20
-0.910236307238108
30
0
41
1
10
4.15671343442836
20
-0.887994289194268
30
0
41
1
10
4.13274959139108
20
-0.880069902621273
30
0
41
1
10
4.08711564446122
20
-0.873541607345516
30
0
41
1
10
4.06656293139224
20
-0.875183470417142
30
0
41
1
10
4.03272969123441
20
-0.888473007399227
30
0
41
1
10
4.01998439898983
20
-0.899997145644278
30
0
41
1
10
4.01182410301087
20
-0.914581308088458
30
0
0
SPLINE
5
CC
100
AcDbEntity
8
1
62
256
6
ByLayer
370
18
48
1
60
0
100
AcDbSpline
70
4
71
3
72
8
73
4
40
0
40
0
40
0
40
0
40
1
40
1
40
1
40
1
41
1
10
41.7544607116436
20
-3.55559760261465
30
0
41
1
10
41.7336680068155
20
-3.5684797168752
30
0
41
1
10
41.7151094578264
20
-3.57496831027882
30
0
41
1
10
41.6988264704313
20
-3.57494489128217
30
0
0
SPLINE
5
CD
100
AcDbEntity
8
1
62
256
6
ByLayer
370
18
48
1
60
0
100
AcDbSpline
70
4
71
3
72
59
73
55
40
0
40
0
40
0
40
0
40
0.0625000000000011
40
0.0625000000000011
40
0.125000000000002
40
0.125000000000002
40
0.250000000000003
40
0.250000000000003
40
0.375000000000004
40
0.375000000000004
40
0.437500000000005
40
0.437500000000005
40
0.500000000000006
40
0.500000000000006
40
0.625000000000007
40
0.625000000000007
40
0.640625000000006
40
0.644531250000006
40
0.644531250000006
40
0.648437500000005
40
0.648437500000005
40
0.652343750000005
40
0.652343750000005
40
0.654296875000005
40
0.654296875000005
40
0.656250000000004
40
0.656250000000004
40
0.687500000000004
40
0.687500000000004
40
0.703125000000004
40
0.703125000000004
40
0.718750000000004
40
0.718750000000004
40
0.734375000000003
40
0.734375000000003
40
0.750000000000003
40
0.750000000000003
40
0.765625000000003
40
0.765625000000003
40
0.781250000000003
40
0.781250000000003
40
0.796875000000003
40
0.796875000000003
40
0.812500000000002
40
0.812500000000002
40
0.843750000000002
40
0.843750000000002
40
0.875000000000002
40
0.875000000000002
40
0.906250000000001
40
0.906250000000001
40
0.937500000000001
40
0.937500000000001
40
1
40
1
40
1
40
1
41
1
10
12.0647342128784
20
-0.505850585793496
30
0
41
1
10
11.7989160342917
20
-0.346055213951559
30
0
41
1
10
11.5313596313634
20
-0.188625969876853
30
0
41
1
10
10.9920160957678
20
0.120060112902877
30
0
41
1
10
10.7195911038889
20
0.271638360633091
30
0
41
1
10
9.89940548327297
20
0.711150219413582
30
0
41
1
10
9.3495323812817
20
0.983408917140054
30
0
41
1
10
8.23358232498867
20
1.4713478203343
30
0
41
1
10
7.66740351844379
20
1.68680366457019
30
0
41
1
10
6.79953344252945
20
1.96062108990148
30
0
41
1
10
6.50716705536749
20
2.04373963484397
30
0
41
1
10
5.91555851618551
20
2.19342742585522
30
0
41
1
10
5.61577933678103
20
2.26010106163611
30
0
41
1
10
4.70962610614228
20
2.43481411527506
30
0
41
1
10
4.09662477934296
20
2.51767464684559
30
0
41
1
10
3.40147133225219
20
2.57617282403066
30
0
41
1
10
3.30481349742772
20
2.58369429664651
30
0
41
1
10
3.20801806277143
20
2.59046667108134
30
0
41
1
10
3.16928884495093
20
2.59311573488245
30
0
41
1
10
3.14979888876527
20
2.59452152716983
30
0
41
1
10
3.11132970191119
20
2.59271224763066
30
0
41
1
10
3.09169313015985
20
2.59002007588148
30
0
41
1
10
3.06570832472613
20
2.58127741323756
30
0
41
1
10
3.05743064939387
20
2.57785126816185
30
0
41
1
10
3.04059392696189
20
2.57135898667363
30
0
41
1
10
3.03219205125475
20
2.56808549371542
30
0
41
1
10
2.88964633755683
20
2.51195942369097
30
0
41
1
10
2.7594655122353
20
2.45195072420614
30
0
41
1
10
2.57716445233842
20
2.34755221874292
30
0
41
1
10
2.51844818539078
20
2.31028470750889
30
0
41
1
10
2.40615504260751
20
2.2293892331098
30
0
41
1
10
2.35232910889818
20
2.18555078993472
30
0
41
1
10
2.25252353354625
20
2.09028154339165
30
0
41
1
10
2.20711348906326
20
2.03944020601671
30
0
41
1
10
2.12732171389342
20
1.92966101394455
30
0
41
1
10
2.09267306231342
20
1.86991751150188
30
0
41
1
10
2.03950538258337
20
1.74528869904046
30
0
41
1
10
2.02067286164481
20
1.68028911380992
30
0
41
1
10
1.99944986184357
20
1.54436893022262
30
0
41
1
10
1.9973537502965
20
1.47325075204284
30
0
41
1
10
2.00909668902875
20
1.33262468621228
30
0
41
1
10
2.0228337416022
20
1.26170940303902
30
0
41
1
10
2.06307244116761
20
1.12146650319769
30
0
41
1
10
2.08914619248728
20
1.05316998185435
30
0
41
1
10
2.18089633339599
20
0.852302667339075
30
0
41
1
10
2.26073284806495
20
0.722779928809558
30
0
41
1
10
2.43667202605298
20
0.478957198127603
30
0
41
1
10
2.53341878897359
20
0.363385754231501
30
0
41
1
10
2.73823103791978
20
0.140277842779398
30
0
41
1
10
2.84678996069505
20
0.032480079209023
30
0
41
1
10
3.06857953162063
20
-0.174061491038344
30
0
41
1
10
3.18220924351289
20
-0.273229220466817
30
0
41
1
10
3.52900705334525
20
-0.561673717462554
30
0
41
1
10
3.76796214644935
20
-0.742063695089882
30
0
41
1
10
4.01182410296997
20
-0.914581308059638
30
0
0
SPLINE
5
CE
100
AcDbEntity
8
1
62
256
6
ByLayer
370
18
48
1
60
0
100
AcDbSpline
70
4
71
3
72
26
73
22
40
0
40
0
40
0
40
0
40
0.10258976281902
40
0.10258976281902
40
0.159774671937111
40
0.159774671937111
40
0.216959581055202
40
0.216959581055202
40
0.445699217527564
40
0.445699217527564
40
0.560069035763745
40
0.560069035763745
40
0.617253944881836
40
0.617253944881836
40
0.674438853999926
40
0.674438853999926
40
0.903178490472291
40
0.903178490472291
40
0.960363399590384
40
0.960363399590384
40
1
40
1
40
1
40
1
41
1
10
6.66706098596308
20
2.70470385941394
30
0
41
1
10
7.01618285772389
20
2.56600454780684
30
0
41
1
10
7.36561146100243
20
2.41428098986259
30
0
41
1
10
7.91240071288661
20
2.15991921285396
30
0
41
1
10
8.1085819516847
20
2.06522647132698
30
0
41
1
10
8.50233826204783
20
1.86904538288403
30
0
41
1
10
8.69992272319087
20
1.76753218912612
30
0
41
1
10
9.68178688253914
20
1.25011525367972
30
0
41
1
10
10.4572471835853
20
0.80169191898878
30
0
41
1
10
11.6262567384339
20
0.112493850852388
30
0
41
1
10
12.0169459595295
20
-0.119887221882493
30
0
41
1
10
12.6073318102743
20
-0.467735771213086
30
0
41
1
10
12.8049589613227
20
-0.583654542832818
30
0
41
1
10
13.1978099132637
20
-0.812044603355275
30
0
41
1
10
13.3935641274463
20
-0.924830361853566
30
0
41
1
10
14.3701216234093
20
-1.47994830000707
30
0
41
1
10
15.1447566903255
20
-1.89522275982219
30
0
41
1
10
16.1224363737638
20
-2.35098536183528
30
0
41
1
10
16.3184130603149
20
-2.43900723409303
30
0
41
1
10
16.6514386736299
20
-2.58204921094566
30
0
41
1
10
16.7882282853452
20
-2.63892202860367
30
0
41
1
10
16.9247575339546
20
-2.6937221849837
30
0
0
SPLINE
5
CF
100
AcDbEntity
8
1
62
256
6
ByLayer
370
13
48
1
60
0
100
AcDbSpline
70
4
71
3
72
20
73
16
40
0
40
0
40
0
40
0
40
0.0299359879963895
40
0.0299359879963895
40
0.225041599758489
40
0.225041599758489
40
0.615252823282689
40
0.615252823282689
40
0.71280562916374
40
0.71280562916374
40
0.81035843504479
40
0.81035843504479
40
0.907911240925841
40
0.907911240925841
40
1
40
1
40
1
40
1
41
1
10
16.9247575339594
20
-2.6937221849856
30
0
41
1
10
16.9852031165147
20
-2.71798385353097
30
0
41
1
10
17.0455976653556
20
-2.74183926020112
30
0
41
1
10
17.4987581463463
20
-2.91786387570883
30
0
41
1
10
17.8889589166753
20
-3.0527576446913
30
0
41
1
10
19.0573247588577
20
-3.39988538750771
30
0
41
1
10
19.8328484205622
20
-3.55495912932273
30
0
41
1
10
20.8163359181902
20
-3.63983962997554
30
0
41
1
10
21.013846897662
20
-3.65133765520466
30
0
41
1
10
21.4075519559122
20
-3.66309749953621
30
0
41
1
10
21.6041420120204
20
-3.66340641918134
30
0
41
1
10
21.9972505611635
20
-3.65287526484613
30
0
41
1
10
22.1937672365969
20
-3.64204089182005
30
0
41
1
10
22.5761943845771
20
-3.61024345424772
30
0
41
1
10
22.7622966705749
20
-3.58985200564581
30
0
41
1
10
22.9483330666023
20
-3.56459189135592
30
0
0
SPLINE
5
D0
100
AcDbEntity
8
1
62
256
6
ByLayer
370
18
48
1
60
0
100
AcDbSpline
70
4
71
3
72
20
73
16
40
0
40
0
40
0
40
0
40
0.124999999999999
40
0.124999999999999
40
0.249999999999998
40
0.249999999999998
40
0.374999999999997
40
0.374999999999997
40
0.499999999999996
40
0.499999999999996
40
0.749999999999994
40
0.749999999999994
40
0.874999999999997
40
0.874999999999997
40
1
40
1
40
1
40
1
41
1
10
42.4799373756206
20
1.84056990708618
30
0
41
1
10
42.4515997743779
20
1.91695597256668
30
0
41
1
10
42.4231837850903
20
1.99324936145527
30
0
41
1
10
42.3663123188543
20
2.14578945377335
30
0
41
1
10
42.3378242562272
20
2.22199763181746
30
0
41
1
10
42.2806605712525
20
2.37419223986086
30
0
41
1
10
42.2519998653913
20
2.45019630531863
30
0
41
1
10
42.194445552053
20
2.60192908138797
30
0
41
1
10
42.1655242749256
20
2.677642019665
30
0
41
1
10
42.0787965715465
20
2.90460399243759
30
0
41
1
10
42.0208819320384
20
3.05541463347274
30
0
41
1
10
41.9334250425325
20
3.27860566103342
30
0
41
1
10
41.9042304989778
20
3.35278419195359
30
0
41
1
10
41.8457294241014
20
3.50056211532871
30
0
41
1
10
41.8164084947571
20
3.57408704921721
30
0
41
1
10
41.7869137738975
20
3.6467132300179
30
0
0
SPLINE
5
D1
100
AcDbEntity
8
1
62
256
6
ByLayer
370
18
48
1
60
0
100
AcDbSpline
70
4
71
3
72
48
73
44
40
0
40
0
40
0
40
0
40
0.0581462911661509
40
0.0581462911661509
40
0.0872194367492264
40
0.0872194367492264
40
0.116292582332302
40
0.116292582332302
40
0.232585164664607
40
0.232585164664607
40
0.261658310247683
40
0.261658310247683
40
0.29073145583076
40
0.29073145583076
40
0.348877746996913
40
0.348877746996913
40
0.37795089257999
40
0.37795089257999
40
0.407024038163066
40
0.407024038163066
40
0.465170329329218
40
0.465170329329218
40
0.581462911661521
40
0.581462911661521
40
0.639609202827672
40
0.639609202827672
40
0.668682348410748
40
0.668682348410748
40
0.697755493993823
40
0.697755493993823
40
0.755901785159974
40
0.755901785159974
40
0.78497493074305
40
0.78497493074305
40
0.814048076326125
40
0.814048076326125
40
0.930340658658428
40
0.930340658658428
40
0.959413804241504
40
0.959413804241504
40
0.98848694982458
40
0.98848694982458
40
1
40
1
40
1
40
1
41
1
10
41.7092100668646
20
-3.71900800622967
30
0
41
1
10
41.3163182058541
20
-3.74943199680763
30
0
41
1
10
40.9242568112061
20
-3.7570528720901
30
0
41
1
10
40.3349558482209
20
-3.73444420888384
30
0
41
1
10
40.1380904751381
20
-3.72120473144565
30
0
41
1
10
39.744492751918
20
-3.6834332200601
30
0
41
1
10
39.5484858924973
20
-3.65898453192423
30
0
41
1
10
38.5711740002485
20
-3.50988179290175
30
0
41
1
10
37.7977731803492
20
-3.30489199063266
30
0
41
1
10
36.823465518331
20
-2.95545742363504
30
0
41
1
10
36.6282274691048
20
-2.88090153983131
30
0
41
1
10
36.2364892487249
20
-2.72283805912238
30
0
41
1
10
36.0396118547454
20
-2.63916660342571
30
0
41
1
10
35.4491902968076
20
-2.37659309366194
30
0
41
1
10
35.0569397526171
20
-2.18667257130156
30
0
41
1
10
34.467663658391
20
-1.88353585615269
30
0
41
1
10
34.2710821290123
20
-1.77945770372077
30
0
41
1
10
33.8772118835795
20
-1.5657617807984
30
0
41
1
10
33.6805104031255
20
-1.45642985233115
30
0
41
1
10
33.0931515788262
20
-1.12369505402006
30
0
41
1
10
32.7038944094328
20
-0.895301964484133
30
0
41
1
10
31.5377142499301
20
-0.199372941765432
30
0
41
1
10
30.7625047576794
20
0.279117268943367
30
0
41
1
10
29.5804618342048
20
0.981048468661839
30
0
41
1
10
29.1878280369903
20
1.20952891613371
30
0
41
1
10
28.5986793579636
20
1.53938358262928
30
0
41
1
10
28.4022394327772
20
1.64721412153244
30
0
41
1
10
28.0086912816736
20
1.85777900981347
30
0
41
1
10
27.811476047036
20
1.96057358410539
30
0
41
1
10
27.2214750522492
20
2.25884290089454
30
0
41
1
10
26.8291118685428
20
2.44449885818122
30
0
41
1
10
26.2393819857634
20
2.69981891901858
30
0
41
1
10
26.0422254814383
20
2.78117278552452
30
0
41
1
10
25.648758024122
20
2.93475301114756
30
0
41
1
10
25.452763337771
20
3.00687295907162
30
0
41
1
10
24.4753059414949
20
3.34343128893272
30
0
41
1
10
23.7016389831595
20
3.53599872020152
30
0
41
1
10
22.726184508136
20
3.66873001098014
30
0
41
1
10
22.5306748619423
20
3.68987741177415
30
0
41
1
10
22.1383676095978
20
3.72106308978141
30
0
41
1
10
21.941159951672
20
3.73109998286583
30
0
41
1
10
21.666335022202
20
3.73710578863483
30
0
41
1
10
21.5884263841669
20
3.73791537234467
30
0
41
1
10
21.5105533806874
20
3.73783333349289
30
0
0
SPLINE
5
D2
100
AcDbEntity
8
1
62
256
6
ByLayer
370
18
48
1
60
0
100
AcDbSpline
70
4
71
3
72
22
73
18
40
0
40
0
40
0
40
0
40
0.250000000000022
40
0.250000000000022
40
0.500000000000045
40
0.500000000000045
40
0.625000000000043
40
0.625000000000043
40
0.75000000000004
40
0.75000000000004
40
0.81250000000003
40
0.81250000000003
40
0.87500000000002
40
0.87500000000002
40
0.93750000000001
40
0.93750000000001
40
1
40
1
40
1
40
1
41
1
10
41.5469739946575
20
1.10119975607734
30
0
41
1
10
41.6533710288177
20
1.12663051365516
30
0
41
1
10
41.7585428149215
20
1.15556362648425
30
0
41
1
10
41.9643115667706
20
1.22571664851233
30
0
41
1
10
42.0658591811504
20
1.26698137648558
30
0
41
1
10
42.2074163405202
20
1.34670742818082
30
0
41
1
10
42.253094532437
20
1.37653206185087
30
0
41
1
10
42.3371354293333
20
1.44507342149973
30
0
41
1
10
42.3751593217903
20
1.48336145156009
30
0
41
1
10
42.4224317228639
20
1.55058139065048
30
0
41
1
10
42.4360988604587
20
1.57405893460444
30
0
41
1
10
42.458738882056
20
1.62344966167765
30
0
41
1
10
42.4677707707991
20
1.64968807220282
30
0
41
1
10
42.4801734830137
20
1.70320838034047
30
0
41
1
10
42.4835931216795
20
1.73034125643574
30
0
41
1
10
42.4853914050019
20
1.78530269262296
30
0
41
1
10
42.4837252194111
20
1.81329395394579
30
0
41
1
10
42.4799373756221
20
1.84056990708697
30
0
0
SPLINE
5
D3
100
AcDbEntity
8
1
62
256
6
ByLayer
370
18
48
1
60
0
100
AcDbSpline
70
2053
71
3
72
62
73
58
40
0
40
0
40
0
40
0
40
0.031249999999999
40
0.031249999999999
40
0.0624999999999979
40
0.0624999999999979
40
0.0937499999999969
40
0.0937499999999969
40
0.124999999999996
40
0.124999999999996
40
0.156249999999995
40
0.156249999999995
40
0.187499999999994
40
0.187499999999994
40
0.218749999999993
40
0.218749999999993
40
0.249999999999992
40
0.249999999999992
40
0.281249999999991
40
0.281249999999991
40
0.31249999999999
40
0.31249999999999
40
0.374999999999991
40
0.374999999999991
40
0.437499999999992
40
0.437499999999992
40
0.468749999999993
40
0.468749999999993
40
0.499999999999993
40
0.499999999999993
40
0.531249999999994
40
0.531249999999994
40
0.562499999999995
40
0.562499999999995
40
0.593749999999996
40
0.593749999999996
40
0.624999999999996
40
0.624999999999996
40
0.656249999999997
40
0.656249999999997
40
0.687499999999998
40
0.687499999999998
40
0.718749999999998
40
0.718749999999998
40
0.749999999999999
40
0.749999999999999
40
0.78125
40
0.78125
40
0.812500000000001
40
0.812500000000001
40
0.874999999999999
40
0.874999999999999
40
0.937499999999997
40
0.937499999999997
40
0.968749999999999
40
0.968749999999999
40
1
40
1
40
1
40
1
41
1
10
42.1884372519286
20
-1.80256522331614
30
0
41
1
10
42.2082739777292
20
-1.77367105279728
30
0
41
1
10
42.2276661199217
20
-1.74279224245802
30
0
41
1
10
42.2654927785965
20
-1.67675966730636
30
0
41
1
10
42.2841274732387
20
-1.64118241353537
30
0
41
1
10
42.3191640552183
20
-1.56715105284755
30
0
41
1
10
42.335503778574
20
-1.52892694960849
30
0
41
1
10
42.3654931180267
20
-1.44972049056398
30
0
41
1
10
42.3788542896819
20
-1.40935747352739
30
0
41
1
10
42.4010159455077
20
-1.33035290838959
30
0
41
1
10
42.4100923871456
20
-1.29058620091195
30
0
41
1
10
42.4227975659122
20
-1.21596933981473
30
0
41
1
10
42.4265541654002
20
-1.18081754753311
30
0
41
1
10
42.4288699805119
20
-1.11587786676893
30
0
41
1
10
42.4274242168395
20
-1.08708912452099
30
0
41
1
10
42.419911539204
20
-1.03604507156101
30
0
41
1
10
42.4138548126829
20
-1.01421273349348
30
0
41
1
10
42.3980907002307
20
-0.978080334630164
30
0
41
1
10
42.3882427155146
20
-0.963520740496392
30
0
41
1
10
42.365815463725
20
-0.941672904443692
30
0
41
1
10
42.353204750314
20
-0.934227781705317
30
0
41
1
10
42.3115499293597
20
-0.921411018108131
30
0
41
1
10
42.2796712137659
20
-0.925667716266219
30
0
41
1
10
42.2096374884975
20
-0.956829393305895
30
0
41
1
10
42.1725841215619
20
-0.98321738696265
30
0
41
1
10
42.1144344576147
20
-1.0387171466796
30
0
41
1
10
42.0945865522198
20
-1.0599976550973
30
0
41
1
10
42.0552932565099
20
-1.10686959658193
30
0
41
1
10
42.0356790171654
20
-1.13260637782764
30
0
41
1
10
41.9965214124667
20
-1.18911156994673
30
0
41
1
10
41.976759120745
20
-1.22026446738604
30
0
41
1
10
41.9385775483068
20
-1.28648090901854
30
0
41
1
10
41.9201846243905
20
-1.32141422081673
30
0
41
1
10
41.8849916188871
20
-1.39544654036567
30
0
41
1
10
41.8682887560536
20
-1.43447424874339
30
0
41
1
10
41.8385926697414
20
-1.51284324250733
30
0
41
1
10
41.8252456878022
20
-1.55303583007083
30
0
41
1
10
41.8027466966694
20
-1.63338896216223
30
0
41
1
10
41.7939404057587
20
-1.67219758524067
30
0
41
1
10
41.7811988208321
20
-1.74708757482858
30
0
41
1
10
41.7774001334482
20
-1.78283616965015
30
0
41
1
10
41.7750397468314
20
-1.84737802504671
30
0
41
1
10
41.7764470617763
20
-1.8769563706291
30
0
41
1
10
41.7837854885162
20
-1.92812430781856
30
0
41
1
10
41.7897384460921
20
-1.95023808266956
30
0
41
1
10
41.8054043013049
20
-1.98704712693086
30
0
41
1
10
41.8150076454631
20
-2.0016404770839
30
0
41
1
10
41.8373405225173
20
-2.02409743748672
30
0
41
1
10
41.8500651651038
20
-2.03185340400032
30
0
41
1
10
41.8913467331521
20
-2.04515541615976
30
0
41
1
10
41.9237660412516
20
-2.04099685735733
30
0
41
1
10
41.9933052248454
20
-2.0100053443762
30
0
41
1
10
42.031286629565
20
-1.98275360409769
30
0
41
1
10
42.089231551038
20
-1.92692750724615
30
0
41
1
10
42.108784595212
20
-1.90580737156159
30
0
41
1
10
42.1484008988144
20
-1.85818476956311
30
0
41
1
10
42.1686005261281
20
-1.83145939383499
30
0
41
1
10
42.1884372519286
20
-1.80256522331613
30
0
0
SPLINE
5
D4
100
AcDbEntity
8
1
62
256
6
ByLayer
370
18
48
1
60
0
100
AcDbSpline
70
4
71
3
72
16
73
12
40
0
40
0
40
0
40
0
40
0.128973477342437
40
0.128973477342437
40
0.267804620899742
40
0.267804620899742
40
0.406635764457048
40
0.406635764457048
40
0.961960338686262
40
0.961960338686262
40
1
40
1
40
1
40
1
41
1
10
41.123966204936
20
-3.57477209073662
30
0
41
1
10
40.9418166780875
20
-3.57489875524476
30
0
41
1
10
40.7597371177272
20
-3.57033742066514
30
0
41
1
10
40.3814882620782
20
-3.55119147857971
30
0
41
1
10
40.1853032788555
20
-3.53586330016788
30
0
41
1
10
39.7923001614861
20
-3.4944934754605
30
0
41
1
10
39.5951090101514
20
-3.4683838597353
30
0
41
1
10
38.6137506291259
20
-3.31235152120252
30
0
41
1
10
37.8395109772835
20
-3.1061259929611
30
0
41
1
10
37.0093430798092
20
-2.81286046033094
30
0
41
1
10
36.9561095450023
20
-2.79373895822624
30
0
41
1
10
36.9028585621372
20
-2.77430141158095
30
0
0
SPLINE
5
D5
100
AcDbEntity
8
1
62
256
6
ByLayer
370
13
48
1
60
0
100
AcDbSpline
70
4
71
3
72
20
73
16
40
0
40
0
40
0
40
0
40
0.110541851822205
40
0.110541851822205
40
0.174586937915761
40
0.174586937915761
40
0.238632024009316
40
0.238632024009316
40
0.494812368383538
40
0.494812368383538
40
0.622902540570648
40
0.622902540570648
40
0.750992712757757
40
0.750992712757757
40
1
40
1
40
1
40
1
41
1
10
36.9028585621396
20
-2.77430141158186
30
0
41
1
10
36.5674155035008
20
-2.65185878708348
30
0
41
1
10
36.2312800888513
20
-2.51687520626012
30
0
41
1
10
35.6974514032248
20
-2.28571802171362
30
0
41
1
10
35.5005613646592
20
-2.19685920002911
30
0
41
1
10
35.1072649780975
20
-2.01296535136535
30
0
41
1
10
34.911354812954
20
-1.91818431425196
30
0
41
1
10
33.934312564345
20
-1.43208283078971
30
0
41
1
10
33.1610244551557
20
-1.00363619069466
30
0
41
1
10
31.9928547616405
20
-0.336684513381044
30
0
41
1
10
31.6020756397213
20
-0.110348322016904
30
0
41
1
10
30.8143985195666
20
0.34480947802561
30
0
41
1
10
30.4231626239915
20
0.569935688137377
30
0
41
1
10
29.2759616232245
20
1.21629492190118
30
0
41
1
10
28.5233673984367
20
1.62217719899112
30
0
41
1
10
27.763216606188
20
1.9866378810537
30
0
0
SPLINE
5
D6
100
AcDbEntity
8
1
62
256
6
ByLayer
370
18
48
1
60
0
100
AcDbSpline
70
4
71
3
72
8
73
4
40
0
40
0
40
0
40
0
40
1
40
1
40
1
40
1
41
1
10
41.7092100668646
20
3.7190080062297
30
0
41
1
10
41.4433842178454
20
3.73959250778984
30
0
41
1
10
41.1778174480074
20
3.74974779519252
30
0
41
1
10
40.9120022207164
20
3.74947934441238
30
0
0
SPLINE
5
D7
100
AcDbEntity
8
1
62
256
6
ByLayer
370
18
48
1
60
0
100
AcDbSpline
70
4
71
3
72
40
73
36
40
0
40
0
40
0
40
0
40
0.0227192153970751
40
0.0227192153970751
40
0.144879313472439
40
0.144879313472439
40
0.205959362510122
40
0.205959362510122
40
0.267039411547804
40
0.267039411547804
40
0.297579436066645
40
0.297579436066645
40
0.328119460585486
40
0.328119460585486
40
0.389199509623169
40
0.389199509623169
40
0.450279558660852
40
0.450279558660852
40
0.480819583179693
40
0.480819583179693
40
0.511359607698535
40
0.511359607698535
40
0.633519705773902
40
0.633519705773902
40
0.694599754811586
40
0.694599754811586
40
0.75567980384927
40
0.75567980384927
40
0.786219828368111
40
0.786219828368111
40
0.816759852886953
40
0.816759852886953
40
0.877839901924635
40
0.877839901924635
40
1
40
1
40
1
40
1
41
1
10
23.3505462064467
20
-3.57501180419499
30
0
41
1
10
23.2049776985206
20
-3.600741206268
30
0
41
1
10
23.0596900563554
20
-3.62343982316892
30
0
41
1
10
22.1345282451657
20
-3.74873820729212
30
0
41
1
10
21.3599090705789
20
-3.76648151362113
30
0
41
1
10
20.183816272342
20
-3.65793638036624
30
0
41
1
10
19.7884461447951
20
-3.59885010032835
30
0
41
1
10
19.0016427366861
20
-3.43815138109917
30
0
41
1
10
18.6088792026917
20
-3.33646680349267
30
0
41
1
10
18.0175645734275
20
-3.15399470135671
30
0
41
1
10
17.8202045287521
20
-3.08816902300708
30
0
41
1
10
17.4276381852638
20
-2.94800475356394
30
0
41
1
10
17.2320008119372
20
-2.87357197602051
30
0
41
1
10
16.646169393224
20
-2.63833707780381
30
0
41
1
10
16.2572990694001
20
-2.46531988863097
30
0
41
1
10
15.4788765726329
20
-2.092198085462
30
0
41
1
10
15.0895164022817
20
-1.89183564706394
30
0
41
1
10
14.5021566754557
20
-1.57466382047068
30
0
41
1
10
14.3058314646378
20
-1.46615113472254
30
0
41
1
10
13.9117393396402
20
-1.24397147326519
30
0
41
1
10
13.71457369166
20
-1.13068939882001
30
0
41
1
10
12.733844971343
20
-0.55977830464937
30
0
41
1
10
11.9587728393387
20
-0.0848389918348005
30
0
41
1
10
10.7888286213477
20
0.618491861215972
30
0
41
1
10
10.3974902708151
20
0.851195952522318
30
0
41
1
10
9.6085789850618
20
1.30719860412432
30
0
41
1
10
9.21505518314677
20
1.52838304309247
30
0
41
1
10
8.62499958465867
20
1.84370900243215
30
0
41
1
10
8.42823401621615
20
1.94614396046322
30
0
41
1
10
8.03407833018315
20
2.14498643089331
30
0
41
1
10
7.83639599888241
20
2.24151970532114
30
0
41
1
10
7.24626823952684
20
2.51901574468201
30
0
41
1
10
6.85564859491393
20
2.68872188109742
30
0
41
1
10
5.68608711453038
20
3.14579052391161
30
0
41
1
10
4.90938219079439
20
3.38113388767815
30
0
41
1
10
4.12084252681939
20
3.53251876719776
30
0
0
SPLINE
5
D8
100
AcDbEntity
8
SK1
62
256
6
ByLayer
370
18
48
1
60
0
100
AcDbSpline
70
4
71
3
72
14
73
10
40
0
40
0
40
0
40
0
40
0.124999999999998
40
0.124999999999998
40
0.249999999999997
40
0.249999999999997
40
0.499999999999998
40
0.499999999999998
40
1
40
1
40
1
40
1
41
1
10
-35.15
20
-2.95872249990759
30
0
41
1
10
-35.15
20
-2.95136046419404
30
0
41
1
10
-35.1517507934569
20
-2.94181767386178
30
0
41
1
10
-35.1569069278761
20
-2.92202783098861
30
0
41
1
10
-35.160234831946
20
-2.91188113661855
30
0
41
1
10
-35.1714888412645
20
-2.88101453359246
30
0
41
1
10
-35.1802429568046
20
-2.86098270977934
30
0
41
1
10
-35.2083191353842
20
-2.80186934292573
30
0
41
1
10
-35.2286409685639
20
-2.76549634835413
30
0
41
1
10
-35.25
20
-2.73187901586451
30
0
0
SPLINE
5
D9
100
AcDbEntity
8
SK1
62
256
6
ByLayer
370
18
48
1
60
0
100
AcDbSpline
70
4
71
3
72
14
73
10
40
0
40
0
40
0
40
0
40
0.500000000000001
40
0.500000000000001
40
0.75
40
0.75
40
0.875
40
0.875
40
1
40
1
40
1
40
1
41
1
10
-35.25
20
-3.69411656394274
30
0
41
1
10
-35.2287404812744
20
-3.727577271733
30
0
41
1
10
-35.208362723075
20
-3.75815743817557
30
0
41
1
10
-35.1802905070704
20
-3.79679898417305
30
0
41
1
10
-35.1714466180788
20
-3.80833160272778
30
0
41
1
10
-35.1602396792677
20
-3.82088146317054
30
0
41
1
10
-35.1568594217207
20
-3.82424019804273
30
0
41
1
10
-35.1517495297275
20
-3.82767534847437
30
0
41
1
10
-35.15
20
-3.82772537421516
30
0
41
1
10
-35.15
20
-3.82473629317784
30
0
0
SPLINE
5
DA
100
AcDbEntity
8
SK1
62
256
6
ByLayer
370
18
48
1
60
0
100
AcDbSpline
70
4
71
3
72
8
73
4
40
0
40
0
40
0
40
0
40
1
40
1
40
1
40
1
41
1
10
-35.25
20
-2.73187901586454
30
0
41
1
10
-35.5038946288025
20
-2.33227006452694
30
0
41
1
10
-35.7559872437786
20
-1.93181268619949
30
0
41
1
10
-36
20
-1.52755113603899
30
0
0
SPLINE
5
DB
100
AcDbEntity
8
SK1
62
256
6
ByLayer
370
18
48
1
60
0
100
AcDbSpline
70
4
71
3
72
8
73
4
40
0
40
0
40
0
40
0
40
1
40
1
40
1
40
1
41
1
10
-36
20
-2.48978868411703
30
0
41
1
10
-35.7560023534748
20
-2.89402520169591
30
0
41
1
10
-35.5039048565556
20
-3.29449151497539
30
0
41
1
10
-35.25
20
-3.69411656394254
30
0
0
LINE
5
76
100
AcDbEntity
8
81
62
256
6
ByLayer
370
18
48
1
60
0
100
AcDbLine
10
43
20
0
30
0
11
48
21
0
31
0
39
0
210
0
220
0
230
1
0
LINE
5
77
100
AcDbEntity
8
1
62
256
6
ByLayer
370
18
48
1
60
0
100
AcDbLine
10
4.011653
20
3.727335
30
0
11
0.896661
21
3.725466
31
0
39
0
210
0
220
0
230
1
0
LINE
5
79
100
AcDbEntity
8
1
62
256
6
ByLayer
370
18
48
1
60
0
100
AcDbLine
10
21.515215
20
3.737837
30
0
11
20.928924
21
3.737485
31
0
39
0
210
0
220
0
230
1
0
LINE
5
7A
100
AcDbEntity
8
1
62
256
6
ByLayer
370
18
48
1
60
0
100
AcDbLine
10
40.915382
20
3.749477
30
0
11
40.334196
21
3.749128
31
0
39
0
210
0
220
0
230
1
0
LINE
5
7B
100
AcDbEntity
8
1
62
256
6
ByLayer
370
18
48
1
60
0
100
AcDbLine
10
40.334196
20
-3.749128
30
0
11
40.915888
21
-3.749477
31
0
39
0
210
0
220
0
230
1
0
LINE
5
7C
100
AcDbEntity
8
1
62
256
6
ByLayer
370
18
48
1
60
0
100
AcDbLine
10
20.928924
20
-3.737485
30
0
11
21.515076
21
-3.737837
31
0
39
0
210
0
220
0
230
1
0
LINE
5
7D
100
AcDbEntity
8
1
62
256
6
ByLayer
370
18
48
1
60
0
100
AcDbLine
10
0.896661
20
-3.725466
30
0
11
4.011653
21
-3.727335
31
0
39
0
210
0
220
0
230
1
0
LINE
5
7E
100
AcDbEntity
8
SK1
62
256
6
ByLayer
370
18
48
1
60
0
100
AcDbLine
10
-35.133975
20
4
30
0
11
-36
21
2.5
31
0
39
0
210
0
220
0
230
1
0
LINE
5
80
100
AcDbEntity
8
SK1
62
256
6
ByLayer
370
18
48
1
60
0
100
AcDbLine
10
-36
20
-2.5
30
0
11
-35.133975
21
-4
31
0
39
0
210
0
220
0
230
1
0
LINE
5
81
100
AcDbEntity
8
SK1
62
256
6
ByLayer
370
18
48
1
60
0
100
AcDbLine
10
0
20
4
30
0
11
-35.133975
21
4
31
0
39
0
210
0
220
0
230
1
0
LINE
5
82
100
AcDbEntity
8
SK1
62
256
6
ByLayer
370
18
48
1
60
0
100
AcDbLine
10
-35.133975
20
-4
30
0
11
0
21
-4
31
0
39
0
210
0
220
0
230
1
0
LINE
5
83
100
AcDbEntity
8
SK4
62
256
6
ByLayer
370
18
48
0.05
60
0
100
AcDbLine
10
48
20
0
30
0
11
-41
21
0
31
0
39
0
210
0
220
0
230
1
0
LINE
5
85
100
AcDbEntity
8
4
62
256
6
ByLayer
370
18
48
0.05
60
0
100
AcDbLine
10
43
20
0
30
0
11
0
21
0
31
0
39
0
210
0
220
0
230
1
0
LINE
5
87
100
AcDbEntity
8
80
62
256
6
ByLayer
370
18
48
1
60
0
100
AcDbLine
10
0
20
0
30
0
11
-5
21
0
31
0
39
0
210
0
220
0
230
1
0
LINE
5
88
100
AcDbEntity
8
1
62
256
6
ByLayer
370
18
48
1
60
0
100
AcDbLine
10
41.12913
20
-1.966438
30
0
11
42.894919
21
-0.142354
31
0
39
0
210
0
220
0
230
1
0
LINE
5
89
100
AcDbEntity
8
1
62
256
6
ByLayer
370
18
48
1
60
0
100
AcDbLine
10
43
20
0
30
0
11
41.698826
21
-3.574945
31
0
39
0
210
0
220
0
230
1
0
LINE
5
8A
100
AcDbEntity
8
1
62
256
6
ByLayer
370
18
48
1
60
0
100
AcDbLine
10
42.923391
20
-0.288761
30
0
11
42.814262
21
-0.756512
31
0
39
0
210
0
220
0
230
1
0
LINE
5
8B
100
AcDbEntity
8
1
62
256
6
ByLayer
370
18
48
1
60
0
100
AcDbLine
10
43
20
0
30
0
11
42.993262
21
-0.037359
31
0
39
0
210
0
220
0
230
1
0
LINE
5
8C
100
AcDbEntity
8
1
62
256
6
ByLayer
370
18
48
1
60
0
100
AcDbLine
10
42.993262
20
0.037359
30
0
11
43
21
0
31
0
39
0
210
0
220
0
230
1
0
LINE
5
8D
100
AcDbEntity
8
1
62
256
6
ByLayer
370
18
48
1
60
0
100
AcDbLine
10
42.923391
20
0.288761
30
0
11
42.814262
21
0.756512
31
0
39
0
210
0
220
0
230
1
0
LINE
5
8E
100
AcDbEntity
8
1
62
256
6
ByLayer
370
13
48
1
60
0
100
AcDbLine
10
42.814262
20
0.756512
30
0
11
42.135045
21
0.756512
31
0
39
0
210
0
220
0
230
1
0
LINE
5
8F
100
AcDbEntity
8
1
62
256
6
ByLayer
370
13
48
1
60
0
100
AcDbLine
10
42.135045
20
0.756512
30
0
11
42.923391
21
0.288761
31
0
39
0
210
0
220
0
230
1
0
LINE
5
90
100
AcDbEntity
8
1
62
256
6
ByLayer
370
13
48
1
60
0
100
AcDbLine
10
41.945138
20
0.421183
30
0
11
42.894919
21
-0.142354
31
0
39
0
210
0
220
0
230
1
0
LINE
5
91
100
AcDbEntity
8
1
62
256
6
ByLayer
370
13
48
1
60
0
100
AcDbLine
10
0.896661
20
3.725466
30
0
11
0.896661
21
-3.725466
31
0
39
0
210
0
220
0
230
1
0
LINE
5
92
100
AcDbEntity
8
1
62
256
6
ByLayer
370
18
48
1
60
0
100
AcDbLine
10
0
20
-4
30
0
11
0
21
4
31
0
39
0
210
0
220
0
230
1
0
LINE
5
93
100
AcDbEntity
8
1
62
256
6
ByLayer
370
13
48
1
60
0
100
AcDbLine
10
0.448091
20
3.862733
30
0
11
0.448091
21
-3.862733
31
0
39
0
210
0
220
0
230
1
0
LINE
5
94
100
AcDbEntity
8
SK1
62
256
6
ByLayer
370
18
48
1
60
0
100
AcDbLine
10
-36
20
2.5
30
0
11
-36
21
-1.527551
31
0
39
0
210
0
220
0
230
1
0
LINE
5
95
100
AcDbEntity
8
SK1
62
256
6
ByLayer
370
18
48
1
60
0
100
AcDbLine
10
0
20
-4
30
0
11
0
21
4
31
0
39
0
210
0
220
0
230
1
0
LINE
5
96
100
AcDbEntity
8
SK1
62
256
6
ByLayer
370
18
48
1
60
0
100
AcDbLine
10
-35.133975
20
4
30
0
11
-35.133975
21
-4
31
0
39
0
210
0
220
0
230
1
0
LINE
5
97
100
AcDbEntity
8
SK1
62
256
6
ByLayer
370
18
48
1
60
0
100
AcDbLine
10
-36
20
-2.5
30
0
11
-36
21
-2.489789
31
0
39
0
210
0
220
0
230
1
0
LINE
5
98
100
AcDbEntity
8
SK1
62
256
6
ByLayer
370
18
48
1
60
0
100
AcDbLine
10
-35.15
20
-3.824736
30
0
11
-35.15
21
-2.958722
31
0
39
0
210
0
220
0
230
1
0
LINE
5
99
100
AcDbEntity
8
SK1
62
256
6
ByLayer
370
18
48
1
60
0
100
AcDbLine
10
-36
20
-1.52751
30
0
11
-36
21
-2.489789
31
0
39
0
210
0
220
0
230
1
0
LINE
5
9A
100
AcDbEntity
8
SK1
62
256
6
ByLayer
370
13
48
1
60
0
100
AcDbLine
10
-35.25
20
-2.731824
30
0
11
-35.25
21
-3.694117
31
0
39
0
210
0
220
0
230
1
0
MTEXT
5
DC
100
AcDbEntity
8
SK6
62
256
6
ByLayer
370
13
48
1
60
0
100
AcDbMText
10
5.629169
20
36.132694
30
0
210
0
220
0
230
1
1
\W0.7542;R840-0750-30-A1A1220
40
3.5
41
0
44
1.084337
50
0
71
8
72
5
7
iso_b_vert
0
DIMENSION
5
E9
100
AcDbEntity
8
SK2
62
256
6
ByLayer
370
13
48
1
60
0
100
AcDbDimension
2
DimnDraft3D1
10
41.73
20
-13.963398
30
0
11
19.480059
21
-13.963398
31
0
70
32
71
5
72
1
41
1
210
0
220
0
230
1
3
Standard
100
AcDbAlignedDimension
13
0
23
-1.5875
33
0
14
41.73
24
-5.3375
34
0
50
0
100
AcDbRotatedDimension
1001
ACAD
1000
DSTYLE
1002
{
1070
   279
1070
     0
1070
   172
1070
     1
1070
   173
1070
     1
1070
   340
1005
DD
1070
   271
1070
     2
1070
   272
1070
     2
1070
    77
1070
     1
1070
    73
1070
     0
1070
   171
1070
     3
1070
   274
1070
     4
1070
   177
1070
    35
1070
   176
1070
    35
1070
   178
1070
    35
1070
    48
1040
-0.005
1070
    41
1041
3.5
1070
   147
1041
1.75
1070
    42
1041
1.5875
1070
    44
1041
2.0
1070
   140
1041
3.5
1070
   343
1005
0
1070
   344
1005
0
1002
}
0
DIMENSION
5
F3
100
AcDbEntity
8
SK2
62
256
6
ByLayer
370
13
48
1
60
0
100
AcDbDimension
2
DimnDraft3D2
10
43
20
-32.692985
30
0
11
3.5713
21
-32.692985
31
0
70
32
71
5
72
1
41
1
210
0
220
0
230
1
3
Standard
100
AcDbAlignedDimension
13
-36
23
-5.5875
33
0
14
43
24
-1.5875
34
0
50
0
100
AcDbRotatedDimension
1001
ACAD
1000
DSTYLE
1002
{
1070
   279
1070
     0
1070
   172
1070
     1
1070
   173
1070
     1
1070
   340
1005
DD
1070
   271
1070
     2
1070
   272
1070
     2
1070
    77
1070
     1
1070
    73
1070
     0
1070
   171
1070
     3
1070
   274
1070
     4
1070
   177
1070
    35
1070
   176
1070
    35
1070
   178
1070
    35
1070
    48
1040
-0.005
1070
    41
1041
3.5
1070
   147
1041
1.75
1070
    42
1041
1.5875
1070
    44
1041
2.0
1070
   140
1041
3.5
1070
   343
1005
0
1070
   344
1005
0
1002
}
0
DIMENSION
5
FD
100
AcDbEntity
8
SK2
62
256
6
ByLayer
370
13
48
1
60
0
100
AcDbDimension
2
DimnDraft3D3
10
43
20
15.359119
30
0
11
31.115
21
15.359119
31
0
70
32
71
5
72
1
41
1
210
0
220
0
230
1
3
Standard
100
AcDbAlignedDimension
13
19.23
23
5.3375
33
0
14
43
24
1.5875
34
0
50
0
100
AcDbRotatedDimension
1001
ACAD
1000
DSTYLE
1002
{
1070
   279
1070
     0
1070
   172
1070
     1
1070
   173
1070
     1
1070
   340
1005
DD
1070
   271
1070
     2
1070
   272
1070
     2
1070
    77
1070
     1
1070
    73
1070
     0
1070
   171
1070
     3
1070
   274
1070
     4
1070
   177
1070
    35
1070
   176
1070
    35
1070
   178
1070
    35
1070
    48
1040
-0.005
1070
    41
1041
3.5
1070
   147
1041
1.75
1070
    42
1041
1.5875
1070
    44
1041
2.0
1070
   140
1041
3.5
1070
   343
1005
0
1070
   344
1005
0
1002
}
0
DIMENSION
5
107
100
AcDbEntity
8
SK2
62
256
6
ByLayer
370
13
48
1
60
0
100
AcDbDimension
2
DimnDraft3D4
10
41.73
20
-16.552503
30
0
11
52.981425
21
-16.552503
31
0
70
32
71
5
72
1
41
1
210
0
220
0
230
1
3
Standard
100
AcDbAlignedDimension
13
43
23
-1.5875
33
0
14
41.73
24
-5.3375
34
0
50
0
100
AcDbRotatedDimension
1001
ACAD
1000
DSTYLE
1002
{
1070
   279
1070
     0
1070
   172
1070
     1
1070
   173
1070
     1
1070
   340
1005
DD
1070
   271
1070
     2
1070
   272
1070
     2
1070
    77
1070
     1
1070
    73
1070
     0
1070
   171
1070
     3
1070
   274
1070
     4
1070
   177
1070
    35
1070
   176
1070
    35
1070
   178
1070
    35
1070
    48
1040
-0.005
1070
    41
1041
3.5
1070
   147
1041
1.75
1070
    42
1041
1.5875
1070
    44
1041
2.0
1070
   140
1041
3.5
1070
   343
1005
0
1070
   344
1005
0
1002
}
0
DIMENSION
5
111
100
AcDbEntity
8
SK2
62
256
6
ByLayer
370
13
48
1
60
0
100
AcDbDimension
2
DimnDraft3D5
10
41.73
20
-22.343428
30
0
11
0.490676
21
-22.343428
31
0
70
32
71
5
72
1
41
1
210
0
220
0
230
1
3
Standard
100
AcDbAlignedDimension
13
-36
23
-5.5875
33
0
14
41.73
24
-5.3375
34
0
50
0
100
AcDbRotatedDimension
1001
ACAD
1000
DSTYLE
1002
{
1070
   279
1070
     0
1070
   172
1070
     1
1070
   173
1070
     1
1070
   340
1005
DD
1070
   271
1070
     2
1070
   272
1070
     2
1070
    77
1070
     1
1070
    73
1070
     0
1070
   171
1070
     3
1070
   274
1070
     4
1070
   177
1070
    35
1070
   176
1070
    35
1070
   178
1070
    35
1070
    48
1040
-0.005
1070
    41
1041
3.5
1070
   147
1041
1.75
1070
    42
1041
1.5875
1070
    44
1041
2.0
1070
   140
1041
3.5
1070
   343
1005
0
1070
   344
1005
0
1002
}
0
DIMENSION
5
11C
100
AcDbEntity
8
SK2
62
256
6
ByLayer
370
13
48
1
60
0
100
AcDbDimension
2
DimnDraft3D6
10
-46.625163
20
4
30
0
11
-47.250163
21
22.47418
31
0
70
33
71
5
72
1
41
1
210
0
220
0
230
1
3
Standard
100
AcDbAlignedDimension
13
-37.5875
23
-4
33
0
14
-37.5875
24
4
34
0
1001
ACAD
1000
DSTYLE
1002
{
1070
   279
1070
     0
1070
    74
1070
     0
1070
   173
1070
     1
1070
   340
1005
DD
1070
   271
1070
     3
1070
   272
1070
     2
1070
    77
1070
     1
1070
    73
1070
     0
1070
   171
1070
     3
1070
   274
1070
     4
1070
   177
1070
    35
1070
   176
1070
    35
1070
   178
1070
    35
1070
    48
1040
-0.005
1070
    41
1041
3.5
1070
   147
1041
1.75
1070
    42
1041
1.5875
1070
    44
1041
2.0
1070
   140
1041
3.5
1070
   343
1005
0
1070
   344
1005
0
1002
}
0
DIMENSION
5
127
100
AcDbEntity
8
2
62
256
6
ByLayer
370
13
48
1
60
0
100
AcDbDimension
2
DimnDraft3D7
10
57.083343
20
3.75
30
0
11
52.458343
21
20.817266
31
0
70
33
71
5
72
1
41
1
210
0
220
0
230
1
3
Standard
100
AcDbAlignedDimension
13
43.3175
23
-3.75
33
0
14
43.3175
24
3.75
34
0
1001
ACAD
1000
DSTYLE
1002
{
1070
   279
1070
     0
1070
    74
1070
     0
1070
   173
1070
     1
1070
   340
1005
DD
1070
   271
1070
     3
1070
   272
1070
     2
1070
    77
1070
     1
1070
    73
1070
     0
1070
   171
1070
     3
1070
   274
1070
     4
1070
   177
1070
    35
1070
   176
1070
    35
1070
   178
1070
    35
1070
    48
1040
-0.005
1070
    41
1041
3.5
1070
   147
1041
1.75
1070
    42
1041
1.5875
1070
    44
1041
2.0
1070
   140
1041
3.5
1070
   343
1005
0
1070
   344
1005
0
1002
}
0
ENDSEC
0
SECTION
2
OBJECTS
0
DICTIONARY
5
192
330
0
100
AcDbDictionary
280
0
281
1
3
ACAD_GROUP
350
193
3
ACAD_MLINESTYLE
350
194
0
DICTIONARY
5
193
330
0
100
AcDbDictionary
280
0
281
1
0
DICTIONARY
5
194
330
0
100
AcDbDictionary
280
0
281
1
3
Standard
350
18
0
MLINESTYLE
5
18
330
194
100
AcDbMlineStyle
2
Standard
70
0
3

62
256
51
90
52
90
71
2
49
-0.5
62
256
6
ByLayer
49
0.5
62
256
6
ByLayer
0
RASTERVARIABLES
5
180
330

100
AcDbRasterVariables
90
0
70
1
71
1
72
1
0
ENDSEC
0
EOF
