0
SECTION
2
HEADER
9
$ACADVER
1
AC1015
9
$DWGCODEPAGE
3
ANSI_1252
9
$HANDSEED
5
195
9
$ANGBASE
50
0
9
$ANGDIR
70
0
9
$ATTMODE
70
1
9
$AUNITS
70
0
9
$AUPREC
70
0
9
$CECOLOR
62
256
9
$CELTSCALE
40
1
9
$CELTYPE
6
ByLayer
9
$CELWEIGHT
370
18
9
$CLAYER
8
0
9
$CMLJUST
70
0
9
$CMLSCALE
40
1
9
$CMLSTYLE
2
Standard
9
$DIMSTYLE
2
Standard
9
$TEXTSIZE
40
0.2
9
$TEXTSTYLE
7
Standard
9
$LUNITS
70
2
9
$LUPREC
70
4
9
$EXTNAMES
290
1
9
$INSUNITS
70
4
9
$LTSCALE
40
1
9
$LWDISPLAY
290
1
9
$PDMODE
70
0
9
$PDSIZE
40
0
9
$PLINEGEN
70
0
0
ENDSEC
0
SECTION
2
CLASSES
0
CLASS
1
RASTERVARIABLES
2
AcDbRasterVariables
3
ISM
90
0
280
0
281
0
0
ENDSEC
0
SECTION
2
TABLES
0
TABLE
2
VPORT
5
18b
100
AcDbSymbolTable
0
VPORT
5
1
100
AcDbSymbolTableRecord
100
AcDbViewportTableRecord
2
*Active
70
0
10
0
20
0
11
1
21
1
12
-1
22
1
13
0
23
0
14
0.5
24
0.5
15
10
25
10
16
0
26
0
36
1
17
0
27
0
37
0
0
ENDTAB
0
TABLE
2
LTYPE
5
18c
100
AcDbSymbolTable
0
LTYPE
5
14
100
AcDbSymbolTableRecord
100
AcDbLinetypeTableRecord
70
0
2
ByBlock
3

72
65
73
0
40
0
0
LTYPE
5
15
100
AcDbSymbolTableRecord
100
AcDbLinetypeTableRecord
70
0
2
ByLayer
3

72
65
73
0
40
0
0
LTYPE
5
16
100
AcDbSymbolTableRecord
100
AcDbLinetypeTableRecord
70
0
2
CONTINUOUS
3
Solid line
72
65
73
0
40
0
0
LTYPE
5
6A
100
AcDbSymbolTableRecord
100
AcDbLinetypeTableRecord
70
0
2
CENTER
3
____ _ ____ _ ____ _ ____
72
65
73
4
40
47.5
49
22
74
0
49
-8.5
74
0
49
8.5
74
0
49
-8.5
74
0
0
LTYPE
5
6B
100
AcDbSymbolTableRecord
100
AcDbLinetypeTableRecord
70
0
2
DASHED
3
__ __ __ __ __ __ __ __ __
72
65
73
2
40
25.72
49
12.86
74
0
49
-12.86
74
0
0
ENDTAB
0
TABLE
2
LAYER
5
18d
100
AcDbSymbolTable
0
LAYER
5
10
100
AcDbSymbolTableRecord
100
AcDbLayerTableRecord
2
0
70
0
62
7
6
CONTINUOUS
290
1
370
-3
390
0
0
LAYER
5
6D
100
AcDbSymbolTableRecord
100
AcDbLayerTableRecord
2
81
70
0
62
-3
6
CONTINUOUS
290
1
370
-3
390
0
0
LAYER
5
6F
100
AcDbSymbolTableRecord
100
AcDbLayerTableRecord
2
80
70
0
62
-6
6
CONTINUOUS
290
1
370
-3
390
0
0
LAYER
5
74
100
AcDbSymbolTableRecord
100
AcDbLayerTableRecord
2
2
70
0
62
7
6
CONTINUOUS
290
1
370
-3
390
0
0
LAYER
5
78
100
AcDbSymbolTableRecord
100
AcDbLayerTableRecord
2
1
70
0
62
4
6
CONTINUOUS
290
1
370
-3
390
0
0
LAYER
5
86
100
AcDbSymbolTableRecord
100
AcDbLayerTableRecord
2
4
70
0
62
-2
6
CENTER
290
1
370
-3
390
0
0
LAYER
5
177
100
AcDbSymbolTableRecord
100
AcDbLayerTableRecord
2
SK2
70
0
62
7
6
CONTINUOUS
290
1
370
-3
390
0
0
LAYER
5
178
100
AcDbSymbolTableRecord
100
AcDbLayerTableRecord
2
SK1
70
0
62
4
6
CONTINUOUS
290
1
370
-3
390
0
0
LAYER
5
179
100
AcDbSymbolTableRecord
100
AcDbLayerTableRecord
2
SK4
70
0
62
2
6
CENTER
290
1
370
-3
390
0
0
LAYER
5
17a
100
AcDbSymbolTableRecord
100
AcDbLayerTableRecord
2
SK6
70
0
62
5
6
CONTINUOUS
290
1
370
-3
390
0
0
ENDTAB
0
TABLE
2
STYLE
5
18e
100
AcDbSymbolTable
0
STYLE
5
11
100
AcDbSymbolTableRecord
100
AcDbTextStyleTableRecord
2
Standard
3
txt
70
0
71
0
40
0
41
1
42
0
50
0
0
STYLE
5
D3
100
AcDbSymbolTableRecord
100
AcDbTextStyleTableRecord
2
iso_b_vert
3
simplex.shx
70
0
71
0
40
0
41
1
42
0
50
0
0
STYLE
5
D4
100
AcDbSymbolTableRecord
100
AcDbTextStyleTableRecord
2
DWGDirectTextStyle
3
simplex
70
0
71
0
40
0
41
1
42
0
50
0
0
ENDTAB
0
TABLE
2
DIMSTYLE
5
18f
100
AcDbSymbolTable
100
AcDbDimStyleTable
0
DIMSTYLE
105
27
100
AcDbSymbolTableRecord
100
AcDbDimStyleTableRecord
2
Standard
70
0
3
<>
41
0.18
42
0.0625
44
0.18
140
0.18
147
0.09
73
0
74
0
77
1
271
2
275
0
278
52
280
0
340
11
0
ENDTAB
0
TABLE
2
VIEW
5
190
100
AcDbSymbolTable
0
ENDTAB
0
TABLE
2
UCS
5
191
100
AcDbSymbolTable
0
ENDTAB
0
TABLE
2
APPID
5
192
100
AcDbSymbolTable
0
APPID
5
12
100
AcDbSymbolTableRecord
100
AcDbRegAppTableRecord
2
ACAD
70
0
0
ENDTAB
0
TABLE
2
BLOCK_RECORD
5
193
100
AcDbSymbolTable
0
BLOCK_RECORD
5
1F
100
AcDbSymbolTableRecord
100
AcDbBlockTableRecord
2
*Model_Space
340
0
70
0
0
BLOCK_RECORD
5
1B
100
AcDbSymbolTableRecord
100
AcDbBlockTableRecord
2
*Paper_Space
340
0
70
0
0
BLOCK_RECORD
5
23
100
AcDbSymbolTableRecord
100
AcDbBlockTableRecord
2
*Paper_Space0
340
0
70
0
0
BLOCK_RECORD
5
D6
100
AcDbSymbolTableRecord
100
AcDbBlockTableRecord
2
DimnDraft3D1
340
0
70
0
0
BLOCK_RECORD
5
E0
100
AcDbSymbolTableRecord
100
AcDbBlockTableRecord
2
DimnDraft3D2
340
0
70
0
0
BLOCK_RECORD
5
EA
100
AcDbSymbolTableRecord
100
AcDbBlockTableRecord
2
DimnDraft3D3
340
0
70
0
0
BLOCK_RECORD
5
F4
100
AcDbSymbolTableRecord
100
AcDbBlockTableRecord
2
DimnDraft3D4
340
0
70
0
0
BLOCK_RECORD
5
FE
100
AcDbSymbolTableRecord
100
AcDbBlockTableRecord
2
DimnDraft3D5
340
0
70
0
0
BLOCK_RECORD
5
108
100
AcDbSymbolTableRecord
100
AcDbBlockTableRecord
2
DimnDraft3D6
340
0
70
0
0
BLOCK_RECORD
5
113
100
AcDbSymbolTableRecord
100
AcDbBlockTableRecord
2
DimnDraft3D7
340
0
70
0
0
ENDTAB
0
ENDSEC
0
SECTION
2
BLOCKS
0
BLOCK
5
20
100
AcDbEntity
8
0
100
AcDbBlockBegin
2
*Model_Space
70
0
10
0
20
0
30
0
3
*Model_Space
0
ENDBLK
5
21
100
AcDbEntity
8
0
100
AcDbBlockEnd
0
BLOCK
5
1C
100
AcDbEntity
8
0
100
AcDbBlockBegin
2
*Paper_Space
70
0
10
0
20
0
30
0
3
*Paper_Space
0
ENDBLK
5
1D
100
AcDbEntity
8
0
100
AcDbBlockEnd
0
BLOCK
5
24
100
AcDbEntity
8
0
100
AcDbBlockBegin
2
*Paper_Space0
70
0
10
0
20
0
30
0
3
*Paper_Space0
0
ENDBLK
5
25
100
AcDbEntity
8
0
100
AcDbBlockEnd
0
BLOCK
5
DD
100
AcDbEntity
8
0
100
AcDbBlockBegin
2
DimnDraft3D1
70
0
10
0
20
0
30
0
3
DimnDraft3D1
0
MTEXT
5
D7
100
AcDbEntity
8
SK2
62
256
6
ByLayer
370
13
48
1
60
0
100
AcDbMText
10
15.110454
20
-13.038398
30
0
210
0
220
0
230
1
1
\W0.7159;41,74
40
3.5
41
0
44
1.084337
50
0
71
7
72
5
7
iso_b_vert
0
LINE
5
D8
100
AcDbEntity
8
SK2
62
256
6
ByLayer
370
13
48
1
60
0
100
AcDbLine
10
0
20
-1.5875
30
0
11
0
21
-15.913398
31
0
39
0
210
0
220
0
230
1
0
LINE
5
D9
100
AcDbEntity
8
SK2
62
256
6
ByLayer
370
13
48
1
60
0
100
AcDbLine
10
41.74
20
-5.2875
30
0
11
41.74
21
-15.913398
31
0
39
0
210
0
220
0
230
1
0
LINE
5
DA
100
AcDbEntity
8
SK2
62
256
6
ByLayer
370
13
48
1
60
0
100
AcDbLine
10
0
20
-13.913398
30
0
11
41.74
21
-13.913398
31
0
39
0
210
0
220
0
230
1
0
SOLID
5
DB
100
AcDbEntity
8
SK2
62
256
6
ByLayer
370
13
48
1
60
0
100
AcDbTrace
10
0
20
-13.913398
30
0
11
3.499998
21
-13.452615
31
0
12
3.500002
22
-14.374182
32
0
13
0
23
-13.913398
33
0
39
0
210
0
220
0
230
1
0
SOLID
5
DC
100
AcDbEntity
8
SK2
62
256
6
ByLayer
370
13
48
1
60
0
100
AcDbTrace
10
41.74
20
-13.913398
30
0
11
38.240002
21
-14.374182
31
0
12
38.239998
22
-13.452615
32
0
13
41.74
23
-13.913398
33
0
39
0
210
0
220
0
230
1
0
ENDBLK
5
DE
100
AcDbEntity
8
0
100
AcDbBlockEnd
0
BLOCK
5
E7
100
AcDbEntity
8
0
100
AcDbBlockBegin
2
DimnDraft3D2
70
0
10
0
20
0
30
0
3
DimnDraft3D2
0
MTEXT
5
E1
100
AcDbEntity
8
SK2
62
256
6
ByLayer
370
13
48
1
60
0
100
AcDbMText
10
-0.867384
20
-31.817985
30
0
210
0
220
0
230
1
1
\W0.7317;79,00
40
3.5
41
0
44
1.084337
50
0
71
7
72
5
7
iso_b_vert
0
LINE
5
E2
100
AcDbEntity
8
SK2
62
256
6
ByLayer
370
13
48
1
60
0
100
AcDbLine
10
-36
20
-5.5875
30
0
11
-36
21
-34.692985
31
0
39
0
210
0
220
0
230
1
0
LINE
5
E3
100
AcDbEntity
8
SK2
62
256
6
ByLayer
370
13
48
1
60
0
100
AcDbLine
10
43
20
-1.5875
30
0
11
43
21
-34.692985
31
0
39
0
210
0
220
0
230
1
0
LINE
5
E4
100
AcDbEntity
8
SK2
62
256
6
ByLayer
370
13
48
1
60
0
100
AcDbLine
10
-36
20
-32.692985
30
0
11
43
21
-32.692985
31
0
39
0
210
0
220
0
230
1
0
SOLID
5
E5
100
AcDbEntity
8
SK2
62
256
6
ByLayer
370
13
48
1
60
0
100
AcDbTrace
10
-36
20
-32.692985
30
0
11
-32.500002
21
-32.232202
31
0
12
-32.499998
22
-33.153769
32
0
13
-36
23
-32.692985
33
0
39
0
210
0
220
0
230
1
0
SOLID
5
E6
100
AcDbEntity
8
SK2
62
256
6
ByLayer
370
13
48
1
60
0
100
AcDbTrace
10
43
20
-32.692985
30
0
11
39.500002
21
-33.153769
31
0
12
39.499998
22
-32.232202
32
0
13
43
23
-32.692985
33
0
39
0
210
0
220
0
230
1
0
ENDBLK
5
E8
100
AcDbEntity
8
0
100
AcDbBlockEnd
0
BLOCK
5
F1
100
AcDbEntity
8
0
100
AcDbBlockBegin
2
DimnDraft3D3
70
0
10
0
20
0
30
0
3
DimnDraft3D3
0
MTEXT
5
EB
100
AcDbEntity
8
SK2
62
256
6
ByLayer
370
13
48
1
60
0
100
AcDbMText
10
26.637105
20
16.184119
30
0
210
0
220
0
230
1
1
\W0.7581;23,46
40
3.5
41
0
44
1.084337
50
0
71
7
72
5
7
iso_b_vert
0
LINE
5
EC
100
AcDbEntity
8
SK2
62
256
6
ByLayer
370
13
48
1
60
0
100
AcDbLine
10
19.54
20
5.2875
30
0
11
19.54
21
17.309119
31
0
39
0
210
0
220
0
230
1
0
LINE
5
ED
100
AcDbEntity
8
SK2
62
256
6
ByLayer
370
13
48
1
60
0
100
AcDbLine
10
43
20
1.5875
30
0
11
43
21
17.309119
31
0
39
0
210
0
220
0
230
1
0
LINE
5
EE
100
AcDbEntity
8
SK2
62
256
6
ByLayer
370
13
48
1
60
0
100
AcDbLine
10
19.54
20
15.309119
30
0
11
43
21
15.309119
31
0
39
0
210
0
220
0
230
1
0
SOLID
5
EF
100
AcDbEntity
8
SK2
62
256
6
ByLayer
370
13
48
1
60
0
100
AcDbTrace
10
19.54
20
15.309119
30
0
11
23.039998
21
15.769903
31
0
12
23.040002
22
14.848335
32
0
13
19.54
23
15.309119
33
0
39
0
210
0
220
0
230
1
0
SOLID
5
F0
100
AcDbEntity
8
SK2
62
256
6
ByLayer
370
13
48
1
60
0
100
AcDbTrace
10
43
20
15.309119
30
0
11
39.500002
21
14.848335
31
0
12
39.499998
22
15.769903
32
0
13
43
23
15.309119
33
0
39
0
210
0
220
0
230
1
0
ENDBLK
5
F2
100
AcDbEntity
8
0
100
AcDbBlockEnd
0
BLOCK
5
FB
100
AcDbEntity
8
0
100
AcDbBlockBegin
2
DimnDraft3D4
70
0
10
0
20
0
30
0
3
DimnDraft3D4
0
MTEXT
5
F5
100
AcDbEntity
8
SK2
62
256
6
ByLayer
370
13
48
1
60
0
100
AcDbMText
10
50.278136
20
-15.627503
30
0
210
0
220
0
230
1
1
\W0.6367;1,26
40
3.5
41
0
44
1.084337
50
0
71
7
72
5
7
iso_b_vert
0
LINE
5
F6
100
AcDbEntity
8
SK2
62
256
6
ByLayer
370
13
48
1
60
0
100
AcDbLine
10
43
20
-1.5875
30
0
11
43
21
-18.502503
31
0
39
0
210
0
220
0
230
1
0
LINE
5
F7
100
AcDbEntity
8
SK2
62
256
6
ByLayer
370
13
48
1
60
0
100
AcDbLine
10
41.74
20
-5.2875
30
0
11
41.74
21
-18.502503
31
0
39
0
210
0
220
0
230
1
0
LINE
5
F8
100
AcDbEntity
8
SK2
62
256
6
ByLayer
370
13
48
1
60
0
100
AcDbLine
10
32.99
20
-16.502503
30
0
11
56.559715
21
-16.502503
31
0
39
0
210
0
220
0
230
1
0
SOLID
5
F9
100
AcDbEntity
8
SK2
62
256
6
ByLayer
370
13
48
1
60
0
100
AcDbTrace
10
43
20
-16.502503
30
0
11
46.499998
21
-16.041719
31
0
12
46.500002
22
-16.963287
32
0
13
43
23
-16.502503
33
0
39
0
210
0
220
0
230
1
0
SOLID
5
FA
100
AcDbEntity
8
SK2
62
256
6
ByLayer
370
13
48
1
60
0
100
AcDbTrace
10
41.74
20
-16.502503
30
0
11
38.240002
21
-16.963287
31
0
12
38.239998
22
-16.041719
32
0
13
41.74
23
-16.502503
33
0
39
0
210
0
220
0
230
1
0
ENDBLK
5
FC
100
AcDbEntity
8
0
100
AcDbBlockEnd
0
BLOCK
5
105
100
AcDbEntity
8
0
100
AcDbBlockBegin
2
DimnDraft3D5
70
0
10
0
20
0
30
0
3
DimnDraft3D5
0
MTEXT
5
FF
100
AcDbEntity
8
SK2
62
256
6
ByLayer
370
13
48
1
60
0
100
AcDbMText
10
-4.132218
20
-21.468428
30
0
210
0
220
0
230
1
1
\W0.7495;77,74
40
3.5
41
0
44
1.084337
50
0
71
7
72
5
7
iso_b_vert
0
LINE
5
100
100
AcDbEntity
8
SK2
62
256
6
ByLayer
370
13
48
1
60
0
100
AcDbLine
10
-36
20
-5.5875
30
0
11
-36
21
-24.343428
31
0
39
0
210
0
220
0
230
1
0
LINE
5
101
100
AcDbEntity
8
SK2
62
256
6
ByLayer
370
13
48
1
60
0
100
AcDbLine
10
41.74
20
-5.2875
30
0
11
41.74
21
-24.343428
31
0
39
0
210
0
220
0
230
1
0
LINE
5
102
100
AcDbEntity
8
SK2
62
256
6
ByLayer
370
13
48
1
60
0
100
AcDbLine
10
-36
20
-22.343428
30
0
11
41.74
21
-22.343428
31
0
39
0
210
0
220
0
230
1
0
SOLID
5
103
100
AcDbEntity
8
SK2
62
256
6
ByLayer
370
13
48
1
60
0
100
AcDbTrace
10
-36
20
-22.343428
30
0
11
-32.500002
21
-21.882645
31
0
12
-32.499998
22
-22.804212
32
0
13
-36
23
-22.343428
33
0
39
0
210
0
220
0
230
1
0
SOLID
5
104
100
AcDbEntity
8
SK2
62
256
6
ByLayer
370
13
48
1
60
0
100
AcDbTrace
10
41.74
20
-22.343428
30
0
11
38.240002
21
-22.804212
31
0
12
38.239998
22
-21.882645
32
0
13
41.74
23
-22.343428
33
0
39
0
210
0
220
0
230
1
0
ENDBLK
5
106
100
AcDbEntity
8
0
100
AcDbBlockEnd
0
BLOCK
5
110
100
AcDbEntity
8
0
100
AcDbBlockBegin
2
DimnDraft3D6
70
0
10
0
20
0
30
0
3
DimnDraft3D6
0
MTEXT
5
109
100
AcDbEntity
8
SK2
62
256
6
ByLayer
370
13
48
1
60
0
100
AcDbMText
10
-46.375163
20
23.34918
30
0
210
0
220
0
230
1
1
\W0.7317;8,000
40
3.5
41
0
44
1.084337
50
90
71
7
72
5
7
iso_b_vert
0
MTEXT
5
10A
100
AcDbEntity
8
SK2
62
256
6
ByLayer
370
13
48
1
60
0
100
AcDbMText
10
-46.375163
20
18.126524
30
0
210
0
220
0
230
1
1
%%c
40
3.5
41
0
44
1.084337
50
90
71
7
72
5
7
iso_b_vert
0
LINE
5
10B
100
AcDbEntity
8
SK2
62
256
6
ByLayer
370
13
48
1
60
0
100
AcDbLine
10
-37.5875
20
-4
30
0
11
-46.625163
21
-4
31
0
39
0
210
0
220
0
230
1
0
LINE
5
10C
100
AcDbEntity
8
SK2
62
256
6
ByLayer
370
13
48
1
60
0
100
AcDbLine
10
-37.5875
20
4
30
0
11
-46.625163
21
4
31
0
39
0
210
0
220
0
230
1
0
LINE
5
10D
100
AcDbEntity
8
SK2
62
256
6
ByLayer
370
13
48
1
60
0
100
AcDbLine
10
-44.625163
20
-4
30
0
11
-44.625163
21
33.121549
31
0
39
0
210
0
220
0
230
1
0
SOLID
5
10E
100
AcDbEntity
8
SK2
62
256
6
ByLayer
370
13
48
1
60
0
100
AcDbTrace
10
-44.625163
20
-4
30
0
11
-45.085946
21
-0.500002
31
0
12
-44.164379
22
-0.499998
32
0
13
-44.625163
23
-4
33
0
39
0
210
0
220
0
230
1
0
SOLID
5
10F
100
AcDbEntity
8
SK2
62
256
6
ByLayer
370
13
48
1
60
0
100
AcDbTrace
10
-44.625163
20
4
30
0
11
-44.164379
21
0.500002
31
0
12
-45.085946
22
0.499998
32
0
13
-44.625163
23
4
33
0
39
0
210
0
220
0
230
1
0
ENDBLK
5
111
100
AcDbEntity
8
0
100
AcDbBlockEnd
0
BLOCK
5
11B
100
AcDbEntity
8
0
100
AcDbBlockBegin
2
DimnDraft3D7
70
0
10
0
20
0
30
0
3
DimnDraft3D7
0
MTEXT
5
114
100
AcDbEntity
8
2
62
256
6
ByLayer
370
13
48
1
60
0
100
AcDbMText
10
53.333343
20
21.642266
30
0
210
0
220
0
230
1
1
\W0.7581;7,400
40
3.5
41
0
44
1.084337
50
90
71
7
72
5
7
iso_b_vert
0
MTEXT
5
115
100
AcDbEntity
8
2
62
256
6
ByLayer
370
13
48
1
60
0
100
AcDbMText
10
53.333343
20
16.41961
30
0
210
0
220
0
230
1
1
%%c
40
3.5
41
0
44
1.084337
50
90
71
7
72
5
7
iso_b_vert
0
LINE
5
116
100
AcDbEntity
8
2
62
256
6
ByLayer
370
13
48
1
60
0
100
AcDbLine
10
43.3275
20
-3.7
30
0
11
57.083343
21
-3.7
31
0
39
0
210
0
220
0
230
1
0
LINE
5
117
100
AcDbEntity
8
2
62
256
6
ByLayer
370
13
48
1
60
0
100
AcDbLine
10
43.3275
20
3.7
30
0
11
57.083343
21
3.7
31
0
39
0
210
0
220
0
230
1
0
LINE
5
118
100
AcDbEntity
8
2
62
256
6
ByLayer
370
13
48
1
60
0
100
AcDbLine
10
55.083343
20
-3.7
30
0
11
55.083343
21
31.783056
31
0
39
0
210
0
220
0
230
1
0
SOLID
5
119
100
AcDbEntity
8
2
62
256
6
ByLayer
370
13
48
1
60
0
100
AcDbTrace
10
55.083343
20
-3.7
30
0
11
54.622559
21
-0.200002
31
0
12
55.544126
22
-0.199998
32
0
13
55.083343
23
-3.7
33
0
39
0
210
0
220
0
230
1
0
SOLID
5
11A
100
AcDbEntity
8
2
62
256
6
ByLayer
370
13
48
1
60
0
100
AcDbTrace
10
55.083343
20
3.7
30
0
11
55.544126
21
0.200002
31
0
12
54.622559
22
0.199998
32
0
13
55.083343
23
3.7
33
0
39
0
210
0
220
0
230
1
0
ENDBLK
5
11C
100
AcDbEntity
8
0
100
AcDbBlockEnd
0
ENDSEC
0
SECTION
2
ENTITIES
0
ARC
5
97
100
AcDbEntity
8
1
62
256
6
ByLayer
370
18
48
1
60
0
100
AcDbCircle
39
0
10
0
20
3.2
30
0
40
0.8
210
0
220
0
230
1
100
AcDbArc
50
52.862223
51
90
0
ARC
5
98
100
AcDbEntity
8
1
62
256
6
ByLayer
370
18
48
1
60
0
100
AcDbCircle
39
0
10
0
20
-3.2
30
0
40
0.8
210
0
220
0
230
1
100
AcDbArc
50
270
51
307.137777
0
ARC
5
99
100
AcDbEntity
8
1
62
256
6
ByLayer
370
18
48
1
60
0
100
AcDbCircle
39
0
10
-0.965974
20
-4.475498
30
0
40
0.8
210
0
220
0
230
-1
100
AcDbArc
50
52.862223
51
90.034377
0
ARC
5
9A
100
AcDbEntity
8
1
62
256
6
ByLayer
370
18
48
1
60
0
100
AcDbCircle
39
0
10
-0.965974
20
4.475498
30
0
40
0.8
210
0
220
0
230
-1
100
AcDbArc
50
269.965623
51
307.137777
0
ELLIPSE
5
9B
100
AcDbEntity
8
1
62
256
6
ByLayer
370
18
48
1
60
0
100
AcDbEllipse
10
4.25
20
3.754527
30
0
11
-0.25
21
3.06151588455594E-17
31
0
210
0
220
0
230
1
40
0.999974
41
0.344037083133277
42
1.5801437733153
0
ELLIPSE
5
9C
100
AcDbEntity
8
1
62
256
6
ByLayer
370
18
48
1
60
0
100
AcDbEllipse
10
4.25
20
-3.754527
30
0
11
-0.25
21
3.06151588455594E-17
31
0
210
0
220
0
230
1
40
0.999974
41
-1.56324225411641
42
-0.340274459019828
0
ELLIPSE
5
9D
100
AcDbEntity
8
1
62
256
6
ByLayer
370
18
48
1
60
0
100
AcDbEllipse
10
43.045373
20
0.003531
30
0
11
0.137979128899367
21
-0.428995648224696
31
0
210
0
220
0
230
-1
40
0.08774
41
1.67674777018916
42
2.3233757212802
0
ELLIPSE
5
9E
100
AcDbEntity
8
1
62
256
6
ByLayer
370
13
48
1
60
0
100
AcDbEllipse
10
42.652416
20
1.84942
30
0
11
2.19994176321855
21
-1.11855714088604
31
0
210
0
220
0
230
-1
40
0.490363
41
1.55269150202594
42
1.8277208990149
0
ELLIPSE
5
9F
100
AcDbEntity
8
1
62
256
6
ByLayer
370
18
48
1
60
0
100
AcDbEllipse
10
42.27212
20
1.84942
30
0
11
0.573732355249233
21
-1.55259446320221
31
0
210
0
220
0
230
-1
40
0.115174
41
-1.50845549312818
42
-0.74286346670298
0
ELLIPSE
5
A0
100
AcDbEntity
8
1
62
256
6
ByLayer
370
18
48
1
60
0
100
AcDbEllipse
10
43.045373
20
-0.003531
30
0
11
0.137979128927665
21
0.428995648298068
31
0
210
0
220
0
230
-1
40
0.08774
41
-2.32337572128262
42
-1.67674777029266
0
ELLIPSE
5
A1
100
AcDbEntity
8
1
62
256
6
ByLayer
370
18
48
1
60
0
100
AcDbEllipse
10
42.860413
20
0.113274
30
0
11
0.0727819104905657
21
0.301917195726879
31
0
210
0
220
0
230
-1
40
0.478434
41
1.71012574932062
42
2.45976119973921
0
ELLIPSE
5
A2
100
AcDbEntity
8
1
62
256
6
ByLayer
370
13
48
1
60
0
100
AcDbEllipse
10
42.462509
20
1.726223
30
0
11
2.12812237297283
21
-1.46527276989143
31
0
210
0
220
0
230
-1
40
0.533762
41
1.44484622738516
42
1.70249406668163
0
ELLIPSE
5
A3
100
AcDbEntity
8
1
62
256
6
ByLayer
370
13
48
1
60
0
100
AcDbEllipse
10
42.143834
20
0.538444
30
0
11
0.153082081612423
21
0.258003636193771
31
0
210
0
220
0
230
1
40
0.454519
41
0.917105603404795
42
2.31336900500031
0
ELLIPSE
5
A4
100
AcDbEntity
8
1
62
256
6
ByLayer
370
18
48
1
60
0
100
AcDbEllipse
10
42.27212
20
-1.84942
30
0
11
0.573732355242971
21
1.55259446318934
31
0
210
0
220
0
230
-1
40
0.115174
41
0.742863466706332
42
1.50845549313632
0
ELLIPSE
5
A5
100
AcDbEntity
8
1
62
256
6
ByLayer
370
18
48
1
60
0
100
AcDbEllipse
10
43.000332
20
-0.000808
30
0
11
1.36629454283177
21
-3.69737092555936
31
0
210
0
220
0
230
-1
40
0.115174
41
-2.97029142650756
42
-2.86347579735335
0
ELLIPSE
5
A6
100
AcDbEntity
8
1
62
256
6
ByLayer
370
18
48
1
60
0
100
AcDbEllipse
10
43.000332
20
0.000808
30
0
11
1.36629454923102
21
3.69737094441911
31
0
210
0
220
0
230
-1
40
0.115174
41
2.86347579806945
42
2.97029142694622
0
POINT
5
6C
100
AcDbEntity
8
81
62
256
6
ByLayer
370
18
48
1
60
0
100
AcDbPoint
10
43
20
0
30
0
39
0
210
0
220
0
230
1
50
360
0
POINT
5
6E
100
AcDbEntity
8
80
62
256
6
ByLayer
370
18
48
1
60
0
100
AcDbPoint
10
0
20
0
30
0
39
0
210
0
220
0
230
1
50
360
0
POINT
5
70
100
AcDbEntity
8
SK2
62
256
6
ByLayer
370
18
48
1
60
1
100
AcDbPoint
10
-36
20
-4
30
0
39
0
210
0
220
0
230
1
50
360
0
POINT
5
72
100
AcDbEntity
8
SK2
62
256
6
ByLayer
370
18
48
1
60
1
100
AcDbPoint
10
-36
20
4
30
0
39
0
210
0
220
0
230
1
50
360
0
POINT
5
73
100
AcDbEntity
8
2
62
256
6
ByLayer
370
18
48
1
60
1
100
AcDbPoint
10
41.74
20
-3.7
30
0
39
0
210
0
220
0
230
1
50
360
0
POINT
5
75
100
AcDbEntity
8
2
62
256
6
ByLayer
370
18
48
1
60
1
100
AcDbPoint
10
41.74
20
3.7
30
0
39
0
210
0
220
0
230
1
50
360
0
SPLINE
5
A7
100
AcDbEntity
8
1
62
256
6
ByLayer
370
18
48
1
60
0
100
AcDbSpline
70
4
71
3
72
24
73
20
40
0
40
0
40
0
40
0
40
0.0720174726656313
40
0.154349801524763
40
0.217175802017251
40
0.268360406548264
40
0.312060403384947
40
0.381245043105755
40
0.459356012951433
40
0.532543950336769
40
0.589062779477835
40
0.639357317528992
40
0.706620594088304
40
0.778496375291445
40
0.813223319660718
40
0.840624035497872
40
0.884634878734497
40
0.955461020330864
40
1
40
1
40
1
40
1
41
1
10
4.25021168328769
20
-3.50448254478073
30
0
41
1
10
4.43458759455257
20
-3.50462957638973
30
0
41
1
10
4.8297533239687
20
-3.50491392047078
30
0
41
1
10
5.38581519415692
20
-3.50491652999381
30
0
41
1
10
5.88850381802666
20
-3.50532558667916
30
0
41
1
10
6.2922953265174
20
-3.50578472255776
30
0
41
1
10
6.71238047264359
20
-3.50658937716716
30
0
41
1
10
7.20140368674942
20
-3.50600248613623
30
0
41
1
10
7.76593118585208
20
-3.50516495264608
30
0
41
1
10
8.29802175471343
20
-3.50599593706613
30
0
41
1
10
8.758893359822
20
-3.50798224337845
30
0
41
1
10
9.20459956120257
20
-3.50855713981233
30
0
41
1
10
9.68962641904389
20
-3.50804924411506
30
0
41
1
10
10.1347868076281
20
-3.50731879695826
30
0
41
1
10
10.4778899811422
20
-3.50708244324841
30
0
41
1
10
10.7495136775452
20
-3.50743023634553
30
0
41
1
10
11.1137064489487
20
-3.50888812160363
30
0
41
1
10
11.5217949940027
20
-3.50912351207845
30
0
41
1
10
11.8171191330295
20
-3.50928014315264
30
0
41
1
10
11.9311286895937
20
-3.50928169757975
30
0
0
SPLINE
5
A8
100
AcDbEntity
8
1
62
256
6
ByLayer
370
18
48
1
60
0
100
AcDbSpline
70
4
71
2
72
6
73
3
40
0
40
0
40
0
40
1
40
1
40
1
41
1
10
41.1459254046258
20
-3.52676157448957
30
0
41
1
10
41.4304032620417
20
-3.52587571352075
30
0
41
1
10
41.7143875429462
20
-3.52764957404574
30
0
0
SPLINE
5
A9
100
AcDbEntity
8
1
62
256
6
ByLayer
370
18
48
1
60
0
100
AcDbSpline
70
4
71
3
72
26
73
22
40
0
40
0
40
0
40
0
40
0.0626058497589825
40
0.148268233073506
40
0.214075001037326
40
0.263488035721908
40
0.313846065964241
40
0.373631458866987
40
0.455041018189196
40
0.530396338458897
40
0.588824406808501
40
0.625560852078194
40
0.659119848947902
40
0.689801671077728
40
0.730199348385462
40
0.78697123041922
40
0.843584786646069
40
0.907225071065679
40
0.957635944572384
40
0.986544882171429
40
1
40
1
40
1
40
1
41
1
10
31.3931065953756
20
3.52025681258351
30
0
41
1
10
31.2261398667031
20
3.51987761001894
30
0
41
1
10
30.8305368261011
20
3.51920685292265
30
0
41
1
10
30.2572553371846
20
3.51887246648815
30
0
41
1
10
29.721178831935
20
3.51954130380685
30
0
41
1
10
29.2775962885962
20
3.51931385552027
30
0
41
1
10
28.8505170030761
20
3.5182169927541
30
0
41
1
10
28.3376718303868
20
3.51913357804716
30
0
41
1
10
27.7579441377324
20
3.51744377321481
30
0
41
1
10
27.1818394388107
20
3.5184812257298
30
0
41
1
10
26.7253264183224
20
3.51720022834152
30
0
41
1
10
26.3807250230051
20
3.51739092230667
30
0
41
1
10
26.1104237981661
20
3.51735224980195
30
0
41
1
10
25.8307884484645
20
3.51714210991665
30
0
41
1
10
25.4884171203476
20
3.51670836040006
30
0
41
1
10
25.0767861191178
20
3.51695655491903
30
0
41
1
10
24.603099928038
20
3.51673382260137
30
0
41
1
10
24.1461182978343
20
3.51631801236979
30
0
41
1
10
23.7636758437309
20
3.51633730199748
30
0
41
1
10
23.5166835820644
20
3.51575682901085
30
0
41
1
10
23.4034756202167
20
3.51558330612178
30
0
41
1
10
23.3674904369029
20
3.51553576954379
30
0
0
SPLINE
5
AA
100
AcDbEntity
8
1
62
256
6
ByLayer
370
18
48
1
60
0
100
AcDbSpline
70
4
71
3
72
28
73
24
40
0
40
0
40
0
40
0
40
0.0722935633301336
40
0.122846436930866
40
0.153330137652314
40
0.191715272763455
40
0.242985097552251
40
0.289126406859402
40
0.323159468712371
40
0.364938690960679
40
0.411064518123159
40
0.467973665771382
40
0.532633864640849
40
0.605138274421951
40
0.663132533198821
40
0.712285838112197
40
0.780941878480622
40
0.817406077090941
40
0.846826916865729
40
0.869575931905795
40
0.904535266048295
40
0.962228203618781
40
1
40
1
40
1
40
1
41
1
10
21.7296008208739
20
-3.51496612820733
30
0
41
1
10
21.960967851766
20
-3.51511356384506
30
0
41
1
10
22.3541192195827
20
-3.51533637391179
30
0
41
1
10
22.8448464895375
20
-3.51570001753771
30
0
41
1
10
23.2270137260605
20
-3.5157728190128
30
0
41
1
10
23.6114651313131
20
-3.51618919369903
30
0
41
1
10
24.046087456117
20
-3.51635522016272
30
0
41
1
10
24.4667638044398
20
-3.51646397638069
30
0
41
1
10
24.8570202404703
20
-3.51707146307592
30
0
41
1
10
25.2472865112064
20
-3.51679831380497
30
0
41
1
10
25.7107499041519
20
-3.5171263277789
30
0
41
1
10
26.2474533591704
20
-3.5173934662748
30
0
41
1
10
26.868576584271
20
-3.51757031435488
30
0
41
1
10
27.4931656478109
20
-3.51798481517503
30
0
41
1
10
28.0681338245278
20
-3.51836221689714
30
0
41
1
10
28.630758916316
20
-3.51878036477629
30
0
41
1
10
29.1245157245018
20
-3.51876581108783
30
0
41
1
10
29.5551006473607
20
-3.51961510005094
30
0
41
1
10
29.8387856856172
20
-3.51928255422328
30
0
41
1
10
30.1175300784325
20
-3.51897158571026
30
0
41
1
10
30.486855132572
20
-3.52001606354617
30
0
41
1
10
30.9043103828183
20
-3.51970011233519
30
0
41
1
10
31.2097642953063
20
-3.52016689980701
30
0
41
1
10
31.3306129454064
20
-3.52035315392647
30
0
0
SPLINE
5
AB
100
AcDbEntity
8
1
62
256
6
ByLayer
370
18
48
1
60
0
100
AcDbSpline
70
4
71
3
72
24
73
20
40
0
40
0
40
0
40
0
40
0.0551100256671485
40
0.137268712019345
40
0.203192794669446
40
0.25196325146295
40
0.29574828572972
40
0.341997906505715
40
0.398881246048845
40
0.469235435328633
40
0.536895814275713
40
0.590543245868912
40
0.658315703531645
40
0.726050005458921
40
0.761886044358263
40
0.80097927817603
40
0.858431744593395
40
0.934889298814068
40
1
40
1
40
1
40
1
41
1
10
12.0048127762272
20
3.5089465428866
30
0
41
1
10
11.863271842598
20
3.50871453475543
30
0
41
1
10
11.5104069566694
20
3.50815925463721
30
0
41
1
10
10.9830447238069
20
3.5079059526538
30
0
41
1
10
10.4777011167638
20
3.50690026635945
30
0
41
1
10
10.0673821428914
20
3.50748724049956
30
0
41
1
10
9.70844898245491
20
3.5079943649296
30
0
41
1
10
9.32841326244809
20
3.50840380947571
30
0
41
1
10
8.87969060944079
20
3.50843676399273
30
0
41
1
10
8.37558139907836
20
3.5062523434062
30
0
41
1
10
7.87984123422808
20
3.50528529144191
30
0
41
1
10
7.39077480675715
20
3.50565331355733
30
0
41
1
10
6.90152873683627
20
3.50650259640327
30
0
41
1
10
6.45834149458071
20
3.50620894878304
30
0
41
1
10
6.08933617127337
20
3.50542126059108
30
0
41
1
10
5.74692912704896
20
3.50530721182255
30
0
41
1
10
5.29953138675234
20
3.50481152509974
30
0
41
1
10
4.78471335733721
20
3.50491450863882
30
0
41
1
10
4.41860130976127
20
3.50462945736518
30
0
41
1
10
4.25022219097974
20
3.50448669604151
30
0
0
SPLINE
5
AC
100
AcDbEntity
8
1
62
256
6
ByLayer
370
18
48
1
60
0
100
AcDbSpline
70
4
71
3
72
12
73
8
40
0
40
0
40
0
40
0
40
0.195703463346426
40
0.332035395482765
40
0.465628664682429
40
0.675163144103432
40
1
40
1
40
1
40
1
41
1
10
32.2811697454641
20
-0.977412224833415
30
0
41
1
10
32.2814862678036
20
-0.977852623249078
30
0
41
1
10
32.2886681137043
20
-0.98177872172397
30
0
41
1
10
32.3135593544574
20
-0.994675469719169
30
0
41
1
10
32.3353841235307
20
-1.00464443934925
30
0
41
1
10
32.4581745287904
20
-1.06953225498668
30
0
41
1
10
32.5663998503106
20
-1.13078281296185
30
0
41
1
10
32.646821180278
20
-1.17710887853937
30
0
0
SPLINE
5
AD
100
AcDbEntity
8
1
62
256
6
ByLayer
370
18
48
1
60
0
100
AcDbSpline
70
4
71
3
72
46
73
42
40
0
40
0
40
0
40
0
40
0.0581665818658596
40
0.0581665818658596
40
0.116333163731719
40
0.116333163731719
40
0.23266632746344
40
0.23266632746344
40
0.26174961839637
40
0.26174961839637
40
0.2908329093293
40
0.2908329093293
40
0.348999491195159
40
0.348999491195159
40
0.378082782128088
40
0.378082782128088
40
0.407166073061016
40
0.407166073061016
40
0.465332654926872
40
0.465332654926872
40
0.581665818658586
40
0.581665818658586
40
0.610749109591514
40
0.610749109591514
40
0.639832400524443
40
0.639832400524443
40
0.668915691457372
40
0.668915691457372
40
0.6979989823903
40
0.6979989823903
40
0.814332146122015
40
0.814332146122015
40
0.872498727987872
40
0.872498727987872
40
0.901582018920801
40
0.901582018920801
40
0.930665309853729
40
0.930665309853729
40
0.988831891719586
40
0.988831891719586
40
1
40
1
40
1
40
1
41
1
10
41.726625663272
20
-3.66927184918089
30
0
41
1
10
41.3336059559472
20
-3.69937043545815
30
0
41
1
10
40.9414080520099
20
-3.70695556700102
30
0
41
1
10
40.1554371199902
20
-3.67731455863225
30
0
41
1
10
39.7607486353007
20
-3.6397590302112
30
0
41
1
10
38.5875273372378
20
-3.46327741426822
30
0
41
1
10
37.8138189729213
20
-3.26096764045647
30
0
41
1
10
36.8394548189551
20
-2.91620416567412
30
0
41
1
10
36.6442225145216
20
-2.84264912896185
30
0
41
1
10
36.2525378262334
20
-2.68672771133782
30
0
41
1
10
36.0557826182575
20
-2.60423447622873
30
0
41
1
10
35.4650355706777
20
-2.34504515483059
30
0
41
1
10
35.0726299908621
20
-2.15758502531293
30
0
41
1
10
34.4832651174556
20
-1.85844943976602
30
0
41
1
10
34.2866780549925
20
-1.75575688885022
30
0
41
1
10
33.8928532794672
20
-1.54493727279285
30
0
41
1
10
33.6958371259318
20
-1.43689266801593
30
0
41
1
10
33.1078932896021
20
-1.1082638776347
30
0
41
1
10
32.7183348031108
20
-0.882728759962447
30
0
41
1
10
31.5515910116672
20
-0.195740402171879
30
0
41
1
10
30.776462801393
20
0.276310456776457
30
0
41
1
10
29.7925054754539
20
0.852786893273532
30
0
41
1
10
29.5953703139662
20
0.967191052765742
30
0
41
1
10
29.2021411527257
20
1.19197047437893
30
0
41
1
10
29.0057108122356
20
1.30254531988615
30
0
41
1
10
28.612872629049
20
1.51952929884158
30
0
41
1
10
28.4164429229427
20
1.62590250353344
30
0
41
1
10
28.0230181202217
20
1.83356761247211
30
0
41
1
10
27.8256340740201
20
1.93506032710064
30
0
41
1
10
26.8429523413743
20
2.42513423761389
30
0
41
1
10
26.0680516257314
20
2.76183242158618
30
0
41
1
10
24.9005098162581
20
3.16007223107417
30
0
41
1
10
24.5105476718032
20
3.27509493594147
30
0
41
1
10
23.9215691220268
20
3.41791115157648
30
0
41
1
10
23.7242030016901
20
3.46061961394557
30
0
41
1
10
23.3305066492278
20
3.53512326384239
30
0
41
1
10
23.1339630008602
20
3.56698681992558
30
0
41
1
10
22.544499816414
20
3.64616461464641
30
0
41
1
10
22.1517387724788
20
3.67708204469827
30
0
41
1
10
21.6816982924376
20
3.68710176393958
30
0
41
1
10
21.6060449404997
20
3.68788365067314
30
0
41
1
10
21.5304367596889
20
3.6878364019812
30
0
0
SPLINE
5
AE
100
AcDbEntity
8
1
62
256
6
ByLayer
370
18
48
1
60
0
100
AcDbSpline
70
4
71
3
72
8
73
4
40
0
40
0
40
0
40
0
40
1
40
1
40
1
40
1
41
1
10
41.7711135345907
20
-3.50790153270694
30
0
41
1
10
41.7506285131835
20
-3.52058141186546
30
0
41
1
10
41.732342950241
20
-3.52696755194413
30
0
41
1
10
41.7162974035258
20
-3.5269438971084
30
0
0
SPLINE
5
AF
100
AcDbEntity
8
1
62
256
6
ByLayer
370
18
48
1
60
0
100
AcDbSpline
70
4
71
3
72
20
73
16
40
0
40
0
40
0
40
0
40
0.125000000000001
40
0.125000000000001
40
0.250000000000002
40
0.250000000000002
40
0.375000000000003
40
0.375000000000003
40
0.500000000000004
40
0.500000000000004
40
0.750000000000005
40
0.750000000000005
40
0.875000000000003
40
0.875000000000003
40
1
40
1
40
1
40
1
41
1
10
42.4863352537031
20
1.81864338396082
30
0
41
1
10
42.4584220196134
20
1.89393513265205
30
0
41
1
10
42.4304050076
20
1.96915341631416
30
0
41
1
10
42.3743350636192
20
2.1195645556825
30
0
41
1
10
42.3462359840308
20
2.19475656367601
30
0
41
1
10
42.2898762025727
20
2.34485314819943
30
0
41
1
10
42.261628851844
20
2.41976177362213
30
0
41
1
10
42.2049542446335
20
2.56920655384752
30
0
41
1
10
42.1764969445787
20
2.64368050748072
30
0
41
1
10
42.0910943462693
20
2.86703881200751
30
0
41
1
10
42.0339070799529
20
3.01590914680233
30
0
41
1
10
41.9476983367249
20
3.23573033757066
30
0
41
1
10
41.9189242974752
20
3.30870975342117
30
0
41
1
10
41.8613008958555
20
3.45408198032391
30
0
41
1
10
41.8324388441748
20
3.52637596898927
30
0
41
1
10
41.8034510925795
20
3.59769102618205
30
0
0
SPLINE
5
B0
100
AcDbEntity
8
1
62
256
6
ByLayer
370
18
48
1
60
0
100
AcDbSpline
70
4
71
3
72
36
73
32
40
0
40
0
40
0
40
0
40
0.104838450594743
40
0.104838450594743
40
0.209676901189486
40
0.209676901189486
40
0.262096126486858
40
0.262096126486858
40
0.314515351784229
40
0.314515351784229
40
0.419353802378972
40
0.419353802378972
40
0.471773027676343
40
0.471773027676343
40
0.524192252973714
40
0.524192252973714
40
0.576611478271084
40
0.576611478271084
40
0.629030703568455
40
0.629030703568455
40
0.733869154163196
40
0.733869154163196
40
0.786288379460567
40
0.786288379460567
40
0.838707604757937
40
0.838707604757937
40
0.891126830055308
40
0.891126830055308
40
0.943546055352679
40
0.943546055352679
40
1
40
1
40
1
40
1
41
1
10
12.0786416855371
20
-0.499314417610549
30
0
41
1
10
12.3885828064445
20
-0.683849682684894
30
0
41
1
10
12.6988520001986
20
-0.863681123995889
30
0
41
1
10
13.3181784993735
20
-1.21728650937717
30
0
41
1
10
13.6268555118317
20
-1.39158112560256
30
0
41
1
10
14.0926389882643
20
-1.64252499646548
30
0
41
1
10
14.2481585215377
20
-1.7247212475641
30
0
41
1
10
14.558244148351
20
-1.88579108626689
30
0
41
1
10
14.7128086469919
20
-1.96498573405327
30
0
41
1
10
15.1765434236403
20
-2.19637048834718
30
0
41
1
10
15.4865769253555
20
-2.34133514023202
30
0
41
1
10
15.9516246971865
20
-2.54667256356848
30
0
41
1
10
16.1066296194437
20
-2.61335096041606
30
0
41
1
10
16.416558034827
20
-2.7409385644315
30
0
41
1
10
16.571598423182
20
-2.80178427991854
30
0
41
1
10
16.8814865214937
20
-2.91808324958291
30
0
41
1
10
17.036362753445
20
-2.9735035056581
30
0
41
1
10
17.3457773840252
20
-3.07904588075212
30
0
41
1
10
17.500138329829
20
-3.12930785616291
30
0
41
1
10
17.9645544978662
20
-3.27035468920158
30
0
41
1
10
18.2760799856879
20
-3.35195667986778
30
0
41
1
10
18.7404564351463
20
-3.45555909708838
30
0
41
1
10
18.8947903966126
20
-3.48701195202969
30
0
41
1
10
19.2041667469089
20
-3.54286550261764
30
0
41
1
10
19.3590380925091
20
-3.56739019879899
30
0
41
1
10
19.6689206239044
20
-3.60978574205035
30
0
41
1
10
19.8239540574132
20
-3.62764927863006
30
0
41
1
10
20.1339298111224
20
-3.65665773533311
30
0
41
1
10
20.2888409375694
20
-3.66774501317428
30
0
41
1
10
20.6106796503309
20
-3.68336452629288
30
0
41
1
10
20.7775708618051
20
-3.68745140801599
30
0
41
1
10
20.9443369105236
20
-3.68751212530535
30
0
0
SPLINE
5
B1
100
AcDbEntity
8
1
62
256
6
ByLayer
370
18
48
1
60
0
100
AcDbSpline
70
4
71
3
72
24
73
20
40
0
40
0
40
0
40
0
40
0.0898892583348659
40
0.0898892583348659
40
0.241574381945722
40
0.241574381945722
40
0.393259505556577
40
0.393259505556577
40
0.544944629167433
40
0.544944629167433
40
0.696629752778289
40
0.696629752778289
40
0.772472314583716
40
0.772472314583716
40
0.848314876389144
40
0.848314876389144
40
0.924157438194572
40
0.924157438194572
40
1
40
1
40
1
40
1
41
1
10
35.6854621973866
20
2.69237568393967
30
0
41
1
10
35.8691065796958
20
2.76749047014624
30
0
41
1
10
36.0528608967388
20
2.83916532002098
30
0
41
1
10
36.5460134252245
20
3.02262819395273
30
0
41
1
10
36.85546141061
20
3.12573790228674
30
0
41
1
10
37.4742796962597
20
3.30810833541952
30
0
41
1
10
37.7826891320343
20
3.38796088799145
30
0
41
1
10
38.4033469896117
20
3.52057231097487
30
0
41
1
10
38.7132742090856
20
3.57369741525557
30
0
41
1
10
39.3307185177273
20
3.65323883741868
30
0
41
1
10
39.6403457439725
20
3.6790599187307
30
0
41
1
10
40.1053038151742
20
3.69725785853009
30
0
41
1
10
40.2603239333673
20
3.69986772756633
30
0
41
1
10
40.5694331981736
20
3.69802745264974
30
0
41
1
10
40.7239849141085
20
3.69361402696561
30
0
41
1
10
41.0329138834907
20
3.67796979558696
30
0
41
1
10
41.1872800397025
20
3.66673707697316
30
0
41
1
10
41.4956388238663
20
3.63740529631229
30
0
41
1
10
41.6494640096064
20
3.61923613457577
30
0
41
1
10
41.8034510925586
20
3.59769102620044
30
0
0
SPLINE
5
B2
100
AcDbEntity
8
1
62
256
6
ByLayer
370
18
48
1
60
0
100
AcDbSpline
70
4
71
3
72
80
73
76
40
0
40
0
40
0
40
0
40
0.036864836545588
40
0.036864836545588
40
0.0778038770061967
40
0.0778038770061967
40
0.0982733972365003
40
0.0982733972365003
40
0.118742917466804
40
0.118742917466804
40
0.139212437697108
40
0.139212437697108
40
0.159681957927411
40
0.159681957927411
40
0.180151478157715
40
0.180151478157715
40
0.200620998388019
40
0.200620998388019
40
0.241560038848626
40
0.241560038848626
40
0.262029559078929
40
0.262029559078929
40
0.282499079309232
40
0.282499079309232
40
0.323438119769839
40
0.323438119769839
40
0.364377160230447
40
0.364377160230447
40
0.38484668046075
40
0.38484668046075
40
0.405316200691052
40
0.405316200691052
40
0.446255241151656
40
0.446255241151656
40
0.48719428161226
40
0.48719428161226
40
0.507663801842562
40
0.507663801842562
40
0.528133322072863
40
0.528133322072863
40
0.548602842303165
40
0.548602842303165
40
0.569072362533467
40
0.569072362533467
40
0.61001140299407
40
0.61001140299407
40
0.650950443454675
40
0.650950443454675
40
0.671419963684977
40
0.671419963684977
40
0.691889483915279
40
0.691889483915279
40
0.712359004145581
40
0.712359004145581
40
0.732828524375883
40
0.732828524375883
40
0.753298044606185
40
0.753298044606185
40
0.773767564836486
40
0.773767564836486
40
0.794237085066789
40
0.794237085066789
40
0.814706605297091
40
0.814706605297091
40
0.835176125527393
40
0.835176125527393
40
0.855645645757695
40
0.855645645757695
40
0.896584686218298
40
0.896584686218298
40
0.937523726678902
40
0.937523726678902
40
0.978462767139506
40
0.978462767139506
40
1
40
1
40
1
40
1
41
1
10
35.6852260320955
20
-2.68703134848403
30
0
41
1
10
35.3925410815042
20
-2.79463330128055
30
0
41
1
10
35.09969502498
20
-2.89378680044334
30
0
41
1
10
34.4828831290672
20
-3.08141890344712
30
0
41
1
10
34.1591274016756
20
-3.16812453786414
30
0
41
1
10
33.6716464588467
20
-3.27558179007363
30
0
41
1
10
33.5087022491927
20
-3.30827335771019
30
0
41
1
10
33.1834944002492
20
-3.36734166008514
30
0
41
1
10
33.0211872437933
20
-3.39358637746145
30
0
41
1
10
32.6967707694168
20
-3.43830339964475
30
0
41
1
10
32.5346305107422
20
-3.45685550088967
30
0
41
1
10
32.2100778793631
20
-3.4874607707751
30
0
41
1
10
32.0477434604166
20
-3.49940659404788
30
0
41
1
10
31.7230315245698
20
-3.51557076604644
30
0
41
1
10
31.5604379608274
20
-3.51946482832511
30
0
41
1
10
31.2351024771613
20
-3.52036425573121
30
0
41
1
10
31.0725236226177
20
-3.51763366000989
30
0
41
1
10
30.5851210233116
20
-3.49840468341807
30
0
41
1
10
30.2610915305143
20
-3.46957068878163
30
0
41
1
10
29.7739549976097
20
-3.40700766116726
30
0
41
1
10
29.6113463887185
20
-3.38274087992102
30
0
41
1
10
29.2856843402445
20
-3.32647873111699
30
0
41
1
10
29.1230634425798
20
-3.29430395377273
30
0
41
1
10
28.6358004497465
20
-3.18926344838727
30
0
41
1
10
28.3113204947637
20
-3.1065613108039
30
0
41
1
10
27.661767354661
20
-2.91394720606382
30
0
41
1
10
27.3362489736233
20
-2.80573952625733
30
0
41
1
10
26.8484863947007
20
-2.62594171640856
30
0
41
1
10
26.6860348600373
20
-2.56323404400226
30
0
41
1
10
26.3614715505775
20
-2.43303082548826
30
0
41
1
10
26.1992809620577
20
-2.36534874791749
30
0
41
1
10
25.7125011776441
20
-2.15483110306025
30
0
41
1
10
25.3866231362981
20
-2.004922471415
30
0
41
1
10
24.7362825233467
20
-1.68966254818682
30
0
41
1
10
24.4119503771544
20
-1.5241741941465
30
0
41
1
10
23.924888433367
20
-1.26874862869693
30
0
41
1
10
23.762621547741
20
-1.18198813362952
30
0
41
1
10
23.4377306233701
20
-1.00579104876144
30
0
41
1
10
23.2750088099438
20
-0.916273011197347
30
0
41
1
10
22.9494577162776
20
-0.736259649919901
30
0
41
1
10
22.7868024312341
20
-0.645753929917731
30
0
41
1
10
22.461977377519
20
-0.463204465956323
30
0
41
1
10
22.2997824070674
20
-0.37120050707631
30
0
41
1
10
21.813062596196
20
-0.0945486055715321
30
0
41
1
10
21.4881634610774
20
0.0902898727475474
30
0
41
1
10
20.8368599031236
20
0.46005765801479
30
0
41
1
10
20.5122097581134
20
0.643608854205382
30
0
41
1
10
20.0249605263705
20
0.912495400036505
30
0
41
1
10
19.862603929322
20
1.00130593781171
30
0
41
1
10
19.5378186770432
20
1.17717891214588
30
0
41
1
10
19.3753765872176
20
1.26423030316982
30
0
41
1
10
19.0498741682196
20
1.43531228781862
30
0
41
1
10
18.886862357182
20
1.51898326977459
30
0
41
1
10
18.5615060832758
20
1.68324061303241
30
0
41
1
10
18.3990848012885
20
1.76399110618104
30
0
41
1
10
18.0743498674781
20
1.92175312635086
30
0
41
1
10
17.9120960132393
20
1.99864364487436
30
0
41
1
10
17.5871527044911
20
2.14707425776612
30
0
41
1
10
17.4244853349108
20
2.21924338435861
30
0
41
1
10
17.0990033835505
20
2.35973086632376
30
0
41
1
10
16.9360413690628
20
2.4281270393038
30
0
41
1
10
16.610864936553
20
2.55838941254052
30
0
41
1
10
16.4484931479373
20
2.62029326741532
30
0
41
1
10
16.1235886479556
20
2.73932639632005
30
0
41
1
10
15.9611538520241
20
2.79626746280962
30
0
41
1
10
15.6364794122946
20
2.9044417320971
30
0
41
1
10
15.4741292191314
20
2.95514016181042
30
0
41
1
10
14.986508066022
20
3.09808412386809
30
0
41
1
10
14.6602042647257
20
3.18250846259312
30
0
41
1
10
14.0107985442289
20
3.32059078922174
30
0
41
1
10
13.6864115225694
20
3.3769222884284
30
0
41
1
10
13.0361106417653
20
3.45972629331118
30
0
41
1
10
12.7103674050814
20
3.48748786720921
30
0
41
1
10
12.2143616525468
20
3.50742161066805
30
0
41
1
10
12.0434980967786
20
3.51028087678733
30
0
41
1
10
11.8726606224174
20
3.50909634427109
30
0
0
SPLINE
5
B3
100
AcDbEntity
8
1
62
256
6
ByLayer
370
18
48
1
60
0
100
AcDbSpline
70
4
71
3
72
12
73
8
40
0
40
0
40
0
40
0
40
0.249999999999995
40
0.249999999999995
40
0.499999999999989
40
0.499999999999989
40
1
40
1
40
1
40
1
41
1
10
41.7550496688963
20
-3.59371782952275
30
0
41
1
10
41.7600426983063
20
-3.58042317350498
30
0
41
1
10
41.7647186688954
20
-3.56678891151677
30
0
41
1
10
41.7720062286825
20
-3.54245053089022
30
0
41
1
10
41.7745799617439
20
-3.53180349525263
30
0
41
1
10
41.7782550630652
20
-3.50894292342051
30
0
41
1
10
41.7758122467767
20
-3.5049931099347
30
0
41
1
10
41.7711135345888
20
-3.50790153270807
30
0
0
SPLINE
5
B4
100
AcDbEntity
8
1
62
256
6
ByLayer
370
18
48
1
60
0
100
AcDbSpline
70
4
71
3
72
32
73
28
40
0
40
0
40
0
40
0
40
0.250000000000023
40
0.250000000000023
40
0.375000000000031
40
0.375000000000031
40
0.500000000000039
40
0.500000000000039
40
0.625000000000047
40
0.625000000000047
40
0.687500000000046
40
0.687500000000046
40
0.718750000000046
40
0.718750000000046
40
0.750000000000046
40
0.750000000000046
40
0.812500000000039
40
0.812500000000039
40
0.843750000000033
40
0.843750000000033
40
0.875000000000026
40
0.875000000000026
40
0.90625000000002
40
0.90625000000002
40
0.937500000000013
40
0.937500000000013
40
1
40
1
40
1
40
1
41
1
10
38.7040440326755
20
1.30455599887753
30
0
41
1
10
38.9573337428553
20
1.10819517127828
30
0
41
1
10
39.2141862912607
20
0.929793100384444
30
0
41
1
10
39.606895510535
20
0.699643472845111
30
0
41
1
10
39.7390256792501
20
0.629112199032136
30
0
41
1
10
40.006142189423
20
0.502446407067737
30
0
41
1
10
40.1413173989494
20
0.446355487928514
30
0
41
1
10
40.4079335640955
20
0.353714582979478
30
0
41
1
10
40.5401859989793
20
0.316697887289621
30
0
41
1
10
40.7367591829264
20
0.277085007297444
30
0
41
1
10
40.8020784749841
20
0.266534654508007
30
0
41
1
10
40.8992222566211
20
0.255079584902944
30
0
41
1
10
40.9314326684227
20
0.251993606425089
30
0
41
1
10
40.9954555566129
20
0.24732992145934
30
0
41
1
10
41.0273093399339
20
0.245662046761367
30
0
41
1
10
41.1204569823041
20
0.248293455328508
30
0
41
1
10
41.178985985722
20
0.258592750527441
30
0
41
1
10
41.2593922430721
20
0.290727632441758
30
0
41
1
10
41.2845986145724
20
0.304246867522409
30
0
41
1
10
41.3299554930027
20
0.338175833482723
30
0
41
1
10
41.3502675834362
20
0.359139114727128
30
0
41
1
10
41.3841768944708
20
0.408049824091279
30
0
41
1
10
41.3975708356792
20
0.435617731676132
30
0
41
1
10
41.4174003961992
20
0.496836074996367
30
0
41
1
10
41.4238592066005
20
0.53078061861234
30
0
41
1
10
41.4328052479755
20
0.636595551237377
30
0
41
1
10
41.4250434314639
20
0.714559551868973
30
0
41
1
10
41.4077158871609
20
0.792564898044901
30
0
0
SPLINE
5
B5
100
AcDbEntity
8
1
62
256
6
ByLayer
370
18
48
1
60
0
100
AcDbSpline
70
4
71
3
72
10
73
6
40
0
40
0
40
0
40
0
40
0.5
40
0.5
40
1
40
1
40
1
40
1
41
1
10
4.12216613843188
20
-3.48781811162328
30
0
41
1
10
4.10390965657456
20
-3.49125042298488
30
0
41
1
10
4.08740556396262
20
-3.4952916880755
30
0
41
1
10
4.05779085756694
20
-3.50442967086565
30
0
41
1
10
4.04474951976857
20
-3.50954458285125
30
0
41
1
10
4.03418167538723
20
-3.51485353576911
30
0
0
SPLINE
5
B6
100
AcDbEntity
8
1
62
256
6
ByLayer
370
18
48
1
60
0
100
AcDbSpline
70
4
71
3
72
14
73
10
40
0
40
0
40
0
40
0
40
0.25
40
0.25
40
0.499999999999999
40
0.499999999999999
40
0.75
40
0.75
40
1
40
1
40
1
40
1
41
1
10
41.4077158871606
20
0.792564898044816
30
0
41
1
10
41.4012704565192
20
0.821581014792088
30
0
41
1
10
41.3985308379005
20
0.851290824945579
30
0
41
1
10
41.4022463078618
20
0.912473460231809
30
0
41
1
10
41.4086868782844
20
0.943183068584744
30
0
41
1
10
41.4339937625973
20
1.00151661404638
30
0
41
1
10
41.4529789423366
20
1.02797706495389
30
0
41
1
10
41.5020475759054
20
1.0697043019394
30
0
41
1
10
41.5318769521176
20
1.08288756660258
30
0
41
1
10
41.5628990388027
20
1.09029258087395
30
0
0
SPLINE
5
B7
100
AcDbEntity
8
1
62
256
6
ByLayer
370
18
48
1
60
0
100
AcDbSpline
70
4
71
3
72
55
73
51
40
0
40
0
40
0
40
0
40
0.0624999999999951
40
0.0624999999999951
40
0.12499999999999
40
0.12499999999999
40
0.24999999999998
40
0.24999999999998
40
0.374999999999971
40
0.374999999999971
40
0.437499999999966
40
0.437499999999966
40
0.499999999999961
40
0.499999999999961
40
0.624999999999952
40
0.624999999999952
40
0.64062499999995
40
0.648437499999948
40
0.648437499999948
40
0.652343749999948
40
0.652343749999948
40
0.654296874999949
40
0.654296874999949
40
0.656249999999949
40
0.656249999999949
40
0.687499999999954
40
0.687499999999954
40
0.718749999999958
40
0.718749999999958
40
0.73437499999996
40
0.73437499999996
40
0.749999999999962
40
0.749999999999962
40
0.765624999999965
40
0.765624999999965
40
0.781249999999967
40
0.781249999999967
40
0.796874999999969
40
0.796874999999969
40
0.812499999999971
40
0.812499999999971
40
0.843749999999976
40
0.843749999999976
40
0.874999999999981
40
0.874999999999981
40
0.906249999999986
40
0.906249999999986
40
0.937499999999991
40
0.937499999999991
40
1
40
1
40
1
40
1
41
1
10
12.0786603127219
20
-0.4993535735222
30
0
41
1
10
11.8129393662143
20
-0.34174731045141
30
0
41
1
10
11.5454735206155
20
-0.1865648978374
30
0
41
1
10
11.0063489095288
20
0.117580589816583
30
0
41
1
10
10.7340622139228
20
0.266854919930552
30
0
41
1
10
9.9143704466743
20
0.69958475318802
30
0
41
1
10
9.36489975277803
20
0.967523373792204
30
0
41
1
10
8.25037002549237
20
1.44780166184745
30
0
41
1
10
7.68521403119277
20
1.65992206823569
30
0
41
1
10
6.81963416322202
20
1.92972438039655
30
0
41
1
10
6.52815595153294
20
2.01166666132636
30
0
41
1
10
5.93860585291253
20
2.15934068935468
30
0
41
1
10
5.64010992874091
20
2.22515788448115
30
0
41
1
10
4.73700907726368
20
2.39804078903703
30
0
41
1
10
4.1264231307137
20
2.48034704636365
30
0
41
1
10
3.43410326553175
20
2.53894968163249
30
0
41
1
10
3.31859220427279
20
2.54800784917632
30
0
41
1
10
3.20289226437313
20
2.5560101480819
30
0
41
1
10
3.14501061591437
20
2.55983568213756
30
0
41
1
10
3.12564474556746
20
2.55962267385388
30
0
41
1
10
3.09720648204367
20
2.55617447612386
30
0
41
1
10
3.08766131281069
20
2.5544590569898
30
0
41
1
10
3.06961983045071
20
2.54956475656934
30
0
41
1
10
3.06131389751747
20
2.54616722911777
30
0
41
1
10
2.91775865323206
20
2.49142135484843
30
0
41
1
10
2.78637165370009
20
2.43287992530011
30
0
41
1
10
2.54015863792193
20
2.29703214720038
30
0
41
1
10
2.42447939499593
20
2.21971877813067
30
0
41
1
10
2.27060530397176
20
2.07982580678791
30
0
41
1
10
2.22368441257797
20
2.03002157286653
30
0
41
1
10
2.14060940716561
20
1.92237302105815
30
0
41
1
10
2.10412065869303
20
1.86372509432576
30
0
41
1
10
2.04698434244673
20
1.74050555825511
30
0
41
1
10
2.02619602346502
20
1.67613455456666
30
0
41
1
10
2.00125418800425
20
1.54125944905564
30
0
41
1
10
1.99737255555641
20
1.47021418789939
30
0
41
1
10
2.00624133708868
20
1.329545242324
30
0
41
1
10
2.01878248698893
20
1.25867940194746
30
0
41
1
10
2.05732135379205
20
1.11788107187141
30
0
41
1
10
2.0828167078032
20
1.04936586687123
30
0
41
1
10
2.17336199822779
20
0.847945864623853
30
0
41
1
10
2.25310289669608
20
0.718200679493066
30
0
41
1
10
2.42926873630128
20
0.474377567088965
30
0
41
1
10
2.52639412937793
20
0.358938307277128
30
0
41
1
10
2.7322410815575
20
0.136213025907864
30
0
41
1
10
2.84134191363881
20
0.0288004974406704
30
0
41
1
10
3.06408384282042
20
-0.176698809515301
30
0
41
1
10
3.17824730300856
20
-0.275315874113829
30
0
41
1
10
3.52677333146187
20
-0.562056123897577
30
0
41
1
10
3.76704787478889
20
-0.741241547398914
30
0
41
1
10
4.01235621892505
20
-0.912509603995659
30
0
0
SPLINE
5
B8
100
AcDbEntity
8
1
62
256
6
ByLayer
370
18
48
1
60
0
100
AcDbSpline
70
4
71
3
72
8
73
4
40
0
40
0
40
0
40
0
40
1
40
1
40
1
40
1
41
1
10
41.726625663272
20
-3.66927184918089
30
0
41
1
10
41.736110614732
20
-3.64410279229207
30
0
41
1
10
41.7455854797647
20
-3.61891758882277
30
0
41
1
10
41.7550496689177
20
-3.59371782952928
30
0
0
SPLINE
5
B9
100
AcDbEntity
8
1
62
256
6
ByLayer
370
18
48
1
60
0
100
AcDbSpline
70
4
71
3
72
24
73
20
40
0
40
0
40
0
40
0
40
0.249999999999982
40
0.249999999999982
40
0.499999999999963
40
0.499999999999963
40
0.624999999999954
40
0.624999999999954
40
0.687499999999962
40
0.687499999999962
40
0.749999999999969
40
0.749999999999969
40
0.812499999999977
40
0.812499999999977
40
0.874999999999985
40
0.874999999999985
40
0.937499999999992
40
0.937499999999992
40
1
40
1
40
1
40
1
41
1
10
41.5628990388031
20
1.09029258087324
30
0
41
1
10
41.6678227610349
20
1.11533801603108
30
0
41
1
10
41.7716650320872
20
1.14381919497541
30
0
41
1
10
41.9756040281885
20
1.21313799570865
30
0
41
1
10
42.0751099726854
20
1.25344348283065
30
0
41
1
10
42.2148083526475
20
1.33159445614359
30
0
41
1
10
42.2601895197627
20
1.36098361479893
30
0
41
1
10
42.3227663944464
20
1.41158688363731
30
0
41
1
10
42.3426621047599
20
1.42950675419525
30
0
41
1
10
42.3800161117692
20
1.4680368468849
30
0
41
1
10
42.3975731473648
20
1.48881816054657
30
0
41
1
10
42.4285681864429
20
1.53248759135232
30
0
41
1
10
42.4421187030774
20
1.5554545382432
30
0
41
1
10
42.4647171281561
20
1.60403906804848
30
0
41
1
10
42.4738282026617
20
1.63004044124261
30
0
41
1
10
42.4863178177175
20
1.68282042032502
30
0
41
1
10
42.4897989803203
20
1.70960049210279
30
0
41
1
10
42.4917055170822
20
1.76389418730068
30
0
41
1
10
42.4900796839916
20
1.79161590596365
30
0
41
1
10
42.4863352537041
20
1.81864338396119
30
0
0
SPLINE
5
BA
100
AcDbEntity
8
1
62
256
6
ByLayer
370
18
48
1
60
0
100
AcDbSpline
70
4
71
3
72
82
73
78
40
0
40
0
40
0
40
0
40
0.0187135819427162
40
0.0187135819427162
40
0.0380059266007463
40
0.0380059266007463
40
0.0572982712587764
40
0.0572982712587764
40
0.0958829605748371
40
0.0958829605748371
40
0.115175305232867
40
0.115175305232867
40
0.134467649890897
40
0.134467649890897
40
0.153759994548927
40
0.153759994548927
40
0.173052339206957
40
0.173052339206957
40
0.211637028523017
40
0.211637028523017
40
0.230929373181047
40
0.230929373181047
40
0.250221717839077
40
0.250221717839077
40
0.288806407155136
40
0.288806407155136
40
0.327391096471196
40
0.327391096471196
40
0.365975785787255
40
0.365975785787255
40
0.404560475103315
40
0.404560475103315
40
0.423852819761345
40
0.423852819761345
40
0.443145164419374
40
0.443145164419374
40
0.481729853735431
40
0.481729853735431
40
0.50102219839346
40
0.50102219839346
40
0.520314543051489
40
0.520314543051489
40
0.539606887709518
40
0.539606887709518
40
0.558899232367547
40
0.558899232367547
40
0.597483921683604
40
0.597483921683604
40
0.616776266341633
40
0.616776266341633
40
0.636068610999662
40
0.636068610999662
40
0.655360955657691
40
0.655360955657691
40
0.674653300315721
40
0.674653300315721
40
0.71323798963178
40
0.71323798963178
40
0.73253033428981
40
0.73253033428981
40
0.75182267894784
40
0.75182267894784
40
0.771115023605869
40
0.771115023605869
40
0.790407368263899
40
0.790407368263899
40
0.82899205757996
40
0.82899205757996
40
0.867576746896021
40
0.867576746896021
40
0.906161436212081
40
0.906161436212081
40
0.944746125528142
40
0.944746125528142
40
0.983330814844203
40
0.983330814844203
40
1
40
1
40
1
40
1
41
1
10
16.2755406231249
20
2.68287817614575
30
0
41
1
10
16.4258602488805
20
2.74458683272425
30
0
41
1
10
16.5762466834227
20
2.80352874148278
30
0
41
1
10
16.8814865214943
20
2.91808324958313
30
0
41
1
10
17.0363627534457
20
2.97350350565833
30
0
41
1
10
17.3457773840259
20
3.07904588075235
30
0
41
1
10
17.5001383298297
20
3.12930785616314
30
0
41
1
10
17.964554497867
20
3.27035468920181
30
0
41
1
10
18.2760799856887
20
3.35195667986798
30
0
41
1
10
18.7404564351472
20
3.45555909708858
30
0
41
1
10
18.8947903966135
20
3.48701195202986
30
0
41
1
10
19.2041667469098
20
3.54286550261781
30
0
41
1
10
19.3590380925101
20
3.56739019879913
30
0
41
1
10
19.6689206239054
20
3.60978574205046
30
0
41
1
10
19.8239540574143
20
3.62764927863017
30
0
41
1
10
20.1339298111234
20
3.6566577353332
30
0
41
1
10
20.2888409375705
20
3.66774501317437
30
0
41
1
10
20.7537085262215
20
3.69030602001234
30
0
41
1
10
21.0636490884395
20
3.69150957647477
30
0
41
1
10
21.5273204700621
20
3.67242600830303
30
0
41
1
10
21.6818378934278
20
3.66254712475666
30
0
41
1
10
21.9918848609223
20
3.63600419203385
30
0
41
1
10
22.1473809799167
20
3.61929601822993
30
0
41
1
10
22.612896310478
20
3.55903991410193
30
0
41
1
10
22.9214065661718
20
3.50489385421207
30
0
41
1
10
23.5404752411434
20
3.37155109894067
30
0
41
1
10
23.850673707897
20
3.29225809920013
30
0
41
1
10
24.4704502804569
20
3.10726659621957
30
0
41
1
10
24.7802644335461
20
3.00366601313019
30
0
41
1
10
25.3993296639357
20
2.77444711345828
30
0
41
1
10
25.7078465051587
20
2.64785449803116
30
0
41
1
10
26.1734673558117
20
2.44487386356621
30
0
41
1
10
26.3288574837314
20
2.37489595380143
30
0
41
1
10
26.6387701128011
20
2.23056110371334
30
0
41
1
10
26.7933061504432
20
2.15594907170731
30
0
41
1
10
27.256709401603
20
1.92614569113584
30
0
41
1
10
27.566555480407
20
1.76673163417675
30
0
41
1
10
28.0315359673152
20
1.51669993502054
30
0
41
1
10
28.1865429901845
20
1.43117001602457
30
0
41
1
10
28.496155400211
20
1.25814779747088
30
0
41
1
10
28.651057954532
20
1.17093137884541
30
0
41
1
10
28.9607455832576
20
0.994632200231678
30
0
41
1
10
29.1155468247075
20
0.905574726073667
30
0
41
1
10
29.4248796501708
20
0.725334042076156
30
0
41
1
10
29.5792231276854
20
0.633834632491585
30
0
41
1
10
30.0433408942768
20
0.358571415249429
30
0
41
1
10
30.3546941639601
20
0.174152909572342
30
0
41
1
10
30.8188742276546
20
-0.103569673038777
30
0
41
1
10
30.9731181528547
20
-0.196680530349823
30
0
41
1
10
31.2822437507101
20
-0.381281401652416
30
0
41
1
10
31.4370383780485
20
-0.472920373180784
30
0
41
1
10
31.746810826646
20
-0.655349097787138
30
0
41
1
10
31.901813648917
20
-0.746097158979381
30
0
41
1
10
32.2118179031957
20
-0.927039849731784
30
0
41
1
10
32.3665404805315
20
-1.01725846015981
30
0
41
1
10
32.8309686804883
20
-1.28248171805217
30
0
41
1
10
33.140752164086
20
-1.45359870459157
30
0
41
1
10
33.6043617379819
20
-1.70374477667812
30
0
41
1
10
33.7587550613761
20
-1.78596194826244
30
0
41
1
10
34.0686620296673
20
-1.94598546865205
30
0
41
1
10
34.2240860004226
20
-2.02416716789114
30
0
41
1
10
34.5342085814655
20
-2.17640817633156
30
0
41
1
10
34.689045947816
20
-2.25052318707
30
0
41
1
10
34.9979990110165
20
-2.39505413796775
30
0
41
1
10
35.152313511201
20
-2.4651916998599
30
0
41
1
10
35.616336888045
20
-2.66733132646459
30
0
41
1
10
35.9267101560658
20
-2.79223465233591
30
0
41
1
10
36.5460134252277
20
-3.02262819395383
30
0
41
1
10
36.8554614106132
20
-3.1257379022878
30
0
41
1
10
37.474279696263
20
-3.3081083354204
30
0
41
1
10
37.7826891320377
20
-3.38796088799228
30
0
41
1
10
38.4033469896152
20
-3.5205723109755
30
0
41
1
10
38.713274209089
20
-3.57369741525611
30
0
41
1
10
39.3307185177309
20
-3.65323883741905
30
0
41
1
10
39.6403457439761
20
-3.67905991873096
30
0
41
1
10
40.0842305310294
20
-3.69643307371609
30
0
41
1
10
40.2181687238225
20
-3.69909411032967
30
0
41
1
10
40.3518101195191
20
-3.69912732266462
30
0
0
SPLINE
5
BB
100
AcDbEntity
8
1
62
256
6
ByLayer
370
18
48
1
60
0
100
AcDbSpline
70
4
71
3
72
16
73
12
40
0
40
0
40
0
40
0
40
0.126869045425347
40
0.126869045425347
40
0.262849576116479
40
0.262849576116479
40
0.398830106807611
40
0.398830106807611
40
0.942752229572125
40
0.942752229572125
40
1
40
1
40
1
40
1
41
1
10
41.1420163716164
20
-3.52676658525775
30
0
41
1
10
40.958712281155
20
-3.52690142886595
30
0
41
1
10
40.7754000791365
20
-3.52235267770308
30
0
41
1
10
40.3952758844499
20
-3.50326004591364
30
0
41
1
10
40.1980739449061
20
-3.48797552930139
30
0
41
1
10
39.8048083949055
20
-3.44696176652974
30
0
41
1
10
39.6088962459087
20
-3.42127624003669
30
0
41
1
10
38.631877880871
20
-3.26777465399724
30
0
41
1
10
37.8581250147768
20
-3.06486901022609
30
0
41
1
10
36.997048208321
20
-2.76470640268047
30
0
41
1
10
36.9149906199996
20
-2.73536137174739
30
0
41
1
10
36.8328563801135
20
-2.70527052747778
30
0
0
SPLINE
5
BC
100
AcDbEntity
8
1
62
256
6
ByLayer
370
13
48
1
60
0
100
AcDbSpline
70
4
71
3
72
20
73
16
40
0
40
0
40
0
40
0
40
0.103222876030738
40
0.103222876030738
40
0.233967474092771
40
0.233967474092771
40
0.495456670216838
40
0.495456670216838
40
0.560828969247855
40
0.560828969247855
40
0.626201268278872
40
0.626201268278872
40
0.756945866340905
40
0.756945866340905
40
1
40
1
40
1
40
1
41
1
10
36.8328563801083
20
-2.70527052747585
30
0
41
1
10
36.524803982363
20
-2.59241191040832
30
0
41
1
10
36.2156733290074
20
-2.4690619561014
30
0
41
1
10
35.5105060782101
20
-2.16755367150063
30
0
41
1
10
35.1193503854487
20
-1.98601950694407
30
0
41
1
10
33.9502159783908
20
-1.4119583966999
30
0
41
1
10
33.1764412284156
20
-0.989074206197415
30
0
41
1
10
32.1993259877855
20
-0.438640399659391
30
0
41
1
10
32.0034269686548
20
-0.327432538495941
30
0
41
1
10
31.6101611307787
20
-0.103624612407799
30
0
41
1
10
31.4128567477412
20
0.0089258850939302
30
0
41
1
10
30.8244516515015
20
0.344342864523156
30
0
41
1
10
30.4345392911077
20
0.565657840700169
30
0
41
1
10
29.3218997701886
20
1.18397316952007
30
0
41
1
10
28.6008726476314
20
1.56834712714377
30
0
41
1
10
27.8714934304466
20
1.91669364367692
30
0
0
SPLINE
5
BD
100
AcDbEntity
8
1
62
256
6
ByLayer
370
18
48
1
60
0
100
AcDbSpline
70
4
71
3
72
28
73
24
40
0
40
0
40
0
40
0
40
0.111377167922739
40
0.111377167922739
40
0.222754335845477
40
0.222754335845477
40
0.334131503768216
40
0.334131503768216
40
0.445508671690955
40
0.445508671690955
40
0.501197255652324
40
0.501197255652324
40
0.556885839613694
40
0.556885839613694
40
0.668263007536432
40
0.668263007536432
40
0.779640175459171
40
0.779640175459171
40
0.89101734338191
40
0.89101734338191
40
0.946705927343279
40
0.946705927343279
40
1
40
1
40
1
40
1
41
1
10
7.51976705320621
20
-2.64289320336843
30
0
41
1
10
7.84523808998762
20
-2.76405006934115
30
0
41
1
10
8.1701816373739
20
-2.87383883861122
30
0
41
1
10
8.81891921196134
20
-3.0717359072222
30
0
41
1
10
9.14305785915917
20
-3.15789777160546
30
0
41
1
10
9.79396783122974
20
-3.30150669841072
30
0
41
1
10
10.1191272378473
20
-3.3595482275993
30
0
41
1
10
10.7682706533196
20
-3.44844195658686
30
0
41
1
10
11.0928408691047
20
-3.48042526272357
30
0
41
1
10
11.5803137740537
20
-3.50433673733738
30
0
41
1
10
11.743158524841
20
-3.50848445278604
30
0
41
1
10
12.0685479146323
20
-3.50977908148502
30
0
41
1
10
12.2311253073918
20
-3.50687001895511
30
0
41
1
10
12.7182594012662
20
-3.48691703132306
30
0
41
1
10
13.0422699759888
20
-3.4591198635959
30
0
41
1
10
13.6923472227525
20
-3.37598529606572
30
0
41
1
10
14.018270240244
20
-3.31922647318458
30
0
41
1
10
14.6677739326588
20
-3.18066930041147
30
0
41
1
10
14.9924618332201
20
-3.09646757642167
30
0
41
1
10
15.4794285350788
20
-2.95352065014947
30
0
41
1
10
15.6418515409267
20
-2.90272173091952
30
0
41
1
10
15.9603568786358
20
-2.79646365139453
30
0
41
1
10
16.1162530512558
20
-2.74186425597517
30
0
41
1
10
16.2718730642908
20
-2.6849939357129
30
0
0
SPLINE
5
BE
100
AcDbEntity
8
1
62
256
6
ByLayer
370
18
48
1
60
0
100
AcDbSpline
70
4
71
3
72
28
73
24
40
0
40
0
40
0
40
0
40
0.0007994003155392
40
0.0007994003155392
40
0.0674127736278372
40
0.0674127736278372
40
0.134026146940136
40
0.134026146940136
40
0.200639520252434
40
0.200639520252434
40
0.33386626687703
40
0.33386626687703
40
0.467093013501627
40
0.467093013501627
40
0.600319760126224
40
0.600319760126224
40
0.66693313343852
40
0.66693313343852
40
0.733546506750816
40
0.733546506750816
40
0.866773253375408
40
0.866773253375408
40
1
40
1
40
1
40
1
41
1
10
31.3920234782462
20
3.51992910691803
30
0
41
1
10
31.3939688114718
20
3.5199246248005
30
0
41
1
10
31.3959141274314
20
3.51991968721902
30
0
41
1
10
31.5599595740976
20
3.51946497258606
30
0
41
1
10
31.722035923448
20
3.5156028195992
30
0
41
1
10
32.0465559919704
20
3.49948309640516
30
0
41
1
10
32.2090960531366
20
3.487546146607
30
0
41
1
10
32.5345894660716
20
3.45686655902512
30
0
41
1
10
32.6971070421029
20
3.43826341276687
30
0
41
1
10
33.1839350031318
20
3.37114074697504
30
0
41
1
10
33.5081724889097
20
3.31157659745384
30
0
41
1
10
34.1572167243137
20
3.16858590899162
30
0
41
1
10
34.4824669282023
20
3.08154596835277
30
0
41
1
10
35.1324480990895
20
2.88382296749265
30
0
41
1
10
35.456697522698
20
2.77278455852846
30
0
41
1
10
35.9433009162767
20
2.59083104891306
30
0
41
1
10
36.105604779828
20
2.5276886439068
30
0
41
1
10
36.4307432288826
20
2.39591350037912
30
0
41
1
10
36.5936360048113
20
2.32702982115021
30
0
41
1
10
37.0809327091637
20
2.11313137881689
30
0
41
1
10
37.4050682693764
20
1.9616316932829
30
0
41
1
10
38.0541307857953
20
1.64389175189277
30
0
41
1
10
38.3788752026094
20
1.47677779458991
30
0
41
1
10
38.7040440326561
20
1.30455599888779
30
0
0
SPLINE
5
BF
100
AcDbEntity
8
1
62
256
6
ByLayer
370
18
48
1
60
0
100
AcDbSpline
70
4
71
3
72
14
73
10
40
0
40
0
40
0
40
0
40
0.25
40
0.25
40
0.5
40
0.5
40
0.75
40
0.75
40
1
40
1
40
1
40
1
41
1
10
4.25048043904781
20
-0.935463603025681
30
0
41
1
10
4.2276599100199
20
-0.919634146327411
30
0
41
1
10
4.20439857464416
20
-0.905971408378235
30
0
41
1
10
4.15670718863279
20
-0.884386239497672
30
0
41
1
10
4.13287570577558
20
-0.876808299671382
30
0
41
1
10
4.08748757661269
20
-0.870900582000274
30
0
41
1
10
4.06706923063604
20
-0.872800415613568
30
0
41
1
10
4.0333686873206
20
-0.886393919131933
30
0
41
1
10
4.02061568801969
20
-0.897959684729187
30
0
41
1
10
4.01235621904476
20
-0.91250960407902
30
0
0
SPLINE
5
C0
100
AcDbEntity
8
1
62
256
6
ByLayer
370
18
48
1
60
0
100
AcDbSpline
70
4
71
3
72
26
73
22
40
0
40
0
40
0
40
0
40
0.110598210501962
40
0.110598210501962
40
0.167461042158531
40
0.167461042158531
40
0.2243238738151
40
0.2243238738151
40
0.451775200441375
40
0.451775200441375
40
0.565500863754512
40
0.565500863754512
40
0.622363695411081
40
0.622363695411081
40
0.67922652706765
40
0.67922652706765
40
0.906677853693928
40
0.906677853693928
40
0.963540685350497
40
0.963540685350497
40
1
40
1
40
1
40
1
41
1
10
6.57905963331532
20
2.70954970969424
30
0
41
1
10
6.95801073047969
20
2.56394302677026
30
0
41
1
10
7.33729365596378
20
2.40275837846664
30
0
41
1
10
7.91444208149022
20
2.13778851055699
30
0
41
1
10
8.11092271632913
20
2.04416872893813
30
0
41
1
10
8.50545929889174
20
1.85026396903402
30
0
41
1
10
8.70267939602249
20
1.75041530075234
30
0
41
1
10
9.68422481440152
20
1.24111092516142
30
0
41
1
10
10.4597514888784
20
0.798236754761632
30
0
41
1
10
11.6302720728688
20
0.117906232162539
30
0
41
1
10
12.0215502831341
20
-0.111731041089911
30
0
41
1
10
12.6128440075865
20
-0.455832737999543
30
0
41
1
10
12.8103075962862
20
-0.570241986660619
30
0
41
1
10
13.203082514073
20
-0.795652396794907
30
0
41
1
10
13.3988675959268
20
-0.90694581472178
30
0
41
1
10
14.3756304719313
20
-1.45499094999289
30
0
41
1
10
15.1507963806622
20
-1.86557267187283
30
0
41
1
10
16.1295286996872
20
-2.31633448196143
30
0
41
1
10
16.3257310808637
20
-2.40340480580301
30
0
41
1
10
16.6489297867853
20
-2.54057214333656
30
0
41
1
10
16.7755052145098
20
-2.59270104026632
30
0
41
1
10
16.9018750170088
20
-2.64309324719233
30
0
0
SPLINE
5
C1
100
AcDbEntity
8
1
62
256
6
ByLayer
370
13
48
1
60
0
100
AcDbSpline
70
4
71
3
72
20
73
16
40
0
40
0
40
0
40
0
40
0.0347565227390077
40
0.0347565227390077
40
0.228483349334693
40
0.228483349334693
40
0.61593700252606
40
0.61593700252606
40
0.712800415823902
40
0.712800415823902
40
0.809663829121745
40
0.809663829121745
40
0.906527242419587
40
0.906527242419587
40
1
40
1
40
1
40
1
41
1
10
16.9018750169131
20
-2.64309324715418
30
0
41
1
10
16.9725946242457
20
-2.67129394871438
30
0
41
1
10
17.0432498340115
20
-2.69895075489151
30
0
41
1
10
17.5067105031464
20
-2.87686749171539
30
0
41
1
10
17.8970792351837
20
-3.01028184858515
30
0
41
1
10
19.066104380181
20
-3.35373218952796
30
0
41
1
10
19.842273971166
20
-3.50737899342369
30
0
41
1
10
20.8264784507879
20
-3.59171752282123
30
0
41
1
10
21.0241105854963
20
-3.60317115726832
30
0
41
1
10
21.4180845283737
20
-3.61498305538916
30
0
41
1
10
21.6148202016385
20
-3.61538566461118
30
0
41
1
10
22.0082175537984
20
-3.60516947069345
30
0
41
1
10
22.2048774817721
20
-3.59455568056734
30
0
41
1
10
22.5917054309261
20
-3.56296500067177
30
0
41
1
10
22.7821025441872
20
-3.54233248096165
30
0
41
1
10
22.9723770992563
20
-3.51668160968112
30
0
0
SPLINE
5
C2
100
AcDbEntity
8
1
62
256
6
ByLayer
370
18
48
1
60
0
100
AcDbSpline
70
4
71
3
72
12
73
8
40
0
40
0
40
0
40
0
40
0.367098907834488
40
0.367098907834488
40
0.734197815668976
40
0.734197815668976
40
1
40
1
40
1
40
1
41
1
10
4.01225119536264
20
3.53709974788322
30
0
41
1
10
4.01225368575524
20
3.57079993047799
30
0
41
1
10
4.01225499531603
20
3.59856748811419
30
0
41
1
10
4.01225572883027
20
3.64184524677839
30
0
41
1
10
4.01225515676856
20
3.65722732481842
30
0
41
1
10
4.01225304631873
20
3.67330499978797
30
0
41
1
10
4.01225181913381
20
3.67690524799886
30
0
41
1
10
4.01225034876933
20
3.67732474656557
30
0
0
SPLINE
5
C3
100
AcDbEntity
8
1
62
256
6
ByLayer
370
18
48
1
60
0
100
AcDbSpline
70
4
71
3
72
22
73
18
40
0
40
0
40
0
40
0
40
0.125
40
0.125
40
0.1875
40
0.1875
40
0.25
40
0.25
40
0.5
40
0.5
40
0.625
40
0.625
40
0.75
40
0.75
40
0.875
40
0.875
40
1
40
1
40
1
40
1
41
1
10
41.7162974035226
20
-3.52694389710837
30
0
41
1
10
41.6629511082648
20
-3.52689682435758
30
0
41
1
10
41.6122754141066
20
-3.51878566152095
30
0
41
1
10
41.5404783700379
20
-3.49388687240173
30
0
41
1
10
41.5172506546459
20
-3.48345958237422
30
0
41
1
10
41.47226580789
20
-3.45816445817195
30
0
41
1
10
41.4504778976312
20
-3.44324987144142
30
0
41
1
10
41.3469016204383
20
-3.3583822622592
30
0
41
1
10
41.2796694187604
20
-3.25747011974019
30
0
41
1
10
41.203782233806
20
-3.05336807494757
30
0
41
1
10
41.1826211988804
20
-2.97571660793744
30
0
41
1
10
41.1504613622857
20
-2.80658084151108
30
0
41
1
10
41.1392537190681
20
-2.71483876621903
30
0
41
1
10
41.1265382534376
20
-2.51707209331187
30
0
41
1
10
41.1250289607804
20
-2.4110496605617
30
0
41
1
10
41.1321341486714
20
-2.1840980231008
30
0
41
1
10
41.1407325981315
20
-2.06485862502575
30
0
41
1
10
41.1541139421873
20
-1.9413788686999
30
0
0
SPLINE
5
C4
100
AcDbEntity
8
1
62
256
6
ByLayer
370
13
48
1
60
0
100
AcDbSpline
70
4
71
3
72
26
73
22
40
0
40
0
40
0
40
0
40
0.0722346375098122
40
0.149548417717328
40
0.149548417717328
40
0.226862197924843
40
0.226862197924843
40
0.304175978132359
40
0.304175978132359
40
0.381489758339875
40
0.381489758339875
40
0.536117318754906
40
0.536117318754906
40
0.613431098962421
40
0.613431098962421
40
0.690744879169937
40
0.768058659377453
40
0.768058659377453
40
0.845372439584968
40
0.845372439584968
40
1
40
1
40
1
40
1
41
1
10
4.2502297653416
20
-3.50462100300254
30
0
41
1
10
4.2502207796141
20
-3.50476913523895
30
0
41
1
10
4.25020065576382
20
-3.49442469468883
30
0
41
1
10
4.25017988154181
20
-3.46234680230836
30
0
41
1
10
4.2501593870264
20
-3.41739032853306
30
0
41
1
10
4.25014959653919
20
-3.38885701100585
30
0
41
1
10
4.25013249485556
20
-3.3203621935634
30
0
41
1
10
4.25012518041501
20
-3.28048363038883
30
0
41
1
10
4.25011404799488
20
-3.18946838123156
30
0
41
1
10
4.25011025378396
20
-3.13827606859832
30
0
41
1
10
4.25010542141752
20
-2.97055610103689
30
0
41
1
10
4.25011088181978
20
-2.83929942855568
30
0
41
1
10
4.2501342615131
20
-2.61326661521156
30
0
41
1
10
4.25014464124237
20
-2.53258685644354
30
0
41
1
10
4.25017018605553
20
-2.36351120484093
30
0
41
1
10
4.25020043528511
20
-2.18693725814842
30
0
41
1
10
4.25023923419988
20
-1.99557428780972
30
0
41
1
10
4.25028172890279
20
-1.79669293981249
30
0
41
1
10
4.25030475857204
20
-1.69382877865959
30
0
41
1
10
4.25037666406882
20
-1.38001780279646
30
0
41
1
10
4.2504288112338
20
-1.16211446222329
30
0
41
1
10
4.25048043904343
20
-0.935463604297496
30
0
0
SPLINE
5
C5
100
AcDbEntity
8
1
62
256
6
ByLayer
370
18
48
1
60
0
100
AcDbSpline
70
4
71
3
72
20
73
16
40
0
40
0
40
0
40
0
40
0.125
40
0.125
40
0.25
40
0.25
40
0.375
40
0.375
40
0.5
40
0.5
40
0.75
40
0.75
40
0.875
40
0.875
40
1
40
1
40
1
40
1
41
1
10
42.4863352537031
20
-1.81864338396085
30
0
41
1
10
42.4584220196133
20
-1.89393513265213
30
0
41
1
10
42.4304050075999
20
-1.9691534163143
30
0
41
1
10
42.3743350636191
20
-2.1195645556827
30
0
41
1
10
42.3462359840308
20
-2.19475656367627
30
0
41
1
10
42.2898762025725
20
-2.34485314819975
30
0
41
1
10
42.2616288518439
20
-2.4197617736225
30
0
41
1
10
42.2049542446333
20
-2.56920655384798
30
0
41
1
10
42.1764969445785
20
-2.64368050748121
30
0
41
1
10
42.0910943462691
20
-2.86703881200813
30
0
41
1
10
42.0339070799526
20
-3.01590914680304
30
0
41
1
10
41.9476983367246
20
-3.23573033757145
30
0
41
1
10
41.9189242974749
20
-3.30870975342199
30
0
41
1
10
41.8613008958551
20
-3.45408198032479
30
0
41
1
10
41.8324388441744
20
-3.52637596899021
30
0
41
1
10
41.8034510925791
20
-3.59769102618304
30
0
0
SPLINE
5
C6
100
AcDbEntity
8
1
62
256
6
ByLayer
370
18
48
1
60
0
100
AcDbSpline
70
4
71
3
72
26
73
22
40
0
40
0
40
0
40
0
40
0.0463843975127251
40
0.0463843975127251
40
0.0993954352210971
40
0.0993954352210971
40
0.152406472929469
40
0.152406472929469
40
0.364450623762958
40
0.364450623762958
40
0.470472699179702
40
0.470472699179702
40
0.523483736888076
40
0.523483736888076
40
0.576494774596449
40
0.576494774596449
40
0.788538925429947
40
0.788538925429947
40
0.894561000846695
40
0.894561000846695
40
1
40
1
40
1
40
1
41
1
10
25.9895706775802
20
2.71419455388829
30
0
41
1
10
26.1597921172223
20
2.64837673016325
30
0
41
1
10
26.3302445682686
20
2.57936469330556
30
0
41
1
10
26.696320791409
20
2.42495069856653
30
0
41
1
10
26.8920865135112
20
2.33865979071578
30
0
41
1
10
27.2850344198578
20
2.15850313964151
30
0
41
1
10
27.4827032662624
20
2.06439284149218
30
0
41
1
10
28.4660296833477
20
1.58125457224432
30
0
41
1
10
29.2417252817397
20
1.15240813289628
30
0
41
1
10
30.4099812144399
20
0.480975623250146
30
0
41
1
10
30.8001918016242
20
0.252483643583531
30
0
41
1
10
31.389291983606
20
-0.0929551696307556
30
0
41
1
10
31.5868832857886
20
-0.208763129875336
30
0
41
1
10
31.98040266186
20
-0.438516481314963
30
0
41
1
10
32.1764133335385
20
-0.552501773216534
30
0
41
1
10
33.1540101886744
20
-1.11591406634079
30
0
41
1
10
33.9279603490445
20
-1.54619476476952
30
0
41
1
10
35.0980644470412
20
-2.12658919566093
30
0
41
1
10
35.4899581848837
20
-2.30961031014221
30
0
41
1
10
36.2763955587709
20
-2.64643790306343
30
0
41
1
10
36.6653046764882
20
-2.79810598554982
30
0
41
1
10
37.0528748160571
20
-2.93194156773046
30
0
0
SPLINE
5
C7
100
AcDbEntity
8
1
62
256
6
ByLayer
370
13
48
1
60
0
100
AcDbSpline
70
4
71
3
72
16
73
12
40
0
40
0
40
0
40
0
40
0.0013732073986953
40
0.0013732073986953
40
0.500686603699351
40
0.500686603699351
40
0.625514952774513
40
0.625514952774513
40
0.750343301849676
40
0.750343301849676
40
1
40
1
40
1
40
1
41
1
10
37.0528738706568
20
-2.93194124126515
30
0
41
1
10
37.0550174435211
20
-2.93268145923733
30
0
41
1
10
37.0571609754263
20
-2.93342113171789
30
0
41
1
10
37.8387015953629
20
-3.2029149101059
30
0
41
1
10
38.6127124435095
20
-3.39962340661413
30
0
41
1
10
39.5907362101619
20
-3.54149707591427
30
0
41
1
10
39.7868835166022
20
-3.56466171414036
30
0
41
1
10
40.180722302976
20
-3.60023893193249
30
0
41
1
10
40.3780831277475
20
-3.61259553839903
30
0
41
1
10
40.9685339720352
20
-3.63297069702946
30
0
41
1
10
41.3613944658713
20
-3.62436425063498
30
0
41
1
10
41.7550496689012
20
-3.59371782952238
30
0
0
SPLINE
5
C8
100
AcDbEntity
8
1
62
256
6
ByLayer
370
18
48
1
60
0
100
AcDbSpline
70
4
71
3
72
14
73
10
40
0
40
0
40
0
40
0
40
0.142070709049127
40
0.142070709049127
40
0.286745619481542
40
0.286745619481542
40
0.865445261211203
40
0.865445261211203
40
1
40
1
40
1
40
1
41
1
10
21.8311759956471
20
-3.51455231637888
30
0
41
1
10
21.6382019410394
20
-3.51625070819878
30
0
41
1
10
21.4451814243201
20
-3.51278347150478
30
0
41
1
10
21.0551070585487
20
-3.49540528028678
30
0
41
1
10
20.8576878274202
20
-3.48125458798117
30
0
41
1
10
19.8746820089395
20
-3.3844025294587
30
0
41
1
10
19.0988244977924
20
-3.22379854008383
30
0
41
1
10
18.1387746731477
20
-2.9368854432137
30
0
41
1
10
17.9575053910066
20
-2.87885341975775
30
0
41
1
10
17.7759037655687
20
-2.81706107010413
30
0
0
SPLINE
5
C9
100
AcDbEntity
8
1
62
256
6
ByLayer
370
13
48
1
60
0
100
AcDbSpline
70
4
71
3
72
26
73
22
40
0
40
0
40
0
40
0
40
0.0657503784815167
40
0.0657503784815167
40
0.127202044931591
40
0.127202044931591
40
0.188653711381665
40
0.188653711381665
40
0.434460377181961
40
0.434460377181961
40
0.495912043632034
40
0.495912043632034
40
0.557363710082108
40
0.557363710082108
40
0.680267042982256
40
0.680267042982256
40
0.926073708782554
40
0.926073708782554
40
0.987525375232628
40
0.987525375232628
40
1
40
1
40
1
40
1
41
1
10
17.775904712111
20
-2.81706139217758
30
0
41
1
10
17.5669854199107
20
-2.74597386047637
30
0
41
1
10
17.3576262781529
20
-2.66990960904039
30
0
41
1
10
16.9512277965766
20
-2.51355560179863
30
0
41
1
10
16.7537430785789
20
-2.43364919626015
30
0
41
1
10
16.3603301776885
20
-2.26725726643872
30
0
41
1
10
16.1643229737154
20
-2.18075814581536
30
0
41
1
10
15.1864629250476
20
-1.73377326811828
30
0
41
1
10
14.411527741098
20
-1.32938744672649
30
0
41
1
10
13.435320596634
20
-0.79273688298963
30
0
41
1
10
13.2396542339889
20
-0.683914575213862
30
0
41
1
10
12.8471600265528
20
-0.463823308274016
30
0
41
1
10
12.6498641461778
20
-0.352264292584607
30
0
41
1
10
12.0592775639174
20
-0.017267014857083
30
0
41
1
10
11.6683264457421
20
0.20581637006137
30
0
41
1
10
10.4985824455757
20
0.865172589588013
30
0
41
1
10
9.72331981277554
20
1.29242077343278
30
0
41
1
10
8.74249904045914
20
1.78062703569694
30
0
41
1
10
8.54540500669856
20
1.87616325377434
30
0
41
1
10
8.30837696145616
20
1.98753431329499
30
0
41
1
10
8.26841279034406
20
2.00619067159454
30
0
41
1
10
8.22847929947278
20
2.02470749715843
30
0
0
SPLINE
5
CA
100
AcDbEntity
8
1
62
256
6
ByLayer
370
18
48
1
60
0
100
AcDbSpline
70
4
71
3
72
24
73
20
40
0
40
0
40
0
40
0
40
0.124999999999998
40
0.124999999999998
40
0.187499999999997
40
0.187499999999997
40
0.249999999999996
40
0.249999999999996
40
0.374999999999994
40
0.374999999999994
40
0.437499999999996
40
0.437499999999996
40
0.499999999999998
40
0.499999999999998
40
0.749999999999999
40
0.749999999999999
40
0.874999999999999
40
0.874999999999999
40
1
40
1
40
1
40
1
41
1
10
38.7040440326753
20
1.30455599887713
30
0
41
1
10
38.7418666657069
20
1.14406822669241
30
0
41
1
10
38.7937217686567
20
0.98364680495547
30
0
41
1
10
38.8898365317831
20
0.743101352999503
30
0
41
1
10
38.9250951904923
20
0.662632909747401
30
0
41
1
10
39.000821522399
20
0.503131641280106
30
0
41
1
10
39.0410317583664
20
0.424580737457887
30
0
41
1
10
39.167942977543
20
0.192138377762859
30
0
41
1
10
39.2608829836241
20
0.041436066412075
30
0
41
1
10
39.410808722275
20
-0.179242170884976
30
0
41
1
10
39.4626710649544
20
-0.252045651493432
30
0
41
1
10
39.5683964788598
20
-0.39422176151831
30
0
41
1
10
39.6223935352083
20
-0.46380546202397
30
0
41
1
10
39.8975289819359
20
-0.804893905018105
30
0
41
1
10
40.1339459231607
20
-1.05613649820196
30
0
41
1
10
40.5069927031033
20
-1.40857028889832
30
0
41
1
10
40.6343989476944
20
-1.52185946665318
30
0
41
1
10
40.891788722584
20
-1.73841528532307
30
0
41
1
10
41.0221724614702
20
-1.84204209075617
30
0
41
1
10
41.1541139421873
20
-1.9413788686999
30
0
0
SPLINE
5
CB
100
AcDbEntity
8
1
62
256
6
ByLayer
370
18
48
1
60
0
100
AcDbSpline
70
4
71
3
72
14
73
10
40
0
40
0
40
0
40
0
40
0.25
40
0.25
40
0.5
40
0.5
40
0.75
40
0.75
40
1
40
1
40
1
40
1
41
1
10
7.51958010457599
20
-2.64282166891192
30
0
41
1
10
7.24018080638172
20
-2.53928428148299
30
0
41
1
10
6.96320488521562
20
-2.42614502222529
30
0
41
1
10
6.41250631504914
20
-2.17974530111479
30
0
41
1
10
6.1387665723922
20
-2.04643280192408
30
0
41
1
10
5.59323820426906
20
-1.76245194915134
30
0
41
1
10
5.32130634352285
20
-1.61103081557516
30
0
41
1
10
4.78004428204832
20
-1.28788969514585
30
0
41
1
10
4.51288457910806
20
-1.11748019717058
30
0
41
1
10
4.25048044121596
20
-0.935463604516315
30
0
0
SPLINE
5
CC
100
AcDbEntity
8
1
62
256
6
ByLayer
370
18
48
1
60
0
100
AcDbSpline
70
4
71
3
72
10
73
6
40
0
40
0
40
0
40
0
40
0.5
40
0.5
40
1
40
1
40
1
40
1
41
1
10
4.12216613843185
20
3.48781811162328
30
0
41
1
10
4.10390965657456
20
3.49125042298488
30
0
41
1
10
4.08740556396262
20
3.4952916880755
30
0
41
1
10
4.05779085756691
20
3.50442967086565
30
0
41
1
10
4.04474951976857
20
3.50954458285125
30
0
41
1
10
4.03418167538723
20
3.51485353576913
30
0
0
SPLINE
5
CD
100
AcDbEntity
8
1
62
256
6
ByLayer
370
18
48
1
60
0
100
AcDbSpline
70
4
71
3
72
8
73
4
40
0
40
0
40
0
40
0
40
1
40
1
40
1
40
1
41
1
10
41.7266256632721
20
3.66927184918089
30
0
41
1
10
41.4607095630518
20
3.68963647348806
30
0
41
1
10
41.1950508405708
20
3.69970386909452
30
0
41
1
10
40.9291504113745
20
3.69947989147144
30
0
0
SPLINE
5
CE
100
AcDbEntity
8
1
62
256
6
ByLayer
370
18
48
1
60
0
100
AcDbSpline
70
4
71
3
72
44
73
40
40
0
40
0
40
0
40
0
40
0.0227515760249855
40
0.0227515760249855
40
0.144907629021863
40
0.144907629021863
40
0.205985655520302
40
0.205985655520302
40
0.26706368201874
40
0.26706368201874
40
0.297602695267959
40
0.297602695267959
40
0.328141708517178
40
0.328141708517178
40
0.389219735015616
40
0.389219735015616
40
0.450297761514055
40
0.450297761514055
40
0.480836774763274
40
0.480836774763274
40
0.511375788012493
40
0.511375788012493
40
0.572453814510931
40
0.572453814510931
40
0.63353184100937
40
0.63353184100937
40
0.694609867507808
40
0.694609867507808
40
0.725148880757027
40
0.725148880757027
40
0.755687894006247
40
0.755687894006247
40
0.786226907255466
40
0.786226907255466
40
0.816765920504685
40
0.816765920504685
40
0.877843947003123
40
0.877843947003123
40
1
40
1
40
1
40
1
41
1
10
23.3614208408943
20
-3.52800652315048
30
0
41
1
10
23.2157281516596
20
-3.55335021781443
30
0
41
1
10
23.070336852529
20
-3.5756949059606
30
0
41
1
10
22.1455986431515
20
-3.69883189664978
30
0
41
1
10
21.3719140020903
20
-3.71591025314126
30
0
41
1
10
20.1985281320699
20
-3.60885569319231
30
0
41
1
10
19.8038259016219
20
-3.55064720750806
30
0
41
1
10
19.0176533289927
20
-3.39225665091561
30
0
41
1
10
18.6254268213936
20
-3.29206696976121
30
0
41
1
10
18.0352544335367
20
-3.11246646310698
30
0
41
1
10
17.8379044213738
20
-3.04756940100347
30
0
41
1
10
17.4451592620421
20
-2.90927998783641
30
0
41
1
10
17.2494832474721
20
-2.83585476332706
30
0
41
1
10
16.6637033343748
20
-2.60386315477399
30
0
41
1
10
16.2750743437947
20
-2.433316477456
30
0
41
1
10
15.4976569179305
20
-2.06577929111165
30
0
41
1
10
15.1090390757818
20
-1.86855781237068
30
0
41
1
10
14.5232844727297
20
-1.55657696105683
30
0
41
1
10
14.3275656569012
20
-1.44989029424315
30
0
41
1
10
13.9348516531729
20
-1.23154954465548
30
0
41
1
10
13.7375378691287
20
-1.11975957093389
30
0
41
1
10
13.1472724392572
20
-0.780961296431826
30
0
41
1
10
12.7548440994089
20
-0.549717848353538
30
0
41
1
10
11.968576946174
20
-0.0824196582608749
30
0
41
1
10
11.5739847164791
20
0.153872357114977
30
0
41
1
10
10.7877250707286
20
0.619794323691934
30
0
41
1
10
10.3952580924506
20
0.850170302837597
30
0
41
1
10
9.80458041568173
20
1.18691138097967
30
0
41
1
10
9.60735169788984
20
1.29764391109828
30
0
41
1
10
9.2138763750674
20
1.51419461806367
30
0
41
1
10
9.01736386386787
20
1.62016967083227
30
0
41
1
10
8.6243904618054
20
1.82692942302958
30
0
41
1
10
8.42794473505072
20
1.92773546087798
30
0
41
1
10
8.03463701221057
20
2.12344678731461
30
0
41
1
10
7.83739510399133
20
2.21850505797045
30
0
41
1
10
7.24714140349849
20
2.49219298241383
30
0
41
1
10
6.85623343371151
20
2.65909843295964
30
0
41
1
10
5.68601683198043
20
3.1083296928289
30
0
41
1
10
4.90989937702301
20
3.33972025981168
30
0
41
1
10
4.12216613843262
20
3.48781811162317
30
0
0
SPLINE
5
CF
100
AcDbEntity
8
1
62
256
6
ByLayer
370
18
48
1
60
0
100
AcDbSpline
70
4
71
3
72
82
73
78
40
0
40
0
40
0
40
0
40
0.0300823334490204
40
0.0300823334490204
40
0.102725527568735
40
0.102725527568735
40
0.139047124628593
40
0.139047124628593
40
0.17536872168845
40
0.17536872168845
40
0.248011915808165
40
0.248011915808165
40
0.284333512868022
40
0.284333512868022
40
0.320655109927879
40
0.320655109927879
40
0.393298304047594
40
0.393298304047594
40
0.429619901107452
40
0.429619901107452
40
0.44778069963738
40
0.44778069963738
40
0.452320899269863
40
0.453455949177983
40
0.454023474132044
40
0.454307236609074
40
0.454307236609074
40
0.454449117847589
40
0.454449117847589
40
0.454590999086104
40
0.454590999086104
40
0.455726048994224
40
0.455726048994224
40
0.456861098902344
40
0.456861098902344
40
0.465941498167307
40
0.465941498167307
40
0.502263095227157
40
0.502263095227157
40
0.538584692287007
40
0.538584692287007
40
0.611227886406707
40
0.611227886406707
40
0.683871080526407
40
0.683871080526407
40
0.702031879056332
40
0.702031879056332
40
0.720192677586257
40
0.720192677586257
40
0.722462777402498
40
0.722462777402498
40
0.724732877218738
40
0.724732877218738
40
0.725016639695769
40
0.725016639695769
40
0.725300402172799
40
0.725300402172799
40
0.725867927126859
40
0.727002977034979
40
0.729273076851219
40
0.738353476116181
40
0.738353476116181
40
0.756514274646103
40
0.756514274646103
40
0.829157468765793
40
0.829157468765793
40
0.865479065825639
40
0.865479065825639
40
0.901800662885484
40
0.901800662885484
40
0.919961461415406
40
0.919961461415406
40
0.938122259945329
40
0.938122259945329
40
0.974443857005174
40
0.974443857005174
40
1
40
1
40
1
40
1
41
1
10
12.07865593679
20
-0.499321998929105
30
0
41
1
10
11.9769371252156
20
-0.445210014885248
30
0
41
1
10
11.8751805270495
20
-0.392365237707736
30
0
41
1
10
11.5273713970356
20
-0.217020613760638
30
0
41
1
10
11.2808817537931
20
-0.101740667669219
30
0
41
1
10
10.9076338070104
20
0.0510844784507754
30
0
41
1
10
10.7835997414362
20
0.0982236803488661
30
0
41
1
10
10.5373411231281
20
0.183388368568757
30
0
41
1
10
10.4148747058514
20
0.221512245120351
30
0
41
1
10
10.048538438711
20
0.321348426144937
30
0
41
1
10
9.80576645395797
20
0.368460111533466
30
0
41
1
10
9.43919162814802
20
0.406468937310791
30
0
41
1
10
9.31630481322287
20
0.413714253541485
30
0
41
1
10
9.07008097088766
20
0.416931391598581
30
0
41
1
10
8.947791518016
20
0.412919940982903
30
0
41
1
10
8.58204706846612
20
0.384859804187613
30
0
41
1
10
8.33968422584343
20
0.344809392101354
30
0
41
1
10
7.97365333253685
20
0.255874502082804
30
0
41
1
10
7.85123746461235
20
0.221414720549319
30
0
41
1
10
7.66647220307954
20
0.162844468195431
30
0
41
1
10
7.60464719585929
20
0.142155828832756
30
0
41
1
10
7.52737976290766
20
0.11500560356157
30
0
41
1
10
7.50806043765323
20
0.108136526953075
30
0
41
1
10
7.48680619327126
20
0.10047023786106
30
0
41
1
10
7.48004310965473
20
0.0980204440887746
30
0
41
1
10
7.47714458681804
20
0.0969682898883661
30
0
41
1
10
7.4756953145766
20
0.0964418389851573
30
0
41
1
10
7.47508867580569
20
0.0963721444221335
30
0
41
1
10
7.47449473081025
20
0.095672873488013
30
0
41
1
10
7.47472877417005
20
0.0951539527157195
30
0
41
1
10
7.47685785114808
20
0.091395643736945
30
0
41
1
10
7.48056233963891
20
0.0888915478601007
30
0
41
1
10
7.48703562163215
20
0.0836383147745892
30
0
41
1
10
7.49036846396621
20
0.0810983013765281
30
0
41
1
10
7.5206620268649
20
0.0585054425167186
30
0
41
1
10
7.54910335256204
20
0.0398314464841576
30
0
41
1
10
7.6907033185324
20
-0.0538856930606357
30
0
41
1
10
7.80627392178474
20
-0.126559268957465
30
0
41
1
10
8.03734908484935
20
-0.272189107716798
30
0
41
1
10
8.15327975642322
20
-0.344724474311363
30
0
41
1
10
8.50153257586348
20
-0.562187567330909
30
0
41
1
10
8.73382348940183
20
-0.707779078017921
30
0
41
1
10
9.19862181117966
20
-1.00023383704661
30
0
41
1
10
9.43115446082265
20
-1.14694554379051
30
0
41
1
10
9.71984252613589
20
-1.33433292869731
30
0
41
1
10
9.7774829882234
20
-1.37201161716084
30
0
41
1
10
9.89228538576322
20
-1.44825890457244
30
0
41
1
10
9.94982612467456
20
-1.4863156151375
30
0
41
1
10
10.0125951358179
20
-1.53220079032852
30
0
41
1
10
10.0195292534058
20
-1.53735577647746
30
0
41
1
10
10.0331744084953
20
-1.54797848719377
30
0
41
1
10
10.0403377125253
20
-1.55302845070102
30
0
41
1
10
10.0466830294674
20
-1.56057838173305
30
0
41
1
10
10.0474795144648
20
-1.56145233848531
30
0
41
1
10
10.0478971703451
20
-1.5636252591591
30
0
41
1
10
10.0464988168903
20
-1.56419952842626
30
0
41
1
10
10.0439609793351
20
-1.56626889030807
30
0
41
1
10
10.0388854558077
20
-1.5704059052577
30
0
41
1
10
10.0270435055351
20
-1.58004697992575
30
0
41
1
10
9.98983305197501
20
-1.6102700884386
30
0
41
1
10
9.95602406476399
20
-1.6375058428313
30
0
41
1
10
9.87493281615139
20
-1.70234023024253
30
0
41
1
10
9.82087707393367
20
-1.74490428419171
30
0
41
1
10
9.55096602817071
20
-1.95332318726616
30
0
41
1
10
9.33772463624817
20
-2.10525635785109
30
0
41
1
10
9.0113833803974
20
-2.29974772889599
30
0
41
1
10
8.90154424291421
20
-2.35881651414255
30
0
41
1
10
8.68154373198081
20
-2.46148816162562
30
0
41
1
10
8.57088493010048
20
-2.50539359719045
30
0
41
1
10
8.40234153213032
20
-2.55894236303598
30
0
41
1
10
8.34573407560103
20
-2.57474137509334
30
0
41
1
10
8.23140850406918
20
-2.60207110027122
30
0
41
1
10
8.17362427108424
20
-2.61359540945284
30
0
41
1
10
8.00052181694585
20
-2.64129742838523
30
0
41
1
10
7.88471378076758
20
-2.65078555685565
30
0
41
1
10
7.68569647440845
20
-2.65294509281551
30
0
41
1
10
7.60299908665556
20
-2.64977127338426
30
0
41
1
10
7.51968141895716
20
-2.64288612807599
30
0
0
SPLINE
5
D0
100
AcDbEntity
8
1
62
256
6
ByLayer
370
18
48
1
60
0
100
AcDbSpline
70
4
71
3
72
27
73
23
40
0
40
0
40
0
40
0
40
0.0961039768416512
40
0.0961039768416512
40
0.17142864543818
40
0.17142864543818
40
0.246753314034709
40
0.322077982631238
40
0.322077982631238
40
0.397402651227767
40
0.397402651227767
40
0.548051988420826
40
0.548051988420826
40
0.623376657017355
40
0.623376657017355
40
0.698701325613884
40
0.698701325613884
40
0.849350662806942
40
0.849350662806942
40
0.924675331403471
40
0.924675331403471
40
1
40
1
40
1
40
1
41
1
10
4.01225034831083
20
-3.67732487725391
30
0
41
1
10
4.01224775730367
20
-3.67806290751514
30
0
41
1
10
4.012244411263
20
-3.66892479751809
30
0
41
1
10
4.0122380490551
20
-3.63472654536398
30
0
41
1
10
4.01223512321514
20
-3.61344031549873
30
0
41
1
10
4.01222961860765
20
-3.55939863887812
30
0
41
1
10
4.01222442927087
20
-3.49374876593942
30
0
41
1
10
4.01222071741188
20
-3.40520155215515
30
0
41
1
10
4.01221812423597
20
-3.30502216722397
30
0
41
1
10
4.01221738940347
20
-3.24874356412173
30
0
41
1
10
4.0122173736066
20
-3.06500761991845
30
0
41
1
10
4.01222027023337
20
-2.9230343557505
30
0
41
1
10
4.01222973453628
20
-2.68145034252979
30
0
41
1
10
4.01223373572668
20
-2.59611664262701
30
0
41
1
10
4.01224347938464
20
-2.41549887645235
30
0
41
1
10
4.01224915222568
20
-2.32152521503502
30
0
41
1
10
4.01226826249234
20
-2.0299870793169
30
0
41
1
10
4.01228384606071
20
-1.82246439213452
30
0
41
1
10
4.01230997717175
20
-1.49111083301349
30
0
41
1
10
4.01231916615001
20
-1.37696272838207
30
0
41
1
10
4.01233765486745
20
-1.14691102013336
30
0
41
1
10
4.01234699985636
20
-1.03042652142693
30
0
41
1
10
4.0123562190428
20
-0.912509604079077
30
0
0
SPLINE
5
D1
100
AcDbEntity
8
1
62
256
6
ByLayer
370
18
48
1
60
0
100
AcDbSpline
70
4
71
3
72
8
73
4
40
0
40
0
40
0
40
0
40
1
40
1
40
1
40
1
41
1
10
4.03418167538729
20
3.51485353576888
30
0
41
1
10
4.02022479338248
20
3.52186503468675
30
0
41
1
10
4.01225063560076
20
3.52952498092267
30
0
41
1
10
4.01225119536264
20
3.53709974788043
30
0
0
LINE
5
76
100
AcDbEntity
8
81
62
256
6
ByLayer
370
18
48
1
60
0
100
AcDbLine
10
43
20
0
30
0
11
48
21
0
31
0
39
0
210
0
220
0
230
1
0
LINE
5
77
100
AcDbEntity
8
1
62
256
6
ByLayer
370
18
48
1
60
0
100
AcDbLine
10
4.012246
20
3.677325
30
0
11
0.966454
21
3.675498
31
0
39
0
210
0
220
0
230
1
0
LINE
5
79
100
AcDbEntity
8
1
62
256
6
ByLayer
370
18
48
1
60
0
100
AcDbLine
10
21.530892
20
3.687836
30
0
11
20.942513
21
3.687483
31
0
39
0
210
0
220
0
230
1
0
LINE
5
7A
100
AcDbEntity
8
1
62
256
6
ByLayer
370
18
48
1
60
0
100
AcDbLine
10
40.930864
20
3.699476
30
0
11
40.347854
21
3.699127
31
0
39
0
210
0
220
0
230
1
0
LINE
5
7B
100
AcDbEntity
8
1
62
256
6
ByLayer
370
18
48
1
60
0
100
AcDbLine
10
40.347854
20
-3.699127
30
0
11
40.931369
21
-3.699477
31
0
39
0
210
0
220
0
230
1
0
LINE
5
7C
100
AcDbEntity
8
1
62
256
6
ByLayer
370
18
48
1
60
0
100
AcDbLine
10
20.942513
20
-3.687483
30
0
11
21.530715
21
-3.687836
31
0
39
0
210
0
220
0
230
1
0
LINE
5
7D
100
AcDbEntity
8
1
62
256
6
ByLayer
370
18
48
1
60
0
100
AcDbLine
10
0.966454
20
-3.675498
30
0
11
4.012246
21
-3.677325
31
0
39
0
210
0
220
0
230
1
0
LINE
5
7E
100
AcDbEntity
8
SK1
62
256
6
ByLayer
370
18
48
1
60
0
100
AcDbLine
10
0
20
4
30
0
11
-35.133975
21
4
31
0
39
0
210
0
220
0
230
1
0
LINE
5
80
100
AcDbEntity
8
SK1
62
256
6
ByLayer
370
18
48
1
60
0
100
AcDbLine
10
-35.133975
20
-4
30
0
11
0
21
-4
31
0
39
0
210
0
220
0
230
1
0
LINE
5
81
100
AcDbEntity
8
SK1
62
256
6
ByLayer
370
18
48
1
60
0
100
AcDbLine
10
-35.133975
20
4
30
0
11
-36
21
2.5
31
0
39
0
210
0
220
0
230
1
0
LINE
5
82
100
AcDbEntity
8
SK1
62
256
6
ByLayer
370
18
48
1
60
0
100
AcDbLine
10
-36
20
-2.5
30
0
11
-35.133975
21
-4
31
0
39
0
210
0
220
0
230
1
0
LINE
5
83
100
AcDbEntity
8
SK4
62
256
6
ByLayer
370
18
48
0.05
60
0
100
AcDbLine
10
48
20
0
30
0
11
-41
21
0
31
0
39
0
210
0
220
0
230
1
0
LINE
5
85
100
AcDbEntity
8
4
62
256
6
ByLayer
370
18
48
0.05
60
0
100
AcDbLine
10
43
20
0
30
0
11
0
21
0
31
0
39
0
210
0
220
0
230
1
0
LINE
5
87
100
AcDbEntity
8
80
62
256
6
ByLayer
370
18
48
1
60
0
100
AcDbLine
10
0
20
0
30
0
11
-5
21
0
31
0
39
0
210
0
220
0
230
1
0
LINE
5
88
100
AcDbEntity
8
1
62
256
6
ByLayer
370
13
48
1
60
0
100
AcDbLine
10
0.966454
20
3.675498
30
0
11
0.966454
21
-3.675498
31
0
39
0
210
0
220
0
230
1
0
LINE
5
89
100
AcDbEntity
8
1
62
256
6
ByLayer
370
13
48
1
60
0
100
AcDbLine
10
42.815647
20
0.750576
30
0
11
42.143834
21
0.750576
31
0
39
0
210
0
220
0
230
1
0
LINE
5
8A
100
AcDbEntity
8
1
62
256
6
ByLayer
370
18
48
1
60
0
100
AcDbLine
10
41.154114
20
-1.941379
30
0
11
42.894936
21
-0.143085
31
0
39
0
210
0
220
0
230
1
0
LINE
5
8B
100
AcDbEntity
8
1
62
256
6
ByLayer
370
18
48
1
60
0
100
AcDbLine
10
43
20
0
30
0
11
41.716297
21
-3.526944
31
0
39
0
210
0
220
0
230
1
0
LINE
5
8C
100
AcDbEntity
8
1
62
256
6
ByLayer
370
18
48
1
60
0
100
AcDbLine
10
43
20
0
30
0
11
42.993352
21
-0.03686
31
0
39
0
210
0
220
0
230
1
0
LINE
5
8D
100
AcDbEntity
8
1
62
256
6
ByLayer
370
13
48
1
60
0
100
AcDbLine
10
41.953927
20
0.415247
30
0
11
42.894936
21
-0.143085
31
0
39
0
210
0
220
0
230
1
0
LINE
5
8E
100
AcDbEntity
8
1
62
256
6
ByLayer
370
18
48
1
60
0
100
AcDbLine
10
42.923587
20
0.287923
30
0
11
42.815647
21
0.750576
31
0
39
0
210
0
220
0
230
1
0
LINE
5
8F
100
AcDbEntity
8
1
62
256
6
ByLayer
370
18
48
1
60
0
100
AcDbLine
10
0
20
-4
30
0
11
0
21
4
31
0
39
0
210
0
220
0
230
1
0
LINE
5
90
100
AcDbEntity
8
1
62
256
6
ByLayer
370
13
48
1
60
0
100
AcDbLine
10
0.482987
20
3.837749
30
0
11
0.482987
21
-3.837749
31
0
39
0
210
0
220
0
230
1
0
LINE
5
91
100
AcDbEntity
8
1
62
256
6
ByLayer
370
18
48
1
60
0
100
AcDbLine
10
42.993352
20
0.03686
30
0
11
43
21
0
31
0
39
0
210
0
220
0
230
1
0
LINE
5
92
100
AcDbEntity
8
1
62
256
6
ByLayer
370
13
48
1
60
0
100
AcDbLine
10
42.143834
20
0.750576
30
0
11
42.923587
21
0.287923
31
0
39
0
210
0
220
0
230
1
0
LINE
5
93
100
AcDbEntity
8
1
62
256
6
ByLayer
370
18
48
1
60
0
100
AcDbLine
10
42.923587
20
-0.287923
30
0
11
42.815647
21
-0.750576
31
0
39
0
210
0
220
0
230
1
0
LINE
5
94
100
AcDbEntity
8
SK1
62
256
6
ByLayer
370
18
48
1
60
0
100
AcDbLine
10
0
20
-4
30
0
11
0
21
4
31
0
39
0
210
0
220
0
230
1
0
LINE
5
95
100
AcDbEntity
8
SK1
62
256
6
ByLayer
370
18
48
1
60
0
100
AcDbLine
10
-35.133975
20
4
30
0
11
-35.133975
21
-4
31
0
39
0
210
0
220
0
230
1
0
LINE
5
96
100
AcDbEntity
8
SK1
62
256
6
ByLayer
370
18
48
1
60
0
100
AcDbLine
10
-36
20
2.5
30
0
11
-36
21
-2.5
31
0
39
0
210
0
220
0
230
1
0
MTEXT
5
D2
100
AcDbEntity
8
SK6
62
256
6
ByLayer
370
13
48
1
60
0
100
AcDbMText
10
5.629169
20
36.082694
30
0
210
0
220
0
230
1
1
\W0.7725;R840-0740-30-A0A1220
40
3.5
41
0
44
1.084337
50
0
71
8
72
5
7
iso_b_vert
0
DIMENSION
5
DF
100
AcDbEntity
8
SK2
62
256
6
ByLayer
370
13
48
1
60
0
100
AcDbDimension
2
DimnDraft3D1
10
41.74
20
-13.913398
30
0
11
19.490059
21
-13.913398
31
0
70
32
71
5
72
1
41
1
210
0
220
0
230
1
3
Standard
100
AcDbAlignedDimension
13
0
23
-1.5875
33
0
14
41.74
24
-5.2875
34
0
50
0
100
AcDbRotatedDimension
1001
ACAD
1000
DSTYLE
1002
{
1070
   279
1070
     0
1070
   172
1070
     1
1070
   173
1070
     1
1070
   340
1005
D3
1070
   271
1070
     2
1070
   272
1070
     2
1070
    77
1070
     1
1070
    73
1070
     0
1070
   171
1070
     3
1070
   274
1070
     4
1070
   177
1070
    35
1070
   176
1070
    35
1070
   178
1070
    35
1070
    48
1040
-0.005
1070
    41
1041
3.5
1070
   147
1041
1.75
1070
    42
1041
1.5875
1070
    44
1041
2.0
1070
   140
1041
3.5
1070
   343
1005
0
1070
   344
1005
0
1002
}
0
DIMENSION
5
E9
100
AcDbEntity
8
SK2
62
256
6
ByLayer
370
13
48
1
60
0
100
AcDbDimension
2
DimnDraft3D2
10
43
20
-32.692985
30
0
11
3.5813
21
-32.692985
31
0
70
32
71
5
72
1
41
1
210
0
220
0
230
1
3
Standard
100
AcDbAlignedDimension
13
-36
23
-5.5875
33
0
14
43
24
-1.5875
34
0
50
0
100
AcDbRotatedDimension
1001
ACAD
1000
DSTYLE
1002
{
1070
   279
1070
     0
1070
   172
1070
     1
1070
   173
1070
     1
1070
   340
1005
D3
1070
   271
1070
     2
1070
   272
1070
     2
1070
    77
1070
     1
1070
    73
1070
     0
1070
   171
1070
     3
1070
   274
1070
     4
1070
   177
1070
    35
1070
   176
1070
    35
1070
   178
1070
    35
1070
    48
1040
-0.005
1070
    41
1041
3.5
1070
   147
1041
1.75
1070
    42
1041
1.5875
1070
    44
1041
2.0
1070
   140
1041
3.5
1070
   343
1005
0
1070
   344
1005
0
1002
}
0
DIMENSION
5
F3
100
AcDbEntity
8
SK2
62
256
6
ByLayer
370
13
48
1
60
0
100
AcDbDimension
2
DimnDraft3D3
10
43
20
15.309119
30
0
11
31.27
21
15.309119
31
0
70
32
71
5
72
1
41
1
210
0
220
0
230
1
3
Standard
100
AcDbAlignedDimension
13
19.54
23
5.2875
33
0
14
43
24
1.5875
34
0
50
0
100
AcDbRotatedDimension
1001
ACAD
1000
DSTYLE
1002
{
1070
   279
1070
     0
1070
   172
1070
     1
1070
   173
1070
     1
1070
   340
1005
D3
1070
   271
1070
     2
1070
   272
1070
     2
1070
    77
1070
     1
1070
    73
1070
     0
1070
   171
1070
     3
1070
   274
1070
     4
1070
   177
1070
    35
1070
   176
1070
    35
1070
   178
1070
    35
1070
    48
1040
-0.005
1070
    41
1041
3.5
1070
   147
1041
1.75
1070
    42
1041
1.5875
1070
    44
1041
2.0
1070
   140
1041
3.5
1070
   343
1005
0
1070
   344
1005
0
1002
}
0
DIMENSION
5
FD
100
AcDbEntity
8
SK2
62
256
6
ByLayer
370
13
48
1
60
0
100
AcDbDimension
2
DimnDraft3D4
10
41.74
20
-16.502503
30
0
11
52.981425
21
-16.502503
31
0
70
32
71
5
72
1
41
1
210
0
220
0
230
1
3
Standard
100
AcDbAlignedDimension
13
43
23
-1.5875
33
0
14
41.74
24
-5.2875
34
0
50
0
100
AcDbRotatedDimension
1001
ACAD
1000
DSTYLE
1002
{
1070
   279
1070
     0
1070
   172
1070
     1
1070
   173
1070
     1
1070
   340
1005
D3
1070
   271
1070
     2
1070
   272
1070
     2
1070
    77
1070
     1
1070
    73
1070
     0
1070
   171
1070
     3
1070
   274
1070
     4
1070
   177
1070
    35
1070
   176
1070
    35
1070
   178
1070
    35
1070
    48
1040
-0.005
1070
    41
1041
3.5
1070
   147
1041
1.75
1070
    42
1041
1.5875
1070
    44
1041
2.0
1070
   140
1041
3.5
1070
   343
1005
0
1070
   344
1005
0
1002
}
0
DIMENSION
5
107
100
AcDbEntity
8
SK2
62
256
6
ByLayer
370
13
48
1
60
0
100
AcDbDimension
2
DimnDraft3D5
10
41.74
20
-22.343428
30
0
11
0.500676
21
-22.343428
31
0
70
32
71
5
72
1
41
1
210
0
220
0
230
1
3
Standard
100
AcDbAlignedDimension
13
-36
23
-5.5875
33
0
14
41.74
24
-5.2875
34
0
50
0
100
AcDbRotatedDimension
1001
ACAD
1000
DSTYLE
1002
{
1070
   279
1070
     0
1070
   172
1070
     1
1070
   173
1070
     1
1070
   340
1005
D3
1070
   271
1070
     2
1070
   272
1070
     2
1070
    77
1070
     1
1070
    73
1070
     0
1070
   171
1070
     3
1070
   274
1070
     4
1070
   177
1070
    35
1070
   176
1070
    35
1070
   178
1070
    35
1070
    48
1040
-0.005
1070
    41
1041
3.5
1070
   147
1041
1.75
1070
    42
1041
1.5875
1070
    44
1041
2.0
1070
   140
1041
3.5
1070
   343
1005
0
1070
   344
1005
0
1002
}
0
DIMENSION
5
112
100
AcDbEntity
8
SK2
62
256
6
ByLayer
370
13
48
1
60
0
100
AcDbDimension
2
DimnDraft3D6
10
-46.625163
20
4
30
0
11
-47.250163
21
22.47418
31
0
70
33
71
5
72
1
41
1
210
0
220
0
230
1
3
Standard
100
AcDbAlignedDimension
13
-37.5875
23
-4
33
0
14
-37.5875
24
4
34
0
1001
ACAD
1000
DSTYLE
1002
{
1070
   279
1070
     0
1070
    74
1070
     0
1070
   173
1070
     1
1070
   340
1005
D3
1070
   271
1070
     3
1070
   272
1070
     2
1070
    77
1070
     1
1070
    73
1070
     0
1070
   171
1070
     3
1070
   274
1070
     4
1070
   177
1070
    35
1070
   176
1070
    35
1070
   178
1070
    35
1070
    48
1040
-0.005
1070
    41
1041
3.5
1070
   147
1041
1.75
1070
    42
1041
1.5875
1070
    44
1041
2.0
1070
   140
1041
3.5
1070
   343
1005
0
1070
   344
1005
0
1002
}
0
DIMENSION
5
11D
100
AcDbEntity
8
2
62
256
6
ByLayer
370
13
48
1
60
0
100
AcDbDimension
2
DimnDraft3D7
10
57.083343
20
3.7
30
0
11
52.458343
21
20.767266
31
0
70
33
71
5
72
1
41
1
210
0
220
0
230
1
3
Standard
100
AcDbAlignedDimension
13
43.3275
23
-3.7
33
0
14
43.3275
24
3.7
34
0
1001
ACAD
1000
DSTYLE
1002
{
1070
   279
1070
     0
1070
    74
1070
     0
1070
   173
1070
     1
1070
   340
1005
D3
1070
   271
1070
     3
1070
   272
1070
     2
1070
    77
1070
     1
1070
    73
1070
     0
1070
   171
1070
     3
1070
   274
1070
     4
1070
   177
1070
    35
1070
   176
1070
    35
1070
   178
1070
    35
1070
    48
1040
-0.005
1070
    41
1041
3.5
1070
   147
1041
1.75
1070
    42
1041
1.5875
1070
    44
1041
2.0
1070
   140
1041
3.5
1070
   343
1005
0
1070
   344
1005
0
1002
}
0
ENDSEC
0
SECTION
2
OBJECTS
0
DICTIONARY
5
188
330
0
100
AcDbDictionary
280
0
281
1
3
ACAD_GROUP
350
189
3
ACAD_MLINESTYLE
350
18a
0
DICTIONARY
5
189
330
0
100
AcDbDictionary
280
0
281
1
0
DICTIONARY
5
18a
330
0
100
AcDbDictionary
280
0
281
1
3
Standard
350
18
0
MLINESTYLE
5
18
330
18a
100
AcDbMlineStyle
2
Standard
70
0
3

62
256
51
90
52
90
71
2
49
-0.5
62
256
6
ByLayer
49
0.5
62
256
6
ByLayer
0
RASTERVARIABLES
5
176
330

100
AcDbRasterVariables
90
0
70
1
71
1
72
1
0
ENDSEC
0
EOF
