0
SECTION
2
HEADER
9
$ACADVER
1
AC1015
9
$DWGCODEPAGE
3
ANSI_1252
9
$HANDSEED
5
1a0
9
$ANGBASE
50
0
9
$ANGDIR
70
0
9
$ATTMODE
70
1
9
$AUNITS
70
0
9
$AUPREC
70
0
9
$CECOLOR
62
256
9
$CELTSCALE
40
1
9
$CELTYPE
6
ByLayer
9
$CELWEIGHT
370
18
9
$CLAYER
8
0
9
$CMLJUST
70
0
9
$CMLSCALE
40
1
9
$CMLSTYLE
2
Standard
9
$DIMSTYLE
2
Standard
9
$TEXTSIZE
40
0.2
9
$TEXTSTYLE
7
Standard
9
$LUNITS
70
2
9
$LUPREC
70
4
9
$EXTNAMES
290
1
9
$INSUNITS
70
4
9
$LTSCALE
40
1
9
$LWDISPLAY
290
1
9
$PDMODE
70
0
9
$PDSIZE
40
0
9
$PLINEGEN
70
0
0
ENDSEC
0
SECTION
2
CLASSES
0
CLASS
1
RASTERVARIABLES
2
AcDbRasterVariables
3
ISM
90
0
280
0
281
0
0
ENDSEC
0
SECTION
2
TABLES
0
TABLE
2
VPORT
5
196
100
AcDbSymbolTable
0
VPORT
5
1
100
AcDbSymbolTableRecord
100
AcDbViewportTableRecord
2
*Active
70
0
10
0
20
0
11
1
21
1
12
-1
22
1
13
0
23
0
14
0.5
24
0.5
15
10
25
10
16
0
26
0
36
1
17
0
27
0
37
0
0
ENDTAB
0
TABLE
2
LTYPE
5
197
100
AcDbSymbolTable
0
LTYPE
5
14
100
AcDbSymbolTableRecord
100
AcDbLinetypeTableRecord
70
0
2
ByBlock
3

72
65
73
0
40
0
0
LTYPE
5
15
100
AcDbSymbolTableRecord
100
AcDbLinetypeTableRecord
70
0
2
ByLayer
3

72
65
73
0
40
0
0
LTYPE
5
16
100
AcDbSymbolTableRecord
100
AcDbLinetypeTableRecord
70
0
2
CONTINUOUS
3
Solid line
72
65
73
0
40
0
0
LTYPE
5
6A
100
AcDbSymbolTableRecord
100
AcDbLinetypeTableRecord
70
0
2
CENTER
3
____ _ ____ _ ____ _ ____
72
65
73
4
40
47.5
49
22
74
0
49
-8.5
74
0
49
8.5
74
0
49
-8.5
74
0
0
LTYPE
5
6B
100
AcDbSymbolTableRecord
100
AcDbLinetypeTableRecord
70
0
2
DASHED
3
__ __ __ __ __ __ __ __ __
72
65
73
2
40
25.72
49
12.86
74
0
49
-12.86
74
0
0
ENDTAB
0
TABLE
2
LAYER
5
198
100
AcDbSymbolTable
0
LAYER
5
10
100
AcDbSymbolTableRecord
100
AcDbLayerTableRecord
2
0
70
0
62
7
6
CONTINUOUS
290
1
370
-3
390
0
0
LAYER
5
6D
100
AcDbSymbolTableRecord
100
AcDbLayerTableRecord
2
81
70
0
62
-3
6
CONTINUOUS
290
1
370
-3
390
0
0
LAYER
5
6F
100
AcDbSymbolTableRecord
100
AcDbLayerTableRecord
2
80
70
0
62
-6
6
CONTINUOUS
290
1
370
-3
390
0
0
LAYER
5
74
100
AcDbSymbolTableRecord
100
AcDbLayerTableRecord
2
2
70
0
62
7
6
CONTINUOUS
290
1
370
-3
390
0
0
LAYER
5
78
100
AcDbSymbolTableRecord
100
AcDbLayerTableRecord
2
1
70
0
62
4
6
CONTINUOUS
290
1
370
-3
390
0
0
LAYER
5
86
100
AcDbSymbolTableRecord
100
AcDbLayerTableRecord
2
4
70
0
62
-2
6
CENTER
290
1
370
-3
390
0
0
LAYER
5
182
100
AcDbSymbolTableRecord
100
AcDbLayerTableRecord
2
SK2
70
0
62
7
6
CONTINUOUS
290
1
370
-3
390
0
0
LAYER
5
183
100
AcDbSymbolTableRecord
100
AcDbLayerTableRecord
2
SK1
70
0
62
4
6
CONTINUOUS
290
1
370
-3
390
0
0
LAYER
5
184
100
AcDbSymbolTableRecord
100
AcDbLayerTableRecord
2
SK4
70
0
62
2
6
CENTER
290
1
370
-3
390
0
0
LAYER
5
185
100
AcDbSymbolTableRecord
100
AcDbLayerTableRecord
2
SK6
70
0
62
5
6
CONTINUOUS
290
1
370
-3
390
0
0
ENDTAB
0
TABLE
2
STYLE
5
199
100
AcDbSymbolTable
0
STYLE
5
11
100
AcDbSymbolTableRecord
100
AcDbTextStyleTableRecord
2
Standard
3
txt
70
0
71
0
40
0
41
1
42
0
50
0
0
STYLE
5
DE
100
AcDbSymbolTableRecord
100
AcDbTextStyleTableRecord
2
iso_b_vert
3
simplex.shx
70
0
71
0
40
0
41
1
42
0
50
0
0
STYLE
5
DF
100
AcDbSymbolTableRecord
100
AcDbTextStyleTableRecord
2
DWGDirectTextStyle
3
simplex
70
0
71
0
40
0
41
1
42
0
50
0
0
ENDTAB
0
TABLE
2
DIMSTYLE
5
19a
100
AcDbSymbolTable
100
AcDbDimStyleTable
0
DIMSTYLE
105
27
100
AcDbSymbolTableRecord
100
AcDbDimStyleTableRecord
2
Standard
70
0
3
<>
41
0.18
42
0.0625
44
0.18
140
0.18
147
0.09
73
0
74
0
77
1
271
2
275
0
278
52
280
0
340
11
0
ENDTAB
0
TABLE
2
VIEW
5
19b
100
AcDbSymbolTable
0
ENDTAB
0
TABLE
2
UCS
5
19c
100
AcDbSymbolTable
0
ENDTAB
0
TABLE
2
APPID
5
19d
100
AcDbSymbolTable
0
APPID
5
12
100
AcDbSymbolTableRecord
100
AcDbRegAppTableRecord
2
ACAD
70
0
0
ENDTAB
0
TABLE
2
BLOCK_RECORD
5
19e
100
AcDbSymbolTable
0
BLOCK_RECORD
5
1F
100
AcDbSymbolTableRecord
100
AcDbBlockTableRecord
2
*Model_Space
340
0
70
0
0
BLOCK_RECORD
5
1B
100
AcDbSymbolTableRecord
100
AcDbBlockTableRecord
2
*Paper_Space
340
0
70
0
0
BLOCK_RECORD
5
23
100
AcDbSymbolTableRecord
100
AcDbBlockTableRecord
2
*Paper_Space0
340
0
70
0
0
BLOCK_RECORD
5
E1
100
AcDbSymbolTableRecord
100
AcDbBlockTableRecord
2
DimnDraft3D1
340
0
70
0
0
BLOCK_RECORD
5
EB
100
AcDbSymbolTableRecord
100
AcDbBlockTableRecord
2
DimnDraft3D2
340
0
70
0
0
BLOCK_RECORD
5
F5
100
AcDbSymbolTableRecord
100
AcDbBlockTableRecord
2
DimnDraft3D3
340
0
70
0
0
BLOCK_RECORD
5
FF
100
AcDbSymbolTableRecord
100
AcDbBlockTableRecord
2
DimnDraft3D4
340
0
70
0
0
BLOCK_RECORD
5
109
100
AcDbSymbolTableRecord
100
AcDbBlockTableRecord
2
DimnDraft3D5
340
0
70
0
0
BLOCK_RECORD
5
113
100
AcDbSymbolTableRecord
100
AcDbBlockTableRecord
2
DimnDraft3D6
340
0
70
0
0
BLOCK_RECORD
5
11E
100
AcDbSymbolTableRecord
100
AcDbBlockTableRecord
2
DimnDraft3D7
340
0
70
0
0
ENDTAB
0
ENDSEC
0
SECTION
2
BLOCKS
0
BLOCK
5
20
100
AcDbEntity
8
0
100
AcDbBlockBegin
2
*Model_Space
70
0
10
0
20
0
30
0
3
*Model_Space
0
ENDBLK
5
21
100
AcDbEntity
8
0
100
AcDbBlockEnd
0
BLOCK
5
1C
100
AcDbEntity
8
0
100
AcDbBlockBegin
2
*Paper_Space
70
0
10
0
20
0
30
0
3
*Paper_Space
0
ENDBLK
5
1D
100
AcDbEntity
8
0
100
AcDbBlockEnd
0
BLOCK
5
24
100
AcDbEntity
8
0
100
AcDbBlockBegin
2
*Paper_Space0
70
0
10
0
20
0
30
0
3
*Paper_Space0
0
ENDBLK
5
25
100
AcDbEntity
8
0
100
AcDbBlockEnd
0
BLOCK
5
E8
100
AcDbEntity
8
0
100
AcDbBlockBegin
2
DimnDraft3D1
70
0
10
0
20
0
30
0
3
DimnDraft3D1
0
MTEXT
5
E2
100
AcDbEntity
8
SK2
62
256
6
ByLayer
370
13
48
1
60
0
100
AcDbMText
10
15.314664
20
-12.988398
30
0
210
0
220
0
230
1
1
\W0.6977;41,76
40
3.5
41
0
44
1.084337
50
0
71
7
72
5
7
iso_b_vert
0
LINE
5
E3
100
AcDbEntity
8
SK2
62
256
6
ByLayer
370
13
48
1
60
0
100
AcDbLine
10
0
20
-1.5875
30
0
11
0
21
-15.863398
31
0
39
0
210
0
220
0
230
1
0
LINE
5
E4
100
AcDbEntity
8
SK2
62
256
6
ByLayer
370
13
48
1
60
0
100
AcDbLine
10
41.76
20
-5.2375
30
0
11
41.76
21
-15.863398
31
0
39
0
210
0
220
0
230
1
0
LINE
5
E5
100
AcDbEntity
8
SK2
62
256
6
ByLayer
370
13
48
1
60
0
100
AcDbLine
10
0
20
-13.863398
30
0
11
41.76
21
-13.863398
31
0
39
0
210
0
220
0
230
1
0
SOLID
5
E6
100
AcDbEntity
8
SK2
62
256
6
ByLayer
370
13
48
1
60
0
100
AcDbTrace
10
0
20
-13.863398
30
0
11
3.499998
21
-13.402615
31
0
12
3.500002
22
-14.324182
32
0
13
0
23
-13.863398
33
0
39
0
210
0
220
0
230
1
0
SOLID
5
E7
100
AcDbEntity
8
SK2
62
256
6
ByLayer
370
13
48
1
60
0
100
AcDbTrace
10
41.76
20
-13.863398
30
0
11
38.260002
21
-14.324182
31
0
12
38.259998
22
-13.402615
32
0
13
41.76
23
-13.863398
33
0
39
0
210
0
220
0
230
1
0
ENDBLK
5
E9
100
AcDbEntity
8
0
100
AcDbBlockEnd
0
BLOCK
5
F2
100
AcDbEntity
8
0
100
AcDbBlockBegin
2
DimnDraft3D2
70
0
10
0
20
0
30
0
3
DimnDraft3D2
0
MTEXT
5
EC
100
AcDbEntity
8
SK2
62
256
6
ByLayer
370
13
48
1
60
0
100
AcDbMText
10
-0.847384
20
-31.817985
30
0
210
0
220
0
230
1
1
\W0.7317;79,00
40
3.5
41
0
44
1.084337
50
0
71
7
72
5
7
iso_b_vert
0
LINE
5
ED
100
AcDbEntity
8
SK2
62
256
6
ByLayer
370
13
48
1
60
0
100
AcDbLine
10
-36
20
-5.5875
30
0
11
-36
21
-34.692985
31
0
39
0
210
0
220
0
230
1
0
LINE
5
EE
100
AcDbEntity
8
SK2
62
256
6
ByLayer
370
13
48
1
60
0
100
AcDbLine
10
43
20
-1.5875
30
0
11
43
21
-34.692985
31
0
39
0
210
0
220
0
230
1
0
LINE
5
EF
100
AcDbEntity
8
SK2
62
256
6
ByLayer
370
13
48
1
60
0
100
AcDbLine
10
-36
20
-32.692985
30
0
11
43
21
-32.692985
31
0
39
0
210
0
220
0
230
1
0
SOLID
5
F0
100
AcDbEntity
8
SK2
62
256
6
ByLayer
370
13
48
1
60
0
100
AcDbTrace
10
-36
20
-32.692985
30
0
11
-32.500002
21
-32.232202
31
0
12
-32.499998
22
-33.153769
32
0
13
-36
23
-32.692985
33
0
39
0
210
0
220
0
230
1
0
SOLID
5
F1
100
AcDbEntity
8
SK2
62
256
6
ByLayer
370
13
48
1
60
0
100
AcDbTrace
10
43
20
-32.692985
30
0
11
39.500002
21
-33.153769
31
0
12
39.499998
22
-32.232202
32
0
13
43
23
-32.692985
33
0
39
0
210
0
220
0
230
1
0
ENDBLK
5
F3
100
AcDbEntity
8
0
100
AcDbBlockEnd
0
BLOCK
5
FC
100
AcDbEntity
8
0
100
AcDbBlockBegin
2
DimnDraft3D3
70
0
10
0
20
0
30
0
3
DimnDraft3D3
0
MTEXT
5
F6
100
AcDbEntity
8
SK2
62
256
6
ByLayer
370
13
48
1
60
0
100
AcDbMText
10
27.234605
20
16.134119
30
0
210
0
220
0
230
1
1
\W0.6898;23,14
40
3.5
41
0
44
1.084337
50
0
71
7
72
5
7
iso_b_vert
0
LINE
5
F7
100
AcDbEntity
8
SK2
62
256
6
ByLayer
370
13
48
1
60
0
100
AcDbLine
10
19.86
20
5.2375
30
0
11
19.86
21
17.259119
31
0
39
0
210
0
220
0
230
1
0
LINE
5
F8
100
AcDbEntity
8
SK2
62
256
6
ByLayer
370
13
48
1
60
0
100
AcDbLine
10
43
20
1.5875
30
0
11
43
21
17.259119
31
0
39
0
210
0
220
0
230
1
0
LINE
5
F9
100
AcDbEntity
8
SK2
62
256
6
ByLayer
370
13
48
1
60
0
100
AcDbLine
10
19.86
20
15.259119
30
0
11
43
21
15.259119
31
0
39
0
210
0
220
0
230
1
0
SOLID
5
FA
100
AcDbEntity
8
SK2
62
256
6
ByLayer
370
13
48
1
60
0
100
AcDbTrace
10
19.86
20
15.259119
30
0
11
23.359998
21
15.719903
31
0
12
23.360002
22
14.798335
32
0
13
19.86
23
15.259119
33
0
39
0
210
0
220
0
230
1
0
SOLID
5
FB
100
AcDbEntity
8
SK2
62
256
6
ByLayer
370
13
48
1
60
0
100
AcDbTrace
10
43
20
15.259119
30
0
11
39.500002
21
14.798335
31
0
12
39.499998
22
15.719903
32
0
13
43
23
15.259119
33
0
39
0
210
0
220
0
230
1
0
ENDBLK
5
FD
100
AcDbEntity
8
0
100
AcDbBlockEnd
0
BLOCK
5
106
100
AcDbEntity
8
0
100
AcDbBlockBegin
2
DimnDraft3D4
70
0
10
0
20
0
30
0
3
DimnDraft3D4
0
MTEXT
5
100
100
AcDbEntity
8
SK2
62
256
6
ByLayer
370
13
48
1
60
0
100
AcDbMText
10
50.093925
20
-15.577503
30
0
210
0
220
0
230
1
1
\W0.6611;1,24
40
3.5
41
0
44
1.084337
50
0
71
7
72
5
7
iso_b_vert
0
LINE
5
101
100
AcDbEntity
8
SK2
62
256
6
ByLayer
370
13
48
1
60
0
100
AcDbLine
10
43
20
-1.5875
30
0
11
43
21
-18.452503
31
0
39
0
210
0
220
0
230
1
0
LINE
5
102
100
AcDbEntity
8
SK2
62
256
6
ByLayer
370
13
48
1
60
0
100
AcDbLine
10
41.76
20
-5.2375
30
0
11
41.76
21
-18.452503
31
0
39
0
210
0
220
0
230
1
0
LINE
5
103
100
AcDbEntity
8
SK2
62
256
6
ByLayer
370
13
48
1
60
0
100
AcDbLine
10
33.01
20
-16.452503
30
0
11
56.743925
21
-16.452503
31
0
39
0
210
0
220
0
230
1
0
SOLID
5
104
100
AcDbEntity
8
SK2
62
256
6
ByLayer
370
13
48
1
60
0
100
AcDbTrace
10
43
20
-16.452503
30
0
11
46.499998
21
-15.991719
31
0
12
46.500002
22
-16.913287
32
0
13
43
23
-16.452503
33
0
39
0
210
0
220
0
230
1
0
SOLID
5
105
100
AcDbEntity
8
SK2
62
256
6
ByLayer
370
13
48
1
60
0
100
AcDbTrace
10
41.76
20
-16.452503
30
0
11
38.260002
21
-16.913287
31
0
12
38.259998
22
-15.991719
32
0
13
41.76
23
-16.452503
33
0
39
0
210
0
220
0
230
1
0
ENDBLK
5
107
100
AcDbEntity
8
0
100
AcDbBlockEnd
0
BLOCK
5
110
100
AcDbEntity
8
0
100
AcDbBlockBegin
2
DimnDraft3D5
70
0
10
0
20
0
30
0
3
DimnDraft3D5
0
MTEXT
5
10A
100
AcDbEntity
8
SK2
62
256
6
ByLayer
370
13
48
1
60
0
100
AcDbMText
10
-3.928008
20
-21.468428
30
0
210
0
220
0
230
1
1
\W0.7317;77,76
40
3.5
41
0
44
1.084337
50
0
71
7
72
5
7
iso_b_vert
0
LINE
5
10B
100
AcDbEntity
8
SK2
62
256
6
ByLayer
370
13
48
1
60
0
100
AcDbLine
10
-36
20
-5.5875
30
0
11
-36
21
-24.343428
31
0
39
0
210
0
220
0
230
1
0
LINE
5
10C
100
AcDbEntity
8
SK2
62
256
6
ByLayer
370
13
48
1
60
0
100
AcDbLine
10
41.76
20
-5.2375
30
0
11
41.76
21
-24.343428
31
0
39
0
210
0
220
0
230
1
0
LINE
5
10D
100
AcDbEntity
8
SK2
62
256
6
ByLayer
370
13
48
1
60
0
100
AcDbLine
10
-36
20
-22.343428
30
0
11
41.76
21
-22.343428
31
0
39
0
210
0
220
0
230
1
0
SOLID
5
10E
100
AcDbEntity
8
SK2
62
256
6
ByLayer
370
13
48
1
60
0
100
AcDbTrace
10
-36
20
-22.343428
30
0
11
-32.500002
21
-21.882645
31
0
12
-32.499998
22
-22.804212
32
0
13
-36
23
-22.343428
33
0
39
0
210
0
220
0
230
1
0
SOLID
5
10F
100
AcDbEntity
8
SK2
62
256
6
ByLayer
370
13
48
1
60
0
100
AcDbTrace
10
41.76
20
-22.343428
30
0
11
38.260002
21
-22.804212
31
0
12
38.259998
22
-21.882645
32
0
13
41.76
23
-22.343428
33
0
39
0
210
0
220
0
230
1
0
ENDBLK
5
111
100
AcDbEntity
8
0
100
AcDbBlockEnd
0
BLOCK
5
11B
100
AcDbEntity
8
0
100
AcDbBlockBegin
2
DimnDraft3D6
70
0
10
0
20
0
30
0
3
DimnDraft3D6
0
MTEXT
5
114
100
AcDbEntity
8
SK2
62
256
6
ByLayer
370
13
48
1
60
0
100
AcDbMText
10
-46.375163
20
23.34918
30
0
210
0
220
0
230
1
1
\W0.7317;8,000
40
3.5
41
0
44
1.084337
50
90
71
7
72
5
7
iso_b_vert
0
MTEXT
5
115
100
AcDbEntity
8
SK2
62
256
6
ByLayer
370
13
48
1
60
0
100
AcDbMText
10
-46.375163
20
18.126524
30
0
210
0
220
0
230
1
1
%%c
40
3.5
41
0
44
1.084337
50
90
71
7
72
5
7
iso_b_vert
0
LINE
5
116
100
AcDbEntity
8
SK2
62
256
6
ByLayer
370
13
48
1
60
0
100
AcDbLine
10
-37.5875
20
-4
30
0
11
-46.625163
21
-4
31
0
39
0
210
0
220
0
230
1
0
LINE
5
117
100
AcDbEntity
8
SK2
62
256
6
ByLayer
370
13
48
1
60
0
100
AcDbLine
10
-37.5875
20
4
30
0
11
-46.625163
21
4
31
0
39
0
210
0
220
0
230
1
0
LINE
5
118
100
AcDbEntity
8
SK2
62
256
6
ByLayer
370
13
48
1
60
0
100
AcDbLine
10
-44.625163
20
-4
30
0
11
-44.625163
21
33.121549
31
0
39
0
210
0
220
0
230
1
0
SOLID
5
119
100
AcDbEntity
8
SK2
62
256
6
ByLayer
370
13
48
1
60
0
100
AcDbTrace
10
-44.625163
20
-4
30
0
11
-45.085946
21
-0.500002
31
0
12
-44.164379
22
-0.499998
32
0
13
-44.625163
23
-4
33
0
39
0
210
0
220
0
230
1
0
SOLID
5
11A
100
AcDbEntity
8
SK2
62
256
6
ByLayer
370
13
48
1
60
0
100
AcDbTrace
10
-44.625163
20
4
30
0
11
-44.164379
21
0.500002
31
0
12
-45.085946
22
0.499998
32
0
13
-44.625163
23
4
33
0
39
0
210
0
220
0
230
1
0
ENDBLK
5
11C
100
AcDbEntity
8
0
100
AcDbBlockEnd
0
BLOCK
5
126
100
AcDbEntity
8
0
100
AcDbBlockBegin
2
DimnDraft3D7
70
0
10
0
20
0
30
0
3
DimnDraft3D7
0
MTEXT
5
11F
100
AcDbEntity
8
2
62
256
6
ByLayer
370
13
48
1
60
0
100
AcDbMText
10
53.333343
20
21.592266
30
0
210
0
220
0
230
1
1
\W0.7317;7,300
40
3.5
41
0
44
1.084337
50
90
71
7
72
5
7
iso_b_vert
0
MTEXT
5
120
100
AcDbEntity
8
2
62
256
6
ByLayer
370
13
48
1
60
0
100
AcDbMText
10
53.333343
20
16.36961
30
0
210
0
220
0
230
1
1
%%c
40
3.5
41
0
44
1.084337
50
90
71
7
72
5
7
iso_b_vert
0
LINE
5
121
100
AcDbEntity
8
2
62
256
6
ByLayer
370
13
48
1
60
0
100
AcDbLine
10
43.3475
20
-3.65
30
0
11
57.083343
21
-3.65
31
0
39
0
210
0
220
0
230
1
0
LINE
5
122
100
AcDbEntity
8
2
62
256
6
ByLayer
370
13
48
1
60
0
100
AcDbLine
10
43.3475
20
3.65
30
0
11
57.083343
21
3.65
31
0
39
0
210
0
220
0
230
1
0
LINE
5
123
100
AcDbEntity
8
2
62
256
6
ByLayer
370
13
48
1
60
0
100
AcDbLine
10
55.083343
20
-3.65
30
0
11
55.083343
21
31.364635
31
0
39
0
210
0
220
0
230
1
0
SOLID
5
124
100
AcDbEntity
8
2
62
256
6
ByLayer
370
13
48
1
60
0
100
AcDbTrace
10
55.083343
20
-3.65
30
0
11
54.622559
21
-0.150002
31
0
12
55.544126
22
-0.149998
32
0
13
55.083343
23
-3.65
33
0
39
0
210
0
220
0
230
1
0
SOLID
5
125
100
AcDbEntity
8
2
62
256
6
ByLayer
370
13
48
1
60
0
100
AcDbTrace
10
55.083343
20
3.65
30
0
11
55.544126
21
0.150002
31
0
12
54.622559
22
0.149998
32
0
13
55.083343
23
3.65
33
0
39
0
210
0
220
0
230
1
0
ENDBLK
5
127
100
AcDbEntity
8
0
100
AcDbBlockEnd
0
ENDSEC
0
SECTION
2
ENTITIES
0
ARC
5
9D
100
AcDbEntity
8
1
62
256
6
ByLayer
370
18
48
1
60
0
100
AcDbCircle
39
0
10
0
20
3.2
30
0
40
0.8
210
0
220
0
230
1
100
AcDbArc
50
49.991879
51
90
0
ARC
5
9E
100
AcDbEntity
8
1
62
256
6
ByLayer
370
18
48
1
60
0
100
AcDbCircle
39
0
10
0
20
-3.2
30
0
40
0.8
210
0
220
0
230
1
100
AcDbArc
50
270
51
310.008121
0
ARC
5
9F
100
AcDbEntity
8
1
62
256
6
ByLayer
370
18
48
1
60
0
100
AcDbCircle
39
0
10
-1.028634
20
4.425525
30
0
40
0.799999999999996
210
0
220
0
230
-1
100
AcDbArc
50
269.965623
51
310.008121
0
ARC
5
A0
100
AcDbEntity
8
1
62
256
6
ByLayer
370
18
48
1
60
0
100
AcDbCircle
39
0
10
-1.028634
20
-4.425525
30
0
40
0.799999999999996
210
0
220
0
230
-1
100
AcDbArc
50
49.991879
51
90.034377
0
ELLIPSE
5
A1
100
AcDbEntity
8
1
62
256
6
ByLayer
370
18
48
1
60
0
100
AcDbEllipse
10
4.25
20
3.706461
30
0
11
-0.25
21
3.06151588455594E-17
31
0
210
0
220
0
230
1
40
0.999956
41
0.356828875225252
42
1.58003399572295
0
ELLIPSE
5
A2
100
AcDbEntity
8
1
62
256
6
ByLayer
370
18
48
1
60
0
100
AcDbEllipse
10
4.25
20
-3.706461
30
0
11
-0.25
21
3.06151588455594E-17
31
0
210
0
220
0
230
1
40
0.999956
41
-1.56343249186544
42
-0.352403986213881
0
ELLIPSE
5
A3
100
AcDbEntity
8
1
62
256
6
ByLayer
370
18
48
1
60
0
100
AcDbEllipse
10
42.280708
20
1.829243
30
0
11
0.565979215326226
21
-1.53161345697082
31
0
210
0
220
0
230
-1
40
0.115174
41
-1.50689018999469
42
-0.742863466705888
0
ELLIPSE
5
A4
100
AcDbEntity
8
1
62
256
6
ByLayer
370
18
48
1
60
0
100
AcDbEllipse
10
43.000328
20
0.000797
30
0
11
1.34783102895345
21
3.64740625597691
31
0
210
0
220
0
230
-1
40
0.115174
41
2.862906671874
42
2.96998291323378
0
ELLIPSE
5
A5
100
AcDbEntity
8
1
62
256
6
ByLayer
370
18
48
1
60
0
100
AcDbEllipse
10
42.86043
20
0.112542
30
0
11
0.0727819104939379
21
0.30191719570943
31
0
210
0
220
0
230
-1
40
0.478434
41
1.7093339903558
42
2.45976119972602
0
ELLIPSE
5
A6
100
AcDbEntity
8
1
62
256
6
ByLayer
370
18
48
1
60
0
100
AcDbEllipse
10
43.045569
20
0.002693
30
0
11
0.137979128881928
21
-0.428995648180122
31
0
210
0
220
0
230
-1
40
0.08774
41
1.67753952903924
42
2.32337572127084
0
ELLIPSE
5
A7
100
AcDbEntity
8
1
62
256
6
ByLayer
370
18
48
1
60
0
100
AcDbEllipse
10
43.000328
20
-0.000797
30
0
11
1.34783103022065
21
-3.64740625968818
31
0
210
0
220
0
230
-1
40
0.115174
41
-2.96998291332194
42
-2.86290667201732
0
ELLIPSE
5
A8
100
AcDbEntity
8
1
62
256
6
ByLayer
370
18
48
1
60
0
100
AcDbEllipse
10
43.045569
20
-0.002693
30
0
11
0.137979128896414
21
0.428995648218042
31
0
210
0
220
0
230
-1
40
0.08774
41
-2.3233757212652
42
-1.67753952908772
0
ELLIPSE
5
A9
100
AcDbEntity
8
1
62
256
6
ByLayer
370
18
48
1
60
0
100
AcDbEllipse
10
42.280708
20
-1.829243
30
0
11
0.565979215329515
21
1.53161345697762
31
0
210
0
220
0
230
-1
40
0.115174
41
0.742863466704288
42
1.50689018999036
0
ELLIPSE
5
AA
100
AcDbEntity
8
1
62
256
6
ByLayer
370
13
48
1
60
0
100
AcDbEllipse
10
42.464512
20
1.706045
30
0
11
2.10401742699939
21
-1.44867582912392
31
0
210
0
220
0
230
-1
40
0.533762
41
1.44484622738934
42
1.70079694739585
0
ELLIPSE
5
AB
100
AcDbEntity
8
1
62
256
6
ByLayer
370
13
48
1
60
0
100
AcDbEllipse
10
42.151597
20
0.533116
30
0
11
0.153082081612425
21
0.258003636193769
31
0
210
0
220
0
230
1
40
0.454519
41
0.917105603404882
42
2.31336900500034
0
ELLIPSE
5
AC
100
AcDbEntity
8
1
62
256
6
ByLayer
370
13
48
1
60
0
100
AcDbEllipse
10
42.654418
20
1.829243
30
0
11
2.17564690220523
21
-1.10221422412458
31
0
210
0
220
0
230
-1
40
0.489723
41
1.55384406307276
42
1.82824112587523
0
POINT
5
6C
100
AcDbEntity
8
81
62
256
6
ByLayer
370
18
48
1
60
0
100
AcDbPoint
10
43
20
0
30
0
39
0
210
0
220
0
230
1
50
360
0
POINT
5
6E
100
AcDbEntity
8
80
62
256
6
ByLayer
370
18
48
1
60
0
100
AcDbPoint
10
0
20
0
30
0
39
0
210
0
220
0
230
1
50
360
0
POINT
5
70
100
AcDbEntity
8
SK2
62
256
6
ByLayer
370
18
48
1
60
1
100
AcDbPoint
10
-36
20
-4
30
0
39
0
210
0
220
0
230
1
50
360
0
POINT
5
72
100
AcDbEntity
8
SK2
62
256
6
ByLayer
370
18
48
1
60
1
100
AcDbPoint
10
-36
20
4
30
0
39
0
210
0
220
0
230
1
50
360
0
POINT
5
73
100
AcDbEntity
8
2
62
256
6
ByLayer
370
18
48
1
60
1
100
AcDbPoint
10
41.76
20
-3.65
30
0
39
0
210
0
220
0
230
1
50
360
0
POINT
5
75
100
AcDbEntity
8
2
62
256
6
ByLayer
370
18
48
1
60
1
100
AcDbPoint
10
41.76
20
3.65
30
0
39
0
210
0
220
0
230
1
50
360
0
SPLINE
5
AD
100
AcDbEntity
8
1
62
256
6
ByLayer
370
18
48
1
60
0
100
AcDbSpline
70
4
71
3
72
24
73
20
40
0
40
0
40
0
40
0
40
0.0725012356036725
40
0.154952859106667
40
0.217541856081852
40
0.268589830515517
40
0.312331189798994
40
0.381458152777152
40
0.45953362067162
40
0.532930289766809
40
0.589712779216063
40
0.640136257806784
40
0.707597263605174
40
0.779742470855604
40
0.81457635559893
40
0.84203920779139
40
0.885856835224332
40
0.956049403465283
40
1
40
1
40
1
40
1
41
1
10
4.25022266092924
20
-3.45648137708753
30
0
41
1
10
4.43554793678291
20
-3.45663822827177
30
0
41
1
10
4.83163898464201
20
-3.45693622783585
30
0
41
1
10
5.38776508108253
20
-3.45694623400837
30
0
41
1
10
5.88901788982619
20
-3.45733138258765
30
0
41
1
10
6.29132921605083
20
-3.45778507405666
30
0
41
1
10
6.71036609284261
20
-3.45861535558157
30
0
41
1
10
7.19849201783231
20
-3.45805148368942
30
0
41
1
10
7.7624319394925
20
-3.45721470551828
30
0
41
1
10
8.29480730813265
20
-3.45799833895415
30
0
41
1
10
8.75649531744767
20
-3.45997874814211
30
0
41
1
10
9.20301358908836
20
-3.4605778665493
30
0
41
1
10
9.68880480972069
20
-3.46007315454622
30
0
41
1
10
10.1347373148967
20
-3.45933037709409
30
0
41
1
10
10.478423046201
20
-3.45908700138199
30
0
41
1
10
10.749598828221
20
-3.45944031594419
30
0
41
1
10
11.111260906066
20
-3.46089709181445
30
0
41
1
10
11.5150921595787
20
-3.46115122426031
30
0
41
1
10
11.8068395894749
20
-3.46129719737957
30
0
41
1
10
11.9191713964052
20
-3.46129389239542
30
0
0
SPLINE
5
AE
100
AcDbEntity
8
1
62
256
6
ByLayer
370
18
48
1
60
0
100
AcDbSpline
70
4
71
3
72
28
73
24
40
0
40
0
40
0
40
0
40
0.071779931217803
40
0.122250890458139
40
0.15288752004557
40
0.191296443564641
40
0.24253775151034
40
0.288834266364337
40
0.323053753793761
40
0.364770641787838
40
0.410609230927099
40
0.467579283124507
40
0.532731365247024
40
0.605778431073609
40
0.664172017230379
40
0.713568737860089
40
0.782551067107407
40
0.819259718992845
40
0.84885790852539
40
0.871711692769156
40
0.906399987928098
40
0.963257376933924
40
1
40
1
40
1
40
1
41
1
10
21.7470288360357
20
-3.46696640294368
30
0
41
1
10
21.9760629517965
20
-3.46711255207828
30
0
41
1
10
22.3661326074118
20
-3.46733424214196
30
0
41
1
10
22.8539734260134
20
-3.46769210645272
30
0
41
1
10
23.2352861271839
20
-3.4677676741367
30
0
41
1
10
23.6190517358692
20
-3.4681785521181
30
0
41
1
10
24.0528463510873
20
-3.46834862664824
30
0
41
1
10
24.4732560171436
20
-3.46845288135501
30
0
41
1
10
24.8632310725149
20
-3.46905623493527
30
0
41
1
10
25.251801557451
20
-3.46879764775036
30
0
41
1
10
25.7129493194702
20
-3.46911507061077
30
0
41
1
10
26.24888445806
20
-3.46939908196404
30
0
41
1
10
26.8716343768348
20
-3.46952962201331
30
0
41
1
10
27.4989185881134
20
-3.46999169038969
30
0
41
1
10
28.0759387506275
20
-3.47033474709846
30
0
41
1
10
28.6399573877142
20
-3.47077543685722
30
0
41
1
10
29.1348273449086
20
-3.47073896318275
30
0
41
1
10
29.5665045194866
20
-3.47159772962595
30
0
41
1
10
29.8510122572567
20
-3.47126544736398
30
0
41
1
10
30.1289997332347
20
-3.47096853693012
30
0
41
1
10
30.494011289668
20
-3.47198416994857
30
0
41
1
10
30.9033904888588
20
-3.47171401131837
30
0
41
1
10
31.2019935873279
20
-3.4721456271169
30
0
41
1
10
31.3192044037232
20
-3.47231411811015
30
0
0
SPLINE
5
AF
100
AcDbEntity
8
1
62
256
6
ByLayer
370
18
48
1
60
0
100
AcDbSpline
70
4
71
2
72
6
73
3
40
0
40
0
40
0
40
1
40
1
40
1
41
1
10
41.1635790077719
20
-3.47875759063112
30
0
41
1
10
41.4480001160646
20
-3.47788225979937
30
0
41
1
10
41.7319427274126
20
-3.47964386148797
30
0
0
SPLINE
5
B0
100
AcDbEntity
8
1
62
256
6
ByLayer
370
18
48
1
60
0
100
AcDbSpline
70
4
71
3
72
24
73
20
40
0
40
0
40
0
40
0
40
0.0543737723478328
40
0.136724217207794
40
0.20309533713266
40
0.251466138209474
40
0.294897035992512
40
0.341423173205396
40
0.398436748009254
40
0.468548005683367
40
0.536193243536355
40
0.589975841299017
40
0.657759260995534
40
0.725518243682124
40
0.761453226666473
40
0.800691347184827
40
0.858273221389465
40
0.934836557119538
40
1
40
1
40
1
40
1
41
1
10
11.9941806486936
20
3.46093394164473
30
0
41
1
10
11.854791282272
20
3.46069289340488
30
0
41
1
10
11.5039500917762
20
3.46011923242125
30
0
41
1
10
10.9774479767087
20
3.45985665393306
30
0
41
1
10
10.4722839368127
20
3.45890906962717
30
0
41
1
10
10.0633198914673
20
3.45950780160507
30
0
41
1
10
9.70609876065373
20
3.46001777329485
30
0
41
1
10
9.32643823176849
20
3.46042744123272
30
0
41
1
10
8.87789502249001
20
3.46043858331248
30
0
41
1
10
8.3747932539911
20
3.4582595931995
30
0
41
1
10
7.8800364627769
20
3.45732742511271
30
0
41
1
10
7.3912888107223
20
3.45769935011128
30
0
41
1
10
6.90225840016797
20
3.458535316829
30
0
41
1
10
6.45931904489387
20
3.4582249604517
30
0
41
1
10
6.09011587592863
20
3.45742085108489
30
0
41
1
10
5.74720464710779
20
3.45732113816484
30
0
41
1
10
5.29942425310279
20
3.45683855408629
30
0
41
1
10
4.78455576514477
20
3.45693601483046
30
0
41
1
10
4.41852369609461
20
3.45663758091536
30
0
41
1
10
4.25023317030045
20
3.45648622418392
30
0
0
SPLINE
5
B1
100
AcDbEntity
8
1
62
256
6
ByLayer
370
18
48
1
60
0
100
AcDbSpline
70
4
71
3
72
12
73
8
40
0
40
0
40
0
40
0
40
0.214065703521748
40
0.341544716632329
40
0.470932349903054
40
0.67886232521445
40
1
40
1
40
1
40
1
41
1
10
32.3129100615249
20
-0.977130510388719
30
0
41
1
10
32.3128256715275
20
-0.977239311644439
30
0
41
1
10
32.3193983603236
20
-0.980495434904753
30
0
41
1
10
32.3501661944493
20
-0.995961414758426
30
0
41
1
10
32.3876557203941
20
-1.01363874427642
30
0
41
1
10
32.5183715568919
20
-1.08127232249959
30
0
41
1
10
32.6320318799743
20
-1.14465040920624
30
0
41
1
10
32.7134712931168
20
-1.1910890632515
30
0
0
SPLINE
5
B2
100
AcDbEntity
8
1
62
256
6
ByLayer
370
18
48
1
60
0
100
AcDbSpline
70
4
71
3
72
26
73
22
40
0
40
0
40
0
40
0
40
0.0611371767135696
40
0.148004241625487
40
0.214373987079656
40
0.26275698868302
40
0.313598035633157
40
0.37466447460258
40
0.456533496872232
40
0.532004508331381
40
0.590211320074273
40
0.626746292855964
40
0.660283370587606
40
0.691121579184501
40
0.731841933692873
40
0.789086582059612
40
0.846068120392551
40
0.909966259746522
40
0.960594727116782
40
0.989643111447189
40
1
40
1
40
1
40
1
41
1
10
31.3833074620199
20
3.4721688379652
30
0
41
1
10
31.2212586892643
20
3.47177910118131
30
0
41
1
10
30.8287432129117
20
3.47107813939297
30
0
41
1
10
30.2576799525456
20
3.47079710810681
30
0
41
1
10
29.7227713400774
20
3.47155364600718
30
0
41
1
10
29.2815306453867
20
3.47126210609164
30
0
41
1
10
28.8548263156726
20
3.47021154034664
30
0
41
1
10
28.3388444028852
20
3.47111347215088
30
0
41
1
10
27.757326086033
20
3.46944355312058
30
0
41
1
10
27.1834091714859
20
3.47046081732134
30
0
41
1
10
26.7301951506571
20
3.46918673097238
30
0
41
1
10
26.3886490138825
20
3.46938625711363
30
0
41
1
10
26.1199953446779
20
3.46934961175975
30
0
41
1
10
25.8406395877464
20
3.46914639322768
30
0
41
1
10
25.4975994195875
20
3.46871223880282
30
0
41
1
10
25.0851019335379
20
3.46894951043504
30
0
41
1
10
24.6110573720415
20
3.46872115155151
30
0
41
1
10
24.154301555488
20
3.46831134080318
30
0
41
1
10
23.7723310742712
20
3.4683266674356
30
0
41
1
10
23.5339830679817
20
3.46775324837194
30
0
41
1
10
23.429288159387
20
3.46758398983511
30
0
41
1
10
23.4017513590413
20
3.46754436500228
30
0
0
SPLINE
5
B3
100
AcDbEntity
8
1
62
256
6
ByLayer
370
18
48
1
60
0
100
AcDbSpline
70
4
71
3
72
14
73
10
40
0
40
0
40
0
40
0
40
0.25
40
0.25
40
0.5
40
0.5
40
0.75
40
0.75
40
1
40
1
40
1
40
1
41
1
10
4.25049391243712
20
-0.931424735521119
30
0
41
1
10
4.22776770444068
20
-0.915870926630276
30
0
41
1
10
4.2046018334791
20
-0.902491624260193
30
0
41
1
10
4.15710636820791
20
-0.881486763264888
30
0
41
1
10
4.13339331280866
20
-0.87420639557385
30
0
41
1
10
4.0882140647829
20
-0.868809414563231
30
0
41
1
10
4.06789202561402
20
-0.870905492146449
30
0
41
1
10
4.03423168391541
20
-0.88470268014737
30
0
41
1
10
4.02142530074295
20
-0.896269274927676
30
0
41
1
10
4.01302484778029
20
-0.910759386444624
30
0
0
SPLINE
5
B4
100
AcDbEntity
8
1
62
256
6
ByLayer
370
18
48
1
60
0
100
AcDbSpline
70
4
71
3
72
58
73
54
40
0
40
0
40
0
40
0
40
0.062499999999996
40
0.062499999999996
40
0.124999999999992
40
0.124999999999992
40
0.249999999999984
40
0.249999999999984
40
0.374999999999976
40
0.374999999999976
40
0.499999999999968
40
0.499999999999968
40
0.62499999999996
40
0.62499999999996
40
0.64062499999996
40
0.64843749999996
40
0.64843749999996
40
0.65234374999996
40
0.65234374999996
40
0.65624999999996
40
0.65624999999996
40
0.660156249999959
40
0.660156249999959
40
0.664062499999959
40
0.671874999999959
40
0.671874999999959
40
0.687499999999962
40
0.687499999999962
40
0.718749999999966
40
0.718749999999966
40
0.734374999999968
40
0.734374999999968
40
0.74999999999997
40
0.74999999999997
40
0.765624999999972
40
0.765624999999972
40
0.781249999999974
40
0.781249999999974
40
0.796874999999977
40
0.796874999999977
40
0.812499999999979
40
0.812499999999979
40
0.828124999999981
40
0.828124999999981
40
0.843749999999983
40
0.843749999999983
40
0.874999999999986
40
0.874999999999986
40
0.90624999999999
40
0.90624999999999
40
0.937499999999993
40
0.937499999999993
40
1
40
1
40
1
40
1
41
1
10
12.0917691713689
20
-0.492728262716241
30
0
41
1
10
11.8262264356957
20
-0.337356467701483
30
0
41
1
10
11.5589345858104
20
-0.18446399421012
30
0
41
1
10
11.0201995145649
20
0.115059331330969
30
0
41
1
10
10.7481388991233
20
0.261991177000112
30
0
41
1
10
9.92920052240888
20
0.687833794725321
30
0
41
1
10
9.38030559208073
20
0.951392619706581
30
0
41
1
10
8.26753706808825
20
1.42391466023136
30
0
41
1
10
7.70357141394641
20
1.63266400266681
30
0
41
1
10
6.55284269267739
20
1.98699984109095
30
0
41
1
10
5.96555511933639
20
2.13274676499304
30
0
41
1
10
4.7657990746093
20
2.3608102438464
30
0
41
1
10
4.15780330400955
20
2.44256464647796
30
0
41
1
10
3.46847726079778
20
2.50128195481665
30
0
41
1
10
3.35347046771057
20
2.51037433798507
30
0
41
1
10
3.23828286761818
20
2.51843379600243
30
0
41
1
10
3.18065874652021
20
2.52229177353303
30
0
41
1
10
3.16141878880683
20
2.52407137140892
30
0
41
1
10
3.12308280260749
20
2.52459862982491
30
0
41
1
10
3.10360503852132
20
2.52330692337941
30
0
41
1
10
3.06686041306415
20
2.51577861329918
30
0
41
1
10
3.05039686350528
20
2.50859932056875
30
0
41
1
10
3.01667429533299
20
2.49563598147145
30
0
41
1
10
2.96629826541243
20
2.47586348506076
30
0
41
1
10
2.91657159311083
20
2.45505998198809
30
0
41
1
10
2.81806665934749
20
2.41192372192208
30
0
41
1
10
2.75355604252852
20
2.38107363416506
30
0
41
1
10
2.56667399831008
20
2.28193865079066
30
0
41
1
10
2.45010159039757
20
2.20717560186759
30
0
41
1
10
2.29427631048188
20
2.07322581600619
30
0
41
1
10
2.24520375642481
20
2.02445381766233
30
0
41
1
10
2.1575494147252
20
1.91850039342765
30
0
41
1
10
2.11950627681614
20
1.86207541552054
30
0
41
1
10
2.05741127753419
20
1.74063676236244
30
0
41
1
10
2.03354855231032
20
1.6752270860774
30
0
41
1
10
2.00408405929454
20
1.54145257655318
30
0
41
1
10
1.99800248896273
20
1.47204771870273
30
0
41
1
10
2.00318962705376
20
1.3297522653086
30
0
41
1
10
2.01426232973574
20
1.25907590207169
30
0
41
1
10
2.05026735409291
20
1.11834913516387
30
0
41
1
10
2.07535337240216
20
1.04827500363731
30
0
41
1
10
2.13475755679707
20
0.913115214759557
30
0
41
1
10
2.16924062164424
20
0.847327881967971
30
0
41
1
10
2.24554269259892
20
0.718438596231891
30
0
41
1
10
2.28760287387405
20
0.655047480951083
30
0
41
1
10
2.42065014448826
20
0.470736022958334
30
0
41
1
10
2.51827576720487
20
0.355297338084455
30
0
41
1
10
2.72451925004981
20
0.133475966868644
30
0
41
1
10
2.83325397539852
20
0.0271924199992952
30
0
41
1
10
3.0586411543857
20
-0.178924389062644
30
0
41
1
10
3.17406647242143
20
-0.27759193456302
30
0
41
1
10
3.52559843071731
20
-0.563594257942469
30
0
41
1
10
3.76711817859507
20
-0.741368936623616
30
0
41
1
10
4.01302484777437
20
-0.910759386427799
30
0
0
SPLINE
5
B5
100
AcDbEntity
8
1
62
256
6
ByLayer
370
18
48
1
60
0
100
AcDbSpline
70
2053
71
3
72
62
73
58
40
0
40
0
40
0
40
0
40
0.0312499999999992
40
0.0312499999999992
40
0.0624999999999983
40
0.0624999999999983
40
0.0937499999999975
40
0.0937499999999975
40
0.124999999999997
40
0.124999999999997
40
0.156249999999996
40
0.156249999999996
40
0.187499999999995
40
0.187499999999995
40
0.218749999999994
40
0.218749999999994
40
0.249999999999993
40
0.249999999999993
40
0.281249999999993
40
0.281249999999993
40
0.312499999999992
40
0.312499999999992
40
0.374999999999993
40
0.374999999999993
40
0.437499999999995
40
0.437499999999995
40
0.468749999999996
40
0.468749999999996
40
0.499999999999997
40
0.499999999999997
40
0.531249999999997
40
0.531249999999997
40
0.562499999999998
40
0.562499999999998
40
0.593749999999999
40
0.593749999999999
40
0.625
40
0.625
40
0.656250000000001
40
0.656250000000001
40
0.687500000000002
40
0.687500000000002
40
0.718750000000002
40
0.718750000000002
40
0.750000000000003
40
0.750000000000003
40
0.781250000000004
40
0.781250000000004
40
0.812500000000005
40
0.812500000000005
40
0.875000000000003
40
0.875000000000003
40
0.937500000000002
40
0.937500000000002
40
0.968750000000001
40
0.968750000000001
40
1
40
1
40
1
40
1
41
1
10
42.1884372519287
20
-1.80256522331614
30
0
41
1
10
42.2082739777292
20
-1.77367105279728
30
0
41
1
10
42.2276661199217
20
-1.74279224245799
30
0
41
1
10
42.2654927785965
20
-1.6767596673063
30
0
41
1
10
42.2841274732387
20
-1.64118241353532
30
0
41
1
10
42.3191640552184
20
-1.56715105284749
30
0
41
1
10
42.335503778574
20
-1.52892694960843
30
0
41
1
10
42.3654931180267
20
-1.44972049056389
30
0
41
1
10
42.3788542896821
20
-1.40935747352731
30
0
41
1
10
42.4010159455078
20
-1.33035290838947
30
0
41
1
10
42.4100923871457
20
-1.29058620091186
30
0
41
1
10
42.4227975659122
20
-1.21596933981465
30
0
41
1
10
42.4265541654001
20
-1.18081754753302
30
0
41
1
10
42.4288699805119
20
-1.11587786676887
30
0
41
1
10
42.4274242168394
20
-1.08708912452093
30
0
41
1
10
42.419911539204
20
-1.03604507156098
30
0
41
1
10
42.4138548126829
20
-1.01421273349345
30
0
41
1
10
42.3980907002307
20
-0.978080334630164
30
0
41
1
10
42.3882427155145
20
-0.963520740496421
30
0
41
1
10
42.3658154637249
20
-0.94167290444372
30
0
41
1
10
42.353204750314
20
-0.934227781705374
30
0
41
1
10
42.3115499293596
20
-0.921411018108188
30
0
41
1
10
42.2796712137658
20
-0.925667716266275
30
0
41
1
10
42.2096374884974
20
-0.956829393306009
30
0
41
1
10
42.1725841215617
20
-0.983217386962735
30
0
41
1
10
42.1144344576146
20
-1.03871714667974
30
0
41
1
10
42.0945865522197
20
-1.05999765509745
30
0
41
1
10
42.0552932565097
20
-1.10686959658207
30
0
41
1
10
42.0356790171653
20
-1.13260637782778
30
0
41
1
10
41.9965214124666
20
-1.1891115699469
30
0
41
1
10
41.9767591207449
20
-1.22026446738622
30
0
41
1
10
41.9385775483067
20
-1.28648090901871
30
0
41
1
10
41.9201846243905
20
-1.32141422081693
30
0
41
1
10
41.8849916188871
20
-1.3954465403659
30
0
41
1
10
41.8682887560535
20
-1.43447424874358
30
0
41
1
10
41.8385926697413
20
-1.51284324250756
30
0
41
1
10
41.8252456878022
20
-1.55303583007105
30
0
41
1
10
41.8027466966694
20
-1.63338896216246
30
0
41
1
10
41.7939404057586
20
-1.6721975852409
30
0
41
1
10
41.781198820832
20
-1.74708757482881
30
0
41
1
10
41.777400133448
20
-1.78283616965035
30
0
41
1
10
41.7750397468313
20
-1.84737802504691
30
0
41
1
10
41.7764470617762
20
-1.87695637062927
30
0
41
1
10
41.7837854885162
20
-1.92812430781871
30
0
41
1
10
41.7897384460921
20
-1.95023808266973
30
0
41
1
10
41.8054043013049
20
-1.987047126931
30
0
41
1
10
41.8150076454631
20
-2.00164047708401
30
0
41
1
10
41.8373405225173
20
-2.02409743748683
30
0
41
1
10
41.8500651651037
20
-2.0318534040004
30
0
41
1
10
41.8913467331521
20
-2.04515541615984
30
0
41
1
10
41.9237660412517
20
-2.04099685735744
30
0
41
1
10
41.9933052248456
20
-2.01000534437628
30
0
41
1
10
42.0312866295651
20
-1.98275360409778
30
0
41
1
10
42.0892315510381
20
-1.92692750724623
30
0
41
1
10
42.1087845952119
20
-1.90580737156159
30
0
41
1
10
42.1484008988144
20
-1.85818476956314
30
0
41
1
10
42.1686005261282
20
-1.83145939383499
30
0
41
1
10
42.1884372519287
20
-1.80256522331614
30
0
0
SPLINE
5
B6
100
AcDbEntity
8
1
62
256
6
ByLayer
370
18
48
1
60
0
100
AcDbSpline
70
4
71
3
72
79
73
75
40
0
40
0
40
0
40
0
40
0.0301178803813612
40
0.0301178803813612
40
0.10276140256596
40
0.10276140256596
40
0.13908316365826
40
0.13908316365826
40
0.175404924750559
40
0.175404924750559
40
0.248048446935158
40
0.248048446935158
40
0.320691969119757
40
0.320691969119757
40
0.393335491304356
40
0.393335491304356
40
0.429657252396655
40
0.429657252396655
40
0.447818132942805
40
0.447818132942805
40
0.452358353079343
40
0.454628463147611
40
0.454628463147611
40
0.454912226906145
40
0.454912226906145
40
0.455195990664678
40
0.455195990664678
40
0.455763518181746
40
0.455763518181746
40
0.45689857321588
40
0.45689857321588
40
0.465979013488954
40
0.465979013488954
40
0.502300774581253
40
0.502300774581253
40
0.538622535673551
40
0.538622535673551
40
0.611266057858147
40
0.611266057858147
40
0.683909580042744
40
0.683909580042744
40
0.702070460588893
40
0.702070460588893
40
0.711150900861967
40
0.711150900861967
40
0.720231341135042
40
0.720231341135042
40
0.72250145120331
40
0.72250145120331
40
0.723636506237445
40
0.723636506237445
40
0.723920269995978
40
0.723920269995978
40
0.724204033754512
40
0.724204033754512
40
0.724487797513045
40
0.724487797513045
40
0.724771561271579
40
0.729311781408116
40
0.738392221681191
40
0.738392221681191
40
0.75655310222734
40
0.75655310222734
40
0.829196624411936
40
0.829196624411936
40
0.865518385504234
40
0.865518385504234
40
0.901840146596532
40
0.901840146596532
40
0.938161907688831
40
0.938161907688831
40
0.974483668781129
40
0.974483668781129
40
1
40
1
40
1
40
1
41
1
10
12.0917663190937
20
-0.492699255553873
30
0
41
1
10
11.9895415968405
20
-0.439368586479674
30
0
41
1
10
11.8872878001143
20
-0.387310823150159
30
0
41
1
10
11.5381113178705
20
-0.214800141419232
30
0
41
1
10
11.2908064170335
20
-0.101553531810509
30
0
41
1
10
10.9166021075518
20
0.0485161696821308
30
0
41
1
10
10.7917266685944
20
0.0950128174017664
30
0
41
1
10
10.5441232607073
20
0.178919979093763
30
0
41
1
10
10.4209783715844
20
0.21649998733389
30
0
41
1
10
10.0526408918875
20
0.314987141329368
30
0
41
1
10
9.80858005305538
20
0.361577101689761
30
0
41
1
10
9.31764096582333
20
0.412073416040897
30
0
41
1
10
9.06913772296491
20
0.415596716001204
30
0
41
1
10
8.57885057742317
20
0.379527223278274
30
0
41
1
10
8.33537320415024
20
0.340440154389881
30
0
41
1
10
7.96810374947427
20
0.25338527145513
30
0
41
1
10
7.84534665974138
20
0.219626057244227
30
0
41
1
10
7.6601920481217
20
0.162228915471587
30
0
41
1
10
7.59826453850263
20
0.141956057220312
30
0
41
1
10
7.520701583061
20
0.115279686444467
30
0
41
1
10
7.49743011740867
20
0.107179824294917
30
0
41
1
10
7.47415510881018
20
0.0989367663173084
30
0
41
1
10
7.46542653350593
20
0.0958278525467335
30
0
41
1
10
7.46591004892645
20
0.0946836910276829
30
0
41
1
10
7.46712022694717
20
0.09311045450454
30
0
41
1
10
7.46784228835327
20
0.0923770064904943
30
0
41
1
10
7.47005240918577
20
0.0902432493817855
30
0
41
1
10
7.47163518768284
20
0.0888986278151833
30
0
41
1
10
7.47646999054331
20
0.0849262399591453
30
0
41
1
10
7.47981953222879
20
0.0823832301170455
30
0
41
1
10
7.51024258076748
20
0.0598063647645688
30
0
41
1
10
7.53892182741004
20
0.0412821501288931
30
0
41
1
10
7.68150478215466
20
-0.0518758123495786
30
0
41
1
10
7.79787092311682
20
-0.124066083286664
30
0
41
1
10
8.03050754882904
20
-0.268746380578335
30
0
41
1
10
8.14721189080521
20
-0.340804822043793
30
0
41
1
10
8.49780576374189
20
-0.556855778319999
30
0
41
1
10
8.73167854106271
20
-0.701500414123274
30
0
41
1
10
9.19965997805667
20
-0.992086930336995
30
0
41
1
10
9.43378932571096
20
-1.13790730238404
30
0
41
1
10
9.72441579464342
20
-1.32419827682617
30
0
41
1
10
9.78244128603859
20
-1.36165905237985
30
0
41
1
10
9.86910115480279
20
-1.4185438545081
30
0
41
1
10
9.89792350364175
20
-1.43761717728995
30
0
41
1
10
9.95527549115647
20
-1.47624971247833
30
0
41
1
10
9.98392213841089
20
-1.49566702122951
30
0
41
1
10
10.0188025003384
20
-1.52126830612684
30
0
41
1
10
10.0257352385533
20
-1.52645063795128
30
0
41
1
10
10.0358462829229
20
-1.53463473128383
30
0
41
1
10
10.0391946040475
20
-1.53739421271777
30
0
41
1
10
10.0430858647935
20
-1.54126233868476
30
0
41
1
10
10.043850269596
20
-1.54206013638569
30
0
41
1
10
10.0452499157574
20
-1.54377083189431
30
0
41
1
10
10.0462443699782
20
-1.54473989457924
30
0
41
1
10
10.0457496749506
20
-1.54690844230686
30
0
41
1
10
10.0444074835721
20
-1.54729370350111
30
0
41
1
10
10.0426919670135
20
-1.54865836012456
30
0
41
1
10
10.0281102125472
20
-1.56025543113003
30
0
41
1
10
9.98608689238822
20
-1.59355897027743
30
0
41
1
10
9.94494411161438
20
-1.62581562190468
30
0
41
1
10
9.86269104521364
20
-1.68977728027676
30
0
41
1
10
9.80782760175691
20
-1.73173776661506
30
0
41
1
10
9.5339945955451
20
-1.93681589501864
30
0
41
1
10
9.31718145894473
20
-2.0856681545549
30
0
41
1
10
8.98478729633635
20
-2.27472776738935
30
0
41
1
10
8.87332647442619
20
-2.33157647730823
30
0
41
1
10
8.65020903375222
20
-2.42977893408735
30
0
41
1
10
8.53810168292566
20
-2.47138550962964
30
0
41
1
10
8.3108832225773
20
-2.53836683960688
30
0
41
1
10
8.19576520389435
20
-2.56373107766259
30
0
41
1
10
7.96075575026327
20
-2.59739858083873
30
0
41
1
10
7.84195340745731
20
-2.60545498202353
30
0
41
1
10
7.63967000716346
20
-2.60539118147787
30
0
41
1
10
7.55589022502679
20
-2.60141430962304
30
0
41
1
10
7.47171948204448
20
-2.59389264031233
30
0
0
SPLINE
5
B7
100
AcDbEntity
8
1
62
256
6
ByLayer
370
18
48
1
60
0
100
AcDbSpline
70
4
71
3
72
22
73
18
40
0
40
0
40
0
40
0
40
0.25
40
0.25
40
0.5
40
0.5
40
0.625000000000001
40
0.625000000000001
40
0.750000000000001
40
0.750000000000001
40
0.8125
40
0.8125
40
0.875
40
0.875
40
0.9375
40
0.9375
40
1
40
1
40
1
40
1
41
1
10
41.5784857239097
20
1.07952808239125
30
0
41
1
10
41.6823219419111
20
1.10415534651651
30
0
41
1
10
41.7849288167506
20
1.13213212769691
30
0
41
1
10
41.985930321786
20
1.19997530887895
30
0
41
1
10
42.0851630869936
20
1.2398538865929
30
0
41
1
10
42.2237750193755
20
1.31690056357351
30
0
41
1
10
42.2686089032775
20
1.34576790021453
30
0
41
1
10
42.3509853380837
20
1.41191840883928
30
0
41
1
10
42.3884883405523
20
1.44903263823338
30
0
41
1
10
42.4351155751262
20
1.51411347881844
30
0
41
1
10
42.4486432790717
20
1.53688365133939
30
0
41
1
10
42.471133143194
20
1.58489487508666
30
0
41
1
10
42.4801525284016
20
1.610467259959
30
0
41
1
10
42.492605799041
20
1.66251390059841
30
0
41
1
10
42.4961262769834
20
1.6889468737796
30
0
41
1
10
42.4981484515464
20
1.7425920734575
30
0
41
1
10
42.4965823905043
20
1.76991028858316
30
0
41
1
10
42.4928952222654
20
1.79648289277796
30
0
0
SPLINE
5
B8
100
AcDbEntity
8
1
62
256
6
ByLayer
370
18
48
1
60
0
100
AcDbSpline
70
4
71
3
72
27
73
23
40
0
40
0
40
0
40
0
40
0.0191223376997725
40
0.0191223376997725
40
0.0945744655690209
40
0.0945744655690209
40
0.245478721307518
40
0.245478721307518
40
0.320930849176766
40
0.320930849176766
40
0.396382977046015
40
0.396382977046015
40
0.547287232784511
40
0.547287232784511
40
0.62273936065376
40
0.62273936065376
40
0.698191488523008
40
0.773643616392256
40
0.773643616392256
40
0.849095744261504
40
0.849095744261504
40
1
40
1
40
1
40
1
41
1
10
4.01291348869754
20
-3.62731726161013
30
0
41
1
10
4.01291307039645
20
-3.62732266351833
30
0
41
1
10
4.01291262198478
20
-3.62694401423761
30
0
41
1
10
4.01291027612393
20
-3.62316927215076
30
0
41
1
10
4.01290798787269
20
-3.61407980840025
30
0
41
1
10
4.01290076756868
20
-3.56892011964797
30
0
41
1
10
4.01289554116559
20
-3.51553493295407
30
0
41
1
10
4.01288979448384
20
-3.40139073289393
30
0
41
1
10
4.01288822068679
20
-3.35762328274925
30
0
41
1
10
4.01288615138836
20
-3.25827456266802
30
0
41
1
10
4.01288567210051
20
-3.20315086856257
30
0
41
1
10
4.012886293099
20
-3.02353894070564
30
0
41
1
10
4.01288946128329
20
-2.88431848413703
30
0
41
1
10
4.01289925831517
20
-2.64593999208626
30
0
41
1
10
4.01290338714372
20
-2.56109159716468
30
0
41
1
10
4.01291315754384
20
-2.38487630288569
30
0
41
1
10
4.01292445312779
20
-2.20155488982491
30
0
41
1
10
4.01293852201323
20
-2.00431383319659
30
0
41
1
10
4.01295378348476
20
-1.80005240783427
30
0
41
1
10
4.01296203561225
20
-1.69410475405641
30
0
41
1
10
4.01298803075474
20
-1.36731900414904
30
0
41
1
10
4.01300663601296
20
-1.14243104511951
30
0
41
1
10
4.01302484778552
20
-0.910759386440105
30
0
0
SPLINE
5
B9
100
AcDbEntity
8
1
62
256
6
ByLayer
370
18
48
1
60
0
100
AcDbSpline
70
4
71
3
72
30
73
26
40
0
40
0
40
0
40
0
40
0.135272383991821
40
0.135272383991821
40
0.18758184197028
40
0.18758184197028
40
0.23989129994874
40
0.23989129994874
40
0.344510215905661
40
0.344510215905661
40
0.449129131862583
40
0.449129131862583
40
0.501438589841043
40
0.501438589841043
40
0.553748047819503
40
0.553748047819503
40
0.762985879733341
40
0.762985879733341
40
0.86760479569026
40
0.86760479569026
40
0.91991425366872
40
0.91991425366872
40
0.972223711647181
40
0.972223711647181
40
1
40
1
40
1
40
1
41
1
10
26.1744880380006
20
2.61252728887465
30
0
41
1
10
26.6780825856824
20
2.41446887993965
30
0
41
1
10
27.1828270494249
20
2.18982169893991
30
0
41
1
10
27.8896345007749
20
1.84724737571614
30
0
41
1
10
28.086889653394
20
1.74872526593816
30
0
41
1
10
28.4793283247582
20
1.54758710642034
30
0
41
1
10
28.674924527879
20
1.4447898847244
30
0
41
1
10
29.2606190611159
20
1.13103167281727
30
0
41
1
10
29.6495738195891
20
0.914630486816094
30
0
41
1
10
30.4278710977693
20
0.473226114260285
30
0
41
1
10
30.8172265833324
20
0.248245239807574
30
0
41
1
10
31.4040899891861
20
-0.0913136878658634
30
0
41
1
10
31.6002357506217
20
-0.204751949740938
30
0
41
1
10
31.9939201278965
20
-0.431560107156258
30
0
41
1
10
32.1914737189047
20
-0.544923412755935
30
0
41
1
10
33.1733575744669
20
-1.10329008903065
30
0
41
1
10
33.9483423040586
20
-1.52820775490699
30
0
41
1
10
35.1161151799399
20
-2.0995811125793
30
0
41
1
10
35.5061352330536
20
-2.27925496150237
30
0
41
1
10
36.0950577907424
20
-2.52818168603577
30
0
41
1
10
36.2925493872566
20
-2.60793427154169
30
0
41
1
10
36.6861283996692
20
-2.75872891754426
30
0
41
1
10
36.8821767941361
20
-2.82977065105572
30
0
41
1
10
37.1815615505043
20
-2.93157332382396
30
0
41
1
10
37.2852571626195
20
-2.96560297341046
30
0
41
1
10
37.3888438437352
20
-2.9983317325287
30
0
0
SPLINE
5
BA
100
AcDbEntity
8
1
62
256
6
ByLayer
370
13
48
1
60
0
100
AcDbSpline
70
4
71
3
72
12
73
8
40
0
40
0
40
0
40
0
40
0.464453235884132
40
0.464453235884132
40
0.732226617942066
40
0.732226617942066
40
1
40
1
40
1
40
1
41
1
10
37.3888428903621
20
-2.99833143130539
30
0
41
1
10
38.065571463928
20
-3.21214744985926
30
0
41
1
10
38.7376508928233
20
-3.37044187846976
30
0
41
1
10
39.8037811491558
20
-3.52273909841594
30
0
41
1
10
40.1951045046649
20
-3.55795044033624
30
0
41
1
10
40.9841348436471
20
-3.58488247150353
30
0
41
1
10
41.3777253493987
20
-3.57635597744013
30
0
41
1
10
41.771650461552
20
-3.54603957639665
30
0
0
SPLINE
5
BB
100
AcDbEntity
8
1
62
256
6
ByLayer
370
18
48
1
60
0
100
AcDbSpline
70
4
71
3
72
34
73
30
40
0
40
0
40
0
40
0
40
0.249999999999995
40
0.249999999999995
40
0.374999999999992
40
0.374999999999992
40
0.437499999999986
40
0.437499999999986
40
0.499999999999981
40
0.499999999999981
40
0.624999999999978
40
0.624999999999978
40
0.68749999999998
40
0.68749999999998
40
0.718749999999985
40
0.718749999999985
40
0.74999999999999
40
0.74999999999999
40
0.812499999999993
40
0.812499999999993
40
0.843749999999994
40
0.843749999999994
40
0.874999999999995
40
0.874999999999995
40
0.906249999999997
40
0.906249999999997
40
0.937499999999998
40
0.937499999999998
40
1
40
1
40
1
40
1
41
1
10
38.7707442819089
20
1.24492495744593
30
0
41
1
10
39.0212224741043
20
1.05586213449675
30
0
41
1
10
39.2745297909198
20
0.884445958330389
30
0
41
1
10
39.6603992895956
20
0.664176071447599
30
0
41
1
10
39.7899979328735
20
0.596837307717323
30
0
41
1
10
39.9860882687437
20
0.50638531515429
30
0
41
1
10
40.0517332859577
20
0.477990954047556
30
0
41
1
10
40.1836464701069
20
0.425089124246227
30
0
41
1
10
40.2501340077689
20
0.400506615819808
30
0
41
1
10
40.448087664685
20
0.333965373801192
30
0
41
1
10
40.5785088886069
20
0.298933743417621
30
0
41
1
10
40.7715495457763
20
0.262003534031123
30
0
41
1
10
40.8354628328032
20
0.252306797393743
30
0
41
1
10
40.9306374444287
20
0.241952433765022
30
0
41
1
10
40.9622460786717
20
0.239201544459632
30
0
41
1
10
41.0252219403522
20
0.235154743494292
30
0
41
1
10
41.0565807790833
20
0.233872283610879
30
0
41
1
10
41.148252272489
20
0.237246987531108
30
0
41
1
10
41.2058376882931
20
0.24734890192525
30
0
41
1
10
41.2844789128114
20
0.279716988221111
30
0
41
1
10
41.3094341936558
20
0.293555387800438
30
0
41
1
10
41.3536897550385
20
0.328048388490487
30
0
41
1
10
41.3731907811985
20
0.348969271066863
30
0
41
1
10
41.4062470465494
20
0.398256621120566
30
0
41
1
10
41.4191321212167
20
0.425921070507996
30
0
41
1
10
41.4380933121215
20
0.486895865395866
30
0
41
1
10
41.4441406784536
20
0.520607907225411
30
0
41
1
10
41.4517876415309
20
0.625776489328103
30
0
41
1
10
41.4428289600141
20
0.703130510301435
30
0
41
1
10
41.4250350063742
20
0.780276779950384
30
0
0
SPLINE
5
BC
100
AcDbEntity
8
1
62
256
6
ByLayer
370
18
48
1
60
0
100
AcDbSpline
70
4
71
3
72
28
73
24
40
0
40
0
40
0
40
0
40
0.111197598025935
40
0.111197598025935
40
0.22239519605187
40
0.22239519605187
40
0.333592794077806
40
0.333592794077806
40
0.444790392103741
40
0.444790392103741
40
0.500389191116709
40
0.500389191116709
40
0.555987990129678
40
0.555987990129678
40
0.667185588155613
40
0.667185588155613
40
0.778383186181548
40
0.778383186181548
40
0.889580784207483
40
0.889580784207483
40
0.94517958322045
40
0.94517958322045
40
1
40
1
40
1
40
1
41
1
10
7.47173440887065
20
-2.59389397416717
30
0
41
1
10
7.7983709509306
20
-2.71459270926246
30
0
41
1
10
8.12449982224013
20
-2.82387957167072
30
0
41
1
10
8.77569661688568
20
-3.02120600238797
30
0
41
1
10
9.10094944828617
20
-3.1075412766495
30
0
41
1
10
9.75411050094809
20
-3.25130322956608
30
0
41
1
10
10.0804962131641
20
-3.3094919072301
30
0
41
1
10
10.7320120978051
20
-3.39871791851786
30
0
41
1
10
11.0578188094215
20
-3.4310446405153
30
0
41
1
10
11.5469757431139
20
-3.45574494971532
30
0
41
1
10
11.710373242505
20
-3.46013666375347
30
0
41
1
10
12.0369704218195
20
-3.46196164196834
30
0
41
1
10
12.2001264472147
20
-3.45935201703031
30
0
41
1
10
12.6890298537928
20
-3.44039621188378
30
0
41
1
10
13.0142254099707
20
-3.41323306074759
30
0
41
1
10
13.6665818897554
20
-3.33181867408095
30
0
41
1
10
13.9937159036962
20
-3.27589653017034
30
0
41
1
10
14.6456267181796
20
-3.13937963662934
30
0
41
1
10
14.9714532661637
20
-3.05624681300151
30
0
41
1
10
15.4601106742498
20
-2.91491150936849
30
0
41
1
10
15.6230770079831
20
-2.86478658566915
30
0
41
1
10
15.9473840724193
20
-2.75825281206096
30
0
41
1
10
16.1086856124427
20
-2.70250294743261
30
0
41
1
10
16.2696229903312
20
-2.64437104723129
30
0
0
SPLINE
5
BD
100
AcDbEntity
8
1
62
256
6
ByLayer
370
18
48
1
60
0
100
AcDbSpline
70
4
71
3
72
28
73
24
40
0
40
0
40
0
40
0
40
0.0074766806502716
40
0.0074766806502716
40
0.0736449019402528
40
0.0736449019402528
40
0.139813123230234
40
0.139813123230234
40
0.205981344520216
40
0.205981344520216
40
0.338317787100178
40
0.338317787100178
40
0.470654229680141
40
0.470654229680141
40
0.602990672260104
40
0.602990672260104
40
0.669158893550086
40
0.669158893550086
40
0.735327114840067
40
0.735327114840067
40
0.867663557420033
40
0.867663557420033
40
1
40
1
40
1
40
1
41
1
10
31.3821728648203
20
3.47185390161442
30
0
41
1
10
31.4005632681975
20
3.47180051754737
30
0
41
1
10
31.4189523479079
20
3.47170640056487
30
0
41
1
10
31.6000726859987
20
3.47038519572382
30
0
41
1
10
31.7627375421643
20
3.46568602754414
30
0
41
1
10
32.0884371452116
20
3.448075079256
30
0
41
1
10
32.2515084410404
20
3.43546695287654
30
0
41
1
10
32.5778897577029
20
3.40352414486404
30
0
41
1
10
32.7412607642207
20
3.38427201672235
30
0
41
1
10
33.2302310627302
20
3.31512659086801
30
0
41
1
10
33.5558172362213
20
3.25468307286064
30
0
41
1
10
34.206850706986
20
3.1096807239885
30
0
41
1
10
34.5329179164254
20
3.02187061817071
30
0
41
1
10
35.1859828953309
20
2.82277779946443
30
0
41
1
10
35.5114398526338
20
2.71112624915662
30
0
41
1
10
35.9997792140034
20
2.52884783927246
30
0
41
1
10
36.1626731859709
20
2.46569895629546
30
0
41
1
10
36.4887185500565
20
2.33375507820168
30
0
41
1
10
36.6519211232893
20
2.26477730222112
30
0
41
1
10
37.1416349088864
20
2.05064690667407
30
0
41
1
10
37.4673493478026
20
1.89949198005019
30
0
41
1
10
38.1188004153125
20
1.58249781283291
30
0
41
1
10
38.4440754869734
20
1.41629857980297
30
0
41
1
10
38.7707442818954
20
1.24492495745304
30
0
0
SPLINE
5
BE
100
AcDbEntity
8
1
62
256
6
ByLayer
370
18
48
1
60
0
100
AcDbSpline
70
4
71
3
72
88
73
84
40
0
40
0
40
0
40
0
40
0.0001542451455597
40
0.0001542451455597
40
0.0194354422868384
40
0.0194354422868384
40
0.038716639428117
40
0.038716639428117
40
0.0579978365693957
40
0.0579978365693957
40
0.0965602308519529
40
0.0965602308519529
40
0.115841427993231
40
0.115841427993231
40
0.13512262513451
40
0.13512262513451
40
0.154403822275789
40
0.154403822275789
40
0.173685019417067
40
0.173685019417067
40
0.212247413699624
40
0.212247413699624
40
0.231528610840902
40
0.231528610840902
40
0.250809807982181
40
0.250809807982181
40
0.289372202264736
40
0.289372202264736
40
0.327934596547293
40
0.327934596547293
40
0.347215793688571
40
0.347215793688571
40
0.366496990829849
40
0.366496990829849
40
0.405059385112405
40
0.405059385112405
40
0.424340582253683
40
0.424340582253683
40
0.44362177939496
40
0.44362177939496
40
0.482184173677512
40
0.482184173677512
40
0.501465370818789
40
0.501465370818789
40
0.520746567960065
40
0.520746567960065
40
0.540027765101342
40
0.540027765101342
40
0.559308962242618
40
0.559308962242618
40
0.597871356525171
40
0.597871356525171
40
0.617152553666448
40
0.617152553666448
40
0.636433750807725
40
0.636433750807725
40
0.655714947949002
40
0.655714947949002
40
0.674996145090279
40
0.674996145090279
40
0.713558539372833
40
0.713558539372833
40
0.732839736514109
40
0.732839736514109
40
0.752120933655386
40
0.752120933655386
40
0.790683327937939
40
0.790683327937939
40
0.829245722220491
40
0.829245722220491
40
0.848526919361768
40
0.848526919361768
40
0.867808116503045
40
0.867808116503045
40
0.906370510785598
40
0.906370510785598
40
0.925651707926874
40
0.925651707926874
40
0.944932905068149
40
0.944932905068149
40
0.983495299350701
40
0.983495299350701
40
1
40
1
40
1
40
1
41
1
10
16.2711626707616
20
2.63942438080807
30
0
41
1
10
16.2724028870034
20
2.63992810411889
30
0
41
1
10
16.2736431006955
20
2.64043165435808
30
0
41
1
10
16.4299141478824
20
2.70385893500918
30
0
41
1
10
16.5849263577595
20
2.7639590243312
30
0
41
1
10
16.894894579601
20
2.87865335857617
30
0
41
1
10
17.0497773255951
20
2.93332868471961
30
0
41
1
10
17.3591898068076
20
3.03744134546466
30
0
41
1
10
17.5135462600272
20
3.08701745225991
30
0
41
1
10
17.9779119673692
20
3.22609903398777
30
0
41
1
10
18.2894212500294
20
3.30659731492776
30
0
41
1
10
18.7538333265668
20
3.40886548957505
30
0
41
1
10
18.9083637985731
20
3.43979999646282
30
0
41
1
10
19.2177007245665
20
3.4949223822361
30
0
41
1
10
19.3725826014748
20
3.51909539037561
30
0
41
1
10
19.6824309664527
20
3.56088892519867
30
0
41
1
10
19.8374100210874
20
3.57850256057645
30
0
41
1
10
20.1472446802632
20
3.60710017793801
30
0
41
1
10
20.302243589556
20
3.61803620397461
30
0
41
1
10
20.7673403840345
20
3.64027893822993
30
0
41
1
10
21.0771870819089
20
3.64143557173287
30
0
41
1
10
21.540918789832
20
3.62258608002836
30
0
41
1
10
21.6954722451571
20
3.61284808895334
30
0
41
1
10
22.0053400601901
20
3.58664814094558
30
0
41
1
10
22.160759158971
20
3.57018846725512
30
0
41
1
10
22.626569097065
20
3.51069440461151
30
0
41
1
10
22.9351888463254
20
3.45722756140731
30
0
41
1
10
23.5542731177519
20
3.32567010514614
30
0
41
1
10
23.8639977363552
20
3.24734520813138
30
0
41
1
10
24.3289382733698
20
3.11066802300803
30
0
41
1
10
24.4839817064301
20
3.06210046642303
30
0
41
1
10
24.7939604220932
20
2.9599054505685
30
0
41
1
10
24.948914794723
20
2.90614877139413
30
0
41
1
10
25.4132495759663
20
2.73649356118386
30
0
41
1
10
25.7217019564351
20
2.61162560369812
30
0
41
1
10
26.186981531274
20
2.41155333187294
30
0
41
1
10
26.3424798215031
20
2.34249293316299
30
0
41
1
10
26.6525498154207
20
2.19989321544747
30
0
41
1
10
26.8071591187102
20
2.12621978811831
30
0
41
1
10
27.2709038345316
20
1.89969707016397
30
0
41
1
10
27.5805986881464
20
1.74233816180347
30
0
41
1
10
28.0452209121546
20
1.49579929967061
30
0
41
1
10
28.1999977603277
20
1.41149897540126
30
0
41
1
10
28.5099675381884
20
1.24067811166253
30
0
41
1
10
28.6650046724488
20
1.15459772995896
30
0
41
1
10
28.9748556420335
20
0.980600960530012
30
0
41
1
10
29.1296937522374
20
0.892724014815798
30
0
41
1
10
29.438901402787
20
0.714716465705976
30
0
41
1
10
29.5933144415396
20
0.624653003660086
30
0
41
1
10
30.0572291285737
20
0.353363820770113
30
0
41
1
10
30.3684973544703
20
0.171442463725526
30
0
41
1
10
30.8329832738189
20
-0.10282413709038
30
0
41
1
10
30.987303041935
20
-0.194732791293603
30
0
41
1
10
31.2965274406243
20
-0.376793682415325
30
0
41
1
10
31.4513045701694
20
-0.467166768699741
30
0
41
1
10
31.7609324723049
20
-0.647039176961698
30
0
41
1
10
31.9157572841956
20
-0.736581819919678
30
0
41
1
10
32.2253472571556
20
-0.915001984139735
30
0
41
1
10
32.3803636192389
20
-1.00381689996911
30
0
41
1
10
32.8452171090875
20
-1.26584745503806
30
0
41
1
10
33.1551949827019
20
-1.43458098288752
30
0
41
1
10
33.6186188817484
20
-1.68137918301713
30
0
41
1
10
33.7729594164193
20
-1.76237928609433
30
0
41
1
10
34.0825985344565
20
-1.92002604002505
30
0
41
1
10
34.2377214765816
20
-1.99698373460862
30
0
41
1
10
34.7035231962123
20
-2.22259143991417
30
0
41
1
10
35.0121517254476
20
-2.36595474583695
30
0
41
1
10
35.6307755603341
20
-2.63182045683084
30
0
41
1
10
35.9405776371552
20
-2.75476071292479
30
0
41
1
10
36.4048750109625
20
-2.92517252356032
30
0
41
1
10
36.5599394641408
20
-2.97921931571071
30
0
41
1
10
36.8698387169959
20
-3.08095649944195
30
0
41
1
10
37.0247298471288
20
-3.12882714261252
30
0
41
1
10
37.4888720335356
20
-3.26379973616693
30
0
41
1
10
37.7971468825293
20
-3.34245836458069
30
0
41
1
10
38.2620034164814
20
-3.44037836174257
30
0
41
1
10
38.4173943228187
20
-3.46982957080994
30
0
41
1
10
38.7274897957118
20
-3.52222288410914
30
0
41
1
10
38.882074446544
20
-3.54519752909809
30
0
41
1
10
39.3452893340035
20
-3.60399233737689
30
0
41
1
10
39.6547323020798
20
-3.62937150772356
30
0
41
1
10
40.0963128403862
20
-3.64642391720187
30
0
41
1
10
40.2285743286309
20
-3.64904257192504
30
0
41
1
10
40.3610033927361
20
-3.64912402799831
30
0
0
SPLINE
5
BF
100
AcDbEntity
8
1
62
256
6
ByLayer
370
18
48
1
60
0
100
AcDbSpline
70
4
71
3
72
10
73
6
40
0
40
0
40
0
40
0
40
0.5
40
0.5
40
1
40
1
40
1
40
1
41
1
10
4.12345564366325
20
-3.44302377664332
30
0
41
1
10
4.10547084938111
20
-3.44633589064091
30
0
41
1
10
4.08916372485774
20
-3.45023422656558
30
0
41
1
10
4.05979460149646
20
-3.45904661602984
30
0
41
1
10
4.04677032713681
20
-3.46398741478956
30
0
41
1
10
4.03612713555958
20
-3.46911929836096
30
0
0
SPLINE
5
C0
100
AcDbEntity
8
1
62
256
6
ByLayer
370
18
48
1
60
0
100
AcDbSpline
70
4
71
3
72
14
73
10
40
0
40
0
40
0
40
0
40
0.129980507486364
40
0.129980507486364
40
0.408253194215812
40
0.408253194215812
40
0.9647985676747
40
0.9647985676747
40
1
40
1
40
1
40
1
41
1
10
41.1586126734221
20
-3.47875713959829
30
0
41
1
10
40.9747718790587
20
-3.47887441248739
30
0
41
1
10
40.7908905277596
20
-3.47434864094956
30
0
41
1
10
40.2130352480109
20
-3.44558412207186
30
0
41
1
10
39.8221690515645
20
-3.4049852330397
30
0
41
1
10
38.65353638824
20
-3.2240393906076
30
0
41
1
10
37.8795728632115
20
-3.02442445147628
30
0
41
1
10
37.0483701552489
20
-2.73869347119833
30
0
41
1
10
36.9988929198672
20
-2.72141867634076
30
0
41
1
10
36.949380611676
20
-2.70386994066371
30
0
0
SPLINE
5
C1
100
AcDbEntity
8
1
62
256
6
ByLayer
370
13
48
1
60
0
100
AcDbSpline
70
4
71
3
72
26
73
22
40
0
40
0
40
0
40
0
40
0.0476099955237187
40
0.0476099955237187
40
0.111344890936615
40
0.111344890936615
40
0.238814681762409
40
0.238814681762409
40
0.493754263413995
40
0.493754263413995
40
0.557489158826894
40
0.557489158826894
40
0.621224054239794
40
0.621224054239794
40
0.748693845065592
40
0.748693845065592
40
0.87616363589139
40
0.87616363589139
40
0.939898531304291
40
0.939898531304291
40
1
40
1
40
1
40
1
41
1
10
36.9493806116716
20
-2.70386994066223
30
0
41
1
10
36.8031917492526
20
-2.65205596148729
30
0
41
1
10
36.6566971323858
20
-2.5978538467389
30
0
41
1
10
36.3131446148806
20
-2.46571664033485
30
0
41
1
10
36.11597355267
20
-2.38603392125194
30
0
41
1
10
35.5277806057974
20
-2.1378912530804
30
0
41
1
10
35.1381134746391
20
-1.95955001226724
30
0
41
1
10
33.9711996133973
20
-1.39448597890046
30
0
41
1
10
33.1964293922262
20
-0.976990546625075
30
0
41
1
10
32.2152315573003
20
-0.431784509732637
30
0
41
1
10
32.0178718796098
20
-0.321268797019286
30
0
41
1
10
31.6247346418154
20
-0.100576411878961
30
0
41
1
10
31.4288169832067
20
0.0096599631640117
30
0
41
1
10
30.8425611067564
20
0.339290372735519
30
0
41
1
10
30.4534766355192
20
0.557139005742698
30
0
41
1
10
29.6756722508734
20
0.98350217579528
30
0
41
1
10
29.2869061334828
20
1.19193265973459
30
0
41
1
10
28.7015619584069
20
1.49323873644613
30
0
41
1
10
28.5060927117416
20
1.59180133669204
30
0
41
1
10
28.1251103308379
20
1.77880380252631
30
0
41
1
10
27.9392720134047
20
1.86766783883917
30
0
41
1
10
27.753641947087
20
1.95384364314813
30
0
0
SPLINE
5
C2
100
AcDbEntity
8
1
62
256
6
ByLayer
370
18
48
1
60
0
100
AcDbSpline
70
4
71
3
72
14
73
10
40
0
40
0
40
0
40
0
40
0.142938774674047
40
0.142938774674047
40
0.28761372589815
40
0.28761372589815
40
0.866313530794565
40
0.866313530794565
40
1
40
1
40
1
40
1
41
1
10
21.8390658648861
20
-3.46663785682415
30
0
41
1
10
21.6448901109399
20
-3.46815221726243
30
0
41
1
10
21.4506688379734
20
-3.46450759130303
30
0
41
1
10
21.0593775558191
20
-3.44684191575521
30
0
41
1
10
20.8619495852939
20
-3.432646423097
30
0
41
1
10
19.8788516838109
20
-3.33593330145112
30
0
41
1
10
19.1028192276836
20
-3.17657655895681
30
0
41
1
10
18.1439426767704
20
-2.89292510895155
30
0
41
1
10
17.9638546428535
20
-2.83589929604847
30
0
41
1
10
17.7834529381732
20
-2.77522232471108
30
0
0
SPLINE
5
C3
100
AcDbEntity
8
1
62
256
6
ByLayer
370
13
48
1
60
0
100
AcDbSpline
70
4
71
3
72
26
73
22
40
0
40
0
40
0
40
0
40
0.0658192818309643
40
0.0658192818309643
40
0.126992295857801
40
0.126992295857801
40
0.188165309884638
40
0.188165309884638
40
0.432857365991982
40
0.432857365991982
40
0.494030380018817
40
0.494030380018817
40
0.555203394045652
40
0.555203394045652
40
0.677549422099325
40
0.677549422099325
40
0.922241478206668
40
0.922241478206668
40
0.983414492233505
40
0.983414492233505
40
1
40
1
40
1
40
1
41
1
10
17.7834529383898
20
-2.77522232478401
30
0
41
1
10
17.5733946663006
20
-2.70457055474262
30
0
41
1
10
17.3629111167722
20
-2.62896851361884
30
0
41
1
10
16.9554685698646
20
-2.47399062102454
30
0
41
1
10
16.7580834093342
20
-2.39505153084483
30
0
41
1
10
16.3644466245104
20
-2.23052149808547
30
0
41
1
10
16.1683359098707
20
-2.14500661386094
30
0
41
1
10
15.1900245373068
20
-1.70320821838686
30
0
41
1
10
14.4149296343022
20
-1.30381424573048
30
0
41
1
10
13.4391210991918
20
-0.774408117503725
30
0
41
1
10
13.2435654750114
20
-0.667085253663629
30
0
41
1
10
12.8513637761318
20
-0.450090217519801
30
0
41
1
10
12.6544508069152
20
-0.340243756227778
30
0
41
1
10
12.0632093578774
20
-0.0094115534264745
30
0
41
1
10
11.6719188934703
20
0.21079941059341
30
0
41
1
10
10.5015353077817
20
0.861294816292542
30
0
41
1
10
9.72634127276316
20
1.28231146375657
30
0
41
1
10
8.74661000186705
20
1.76271539558567
30
0
41
1
10
8.55014243369729
20
1.85652319848973
30
0
41
1
10
8.29951941604955
20
1.97250041360951
30
0
41
1
10
8.2460926231669
20
1.99700899939771
30
0
41
1
10
8.19270227313703
20
2.02127700667032
30
0
0
SPLINE
5
C4
100
AcDbEntity
8
1
62
256
6
ByLayer
370
18
48
1
60
0
100
AcDbSpline
70
4
71
3
72
78
73
74
40
0
40
0
40
0
40
0
40
0.0347219376438067
40
0.0347219376438067
40
0.0760092077585124
40
0.0760092077585124
40
0.117296477873218
40
0.117296477873218
40
0.13794011293057
40
0.13794011293057
40
0.158583747987922
40
0.158583747987922
40
0.179227383045275
40
0.179227383045275
40
0.199871018102627
40
0.199871018102627
40
0.241158288217331
40
0.241158288217331
40
0.261801923274683
40
0.261801923274683
40
0.282445558332035
40
0.282445558332035
40
0.32373282844674
40
0.32373282844674
40
0.365020098561444
40
0.365020098561444
40
0.385663733618796
40
0.385663733618796
40
0.406307368676149
40
0.406307368676149
40
0.447594638790854
40
0.447594638790854
40
0.488881908905559
40
0.488881908905559
40
0.509525543962911
40
0.509525543962911
40
0.530169179020263
40
0.530169179020263
40
0.550812814077616
40
0.550812814077616
40
0.571456449134968
40
0.571456449134968
40
0.612743719249671
40
0.612743719249671
40
0.654030989364375
40
0.654030989364375
40
0.674674624421727
40
0.674674624421727
40
0.695318259479079
40
0.695318259479079
40
0.71596189453643
40
0.71596189453643
40
0.736605529593782
40
0.736605529593782
40
0.757249164651134
40
0.757249164651134
40
0.777892799708486
40
0.777892799708486
40
0.798536434765838
40
0.798536434765838
40
0.819180069823189
40
0.819180069823189
40
0.839823704880541
40
0.839823704880541
40
0.860467339937893
40
0.860467339937893
40
0.901754610052597
40
0.901754610052597
40
0.943041880167302
40
0.943041880167302
40
0.984329150282006
40
0.984329150282006
40
1
40
1
40
1
40
1
41
1
10
35.6826276361108
20
-2.64647785229232
30
0
41
1
10
35.4082953985224
20
-2.74619166508705
30
0
41
1
10
35.1337231289127
20
-2.83870484329824
30
0
41
1
10
34.5338308181327
20
-3.02159804204598
30
0
41
1
10
34.2088187737535
20
-3.10919803393148
30
0
41
1
10
33.5569550873704
20
-3.25447378219849
30
0
41
1
10
33.2297822111461
20
-3.31519425187417
30
0
41
1
10
32.7412830434314
20
-3.38426677052297
30
0
41
1
10
32.5785549092813
20
-3.40344488830991
30
0
41
1
10
32.2528803025512
20
-3.43534675949706
30
0
41
1
10
32.0899689154628
20
-3.44796918261108
30
0
41
1
10
31.7641485624859
20
-3.46563259668642
30
0
41
1
10
31.6011880963961
20
-3.47036874934457
30
0
41
1
10
31.2747273630543
20
-3.47276674617032
30
0
41
1
10
31.1114559065835
20
-3.47080638773088
30
0
41
1
10
30.622213532119
20
-3.45405246425224
30
0
41
1
10
30.2969777164489
20
-3.42700203786808
30
0
41
1
10
29.808385847448
20
-3.36714190475769
30
0
41
1
10
29.6453373367814
20
-3.3438161023677
30
0
41
1
10
29.3188024452557
20
-3.28957002490796
30
0
41
1
10
29.1553237848678
20
-3.25835977528197
30
0
41
1
10
28.6659977996525
20
-3.15608969815341
30
0
41
1
10
28.3404051933052
20
-3.0753266253702
30
0
41
1
10
27.6886446563889
20
-2.8868349661943
30
0
41
1
10
27.3624164217102
20
-2.78080816856533
30
0
41
1
10
26.8724544728652
20
-2.60395442028951
30
0
41
1
10
26.709286004505
20
-2.54224083703693
30
0
41
1
10
26.3833456217234
20
-2.41412204200893
30
0
41
1
10
26.2205434453887
20
-2.3474682902563
30
0
41
1
10
25.7320639712648
20
-2.14008683677798
30
0
41
1
10
25.4057766373894
20
-1.99249423515749
30
0
41
1
10
24.7523415561661
20
-1.68104962317818
30
0
41
1
10
24.4267258617387
20
-1.51744033533717
30
0
41
1
10
23.9378901086898
20
-1.26514409338688
30
0
41
1
10
23.7750530773656
20
-1.17949690015894
30
0
41
1
10
23.4492189966976
20
-1.00542874671436
30
0
41
1
10
23.2862198086603
20
-0.917067314347946
30
0
41
1
10
22.9595783157735
20
-0.73897045614811
30
0
41
1
10
22.796076362768
20
-0.649242745597178
30
0
41
1
10
22.4698757426079
20
-0.468589511472942
30
0
41
1
10
22.3070689919303
20
-0.377522064015835
30
0
41
1
10
21.8186811166488
20
-0.103713786128793
30
0
41
1
10
21.4928246410435
20
0.0790673027880189
30
0
41
1
10
20.8400757522889
20
0.44448446504623
30
0
41
1
10
20.5135077050505
20
0.626784824449459
30
0
41
1
10
20.0246081944121
20
0.893153250519617
30
0
41
1
10
19.8617163107132
20
0.981031689114246
30
0
41
1
10
19.5360259050453
20
1.15511570100688
30
0
41
1
10
19.373190184306
20
1.24126758084921
30
0
41
1
10
19.0470033920833
20
1.41044779842514
30
0
41
1
10
18.883450972831
20
1.49332589183211
30
0
41
1
10
18.5565960596578
20
1.65617234472978
30
0
41
1
10
18.3934597725644
20
1.73617770555808
30
0
41
1
10
18.0674646139127
20
1.89250008097432
30
0
41
1
10
17.904648329664
20
1.96861640392103
30
0
41
1
10
17.5787541751111
20
2.11561124936907
30
0
41
1
10
17.4156747921219
20
2.18709088962569
30
0
41
1
10
17.0894115870343
20
2.32605594461657
30
0
41
1
10
16.9262665336427
20
2.39365123441544
30
0
41
1
10
16.5993951026676
20
2.52280671098572
30
0
41
1
10
16.4362058864732
20
2.58416389855449
30
0
41
1
10
16.1098229207634
20
2.70212743664283
30
0
41
1
10
15.9466972879667
20
2.75851027689402
30
0
41
1
10
15.6207741275115
20
2.86551069598411
30
0
41
1
10
15.4578884128064
20
2.9155804130115
30
0
41
1
10
14.968860450274
20
3.05694385966944
30
0
41
1
10
14.6412899441992
20
3.14041960249287
30
0
41
1
10
13.9889033660535
20
3.2767706625728
30
0
41
1
10
13.6632178234469
20
3.33233516718056
30
0
41
1
10
13.0109393895835
20
3.41354551088512
30
0
41
1
10
12.6842830045231
20
3.44074286353916
30
0
41
1
10
12.2337754856408
20
3.45798379501929
30
0
41
1
10
12.1099337247337
20
3.46065892115962
30
0
41
1
10
11.9861604617083
20
3.46124544898197
30
0
0
SPLINE
5
C5
100
AcDbEntity
8
1
62
256
6
ByLayer
370
18
48
1
60
0
100
AcDbSpline
70
4
71
3
72
44
73
40
40
0
40
0
40
0
40
0
40
0.0581850130105401
40
0.0581850130105401
40
0.11637002602108
40
0.11637002602108
40
0.232740052042161
40
0.232740052042161
40
0.290925065052701
40
0.290925065052701
40
0.349110078063242
40
0.349110078063242
40
0.378202584568512
40
0.378202584568512
40
0.407295091073782
40
0.407295091073782
40
0.465480104084323
40
0.465480104084323
40
0.581850130105403
40
0.581850130105403
40
0.610942636610673
40
0.610942636610673
40
0.640035143115943
40
0.640035143115943
40
0.669127649621213
40
0.669127649621213
40
0.698220156126483
40
0.698220156126483
40
0.814590182147565
40
0.814590182147565
40
0.872775195158106
40
0.872775195158106
40
0.901867701663377
40
0.901867701663377
40
0.930960208168647
40
0.930960208168647
40
0.989145221179188
40
0.989145221179188
40
1
40
1
40
1
40
1
41
1
10
41.7440321540936
20
-3.61954206100427
30
0
41
1
10
41.3506989794677
20
-3.64932570143824
30
0
41
1
10
40.9581789875101
20
-3.65686507581444
30
0
41
1
10
40.1715970489083
20
-3.62766701304651
30
0
41
1
10
39.7766104517921
20
-3.59060772638301
30
0
41
1
10
38.6024017849671
20
-3.41636177085798
30
0
41
1
10
37.8280215066778
20
-3.21652446991311
30
0
41
1
10
36.6581394415206
20
-2.80800968360973
30
0
41
1
10
36.266380610504
20
-2.65350317382882
30
0
41
1
10
35.477913280362
20
-2.31213129263276
30
0
41
1
10
35.085163019995
20
-2.12697417103254
30
0
41
1
10
34.4954145974992
20
-1.83159538659021
30
0
41
1
10
34.2987221928536
20
-1.73020538579667
30
0
41
1
10
33.9047399796553
20
-1.52209236233043
30
0
41
1
10
33.7074027165696
20
-1.41530587501447
30
0
41
1
10
33.1185997225229
20
-1.09056281998536
30
0
41
1
10
32.7285499908186
20
-0.867744649268985
30
0
41
1
10
31.5606581298205
20
-0.189278813266014
30
0
41
1
10
30.7851909670316
20
0.276585818882211
30
0
41
1
10
29.8017201244083
20
0.844850047222394
30
0
41
1
10
29.6042586351964
20
0.957863037280276
30
0
41
1
10
29.2105741517462
20
1.17977848733881
30
0
41
1
10
29.0139562166073
20
1.28891430562464
30
0
41
1
10
28.620826296446
20
1.50300954187645
30
0
41
1
10
28.4242938809003
20
1.60793476220871
30
0
41
1
10
28.0307594996652
20
1.81270656058427
30
0
41
1
10
27.8334491532707
20
1.9127167655322
30
0
41
1
10
26.8485404484607
20
2.39681795311998
30
0
41
1
10
26.0725228124092
20
2.72881006503249
30
0
41
1
10
24.9046264895572
20
3.12073343398404
30
0
41
1
10
24.5147680063122
20
3.23378008495254
30
0
41
1
10
23.9263437305925
20
3.37396243645088
30
0
41
1
10
23.7292913907027
20
3.41584677300921
30
0
41
1
10
23.3349475847988
20
3.48907527114275
30
0
41
1
10
23.1381408232176
20
3.52034267694529
30
0
41
1
10
22.5480798973712
20
3.59788882072076
30
0
41
1
10
22.1552210945861
20
3.62792604710174
30
0
41
1
10
21.6874549820456
20
3.63722690067417
30
0
41
1
10
21.6138744349173
20
3.63791400884924
30
0
41
1
10
21.5402971685496
20
3.63782761672209
30
0
0
SPLINE
5
C6
100
AcDbEntity
8
1
62
256
6
ByLayer
370
18
48
1
60
0
100
AcDbSpline
70
4
71
3
72
14
73
10
40
0
40
0
40
0
40
0
40
0.25
40
0.25
40
0.5
40
0.5
40
0.75
40
0.75
40
1
40
1
40
1
40
1
41
1
10
7.4717318634288
20
-2.59384533064707
30
0
41
1
10
7.19671866127632
20
-2.49269984555934
30
0
41
1
10
6.92392911329222
20
-2.38230164352149
30
0
41
1
10
6.3813441673102
20
-2.1420393957932
30
0
41
1
10
6.11152614375399
20
-2.01223435800759
30
0
41
1
10
5.57370862058565
20
-1.7357539568755
30
0
41
1
10
5.30523912210055
20
-1.58816905204645
30
0
41
1
10
4.77227509800082
20
-1.27409304268883
30
0
41
1
10
4.5091143936699
20
-1.10842450330551
30
0
41
1
10
4.25049391477796
20
-0.931424737110945
30
0
0
SPLINE
5
C7
100
AcDbEntity
8
1
62
256
6
ByLayer
370
18
48
1
60
0
100
AcDbSpline
70
4
71
3
72
36
73
32
40
0
40
0
40
0
40
0
40
0.104859660795158
40
0.104859660795158
40
0.209719321590317
40
0.209719321590317
40
0.262149151987897
40
0.262149151987897
40
0.314578982385476
40
0.314578982385476
40
0.419438643180636
40
0.419438643180636
40
0.471868473578217
40
0.471868473578217
40
0.524298303975798
40
0.524298303975798
40
0.576728134373379
40
0.576728134373379
40
0.62915796477096
40
0.62915796477096
40
0.734017625566123
40
0.734017625566123
40
0.786447455963705
40
0.786447455963705
40
0.838877286361287
40
0.838877286361287
40
0.891307116758868
40
0.891307116758868
40
0.94373694715645
40
0.94373694715645
40
1
40
1
40
1
40
1
41
1
10
12.0917541667363
20
-0.492692915671313
30
0
41
1
10
12.4017150263323
20
-0.674749722141058
30
0
41
1
10
12.7120337324708
20
-0.852078991971666
30
0
41
1
10
13.3312868208537
20
-1.2010543203593
30
0
41
1
10
13.6400210153464
20
-1.37293358129125
30
0
41
1
10
14.1058013231986
20
-1.62039395357843
30
0
41
1
10
14.2613531236807
20
-1.70146814028945
30
0
41
1
10
14.5714790952261
20
-1.86038087984889
30
0
41
1
10
14.7260658314381
20
-1.93851547911618
30
0
41
1
10
15.1898585260506
20
-2.16677025763948
30
0
41
1
10
15.4999414056386
20
-2.30967852073559
30
0
41
1
10
15.9647804625652
20
-2.5123765908254
30
0
41
1
10
16.1198524756222
20
-2.57801112724425
30
0
41
1
10
16.429914147882
20
-2.70385893500907
30
0
41
1
10
16.5849263577592
20
-2.76395902433109
30
0
41
1
10
16.8948945796007
20
-2.87865335857606
30
0
41
1
10
17.0497773255947
20
-2.93332868471947
30
0
41
1
10
17.3591898068071
20
-3.03744134546454
30
0
41
1
10
17.5135462600267
20
-3.08701745225977
30
0
41
1
10
17.9779119673687
20
-3.22609903398765
30
0
41
1
10
18.2894212500289
20
-3.30659731492764
30
0
41
1
10
18.7538333265663
20
-3.40886548957494
30
0
41
1
10
18.9083637985726
20
-3.43979999646271
30
0
41
1
10
19.2177007245659
20
-3.49492238223601
30
0
41
1
10
19.3725826014742
20
-3.51909539037553
30
0
41
1
10
19.6824309664521
20
-3.56088892519861
30
0
41
1
10
19.8374100210868
20
-3.5785025605764
30
0
41
1
10
20.1472446802625
20
-3.60710017793795
30
0
41
1
10
20.3022435895553
20
-3.61803620397458
30
0
41
1
10
20.6236427573874
20
-3.63340675987786
30
0
41
1
10
20.7899469483536
20
-3.63742705221935
30
0
41
1
10
20.9561151475508
20
-3.63750343150721
30
0
0
SPLINE
5
C8
100
AcDbEntity
8
1
62
256
6
ByLayer
370
18
48
1
60
0
100
AcDbSpline
70
4
71
3
72
28
73
24
40
0
40
0
40
0
40
0
40
0.0916640605105901
40
0.0916640605105901
40
0.167358722134707
40
0.167358722134707
40
0.243053383758824
40
0.243053383758824
40
0.394442707007064
40
0.394442707007064
40
0.47013736863118
40
0.47013736863118
40
0.545832030255298
40
0.545832030255298
40
0.697221353503531
40
0.697221353503531
40
0.772916015127649
40
0.772916015127649
40
0.848610676751765
40
0.848610676751765
40
0.924305338375883
40
0.924305338375883
40
1
40
1
40
1
40
1
41
1
10
35.6877297882835
20
2.65159411177603
30
0
41
1
10
35.8751761994342
20
2.7273713442041
30
0
41
1
10
36.0626922929035
20
2.79958065110475
30
0
41
1
10
36.4048750109606
20
2.92517252355967
30
0
41
1
10
36.5599394641388
20
2.97921931571005
30
0
41
1
10
36.869838716994
20
3.08095649944133
30
0
41
1
10
37.0247298471269
20
3.12882714261193
30
0
41
1
10
37.4888720335337
20
3.26379973616639
30
0
41
1
10
37.7971468825273
20
3.34245836458021
30
0
41
1
10
38.2620034164794
20
3.44037836174218
30
0
41
1
10
38.4173943228166
20
3.46982957080954
30
0
41
1
10
38.7274897957097
20
3.52222288410883
30
0
41
1
10
38.8820744465419
20
3.54519752909778
30
0
41
1
10
39.3452893340013
20
3.60399233737669
30
0
41
1
10
39.6547323020777
20
3.62937150772342
30
0
41
1
10
40.1185774399066
20
3.64728370388849
30
0
41
1
10
40.2730710802957
20
3.64985308554654
30
0
41
1
10
40.582633551315
20
3.64804595144247
30
0
41
1
10
40.7378401254228
20
3.64367187186141
30
0
41
1
10
41.0477762923907
20
3.62816687641484
30
0
41
1
10
41.2025716331406
20
3.6170304318226
30
0
41
1
10
41.5116526003181
20
3.58794423461418
30
0
41
1
10
41.6657643920443
20
3.56991783801337
30
0
41
1
10
41.8200614348276
20
3.54858781917446
30
0
0
SPLINE
5
C9
100
AcDbEntity
8
1
62
256
6
ByLayer
370
13
48
1
60
0
100
AcDbSpline
70
4
71
3
72
26
73
22
40
0
40
0
40
0
40
0
40
0.0651890957980332
40
0.143090004481531
40
0.143090004481531
40
0.220990913165028
40
0.220990913165028
40
0.298891821848525
40
0.298891821848525
40
0.376792730532022
40
0.376792730532022
40
0.532594547899017
40
0.532594547899017
40
0.610495456582514
40
0.610495456582514
40
0.688396365266011
40
0.766297273949509
40
0.766297273949509
40
0.844198182633006
40
0.844198182633006
40
1
40
1
40
1
40
1
41
1
10
4.25023765271573
20
-3.45644566380989
30
0
41
1
10
4.25023048260837
20
-3.45546389125684
30
0
41
1
10
4.25021355033755
20
-3.44444832043507
30
0
41
1
10
4.25019593455369
20
-3.41423950596044
30
0
41
1
10
4.25017762683825
20
-3.36980694269198
30
0
41
1
10
4.25016887769601
20
-3.34166623619154
30
0
41
1
10
4.25015366128596
20
-3.27416702833065
30
0
41
1
10
4.25014719545794
20
-3.23490486914182
30
0
41
1
10
4.25013753338689
20
-3.14536666355826
30
0
41
1
10
4.25013435699884
20
-3.09500732210998
30
0
41
1
10
4.25013097663478
20
-2.93008214110623
30
0
41
1
10
4.25013687992831
20
-2.80110414846917
30
0
41
1
10
4.25016007966227
20
-2.57916332455199
30
0
41
1
10
4.25017025310609
20
-2.49998753928162
30
0
41
1
10
4.25019515266854
20
-2.33388171941073
30
0
41
1
10
4.25022450257336
20
-2.16042254090792
30
0
41
1
10
4.25026195580858
20
-1.97246424870392
30
0
41
1
10
4.25030291339311
20
-1.77713823475116
30
0
41
1
10
4.25032507137516
20
-1.67616631357925
30
0
41
1
10
4.25039422225842
20
-1.36804429290842
30
0
41
1
10
4.25044431760466
20
-1.15405082396063
30
0
41
1
10
4.25049391243311
20
-0.931424736733675
30
0
0
SPLINE
5
CA
100
AcDbEntity
8
1
62
256
6
ByLayer
370
18
48
1
60
0
100
AcDbSpline
70
4
71
3
72
8
73
4
40
0
40
0
40
0
40
0
40
1
40
1
40
1
40
1
41
1
10
41.7877596837333
20
-3.46020959109566
30
0
41
1
10
41.7675850177189
20
-3.47268458828435
30
0
41
1
10
41.7495746156626
20
-3.47896703588185
30
0
41
1
10
41.7337681901072
20
-3.47894330547564
30
0
0
SPLINE
5
CB
100
AcDbEntity
8
1
62
256
6
ByLayer
370
18
48
1
60
0
100
AcDbSpline
70
4
71
3
72
22
73
18
40
0
40
0
40
0
40
0
40
0.124999999999996
40
0.124999999999996
40
0.187499999999996
40
0.187499999999996
40
0.249999999999996
40
0.249999999999996
40
0.499999999999996
40
0.499999999999996
40
0.624999999999997
40
0.624999999999997
40
0.749999999999998
40
0.749999999999998
40
0.874999999999999
40
0.874999999999999
40
1
40
1
40
1
40
1
41
1
10
41.7337681901101
20
-3.47894330547564
30
0
41
1
10
41.6811730990951
20
-3.47889597487858
30
0
41
1
10
41.6312097105575
20
-3.47090161476439
30
0
41
1
10
41.5604194906191
20
-3.44636351276304
30
0
41
1
10
41.5375170829271
20
-3.43608744976132
30
0
41
1
10
41.4931613068894
20
-3.41115961694666
30
0
41
1
10
41.4716774755721
20
-3.3964617301942
30
0
41
1
10
41.369542700338
20
-3.31282699100609
30
0
41
1
10
41.3032347757096
20
-3.21338088584699
30
0
41
1
10
41.2283673445871
20
-3.0122463028649
30
0
41
1
10
41.2074848118964
20
-2.93572358869781
30
0
41
1
10
41.1757331488807
20
-2.76903952466671
30
0
41
1
10
41.1646586418144
20
-2.67862643741719
30
0
41
1
10
41.152067846093
20
-2.48372358654416
30
0
41
1
10
41.1505501141636
20
-2.37923594847467
30
0
41
1
10
41.1574898041946
20
-2.15556996251493
30
0
41
1
10
41.1659333206779
20
-2.03803537844212
30
0
41
1
10
41.1790910196701
20
-1.9163268734039
30
0
0
SPLINE
5
CC
100
AcDbEntity
8
1
62
256
6
ByLayer
370
18
48
1
60
0
100
AcDbSpline
70
4
71
3
72
14
73
10
40
0
40
0
40
0
40
0
40
0.250000000000001
40
0.250000000000001
40
0.500000000000002
40
0.500000000000002
40
0.750000000000001
40
0.750000000000001
40
1
40
1
40
1
40
1
41
1
10
41.4250350063742
20
0.780276779950356
30
0
41
1
10
41.4183152975473
20
0.809410297975916
30
0
41
1
10
41.4153474237993
20
0.839235215923708
30
0
41
1
10
41.4185919580531
20
0.90068823152447
30
0
41
1
10
41.4247768787212
20
0.931580296700247
30
0
41
1
10
41.4497353020258
20
0.990283903834126
30
0
41
1
10
41.4686252808765
20
1.01701197056934
30
0
41
1
10
41.5176189078422
20
1.05900547353994
30
0
41
1
10
41.5473915081937
20
1.07215333899299
30
0
41
1
10
41.5784857239097
20
1.07952808239125
30
0
0
SPLINE
5
CD
100
AcDbEntity
8
1
62
256
6
ByLayer
370
18
48
1
60
0
100
AcDbSpline
70
4
71
3
72
18
73
14
40
0
40
0
40
0
40
0
40
0.250000000000005
40
0.250000000000005
40
0.375000000000005
40
0.375000000000005
40
0.500000000000004
40
0.500000000000004
40
0.750000000000002
40
0.750000000000002
40
0.875000000000001
40
0.875000000000001
40
1
40
1
40
1
40
1
41
1
10
42.4928952222655
20
-1.79648289277779
30
0
41
1
10
42.4379392050369
20
-1.94486355414051
30
0
41
1
10
42.3826342817073
20
-2.09310611106056
30
0
41
1
10
42.2993396414561
20
-2.31489728666983
30
0
41
1
10
42.2715137520356
20
-2.38870357401129
30
0
41
1
10
42.2156827826354
20
-2.53595164121049
30
0
41
1
10
42.1876436865841
20
-2.6093242259457
30
0
41
1
10
42.1034702152893
20
-2.82932769301823
30
0
41
1
10
42.0471114187044
20
-2.97590681725191
30
0
41
1
10
41.9621907792949
20
-3.19244789916817
30
0
41
1
10
41.9338310051498
20
-3.26420489883114
30
0
41
1
10
41.8770509097102
20
-3.40723428488491
30
0
41
1
10
41.84861573636
20
-3.47838779691853
30
0
41
1
10
41.8200614348468
20
-3.54858781915797
30
0
0
SPLINE
5
CE
100
AcDbEntity
8
1
62
256
6
ByLayer
370
18
48
1
60
0
100
AcDbSpline
70
4
71
3
72
22
73
18
40
0
40
0
40
0
40
0
40
0.125000000000004
40
0.125000000000004
40
0.250000000000007
40
0.250000000000007
40
0.375000000000011
40
0.375000000000011
40
0.43750000000001
40
0.43750000000001
40
0.500000000000009
40
0.500000000000009
40
0.750000000000004
40
0.750000000000004
40
0.875000000000002
40
0.875000000000002
40
1
40
1
40
1
40
1
41
1
10
38.7707442819087
20
1.24492495744565
30
0
41
1
10
38.8101686994556
20
1.08794073778799
30
0
41
1
10
38.8629027151734
20
0.931409764763572
30
0
41
1
10
38.991400435679
20
0.619132074473981
30
0
41
1
10
39.0678300673574
20
0.462547838653649
30
0
41
1
10
39.2353755134421
20
0.160802198951586
30
0
41
1
10
39.3269628616419
20
0.0142396618885527
30
0
41
1
10
39.4741877098544
20
-0.200174622449794
30
0
41
1
10
39.525081736151
20
-0.270948105097233
30
0
41
1
10
39.629014710631
20
-0.409502648962871
30
0
41
1
10
39.6820404679605
20
-0.477292015386496
30
0
41
1
10
39.9519747108615
20
-0.80948885531339
30
0
41
1
10
40.1831364289222
20
-1.05387550187811
30
0
41
1
10
40.5469125715525
20
-1.39652924530239
30
0
41
1
10
40.6713357324979
20
-1.5069482118796
30
0
41
1
10
40.9228903257683
20
-1.71825850840415
30
0
41
1
10
41.0502580969056
20
-1.81938061786272
30
0
41
1
10
41.1790910196701
20
-1.9163268734039
30
0
0
SPLINE
5
CF
100
AcDbEntity
8
1
62
256
6
ByLayer
370
18
48
1
60
0
100
AcDbSpline
70
4
71
3
72
10
73
6
40
0
40
0
40
0
40
0
40
0.5
40
0.5
40
1
40
1
40
1
40
1
41
1
10
4.12345564366325
20
3.44302377664332
30
0
41
1
10
4.10547084938111
20
3.44633589064091
30
0
41
1
10
4.08916372485777
20
3.45023422656556
30
0
41
1
10
4.05979460149646
20
3.45904661602981
30
0
41
1
10
4.04677032713681
20
3.46398741478956
30
0
41
1
10
4.03612713555958
20
3.46911929836096
30
0
0
SPLINE
5
D0
100
AcDbEntity
8
1
62
256
6
ByLayer
370
18
48
1
60
0
100
AcDbSpline
70
4
71
3
72
8
73
4
40
0
40
0
40
0
40
0
40
1
40
1
40
1
40
1
41
1
10
41.7440321540937
20
-3.61954206100427
30
0
41
1
10
41.7532481169122
20
-3.59505563297907
30
0
41
1
10
41.7624543997099
20
-3.57055431690748
30
0
41
1
10
41.7716504615519
20
-3.54603957639662
30
0
0
SPLINE
5
D1
100
AcDbEntity
8
1
62
256
6
ByLayer
370
18
48
1
60
0
100
AcDbSpline
70
4
71
3
72
8
73
4
40
0
40
0
40
0
40
0
40
1
40
1
40
1
40
1
41
1
10
41.7440321540937
20
3.61954206100427
30
0
41
1
10
41.4772368913535
20
3.63974410519364
30
0
41
1
10
41.2106986265649
20
3.64972081518189
30
0
41
1
10
40.9439224039309
20
3.64947834367607
30
0
0
SPLINE
5
D2
100
AcDbEntity
8
1
62
256
6
ByLayer
370
18
48
1
60
0
100
AcDbSpline
70
4
71
3
72
42
73
38
40
0
40
0
40
0
40
0
40
0.0226022173730748
40
0.0226022173730748
40
0.0836895787872582
40
0.0836895787872582
40
0.144776940201442
40
0.144776940201442
40
0.175320620908534
40
0.175320620908534
40
0.205864301615625
40
0.205864301615625
40
0.266951663029809
40
0.266951663029809
40
0.389126385858175
40
0.389126385858175
40
0.419670066565267
40
0.419670066565267
40
0.450213747272359
40
0.450213747272359
40
0.511301108686541
40
0.511301108686541
40
0.572388470100724
40
0.572388470100724
40
0.602932150807815
40
0.602932150807815
40
0.633475831514907
40
0.633475831514907
40
0.755650554343272
40
0.755650554343272
40
0.816737915757454
40
0.816737915757454
40
0.847281596464545
40
0.847281596464545
40
0.877825277171636
40
0.877825277171636
40
1
40
1
40
1
40
1
41
1
10
23.3761652469566
20
-3.48031805148889
30
0
41
1
10
23.2321575338317
20
-3.50501847216188
30
0
41
1
10
23.0880553882873
20
-3.52689360519332
30
0
41
1
10
22.5538005429693
20
-3.59722075856652
30
0
41
1
10
22.1625054825468
20
-3.62751520451317
30
0
41
1
10
21.3735141102573
20
-3.64373047920756
30
0
41
1
10
20.9806123835656
20
-3.62955361027579
30
0
41
1
10
20.3908726407886
20
-3.57548940445642
30
0
41
1
10
20.1942281101951
20
-3.55200145835695
30
0
41
1
10
19.800350972908
20
-3.49419242229655
30
0
41
1
10
19.6028730813694
20
-3.45980436177876
30
0
41
1
10
19.0134289357623
20
-3.34160759953315
30
0
41
1
10
18.6232138082795
20
-3.242521306041
30
0
41
1
10
17.4547544896883
20
-2.89044151858016
30
0
41
1
10
16.679386476827
20
-2.58202388987641
30
0
41
1
10
15.6963699209154
20
-2.12307919184863
30
0
41
1
10
15.4988040231825
20
-2.0274841628752
30
0
41
1
10
15.1049509058193
20
-1.83087741347191
30
0
41
1
10
14.9083086708025
20
-1.72976317068495
30
0
41
1
10
14.3184007068044
20
-1.41927831209895
30
0
41
1
10
13.9252006727368
20
-1.20227941984598
30
0
41
1
10
13.136187960135
20
-0.75504736578344
30
0
41
1
10
12.7431668454279
20
-0.526404158769822
30
0
41
1
10
12.1532053299526
20
-0.180409904464113
30
0
41
1
10
11.9564605887618
20
-0.0646060932555201
30
0
41
1
10
11.5623210620357
20
0.167150736169816
30
0
41
1
10
11.364840976585
20
0.283151716687456
30
0
41
1
10
10.3826060018934
20
0.857004070486397
30
0
41
1
10
9.6072204757655
20
1.30038135709148
30
0
41
1
10
8.43789826968154
20
1.90678672920964
30
0
41
1
10
8.04730759527521
20
2.09948514715313
30
0
41
1
10
7.45705978609311
20
2.36937036000981
30
0
41
1
10
7.25942236039347
20
2.45617943500613
30
0
41
1
10
6.86608551366061
20
2.62112806954843
30
0
41
1
10
6.66991428275603
20
2.69949186973884
30
0
41
1
10
5.69049275703483
20
3.06982535150703
30
0
41
1
10
4.91211156237426
20
3.29778339931812
30
0
41
1
10
4.12345564366387
20
3.44302377664317
30
0
0
SPLINE
5
D3
100
AcDbEntity
8
1
62
256
6
ByLayer
370
18
48
1
60
0
100
AcDbSpline
70
4
71
3
72
26
73
22
40
0
40
0
40
0
40
0
40
0.108492294913031
40
0.108492294913031
40
0.165533488617109
40
0.165533488617109
40
0.222574682321187
40
0.222574682321187
40
0.450739457137505
40
0.450739457137505
40
0.564821844545663
40
0.564821844545663
40
0.621863038249741
40
0.621863038249741
40
0.678904231953819
40
0.678904231953819
40
0.907069006770127
40
0.907069006770127
40
0.964110200474205
40
0.964110200474205
40
1
40
1
40
1
40
1
41
1
10
6.60300144584372
20
2.6702539461215
30
0
41
1
10
6.97376660691185
20
2.52946393885043
30
0
41
1
10
7.34506716887762
20
2.37389528228769
30
0
41
1
10
7.91458707921024
20
2.11643249630609
30
0
41
1
10
8.11160979044749
20
2.02396792970046
30
0
41
1
10
8.50636089430145
20
1.83284006185698
30
0
41
1
10
8.70300041572568
20
1.73474601169931
30
0
41
1
10
9.68355632655681
20
1.23337843133467
30
0
41
1
10
10.4590936960409
20
0.796758743361465
30
0
41
1
10
11.6303774421566
20
0.125226716978005
30
0
41
1
10
12.0220368167957
20
-0.101574372794943
30
0
41
1
10
12.6140502986397
20
-0.441586396255246
30
0
41
1
10
12.8111297403341
20
-0.554290959733578
30
0
41
1
10
13.2036569039869
20
-0.776662457726815
30
0
41
1
10
13.3993535885525
20
-0.88648811545616
30
0
41
1
10
14.3758270789954
20
-1.42746053657345
30
0
41
1
10
15.1512269983271
20
-1.83324173753857
30
0
41
1
10
16.1305013749694
20
-2.27907808487566
30
0
41
1
10
16.3268249360579
20
-2.36521805862697
30
0
41
1
10
16.6478731749135
20
-2.4999569511925
30
0
41
1
10
16.7720713112457
20
-2.5505727145507
30
0
41
1
10
16.8960609851752
20
-2.59953861561516
30
0
0
SPLINE
5
D4
100
AcDbEntity
8
1
62
256
6
ByLayer
370
13
48
1
60
0
100
AcDbSpline
70
4
71
3
72
18
73
14
40
0
40
0
40
0
40
0
40
0.035765421828263
40
0.035765421828263
40
0.228670186026915
40
0.228670186026915
40
0.614479714424218
40
0.614479714424218
40
0.710932096523544
40
0.710932096523544
40
0.807384478622869
40
0.807384478622869
40
1
40
1
40
1
40
1
41
1
10
16.8960609850466
20
-2.59953861556434
30
0
41
1
10
16.969133404049
20
-2.62839631577515
30
0
41
1
10
17.0421334188659
20
-2.65668097771138
30
0
41
1
10
17.5078567501056
20
-2.83355772013658
30
0
41
1
10
17.8982227954741
20
-2.96563262999632
30
0
41
1
10
19.0673676147569
20
-3.30590649839331
30
0
41
1
10
19.8437772812944
20
-3.45855301030187
30
0
41
1
10
20.8281380596537
20
-3.54305563458314
30
0
41
1
10
21.0258025815838
20
-3.55461531167907
30
0
41
1
10
21.4198603394165
20
-3.56678247374086
30
0
41
1
10
21.6166414908178
20
-3.56743413236796
30
0
41
1
10
22.206281434943
20
-3.55308250802901
30
0
41
1
10
22.5992520796085
20
-3.52185492222506
30
0
41
1
10
22.9934298650509
20
-3.4692228343248
30
0
0
SPLINE
5
D5
100
AcDbEntity
8
1
62
256
6
ByLayer
370
18
48
1
60
0
100
AcDbSpline
70
4
71
3
72
8
73
4
40
0
40
0
40
0
40
0
40
1
40
1
40
1
40
1
41
1
10
4.03612713555958
20
3.46911929836077
30
0
41
1
10
4.02139513827643
20
3.47622270285018
30
0
41
1
10
4.01291034985749
20
3.48403751177165
30
0
41
1
10
4.01291103249287
20
3.49175501511337
30
0
0
SPLINE
5
D6
100
AcDbEntity
8
1
62
256
6
ByLayer
370
18
48
1
60
0
100
AcDbSpline
70
4
71
3
72
18
73
14
40
0
40
0
40
0
40
0
40
0.25
40
0.25
40
0.375
40
0.375
40
0.5
40
0.5
40
0.75
40
0.75
40
0.875
40
0.875
40
1
40
1
40
1
40
1
41
1
10
42.4928952222654
20
1.79648289277796
30
0
41
1
10
42.4379392050368
20
1.94486355414062
30
0
41
1
10
42.3826342817073
20
2.09310611106065
30
0
41
1
10
42.2993396414561
20
2.31489728666983
30
0
41
1
10
42.2715137520356
20
2.38870357401126
30
0
41
1
10
42.2156827826354
20
2.5359516412104
30
0
41
1
10
42.1876436865841
20
2.60932422594558
30
0
41
1
10
42.1034702152894
20
2.82932769301803
30
0
41
1
10
42.0471114187045
20
2.97590681725166
30
0
41
1
10
41.9621907792951
20
3.19244789916783
30
0
41
1
10
41.9338310051499
20
3.2642048988308
30
0
41
1
10
41.8770509097105
20
3.40723428488451
30
0
41
1
10
41.8486157363602
20
3.47838779691807
30
0
41
1
10
41.820061434847
20
3.54858781915749
30
0
0
SPLINE
5
D7
100
AcDbEntity
8
1
62
256
6
ByLayer
370
18
48
1
60
0
100
AcDbSpline
70
4
71
3
72
10
73
6
40
0
40
0
40
0
40
0
40
0.728804321172508
40
0.728804321172508
40
1
40
1
40
1
40
1
41
1
10
4.01291103249287
20
3.49175501511164
30
0
41
1
10
4.01291683159715
20
3.55731652653978
30
0
41
1
10
4.01291790719509
20
3.59942301566321
30
0
41
1
10
4.01291569373097
20
3.62393191357558
30
0
41
1
10
4.01291472700095
20
3.62728030308276
30
0
41
1
10
4.01291350028873
20
3.62731701339476
30
0
0
SPLINE
5
D8
100
AcDbEntity
8
1
62
256
6
ByLayer
370
18
48
1
60
0
100
AcDbSpline
70
4
71
3
72
12
73
8
40
0
40
0
40
0
40
0
40
0.249999999999994
40
0.249999999999994
40
0.499999999999987
40
0.499999999999987
40
1
40
1
40
1
40
1
41
1
10
41.7716504615298
20
-3.54603957639836
30
0
41
1
10
41.7766281788394
20
-3.53277004317022
30
0
41
1
10
41.7812874967577
20
-3.51917364170953
30
0
41
1
10
41.7885609301488
20
-3.49488911991085
30
0
41
1
10
41.7911408462626
20
-3.48424791434738
30
0
41
1
10
41.7948572925615
20
-3.46132376984147
30
0
41
1
10
41.7924467227216
20
-3.45731136228807
30
0
41
1
10
41.7877596837318
20
-3.4602095910966
30
0
0
SPLINE
5
D9
100
AcDbEntity
8
SK1
62
256
6
ByLayer
370
18
48
1
60
0
100
AcDbSpline
70
4
71
3
72
8
73
4
40
0
40
0
40
0
40
0
40
1
40
1
40
1
40
1
41
1
10
-35.25
20
-2.7318790158518
30
0
41
1
10
-35.5038946288025
20
-2.33227006451526
30
0
41
1
10
-35.7559872437786
20
-1.93181268618889
30
0
41
1
10
-36
20
-1.52755113602944
30
0
0
SPLINE
5
DA
100
AcDbEntity
8
SK1
62
256
6
ByLayer
370
18
48
1
60
0
100
AcDbSpline
70
4
71
3
72
14
73
10
40
0
40
0
40
0
40
0
40
0.500000000000001
40
0.500000000000001
40
0.75
40
0.75
40
0.875
40
0.875
40
1
40
1
40
1
40
1
41
1
10
-35.25
20
-3.69411656393848
30
0
41
1
10
-35.2287404812744
20
-3.72757727172865
30
0
41
1
10
-35.208362723075
20
-3.75815743817111
30
0
41
1
10
-35.1802905070704
20
-3.79679898416836
30
0
41
1
10
-35.1714466180788
20
-3.808331602723
30
0
41
1
10
-35.1602396792677
20
-3.82088146316565
30
0
41
1
10
-35.1568594217207
20
-3.82424019803778
30
0
41
1
10
-35.1517495297274
20
-3.82767534846931
30
0
41
1
10
-35.15
20
-3.82772537421005
30
0
41
1
10
-35.15
20
-3.82473629317269
30
0
0
SPLINE
5
DB
100
AcDbEntity
8
SK1
62
256
6
ByLayer
370
18
48
1
60
0
100
AcDbSpline
70
4
71
3
72
8
73
4
40
0
40
0
40
0
40
0
40
1
40
1
40
1
40
1
41
1
10
-36
20
-2.48978868411592
30
0
41
1
10
-35.7560023534748
20
-2.89402520169378
30
0
41
1
10
-35.5039048565556
20
-3.29449151497221
30
0
41
1
10
-35.25
20
-3.69411656393831
30
0
0
SPLINE
5
DC
100
AcDbEntity
8
SK1
62
256
6
ByLayer
370
18
48
1
60
0
100
AcDbSpline
70
4
71
3
72
14
73
10
40
0
40
0
40
0
40
0
40
0.125000000000001
40
0.125000000000001
40
0.250000000000001
40
0.250000000000001
40
0.500000000000002
40
0.500000000000002
40
1
40
1
40
1
40
1
41
1
10
-35.15
20
-2.95872249989483
30
0
41
1
10
-35.15
20
-2.95136046418125
30
0
41
1
10
-35.1517507934569
20
-2.94181767384893
30
0
41
1
10
-35.1569069278761
20
-2.92202783097574
30
0
41
1
10
-35.160234831946
20
-2.91188113660564
30
0
41
1
10
-35.1714888412645
20
-2.88101453357953
30
0
41
1
10
-35.1802429568046
20
-2.86098270976643
30
0
41
1
10
-35.2083191353841
20
-2.80186934291285
30
0
41
1
10
-35.2286409685638
20
-2.76549634834134
30
0
41
1
10
-35.25
20
-2.7318790158518
30
0
0
LINE
5
76
100
AcDbEntity
8
81
62
256
6
ByLayer
370
18
48
1
60
0
100
AcDbLine
10
43
20
0
30
0
11
48
21
0
31
0
39
0
210
0
220
0
230
1
0
LINE
5
77
100
AcDbEntity
8
1
62
256
6
ByLayer
370
18
48
1
60
0
100
AcDbLine
10
4.012908
20
3.627316
30
0
11
1.029114
21
3.625525
31
0
39
0
210
0
220
0
230
1
0
LINE
5
79
100
AcDbEntity
8
1
62
256
6
ByLayer
370
18
48
1
60
0
100
AcDbLine
10
21.546289
20
3.637836
30
0
11
20.955198
21
3.637481
31
0
39
0
210
0
220
0
230
1
0
LINE
5
7A
100
AcDbEntity
8
1
62
256
6
ByLayer
370
18
48
1
60
0
100
AcDbLine
10
40.946369
20
3.649476
30
0
11
40.360653
21
3.649124
31
0
39
0
210
0
220
0
230
1
0
LINE
5
7B
100
AcDbEntity
8
1
62
256
6
ByLayer
370
18
48
1
60
0
100
AcDbLine
10
40.360653
20
-3.649124
30
0
11
40.946875
21
-3.649476
31
0
39
0
210
0
220
0
230
1
0
LINE
5
7C
100
AcDbEntity
8
1
62
256
6
ByLayer
370
18
48
1
60
0
100
AcDbLine
10
20.955198
20
-3.637481
30
0
11
21.54641
21
-3.637836
31
0
39
0
210
0
220
0
230
1
0
LINE
5
7D
100
AcDbEntity
8
1
62
256
6
ByLayer
370
18
48
1
60
0
100
AcDbLine
10
1.029114
20
-3.625525
30
0
11
4.012908
21
-3.627316
31
0
39
0
210
0
220
0
230
1
0
LINE
5
7E
100
AcDbEntity
8
SK1
62
256
6
ByLayer
370
18
48
1
60
0
100
AcDbLine
10
-35.133975
20
4
30
0
11
-36
21
2.5
31
0
39
0
210
0
220
0
230
1
0
LINE
5
80
100
AcDbEntity
8
SK1
62
256
6
ByLayer
370
18
48
1
60
0
100
AcDbLine
10
-36
20
-2.5
30
0
11
-35.133975
21
-4
31
0
39
0
210
0
220
0
230
1
0
LINE
5
81
100
AcDbEntity
8
SK1
62
256
6
ByLayer
370
18
48
1
60
0
100
AcDbLine
10
0
20
4
30
0
11
-35.133975
21
4
31
0
39
0
210
0
220
0
230
1
0
LINE
5
82
100
AcDbEntity
8
SK1
62
256
6
ByLayer
370
18
48
1
60
0
100
AcDbLine
10
-35.133975
20
-4
30
0
11
0
21
-4
31
0
39
0
210
0
220
0
230
1
0
LINE
5
83
100
AcDbEntity
8
SK4
62
256
6
ByLayer
370
18
48
0.05
60
0
100
AcDbLine
10
48
20
0
30
0
11
-41
21
0
31
0
39
0
210
0
220
0
230
1
0
LINE
5
85
100
AcDbEntity
8
4
62
256
6
ByLayer
370
18
48
0.05
60
0
100
AcDbLine
10
43
20
0
30
0
11
0
21
0
31
0
39
0
210
0
220
0
230
1
0
LINE
5
87
100
AcDbEntity
8
80
62
256
6
ByLayer
370
18
48
1
60
0
100
AcDbLine
10
0
20
0
30
0
11
-5
21
0
31
0
39
0
210
0
220
0
230
1
0
LINE
5
88
100
AcDbEntity
8
1
62
256
6
ByLayer
370
13
48
1
60
0
100
AcDbLine
10
42.151597
20
0.745248
30
0
11
42.923782
21
0.287085
31
0
39
0
210
0
220
0
230
1
0
LINE
5
89
100
AcDbEntity
8
1
62
256
6
ByLayer
370
13
48
1
60
0
100
AcDbLine
10
0.514317
20
3.812763
30
0
11
0.514317
21
-3.812763
31
0
39
0
210
0
220
0
230
1
0
LINE
5
8A
100
AcDbEntity
8
1
62
256
6
ByLayer
370
13
48
1
60
0
100
AcDbLine
10
1.029114
20
3.625525
30
0
11
1.029114
21
-3.625525
31
0
39
0
210
0
220
0
230
1
0
LINE
5
8B
100
AcDbEntity
8
1
62
256
6
ByLayer
370
18
48
1
60
0
100
AcDbLine
10
0
20
-4
30
0
11
0
21
4
31
0
39
0
210
0
220
0
230
1
0
LINE
5
8C
100
AcDbEntity
8
1
62
256
6
ByLayer
370
18
48
1
60
0
100
AcDbLine
10
41.179091
20
-1.916327
30
0
11
42.894953
21
-0.143817
31
0
39
0
210
0
220
0
230
1
0
LINE
5
8D
100
AcDbEntity
8
1
62
256
6
ByLayer
370
18
48
1
60
0
100
AcDbLine
10
42.923782
20
0.287085
30
0
11
42.81689
21
0.745248
31
0
39
0
210
0
220
0
230
1
0
LINE
5
8E
100
AcDbEntity
8
1
62
256
6
ByLayer
370
18
48
1
60
0
100
AcDbLine
10
43
20
0
30
0
11
41.733768
21
-3.478943
31
0
39
0
210
0
220
0
230
1
0
LINE
5
8F
100
AcDbEntity
8
1
62
256
6
ByLayer
370
18
48
1
60
0
100
AcDbLine
10
42.993442
20
0.036361
30
0
11
43
21
0
31
0
39
0
210
0
220
0
230
1
0
LINE
5
90
100
AcDbEntity
8
1
62
256
6
ByLayer
370
18
48
1
60
0
100
AcDbLine
10
4.250241
20
-3.456621
30
0
11
4.250238
21
-3.456445
31
0
39
0
210
0
220
0
230
1
0
LINE
5
91
100
AcDbEntity
8
1
62
256
6
ByLayer
370
13
48
1
60
0
100
AcDbLine
10
42.81689
20
0.745248
30
0
11
42.151597
21
0.745248
31
0
39
0
210
0
220
0
230
1
0
LINE
5
92
100
AcDbEntity
8
1
62
256
6
ByLayer
370
18
48
1
60
0
100
AcDbLine
10
4.250241
20
3.45662
30
0
11
4.250238
21
3.456445
31
0
39
0
210
0
220
0
230
1
0
LINE
5
93
100
AcDbEntity
8
1
62
256
6
ByLayer
370
18
48
1
60
0
100
AcDbLine
10
42.923782
20
-0.287085
30
0
11
42.81689
21
-0.745248
31
0
39
0
210
0
220
0
230
1
0
LINE
5
94
100
AcDbEntity
8
1
62
256
6
ByLayer
370
18
48
1
60
0
100
AcDbLine
10
43
20
0
30
0
11
42.993442
21
-0.036361
31
0
39
0
210
0
220
0
230
1
0
LINE
5
95
100
AcDbEntity
8
1
62
256
6
ByLayer
370
13
48
1
60
0
100
AcDbLine
10
41.96169
20
0.409919
30
0
11
42.894953
21
-0.143817
31
0
39
0
210
0
220
0
230
1
0
LINE
5
96
100
AcDbEntity
8
SK1
62
256
6
ByLayer
370
18
48
1
60
0
100
AcDbLine
10
0
20
-4
30
0
11
0
21
4
31
0
39
0
210
0
220
0
230
1
0
LINE
5
97
100
AcDbEntity
8
SK1
62
256
6
ByLayer
370
13
48
1
60
0
100
AcDbLine
10
-35.25
20
-2.731824
30
0
11
-35.25
21
-3.694117
31
0
39
0
210
0
220
0
230
1
0
LINE
5
98
100
AcDbEntity
8
SK1
62
256
6
ByLayer
370
18
48
1
60
0
100
AcDbLine
10
-36
20
-1.52751
30
0
11
-36
21
-2.489789
31
0
39
0
210
0
220
0
230
1
0
LINE
5
99
100
AcDbEntity
8
SK1
62
256
6
ByLayer
370
18
48
1
60
0
100
AcDbLine
10
-36
20
-2.5
30
0
11
-36
21
-2.489789
31
0
39
0
210
0
220
0
230
1
0
LINE
5
9A
100
AcDbEntity
8
SK1
62
256
6
ByLayer
370
18
48
1
60
0
100
AcDbLine
10
-35.133975
20
4
30
0
11
-35.133975
21
-4
31
0
39
0
210
0
220
0
230
1
0
LINE
5
9B
100
AcDbEntity
8
SK1
62
256
6
ByLayer
370
18
48
1
60
0
100
AcDbLine
10
-36
20
2.5
30
0
11
-36
21
-1.527551
31
0
39
0
210
0
220
0
230
1
0
LINE
5
9C
100
AcDbEntity
8
SK1
62
256
6
ByLayer
370
18
48
1
60
0
100
AcDbLine
10
-35.15
20
-3.824736
30
0
11
-35.15
21
-2.958722
31
0
39
0
210
0
220
0
230
1
0
MTEXT
5
DD
100
AcDbEntity
8
SK6
62
256
6
ByLayer
370
13
48
1
60
0
100
AcDbMText
10
5.629169
20
36.032694
30
0
210
0
220
0
230
1
1
\W0.7542;R840-0730-30-A1A1220
40
3.5
41
0
44
1.084337
50
0
71
8
72
5
7
iso_b_vert
0
DIMENSION
5
EA
100
AcDbEntity
8
SK2
62
256
6
ByLayer
370
13
48
1
60
0
100
AcDbDimension
2
DimnDraft3D1
10
41.76
20
-13.863398
30
0
11
19.510059
21
-13.863398
31
0
70
32
71
5
72
1
41
1
210
0
220
0
230
1
3
Standard
100
AcDbAlignedDimension
13
0
23
-1.5875
33
0
14
41.76
24
-5.2375
34
0
50
0
100
AcDbRotatedDimension
1001
ACAD
1000
DSTYLE
1002
{
1070
   279
1070
     0
1070
   172
1070
     1
1070
   173
1070
     1
1070
   340
1005
DE
1070
   271
1070
     2
1070
   272
1070
     2
1070
    77
1070
     1
1070
    73
1070
     0
1070
   171
1070
     3
1070
   274
1070
     4
1070
   177
1070
    35
1070
   176
1070
    35
1070
   178
1070
    35
1070
    48
1040
-0.005
1070
    41
1041
3.5
1070
   147
1041
1.75
1070
    42
1041
1.5875
1070
    44
1041
2.0
1070
   140
1041
3.5
1070
   343
1005
0
1070
   344
1005
0
1002
}
0
DIMENSION
5
F4
100
AcDbEntity
8
SK2
62
256
6
ByLayer
370
13
48
1
60
0
100
AcDbDimension
2
DimnDraft3D2
10
43
20
-32.692985
30
0
11
3.6013
21
-32.692985
31
0
70
32
71
5
72
1
41
1
210
0
220
0
230
1
3
Standard
100
AcDbAlignedDimension
13
-36
23
-5.5875
33
0
14
43
24
-1.5875
34
0
50
0
100
AcDbRotatedDimension
1001
ACAD
1000
DSTYLE
1002
{
1070
   279
1070
     0
1070
   172
1070
     1
1070
   173
1070
     1
1070
   340
1005
DE
1070
   271
1070
     2
1070
   272
1070
     2
1070
    77
1070
     1
1070
    73
1070
     0
1070
   171
1070
     3
1070
   274
1070
     4
1070
   177
1070
    35
1070
   176
1070
    35
1070
   178
1070
    35
1070
    48
1040
-0.005
1070
    41
1041
3.5
1070
   147
1041
1.75
1070
    42
1041
1.5875
1070
    44
1041
2.0
1070
   140
1041
3.5
1070
   343
1005
0
1070
   344
1005
0
1002
}
0
DIMENSION
5
FE
100
AcDbEntity
8
SK2
62
256
6
ByLayer
370
13
48
1
60
0
100
AcDbDimension
2
DimnDraft3D3
10
43
20
15.259119
30
0
11
31.43
21
15.259119
31
0
70
32
71
5
72
1
41
1
210
0
220
0
230
1
3
Standard
100
AcDbAlignedDimension
13
19.86
23
5.2375
33
0
14
43
24
1.5875
34
0
50
0
100
AcDbRotatedDimension
1001
ACAD
1000
DSTYLE
1002
{
1070
   279
1070
     0
1070
   172
1070
     1
1070
   173
1070
     1
1070
   340
1005
DE
1070
   271
1070
     2
1070
   272
1070
     2
1070
    77
1070
     1
1070
    73
1070
     0
1070
   171
1070
     3
1070
   274
1070
     4
1070
   177
1070
    35
1070
   176
1070
    35
1070
   178
1070
    35
1070
    48
1040
-0.005
1070
    41
1041
3.5
1070
   147
1041
1.75
1070
    42
1041
1.5875
1070
    44
1041
2.0
1070
   140
1041
3.5
1070
   343
1005
0
1070
   344
1005
0
1002
}
0
DIMENSION
5
108
100
AcDbEntity
8
SK2
62
256
6
ByLayer
370
13
48
1
60
0
100
AcDbDimension
2
DimnDraft3D4
10
41.76
20
-16.452503
30
0
11
52.981425
21
-16.452503
31
0
70
32
71
5
72
1
41
1
210
0
220
0
230
1
3
Standard
100
AcDbAlignedDimension
13
43
23
-1.5875
33
0
14
41.76
24
-5.2375
34
0
50
0
100
AcDbRotatedDimension
1001
ACAD
1000
DSTYLE
1002
{
1070
   279
1070
     0
1070
   172
1070
     1
1070
   173
1070
     1
1070
   340
1005
DE
1070
   271
1070
     2
1070
   272
1070
     2
1070
    77
1070
     1
1070
    73
1070
     0
1070
   171
1070
     3
1070
   274
1070
     4
1070
   177
1070
    35
1070
   176
1070
    35
1070
   178
1070
    35
1070
    48
1040
-0.005
1070
    41
1041
3.5
1070
   147
1041
1.75
1070
    42
1041
1.5875
1070
    44
1041
2.0
1070
   140
1041
3.5
1070
   343
1005
0
1070
   344
1005
0
1002
}
0
DIMENSION
5
112
100
AcDbEntity
8
SK2
62
256
6
ByLayer
370
13
48
1
60
0
100
AcDbDimension
2
DimnDraft3D5
10
41.76
20
-22.343428
30
0
11
0.520676
21
-22.343428
31
0
70
32
71
5
72
1
41
1
210
0
220
0
230
1
3
Standard
100
AcDbAlignedDimension
13
-36
23
-5.5875
33
0
14
41.76
24
-5.2375
34
0
50
0
100
AcDbRotatedDimension
1001
ACAD
1000
DSTYLE
1002
{
1070
   279
1070
     0
1070
   172
1070
     1
1070
   173
1070
     1
1070
   340
1005
DE
1070
   271
1070
     2
1070
   272
1070
     2
1070
    77
1070
     1
1070
    73
1070
     0
1070
   171
1070
     3
1070
   274
1070
     4
1070
   177
1070
    35
1070
   176
1070
    35
1070
   178
1070
    35
1070
    48
1040
-0.005
1070
    41
1041
3.5
1070
   147
1041
1.75
1070
    42
1041
1.5875
1070
    44
1041
2.0
1070
   140
1041
3.5
1070
   343
1005
0
1070
   344
1005
0
1002
}
0
DIMENSION
5
11D
100
AcDbEntity
8
SK2
62
256
6
ByLayer
370
13
48
1
60
0
100
AcDbDimension
2
DimnDraft3D6
10
-46.625163
20
4
30
0
11
-47.250163
21
22.47418
31
0
70
33
71
5
72
1
41
1
210
0
220
0
230
1
3
Standard
100
AcDbAlignedDimension
13
-37.5875
23
-4
33
0
14
-37.5875
24
4
34
0
1001
ACAD
1000
DSTYLE
1002
{
1070
   279
1070
     0
1070
    74
1070
     0
1070
   173
1070
     1
1070
   340
1005
DE
1070
   271
1070
     3
1070
   272
1070
     2
1070
    77
1070
     1
1070
    73
1070
     0
1070
   171
1070
     3
1070
   274
1070
     4
1070
   177
1070
    35
1070
   176
1070
    35
1070
   178
1070
    35
1070
    48
1040
-0.005
1070
    41
1041
3.5
1070
   147
1041
1.75
1070
    42
1041
1.5875
1070
    44
1041
2.0
1070
   140
1041
3.5
1070
   343
1005
0
1070
   344
1005
0
1002
}
0
DIMENSION
5
128
100
AcDbEntity
8
2
62
256
6
ByLayer
370
13
48
1
60
0
100
AcDbDimension
2
DimnDraft3D7
10
57.083343
20
3.65
30
0
11
52.458343
21
20.717266
31
0
70
33
71
5
72
1
41
1
210
0
220
0
230
1
3
Standard
100
AcDbAlignedDimension
13
43.3475
23
-3.65
33
0
14
43.3475
24
3.65
34
0
1001
ACAD
1000
DSTYLE
1002
{
1070
   279
1070
     0
1070
    74
1070
     0
1070
   173
1070
     1
1070
   340
1005
DE
1070
   271
1070
     3
1070
   272
1070
     2
1070
    77
1070
     1
1070
    73
1070
     0
1070
   171
1070
     3
1070
   274
1070
     4
1070
   177
1070
    35
1070
   176
1070
    35
1070
   178
1070
    35
1070
    48
1040
-0.005
1070
    41
1041
3.5
1070
   147
1041
1.75
1070
    42
1041
1.5875
1070
    44
1041
2.0
1070
   140
1041
3.5
1070
   343
1005
0
1070
   344
1005
0
1002
}
0
ENDSEC
0
SECTION
2
OBJECTS
0
DICTIONARY
5
193
330
0
100
AcDbDictionary
280
0
281
1
3
ACAD_GROUP
350
194
3
ACAD_MLINESTYLE
350
195
0
DICTIONARY
5
194
330
0
100
AcDbDictionary
280
0
281
1
0
DICTIONARY
5
195
330
0
100
AcDbDictionary
280
0
281
1
3
Standard
350
18
0
MLINESTYLE
5
18
330
195
100
AcDbMlineStyle
2
Standard
70
0
3

62
256
51
90
52
90
71
2
49
-0.5
62
256
6
ByLayer
49
0.5
62
256
6
ByLayer
0
RASTERVARIABLES
5
181
330

100
AcDbRasterVariables
90
0
70
1
71
1
72
1
0
ENDSEC
0
EOF
