0
SECTION
2
HEADER
9
$ACADVER
1
AC1015
9
$DWGCODEPAGE
3
ANSI_1252
9
$HANDSEED
5
197
9
$ANGBASE
50
0
9
$ANGDIR
70
0
9
$ATTMODE
70
1
9
$AUNITS
70
0
9
$AUPREC
70
0
9
$CECOLOR
62
256
9
$CELTSCALE
40
1
9
$CELTYPE
6
ByLayer
9
$CELWEIGHT
370
18
9
$CLAYER
8
0
9
$CMLJUST
70
0
9
$CMLSCALE
40
1
9
$CMLSTYLE
2
Standard
9
$DIMSTYLE
2
Standard
9
$TEXTSIZE
40
0.2
9
$TEXTSTYLE
7
Standard
9
$LUNITS
70
2
9
$LUPREC
70
4
9
$EXTNAMES
290
1
9
$INSUNITS
70
4
9
$LTSCALE
40
1
9
$LWDISPLAY
290
1
9
$PDMODE
70
0
9
$PDSIZE
40
0
9
$PLINEGEN
70
0
0
ENDSEC
0
SECTION
2
CLASSES
0
CLASS
1
RASTERVARIABLES
2
AcDbRasterVariables
3
ISM
90
0
280
0
281
0
0
ENDSEC
0
SECTION
2
TABLES
0
TABLE
2
VPORT
5
18d
100
AcDbSymbolTable
0
VPORT
5
1
100
AcDbSymbolTableRecord
100
AcDbViewportTableRecord
2
*Active
70
0
10
0
20
0
11
1
21
1
12
-1
22
1
13
0
23
0
14
0.5
24
0.5
15
10
25
10
16
0
26
0
36
1
17
0
27
0
37
0
0
ENDTAB
0
TABLE
2
LTYPE
5
18e
100
AcDbSymbolTable
0
LTYPE
5
14
100
AcDbSymbolTableRecord
100
AcDbLinetypeTableRecord
70
0
2
ByBlock
3

72
65
73
0
40
0
0
LTYPE
5
15
100
AcDbSymbolTableRecord
100
AcDbLinetypeTableRecord
70
0
2
ByLayer
3

72
65
73
0
40
0
0
LTYPE
5
16
100
AcDbSymbolTableRecord
100
AcDbLinetypeTableRecord
70
0
2
CONTINUOUS
3
Solid line
72
65
73
0
40
0
0
LTYPE
5
6A
100
AcDbSymbolTableRecord
100
AcDbLinetypeTableRecord
70
0
2
CENTER
3
____ _ ____ _ ____ _ ____
72
65
73
4
40
47.5
49
22
74
0
49
-8.5
74
0
49
8.5
74
0
49
-8.5
74
0
0
LTYPE
5
6B
100
AcDbSymbolTableRecord
100
AcDbLinetypeTableRecord
70
0
2
DASHED
3
__ __ __ __ __ __ __ __ __
72
65
73
2
40
25.72
49
12.86
74
0
49
-12.86
74
0
0
ENDTAB
0
TABLE
2
LAYER
5
18f
100
AcDbSymbolTable
0
LAYER
5
10
100
AcDbSymbolTableRecord
100
AcDbLayerTableRecord
2
0
70
0
62
7
6
CONTINUOUS
290
1
370
-3
390
0
0
LAYER
5
6D
100
AcDbSymbolTableRecord
100
AcDbLayerTableRecord
2
81
70
0
62
-3
6
CONTINUOUS
290
1
370
-3
390
0
0
LAYER
5
6F
100
AcDbSymbolTableRecord
100
AcDbLayerTableRecord
2
80
70
0
62
-6
6
CONTINUOUS
290
1
370
-3
390
0
0
LAYER
5
74
100
AcDbSymbolTableRecord
100
AcDbLayerTableRecord
2
2
70
0
62
7
6
CONTINUOUS
290
1
370
-3
390
0
0
LAYER
5
78
100
AcDbSymbolTableRecord
100
AcDbLayerTableRecord
2
1
70
0
62
4
6
CONTINUOUS
290
1
370
-3
390
0
0
LAYER
5
86
100
AcDbSymbolTableRecord
100
AcDbLayerTableRecord
2
4
70
0
62
-2
6
CENTER
290
1
370
-3
390
0
0
LAYER
5
179
100
AcDbSymbolTableRecord
100
AcDbLayerTableRecord
2
SK2
70
0
62
7
6
CONTINUOUS
290
1
370
-3
390
0
0
LAYER
5
17a
100
AcDbSymbolTableRecord
100
AcDbLayerTableRecord
2
SK1
70
0
62
4
6
CONTINUOUS
290
1
370
-3
390
0
0
LAYER
5
17b
100
AcDbSymbolTableRecord
100
AcDbLayerTableRecord
2
SK4
70
0
62
2
6
CENTER
290
1
370
-3
390
0
0
LAYER
5
17c
100
AcDbSymbolTableRecord
100
AcDbLayerTableRecord
2
SK6
70
0
62
5
6
CONTINUOUS
290
1
370
-3
390
0
0
ENDTAB
0
TABLE
2
STYLE
5
190
100
AcDbSymbolTable
0
STYLE
5
11
100
AcDbSymbolTableRecord
100
AcDbTextStyleTableRecord
2
Standard
3
txt
70
0
71
0
40
0
41
1
42
0
50
0
0
STYLE
5
D5
100
AcDbSymbolTableRecord
100
AcDbTextStyleTableRecord
2
iso_b_vert
3
simplex.shx
70
0
71
0
40
0
41
1
42
0
50
0
0
STYLE
5
D6
100
AcDbSymbolTableRecord
100
AcDbTextStyleTableRecord
2
DWGDirectTextStyle
3
simplex
70
0
71
0
40
0
41
1
42
0
50
0
0
ENDTAB
0
TABLE
2
DIMSTYLE
5
191
100
AcDbSymbolTable
100
AcDbDimStyleTable
0
DIMSTYLE
105
27
100
AcDbSymbolTableRecord
100
AcDbDimStyleTableRecord
2
Standard
70
0
3
<>
41
0.18
42
0.0625
44
0.18
140
0.18
147
0.09
73
0
74
0
77
1
271
2
275
0
278
52
280
0
340
11
0
ENDTAB
0
TABLE
2
VIEW
5
192
100
AcDbSymbolTable
0
ENDTAB
0
TABLE
2
UCS
5
193
100
AcDbSymbolTable
0
ENDTAB
0
TABLE
2
APPID
5
194
100
AcDbSymbolTable
0
APPID
5
12
100
AcDbSymbolTableRecord
100
AcDbRegAppTableRecord
2
ACAD
70
0
0
ENDTAB
0
TABLE
2
BLOCK_RECORD
5
195
100
AcDbSymbolTable
0
BLOCK_RECORD
5
1F
100
AcDbSymbolTableRecord
100
AcDbBlockTableRecord
2
*Model_Space
340
0
70
0
0
BLOCK_RECORD
5
1B
100
AcDbSymbolTableRecord
100
AcDbBlockTableRecord
2
*Paper_Space
340
0
70
0
0
BLOCK_RECORD
5
23
100
AcDbSymbolTableRecord
100
AcDbBlockTableRecord
2
*Paper_Space0
340
0
70
0
0
BLOCK_RECORD
5
D8
100
AcDbSymbolTableRecord
100
AcDbBlockTableRecord
2
DimnDraft3D1
340
0
70
0
0
BLOCK_RECORD
5
E2
100
AcDbSymbolTableRecord
100
AcDbBlockTableRecord
2
DimnDraft3D2
340
0
70
0
0
BLOCK_RECORD
5
EC
100
AcDbSymbolTableRecord
100
AcDbBlockTableRecord
2
DimnDraft3D3
340
0
70
0
0
BLOCK_RECORD
5
F6
100
AcDbSymbolTableRecord
100
AcDbBlockTableRecord
2
DimnDraft3D4
340
0
70
0
0
BLOCK_RECORD
5
100
100
AcDbSymbolTableRecord
100
AcDbBlockTableRecord
2
DimnDraft3D5
340
0
70
0
0
BLOCK_RECORD
5
10A
100
AcDbSymbolTableRecord
100
AcDbBlockTableRecord
2
DimnDraft3D6
340
0
70
0
0
BLOCK_RECORD
5
115
100
AcDbSymbolTableRecord
100
AcDbBlockTableRecord
2
DimnDraft3D7
340
0
70
0
0
ENDTAB
0
ENDSEC
0
SECTION
2
BLOCKS
0
BLOCK
5
20
100
AcDbEntity
8
0
100
AcDbBlockBegin
2
*Model_Space
70
0
10
0
20
0
30
0
3
*Model_Space
0
ENDBLK
5
21
100
AcDbEntity
8
0
100
AcDbBlockEnd
0
BLOCK
5
1C
100
AcDbEntity
8
0
100
AcDbBlockBegin
2
*Paper_Space
70
0
10
0
20
0
30
0
3
*Paper_Space
0
ENDBLK
5
1D
100
AcDbEntity
8
0
100
AcDbBlockEnd
0
BLOCK
5
24
100
AcDbEntity
8
0
100
AcDbBlockBegin
2
*Paper_Space0
70
0
10
0
20
0
30
0
3
*Paper_Space0
0
ENDBLK
5
25
100
AcDbEntity
8
0
100
AcDbBlockEnd
0
BLOCK
5
DF
100
AcDbEntity
8
0
100
AcDbBlockBegin
2
DimnDraft3D1
70
0
10
0
20
0
30
0
3
DimnDraft3D1
0
MTEXT
5
D9
100
AcDbEntity
8
SK2
62
256
6
ByLayer
370
13
48
1
60
0
100
AcDbMText
10
15.334664
20
-12.938398
30
0
210
0
220
0
230
1
1
\W0.6977;41,78
40
3.5
41
0
44
1.084337
50
0
71
7
72
5
7
iso_b_vert
0
LINE
5
DA
100
AcDbEntity
8
SK2
62
256
6
ByLayer
370
13
48
1
60
0
100
AcDbLine
10
0
20
-1.5875
30
0
11
0
21
-15.813398
31
0
39
0
210
0
220
0
230
1
0
LINE
5
DB
100
AcDbEntity
8
SK2
62
256
6
ByLayer
370
13
48
1
60
0
100
AcDbLine
10
41.78
20
-5.1875
30
0
11
41.78
21
-15.813398
31
0
39
0
210
0
220
0
230
1
0
LINE
5
DC
100
AcDbEntity
8
SK2
62
256
6
ByLayer
370
13
48
1
60
0
100
AcDbLine
10
0
20
-13.813398
30
0
11
41.78
21
-13.813398
31
0
39
0
210
0
220
0
230
1
0
SOLID
5
DD
100
AcDbEntity
8
SK2
62
256
6
ByLayer
370
13
48
1
60
0
100
AcDbTrace
10
0
20
-13.813398
30
0
11
3.499998
21
-13.352615
31
0
12
3.500002
22
-14.274182
32
0
13
0
23
-13.813398
33
0
39
0
210
0
220
0
230
1
0
SOLID
5
DE
100
AcDbEntity
8
SK2
62
256
6
ByLayer
370
13
48
1
60
0
100
AcDbTrace
10
41.78
20
-13.813398
30
0
11
38.280002
21
-14.274182
31
0
12
38.279998
22
-13.352615
32
0
13
41.78
23
-13.813398
33
0
39
0
210
0
220
0
230
1
0
ENDBLK
5
E0
100
AcDbEntity
8
0
100
AcDbBlockEnd
0
BLOCK
5
E9
100
AcDbEntity
8
0
100
AcDbBlockBegin
2
DimnDraft3D2
70
0
10
0
20
0
30
0
3
DimnDraft3D2
0
MTEXT
5
E3
100
AcDbEntity
8
SK2
62
256
6
ByLayer
370
13
48
1
60
0
100
AcDbMText
10
-0.827384
20
-31.817985
30
0
210
0
220
0
230
1
1
\W0.7317;79,00
40
3.5
41
0
44
1.084337
50
0
71
7
72
5
7
iso_b_vert
0
LINE
5
E4
100
AcDbEntity
8
SK2
62
256
6
ByLayer
370
13
48
1
60
0
100
AcDbLine
10
-36
20
-5.5875
30
0
11
-36
21
-34.692985
31
0
39
0
210
0
220
0
230
1
0
LINE
5
E5
100
AcDbEntity
8
SK2
62
256
6
ByLayer
370
13
48
1
60
0
100
AcDbLine
10
43
20
-1.5875
30
0
11
43
21
-34.692985
31
0
39
0
210
0
220
0
230
1
0
LINE
5
E6
100
AcDbEntity
8
SK2
62
256
6
ByLayer
370
13
48
1
60
0
100
AcDbLine
10
-36
20
-32.692985
30
0
11
43
21
-32.692985
31
0
39
0
210
0
220
0
230
1
0
SOLID
5
E7
100
AcDbEntity
8
SK2
62
256
6
ByLayer
370
13
48
1
60
0
100
AcDbTrace
10
-36
20
-32.692985
30
0
11
-32.500002
21
-32.232202
31
0
12
-32.499998
22
-33.153769
32
0
13
-36
23
-32.692985
33
0
39
0
210
0
220
0
230
1
0
SOLID
5
E8
100
AcDbEntity
8
SK2
62
256
6
ByLayer
370
13
48
1
60
0
100
AcDbTrace
10
43
20
-32.692985
30
0
11
39.500002
21
-33.153769
31
0
12
39.499998
22
-32.232202
32
0
13
43
23
-32.692985
33
0
39
0
210
0
220
0
230
1
0
ENDBLK
5
EA
100
AcDbEntity
8
0
100
AcDbBlockEnd
0
BLOCK
5
F3
100
AcDbEntity
8
0
100
AcDbBlockBegin
2
DimnDraft3D3
70
0
10
0
20
0
30
0
3
DimnDraft3D3
0
MTEXT
5
ED
100
AcDbEntity
8
SK2
62
256
6
ByLayer
370
13
48
1
60
0
100
AcDbMText
10
27.141316
20
16.084119
30
0
210
0
220
0
230
1
1
\W0.7317;22,82
40
3.5
41
0
44
1.084337
50
0
71
7
72
5
7
iso_b_vert
0
LINE
5
EE
100
AcDbEntity
8
SK2
62
256
6
ByLayer
370
13
48
1
60
0
100
AcDbLine
10
20.18
20
5.1875
30
0
11
20.18
21
17.209119
31
0
39
0
210
0
220
0
230
1
0
LINE
5
EF
100
AcDbEntity
8
SK2
62
256
6
ByLayer
370
13
48
1
60
0
100
AcDbLine
10
43
20
1.5875
30
0
11
43
21
17.209119
31
0
39
0
210
0
220
0
230
1
0
LINE
5
F0
100
AcDbEntity
8
SK2
62
256
6
ByLayer
370
13
48
1
60
0
100
AcDbLine
10
20.18
20
15.209119
30
0
11
43
21
15.209119
31
0
39
0
210
0
220
0
230
1
0
SOLID
5
F1
100
AcDbEntity
8
SK2
62
256
6
ByLayer
370
13
48
1
60
0
100
AcDbTrace
10
20.18
20
15.209119
30
0
11
23.679998
21
15.669903
31
0
12
23.680002
22
14.748335
32
0
13
20.18
23
15.209119
33
0
39
0
210
0
220
0
230
1
0
SOLID
5
F2
100
AcDbEntity
8
SK2
62
256
6
ByLayer
370
13
48
1
60
0
100
AcDbTrace
10
43
20
15.209119
30
0
11
39.500002
21
14.748335
31
0
12
39.499998
22
15.669903
32
0
13
43
23
15.209119
33
0
39
0
210
0
220
0
230
1
0
ENDBLK
5
F4
100
AcDbEntity
8
0
100
AcDbBlockEnd
0
BLOCK
5
FD
100
AcDbEntity
8
0
100
AcDbBlockBegin
2
DimnDraft3D4
70
0
10
0
20
0
30
0
3
DimnDraft3D4
0
MTEXT
5
F7
100
AcDbEntity
8
SK2
62
256
6
ByLayer
370
13
48
1
60
0
100
AcDbMText
10
50.278136
20
-15.527503
30
0
210
0
220
0
230
1
1
\W0.6367;1,22
40
3.5
41
0
44
1.084337
50
0
71
7
72
5
7
iso_b_vert
0
LINE
5
F8
100
AcDbEntity
8
SK2
62
256
6
ByLayer
370
13
48
1
60
0
100
AcDbLine
10
43
20
-1.5875
30
0
11
43
21
-18.402503
31
0
39
0
210
0
220
0
230
1
0
LINE
5
F9
100
AcDbEntity
8
SK2
62
256
6
ByLayer
370
13
48
1
60
0
100
AcDbLine
10
41.78
20
-5.1875
30
0
11
41.78
21
-18.402503
31
0
39
0
210
0
220
0
230
1
0
LINE
5
FA
100
AcDbEntity
8
SK2
62
256
6
ByLayer
370
13
48
1
60
0
100
AcDbLine
10
33.03
20
-16.402503
30
0
11
56.559715
21
-16.402503
31
0
39
0
210
0
220
0
230
1
0
SOLID
5
FB
100
AcDbEntity
8
SK2
62
256
6
ByLayer
370
13
48
1
60
0
100
AcDbTrace
10
43
20
-16.402503
30
0
11
46.499998
21
-15.941719
31
0
12
46.500002
22
-16.863287
32
0
13
43
23
-16.402503
33
0
39
0
210
0
220
0
230
1
0
SOLID
5
FC
100
AcDbEntity
8
SK2
62
256
6
ByLayer
370
13
48
1
60
0
100
AcDbTrace
10
41.78
20
-16.402503
30
0
11
38.280002
21
-16.863287
31
0
12
38.279998
22
-15.941719
32
0
13
41.78
23
-16.402503
33
0
39
0
210
0
220
0
230
1
0
ENDBLK
5
FE
100
AcDbEntity
8
0
100
AcDbBlockEnd
0
BLOCK
5
107
100
AcDbEntity
8
0
100
AcDbBlockBegin
2
DimnDraft3D5
70
0
10
0
20
0
30
0
3
DimnDraft3D5
0
MTEXT
5
101
100
AcDbEntity
8
SK2
62
256
6
ByLayer
370
13
48
1
60
0
100
AcDbMText
10
-3.908008
20
-21.468428
30
0
210
0
220
0
230
1
1
\W0.7317;77,78
40
3.5
41
0
44
1.084337
50
0
71
7
72
5
7
iso_b_vert
0
LINE
5
102
100
AcDbEntity
8
SK2
62
256
6
ByLayer
370
13
48
1
60
0
100
AcDbLine
10
-36
20
-5.5875
30
0
11
-36
21
-24.343428
31
0
39
0
210
0
220
0
230
1
0
LINE
5
103
100
AcDbEntity
8
SK2
62
256
6
ByLayer
370
13
48
1
60
0
100
AcDbLine
10
41.78
20
-5.1875
30
0
11
41.78
21
-24.343428
31
0
39
0
210
0
220
0
230
1
0
LINE
5
104
100
AcDbEntity
8
SK2
62
256
6
ByLayer
370
13
48
1
60
0
100
AcDbLine
10
-36
20
-22.343428
30
0
11
41.78
21
-22.343428
31
0
39
0
210
0
220
0
230
1
0
SOLID
5
105
100
AcDbEntity
8
SK2
62
256
6
ByLayer
370
13
48
1
60
0
100
AcDbTrace
10
-36
20
-22.343428
30
0
11
-32.500002
21
-21.882645
31
0
12
-32.499998
22
-22.804212
32
0
13
-36
23
-22.343428
33
0
39
0
210
0
220
0
230
1
0
SOLID
5
106
100
AcDbEntity
8
SK2
62
256
6
ByLayer
370
13
48
1
60
0
100
AcDbTrace
10
41.78
20
-22.343428
30
0
11
38.280002
21
-22.804212
31
0
12
38.279998
22
-21.882645
32
0
13
41.78
23
-22.343428
33
0
39
0
210
0
220
0
230
1
0
ENDBLK
5
108
100
AcDbEntity
8
0
100
AcDbBlockEnd
0
BLOCK
5
112
100
AcDbEntity
8
0
100
AcDbBlockBegin
2
DimnDraft3D6
70
0
10
0
20
0
30
0
3
DimnDraft3D6
0
MTEXT
5
10B
100
AcDbEntity
8
SK2
62
256
6
ByLayer
370
13
48
1
60
0
100
AcDbMText
10
-46.375163
20
23.34918
30
0
210
0
220
0
230
1
1
\W0.7317;8,000
40
3.5
41
0
44
1.084337
50
90
71
7
72
5
7
iso_b_vert
0
MTEXT
5
10C
100
AcDbEntity
8
SK2
62
256
6
ByLayer
370
13
48
1
60
0
100
AcDbMText
10
-46.375163
20
18.126524
30
0
210
0
220
0
230
1
1
%%c
40
3.5
41
0
44
1.084337
50
90
71
7
72
5
7
iso_b_vert
0
LINE
5
10D
100
AcDbEntity
8
SK2
62
256
6
ByLayer
370
13
48
1
60
0
100
AcDbLine
10
-37.5875
20
-4
30
0
11
-46.625163
21
-4
31
0
39
0
210
0
220
0
230
1
0
LINE
5
10E
100
AcDbEntity
8
SK2
62
256
6
ByLayer
370
13
48
1
60
0
100
AcDbLine
10
-37.5875
20
4
30
0
11
-46.625163
21
4
31
0
39
0
210
0
220
0
230
1
0
LINE
5
10F
100
AcDbEntity
8
SK2
62
256
6
ByLayer
370
13
48
1
60
0
100
AcDbLine
10
-44.625163
20
-4
30
0
11
-44.625163
21
33.121549
31
0
39
0
210
0
220
0
230
1
0
SOLID
5
110
100
AcDbEntity
8
SK2
62
256
6
ByLayer
370
13
48
1
60
0
100
AcDbTrace
10
-44.625163
20
-4
30
0
11
-45.085946
21
-0.500002
31
0
12
-44.164379
22
-0.499998
32
0
13
-44.625163
23
-4
33
0
39
0
210
0
220
0
230
1
0
SOLID
5
111
100
AcDbEntity
8
SK2
62
256
6
ByLayer
370
13
48
1
60
0
100
AcDbTrace
10
-44.625163
20
4
30
0
11
-44.164379
21
0.500002
31
0
12
-45.085946
22
0.499998
32
0
13
-44.625163
23
4
33
0
39
0
210
0
220
0
230
1
0
ENDBLK
5
113
100
AcDbEntity
8
0
100
AcDbBlockEnd
0
BLOCK
5
11D
100
AcDbEntity
8
0
100
AcDbBlockBegin
2
DimnDraft3D7
70
0
10
0
20
0
30
0
3
DimnDraft3D7
0
MTEXT
5
116
100
AcDbEntity
8
2
62
256
6
ByLayer
370
13
48
1
60
0
100
AcDbMText
10
53.333343
20
21.542266
30
0
210
0
220
0
230
1
1
\W0.7317;7,200
40
3.5
41
0
44
1.084337
50
90
71
7
72
5
7
iso_b_vert
0
MTEXT
5
117
100
AcDbEntity
8
2
62
256
6
ByLayer
370
13
48
1
60
0
100
AcDbMText
10
53.333343
20
16.31961
30
0
210
0
220
0
230
1
1
%%c
40
3.5
41
0
44
1.084337
50
90
71
7
72
5
7
iso_b_vert
0
LINE
5
118
100
AcDbEntity
8
2
62
256
6
ByLayer
370
13
48
1
60
0
100
AcDbLine
10
43.3675
20
-3.6
30
0
11
57.083343
21
-3.6
31
0
39
0
210
0
220
0
230
1
0
LINE
5
119
100
AcDbEntity
8
2
62
256
6
ByLayer
370
13
48
1
60
0
100
AcDbLine
10
43.3675
20
3.6
30
0
11
57.083343
21
3.6
31
0
39
0
210
0
220
0
230
1
0
LINE
5
11A
100
AcDbEntity
8
2
62
256
6
ByLayer
370
13
48
1
60
0
100
AcDbLine
10
55.083343
20
-3.6
30
0
11
55.083343
21
31.314635
31
0
39
0
210
0
220
0
230
1
0
SOLID
5
11B
100
AcDbEntity
8
2
62
256
6
ByLayer
370
13
48
1
60
0
100
AcDbTrace
10
55.083343
20
-3.6
30
0
11
54.622559
21
-0.100002
31
0
12
55.544126
22
-0.099998
32
0
13
55.083343
23
-3.6
33
0
39
0
210
0
220
0
230
1
0
SOLID
5
11C
100
AcDbEntity
8
2
62
256
6
ByLayer
370
13
48
1
60
0
100
AcDbTrace
10
55.083343
20
3.6
30
0
11
55.544126
21
0.100002
31
0
12
54.622559
22
0.099998
32
0
13
55.083343
23
3.6
33
0
39
0
210
0
220
0
230
1
0
ENDBLK
5
11E
100
AcDbEntity
8
0
100
AcDbBlockEnd
0
ENDSEC
0
SECTION
2
ENTITIES
0
ARC
5
9A
100
AcDbEntity
8
1
62
256
6
ByLayer
370
18
48
1
60
0
100
AcDbCircle
39
0
10
0
20
3.2
30
0
40
0.799999999999998
210
0
220
0
230
1
100
AcDbArc
50
47.283427
51
90
0
ARC
5
9B
100
AcDbEntity
8
1
62
256
6
ByLayer
370
18
48
1
60
0
100
AcDbCircle
39
0
10
0
20
-3.2
30
0
40
0.799999999999998
210
0
220
0
230
1
100
AcDbArc
50
270
51
312.716573
0
ARC
5
9C
100
AcDbEntity
8
1
62
256
6
ByLayer
370
18
48
1
60
0
100
AcDbCircle
39
0
10
-1.085396
20
4.375549
30
0
40
0.800000000000003
210
0
220
0
230
-1
100
AcDbArc
50
269.965623
51
312.716573
0
ARC
5
9D
100
AcDbEntity
8
1
62
256
6
ByLayer
370
18
48
1
60
0
100
AcDbCircle
39
0
10
-1.085396
20
-4.375549
30
0
40
0.800000000000003
210
0
220
0
230
-1
100
AcDbArc
50
47.283427
51
90.034377
0
ELLIPSE
5
9E
100
AcDbEntity
8
1
62
256
6
ByLayer
370
18
48
1
60
0
100
AcDbEllipse
10
4.25
20
3.658382
30
0
11
-0.25
21
3.06151588455594E-17
31
0
210
0
220
0
230
1
40
0.999934
41
0.364311317375163
42
1.57991403267013
0
ELLIPSE
5
9F
100
AcDbEntity
8
1
62
256
6
ByLayer
370
18
48
1
60
0
100
AcDbEllipse
10
4.25
20
-3.658382
30
0
11
-0.25
21
3.06151588455594E-17
31
0
210
0
220
0
230
1
40
0.999934
41
-1.56363214693958
42
-0.359897816310188
0
ELLIPSE
5
A0
100
AcDbEntity
8
1
62
256
6
ByLayer
370
13
48
1
60
0
100
AcDbEllipse
10
42.468504
20
1.684687
30
0
11
2.07991248141949
21
-1.43207888864193
31
0
210
0
220
0
230
-1
40
0.533762
41
1.44484622740908
42
1.69902310566031
0
ELLIPSE
5
A1
100
AcDbEntity
8
1
62
256
6
ByLayer
370
18
48
1
60
0
100
AcDbEllipse
10
43.045764
20
-0.001855
30
0
11
0.137979128912368
21
0.428995648258244
31
0
210
0
220
0
230
-1
40
0.08774
41
-2.32337572128557
42
-1.67833208192319
0
ELLIPSE
5
A2
100
AcDbEntity
8
1
62
256
6
ByLayer
370
18
48
1
60
0
100
AcDbEllipse
10
42.860447
20
0.11181
30
0
11
0.0727819104909907
21
0.301917195724008
31
0
210
0
220
0
230
-1
40
0.478434
41
1.70854143763036
42
2.45976119973821
0
ELLIPSE
5
A3
100
AcDbEntity
8
1
62
256
6
ByLayer
370
18
48
1
60
0
100
AcDbEllipse
10
42.289572
20
1.807885
30
0
11
0.558226075379113
21
-1.51063245068653
31
0
210
0
220
0
230
-1
40
0.115174
41
-1.51029476436489
42
-0.742863466703175
0
ELLIPSE
5
A4
100
AcDbEntity
8
1
62
256
6
ByLayer
370
18
48
1
60
0
100
AcDbEllipse
10
42.289572
20
-1.807885
30
0
11
0.55822607537294
21
1.51063245067336
31
0
210
0
220
0
230
-1
40
0.115174
41
0.742863466704592
42
1.51029476437198
0
ELLIPSE
5
A5
100
AcDbEntity
8
1
62
256
6
ByLayer
370
18
48
1
60
0
100
AcDbEllipse
10
43.000323
20
0.000786
30
0
11
1.32936747944239
21
3.59744148119214
31
0
210
0
220
0
230
-1
40
0.115174
41
2.86247118848668
42
2.96968065558014
0
ELLIPSE
5
A6
100
AcDbEntity
8
1
62
256
6
ByLayer
370
13
48
1
60
0
100
AcDbEllipse
10
42.658411
20
1.807885
30
0
11
2.15134778128072
21
-1.08587796352841
31
0
210
0
220
0
230
-1
40
0.489064
41
1.55502088377453
42
1.83030683503916
0
ELLIPSE
5
A7
100
AcDbEntity
8
1
62
256
6
ByLayer
370
18
48
1
60
0
100
AcDbEllipse
10
43.000323
20
-0.000786
30
0
11
1.32936751292045
21
-3.59744157953842
31
0
210
0
220
0
230
-1
40
0.115174
41
-2.96968065794732
42
-2.86247119234215
0
ELLIPSE
5
A8
100
AcDbEntity
8
1
62
256
6
ByLayer
370
13
48
1
60
0
100
AcDbEllipse
10
42.16135
20
0.526607
30
0
11
0.153082081612419
21
0.258003636193773
31
0
210
0
220
0
230
1
40
0.454519
41
0.917105603404795
42
2.31336900500034
0
ELLIPSE
5
A9
100
AcDbEntity
8
1
62
256
6
ByLayer
370
18
48
1
60
0
100
AcDbEllipse
10
43.045764
20
0.001855
30
0
11
0.1379791289152
21
-0.428995648265076
31
0
210
0
220
0
230
-1
40
0.08774
41
1.67833208193641
42
2.32337572129147
0
POINT
5
6C
100
AcDbEntity
8
81
62
256
6
ByLayer
370
18
48
1
60
0
100
AcDbPoint
10
43
20
0
30
0
39
0
210
0
220
0
230
1
50
360
0
POINT
5
6E
100
AcDbEntity
8
80
62
256
6
ByLayer
370
18
48
1
60
0
100
AcDbPoint
10
0
20
0
30
0
39
0
210
0
220
0
230
1
50
360
0
POINT
5
70
100
AcDbEntity
8
SK2
62
256
6
ByLayer
370
18
48
1
60
1
100
AcDbPoint
10
-36
20
-4
30
0
39
0
210
0
220
0
230
1
50
360
0
POINT
5
72
100
AcDbEntity
8
SK2
62
256
6
ByLayer
370
18
48
1
60
1
100
AcDbPoint
10
-36
20
4
30
0
39
0
210
0
220
0
230
1
50
360
0
POINT
5
73
100
AcDbEntity
8
2
62
256
6
ByLayer
370
18
48
1
60
1
100
AcDbPoint
10
41.78
20
-3.6
30
0
39
0
210
0
220
0
230
1
50
360
0
POINT
5
75
100
AcDbEntity
8
2
62
256
6
ByLayer
370
18
48
1
60
1
100
AcDbPoint
10
41.78
20
3.6
30
0
39
0
210
0
220
0
230
1
50
360
0
SPLINE
5
AA
100
AcDbEntity
8
1
62
256
6
ByLayer
370
18
48
1
60
0
100
AcDbSpline
70
4
71
3
72
12
73
8
40
0
40
0
40
0
40
0
40
0.236764705083707
40
0.360550316907301
40
0.489710810698888
40
0.700890033638693
40
1
40
1
40
1
40
1
41
1
10
32.3399405063515
20
-0.973899970418131
30
0
41
1
10
32.340189781389
20
-0.974366266640487
30
0
41
1
10
32.3505658981481
20
-0.979488454699663
30
0
41
1
10
32.3914056936267
20
-0.998739438436161
30
0
41
1
10
32.4504438218928
20
-1.02701640394974
30
0
41
1
10
32.5796328794451
20
-1.093059911567
30
0
41
1
10
32.6894102900469
20
-1.15310508585597
30
0
41
1
10
32.7611389104542
20
-1.19334426846194
30
0
0
SPLINE
5
AB
100
AcDbEntity
8
1
62
256
6
ByLayer
370
18
48
1
60
0
100
AcDbSpline
70
4
71
3
72
29
73
25
40
0
40
0
40
0
40
0
40
0.0720594006851009
40
0.122582387289553
40
0.153702855313735
40
0.193102710276192
40
0.245259986051981
40
0.291456917838724
40
0.32563170450973
40
0.371136760884952
40
0.425568849578903
40
0.495293207639418
40
0.560645992597837
40
0.611761925642235
40
0.652364208983987
40
0.686453039289241
40
0.725055578297315
40
0.781045095051923
40
0.818968928761749
40
0.84953384347664
40
0.872944956188239
40
0.907107391193375
40
0.963424390922203
40
1
40
1
40
1
40
1
41
1
10
21.764539383895
20
-3.41898446930753
30
0
41
1
10
21.9937798479056
20
-3.41913240715854
30
0
41
1
10
22.3837383679111
20
-3.41935630295649
30
0
41
1
10
22.8727207460954
20
-3.41970553503089
30
0
41
1
10
23.2577362924493
20
-3.41978696172865
30
0
41
1
10
23.6479623527978
20
-3.42021728460085
30
0
41
1
10
24.0862111639957
20
-3.42034404715207
30
0
41
1
10
24.5078153705534
20
-3.42050699645878
30
0
41
1
10
24.90821866098
20
-3.42109324278138
30
0
41
1
10
25.3348797936644
20
-3.42074222799673
30
0
41
1
10
25.8746117436222
20
-3.42140426204762
30
0
41
1
10
26.4774997803144
20
-3.42107850072918
30
0
41
1
10
27.0698270138387
20
-3.42218532422885
30
0
41
1
10
27.5695097613177
20
-3.42197729881406
30
0
41
1
10
27.9697372257568
20
-3.42194111850972
30
0
41
1
10
28.3301365914146
20
-3.42286786533288
30
0
41
1
10
28.7394954523901
20
-3.42250774431051
30
0
41
1
10
29.1610725906731
20
-3.42274619922102
30
0
41
1
10
29.5570674487793
20
-3.42360762575459
30
0
41
1
10
29.849434504342
20
-3.42328007086769
30
0
41
1
10
30.129802909206
20
-3.42297826493612
30
0
41
1
10
30.4920996983827
20
-3.4239187983276
30
0
41
1
10
30.8963261709963
20
-3.42375824482383
30
0
41
1
10
31.1918025544715
20
-3.42414017541003
30
0
41
1
10
31.3081399583672
20
-3.42428561238896
30
0
0
SPLINE
5
AC
100
AcDbEntity
8
1
62
256
6
ByLayer
370
18
48
1
60
0
100
AcDbSpline
70
4
71
2
72
6
73
3
40
0
40
0
40
0
40
1
40
1
40
1
41
1
10
41.1820788468061
20
-3.43075313130913
30
0
41
1
10
41.4660189882043
20
-3.42989037830131
30
0
41
1
10
41.749495276459
20
-3.43163766424087
30
0
0
SPLINE
5
AD
100
AcDbEntity
8
1
62
256
6
ByLayer
370
18
48
1
60
0
100
AcDbSpline
70
4
71
3
72
24
73
20
40
0
40
0
40
0
40
0
40
0.0536209906803319
40
0.136155056991351
40
0.202968606553187
40
0.250955711763403
40
0.294035351456076
40
0.340823544154952
40
0.397968428217877
40
0.467851355060222
40
0.535487851874437
40
0.589402292705238
40
0.657181856942873
40
0.724958947661245
40
0.760998333682668
40
0.800389226899972
40
0.858106742974541
40
0.934780609812436
40
1
40
1
40
1
40
1
41
1
10
11.9835309670093
20
3.41292354287205
30
0
41
1
10
11.8463294943148
20
3.41267386003753
30
0
41
1
10
11.4975726249759
20
3.41208189293764
30
0
41
1
10
10.9720070470435
20
3.41181032550668
30
0
41
1
10
10.4670089459467
20
3.41092112617693
30
0
41
1
10
10.0593641216753
20
3.41153125542536
30
0
41
1
10
9.70384122135778
20
3.41204382047516
30
0
41
1
10
9.32458474474896
20
3.41245327155647
30
0
41
1
10
8.8762204260357
20
3.41244268240294
30
0
41
1
10
8.37406993995006
20
3.41026950169999
30
0
41
1
10
7.88025169677877
20
3.40937109921063
30
0
41
1
10
7.39185562984639
20
3.40974633268152
30
0
41
1
10
6.90310743481254
20
3.41056838903012
30
0
41
1
10
6.46045946134996
20
3.41024287709024
30
0
41
1
10
6.09104406672282
20
3.40942182902395
30
0
41
1
10
5.74758187529574
20
3.40933549984953
30
0
41
1
10
5.29937430126103
20
3.40886530144658
30
0
41
1
10
4.78442241858264
20
3.4089567586083
30
0
41
1
10
4.41845218262722
20
3.40864524346406
30
0
41
1
10
4.25024294225761
20
3.40848554612524
30
0
0
SPLINE
5
AE
100
AcDbEntity
8
1
62
256
6
ByLayer
370
18
48
1
60
0
100
AcDbSpline
70
4
71
3
72
25
73
21
40
0
40
0
40
0
40
0
40
0.0691048931970506
40
0.163495162446533
40
0.230674061785422
40
0.280726916565527
40
0.334915199834788
40
0.405270208110721
40
0.492124744058886
40
0.571036458720555
40
0.621950507032367
40
0.666750278786753
40
0.709581847617656
40
0.767627492276713
40
0.834736525565328
40
0.888579728630953
40
0.921616189735265
40
0.951563378470356
40
0.979967619533289
40
1
40
1
40
1
40
1
41
1
10
31.3711688734055
20
3.42413287754221
30
0
41
1
10
31.1896268778622
20
3.42370938386409
30
0
41
1
10
30.7598908140553
20
3.42300877027085
30
0
41
1
10
30.1521761511908
20
3.42269234531486
30
0
41
1
10
29.5949884981326
20
3.4238381037986
30
0
41
1
10
29.1425249466881
20
3.42258795928657
30
0
41
1
10
28.6819362933126
20
3.42264258771968
30
0
41
1
10
28.124177472773
20
3.42249882438659
30
0
41
1
10
27.5012151295335
20
3.42208059161908
30
0
41
1
10
26.9295462351798
20
3.42164052906364
30
0
41
1
10
26.4688074002564
20
3.42129245335391
30
0
41
1
10
26.1033416753253
20
3.42141664443673
30
0
41
1
10
25.7195203798102
20
3.42099934806191
30
0
41
1
10
25.2760799860042
20
3.42067403364174
30
0
41
1
10
24.8040873184573
20
3.42103640314193
30
0
41
1
10
24.3978848894467
20
3.42039612422829
30
0
41
1
10
24.0896771942747
20
3.42037361694966
30
0
41
1
10
23.8484742853124
20
3.4203537984703
30
0
41
1
10
23.6434102448489
20
3.41995082330024
30
0
41
1
10
23.5159260065798
20
3.419725374026
30
0
41
1
10
23.4631281089555
20
3.41964059229804
30
0
0
SPLINE
5
AF
100
AcDbEntity
8
1
62
256
6
ByLayer
370
18
48
1
60
0
100
AcDbSpline
70
4
71
3
72
24
73
20
40
0
40
0
40
0
40
0
40
0.0730011638429167
40
0.155574813244289
40
0.21791709955669
40
0.268818974767445
40
0.312600011367063
40
0.381682490994817
40
0.459732123338463
40
0.53332054991921
40
0.590354563435424
40
0.640906143880898
40
0.708563786158209
40
0.780976366708575
40
0.815916155564198
40
0.843440674891303
40
0.887067520224581
40
0.956635443518041
40
1
40
1
40
1
40
1
41
1
10
4.2502324340291
20
-3.40847997809556
30
0
41
1
10
4.43654837987859
20
-3.40864649936827
30
0
41
1
10
4.83361650420969
20
-3.40895788390574
30
0
41
1
10
5.38983916375554
20
-3.40897566592835
30
0
41
1
10
5.88962679269827
20
-3.40933801476268
30
0
41
1
10
6.29041582039477
20
-3.40978702918153
30
0
41
1
10
6.70841973042315
20
-3.41064188606307
30
0
41
1
10
7.19571315853841
20
-3.41010081548254
30
0
41
1
10
7.75909153815871
20
-3.40926599547061
30
0
41
1
10
8.29170987881173
20
-3.41000402864145
30
0
41
1
10
8.75414283418789
20
-3.41197729623559
30
0
41
1
10
9.20144204189074
20
-3.41260076060024
30
0
41
1
10
9.68799290825746
20
-3.41209981619809
30
0
41
1
10
10.134691454045
20
-3.41134479686969
30
0
41
1
10
10.4789550194342
20
-3.41109455921483
30
0
41
1
10
10.7496841886317
20
-3.41145275905035
30
0
41
1
10
11.1088588756016
20
-3.41290729532241
30
0
41
1
10
11.5084871913845
20
-3.41318063503221
30
0
41
1
10
11.7967017532807
20
-3.41331604022929
30
0
41
1
10
11.907368355275
20
-3.4133079973272
30
0
0
SPLINE
5
B0
100
AcDbEntity
8
1
62
256
6
ByLayer
370
13
48
1
60
0
100
AcDbSpline
70
4
71
3
72
26
73
22
40
0
40
0
40
0
40
0
40
0.0648926196987551
40
0.142818234723859
40
0.142818234723859
40
0.220743849748963
40
0.220743849748963
40
0.298669464774066
40
0.298669464774066
40
0.37659507979917
40
0.37659507979917
40
0.532446309849378
40
0.532446309849378
40
0.610371924874481
40
0.610371924874481
40
0.688297539899585
40
0.766223154924689
40
0.766223154924689
40
0.844148769949792
40
0.844148769949792
40
1
40
1
40
1
40
1
41
1
10
4.25024718272573
20
-3.40836520442278
30
0
41
1
10
4.25024101589372
20
-3.40720075650427
30
0
41
1
10
4.2502262561961
20
-3.39602197187207
30
0
41
1
10
4.25021072471839
20
-3.36613299162946
30
0
41
1
10
4.25019454130236
20
-3.32222217995974
30
0
41
1
10
4.25018680459999
20
-3.29447195776444
30
0
41
1
10
4.25017342395552
20
-3.22796074624901
30
0
41
1
10
4.25016778527311
20
-3.18930966864107
30
0
41
1
10
4.25015955814061
20
-3.10123442482549
30
0
41
1
10
4.2501569865681
20
-3.0517026919886
30
0
41
1
10
4.25015503057415
20
-2.88954620629019
30
0
41
1
10
4.25016137398788
20
-2.76282403274792
30
0
41
1
10
4.25018441366183
20
-2.54492973382779
30
0
41
1
10
4.2501943906573
20
-2.46724893666069
30
0
41
1
10
4.25021867114668
20
-2.30408641558722
30
0
41
1
10
4.25024715480953
20
-2.13371198136193
30
0
41
1
10
4.2502833037874
20
-1.94911986982356
30
0
41
1
10
4.25032277041146
20
-1.75730569496062
30
0
41
1
10
4.25034407754089
20
-1.6582227991006
30
0
41
1
10
4.25041054104906
20
-1.35575262849761
30
0
41
1
10
4.25045863122475
20
-1.14563523921689
30
0
41
1
10
4.25050623388603
20
-0.926988265807864
30
0
0
SPLINE
5
B1
100
AcDbEntity
8
1
62
256
6
ByLayer
370
18
48
1
60
0
100
AcDbSpline
70
4
71
3
72
10
73
6
40
0
40
0
40
0
40
0
40
0.5
40
0.5
40
1
40
1
40
1
40
1
41
1
10
4.12475795222946
20
3.39814174982183
30
0
41
1
10
4.10705115102763
20
3.40133519845793
30
0
41
1
10
4.0909484571697
20
3.40509230612653
30
0
41
1
10
4.0618425735434
20
3.41358294029669
30
0
41
1
10
4.04884771588232
20
3.41835041184953
30
0
41
1
10
4.03814047742912
20
3.42330667028892
30
0
0
SPLINE
5
B2
100
AcDbEntity
8
1
62
256
6
ByLayer
370
18
48
1
60
0
100
AcDbSpline
70
4
71
3
72
24
73
20
40
0
40
0
40
0
40
0
40
0.101243486519438
40
0.101243486519438
40
0.15886645382557
40
0.15886645382557
40
0.216489421131701
40
0.216489421131701
40
0.446981290356227
40
0.446981290356227
40
0.562227224968489
40
0.562227224968489
40
0.677473159580752
40
0.677473159580752
40
0.907965028805277
40
0.907965028805277
40
0.965587996111409
40
0.965587996111409
40
1
40
1
40
1
40
1
41
1
10
6.69004464041848
20
2.60723740155632
30
0
41
1
10
7.03310926331679
20
2.47701854314101
30
0
41
1
10
7.37681176796707
20
2.33437284943202
30
0
41
1
10
7.91888155669074
20
2.09299292782362
30
0
41
1
10
8.11657382330088
20
2.0015799340253
30
0
41
1
10
8.51089301628869
20
1.81345703483018
30
0
41
1
10
8.70736895040213
20
1.71687144241477
30
0
41
1
10
9.68733973372565
20
1.2230374648278
30
0
41
1
10
10.4631560898637
20
0.792414941697558
30
0
41
1
10
11.6355509101025
20
0.129439252444428
30
0
41
1
10
12.0279180133234
20
-0.0947075921831981
30
0
41
1
10
12.817972698229
20
-0.542407039151669
30
0
41
1
10
13.2099889990846
20
-0.762456279965107
30
0
41
1
10
14.3817950208179
20
-1.40318034010386
30
0
41
1
10
15.1576551304409
20
-1.80405903388052
30
0
41
1
10
16.1377110450881
20
-2.24471440374484
30
0
41
1
10
16.334202370311
20
-2.32986539441953
30
0
41
1
10
16.6492240890392
20
-2.46045418332014
30
0
41
1
10
16.7671186045303
20
-2.5079859262369
30
0
41
1
10
16.8848285340531
20
-2.55405650917399
30
0
0
SPLINE
5
B3
100
AcDbEntity
8
1
62
256
6
ByLayer
370
13
48
1
60
0
100
AcDbSpline
70
4
71
3
72
20
73
16
40
0
40
0
40
0
40
0
40
0.0386949995993484
40
0.0386949995993484
40
0.230821509555607
40
0.230821509555607
40
0.615074529468122
40
0.615074529468122
40
0.71113778444625
40
0.71113778444625
40
0.807201039424377
40
0.807201039424377
40
0.999327549380632
40
0.999327549380632
40
1
40
1
40
1
40
1
41
1
10
16.884828534079
20
-2.55405650918414
30
0
41
1
10
16.9642241100118
20
-2.58513120679598
30
0
41
1
10
17.0435357080288
20
-2.61554114548394
30
0
41
1
10
17.5156058282376
20
-2.79267254761476
30
0
41
1
10
17.9061028058551
20
-2.92324423559143
30
0
41
1
10
19.0757571050381
20
-3.25978556417141
30
0
41
1
10
19.8526782106351
20
-3.41096395326349
30
0
41
1
10
20.8375563715359
20
-3.49494086979547
30
0
41
1
10
21.035299995501
20
-3.50646167346176
30
0
41
1
10
21.4295342514336
20
-3.51869051893945
30
0
41
1
10
21.6264099793578
20
-3.51944155055932
30
0
41
1
10
22.2169294210678
20
-3.50557662474137
30
0
41
1
10
22.6107245311597
20
-3.47486813405433
30
0
41
1
10
23.0070157971123
20
-3.42278841687309
30
0
41
1
10
23.0083979861504
20
-3.42260651483676
30
0
41
1
10
23.0097801664662
20
-3.4224243561805
30
0
0
SPLINE
5
B4
100
AcDbEntity
8
1
62
256
6
ByLayer
370
18
48
1
60
0
100
AcDbSpline
70
4
71
3
72
65
73
61
40
0
40
0
40
0
40
0
40
0.0624999999999927
40
0.0624999999999927
40
0.124999999999985
40
0.124999999999985
40
0.249999999999971
40
0.249999999999971
40
0.374999999999956
40
0.374999999999956
40
0.499999999999942
40
0.499999999999942
40
0.624999999999927
40
0.624999999999927
40
0.640624999999927
40
0.648437499999926
40
0.648437499999926
40
0.652343749999926
40
0.652343749999926
40
0.656249999999926
40
0.656249999999926
40
0.660156249999926
40
0.660156249999926
40
0.664062499999927
40
0.664062499999927
40
0.671874999999928
40
0.671874999999928
40
0.687499999999933
40
0.687499999999933
40
0.703124999999937
40
0.703124999999937
40
0.718749999999942
40
0.718749999999942
40
0.734374999999946
40
0.734374999999946
40
0.742187499999948
40
0.742187499999948
40
0.74999999999995
40
0.74999999999995
40
0.765624999999953
40
0.765624999999953
40
0.773437499999954
40
0.773437499999954
40
0.781249999999956
40
0.781249999999956
40
0.796874999999959
40
0.796874999999959
40
0.812499999999961
40
0.812499999999961
40
0.828124999999964
40
0.828124999999964
40
0.843749999999967
40
0.843749999999967
40
0.874999999999973
40
0.874999999999973
40
0.90624999999998
40
0.90624999999998
40
0.937499999999986
40
0.937499999999986
40
1
40
1
40
1
40
1
41
1
10
12.1045524084412
20
-0.485587419411416
30
0
41
1
10
11.8389526387757
20
-0.332302942063848
30
0
41
1
10
11.5715979067977
20
-0.181558513356094
30
0
41
1
10
11.0327719375446
20
0.113611987119697
30
0
41
1
10
10.7606921209695
20
0.258329661860415
30
0
41
1
10
9.94177780778745
20
0.677625402967493
30
0
41
1
10
9.39296180941835
20
0.93698080918719
30
0
41
1
10
8.28090108383856
20
1.40196013275948
30
0
41
1
10
7.71756874998826
20
1.60737507911534
30
0
41
1
10
6.56901815698649
20
1.95624223444528
30
0
41
1
10
5.98378056557954
20
2.09975615418816
30
0
41
1
10
4.78715414987278
20
2.32502717433667
30
0
41
1
10
4.18111637523407
20
2.40600518784899
30
0
41
1
10
3.49406760498223
20
2.46453142410013
30
0
41
1
10
3.37944468605903
20
2.47360594283236
30
0
41
1
10
3.26464754728778
20
2.48166863355863
30
0
41
1
10
3.2072197638648
20
2.4855317669907
30
0
41
1
10
3.18807058824845
20
2.4867915536453
30
0
41
1
10
3.14977174079604
20
2.48925453005413
30
0
41
1
10
3.13062692221095
20
2.49017569999626
30
0
41
1
10
3.09240567383372
20
2.48741887098436
30
0
41
1
10
3.07319821368171
20
2.48383133698508
30
0
41
1
10
3.03932189628185
20
2.47115372807943
30
0
41
1
10
3.02244205705799
20
2.46470543871351
30
0
41
1
10
2.97198556765812
20
2.44501427303081
30
0
41
1
10
2.93860533744046
20
2.43142999878711
30
0
41
1
10
2.83956885254986
20
2.38926626950541
30
0
41
1
10
2.77491730496555
20
2.35925253153294
30
0
41
1
10
2.64894946968755
20
2.29445778716294
30
0
41
1
10
2.58762715823221
20
2.25968659302941
30
0
41
1
10
2.46920581268975
20
2.18393680561158
30
0
41
1
10
2.41258430537772
20
2.14322717994213
30
0
41
1
10
2.3070588663843
20
2.05556050932771
30
0
41
1
10
2.25795505636557
20
2.00850250358016
30
0
41
1
10
2.19135445038515
20
1.93153101402473
30
0
41
1
10
2.17033700405241
20
1.90480297626132
30
0
41
1
10
2.13105009601412
20
1.84882740656147
30
0
41
1
10
2.11278688681429
20
1.81952535669518
30
0
41
1
10
2.06402841030467
20
1.72962057880102
30
0
41
1
10
2.03902524965108
20
1.6663602685629
30
0
41
1
10
2.01434717672362
20
1.56559653910537
30
0
41
1
10
2.00833208680388
20
1.53113748653209
30
0
41
1
10
2.00092647837786
20
1.46212487680586
30
0
41
1
10
1.99947385740103
20
1.42734482330218
30
0
41
1
10
2.00155790643834
20
1.32218432467627
30
0
41
1
10
2.01181363107946
20
1.25019607959939
30
0
41
1
10
2.04634721109571
20
1.10989369091556
30
0
41
1
10
2.07044136898588
20
1.04110818779219
30
0
41
1
10
2.12927412473727
20
0.905563626825909
30
0
41
1
10
2.16416094609343
20
0.838719851022063
30
0
41
1
10
2.240290819336
20
0.710066516136123
30
0
41
1
10
2.28175972321105
20
0.647716535992117
30
0
41
1
10
2.41394760402773
20
0.465128045903953
30
0
41
1
10
2.51299768527315
20
0.348598852002425
30
0
41
1
10
2.7207927084261
20
0.126954704449872
30
0
41
1
10
2.82950731088801
20
0.021800730682429
30
0
41
1
10
3.05336430717122
20
-0.180903774351066
30
0
41
1
10
3.16854865657064
20
-0.278405479727724
30
0
41
1
10
3.5213159398161
20
-0.562331272989979
30
0
41
1
10
3.76673258896332
20
-0.740748821702795
30
0
41
1
10
4.01371152424983
20
-0.908568183434681
30
0
0
SPLINE
5
B5
100
AcDbEntity
8
1
62
256
6
ByLayer
370
18
48
1
60
0
100
AcDbSpline
70
4
71
3
72
12
73
8
40
0
40
0
40
0
40
0
40
0.250000000000001
40
0.250000000000001
40
0.500000000000002
40
0.500000000000002
40
1
40
1
40
1
40
1
41
1
10
41.7882447945489
20
-3.4983656772057
30
0
41
1
10
41.7932072948067
20
-3.48512113541898
30
0
41
1
10
41.7978500648312
20
-3.47156236063387
30
0
41
1
10
41.8051094256318
20
-3.44733106984711
30
0
41
1
10
41.8076950754762
20
-3.43669690999704
30
0
41
1
10
41.8114526221777
20
-3.41370885945275
30
0
41
1
10
41.8090743274263
20
-3.40963411394574
30
0
41
1
10
41.8043990076371
20
-3.41252178833162
30
0
0
SPLINE
5
B6
100
AcDbEntity
8
1
62
256
6
ByLayer
370
18
48
1
60
0
100
AcDbSpline
70
4
71
3
72
10
73
6
40
0
40
0
40
0
40
0
40
0.728872991076031
40
0.728872991076031
40
1
40
1
40
1
40
1
41
1
10
4.01358873360593
20
3.44632215419901
30
0
41
1
10
4.01359536443564
20
3.51009676682352
30
0
41
1
10
4.01359731949162
20
3.55089958160178
30
0
41
1
10
4.0135962923776
20
3.57430490918165
30
0
41
1
10
4.01359564653151
20
3.5774232513057
30
0
41
1
10
4.01359473807793
20
3.57730463052008
30
0
0
SPLINE
5
B7
100
AcDbEntity
8
1
62
256
6
ByLayer
370
18
48
1
60
0
100
AcDbSpline
70
4
71
3
72
22
73
18
40
0
40
0
40
0
40
0
40
0.124999999999997
40
0.124999999999997
40
0.187499999999996
40
0.187499999999996
40
0.249999999999995
40
0.249999999999995
40
0.499999999999996
40
0.499999999999996
40
0.624999999999997
40
0.624999999999997
40
0.749999999999998
40
0.749999999999998
40
0.874999999999999
40
0.874999999999999
40
1
40
1
40
1
40
1
41
1
10
41.7512389933315
20
-3.43094266810877
30
0
41
1
10
41.6993951211337
20
-3.43089506297707
30
0
41
1
10
41.6501440570989
20
-3.42301750013994
30
0
41
1
10
41.5803607012034
20
-3.39884008044171
30
0
41
1
10
41.5577836163715
20
-3.38871524366556
30
0
41
1
10
41.5140569451721
20
-3.36415470255358
30
0
41
1
10
41.4928771897996
20
-3.34967350318695
30
0
41
1
10
41.3921839019245
20
-3.26727153403013
30
0
41
1
10
41.3268003475581
20
-3.16929137085757
30
0
41
1
10
41.2529528308344
20
-2.97112439270089
30
0
41
1
10
41.2323488234301
20
-2.89573044901093
30
0
41
1
10
41.2010053440083
20
-2.73149786228228
30
0
41
1
10
41.1900639973577
20
-2.64241369086443
30
0
41
1
10
41.1775979215504
20
-2.45037465239298
30
0
41
1
10
41.176071776458
20
-2.34742187101548
30
0
41
1
10
41.1828459829175
20
-2.12704185985007
30
0
41
1
10
41.1911345708693
20
-2.01121189118993
30
0
41
1
10
41.2040686293532
20
-1.89127459147699
30
0
0
SPLINE
5
B8
100
AcDbEntity
8
1
62
256
6
ByLayer
370
18
48
1
60
0
100
AcDbSpline
70
4
71
3
72
16
73
12
40
0
40
0
40
0
40
0
40
0.249999999999978
40
0.249999999999978
40
0.499999999999957
40
0.499999999999957
40
0.624999999999947
40
0.624999999999947
40
0.749999999999937
40
0.749999999999937
40
1
40
1
40
1
40
1
41
1
10
41.4444204548759
20
0.766752114750318
30
0
41
1
10
41.4377112372671
20
0.796014852860452
30
0
41
1
10
41.4340969008028
20
0.826115058983959
30
0
41
1
10
41.4358310380107
20
0.888090180671355
30
0
41
1
10
41.4412710084281
20
0.9193644302797
30
0
41
1
10
41.459089402373
20
0.964175399617943
30
0
41
1
10
41.4664869327568
20
0.97831913687935
30
0
41
1
10
41.4846520932705
20
1.00475194109566
30
0
41
1
10
41.4954601110881
20
1.01712129902478
30
0
41
1
10
41.5315813295242
20
1.04853089738901
30
0
41
1
10
41.5617546485569
20
1.06215186283873
30
0
41
1
10
41.593077125373
20
1.06961258966544
30
0
0
SPLINE
5
B9
100
AcDbEntity
8
1
62
256
6
ByLayer
370
18
48
1
60
0
100
AcDbSpline
70
4
71
3
72
20
73
16
40
0
40
0
40
0
40
0
40
0.125
40
0.125
40
0.25
40
0.25
40
0.375
40
0.375
40
0.5
40
0.5
40
0.75
40
0.75
40
0.875
40
0.875
40
1
40
1
40
1
40
1
41
1
10
38.8378466612503
20
1.18628362133063
30
0
41
1
10
38.8788089526221
20
1.03254116211158
30
0
41
1
10
38.9324227591663
20
0.87960594378157
30
0
41
1
10
39.0614017075667
20
0.575123369919055
30
0
41
1
10
39.1375609424854
20
0.422470817037009
30
0
41
1
10
39.303365086289
20
0.128961621518357
30
0
41
1
10
39.3933865118455
20
-0.0131266951126747
30
0
41
1
10
39.5852348858084
20
-0.289565562960121
30
0
41
1
10
39.6874502929293
20
-0.42433904722725
30
0
41
1
10
40.0075142148645
20
-0.815391194146372
30
0
41
1
10
40.2340127742233
20
-1.05324265743056
30
0
41
1
10
40.5878886411872
20
-1.38541918591568
30
0
41
1
10
40.7082363291014
20
-1.49198469473217
30
0
41
1
10
40.953292535497
20
-1.69752234273454
30
0
41
1
10
41.0781608189691
20
-1.79657970781568
30
0
41
1
10
41.2040686293519
20
-1.89127459147579
30
0
0
SPLINE
5
BA
100
AcDbEntity
8
1
62
256
6
ByLayer
370
18
48
1
60
0
100
AcDbSpline
70
4
71
3
72
18
73
14
40
0
40
0
40
0
40
0
40
0.124999999999996
40
0.124999999999996
40
0.249999999999992
40
0.249999999999992
40
0.499999999999992
40
0.499999999999992
40
0.749999999999992
40
0.749999999999992
40
0.874999999999996
40
0.874999999999996
40
1
40
1
40
1
40
1
41
1
10
42.496992051411
20
1.78072021674797
30
0
41
1
10
42.4699632263322
20
1.85358965643616
30
0
41
1
10
42.4428709530649
20
1.92640827661666
30
0
41
1
10
42.3886371943212
20
2.07200609993049
30
0
41
1
10
42.3614530866913
20
2.1447511643924
30
0
41
1
10
42.2796056875102
20
2.36275001325473
30
0
41
1
10
42.2247218110853
20
2.50732965627009
30
0
41
1
10
42.1146686768941
20
2.79462213560942
30
0
41
1
10
42.0595717000276
20
2.9379552447713
30
0
41
1
10
41.9762504991898
20
3.1499497373718
30
0
41
1
10
41.9484180991149
20
3.22035366327017
30
0
41
1
10
41.8926444262861
20
3.36067733003406
30
0
41
1
10
41.8646837245769
20
3.43051066529785
30
0
41
1
10
41.8365578890497
20
3.4996096076575
30
0
0
SPLINE
5
BB
100
AcDbEntity
8
1
62
256
6
ByLayer
370
18
48
1
60
0
100
AcDbSpline
70
4
71
3
72
14
73
10
40
0
40
0
40
0
40
0
40
0.25
40
0.25
40
0.5
40
0.5
40
0.75
40
0.75
40
1
40
1
40
1
40
1
41
1
10
4.25050623388964
20
-0.926988264627653
30
0
41
1
10
4.22787493342719
20
-0.911708931074912
30
0
41
1
10
4.20480550870462
20
-0.898611493200832
30
0
41
1
10
4.15750908352709
20
-0.878181970886146
30
0
41
1
10
4.13391571394834
20
-0.871195065890561
30
0
41
1
10
4.08894903944162
20
-0.866298437902884
30
0
41
1
10
4.06872391150193
20
-0.86858437256609
30
0
41
1
10
4.0351066155915
20
-0.882575625664828
30
0
41
1
10
4.02224968061066
20
-0.894139405044882
30
0
41
1
10
4.01371152427663
20
-0.908568183452587
30
0
0
SPLINE
5
BC
100
AcDbEntity
8
1
62
256
6
ByLayer
370
18
48
1
60
0
100
AcDbSpline
70
4
71
3
72
28
73
24
40
0
40
0
40
0
40
0
40
0.127974048922864
40
0.127974048922864
40
0.183040031262068
40
0.183040031262068
40
0.238106013601272
40
0.238106013601272
40
0.348237978279679
40
0.348237978279679
40
0.568501907636497
40
0.568501907636497
40
0.623567889975701
40
0.623567889975701
40
0.678633872314905
40
0.678633872314905
40
0.788765836993313
40
0.788765836993313
40
0.898897801671721
40
0.898897801671721
40
0.953963784010925
40
0.953963784010925
40
1
40
1
40
1
40
1
41
1
10
26.3442464552327
20
2.51675752327537
30
0
41
1
10
26.7967509366228
20
2.33651709255415
30
0
41
1
10
27.2496851258391
20
2.1357775475135
30
0
41
1
10
27.9019696736822
20
1.82396429805127
30
0
41
1
10
28.0990896465789
20
1.72688139895755
30
0
41
1
10
28.4936762947928
20
1.52739941458839
30
0
41
1
10
28.6901899850293
20
1.42551122911837
30
0
41
1
10
29.2781675244716
20
1.11476110537239
30
0
41
1
10
29.6680153557136
20
0.900729374406467
30
0
41
1
10
30.8362386309352
20
0.247034725095091
30
0
41
1
10
31.6131730546944
20
-0.204456503453145
30
0
41
1
10
32.5994068664257
20
-0.757585660906585
30
0
41
1
10
32.7965593295897
20
-0.867185171133713
30
0
41
1
10
33.1888845602372
20
-1.08256839655402
30
0
41
1
10
33.3844064697034
20
-1.18851527669892
30
0
41
1
10
33.9698889468991
20
-1.49978077129487
30
0
41
1
10
34.3588309091169
20
-1.69842204098759
30
0
41
1
10
35.1367727235561
20
-2.07374178404322
30
0
41
1
10
35.5257886938443
20
-2.25040911522618
30
0
41
1
10
36.1120245991388
20
-2.49478427815978
30
0
41
1
10
36.3078846001889
20
-2.57281480813981
30
0
41
1
10
36.6687013158096
20
-2.7092139969262
30
0
41
1
10
36.8338059648271
20
-2.76880744010947
30
0
41
1
10
36.9984796500404
20
-2.82522526370767
30
0
0
SPLINE
5
BD
100
AcDbEntity
8
1
62
256
6
ByLayer
370
13
48
1
60
0
100
AcDbSpline
70
4
71
3
72
14
73
10
40
0
40
0
40
0
40
0
40
0.0200857009463651
40
0.0200857009463651
40
0.510042850473179
40
0.510042850473179
40
0.755021425236589
40
0.755021425236589
40
1
40
1
40
1
40
1
41
1
10
36.9984805955029
20
-2.82522558762665
30
0
41
1
10
37.0307801741313
20
-2.83629154241257
30
0
41
1
10
37.0630631726079
20
-2.84723532455879
30
0
41
1
10
37.8821773814437
20
-3.12190545312842
30
0
41
1
10
38.6579600663093
20
-3.31221916188423
30
0
41
1
10
39.8251018657397
20
-3.47602368055243
30
0
41
1
10
40.2147735781095
20
-3.51037863524618
30
0
41
1
10
40.9986913686068
20
-3.53666993549078
30
0
41
1
10
41.393928384185
20
-3.52835763900327
30
0
41
1
10
41.788244794551
20
-3.49836567720553
30
0
0
SPLINE
5
BE
100
AcDbEntity
8
1
62
256
6
ByLayer
370
18
48
1
60
0
100
AcDbSpline
70
4
71
3
72
8
73
4
40
0
40
0
40
0
40
0
40
1
40
1
40
1
40
1
41
1
10
41.8043990076379
20
-3.41252178833108
30
0
41
1
10
41.784537449647
20
-3.42478912293379
30
0
41
1
10
41.7668044944541
20
-3.43096646770977
30
0
41
1
10
41.7512389933347
20
-3.4309426681088
30
0
0
SPLINE
5
BF
100
AcDbEntity
8
1
62
256
6
ByLayer
370
18
48
1
60
0
100
AcDbSpline
70
4
71
3
72
14
73
10
40
0
40
0
40
0
40
0
40
0.142753820129349
40
0.142753820129349
40
0.286224919457401
40
0.286224919457401
40
0.860109316769611
40
0.860109316769611
40
1
40
1
40
1
40
1
41
1
10
21.853549891813
20
-3.41868437677823
30
0
41
1
10
21.6579075485131
20
-3.42013295363762
30
0
41
1
10
21.4622229390889
20
-3.41641632452681
30
0
41
1
10
21.0693889797895
20
-3.39865944971973
30
0
41
1
10
20.8718857212181
20
-3.3845196163293
30
0
41
1
10
19.8882818812934
20
-3.28841379353654
30
0
41
1
10
19.1117503322279
20
-3.13059143952981
30
0
41
1
10
18.1425377627583
20
-2.84718387804023
30
0
41
1
10
17.9524325131305
20
-2.78747476993775
30
0
41
1
10
17.7619818415428
20
-2.72377219695133
30
0
0
SPLINE
5
C0
100
AcDbEntity
8
1
62
256
6
ByLayer
370
13
48
1
60
0
100
AcDbSpline
70
4
71
3
72
24
73
20
40
0
40
0
40
0
40
0
40
0.0634450931721034
40
0.0634450931721034
40
0.125345520457983
40
0.125345520457983
40
0.187245947743863
40
0.187245947743863
40
0.43484765688738
40
0.43484765688738
40
0.558648511459139
40
0.558648511459139
40
0.682449366030897
40
0.682449366030897
40
0.930051075174414
40
0.930051075174414
40
0.991951502460292
40
0.991951502460292
40
1
40
1
40
1
40
1
41
1
10
17.7619808931585
20
-2.72377187973254
30
0
41
1
10
17.5617816006157
20
-2.65680854210777
30
0
41
1
10
17.3612006184066
20
-2.58543244869068
30
0
41
1
10
16.9637244226074
20
-2.43609333951804
30
0
41
1
10
16.766385871446
20
-2.35815218756218
30
0
41
1
10
16.3724122953455
20
-2.19553835436932
30
0
41
1
10
16.1761393929627
20
-2.11102906020321
30
0
41
1
10
15.1970724844757
20
-1.67449228861568
30
0
41
1
10
14.4215314265666
20
-1.28006052479853
30
0
41
1
10
13.2505350273533
20
-0.653270696000561
30
0
41
1
10
12.8588194519975
20
-0.438622227593953
30
0
41
1
10
12.0696553411954
20
-0.0031097120836137
30
0
41
1
10
11.6777642437733
20
0.214371693469189
30
0
41
1
10
10.506311398598
20
0.856262957661158
30
0
41
1
10
9.73084774286099
20
1.27127998481814
30
0
41
1
10
8.75169222341935
20
1.74420175448526
30
0
41
1
10
8.55538531107629
20
1.83651366940998
30
0
41
1
10
8.3328214869299
20
1.93793619886449
30
0
41
1
10
8.3072047187465
20
1.94956080136012
30
0
41
1
10
8.28158325275726
20
1.96113759378605
30
0
0
SPLINE
5
C1
100
AcDbEntity
8
1
62
256
6
ByLayer
370
18
48
1
60
0
100
AcDbSpline
70
4
71
3
72
36
73
32
40
0
40
0
40
0
40
0
40
0.104865461315976
40
0.104865461315976
40
0.209730922631952
40
0.209730922631952
40
0.262163653289941
40
0.262163653289941
40
0.314596383947928
40
0.314596383947928
40
0.419461845263905
40
0.419461845263905
40
0.471894575921892
40
0.471894575921892
40
0.524327306579879
40
0.524327306579879
40
0.576760037237866
40
0.576760037237866
40
0.629192767895853
40
0.629192767895853
40
0.734058229211828
40
0.734058229211828
40
0.786490959869814
40
0.786490959869814
40
0.8389236905278
40
0.8389236905278
40
0.891356421185787
40
0.891356421185787
40
0.943789151843773
40
0.943789151843773
40
1
40
1
40
1
40
1
41
1
10
12.1040683292079
20
-0.485285732164812
30
0
41
1
10
12.4162739619887
20
-0.666157593627275
30
0
41
1
10
12.7277428996879
20
-0.841757339202758
30
0
41
1
10
13.3475683713367
20
-1.18599092808029
30
0
41
1
10
13.6555301706057
20
-1.35515020352338
30
0
41
1
10
14.1186541102007
20
-1.59780824349866
30
0
41
1
10
14.2730449291986
20
-1.67715895220607
30
0
41
1
10
14.5815616786654
20
-1.83323187324018
30
0
41
1
10
14.7356555889366
20
-1.90999225930227
30
0
41
1
10
15.1986433258321
20
-2.13458251600628
30
0
41
1
10
15.5088111167839
20
-2.27596664452275
30
0
41
1
10
15.9755111252911
20
-2.47655916605203
30
0
41
1
10
16.1312345610667
20
-2.54178084857389
30
0
41
1
10
16.4436494854139
20
-2.66687841239286
30
0
41
1
10
16.5996188058712
20
-2.72641175306711
30
0
41
1
10
16.9108345709232
20
-2.83995507592329
30
0
41
1
10
17.0660725882606
20
-2.89397319410287
30
0
41
1
10
17.3755827734186
20
-2.9967402022582
30
0
41
1
10
17.529921149498
20
-3.04540066669819
30
0
41
1
10
17.992887662283
20
-3.18213053049232
30
0
41
1
10
18.301811812956
20
-3.26082755692966
30
0
41
1
10
18.764291982093
20
-3.36129553741509
30
0
41
1
10
18.9182011560973
20
-3.39185900432918
30
0
41
1
10
19.2270705548327
20
-3.44619836294581
30
0
41
1
10
19.3818759311064
20
-3.47009348781435
30
0
41
1
10
19.6919674361042
20
-3.51146303358678
30
0
41
1
10
19.8472039709493
20
-3.5289520644555
30
0
41
1
10
20.1581081707859
20
-3.55733779432131
30
0
41
1
10
20.314053657244
20
-3.56820175348349
30
0
41
1
10
20.6377554093095
20
-3.58350266155858
30
0
41
1
10
20.8048955062732
20
-3.58746347868043
30
0
41
1
10
20.9715577396524
20
-3.58751080083542
30
0
0
SPLINE
5
C2
100
AcDbEntity
8
1
62
256
6
ByLayer
370
18
48
1
60
0
100
AcDbSpline
70
4
71
3
72
26
73
22
40
0
40
0
40
0
40
0
40
0.0948819848654949
40
0.0948819848654949
40
0.245734987387909
40
0.245734987387909
40
0.396587989910324
40
0.396587989910324
40
0.472014491171532
40
0.472014491171532
40
0.547440992432739
40
0.547440992432739
40
0.698293994955159
40
0.698293994955159
40
0.77372049621637
40
0.77372049621637
40
0.84914699747758
40
0.84914699747758
40
0.92457349873879
40
0.92457349873879
40
1
40
1
40
1
40
1
41
1
10
35.6750422347872
20
2.60471062752472
30
0
41
1
10
35.8691568226991
20
2.68251870842192
30
0
41
1
10
36.0634475750541
20
2.75662505425592
30
0
41
1
10
36.5670616381126
20
2.93885644117731
30
0
41
1
10
36.8780709746396
20
3.03985841746805
30
0
41
1
10
37.5032467527881
20
3.21927454878963
30
0
41
1
10
37.8129318956263
20
3.2971247563251
30
0
41
1
10
38.2773311790953
20
3.39350277014103
30
0
41
1
10
38.4319452761391
20
3.42238770964167
30
0
41
1
10
38.7405159713532
20
3.47385821843213
30
0
41
1
10
38.8944151752702
20
3.49644986144716
30
0
41
1
10
39.3560930036422
20
3.55423059071859
30
0
41
1
10
39.6644907059724
20
3.57934510533357
30
0
41
1
10
40.1273664751889
20
3.59717758253692
30
0
41
1
10
40.2815202274085
20
3.59979105681359
30
0
41
1
10
40.5905777465497
20
3.5981686411607
30
0
41
1
10
40.7456560177861
20
3.59396459772253
30
0
41
1
10
41.0566372648398
20
3.57878353087494
30
0
41
1
10
41.2125606345066
20
3.56780609664642
30
0
41
1
10
41.5249045555989
20
3.53882928344805
30
0
41
1
10
41.6807056984884
20
3.52087765940823
30
0
41
1
10
41.836557889046
20
3.49960960765767
30
0
0
SPLINE
5
C3
100
AcDbEntity
8
1
62
256
6
ByLayer
370
18
48
1
60
0
100
AcDbSpline
70
4
71
3
72
8
73
4
40
0
40
0
40
0
40
0
40
1
40
1
40
1
40
1
41
1
10
41.7614293407801
20
3.56981881218945
30
0
41
1
10
41.4940080002229
20
3.58983550737341
30
0
41
1
10
41.2268426264875
20
3.59971956364279
30
0
41
1
10
40.9594439986162
20
3.59947743160333
30
0
0
SPLINE
5
C4
100
AcDbEntity
8
1
62
256
6
ByLayer
370
18
48
1
60
0
100
AcDbSpline
70
4
71
3
72
48
73
44
40
0
40
0
40
0
40
0
40
0.0235268406376118
40
0.0235268406376118
40
0.0845564130977607
40
0.0845564130977607
40
0.115071199327835
40
0.115071199327835
40
0.145585985557909
40
0.145585985557909
40
0.206615558018058
40
0.206615558018058
40
0.267645130478207
40
0.267645130478207
40
0.298159916708282
40
0.298159916708282
40
0.328674702938356
40
0.328674702938356
40
0.389704275398505
40
0.389704275398505
40
0.450733847858654
40
0.450733847858654
40
0.511763420318802
40
0.511763420318802
40
0.542278206548877
40
0.542278206548877
40
0.572792992778951
40
0.572792992778951
40
0.633822565239101
40
0.633822565239101
40
0.69485213769925
40
0.69485213769925
40
0.725366923929325
40
0.725366923929325
40
0.7558817101594
40
0.7558817101594
40
0.877940855079699
40
0.877940855079699
40
0.938970427539849
40
0.938970427539849
40
0.969485213769925
40
0.969485213769925
40
1
40
1
40
1
40
1
41
1
10
23.4092256936494
20
-3.42951626246727
30
0
41
1
10
23.2592693225109
20
-3.45512019695494
30
0
41
1
10
23.1092511810668
20
-3.47769848717658
30
0
41
1
10
22.5694964004767
20
-3.54775737562835
30
0
41
1
10
22.178857106552
20
-3.57757861094603
30
0
41
1
10
21.5885756305824
20
-3.58963776594206
30
0
41
1
10
21.3910978045104
20
-3.58818352213277
30
0
41
1
10
20.9974332248971
20
-3.57434683310837
30
0
41
1
10
20.8008464306042
20
-3.56197903454043
30
0
41
1
10
20.211120068411
20
-3.50872489014796
30
0
41
1
10
19.8175714233182
20
-3.45157782089393
30
0
41
1
10
19.0289493762085
20
-3.29570246261991
30
0
41
1
10
18.6361366704263
20
-3.19735946248747
30
0
41
1
10
18.0461457048598
20
-3.02171617676259
30
0
41
1
10
17.8493749229483
20
-2.95846829658831
30
0
41
1
10
17.4552535091067
20
-2.82284866885252
30
0
41
1
10
17.2579333582923
20
-2.75051069450157
30
0
41
1
10
16.6673278955361
20
-2.52194940286304
30
0
41
1
10
16.2745962276162
20
-2.35355434874376
30
0
41
1
10
15.4871936031193
20
-1.98976692130842
30
0
41
1
10
15.0924105940667
20
-1.79390069051985
30
0
41
1
10
14.3055828137853
20
-1.38455831743468
30
0
41
1
10
13.9127119056309
20
-1.17032706510184
30
0
41
1
10
13.3212798624318
20
-0.839303289876909
30
0
41
1
10
13.1240250315733
20
-0.727518541981652
30
0
41
1
10
12.7315025806792
20
-0.503119278887368
30
0
41
1
10
12.5358695287619
20
-0.390310894165083
30
0
41
1
10
11.950094635112
20
-0.0513939635956149
30
0
41
1
10
11.5610687900346
20
0.175192547472335
30
0
41
1
10
10.7825653867954
20
0.623649779114373
30
0
41
1
10
10.3932090467388
20
0.845730938186733
30
0
41
1
10
9.80623951551007
20
1.17077011183571
30
0
41
1
10
9.61007586813554
20
1.27773888424838
30
0
41
1
10
9.21629823847843
20
1.48815984533471
30
0
41
1
10
9.01870438751865
20
1.59158652849698
30
0
41
1
10
8.03663429863562
20
2.09295895243687
30
0
41
1
10
7.26138905467346
20
2.4479598242209
30
0
41
1
10
6.09203097935276
20
2.88336847895465
30
0
41
1
10
5.70150762881599
20
3.01272623078953
30
0
41
1
10
5.11151351993226
20
3.1792236032058
30
0
41
1
10
4.91391077210705
20
3.23016469972959
30
0
41
1
10
4.51935097949502
20
3.32178200151174
30
0
41
1
10
4.3221259274311
20
3.36254613410162
30
0
41
1
10
4.12475795222969
20
3.3981417498218
30
0
0
SPLINE
5
C5
100
AcDbEntity
8
1
62
256
6
ByLayer
370
18
48
1
60
0
100
AcDbSpline
70
4
71
3
72
22
73
18
40
0
40
0
40
0
40
0
40
0.249999999999995
40
0.249999999999995
40
0.499999999999989
40
0.499999999999989
40
0.624999999999972
40
0.624999999999972
40
0.687499999999977
40
0.687499999999977
40
0.749999999999981
40
0.749999999999981
40
0.812499999999986
40
0.812499999999986
40
0.87499999999999
40
0.87499999999999
40
1
40
1
40
1
40
1
41
1
10
41.5930771253812
20
1.06961258965038
30
0
41
1
10
41.6954932927882
20
1.09400718182127
30
0
41
1
10
41.7969624079868
20
1.12171222849852
30
0
41
1
10
41.9965704436995
20
1.18920410168837
30
0
41
1
10
42.0941762359494
20
1.22844261986595
30
0
41
1
10
42.2318429729033
20
1.30512568332347
30
0
41
1
10
42.2755324496878
20
1.33336855762835
30
0
41
1
10
42.3360360245301
20
1.38198518964265
30
0
41
1
10
42.3553554297836
20
1.39924581013381
30
0
41
1
10
42.3917983943064
20
1.43652635178341
30
0
41
1
10
42.409081384891
20
1.45677294432224
30
0
41
1
10
42.4398096357187
20
1.49974302803645
30
0
41
1
10
42.4532355635669
20
1.52237002702813
30
0
41
1
10
42.4756000067563
20
1.57030170828605
30
0
41
1
10
42.4845240370397
20
1.59581388261398
30
0
41
1
10
42.502871917058
20
1.673177496606
30
0
41
1
10
42.5041771605152
20
1.72789587451894
30
0
41
1
10
42.4969920514134
20
1.78072021674856
30
0
0
SPLINE
5
C6
100
AcDbEntity
8
1
62
256
6
ByLayer
370
18
48
1
60
0
100
AcDbSpline
70
4
71
3
72
16
73
12
40
0
40
0
40
0
40
0
40
0.25
40
0.25
40
0.5
40
0.5
40
0.75
40
0.75
40
0.875
40
0.875
40
1
40
1
40
1
40
1
41
1
10
7.42464481953016
20
-2.54536907658456
30
0
41
1
10
7.15343801735682
20
-2.44640394667997
30
0
41
1
10
6.88457706360441
20
-2.33859686463802
30
0
41
1
10
6.35029455987893
20
-2.10447140280866
30
0
41
1
10
6.08483847618825
20
-1.97833382614044
30
0
41
1
10
5.55623409565365
20
-1.71006251518807
30
0
41
1
10
5.29313866431011
20
-1.56737318180842
30
0
41
1
10
4.90025589825154
20
-1.33904550269034
30
0
41
1
10
4.76959703568238
20
-1.26051242724199
30
0
41
1
10
4.50899726869079
20
-1.09788293027464
30
0
41
1
10
4.37899300650699
20
-1.01373503634352
30
0
41
1
10
4.25050623577997
20
-0.926988265892646
30
0
0
SPLINE
5
C7
100
AcDbEntity
8
1
62
256
6
ByLayer
370
18
48
1
60
0
100
AcDbSpline
70
4
71
3
72
8
73
4
40
0
40
0
40
0
40
0
40
1
40
1
40
1
40
1
41
1
10
4.03814047742907
20
3.42330667028878
30
0
41
1
10
4.0226073720755
20
3.4304967674212
30
0
41
1
10
4.01358791657904
20
3.43846405168003
30
0
41
1
10
4.01358873360593
20
3.44632215419276
30
0
0
SPLINE
5
C8
100
AcDbEntity
8
1
62
256
6
ByLayer
370
18
48
1
60
0
100
AcDbSpline
70
4
71
3
72
14
73
10
40
0
40
0
40
0
40
0
40
0.13511226405268
40
0.13511226405268
40
0.406190197656285
40
0.406190197656285
40
0.948346064863504
40
0.948346064863504
40
1
40
1
40
1
40
1
41
1
10
41.2116075647578
20
-3.4306444895391
30
0
41
1
10
41.0153896185739
20
-3.43139390165177
30
0
41
1
10
40.8194741893316
20
-3.42694462490212
30
0
41
1
10
40.2328735938071
20
-3.39813613822019
30
0
41
1
10
39.8435444731601
20
-3.35841523111841
30
0
41
1
10
38.6771799563244
20
-3.18076439499302
30
0
41
1
10
37.9016384327246
20
-2.98419378379148
30
0
41
1
10
37.0404425730674
20
-2.69223152397811
30
0
41
1
10
36.9654116114609
20
-2.66618654463639
30
0
41
1
10
36.8903698578939
20
-2.63955400176903
30
0
0
SPLINE
5
C9
100
AcDbEntity
8
1
62
256
6
ByLayer
370
13
48
1
60
0
100
AcDbSpline
70
4
71
3
72
26
73
22
40
0
40
0
40
0
40
0
40
0.0399163701117293
40
0.0399163701117293
40
0.104412066851515
40
0.104412066851515
40
0.233403460331087
40
0.233403460331087
40
0.362394853810658
40
0.362394853810658
40
0.426890550550446
40
0.426890550550446
40
0.491386247290233
40
0.491386247290233
40
0.749369034249383
40
0.749369034249383
40
0.878360427728958
40
0.878360427728958
40
0.942856124468747
40
0.942856124468747
40
1
40
1
40
1
40
1
41
1
10
36.8903698579027
20
-2.6395540017721
30
0
41
1
10
36.7685034433169
20
-2.59630324660887
30
0
41
1
10
36.6466085669244
20
-2.55150290093545
30
0
41
1
10
36.3288841952734
20
-2.43093872489598
30
0
41
1
10
36.133237775442
20
-2.35294624067549
30
0
41
1
10
35.5475637903671
20
-2.10929803365556
30
0
41
1
10
35.1588265234816
20
-1.9339253463732
30
0
41
1
10
34.3813710016149
20
-1.5627658688621
30
0
41
1
10
33.992622190562
20
-1.36700369595056
30
0
41
1
10
33.4074556498559
20
-1.06132478285176
30
0
41
1
10
33.2120495843324
20
-0.957444443562366
30
0
41
1
10
32.8199887667568
20
-0.746606091519851
30
0
41
1
10
32.6229278370556
20
-0.639456916025125
30
0
41
1
10
31.6381713197736
20
-0.0999893254584947
30
0
41
1
10
30.8617239798238
20
0.338239631945925
30
0
41
1
10
29.6941936902064
20
0.969405529258751
30
0
41
1
10
29.3045486910225
20
1.17545059784035
30
0
41
1
10
28.7169877508952
20
1.47368080383413
30
0
41
1
10
28.5206310138082
20
1.57130518133701
30
0
41
1
10
28.1488680474253
20
1.75119438381449
30
0
41
1
10
27.9744959744954
20
1.83350190613589
30
0
41
1
10
27.8006849797232
20
1.913324511772
30
0
0
SPLINE
5
CA
100
AcDbEntity
8
1
62
256
6
ByLayer
370
18
48
1
60
0
100
AcDbSpline
70
4
71
3
72
8
73
4
40
0
40
0
40
0
40
0
40
1
40
1
40
1
40
1
41
1
10
41.7614293407801
20
-3.56981881218943
30
0
41
1
10
41.7703772639394
20
-3.54601435169863
30
0
41
1
10
41.7793159136252
20
-3.52219619220082
30
0
41
1
10
41.7882447945691
20
-3.49836567721346
30
0
0
SPLINE
5
CB
100
AcDbEntity
8
1
62
256
6
ByLayer
370
18
48
1
60
0
100
AcDbSpline
70
4
71
3
72
82
73
78
40
0
40
0
40
0
40
0
40
0.0325338758570108
40
0.0325338758570108
40
0.0739521305981482
40
0.0739521305981482
40
0.115370385339286
40
0.115370385339286
40
0.136079512709855
40
0.136079512709855
40
0.156788640080425
40
0.156788640080425
40
0.177497767450994
40
0.177497767450994
40
0.198206894821563
40
0.198206894821563
40
0.218916022192133
40
0.218916022192133
40
0.239625149562702
40
0.239625149562702
40
0.260334276933271
40
0.260334276933271
40
0.281043404303841
40
0.281043404303841
40
0.32246165904498
40
0.32246165904498
40
0.343170786415549
40
0.343170786415549
40
0.363879913786118
40
0.363879913786118
40
0.384589041156688
40
0.384589041156688
40
0.405298168527257
40
0.405298168527257
40
0.446716423268395
40
0.446716423268395
40
0.467425550638964
40
0.467425550638964
40
0.488134678009533
40
0.488134678009533
40
0.508843805380102
40
0.508843805380102
40
0.529552932750672
40
0.529552932750672
40
0.55026206012124
40
0.55026206012124
40
0.57097118749181
40
0.57097118749181
40
0.612389442232948
40
0.612389442232948
40
0.653807696974086
40
0.653807696974086
40
0.674516824344654
40
0.674516824344654
40
0.695225951715223
40
0.695225951715223
40
0.715935079085792
40
0.715935079085792
40
0.736644206456361
40
0.736644206456361
40
0.778062461197498
40
0.778062461197498
40
0.798771588568067
40
0.798771588568067
40
0.819480715938636
40
0.819480715938636
40
0.840189843309205
40
0.840189843309205
40
0.860898970679774
40
0.860898970679774
40
0.902317225420912
40
0.902317225420912
40
0.94373548016205
40
0.94373548016205
40
0.985153734903188
40
0.985153734903188
40
1
40
1
40
1
40
1
41
1
10
35.6744049166507
20
-2.60804138666853
30
0
41
1
10
35.4164527992801
20
-2.70058928590728
30
0
41
1
10
35.1585012935827
20
-2.7870457532724
30
0
41
1
10
34.5749021148102
20
-2.96494164402165
30
0
41
1
10
34.2498261749188
20
-3.05259706648371
30
0
41
1
10
33.6009817379997
20
-3.19832044428094
30
0
41
1
10
33.2765749042918
20
-3.25880517911881
30
0
41
1
10
32.7900772822092
20
-3.32930470058869
30
0
41
1
10
32.627970184502
20
-3.34923763295234
30
0
41
1
10
32.3029338852186
20
-3.38228280471478
30
0
41
1
10
32.1401162451854
20
-3.39562184803765
30
0
41
1
10
31.8139124689641
20
-3.41508235514451
30
0
41
1
10
31.6505648675581
20
-3.42085101659595
30
0
41
1
10
31.3229471204833
20
-3.42494587542936
30
0
41
1
10
31.1584691154964
20
-3.42383411813262
30
0
41
1
10
30.8299619005978
20
-3.41445585920428
30
0
41
1
10
30.6658632499782
20
-3.40616250362388
30
0
41
1
10
30.3379898318174
20
-3.38154956963859
30
0
41
1
10
30.1742993700007
20
-3.36555591166038
30
0
41
1
10
29.8467957970283
20
-3.32738807973664
30
0
41
1
10
29.6828977016373
20
-3.30496548957922
30
0
41
1
10
29.3547107828243
20
-3.25263550033077
30
0
41
1
10
29.1903477220997
20
-3.22244870305386
30
0
41
1
10
28.697368646282
20
-3.12268818123076
30
0
41
1
10
28.3707221855338
20
-3.04380539286734
30
0
41
1
10
27.8821602482735
20
-2.90617523667936
30
0
41
1
10
27.7195237284148
20
-2.85763149594911
30
0
41
1
10
27.3948498226202
20
-2.75464505512338
30
0
41
1
10
27.2327832932841
20
-2.70014480115432
30
0
41
1
10
26.9083664485224
20
-2.58564761093317
30
0
41
1
10
26.746089318459
20
-2.52558849064579
30
0
41
1
10
26.4214859426831
20
-2.4009591403231
30
0
41
1
10
26.2592310402145
20
-2.33598280199894
30
0
41
1
10
25.7718704056178
20
-2.13342014492665
30
0
41
1
10
25.4458327149452
20
-1.98864274139515
30
0
41
1
10
24.954398635966
20
-1.759421069372
30
0
41
1
10
24.7900414356769
20
-1.68030539449691
30
0
41
1
10
24.4615300055319
20
-1.518818813987
30
0
41
1
10
24.2973638256135
20
-1.43674297667619
30
0
41
1
10
23.9691420751699
20
-1.27020740498415
30
0
41
1
10
23.8051473622877
20
-1.18557938235583
30
0
41
1
10
23.4773822121085
20
-1.01331237785419
30
0
41
1
10
23.3135351728781
20
-0.925846671827884
30
0
41
1
10
22.985402361302
20
-0.749552038199738
30
0
41
1
10
22.8211226016865
20
-0.660690177658466
30
0
41
1
10
22.4920115321418
20
-0.481310535186083
30
0
41
1
10
22.3276347558255
20
-0.391077823830756
30
0
41
1
10
21.8355875973161
20
-0.118888799842949
30
0
41
1
10
21.5077699391952
20
0.0628252982045581
30
0
41
1
10
20.8515198539158
20
0.424822008309832
30
0
41
1
10
20.5226976259918
20
0.606182625545983
30
0
41
1
10
20.0299042146558
20
0.871213594668092
30
0
41
1
10
19.8657693033012
20
0.958482270313311
30
0
41
1
10
19.5377571765511
20
1.13119800864419
30
0
41
1
10
19.3740234159277
20
1.21689985417646
30
0
41
1
10
19.0462033085269
20
1.38489075139239
30
0
41
1
10
18.8821121936982
20
1.46702800776532
30
0
41
1
10
18.5535288686356
20
1.62858432445339
30
0
41
1
10
18.3889537364649
20
1.70812833666815
30
0
41
1
10
17.8960311234144
20
1.94144016378587
30
0
41
1
10
17.5683993879404
20
2.08742317577958
30
0
41
1
10
17.0764011826926
20
2.29389327929204
30
0
41
1
10
16.9123999692988
20
2.36064164018936
30
0
41
1
10
16.5845378635116
20
2.4885624004263
30
0
41
1
10
16.4203270361694
20
2.54950552374095
30
0
41
1
10
16.0912629715432
20
2.66678040071852
30
0
41
1
10
15.9271176398588
20
2.7226413199906
30
0
41
1
10
15.5999231493881
20
2.82828249934741
30
0
41
1
10
15.4369199607505
20
2.87756148536323
30
0
41
1
10
14.9484788407267
20
3.01659887709587
30
0
41
1
10
14.6234342668294
20
3.09803626703544
30
0
41
1
10
13.9744233101427
20
3.23137257469597
30
0
41
1
10
13.6503434973007
20
3.28616002244809
30
0
41
1
10
12.9997622386794
20
3.36601098654089
30
0
41
1
10
12.6741596885472
20
3.3929008124361
30
0
41
1
10
12.2291343974372
20
3.40975095182645
30
0
41
1
10
12.1113147460163
20
3.41230261796247
30
0
41
1
10
11.9934303438821
20
3.41302201613647
30
0
0
SPLINE
5
CC
100
AcDbEntity
8
1
62
256
6
ByLayer
370
18
48
1
60
0
100
AcDbSpline
70
4
71
3
72
32
73
28
40
0
40
0
40
0
40
0
40
0.111030919898903
40
0.111030919898903
40
0.166546379848354
40
0.166546379848354
40
0.222061839797805
40
0.222061839797805
40
0.333092759696706
40
0.333092759696706
40
0.444123679595607
40
0.444123679595607
40
0.499639139545058
40
0.499639139545058
40
0.555154599494509
40
0.555154599494509
40
0.66618551939341
40
0.66618551939341
40
0.777216439292311
40
0.777216439292311
40
0.888247359191211
40
0.888247359191211
40
0.943762819140661
40
0.943762819140661
40
0.99927827909011
40
0.99927827909011
40
1
40
1
40
1
40
1
41
1
10
7.42464993467806
20
-2.54543227152249
30
0
41
1
10
7.75338501366093
20
-2.66597687709657
30
0
41
1
10
8.08171317734846
20
-2.77493013733852
30
0
41
1
10
8.57321876018526
20
-2.92284689829793
30
0
41
1
10
8.73682205142072
20
-2.96946085304748
30
0
41
1
10
9.06465679787931
20
-3.05527469538291
30
0
41
1
10
9.22879350315901
20
-3.09461310253812
30
0
41
1
10
9.7218228140205
20
-3.20253517618195
30
0
41
1
10
10.0502714937477
20
-3.26084127172214
30
0
41
1
10
10.7060683644841
20
-3.35012579971235
30
0
41
1
10
11.0340190396708
20
-3.38258490737809
30
0
41
1
10
11.5260506257833
20
-3.40760384135433
30
0
41
1
10
11.6906860227033
20
-3.41204438283958
30
0
41
1
10
12.0192023878292
20
-3.41401172068439
30
0
41
1
10
12.1830009930285
20
-3.41149444723681
30
0
41
1
10
12.673030304009
20
-3.3929501059782
30
0
41
1
10
12.9979646469157
20
-3.36616718066796
30
0
41
1
10
13.6476636953907
20
-3.28655293152741
30
0
41
1
10
13.9715565790738
20
-3.23188317953085
30
0
41
1
10
14.6206050109359
20
-3.0986951915373
30
0
41
1
10
14.9459366115844
20
-3.01727628115629
30
0
41
1
10
15.4351201664902
20
-2.87809671698361
30
0
41
1
10
15.5984236510192
20
-2.82875287376623
30
0
41
1
10
15.9263629908034
20
-2.72289864712488
30
0
41
1
10
16.0911584934792
20
-2.66681459839879
30
0
41
1
10
16.2576483857457
20
-2.60748247378595
30
0
41
1
10
16.2597849890098
20
-2.60672064288136
30
0
41
1
10
16.2619215445372
20
-2.6059584194123
30
0
0
SPLINE
5
CD
100
AcDbEntity
8
1
62
256
6
ByLayer
370
18
48
1
60
0
100
AcDbSpline
70
4
71
3
72
28
73
24
40
0
40
0
40
0
40
0
40
0.0800885128077211
40
0.0800885128077211
40
0.145796476178598
40
0.145796476178598
40
0.211504439549474
40
0.211504439549474
40
0.342920366291227
40
0.342920366291227
40
0.47433629303298
40
0.47433629303298
40
0.605752219774733
40
0.605752219774733
40
0.671460183145611
40
0.671460183145611
40
0.73716814651649
40
0.73716814651649
40
0.868584073258247
40
0.868584073258247
40
0.934292036629123
40
0.934292036629123
40
1
40
1
40
1
40
1
41
1
10
31.3779787249937
20
3.42400214207282
30
0
41
1
10
31.577520304291
20
3.42326100320696
30
0
41
1
10
31.7764582193568
20
3.41727985956473
30
0
41
1
10
32.1379420767774
20
3.39578151221045
30
0
41
1
10
32.3006172817797
20
3.38248458921945
30
0
41
1
10
32.625445952943
20
3.34952749816321
30
0
41
1
10
32.7874897600852
20
3.32964201459581
30
0
41
1
10
33.2739249267967
20
3.25926359236408
30
0
41
1
10
33.5984642259535
20
3.19882260226237
30
0
41
1
10
34.2478841153601
20
3.05309604667278
30
0
41
1
10
34.573434951002
20
2.96536872975102
30
0
41
1
10
35.228448179601
20
2.76574425428492
30
0
41
1
10
35.5575665202572
20
2.6527071922022
30
0
41
1
10
36.049800147659
20
2.4699906407443
30
0
41
1
10
36.2137839941107
20
2.40666911035035
30
0
41
1
10
36.5415840845108
20
2.27436442206673
30
0
41
1
10
36.7053933122562
20
2.20534696720281
30
0
41
1
10
37.1972122325764
20
1.99132095424073
30
0
41
1
10
37.526711211309
20
1.83974059230584
30
0
41
1
10
38.0189016718167
20
1.60157259091955
30
0
41
1
10
38.1825781093726
20
1.52020355225193
30
0
41
1
10
38.5101612994238
20
1.3552035052727
30
0
41
1
10
38.6739927560478
20
1.27143194589385
30
0
41
1
10
38.8378466612505
20
1.18628362133091
30
0
0
SPLINE
5
CE
100
AcDbEntity
8
1
62
256
6
ByLayer
370
18
48
1
60
0
100
AcDbSpline
70
4
71
3
72
26
73
22
40
0
40
0
40
0
40
0
40
0.0192469110007206
40
0.0192469110007206
40
0.0946894563083577
40
0.0946894563083577
40
0.245574546923632
40
0.245574546923632
40
0.321017092231269
40
0.321017092231269
40
0.396459637538906
40
0.396459637538906
40
0.54734472815418
40
0.54734472815418
40
0.622787273461817
40
0.622787273461817
40
0.698229818769453
40
0.698229818769453
40
0.849114909384727
40
0.849114909384727
40
1
40
1
40
1
40
1
41
1
10
4.01359473471524
20
-3.57730417683055
30
0
41
1
10
4.01359442296555
20
-3.57726076111689
30
0
41
1
10
4.01359408034983
20
-3.57683669450196
30
0
41
1
10
4.01359226370678
20
-3.57287582538441
30
0
41
1
10
4.01359039704599
20
-3.56379193057452
30
0
41
1
10
4.01358437466322
20
-3.51891698469058
30
0
41
1
10
4.01357987949618
20
-3.46619043997725
30
0
41
1
10
4.01357509474155
20
-3.35387346412884
30
0
41
1
10
4.01357381890202
20
-3.3108559067802
30
0
41
1
10
4.01357229180374
20
-3.21332862605055
30
0
41
1
10
4.01357205237642
20
-3.15902453077589
30
0
41
1
10
4.01357330705696
20
-2.98244128535177
30
0
41
1
10
4.01357678040296
20
-2.84572039792116
30
0
41
1
10
4.01358684116224
20
-2.61198018822591
30
0
41
1
10
4.01359102829488
20
-2.52875470409174
30
0
41
1
10
4.01360087910535
20
-2.35558985188462
30
0
41
1
10
4.01360653904266
20
-2.26555795196219
30
0
41
1
10
4.01362551819116
20
-1.98535786128639
30
0
41
1
10
4.01364087004413
20
-1.78518606372302
30
0
41
1
10
4.01367519053235
20
-1.35698900012443
30
0
41
1
10
4.01369357474977
20
-1.13594132905109
30
0
41
1
10
4.01371152427618
20
-0.908568183452672
30
0
0
SPLINE
5
CF
100
AcDbEntity
8
1
62
256
6
ByLayer
370
18
48
1
60
0
100
AcDbSpline
70
4
71
3
72
84
73
80
40
0
40
0
40
0
40
0
40
0.0004048692653675
40
0.0004048692653675
40
0.0196830820432497
40
0.0196830820432497
40
0.0389612948211318
40
0.0389612948211318
40
0.058239507599014
40
0.058239507599014
40
0.0967959331547791
40
0.0967959331547791
40
0.116074145932662
40
0.116074145932662
40
0.135352358710544
40
0.135352358710544
40
0.154630571488427
40
0.154630571488427
40
0.173908784266309
40
0.173908784266309
40
0.212465209822074
40
0.212465209822074
40
0.231743422599956
40
0.231743422599956
40
0.251021635377838
40
0.251021635377838
40
0.289578060933602
40
0.289578060933602
40
0.328134486489367
40
0.328134486489367
40
0.366690912045131
40
0.366690912045131
40
0.405247337600896
40
0.405247337600896
40
0.424525550378778
40
0.424525550378778
40
0.44380376315666
40
0.44380376315666
40
0.482360188712426
40
0.482360188712426
40
0.501638401490309
40
0.501638401490309
40
0.520916614268191
40
0.520916614268191
40
0.540194827046074
40
0.540194827046074
40
0.559473039823957
40
0.559473039823957
40
0.598029465379723
40
0.598029465379723
40
0.617307678157606
40
0.617307678157606
40
0.636585890935489
40
0.636585890935489
40
0.655864103713371
40
0.655864103713371
40
0.675142316491254
40
0.675142316491254
40
0.71369874204702
40
0.71369874204702
40
0.732976954824903
40
0.732976954824903
40
0.752255167602786
40
0.752255167602786
40
0.79081159315855
40
0.79081159315855
40
0.829368018714315
40
0.829368018714315
40
0.867924444270079
40
0.867924444270079
40
0.906480869825843
40
0.906480869825843
40
0.925759082603726
40
0.925759082603726
40
0.945037295381608
40
0.945037295381608
40
0.983593720937373
40
0.983593720937373
40
1
40
1
40
1
40
1
41
1
10
16.2776009391496
20
2.60038526921989
30
0
41
1
10
16.2808810890497
20
2.60170122884975
30
0
41
1
10
16.2841614494023
20
2.60301601911891
30
0
41
1
10
16.4436494854125
20
2.66687841239232
30
0
41
1
10
16.5996188058697
20
2.72641175306654
30
0
41
1
10
16.9108345709217
20
2.83995507592275
30
0
41
1
10
17.066072588259
20
2.8939731941023
30
0
41
1
10
17.3755827734169
20
2.99674020225766
30
0
41
1
10
17.5299211494962
20
3.04540066669765
30
0
41
1
10
17.9928876622811
20
3.1821305304918
30
0
41
1
10
18.301811812954
20
3.26082755692917
30
0
41
1
10
18.7642919820908
20
3.36129553741463
30
0
41
1
10
18.9182011560951
20
3.39185900432875
30
0
41
1
10
19.2270705548304
20
3.44619836294544
30
0
41
1
10
19.3818759311041
20
3.47009348781401
30
0
41
1
10
19.6919674361017
20
3.51146303358647
30
0
41
1
10
19.8472039709468
20
3.52895206445521
30
0
41
1
10
20.1581081707832
20
3.55733779432111
30
0
41
1
10
20.3140536572413
20
3.56820175348332
30
0
41
1
10
20.7827210271349
20
3.59035497415272
30
0
41
1
10
21.0939854062545
20
3.59135656755561
30
0
41
1
10
21.5577606709721
20
3.57261901985166
30
0
41
1
10
21.7119869297692
20
3.56296065487649
30
0
41
1
10
22.020788785581
20
3.53716372526773
30
0
41
1
10
22.1751869069448
20
3.52100836644024
30
0
41
1
10
22.6379723419803
20
3.46270854531744
30
0
41
1
10
22.9453893040783
20
3.4103229848254
30
0
41
1
10
23.563277368128
20
3.28099428828372
30
0
41
1
10
23.8733475439806
20
3.20407781636729
30
0
41
1
10
24.4945513986979
20
3.02374478082263
30
0
41
1
10
24.808473597347
20
2.92182482214133
30
0
41
1
10
25.4301367926722
20
2.69756631827673
30
0
41
1
10
25.7386677489147
20
2.57430263403933
30
0
41
1
10
26.2019779180007
20
2.3778033794531
30
0
41
1
10
26.3563356362256
20
2.31018631345569
30
0
41
1
10
26.6646706962132
20
2.17041827594599
30
0
41
1
10
26.8185295383771
20
2.09809166245517
30
0
41
1
10
27.2803455547152
20
1.87533701047013
30
0
41
1
10
27.5896421902837
20
1.72086388679952
30
0
41
1
10
28.0540546335284
20
1.47761806999361
30
0
41
1
10
28.2089398493473
20
1.39458379747995
30
0
41
1
10
28.5196885941203
20
1.22587736514745
30
0
41
1
10
28.6757932437897
20
1.1402660367539
30
0
41
1
10
28.9884983417736
20
0.967156331469198
30
0
41
1
10
29.1443754704814
20
0.879880211423142
30
0
41
1
10
29.4550318207376
20
0.703623642636728
30
0
41
1
10
29.6096387314621
20
0.614339971029381
30
0
41
1
10
30.0735201395338
20
0.346945563827774
30
0
41
1
10
30.3826183623055
20
0.168864455066483
30
0
41
1
10
30.8446005359824
20
-0.100507647107605
30
0
41
1
10
30.9984148624745
20
-0.190500162154223
30
0
41
1
10
31.3064779691958
20
-0.369498563671101
30
0
41
1
10
31.4608035406882
20
-0.458370921260808
30
0
41
1
10
31.7697553007956
20
-0.635365866345978
30
0
41
1
10
31.924367360699
20
-0.723513003335
30
0
41
1
10
32.2337345979515
20
-0.899326550832058
30
0
41
1
10
32.3884309233964
20
-0.987094126479548
30
0
41
1
10
32.8547832537997
20
-1.24610940539816
30
0
41
1
10
33.1686761526614
20
-1.41504911049483
30
0
41
1
10
33.6342826644374
20
-1.65950202597924
30
0
41
1
10
33.7890374830479
20
-1.73938894532728
30
0
41
1
10
34.0984469379038
20
-1.89480826101996
30
0
41
1
10
34.2530869242715
20
-1.97038024658266
30
0
41
1
10
34.716259645838
20
-2.19160456627799
30
0
41
1
10
35.023418680785
20
-2.33253022634978
30
0
41
1
10
35.6399884955081
20
-2.59378495964873
30
0
41
1
10
35.9487394827419
20
-2.71511824122871
30
0
41
1
10
36.5670616381046
20
-2.93885644117458
30
0
41
1
10
36.8780709746314
20
-3.0398584174655
30
0
41
1
10
37.5032467527797
20
-3.21927454878744
30
0
41
1
10
37.812931895618
20
-3.29712475632314
30
0
41
1
10
38.2773311790868
20
-3.39350277013938
30
0
41
1
10
38.4319452761305
20
-3.42238770964013
30
0
41
1
10
38.7405159713446
20
-3.47385821843079
30
0
41
1
10
38.8944151752615
20
-3.49644986144597
30
0
41
1
10
39.3560930036334
20
-3.55423059071774
30
0
41
1
10
39.6644907059635
20
-3.57934510533295
30
0
41
1
10
40.1043811403374
20
-3.5962920631666
30
0
41
1
10
40.2355876587544
20
-3.59893846470109
30
0
41
1
10
40.3670104066196
20
-3.59911469248559
30
0
0
SPLINE
5
D0
100
AcDbEntity
8
1
62
256
6
ByLayer
370
18
48
1
60
0
100
AcDbSpline
70
4
71
3
72
34
73
30
40
0
40
0
40
0
40
0
40
0.125
40
0.125
40
0.25
40
0.25
40
0.5
40
0.5
40
0.625
40
0.625
40
0.6875
40
0.6875
40
0.75
40
0.75
40
0.78125
40
0.78125
40
0.8125
40
0.8125
40
0.84375
40
0.84375
40
0.875
40
0.875
40
0.90625
40
0.90625
40
0.9375
40
0.9375
40
0.96875
40
0.96875
40
1
40
1
40
1
40
1
41
1
10
38.8378466612505
20
1.18628362133091
30
0
41
1
10
38.9627302267646
20
1.09453260427856
30
0
41
1
10
39.0888634070667
20
1.0065650330867
30
0
41
1
10
39.3430658529074
20
0.841085237013914
30
0
41
1
10
39.4713995656964
20
0.763455162814665
30
0
41
1
10
39.8559690229903
20
0.550810270489819
30
0
41
1
10
40.1125572959721
20
0.435010682843057
30
0
41
1
10
40.497840936791
20
0.311242763088899
30
0
41
1
10
40.6266173933891
20
0.278450243069898
30
0
41
1
10
40.8156503990629
20
0.24482120425867
30
0
41
1
10
40.8781333731645
20
0.236146250576695
30
0
41
1
10
41.0019759324804
20
0.224189019492485
30
0
41
1
10
41.064034770092
20
0.219488155776134
30
0
41
1
10
41.152117436351
20
0.225528037003954
30
0
41
1
10
41.1807716347135
20
0.229402507492836
30
0
41
1
10
41.2363593917179
20
0.241683015165449
30
0
41
1
10
41.2632725201501
20
0.250085436722031
30
0
41
1
10
41.3133294860905
20
0.272471353172193
30
0
41
1
10
41.3365863139251
20
0.286562711075845
30
0
41
1
10
41.3787012386743
20
0.321941680841377
30
0
41
1
10
41.3975513199459
20
0.343289928057004
30
0
41
1
10
41.4283786540223
20
0.391871570902254
30
0
41
1
10
41.4406546215232
20
0.419583213628499
30
0
41
1
10
41.4582675922328
20
0.480575059486313
30
0
41
1
10
41.4635433571501
20
0.513153990334587
30
0
41
1
10
41.4679342594862
20
0.581946417864259
30
0
41
1
10
41.4669232524088
20
0.618339758328432
30
0
41
1
10
41.4594567981911
20
0.691671109807771
30
0
41
1
10
41.4530884928469
20
0.728945839881106
30
0
41
1
10
41.4444204548759
20
0.766752114750318
30
0
0
SPLINE
5
D1
100
AcDbEntity
8
1
62
256
6
ByLayer
370
18
48
1
60
0
100
AcDbSpline
70
4
71
3
72
79
73
75
40
0
40
0
40
0
40
0
40
0.0289761236834855
40
0.0289761236834855
40
0.101376577931734
40
0.101376577931734
40
0.137576805055858
40
0.137576805055858
40
0.173777032179982
40
0.173777032179982
40
0.24617748642823
40
0.24617748642823
40
0.282377713552354
40
0.282377713552354
40
0.318577940676477
40
0.318577940676477
40
0.390978394924726
40
0.390978394924726
40
0.463378849172973
40
0.463378849172973
40
0.464510106270602
40
0.464510106270602
40
0.464792920545009
40
0.464792920545009
40
0.465075734819417
40
0.465075734819417
40
0.465641363368231
40
0.465641363368231
40
0.467903877563489
40
0.467903877563489
40
0.472428905954004
40
0.472428905954004
40
0.481478962735034
40
0.481478962735034
40
0.499579076297095
40
0.499579076297095
40
0.535779303421215
40
0.535779303421215
40
0.608179757669457
40
0.608179757669457
40
0.680580211917699
40
0.680580211917699
40
0.71678043904182
40
0.71678043904182
40
0.72583049582285
40
0.72583049582285
40
0.730355524213365
40
0.730355524213365
40
0.732618038408623
40
0.732618038408623
40
0.733749295506251
40
0.733749295506251
40
0.734314924055066
40
0.734314924055066
40
0.734597738329473
40
0.734597738329473
40
0.73488055260388
40
0.752980666165941
40
0.752980666165941
40
0.789180893290062
40
0.789180893290062
40
0.825381120414183
40
0.825381120414183
40
0.861581347538304
40
0.861581347538304
40
0.897781574662425
40
0.897781574662425
40
0.933981801786546
40
0.933981801786546
40
0.952081915348606
40
0.952081915348606
40
0.970182028910667
40
0.970182028910667
40
1
40
1
40
1
40
1
41
1
10
12.1043067516988
20
-0.48540766934056
30
0
41
1
10
12.0077081713555
20
-0.436003012110575
30
0
41
1
10
11.9110792135996
20
-0.38772148379914
30
0
41
1
10
11.5727478672821
20
-0.223368099709518
30
0
41
1
10
11.3306727388247
20
-0.114132282390983
30
0
41
1
10
10.9646836265021
20
0.0315284074191027
30
0
41
1
10
10.8422394591307
20
0.0769752885686614
30
0
41
1
10
10.5994284602769
20
0.159490764243117
30
0
41
1
10
10.4786295874213
20
0.1967369259593
30
0
41
1
10
10.1173115533356
20
0.295375334504854
30
0
41
1
10
9.87790479274531
20
0.343610823278539
30
0
41
1
10
9.51723766385703
20
0.38636012040962
30
0
41
1
10
9.39674634541097
20
0.395690009472844
30
0
41
1
10
9.15451261048108
20
0.404113511549781
30
0
41
1
10
9.03326845276061
20
0.403150652023555
30
0
41
1
10
8.67231539992582
20
0.385223238826711
30
0
41
1
10
8.43367065460853
20
0.353307272534323
30
0
41
1
10
7.95479919395871
20
0.253325213425654
30
0
41
1
10
7.71422174958858
20
0.185138524700704
30
0
41
1
10
7.46736839108047
20
0.0995659211601208
30
0
41
1
10
7.46357057395363
20
0.0982456876196522
30
0
41
1
10
7.45882319977346
20
0.0965907438219915
30
0
41
1
10
7.45778637424985
20
0.096379059620574
30
0
41
1
10
7.45607599282602
20
0.0954580591654519
30
0
41
1
10
7.45703848241669
20
0.0942653720326518
30
0
41
1
10
7.45895687235301
20
0.0919824083189269
30
0
41
1
10
7.46053210649512
20
0.0906201638033792
30
0
41
1
10
7.46840199504734
20
0.0839369162482342
30
0
41
1
10
7.4752883030543
20
0.0790666931767419
30
0
41
1
10
7.49589825667519
20
0.0645139153763239
30
0
41
1
10
7.50997169030612
20
0.0551395341338718
30
0
41
1
10
7.55237867362339
20
0.0272103615623394
30
0
41
1
10
7.58098212136852
20
0.0089497556607796
30
0
41
1
10
7.6670594844698
20
-0.0455654083842205
30
0
41
1
10
7.72486758169285
20
-0.0814833425343977
30
0
41
1
10
7.89865091197089
20
-0.188911014946712
30
0
41
1
10
8.01506012489531
20
-0.260026806096363
30
0
41
1
10
8.36483900861091
20
-0.47317584841258
30
0
41
1
10
8.59864173286752
20
-0.615230828542906
30
0
41
1
10
9.06602002181631
20
-0.901258450706933
30
0
41
1
10
9.3000356805974
20
-1.04455134435952
30
0
41
1
10
9.64928204215974
20
-1.26323886322936
30
0
41
1
10
9.76557710207365
20
-1.3365012257517
30
0
41
1
10
9.90947592436575
20
-1.43067504101737
30
0
41
1
10
9.93818657759826
20
-1.44964897308796
30
0
41
1
10
9.98085369415679
20
-1.47872205510453
30
0
41
1
10
9.99501696446282
20
-1.48850115427902
30
0
41
1
10
10.0159520070223
20
-1.50362557436816
30
0
41
1
10
10.0228883478516
20
-1.50872890906368
30
0
41
1
10
10.0330325210318
20
-1.51676542360741
30
0
41
1
10
10.0363878562907
20
-1.51948248515507
30
0
41
1
10
10.0411382845486
20
-1.52397167618099
30
0
41
1
10
10.0429517905163
20
-1.52542661904587
30
0
41
1
10
10.0443272093414
20
-1.52859899810099
30
0
41
1
10
10.0431126005099
20
-1.52940364141534
30
0
41
1
10
10.0413082231563
20
-1.53080355525347
30
0
41
1
10
9.98266615369369
20
-1.57629010100331
30
0
41
1
10
9.92405907712268
20
-1.62106614231723
30
0
41
1
10
9.75096773192075
20
-1.75077041901355
30
0
41
1
10
9.63576358961785
20
-1.83371531262114
30
0
41
1
10
9.4056772591459
20
-1.9895328774173
30
0
41
1
10
9.29056372969328
20
-2.06258731630553
30
0
41
1
10
9.05818602544412
20
-2.19678243807124
30
0
41
1
10
8.94058243055559
20
-2.25799400922466
30
0
41
1
10
8.70576520763774
20
-2.36392130434666
30
0
41
1
10
8.58800934454794
20
-2.40897791574713
30
0
41
1
10
8.34977890553103
20
-2.48199985047285
30
0
41
1
10
8.22929721854294
20
-2.50995401443023
30
0
41
1
10
8.04513806682729
20
-2.53845626330428
30
0
41
1
10
7.98297041217558
20
-2.54573551035873
30
0
41
1
10
7.85856068120378
20
-2.55571889946955
30
0
41
1
10
7.79631950867491
20
-2.55844445999762
30
0
41
1
10
7.63125256046601
20
-2.56003990607437
30
0
41
1
10
7.52818921647085
20
-2.55526234687326
30
0
41
1
10
7.42463009140914
20
-2.54543038765311
30
0
0
SPLINE
5
D2
100
AcDbEntity
8
1
62
256
6
ByLayer
370
18
48
1
60
0
100
AcDbSpline
70
4
71
3
72
40
73
36
40
0
40
0
40
0
40
0
40
0.0582039774168894
40
0.0582039774168894
40
0.116407954833779
40
0.116407954833779
40
0.232815909667558
40
0.232815909667558
40
0.291019887084447
40
0.291019887084447
40
0.349223864501337
40
0.349223864501337
40
0.378325853209781
40
0.378325853209781
40
0.407427841918224
40
0.407427841918224
40
0.465631819335112
40
0.465631819335112
40
0.523835796752
40
0.523835796752
40
0.582039774168888
40
0.582039774168888
40
0.698447729002662
40
0.698447729002662
40
0.814855683836436
40
0.814855683836436
40
0.873059661253323
40
0.873059661253323
40
0.902161649961767
40
0.902161649961767
40
0.93126363867021
40
0.93126363867021
40
0.989467616087096
40
0.989467616087096
40
1
40
1
40
1
40
1
41
1
10
41.7614293407801
20
-3.56981881218943
30
0
41
1
10
41.3684093858349
20
-3.59923666127722
30
0
41
1
10
40.9761911785699
20
-3.60675021410478
30
0
41
1
10
40.1902560654677
20
-3.57817597792243
30
0
41
1
10
39.795597512426
20
-3.54177555089601
30
0
41
1
10
38.6221922312535
20
-3.37042732282106
30
0
41
1
10
37.8482825338367
20
-3.17373889349659
30
0
41
1
10
36.6794812446558
20
-2.7716715018733
30
0
41
1
10
36.2884120740304
20
-2.61972124821486
30
0
41
1
10
35.5004232877604
20
-2.2835751410885
30
0
41
1
10
35.1079532086989
20
-2.10124400383128
30
0
41
1
10
34.5187484681336
20
-1.81040209016109
30
0
41
1
10
34.3222575747776
20
-1.7105746677361
30
0
41
1
10
33.9287274785542
20
-1.5056870247009
30
0
41
1
10
33.7315360374603
20
-1.40051839767341
30
0
41
1
10
33.1415529541761
20
-1.07973014315479
30
0
41
1
10
32.7492983567192
20
-0.858616125992455
30
0
41
1
10
31.9630804738997
20
-0.408329301691879
30
0
41
1
10
31.56824262808
20
-0.178380594772051
30
0
41
1
10
30.7857263568768
20
0.277135864642276
30
0
41
1
10
30.396551096769
20
0.503170509839094
30
0
41
1
10
29.2302844436092
20
1.1676645770109
30
0
41
1
10
28.4543899527175
20
1.59239854372282
30
0
41
1
10
26.8778220678859
20
2.3578062783335
30
0
41
1
10
26.101759922511
20
2.68589675963344
30
0
41
1
10
24.9354740532996
20
3.07323410197429
30
0
41
1
10
24.5463842562938
20
3.18498625695699
30
0
41
1
10
23.9595555671073
20
3.32373020756415
30
0
41
1
10
23.7634103510173
20
3.36516342965507
30
0
41
1
10
23.369624437473
20
3.43794311278197
30
0
41
1
10
23.1725168011604
20
3.46917035908851
30
0
41
1
10
22.5826261795228
20
3.5466470356321
30
0
41
1
10
22.1901785054979
20
3.57692036986853
30
0
41
1
10
21.7255122423392
20
3.58691029365232
30
0
41
1
10
21.6542443870868
20
3.58772504342988
30
0
41
1
10
21.5829496594469
20
3.58782361180522
30
0
0
SPLINE
5
D3
100
AcDbEntity
8
1
62
256
6
ByLayer
370
18
48
1
60
0
100
AcDbSpline
70
4
71
3
72
18
73
14
40
0
40
0
40
0
40
0
40
0.124999999999996
40
0.124999999999996
40
0.249999999999992
40
0.249999999999992
40
0.499999999999992
40
0.499999999999992
40
0.749999999999992
40
0.749999999999992
40
0.874999999999996
40
0.874999999999996
40
1
40
1
40
1
40
1
41
1
10
42.496992051411
20
-1.78072021674794
30
0
41
1
10
42.4699632263322
20
-1.85358965643613
30
0
41
1
10
42.4428709530649
20
-1.92640827661666
30
0
41
1
10
42.3886371943212
20
-2.07200609993046
30
0
41
1
10
42.3614530866914
20
-2.14475116439238
30
0
41
1
10
42.2796056875103
20
-2.3627500132547
30
0
41
1
10
42.2247218110853
20
-2.50732965627009
30
0
41
1
10
42.1146686768941
20
-2.79462213560944
30
0
41
1
10
42.0595717000276
20
-2.9379552447713
30
0
41
1
10
41.9762504991897
20
-3.1499497373718
30
0
41
1
10
41.9484180991149
20
-3.22035366327017
30
0
41
1
10
41.892644426286
20
-3.36067733003406
30
0
41
1
10
41.8646837245769
20
-3.43051066529787
30
0
41
1
10
41.8365578890497
20
-3.49960960765753
30
0
0
LINE
5
76
100
AcDbEntity
8
81
62
256
6
ByLayer
370
18
48
1
60
0
100
AcDbLine
10
43
20
0
30
0
11
48
21
0
31
0
39
0
210
0
220
0
230
1
0
LINE
5
77
100
AcDbEntity
8
1
62
256
6
ByLayer
370
18
48
1
60
0
100
AcDbLine
10
4.01359
20
3.577306
30
0
11
1.085876
21
3.57555
31
0
39
0
210
0
220
0
230
1
0
LINE
5
79
100
AcDbEntity
8
1
62
256
6
ByLayer
370
18
48
1
60
0
100
AcDbLine
10
21.561489
20
3.587835
30
0
11
20.967793
21
3.587479
31
0
39
0
210
0
220
0
230
1
0
LINE
5
7A
100
AcDbEntity
8
1
62
256
6
ByLayer
370
18
48
1
60
0
100
AcDbLine
10
40.961904
20
3.599475
30
0
11
40.374991
21
3.599123
31
0
39
0
210
0
220
0
230
1
0
LINE
5
7B
100
AcDbEntity
8
1
62
256
6
ByLayer
370
18
48
1
60
0
100
AcDbLine
10
40.374991
20
-3.599123
30
0
11
40.96241
21
-3.599476
31
0
39
0
210
0
220
0
230
1
0
LINE
5
7C
100
AcDbEntity
8
1
62
256
6
ByLayer
370
18
48
1
60
0
100
AcDbLine
10
20.967793
20
-3.587479
30
0
11
21.561796
21
-3.587835
31
0
39
0
210
0
220
0
230
1
0
LINE
5
7D
100
AcDbEntity
8
1
62
256
6
ByLayer
370
18
48
1
60
0
100
AcDbLine
10
1.085876
20
-3.57555
30
0
11
4.01359
21
-3.577306
31
0
39
0
210
0
220
0
230
1
0
LINE
5
7E
100
AcDbEntity
8
SK1
62
256
6
ByLayer
370
18
48
1
60
0
100
AcDbLine
10
0
20
4
30
0
11
-35.133975
21
4
31
0
39
0
210
0
220
0
230
1
0
LINE
5
80
100
AcDbEntity
8
SK1
62
256
6
ByLayer
370
18
48
1
60
0
100
AcDbLine
10
-35.133975
20
-4
30
0
11
0
21
-4
31
0
39
0
210
0
220
0
230
1
0
LINE
5
81
100
AcDbEntity
8
SK1
62
256
6
ByLayer
370
18
48
1
60
0
100
AcDbLine
10
-35.133975
20
4
30
0
11
-36
21
2.5
31
0
39
0
210
0
220
0
230
1
0
LINE
5
82
100
AcDbEntity
8
SK1
62
256
6
ByLayer
370
18
48
1
60
0
100
AcDbLine
10
-36
20
-2.5
30
0
11
-35.133975
21
-4
31
0
39
0
210
0
220
0
230
1
0
LINE
5
83
100
AcDbEntity
8
SK4
62
256
6
ByLayer
370
18
48
0.05
60
0
100
AcDbLine
10
48
20
0
30
0
11
-41
21
0
31
0
39
0
210
0
220
0
230
1
0
LINE
5
85
100
AcDbEntity
8
4
62
256
6
ByLayer
370
18
48
0.05
60
0
100
AcDbLine
10
43
20
0
30
0
11
0
21
0
31
0
39
0
210
0
220
0
230
1
0
LINE
5
87
100
AcDbEntity
8
80
62
256
6
ByLayer
370
18
48
1
60
0
100
AcDbLine
10
0
20
0
30
0
11
-5
21
0
31
0
39
0
210
0
220
0
230
1
0
LINE
5
88
100
AcDbEntity
8
1
62
256
6
ByLayer
370
18
48
1
60
0
100
AcDbLine
10
0
20
-4
30
0
11
0
21
4
31
0
39
0
210
0
220
0
230
1
0
LINE
5
89
100
AcDbEntity
8
1
62
256
6
ByLayer
370
18
48
1
60
0
100
AcDbLine
10
4.25025
20
-3.408625
30
0
11
4.250247
21
-3.408365
31
0
39
0
210
0
220
0
230
1
0
LINE
5
8A
100
AcDbEntity
8
1
62
256
6
ByLayer
370
18
48
1
60
0
100
AcDbLine
10
42.923978
20
-0.286247
30
0
11
42.818409
21
-0.738739
31
0
39
0
210
0
220
0
230
1
0
LINE
5
8B
100
AcDbEntity
8
1
62
256
6
ByLayer
370
13
48
1
60
0
100
AcDbLine
10
42.16135
20
0.738739
30
0
11
42.923978
21
0.286247
31
0
39
0
210
0
220
0
230
1
0
LINE
5
8C
100
AcDbEntity
8
1
62
256
6
ByLayer
370
18
48
1
60
0
100
AcDbLine
10
42.923978
20
0.286247
30
0
11
42.818409
21
0.738739
31
0
39
0
210
0
220
0
230
1
0
LINE
5
8D
100
AcDbEntity
8
1
62
256
6
ByLayer
370
13
48
1
60
0
100
AcDbLine
10
1.085876
20
3.57555
30
0
11
1.085876
21
-3.57555
31
0
39
0
210
0
220
0
230
1
0
LINE
5
8E
100
AcDbEntity
8
1
62
256
6
ByLayer
370
18
48
1
60
0
100
AcDbLine
10
41.204069
20
-1.891275
30
0
11
42.894971
21
-0.14455
31
0
39
0
210
0
220
0
230
1
0
LINE
5
8F
100
AcDbEntity
8
1
62
256
6
ByLayer
370
13
48
1
60
0
100
AcDbLine
10
0.542698
20
3.787775
30
0
11
0.542698
21
-3.787775
31
0
39
0
210
0
220
0
230
1
0
LINE
5
90
100
AcDbEntity
8
1
62
256
6
ByLayer
370
18
48
1
60
0
100
AcDbLine
10
43
20
0
30
0
11
42.993532
21
-0.035862
31
0
39
0
210
0
220
0
230
1
0
LINE
5
91
100
AcDbEntity
8
1
62
256
6
ByLayer
370
13
48
1
60
0
100
AcDbLine
10
41.971443
20
0.40341
30
0
11
42.894971
21
-0.14455
31
0
39
0
210
0
220
0
230
1
0
LINE
5
92
100
AcDbEntity
8
1
62
256
6
ByLayer
370
13
48
1
60
0
100
AcDbLine
10
42.818409
20
0.738739
30
0
11
42.16135
21
0.738739
31
0
39
0
210
0
220
0
230
1
0
LINE
5
93
100
AcDbEntity
8
1
62
256
6
ByLayer
370
18
48
1
60
0
100
AcDbLine
10
42.993532
20
0.035862
30
0
11
43
21
0
31
0
39
0
210
0
220
0
230
1
0
LINE
5
94
100
AcDbEntity
8
1
62
256
6
ByLayer
370
13
48
1
60
0
100
AcDbLine
10
4.250263
20
3.400425
30
0
11
4.25025
21
3.408625
31
0
39
0
210
0
220
0
230
1
0
LINE
5
95
100
AcDbEntity
8
1
62
256
6
ByLayer
370
18
48
1
60
0
100
AcDbLine
10
4.25025
20
3.408625
30
0
11
4.250247
21
3.408365
31
0
39
0
210
0
220
0
230
1
0
LINE
5
96
100
AcDbEntity
8
1
62
256
6
ByLayer
370
18
48
1
60
0
100
AcDbLine
10
43
20
0
30
0
11
41.751239
21
-3.430943
31
0
39
0
210
0
220
0
230
1
0
LINE
5
97
100
AcDbEntity
8
SK1
62
256
6
ByLayer
370
18
48
1
60
0
100
AcDbLine
10
0
20
-4
30
0
11
0
21
4
31
0
39
0
210
0
220
0
230
1
0
LINE
5
98
100
AcDbEntity
8
SK1
62
256
6
ByLayer
370
18
48
1
60
0
100
AcDbLine
10
-35.133975
20
4
30
0
11
-35.133975
21
-4
31
0
39
0
210
0
220
0
230
1
0
LINE
5
99
100
AcDbEntity
8
SK1
62
256
6
ByLayer
370
18
48
1
60
0
100
AcDbLine
10
-36
20
2.5
30
0
11
-36
21
-2.5
31
0
39
0
210
0
220
0
230
1
0
MTEXT
5
D4
100
AcDbEntity
8
SK6
62
256
6
ByLayer
370
13
48
1
60
0
100
AcDbMText
10
5.629169
20
35.982694
30
0
210
0
220
0
230
1
1
\W0.7670;R840-0720-30-A0A1220
40
3.5
41
0
44
1.084337
50
0
71
8
72
5
7
iso_b_vert
0
DIMENSION
5
E1
100
AcDbEntity
8
SK2
62
256
6
ByLayer
370
13
48
1
60
0
100
AcDbDimension
2
DimnDraft3D1
10
41.78
20
-13.813398
30
0
11
19.530059
21
-13.813398
31
0
70
32
71
5
72
1
41
1
210
0
220
0
230
1
3
Standard
100
AcDbAlignedDimension
13
0
23
-1.5875
33
0
14
41.78
24
-5.1875
34
0
50
0
100
AcDbRotatedDimension
1001
ACAD
1000
DSTYLE
1002
{
1070
   279
1070
     0
1070
   172
1070
     1
1070
   173
1070
     1
1070
   340
1005
D5
1070
   271
1070
     2
1070
   272
1070
     2
1070
    77
1070
     1
1070
    73
1070
     0
1070
   171
1070
     3
1070
   274
1070
     4
1070
   177
1070
    35
1070
   176
1070
    35
1070
   178
1070
    35
1070
    48
1040
-0.005
1070
    41
1041
3.5
1070
   147
1041
1.75
1070
    42
1041
1.5875
1070
    44
1041
2.0
1070
   140
1041
3.5
1070
   343
1005
0
1070
   344
1005
0
1002
}
0
DIMENSION
5
EB
100
AcDbEntity
8
SK2
62
256
6
ByLayer
370
13
48
1
60
0
100
AcDbDimension
2
DimnDraft3D2
10
43
20
-32.692985
30
0
11
3.6213
21
-32.692985
31
0
70
32
71
5
72
1
41
1
210
0
220
0
230
1
3
Standard
100
AcDbAlignedDimension
13
-36
23
-5.5875
33
0
14
43
24
-1.5875
34
0
50
0
100
AcDbRotatedDimension
1001
ACAD
1000
DSTYLE
1002
{
1070
   279
1070
     0
1070
   172
1070
     1
1070
   173
1070
     1
1070
   340
1005
D5
1070
   271
1070
     2
1070
   272
1070
     2
1070
    77
1070
     1
1070
    73
1070
     0
1070
   171
1070
     3
1070
   274
1070
     4
1070
   177
1070
    35
1070
   176
1070
    35
1070
   178
1070
    35
1070
    48
1040
-0.005
1070
    41
1041
3.5
1070
   147
1041
1.75
1070
    42
1041
1.5875
1070
    44
1041
2.0
1070
   140
1041
3.5
1070
   343
1005
0
1070
   344
1005
0
1002
}
0
DIMENSION
5
F5
100
AcDbEntity
8
SK2
62
256
6
ByLayer
370
13
48
1
60
0
100
AcDbDimension
2
DimnDraft3D3
10
43
20
15.209119
30
0
11
31.59
21
15.209119
31
0
70
32
71
5
72
1
41
1
210
0
220
0
230
1
3
Standard
100
AcDbAlignedDimension
13
20.18
23
5.1875
33
0
14
43
24
1.5875
34
0
50
0
100
AcDbRotatedDimension
1001
ACAD
1000
DSTYLE
1002
{
1070
   279
1070
     0
1070
   172
1070
     1
1070
   173
1070
     1
1070
   340
1005
D5
1070
   271
1070
     2
1070
   272
1070
     2
1070
    77
1070
     1
1070
    73
1070
     0
1070
   171
1070
     3
1070
   274
1070
     4
1070
   177
1070
    35
1070
   176
1070
    35
1070
   178
1070
    35
1070
    48
1040
-0.005
1070
    41
1041
3.5
1070
   147
1041
1.75
1070
    42
1041
1.5875
1070
    44
1041
2.0
1070
   140
1041
3.5
1070
   343
1005
0
1070
   344
1005
0
1002
}
0
DIMENSION
5
FF
100
AcDbEntity
8
SK2
62
256
6
ByLayer
370
13
48
1
60
0
100
AcDbDimension
2
DimnDraft3D4
10
41.78
20
-16.402503
30
0
11
52.981425
21
-16.402503
31
0
70
32
71
5
72
1
41
1
210
0
220
0
230
1
3
Standard
100
AcDbAlignedDimension
13
43
23
-1.5875
33
0
14
41.78
24
-5.1875
34
0
50
0
100
AcDbRotatedDimension
1001
ACAD
1000
DSTYLE
1002
{
1070
   279
1070
     0
1070
   172
1070
     1
1070
   173
1070
     1
1070
   340
1005
D5
1070
   271
1070
     2
1070
   272
1070
     2
1070
    77
1070
     1
1070
    73
1070
     0
1070
   171
1070
     3
1070
   274
1070
     4
1070
   177
1070
    35
1070
   176
1070
    35
1070
   178
1070
    35
1070
    48
1040
-0.005
1070
    41
1041
3.5
1070
   147
1041
1.75
1070
    42
1041
1.5875
1070
    44
1041
2.0
1070
   140
1041
3.5
1070
   343
1005
0
1070
   344
1005
0
1002
}
0
DIMENSION
5
109
100
AcDbEntity
8
SK2
62
256
6
ByLayer
370
13
48
1
60
0
100
AcDbDimension
2
DimnDraft3D5
10
41.78
20
-22.343428
30
0
11
0.540676
21
-22.343428
31
0
70
32
71
5
72
1
41
1
210
0
220
0
230
1
3
Standard
100
AcDbAlignedDimension
13
-36
23
-5.5875
33
0
14
41.78
24
-5.1875
34
0
50
0
100
AcDbRotatedDimension
1001
ACAD
1000
DSTYLE
1002
{
1070
   279
1070
     0
1070
   172
1070
     1
1070
   173
1070
     1
1070
   340
1005
D5
1070
   271
1070
     2
1070
   272
1070
     2
1070
    77
1070
     1
1070
    73
1070
     0
1070
   171
1070
     3
1070
   274
1070
     4
1070
   177
1070
    35
1070
   176
1070
    35
1070
   178
1070
    35
1070
    48
1040
-0.005
1070
    41
1041
3.5
1070
   147
1041
1.75
1070
    42
1041
1.5875
1070
    44
1041
2.0
1070
   140
1041
3.5
1070
   343
1005
0
1070
   344
1005
0
1002
}
0
DIMENSION
5
114
100
AcDbEntity
8
SK2
62
256
6
ByLayer
370
13
48
1
60
0
100
AcDbDimension
2
DimnDraft3D6
10
-46.625163
20
4
30
0
11
-47.250163
21
22.47418
31
0
70
33
71
5
72
1
41
1
210
0
220
0
230
1
3
Standard
100
AcDbAlignedDimension
13
-37.5875
23
-4
33
0
14
-37.5875
24
4
34
0
1001
ACAD
1000
DSTYLE
1002
{
1070
   279
1070
     0
1070
    74
1070
     0
1070
   173
1070
     1
1070
   340
1005
D5
1070
   271
1070
     3
1070
   272
1070
     2
1070
    77
1070
     1
1070
    73
1070
     0
1070
   171
1070
     3
1070
   274
1070
     4
1070
   177
1070
    35
1070
   176
1070
    35
1070
   178
1070
    35
1070
    48
1040
-0.005
1070
    41
1041
3.5
1070
   147
1041
1.75
1070
    42
1041
1.5875
1070
    44
1041
2.0
1070
   140
1041
3.5
1070
   343
1005
0
1070
   344
1005
0
1002
}
0
DIMENSION
5
11F
100
AcDbEntity
8
2
62
256
6
ByLayer
370
13
48
1
60
0
100
AcDbDimension
2
DimnDraft3D7
10
57.083343
20
3.6
30
0
11
52.458343
21
20.667266
31
0
70
33
71
5
72
1
41
1
210
0
220
0
230
1
3
Standard
100
AcDbAlignedDimension
13
43.3675
23
-3.6
33
0
14
43.3675
24
3.6
34
0
1001
ACAD
1000
DSTYLE
1002
{
1070
   279
1070
     0
1070
    74
1070
     0
1070
   173
1070
     1
1070
   340
1005
D5
1070
   271
1070
     3
1070
   272
1070
     2
1070
    77
1070
     1
1070
    73
1070
     0
1070
   171
1070
     3
1070
   274
1070
     4
1070
   177
1070
    35
1070
   176
1070
    35
1070
   178
1070
    35
1070
    48
1040
-0.005
1070
    41
1041
3.5
1070
   147
1041
1.75
1070
    42
1041
1.5875
1070
    44
1041
2.0
1070
   140
1041
3.5
1070
   343
1005
0
1070
   344
1005
0
1002
}
0
ENDSEC
0
SECTION
2
OBJECTS
0
DICTIONARY
5
18a
330
0
100
AcDbDictionary
280
0
281
1
3
ACAD_GROUP
350
18b
3
ACAD_MLINESTYLE
350
18c
0
DICTIONARY
5
18b
330
0
100
AcDbDictionary
280
0
281
1
0
DICTIONARY
5
18c
330
0
100
AcDbDictionary
280
0
281
1
3
Standard
350
18
0
MLINESTYLE
5
18
330
18c
100
AcDbMlineStyle
2
Standard
70
0
3

62
256
51
90
52
90
71
2
49
-0.5
62
256
6
ByLayer
49
0.5
62
256
6
ByLayer
0
RASTERVARIABLES
5
178
330

100
AcDbRasterVariables
90
0
70
1
71
1
72
1
0
ENDSEC
0
EOF
