0
SECTION
2
HEADER
9
$ACADVER
1
AC1015
9
$DWGCODEPAGE
3
ANSI_1252
9
$HANDSEED
5
1a0
9
$ANGBASE
50
0
9
$ANGDIR
70
0
9
$ATTMODE
70
1
9
$AUNITS
70
0
9
$AUPREC
70
0
9
$CECOLOR
62
256
9
$CELTSCALE
40
1
9
$CELTYPE
6
ByLayer
9
$CELWEIGHT
370
18
9
$CLAYER
8
0
9
$CMLJUST
70
0
9
$CMLSCALE
40
1
9
$CMLSTYLE
2
Standard
9
$DIMSTYLE
2
Standard
9
$TEXTSIZE
40
0.2
9
$TEXTSTYLE
7
Standard
9
$LUNITS
70
2
9
$LUPREC
70
4
9
$EXTNAMES
290
1
9
$INSUNITS
70
4
9
$LTSCALE
40
1
9
$LWDISPLAY
290
1
9
$PDMODE
70
0
9
$PDSIZE
40
0
9
$PLINEGEN
70
0
0
ENDSEC
0
SECTION
2
CLASSES
0
CLASS
1
RASTERVARIABLES
2
AcDbRasterVariables
3
ISM
90
0
280
0
281
0
0
ENDSEC
0
SECTION
2
TABLES
0
TABLE
2
VPORT
5
196
100
AcDbSymbolTable
0
VPORT
5
1
100
AcDbSymbolTableRecord
100
AcDbViewportTableRecord
2
*Active
70
0
10
0
20
0
11
1
21
1
12
-1
22
1
13
0
23
0
14
0.5
24
0.5
15
10
25
10
16
0
26
0
36
1
17
0
27
0
37
0
0
ENDTAB
0
TABLE
2
LTYPE
5
197
100
AcDbSymbolTable
0
LTYPE
5
14
100
AcDbSymbolTableRecord
100
AcDbLinetypeTableRecord
70
0
2
ByBlock
3

72
65
73
0
40
0
0
LTYPE
5
15
100
AcDbSymbolTableRecord
100
AcDbLinetypeTableRecord
70
0
2
ByLayer
3

72
65
73
0
40
0
0
LTYPE
5
16
100
AcDbSymbolTableRecord
100
AcDbLinetypeTableRecord
70
0
2
CONTINUOUS
3
Solid line
72
65
73
0
40
0
0
LTYPE
5
6A
100
AcDbSymbolTableRecord
100
AcDbLinetypeTableRecord
70
0
2
CENTER
3
____ _ ____ _ ____ _ ____
72
65
73
4
40
47.5
49
22
74
0
49
-8.5
74
0
49
8.5
74
0
49
-8.5
74
0
0
LTYPE
5
6B
100
AcDbSymbolTableRecord
100
AcDbLinetypeTableRecord
70
0
2
DASHED
3
__ __ __ __ __ __ __ __ __
72
65
73
2
40
25.72
49
12.86
74
0
49
-12.86
74
0
0
ENDTAB
0
TABLE
2
LAYER
5
198
100
AcDbSymbolTable
0
LAYER
5
10
100
AcDbSymbolTableRecord
100
AcDbLayerTableRecord
2
0
70
0
62
7
6
CONTINUOUS
290
1
370
-3
390
0
0
LAYER
5
6D
100
AcDbSymbolTableRecord
100
AcDbLayerTableRecord
2
81
70
0
62
-3
6
CONTINUOUS
290
1
370
-3
390
0
0
LAYER
5
6F
100
AcDbSymbolTableRecord
100
AcDbLayerTableRecord
2
80
70
0
62
-6
6
CONTINUOUS
290
1
370
-3
390
0
0
LAYER
5
74
100
AcDbSymbolTableRecord
100
AcDbLayerTableRecord
2
2
70
0
62
7
6
CONTINUOUS
290
1
370
-3
390
0
0
LAYER
5
78
100
AcDbSymbolTableRecord
100
AcDbLayerTableRecord
2
1
70
0
62
4
6
CONTINUOUS
290
1
370
-3
390
0
0
LAYER
5
86
100
AcDbSymbolTableRecord
100
AcDbLayerTableRecord
2
4
70
0
62
-2
6
CENTER
290
1
370
-3
390
0
0
LAYER
5
182
100
AcDbSymbolTableRecord
100
AcDbLayerTableRecord
2
SK2
70
0
62
7
6
CONTINUOUS
290
1
370
-3
390
0
0
LAYER
5
183
100
AcDbSymbolTableRecord
100
AcDbLayerTableRecord
2
SK1
70
0
62
4
6
CONTINUOUS
290
1
370
-3
390
0
0
LAYER
5
184
100
AcDbSymbolTableRecord
100
AcDbLayerTableRecord
2
SK4
70
0
62
2
6
CENTER
290
1
370
-3
390
0
0
LAYER
5
185
100
AcDbSymbolTableRecord
100
AcDbLayerTableRecord
2
SK6
70
0
62
5
6
CONTINUOUS
290
1
370
-3
390
0
0
ENDTAB
0
TABLE
2
STYLE
5
199
100
AcDbSymbolTable
0
STYLE
5
11
100
AcDbSymbolTableRecord
100
AcDbTextStyleTableRecord
2
Standard
3
txt
70
0
71
0
40
0
41
1
42
0
50
0
0
STYLE
5
DE
100
AcDbSymbolTableRecord
100
AcDbTextStyleTableRecord
2
iso_b_vert
3
simplex.shx
70
0
71
0
40
0
41
1
42
0
50
0
0
STYLE
5
DF
100
AcDbSymbolTableRecord
100
AcDbTextStyleTableRecord
2
DWGDirectTextStyle
3
simplex
70
0
71
0
40
0
41
1
42
0
50
0
0
ENDTAB
0
TABLE
2
DIMSTYLE
5
19a
100
AcDbSymbolTable
100
AcDbDimStyleTable
0
DIMSTYLE
105
27
100
AcDbSymbolTableRecord
100
AcDbDimStyleTableRecord
2
Standard
70
0
3
<>
41
0.18
42
0.0625
44
0.18
140
0.18
147
0.09
73
0
74
0
77
1
271
2
275
0
278
52
280
0
340
11
0
ENDTAB
0
TABLE
2
VIEW
5
19b
100
AcDbSymbolTable
0
ENDTAB
0
TABLE
2
UCS
5
19c
100
AcDbSymbolTable
0
ENDTAB
0
TABLE
2
APPID
5
19d
100
AcDbSymbolTable
0
APPID
5
12
100
AcDbSymbolTableRecord
100
AcDbRegAppTableRecord
2
ACAD
70
0
0
ENDTAB
0
TABLE
2
BLOCK_RECORD
5
19e
100
AcDbSymbolTable
0
BLOCK_RECORD
5
1F
100
AcDbSymbolTableRecord
100
AcDbBlockTableRecord
2
*Model_Space
340
0
70
0
0
BLOCK_RECORD
5
1B
100
AcDbSymbolTableRecord
100
AcDbBlockTableRecord
2
*Paper_Space
340
0
70
0
0
BLOCK_RECORD
5
23
100
AcDbSymbolTableRecord
100
AcDbBlockTableRecord
2
*Paper_Space0
340
0
70
0
0
BLOCK_RECORD
5
E1
100
AcDbSymbolTableRecord
100
AcDbBlockTableRecord
2
DimnDraft3D1
340
0
70
0
0
BLOCK_RECORD
5
EB
100
AcDbSymbolTableRecord
100
AcDbBlockTableRecord
2
DimnDraft3D2
340
0
70
0
0
BLOCK_RECORD
5
F5
100
AcDbSymbolTableRecord
100
AcDbBlockTableRecord
2
DimnDraft3D3
340
0
70
0
0
BLOCK_RECORD
5
FF
100
AcDbSymbolTableRecord
100
AcDbBlockTableRecord
2
DimnDraft3D4
340
0
70
0
0
BLOCK_RECORD
5
109
100
AcDbSymbolTableRecord
100
AcDbBlockTableRecord
2
DimnDraft3D5
340
0
70
0
0
BLOCK_RECORD
5
113
100
AcDbSymbolTableRecord
100
AcDbBlockTableRecord
2
DimnDraft3D6
340
0
70
0
0
BLOCK_RECORD
5
11E
100
AcDbSymbolTableRecord
100
AcDbBlockTableRecord
2
DimnDraft3D7
340
0
70
0
0
ENDTAB
0
ENDSEC
0
SECTION
2
BLOCKS
0
BLOCK
5
20
100
AcDbEntity
8
0
100
AcDbBlockBegin
2
*Model_Space
70
0
10
0
20
0
30
0
3
*Model_Space
0
ENDBLK
5
21
100
AcDbEntity
8
0
100
AcDbBlockEnd
0
BLOCK
5
1C
100
AcDbEntity
8
0
100
AcDbBlockBegin
2
*Paper_Space
70
0
10
0
20
0
30
0
3
*Paper_Space
0
ENDBLK
5
1D
100
AcDbEntity
8
0
100
AcDbBlockEnd
0
BLOCK
5
24
100
AcDbEntity
8
0
100
AcDbBlockBegin
2
*Paper_Space0
70
0
10
0
20
0
30
0
3
*Paper_Space0
0
ENDBLK
5
25
100
AcDbEntity
8
0
100
AcDbBlockEnd
0
BLOCK
5
E8
100
AcDbEntity
8
0
100
AcDbBlockBegin
2
DimnDraft3D1
70
0
10
0
20
0
30
0
3
DimnDraft3D1
0
MTEXT
5
E2
100
AcDbEntity
8
SK2
62
256
6
ByLayer
370
13
48
1
60
0
100
AcDbMText
10
15.344664
20
-12.908398
30
0
210
0
220
0
230
1
1
\W0.7059;41,79
40
3.5
41
0
44
1.084337
50
0
71
7
72
5
7
iso_b_vert
0
LINE
5
E3
100
AcDbEntity
8
SK2
62
256
6
ByLayer
370
13
48
1
60
0
100
AcDbLine
10
0
20
-1.5875
30
0
11
0
21
-15.783398
31
0
39
0
210
0
220
0
230
1
0
LINE
5
E4
100
AcDbEntity
8
SK2
62
256
6
ByLayer
370
13
48
1
60
0
100
AcDbLine
10
41.79
20
-5.1575
30
0
11
41.79
21
-15.783398
31
0
39
0
210
0
220
0
230
1
0
LINE
5
E5
100
AcDbEntity
8
SK2
62
256
6
ByLayer
370
13
48
1
60
0
100
AcDbLine
10
0
20
-13.783398
30
0
11
41.79
21
-13.783398
31
0
39
0
210
0
220
0
230
1
0
SOLID
5
E6
100
AcDbEntity
8
SK2
62
256
6
ByLayer
370
13
48
1
60
0
100
AcDbTrace
10
0
20
-13.783398
30
0
11
3.499998
21
-13.322615
31
0
12
3.500002
22
-14.244182
32
0
13
0
23
-13.783398
33
0
39
0
210
0
220
0
230
1
0
SOLID
5
E7
100
AcDbEntity
8
SK2
62
256
6
ByLayer
370
13
48
1
60
0
100
AcDbTrace
10
41.79
20
-13.783398
30
0
11
38.290002
21
-14.244182
31
0
12
38.289998
22
-13.322615
32
0
13
41.79
23
-13.783398
33
0
39
0
210
0
220
0
230
1
0
ENDBLK
5
E9
100
AcDbEntity
8
0
100
AcDbBlockEnd
0
BLOCK
5
F2
100
AcDbEntity
8
0
100
AcDbBlockBegin
2
DimnDraft3D2
70
0
10
0
20
0
30
0
3
DimnDraft3D2
0
MTEXT
5
EC
100
AcDbEntity
8
SK2
62
256
6
ByLayer
370
13
48
1
60
0
100
AcDbMText
10
-0.817384
20
-31.817985
30
0
210
0
220
0
230
1
1
\W0.7317;79,00
40
3.5
41
0
44
1.084337
50
0
71
7
72
5
7
iso_b_vert
0
LINE
5
ED
100
AcDbEntity
8
SK2
62
256
6
ByLayer
370
13
48
1
60
0
100
AcDbLine
10
-36
20
-5.5875
30
0
11
-36
21
-34.692985
31
0
39
0
210
0
220
0
230
1
0
LINE
5
EE
100
AcDbEntity
8
SK2
62
256
6
ByLayer
370
13
48
1
60
0
100
AcDbLine
10
43
20
-1.5875
30
0
11
43
21
-34.692985
31
0
39
0
210
0
220
0
230
1
0
LINE
5
EF
100
AcDbEntity
8
SK2
62
256
6
ByLayer
370
13
48
1
60
0
100
AcDbLine
10
-36
20
-32.692985
30
0
11
43
21
-32.692985
31
0
39
0
210
0
220
0
230
1
0
SOLID
5
F0
100
AcDbEntity
8
SK2
62
256
6
ByLayer
370
13
48
1
60
0
100
AcDbTrace
10
-36
20
-32.692985
30
0
11
-32.500002
21
-32.232202
31
0
12
-32.499998
22
-33.153769
32
0
13
-36
23
-32.692985
33
0
39
0
210
0
220
0
230
1
0
SOLID
5
F1
100
AcDbEntity
8
SK2
62
256
6
ByLayer
370
13
48
1
60
0
100
AcDbTrace
10
43
20
-32.692985
30
0
11
39.500002
21
-33.153769
31
0
12
39.499998
22
-32.232202
32
0
13
43
23
-32.692985
33
0
39
0
210
0
220
0
230
1
0
ENDBLK
5
F3
100
AcDbEntity
8
0
100
AcDbBlockEnd
0
BLOCK
5
FC
100
AcDbEntity
8
0
100
AcDbBlockBegin
2
DimnDraft3D3
70
0
10
0
20
0
30
0
3
DimnDraft3D3
0
MTEXT
5
F6
100
AcDbEntity
8
SK2
62
256
6
ByLayer
370
13
48
1
60
0
100
AcDbMText
10
27.236316
20
16.054119
30
0
210
0
220
0
230
1
1
\W0.7317;22,63
40
3.5
41
0
44
1.084337
50
0
71
7
72
5
7
iso_b_vert
0
LINE
5
F7
100
AcDbEntity
8
SK2
62
256
6
ByLayer
370
13
48
1
60
0
100
AcDbLine
10
20.37
20
5.1575
30
0
11
20.37
21
17.179119
31
0
39
0
210
0
220
0
230
1
0
LINE
5
F8
100
AcDbEntity
8
SK2
62
256
6
ByLayer
370
13
48
1
60
0
100
AcDbLine
10
43
20
1.5875
30
0
11
43
21
17.179119
31
0
39
0
210
0
220
0
230
1
0
LINE
5
F9
100
AcDbEntity
8
SK2
62
256
6
ByLayer
370
13
48
1
60
0
100
AcDbLine
10
20.37
20
15.179119
30
0
11
43
21
15.179119
31
0
39
0
210
0
220
0
230
1
0
SOLID
5
FA
100
AcDbEntity
8
SK2
62
256
6
ByLayer
370
13
48
1
60
0
100
AcDbTrace
10
20.37
20
15.179119
30
0
11
23.869998
21
15.639903
31
0
12
23.870002
22
14.718335
32
0
13
20.37
23
15.179119
33
0
39
0
210
0
220
0
230
1
0
SOLID
5
FB
100
AcDbEntity
8
SK2
62
256
6
ByLayer
370
13
48
1
60
0
100
AcDbTrace
10
43
20
15.179119
30
0
11
39.500002
21
14.718335
31
0
12
39.499998
22
15.639903
32
0
13
43
23
15.179119
33
0
39
0
210
0
220
0
230
1
0
ENDBLK
5
FD
100
AcDbEntity
8
0
100
AcDbBlockEnd
0
BLOCK
5
106
100
AcDbEntity
8
0
100
AcDbBlockBegin
2
DimnDraft3D4
70
0
10
0
20
0
30
0
3
DimnDraft3D4
0
MTEXT
5
100
100
AcDbEntity
8
SK2
62
256
6
ByLayer
370
13
48
1
60
0
100
AcDbMText
10
50.715636
20
-15.497503
30
0
210
0
220
0
230
1
1
\W0.6132;1,21
40
3.5
41
0
44
1.084337
50
0
71
7
72
5
7
iso_b_vert
0
LINE
5
101
100
AcDbEntity
8
SK2
62
256
6
ByLayer
370
13
48
1
60
0
100
AcDbLine
10
43
20
-1.5875
30
0
11
43
21
-18.372503
31
0
39
0
210
0
220
0
230
1
0
LINE
5
102
100
AcDbEntity
8
SK2
62
256
6
ByLayer
370
13
48
1
60
0
100
AcDbLine
10
41.79
20
-5.1575
30
0
11
41.79
21
-18.372503
31
0
39
0
210
0
220
0
230
1
0
LINE
5
103
100
AcDbEntity
8
SK2
62
256
6
ByLayer
370
13
48
1
60
0
100
AcDbLine
10
33.04
20
-16.372503
30
0
11
56.122215
21
-16.372503
31
0
39
0
210
0
220
0
230
1
0
SOLID
5
104
100
AcDbEntity
8
SK2
62
256
6
ByLayer
370
13
48
1
60
0
100
AcDbTrace
10
43
20
-16.372503
30
0
11
46.499998
21
-15.911719
31
0
12
46.500002
22
-16.833287
32
0
13
43
23
-16.372503
33
0
39
0
210
0
220
0
230
1
0
SOLID
5
105
100
AcDbEntity
8
SK2
62
256
6
ByLayer
370
13
48
1
60
0
100
AcDbTrace
10
41.79
20
-16.372503
30
0
11
38.290002
21
-16.833287
31
0
12
38.289998
22
-15.911719
32
0
13
41.79
23
-16.372503
33
0
39
0
210
0
220
0
230
1
0
ENDBLK
5
107
100
AcDbEntity
8
0
100
AcDbBlockEnd
0
BLOCK
5
110
100
AcDbEntity
8
0
100
AcDbBlockBegin
2
DimnDraft3D5
70
0
10
0
20
0
30
0
3
DimnDraft3D5
0
MTEXT
5
10A
100
AcDbEntity
8
SK2
62
256
6
ByLayer
370
13
48
1
60
0
100
AcDbMText
10
-3.898008
20
-21.468428
30
0
210
0
220
0
230
1
1
\W0.7402;77,79
40
3.5
41
0
44
1.084337
50
0
71
7
72
5
7
iso_b_vert
0
LINE
5
10B
100
AcDbEntity
8
SK2
62
256
6
ByLayer
370
13
48
1
60
0
100
AcDbLine
10
-36
20
-5.5875
30
0
11
-36
21
-24.343428
31
0
39
0
210
0
220
0
230
1
0
LINE
5
10C
100
AcDbEntity
8
SK2
62
256
6
ByLayer
370
13
48
1
60
0
100
AcDbLine
10
41.79
20
-5.1575
30
0
11
41.79
21
-24.343428
31
0
39
0
210
0
220
0
230
1
0
LINE
5
10D
100
AcDbEntity
8
SK2
62
256
6
ByLayer
370
13
48
1
60
0
100
AcDbLine
10
-36
20
-22.343428
30
0
11
41.79
21
-22.343428
31
0
39
0
210
0
220
0
230
1
0
SOLID
5
10E
100
AcDbEntity
8
SK2
62
256
6
ByLayer
370
13
48
1
60
0
100
AcDbTrace
10
-36
20
-22.343428
30
0
11
-32.500002
21
-21.882645
31
0
12
-32.499998
22
-22.804212
32
0
13
-36
23
-22.343428
33
0
39
0
210
0
220
0
230
1
0
SOLID
5
10F
100
AcDbEntity
8
SK2
62
256
6
ByLayer
370
13
48
1
60
0
100
AcDbTrace
10
41.79
20
-22.343428
30
0
11
38.290002
21
-22.804212
31
0
12
38.289998
22
-21.882645
32
0
13
41.79
23
-22.343428
33
0
39
0
210
0
220
0
230
1
0
ENDBLK
5
111
100
AcDbEntity
8
0
100
AcDbBlockEnd
0
BLOCK
5
11B
100
AcDbEntity
8
0
100
AcDbBlockBegin
2
DimnDraft3D6
70
0
10
0
20
0
30
0
3
DimnDraft3D6
0
MTEXT
5
114
100
AcDbEntity
8
SK2
62
256
6
ByLayer
370
13
48
1
60
0
100
AcDbMText
10
-46.375163
20
23.34918
30
0
210
0
220
0
230
1
1
\W0.7317;8,000
40
3.5
41
0
44
1.084337
50
90
71
7
72
5
7
iso_b_vert
0
MTEXT
5
115
100
AcDbEntity
8
SK2
62
256
6
ByLayer
370
13
48
1
60
0
100
AcDbMText
10
-46.375163
20
18.126524
30
0
210
0
220
0
230
1
1
%%c
40
3.5
41
0
44
1.084337
50
90
71
7
72
5
7
iso_b_vert
0
LINE
5
116
100
AcDbEntity
8
SK2
62
256
6
ByLayer
370
13
48
1
60
0
100
AcDbLine
10
-37.5875
20
-4
30
0
11
-46.625163
21
-4
31
0
39
0
210
0
220
0
230
1
0
LINE
5
117
100
AcDbEntity
8
SK2
62
256
6
ByLayer
370
13
48
1
60
0
100
AcDbLine
10
-37.5875
20
4
30
0
11
-46.625163
21
4
31
0
39
0
210
0
220
0
230
1
0
LINE
5
118
100
AcDbEntity
8
SK2
62
256
6
ByLayer
370
13
48
1
60
0
100
AcDbLine
10
-44.625163
20
-4
30
0
11
-44.625163
21
33.121549
31
0
39
0
210
0
220
0
230
1
0
SOLID
5
119
100
AcDbEntity
8
SK2
62
256
6
ByLayer
370
13
48
1
60
0
100
AcDbTrace
10
-44.625163
20
-4
30
0
11
-45.085946
21
-0.500002
31
0
12
-44.164379
22
-0.499998
32
0
13
-44.625163
23
-4
33
0
39
0
210
0
220
0
230
1
0
SOLID
5
11A
100
AcDbEntity
8
SK2
62
256
6
ByLayer
370
13
48
1
60
0
100
AcDbTrace
10
-44.625163
20
4
30
0
11
-44.164379
21
0.500002
31
0
12
-45.085946
22
0.499998
32
0
13
-44.625163
23
4
33
0
39
0
210
0
220
0
230
1
0
ENDBLK
5
11C
100
AcDbEntity
8
0
100
AcDbBlockEnd
0
BLOCK
5
126
100
AcDbEntity
8
0
100
AcDbBlockBegin
2
DimnDraft3D7
70
0
10
0
20
0
30
0
3
DimnDraft3D7
0
MTEXT
5
11F
100
AcDbEntity
8
2
62
256
6
ByLayer
370
13
48
1
60
0
100
AcDbMText
10
53.333343
20
21.512266
30
0
210
0
220
0
230
1
1
\W0.6977;7,140
40
3.5
41
0
44
1.084337
50
90
71
7
72
5
7
iso_b_vert
0
MTEXT
5
120
100
AcDbEntity
8
2
62
256
6
ByLayer
370
13
48
1
60
0
100
AcDbMText
10
53.333343
20
16.28961
30
0
210
0
220
0
230
1
1
%%c
40
3.5
41
0
44
1.084337
50
90
71
7
72
5
7
iso_b_vert
0
LINE
5
121
100
AcDbEntity
8
2
62
256
6
ByLayer
370
13
48
1
60
0
100
AcDbLine
10
43.3775
20
-3.57
30
0
11
57.083343
21
-3.57
31
0
39
0
210
0
220
0
230
1
0
LINE
5
122
100
AcDbEntity
8
2
62
256
6
ByLayer
370
13
48
1
60
0
100
AcDbLine
10
43.3775
20
3.57
30
0
11
57.083343
21
3.57
31
0
39
0
210
0
220
0
230
1
0
LINE
5
123
100
AcDbEntity
8
2
62
256
6
ByLayer
370
13
48
1
60
0
100
AcDbLine
10
55.083343
20
-3.57
30
0
11
55.083343
21
30.778056
31
0
39
0
210
0
220
0
230
1
0
SOLID
5
124
100
AcDbEntity
8
2
62
256
6
ByLayer
370
13
48
1
60
0
100
AcDbTrace
10
55.083343
20
-3.57
30
0
11
54.622559
21
-0.070002
31
0
12
55.544126
22
-0.069998
32
0
13
55.083343
23
-3.57
33
0
39
0
210
0
220
0
230
1
0
SOLID
5
125
100
AcDbEntity
8
2
62
256
6
ByLayer
370
13
48
1
60
0
100
AcDbTrace
10
55.083343
20
3.57
30
0
11
55.544126
21
0.070002
31
0
12
54.622559
22
0.069998
32
0
13
55.083343
23
3.57
33
0
39
0
210
0
220
0
230
1
0
ENDBLK
5
127
100
AcDbEntity
8
0
100
AcDbBlockEnd
0
ENDSEC
0
SECTION
2
ENTITIES
0
ARC
5
9E
100
AcDbEntity
8
1
62
256
6
ByLayer
370
18
48
1
60
0
100
AcDbCircle
39
0
10
0
20
3.2
30
0
40
0.799999999999999
210
0
220
0
230
1
100
AcDbArc
50
45.723287
51
90
0
ARC
5
9F
100
AcDbEntity
8
1
62
256
6
ByLayer
370
18
48
1
60
0
100
AcDbCircle
39
0
10
0
20
-3.2
30
0
40
0.799999999999999
210
0
220
0
230
1
100
AcDbArc
50
270
51
314.276713
0
ARC
5
A0
100
AcDbEntity
8
1
62
256
6
ByLayer
370
18
48
1
60
0
100
AcDbCircle
39
0
10
-1.116999
20
-4.345562
30
0
40
0.799999999999999
210
0
220
0
230
-1
100
AcDbArc
50
45.723287
51
90.034377
0
ARC
5
A1
100
AcDbEntity
8
1
62
256
6
ByLayer
370
18
48
1
60
0
100
AcDbCircle
39
0
10
-1.116999
20
4.345562
30
0
40
0.799999999999999
210
0
220
0
230
-1
100
AcDbArc
50
269.965623
51
314.276713
0
ELLIPSE
5
A2
100
AcDbEntity
8
1
62
256
6
ByLayer
370
18
48
1
60
0
100
AcDbEllipse
10
4.25
20
3.629563
30
0
11
-0.25
21
3.06151588455594E-17
31
0
210
0
220
0
230
1
40
0.999929
41
0.368243895666667
42
1.57984271488205
0
ELLIPSE
5
A3
100
AcDbEntity
8
1
62
256
6
ByLayer
370
18
48
1
60
0
100
AcDbEllipse
10
4.25
20
-3.629563
30
0
11
-0.25
21
3.06151588455594E-17
31
0
210
0
220
0
230
1
40
0.999929
41
-1.56372346821245
42
-0.36391091201674
0
ELLIPSE
5
A4
100
AcDbEntity
8
1
62
256
6
ByLayer
370
13
48
1
60
0
100
AcDbEllipse
10
42.166472
20
0.523135
30
0
11
0.153082081612419
21
0.258003636193773
31
0
210
0
220
0
230
1
40
0.454519
41
0.917105603404884
42
2.31336900500021
0
ELLIPSE
5
A5
100
AcDbEntity
8
1
62
256
6
ByLayer
370
18
48
1
60
0
100
AcDbEllipse
10
42.860457
20
0.11137
30
0
11
0.0727819104880878
21
0.301917195739795
31
0
210
0
220
0
230
-1
40
0.478434
41
1.70806552376415
42
2.45976119974826
0
ELLIPSE
5
A6
100
AcDbEntity
8
1
62
256
6
ByLayer
370
18
48
1
60
0
100
AcDbEllipse
10
43.045881
20
0.001352
30
0
11
0.137979128878316
21
-0.428995648170321
31
0
210
0
220
0
230
-1
40
0.08774
41
1.67880799570352
42
2.32337572127958
0
ELLIPSE
5
A7
100
AcDbEntity
8
1
62
256
6
ByLayer
370
13
48
1
60
0
100
AcDbEllipse
10
42.47017
20
1.672305
30
0
11
2.06544951351484
21
-1.42212072395264
31
0
210
0
220
0
230
-1
40
0.533762
41
1.44484622739685
42
1.69780271273746
0
ELLIPSE
5
A8
100
AcDbEntity
8
1
62
256
6
ByLayer
370
18
48
1
60
0
100
AcDbEllipse
10
43.00032
20
-0.00078
30
0
11
1.31828938458045
21
-3.56746271855272
31
0
210
0
220
0
230
-1
40
0.115174
41
-2.96950262829606
42
-2.86213517536271
0
ELLIPSE
5
A9
100
AcDbEntity
8
1
62
256
6
ByLayer
370
18
48
1
60
0
100
AcDbEllipse
10
42.294789
20
1.795503
30
0
11
0.553574191381711
21
-1.49804384685376
31
0
210
0
220
0
230
-1
40
0.115174
41
-1.50948381443645
42
-0.742863466705881
0
ELLIPSE
5
AA
100
AcDbEntity
8
1
62
256
6
ByLayer
370
13
48
1
60
0
100
AcDbEllipse
10
42.660077
20
1.795503
30
0
11
2.13676620453567
21
-1.07607950636932
31
0
210
0
220
0
230
-1
40
0.48866
41
1.55573893185204
42
1.83076824909541
0
ELLIPSE
5
AB
100
AcDbEntity
8
1
62
256
6
ByLayer
370
18
48
1
60
0
100
AcDbEllipse
10
43.045881
20
-0.001352
30
0
11
0.137979128847606
21
0.428995648092541
31
0
210
0
220
0
230
-1
40
0.08774
41
-2.32337572124944
42
-1.67880799557431
0
ELLIPSE
5
AC
100
AcDbEntity
8
1
62
256
6
ByLayer
370
18
48
1
60
0
100
AcDbEllipse
10
42.294789
20
-1.795503
30
0
11
0.553574191405091
21
1.49804384690409
31
0
210
0
220
0
230
-1
40
0.115174
41
0.742863466705458
42
1.50948381441266
0
ELLIPSE
5
AD
100
AcDbEntity
8
1
62
256
6
ByLayer
370
18
48
1
60
0
100
AcDbEllipse
10
43.00032
20
0.00078
30
0
11
1.31828937433007
21
3.56746268833249
31
0
210
0
220
0
230
-1
40
0.115174
41
2.86213517416751
42
2.96950262756343
0
POINT
5
6C
100
AcDbEntity
8
81
62
256
6
ByLayer
370
18
48
1
60
0
100
AcDbPoint
10
43
20
0
30
0
39
0
210
0
220
0
230
1
50
360
0
POINT
5
6E
100
AcDbEntity
8
80
62
256
6
ByLayer
370
18
48
1
60
0
100
AcDbPoint
10
0
20
0
30
0
39
0
210
0
220
0
230
1
50
360
0
POINT
5
70
100
AcDbEntity
8
SK2
62
256
6
ByLayer
370
18
48
1
60
1
100
AcDbPoint
10
-36
20
-4
30
0
39
0
210
0
220
0
230
1
50
360
0
POINT
5
72
100
AcDbEntity
8
SK2
62
256
6
ByLayer
370
18
48
1
60
1
100
AcDbPoint
10
-36
20
4
30
0
39
0
210
0
220
0
230
1
50
360
0
POINT
5
73
100
AcDbEntity
8
2
62
256
6
ByLayer
370
18
48
1
60
1
100
AcDbPoint
10
41.79
20
-3.57
30
0
39
0
210
0
220
0
230
1
50
360
0
POINT
5
75
100
AcDbEntity
8
2
62
256
6
ByLayer
370
18
48
1
60
1
100
AcDbPoint
10
41.79
20
3.57
30
0
39
0
210
0
220
0
230
1
50
360
0
SPLINE
5
AE
100
AcDbEntity
8
1
62
256
6
ByLayer
370
18
48
1
60
0
100
AcDbSpline
70
4
71
3
72
29
73
25
40
0
40
0
40
0
40
0
40
0.0699296189486402
40
0.12006363751535
40
0.150586199611351
40
0.187840472412773
40
0.237715969345955
40
0.284524205058453
40
0.319543970679395
40
0.362718783178221
40
0.41315352955161
40
0.477868913316768
40
0.545002545329553
40
0.591052499644332
40
0.627989389453051
40
0.660878593941126
40
0.690480361748658
40
0.726471396028771
40
0.781231350855998
40
0.831221822162072
40
0.86532324933062
40
0.89985877386464
40
0.958547924349197
40
1
40
1
40
1
40
1
41
1
10
21.7751303508732
20
-3.39020329912268
30
0
41
1
10
21.9971978548005
20
-3.39034331314562
30
0
41
1
10
22.37846222527
20
-3.39055965935228
30
0
41
1
10
22.8566659140157
20
-3.39091369540131
30
0
41
1
10
23.2310564390382
20
-3.39099427312718
30
0
41
1
10
23.6046157059854
20
-3.39136543376949
30
0
41
1
10
24.0299585408753
20
-3.39159800858022
30
0
41
1
10
24.4481941740178
20
-3.39162460946804
30
0
41
1
10
24.8451056752831
20
-3.39225805096575
30
0
41
1
10
25.2535854188595
20
-3.3920381821363
30
0
41
1
10
25.756354933316
20
-3.39239827228741
30
0
41
1
10
26.3352146807651
20
-3.39257592565156
30
0
41
1
10
26.9001477680477
20
-3.39287302274428
30
0
41
1
10
27.3768619428416
20
-3.39347021527721
30
0
41
1
10
27.7448354833633
20
-3.39299658026917
30
0
41
1
10
28.0605731879716
20
-3.39344524019015
30
0
41
1
10
28.3732905536607
20
-3.39404632810107
30
0
41
1
10
28.7554722405164
20
-3.39372152667789
30
0
41
1
10
29.2024147149072
20
-3.39401505921265
30
0
41
1
10
29.6433447965428
20
-3.39486799614582
30
0
41
1
10
30.0200625194325
20
-3.39419166962722
30
0
41
1
10
30.4243617220535
20
-3.39476372902371
30
0
41
1
10
30.8520669286237
20
-3.39510568359307
30
0
41
1
10
31.1700410866823
20
-3.39540668191856
30
0
41
1
10
31.3016596285834
20
-3.39552301798938
30
0
0
SPLINE
5
AF
100
AcDbEntity
8
1
62
256
6
ByLayer
370
18
48
1
60
0
100
AcDbSpline
70
4
71
3
72
23
73
19
40
0
40
0
40
0
40
0
40
0.0531692018413223
40
0.135820195564881
40
0.202913670853649
40
0.25065743257314
40
0.308669945502409
40
0.3771439976535
40
0.467437349726873
40
0.535054641072357
40
0.589049855778108
40
0.656836761124754
40
0.72463158792098
40
0.760731809813515
40
0.800209698549952
40
0.858005743552899
40
0.934745284654738
40
1
40
1
40
1
40
1
41
1
10
11.9769542404236
20
3.38410335695337
30
0
41
1
10
11.8410695894888
20
3.38384634888411
30
0
41
1
10
11.4935601777911
20
3.38323945139928
30
0
41
1
10
10.9685097568512
20
3.38297272220615
30
0
41
1
10
10.4636000570531
20
3.38212184768929
30
0
41
1
10
10.0177013376828
20
3.38280482355273
30
0
41
1
10
9.56875335808815
20
3.38340862030284
30
0
41
1
10
9.00997334248902
20
3.38401360998125
30
0
41
1
10
8.42650163542692
20
3.3816160504995
30
0
41
1
10
7.88032579632062
20
3.38057313144671
30
0
41
1
10
7.39215963276806
20
3.38096903473206
30
0
41
1
10
6.90354516956165
20
3.38178127715975
30
0
41
1
10
6.46104452280042
20
3.38144750079084
30
0
41
1
10
6.09151001808453
20
3.38061423004757
30
0
41
1
10
5.74775039230013
20
3.380533862334
30
0
41
1
10
5.29931901012651
20
3.38006930203258
30
0
41
1
10
4.78433415009644
20
3.38015844186347
30
0
41
1
10
4.41840705841668
20
3.37984376740835
30
0
41
1
10
4.25024610502763
20
3.37968192763637
30
0
0
SPLINE
5
B0
100
AcDbEntity
8
1
62
256
6
ByLayer
370
18
48
1
60
0
100
AcDbSpline
70
4
71
3
72
12
73
8
40
0
40
0
40
0
40
0
40
0.0729090055658054
40
0.397395615925136
40
0.485409597357005
40
0.604065575613897
40
1
40
1
40
1
40
1
41
1
10
32.3465057993468
20
-0.967955327601828
30
0
41
1
10
32.3464979156151
20
-0.967955693969827
30
0
41
1
10
32.3498654033743
20
-0.969472722016832
30
0
41
1
10
32.3834812331662
20
-0.984851892957977
30
0
41
1
10
32.4569546332615
20
-1.01977612598392
30
0
41
1
10
32.5736464695745
20
-1.07710122798565
30
0
41
1
10
32.6895470966909
20
-1.13905241725658
30
0
41
1
10
32.7944039935806
20
-1.19714750796032
30
0
0
SPLINE
5
B1
100
AcDbEntity
8
1
62
256
6
ByLayer
370
18
48
1
60
0
100
AcDbSpline
70
4
71
3
72
24
73
20
40
0
40
0
40
0
40
0
40
0.0733027443736178
40
0.155954431323284
40
0.218154700525453
40
0.26897251601501
40
0.312779105875573
40
0.381828045414459
40
0.459856636835328
40
0.533576792351609
40
0.590774428592495
40
0.641406381641505
40
0.709185800400097
40
0.781762848381368
40
0.816768084763667
40
0.844330662733064
40
0.887835539331993
40
0.957010949406488
40
1
40
1
40
1
40
1
41
1
10
4.25023559252773
20
-3.37967600677081
30
0
41
1
10
4.4371375122555
20
-3.37984519066802
30
0
41
1
10
4.8347832858509
20
-3.38015965218804
30
0
41
1
10
5.39106278005738
20
-3.38018125592706
30
0
41
1
10
5.88998078089003
20
-3.38053258296435
30
0
41
1
10
6.28986399059727
20
-3.38098136005112
30
0
41
1
10
6.70722118556591
20
-3.38185190468226
30
0
41
1
10
7.19396048318816
20
-3.38132293456053
30
0
41
1
10
7.75698045334644
20
-3.38048495514508
30
0
41
1
10
8.28977358544012
20
-3.3811918294881
30
0
41
1
10
8.75270895414587
20
-3.38316077477333
30
0
41
1
10
9.20050018321689
20
-3.38380143531256
30
0
41
1
10
9.68750580856269
20
-3.38330680975179
30
0
41
1
10
10.1346611612506
20
-3.38254764008658
30
0
41
1
10
10.4792683273065
20
-3.38229389198091
30
0
41
1
10
10.7497004033736
20
-3.3826536161825
30
0
41
1
10
11.1073042436114
20
-3.38410201762323
30
0
41
1
10
11.5042681583591
20
-3.3843813404755
30
0
41
1
10
11.7902450974073
20
-3.3845122049434
30
0
41
1
10
11.899847566855
20
-3.38450257596733
30
0
0
SPLINE
5
B2
100
AcDbEntity
8
1
62
256
6
ByLayer
370
18
48
1
60
0
100
AcDbSpline
70
4
71
2
72
6
73
3
40
0
40
0
40
0
40
1
40
1
40
1
41
1
10
41.1929704258815
20
-3.40195023423797
30
0
41
1
10
41.4767257807964
20
-3.40109608922569
30
0
41
1
10
41.7600262634273
20
-3.40283378432477
30
0
0
SPLINE
5
B3
100
AcDbEntity
8
1
62
256
6
ByLayer
370
18
48
1
60
0
100
AcDbSpline
70
4
71
3
72
24
73
20
40
0
40
0
40
0
40
0
40
0.062345635345411
40
0.156716645444689
40
0.22921861714564
40
0.288111508744008
40
0.359768029974518
40
0.454883878479295
40
0.552015423476245
40
0.60651201771711
40
0.654422039642954
40
0.697496007687804
40
0.753618928996526
40
0.823239843923509
40
0.881034193287111
40
0.916061998866933
40
0.947207871076994
40
0.97621232762349
40
1
40
1
40
1
40
1
41
1
10
31.3612427399257
20
3.39533211751103
30
0
41
1
10
31.1974225534811
20
3.39497408032227
30
0
41
1
10
30.785560122938
20
3.39430516688964
30
0
41
1
10
30.1842885860667
20
3.39414073049289
30
0
41
1
10
29.5893675821447
20
3.39493182497745
30
0
41
1
10
29.0550039386536
20
3.39350039139563
30
0
41
1
10
28.4598419413048
20
3.39429380781132
30
0
41
1
10
27.7642744065789
20
3.392706492945
30
0
41
1
10
27.1137945840167
20
3.39346483276626
30
0
41
1
10
26.5878179404104
20
3.39236817582659
30
0
41
1
10
26.2042696854537
20
3.39268452498325
30
0
41
1
10
25.8170759923582
20
3.39235330113425
30
0
41
1
10
25.3718440175103
20
3.3918469845361
30
0
41
1
10
24.8882423162233
20
3.39232818344121
30
0
41
1
10
24.4601015935706
20
3.39165505290384
30
0
41
1
10
24.1333829629305
20
3.39158559879843
30
0
41
1
10
23.8822735595955
20
3.39158878718891
30
0
41
1
10
23.6627849517118
20
3.39120106562504
30
0
41
1
10
23.5239197985489
20
3.39094796501485
30
0
41
1
10
23.4612670109101
20
3.39084464521449
30
0
0
SPLINE
5
B4
100
AcDbEntity
8
1
62
256
6
ByLayer
370
18
48
1
60
0
100
AcDbSpline
70
4
71
3
72
84
73
80
40
0
40
0
40
0
40
0
40
0.0008479748189554
40
0.0008479748189554
40
0.020119130793272
40
0.020119130793272
40
0.0393902867675885
40
0.0393902867675885
40
0.0586614427419051
40
0.0586614427419051
40
0.0972037546905382
40
0.0972037546905382
40
0.116474910664855
40
0.116474910664855
40
0.135746066639172
40
0.135746066639172
40
0.174288378587806
40
0.174288378587806
40
0.212830690536441
40
0.212830690536441
40
0.232101846510758
40
0.232101846510758
40
0.251373002485075
40
0.251373002485075
40
0.289915314433709
40
0.289915314433709
40
0.328457626382344
40
0.328457626382344
40
0.366999938330978
40
0.366999938330978
40
0.405542250279613
40
0.405542250279613
40
0.42481340625393
40
0.42481340625393
40
0.444084562228247
40
0.444084562228247
40
0.482626874176883
40
0.482626874176883
40
0.501898030151202
40
0.501898030151202
40
0.52116918612552
40
0.52116918612552
40
0.540440342099839
40
0.540440342099839
40
0.559711498074157
40
0.559711498074157
40
0.598253810022794
40
0.598253810022794
40
0.617524965997113
40
0.617524965997113
40
0.636796121971431
40
0.636796121971431
40
0.65606727794575
40
0.65606727794575
40
0.675338433920068
40
0.675338433920068
40
0.713880745868705
40
0.713880745868705
40
0.733151901843024
40
0.733151901843024
40
0.752423057817342
40
0.752423057817342
40
0.790965369765981
40
0.790965369765981
40
0.829507681714619
40
0.829507681714619
40
0.848778837688938
40
0.848778837688938
40
0.868049993663258
40
0.868049993663258
40
0.906592305611897
40
0.906592305611897
40
0.925863461586216
40
0.925863461586216
40
0.945134617560536
40
0.945134617560536
40
0.983676929509174
40
0.983676929509174
40
1
40
1
40
1
40
1
41
1
10
16.2742670184789
20
2.57422403912659
30
0
41
1
10
16.2810916841539
20
2.57694478698434
30
0
41
1
10
16.2879167902089
20
2.57966035199885
30
0
41
1
10
16.4498610325633
20
2.64396511283448
30
0
41
1
10
16.6050058463437
20
2.70271414811569
30
0
41
1
10
16.9150788141715
20
2.8149568078328
30
0
41
1
10
17.0699984441787
20
2.86845893890225
30
0
41
1
10
17.3793690615478
20
2.9704124019629
30
0
41
1
10
17.5338880830527
20
3.01877716351223
30
0
41
1
10
17.9981584346726
20
3.15487029795537
30
0
41
1
10
18.309603839044
20
3.2335926539069
30
0
41
1
10
18.7743884660796
20
3.33366643709115
30
0
41
1
10
18.9288402849712
20
3.3640386287901
30
0
41
1
10
19.2383532400791
20
3.41793916749282
30
0
41
1
10
19.3932517975965
20
3.44159155562295
30
0
41
1
10
19.8579732026313
20
3.50292942491666
30
0
41
1
10
20.1675564414491
20
3.53112381897512
30
0
41
1
10
20.788110870488
20
3.56022187172567
30
0
41
1
10
21.0982856242041
20
3.5613600162774
30
0
41
1
10
21.5619736988153
20
3.54293602990015
30
0
41
1
10
21.7164406438783
20
3.53340163667662
30
0
41
1
10
22.0262501023765
20
3.50782033757369
30
0
41
1
10
22.1814136941611
20
3.49175744959248
30
0
41
1
10
22.6472715094157
20
3.433583828113
30
0
41
1
10
22.9564836823039
20
3.38121818839352
30
0
41
1
10
23.5757012746083
20
3.2525122508471
30
0
41
1
10
23.8855405075062
20
3.17610874689561
30
0
41
1
10
24.5045243796114
20
2.99773471579428
30
0
41
1
10
24.8156731614028
20
2.89759377138316
30
0
41
1
10
25.4350004130757
20
2.67610640539891
30
0
41
1
10
25.7434902244831
20
2.55400533062982
30
0
41
1
10
26.2084165813382
20
2.35854370676608
30
0
41
1
10
26.3635851569632
20
2.29115318343162
30
0
41
1
10
26.6740924807991
20
2.1515504962849
30
0
41
1
10
26.8288972262236
20
2.07931610467088
30
0
41
1
10
27.2929393908625
20
1.85736129474552
30
0
41
1
10
27.6029006545231
20
1.70377850256574
30
0
41
1
10
28.0670431549188
20
1.46252703089075
30
0
41
1
10
28.2216427284897
20
1.38029887727313
30
0
41
1
10
28.5314305554186
20
1.21349783253709
30
0
41
1
10
28.6868146572335
20
1.12901180475257
30
0
41
1
10
28.9971030308151
20
0.958667514199277
30
0
41
1
10
29.1520668244761
20
0.872620432131413
30
0
41
1
10
29.4614795829513
20
0.698509570917565
30
0
41
1
10
29.6157587522318
20
0.61015040997404
30
0
41
1
10
30.0796036176227
20
0.345081687728509
30
0
41
1
10
30.3899891705814
20
0.167745060031052
30
0
41
1
10
30.8551775367028
20
-0.101284449293758
30
0
41
1
10
31.0098795785145
20
-0.191039847720447
30
0
41
1
10
31.3193691867161
20
-0.369305047412951
30
0
41
1
10
31.4742273390886
20
-0.457695997862658
30
0
41
1
10
31.7838443030724
20
-0.633574307188383
30
0
41
1
10
31.9385985984785
20
-0.721068775744754
30
0
41
1
10
32.2478590909843
20
-0.895389067522814
30
0
41
1
10
32.4023432249127
20
-0.982246747669137
30
0
41
1
10
32.8675109343746
20
-1.23828019600728
30
0
41
1
10
33.1782039728797
20
-1.40411859040691
30
0
41
1
10
33.6418353340831
20
-1.64552241375983
30
0
41
1
10
33.7962575062224
20
-1.72456958101415
30
0
41
1
10
34.1056461546903
20
-1.8786450792754
30
0
41
1
10
34.2605798449986
20
-1.95373469527297
30
0
41
1
10
34.7255464003807
20
-2.17397987858462
30
0
41
1
10
35.0353433606654
20
-2.31490299391473
30
0
41
1
10
35.6546655216644
20
-2.57484787501252
30
0
41
1
10
35.9640555407576
20
-2.69532411457146
30
0
41
1
10
36.4278168930355
20
-2.86148284511654
30
0
41
1
10
36.5825456869466
20
-2.91421334473134
30
0
41
1
10
36.8928764756606
20
-3.01379817555866
30
0
41
1
10
37.0482313839186
20
-3.06072192652675
30
0
41
1
10
37.5130101071056
20
-3.19285416960278
30
0
41
1
10
37.8213214973638
20
-3.26974119653556
30
0
41
1
10
38.2856732174623
20
-3.36527637717378
30
0
41
1
10
38.4405935007629
20
-3.39398134954251
30
0
41
1
10
38.7504111282727
20
-3.44520994062484
30
0
41
1
10
38.9054228491011
20
-3.46775011393066
30
0
41
1
10
39.3699978675894
20
-3.52522722784835
30
0
41
1
10
39.6798009270287
20
-3.55001472669505
30
0
41
1
10
40.120180114229
20
-3.56651309936265
30
0
41
1
10
40.2509773841934
20
-3.5690323824154
30
0
41
1
10
40.3819294383646
20
-3.56912014026426
30
0
0
SPLINE
5
B5
100
AcDbEntity
8
1
62
256
6
ByLayer
370
18
48
1
60
0
100
AcDbSpline
70
4
71
3
72
16
73
12
40
0
40
0
40
0
40
0
40
0.250000000000001
40
0.250000000000001
40
0.500000000000002
40
0.500000000000002
40
0.750000000000004
40
0.750000000000004
40
0.875000000000002
40
0.875000000000002
40
1
40
1
40
1
40
1
41
1
10
7.39694536372977
20
-2.51681105858353
30
0
41
1
10
7.12826613242407
20
-2.41926086302118
30
0
41
1
10
6.86183936304639
20
-2.31306577367135
30
0
41
1
10
6.33231272128609
20
-2.08253907199426
30
0
41
1
10
6.06917171612827
20
-1.95846340780901
30
0
41
1
10
5.54514892690707
20
-1.69458208762865
30
0
41
1
10
5.28431624051211
20
-1.5542532587616
30
0
41
1
10
4.8947965973085
20
-1.32970859190692
30
0
41
1
10
4.76525328222183
20
-1.25247749165965
30
0
41
1
10
4.50687000548453
20
-1.09254665375906
30
0
41
1
10
4.37794541521259
20
-1.00978260693137
30
0
41
1
10
4.25050559885179
20
-0.924456961035958
30
0
0
SPLINE
5
B6
100
AcDbEntity
8
1
62
256
6
ByLayer
370
18
48
1
60
0
100
AcDbSpline
70
4
71
3
72
18
73
14
40
0
40
0
40
0
40
0
40
0.124999999999998
40
0.124999999999998
40
0.249999999999996
40
0.249999999999996
40
0.5
40
0.5
40
0.750000000000004
40
0.750000000000004
40
0.875000000000002
40
0.875000000000002
40
1
40
1
40
1
40
1
41
1
10
42.5009202719558
20
-1.76734870709515
30
0
41
1
10
42.4741725971343
20
-1.83949518764959
30
0
41
1
10
42.4473385769555
20
-1.91158609901956
30
0
41
1
10
42.39364669144
20
-2.05575257575816
30
0
41
1
10
42.3667244385339
20
-2.12781386803644
30
0
41
1
10
42.2857509174204
20
-2.34351221828362
30
0
41
1
10
42.2314333106584
20
-2.48662917871013
30
0
41
1
10
42.1222108590847
20
-2.77166861845993
30
0
41
1
10
42.0673845542041
20
-2.91423533328657
30
0
41
1
10
41.9847527973494
20
-3.12439156539762
30
0
41
1
10
41.9571677040104
20
-3.19409177677784
30
0
41
1
10
41.9019339801837
20
-3.33294922699383
30
0
41
1
10
41.8742718181287
20
-3.40199082844913
30
0
41
1
10
41.8465081102876
20
-3.47016464507678
30
0
0
SPLINE
5
B7
100
AcDbEntity
8
1
62
256
6
ByLayer
370
18
48
1
60
0
100
AcDbSpline
70
4
71
3
72
32
73
28
40
0
40
0
40
0
40
0
40
0.110926226890988
40
0.110926226890988
40
0.166389340336481
40
0.166389340336481
40
0.221852453781974
40
0.221852453781974
40
0.33277868067296
40
0.33277868067296
40
0.443704907563946
40
0.443704907563946
40
0.554631134454933
40
0.554631134454933
40
0.665557361345919
40
0.665557361345919
40
0.721020474791412
40
0.721020474791412
40
0.776483588236905
40
0.776483588236905
40
0.887409815127891
40
0.887409815127891
40
0.942872928573384
40
0.942872928573384
40
0.998336042018877
40
0.998336042018877
40
1
40
1
40
1
40
1
41
1
10
7.39696140579616
20
-2.51686266592142
30
0
41
1
10
7.72545164594234
20
-2.63672594138131
30
0
41
1
10
8.05354071966144
20
-2.74505334869389
30
0
41
1
10
8.54470381838632
20
-2.89228848614229
30
0
41
1
10
8.70819326854553
20
-2.9387475089456
30
0
41
1
10
9.03577512064058
20
-3.02438943364345
30
0
41
1
10
9.19978228843399
20
-3.06366809788949
30
0
41
1
10
9.69241520572677
20
-3.17147641002154
30
0
41
1
10
10.0206742030459
20
-3.22985495565211
30
0
41
1
10
10.6760075216407
20
-3.31942937068448
30
0
41
1
10
11.0037129983057
20
-3.35217904310991
30
0
41
1
10
11.6592033935772
20
-3.38666624215398
30
0
41
1
10
11.9885378357359
20
-3.38901138931939
30
0
41
1
10
12.6441697336293
20
-3.36572592094899
30
0
41
1
10
12.9712545884368
20
-3.33954052585949
30
0
41
1
10
13.4632323892471
20
-3.28043434246609
30
0
41
1
10
13.6273479538171
20
-3.25707239882365
30
0
41
1
10
13.9558760181432
20
-3.20304768694791
30
0
41
1
10
14.1199470415526
20
-3.17265427899505
30
0
41
1
10
14.6119973345638
20
-3.07273367756145
30
0
41
1
10
14.939651650828
20
-2.99135878443755
30
0
41
1
10
15.431009412145
20
-2.85255659046609
30
0
41
1
10
15.5948106872507
20
-2.80343469572537
30
0
41
1
10
15.92316664252
20
-2.69828130840213
30
0
41
1
10
16.0877771454576
20
-2.64267398011719
30
0
41
1
10
16.2568868809061
20
-2.58284801903349
30
0
41
1
10
16.2618123225089
20
-2.58110333849746
30
0
41
1
10
16.2667374979125
20
-2.57935653142368
30
0
0
SPLINE
5
B8
100
AcDbEntity
8
1
62
256
6
ByLayer
370
18
48
1
60
0
100
AcDbSpline
70
4
71
3
72
30
73
26
40
0
40
0
40
0
40
0
40
0.0842487397643202
40
0.0842487397643202
40
0.14965954406687
40
0.14965954406687
40
0.215070348369419
40
0.215070348369419
40
0.280481152671969
40
0.280481152671969
40
0.345891956974518
40
0.345891956974518
40
0.476713565579617
40
0.476713565579617
40
0.607535174184716
40
0.607535174184716
40
0.672945978487263
40
0.672945978487263
40
0.738356782789811
40
0.738356782789811
40
0.869178391394905
40
0.869178391394905
40
0.934589195697453
40
0.934589195697453
40
1
40
1
40
1
40
1
41
1
10
31.3592394945071
20
3.39521129978766
30
0
41
1
10
31.5702939358587
20
3.39461923680301
30
0
41
1
10
31.7810912047902
20
3.38824938324922
30
0
41
1
10
32.1559463620829
20
3.36529131526118
30
0
41
1
10
32.3198228906778
20
3.35164512803149
30
0
41
1
10
32.6475884113013
20
3.31783616483605
30
0
41
1
10
32.8114015609624
20
3.29742725774136
30
0
41
1
10
33.1399933235419
20
3.24916894769768
30
0
41
1
10
33.3042121861264
20
3.22148066541465
30
0
41
1
10
33.6322317582517
20
3.16015566100668
30
0
41
1
10
33.7960427413933
20
3.12651473719998
30
0
41
1
10
34.2871393566907
20
3.01506769271762
30
0
41
1
10
34.6146123460509
20
2.92655680770611
30
0
41
1
10
35.2715381774262
20
2.7256229228534
30
0
41
1
10
35.5996275241146
20
2.61273516506381
30
0
41
1
10
36.091318670984
20
2.43026485227361
30
0
41
1
10
36.2551504678274
20
2.36699003013803
30
0
41
1
10
36.5827664191391
20
2.23473764078887
30
0
41
1
10
36.7465509058311
20
2.16577674157972
30
0
41
1
10
37.2385636206691
20
1.95215266188234
30
0
41
1
10
37.5677604727495
20
1.80131632161175
30
0
41
1
10
38.059274175821
20
1.56422087263434
30
0
41
1
10
38.222863255967
20
1.48328891772135
30
0
41
1
10
38.5504888605954
20
1.31921882331895
30
0
41
1
10
38.7144024877735
20
1.23585461400523
30
0
41
1
10
38.8784128152811
20
1.15106636563718
30
0
0
SPLINE
5
B9
100
AcDbEntity
8
1
62
256
6
ByLayer
370
18
48
1
60
0
100
AcDbSpline
70
4
71
3
72
14
73
10
40
0
40
0
40
0
40
0
40
0.140921677383472
40
0.140921677383472
40
0.28198447294062
40
0.28198447294062
40
0.846235655169212
40
0.846235655169212
40
1
40
1
40
1
40
1
41
1
10
21.8624667919423
20
-3.38991850629893
30
0
41
1
10
21.6659793375431
20
-3.39133051874217
30
0
41
1
10
21.4694516269011
20
-3.38757615959983
30
0
41
1
10
21.075722866979
20
-3.36977922378571
30
0
41
1
10
20.878171224725
20
-3.35567939072982
30
0
41
1
10
19.8942289891823
20
-3.25996779667219
30
0
41
1
10
19.1173293244481
20
-3.10307824355431
30
0
41
1
10
18.1253201102246
20
-2.81504404611206
30
0
41
1
10
17.912692878015
20
-2.74819936761867
30
0
41
1
10
17.6996129957747
20
-2.67643329582077
30
0
0
SPLINE
5
BA
100
AcDbEntity
8
1
62
256
6
ByLayer
370
13
48
1
60
0
100
AcDbSpline
70
4
71
3
72
24
73
20
40
0
40
0
40
0
40
0
40
0.0564281293370728
40
0.0564281293370728
40
0.118439911741169
40
0.118439911741169
40
0.180451694145265
40
0.180451694145265
40
0.428498823761647
40
0.428498823761647
40
0.552522388569839
40
0.552522388569839
40
0.676545953378031
40
0.676545953378031
40
0.924593082994413
40
0.924593082994413
40
0.986604865398508
40
0.986604865398508
40
1
40
1
40
1
40
1
41
1
10
17.6996129956874
20
-2.6764332957913
30
0
41
1
10
17.5217356128134
20
-2.6165235525693
30
0
41
1
10
17.3435427882283
20
-2.55318420011275
30
0
41
1
10
16.9685377593303
20
-2.41333272022425
30
0
41
1
10
16.7711685860984
20
-2.33596447053301
30
0
41
1
10
16.3770589489214
20
-2.17452702370477
30
0
41
1
10
16.180715222448
20
-2.09063376288984
30
0
41
1
10
15.2012985485585
20
-1.6573066079834
30
0
41
1
10
14.4254813945453
20
-1.26585901694713
30
0
41
1
10
13.2543204988011
20
-0.64408557937108
30
0
41
1
10
12.8625905050535
20
-0.431203749040208
30
0
41
1
10
12.0735273874739
20
0.0006117099250957
30
0
41
1
10
11.6811060255689
20
0.216542949830483
30
0
41
1
10
10.5090708183016
20
0.853231214895544
30
0
41
1
10
9.73339149690824
20
1.26467943865865
30
0
41
1
10
8.75439190433431
20
1.73319747523721
30
0
41
1
10
8.55813726740567
20
1.82463121987792
30
0
41
1
10
8.31873065664914
20
1.93271150537464
30
0
41
1
10
8.27616822005459
20
1.95179204088879
30
0
41
1
10
8.23358905824023
20
1.97074133807254
30
0
0
SPLINE
5
BB
100
AcDbEntity
8
1
62
256
6
ByLayer
370
18
48
1
60
0
100
AcDbSpline
70
4
71
3
72
16
73
12
40
0
40
0
40
0
40
0
40
0.0123347318719798
40
0.0123347318719798
40
0.147869920446408
40
0.147869920446408
40
0.418940297595272
40
0.418940297595272
40
0.961081051892992
40
0.961081051892992
40
1
40
1
40
1
40
1
41
1
10
41.2769850024048
20
-3.40153445463497
30
0
41
1
10
41.2590673110149
20
-3.40169039441963
30
0
41
1
10
41.2411533621943
20
-3.40180305762945
30
0
41
1
10
41.0264515518575
20
-3.4026348542973
30
0
41
1
10
40.8303518570756
20
-3.39818921962512
30
0
41
1
10
40.2435604557446
20
-3.36960090952775
30
0
41
1
10
39.8543668802793
20
-3.33024058115538
30
0
41
1
10
38.6880451865111
20
-3.15410566615029
30
0
41
1
10
37.9120493728929
20
-2.95911986735416
30
0
41
1
10
37.0684686364447
20
-2.67547040003504
30
0
41
1
10
37.0119243278359
20
-2.65611507931609
30
0
41
1
10
36.9553760827677
20
-2.63642633332518
30
0
0
SPLINE
5
BC
100
AcDbEntity
8
1
62
256
6
ByLayer
370
13
48
1
60
0
100
AcDbSpline
70
4
71
3
72
26
73
22
40
0
40
0
40
0
40
0
40
0.0455761406130544
40
0.0455761406130544
40
0.109511259420116
40
0.109511259420116
40
0.237381497034235
40
0.237381497034235
40
0.365251734648355
40
0.365251734648355
40
0.429186853455413
40
0.429186853455413
40
0.493121972262471
40
0.493121972262471
40
0.748862447490692
40
0.748862447490692
40
0.876732685104801
40
0.876732685104801
40
0.940667803911857
40
0.940667803911857
40
1
40
1
40
1
40
1
41
1
10
36.9553760827342
20
-2.63642633331355
30
0
41
1
10
36.8149951344088
20
-2.58754904578276
30
0
41
1
10
36.674589926471
20
-2.53661692495308
30
0
41
1
10
36.3385586452386
20
-2.41015403988788
30
0
41
1
10
36.1429669016781
20
-2.33282841566489
30
0
41
1
10
35.5574016651719
20
-2.09124410930048
30
0
41
1
10
35.1686629169056
20
-1.91733105051531
30
0
41
1
10
34.3911387420442
20
-1.54917638728179
30
0
41
1
10
34.0023480983807
20
-1.35491864636376
30
0
41
1
10
33.4169315248363
20
-1.05175691222251
30
0
41
1
10
33.2214309474573
20
-0.948728173864282
30
0
41
1
10
32.8291891870521
20
-0.739585863140263
30
0
41
1
10
32.6320115356268
20
-0.633271084384262
30
0
41
1
10
31.6471455036883
20
-0.0982584078711284
30
0
41
1
10
30.8704692297866
20
0.336423721948336
30
0
41
1
10
29.7026218422897
20
0.962402055059897
30
0
41
1
10
29.3128780654244
20
1.16674558340443
30
0
41
1
10
28.7252038614842
20
1.46247341763765
30
0
41
1
10
28.5288158719547
20
1.55927350811612
30
0
41
1
10
28.1487335598997
20
1.74160245303551
30
0
41
1
10
27.9659941218373
20
1.82701092342819
30
0
41
1
10
27.7839178489153
20
1.90968145495225
30
0
0
SPLINE
5
BD
100
AcDbEntity
8
1
62
256
6
ByLayer
370
18
48
1
60
0
100
AcDbSpline
70
4
71
3
72
10
73
6
40
0
40
0
40
0
40
0
40
0.5
40
0.5
40
1
40
1
40
1
40
1
41
1
10
4.12554716235047
20
3.37117087310662
30
0
41
1
10
4.10800991900464
20
3.37429390829678
30
0
41
1
10
4.0920332630742
20
3.37796717037048
30
0
41
1
10
4.06309350482431
20
3.3862667804741
30
0
41
1
10
4.05012225371547
20
3.39093074739361
30
0
41
1
10
4.0393820408857
20
3.39578243441278
30
0
0
SPLINE
5
BE
100
AcDbEntity
8
1
62
256
6
ByLayer
370
18
48
1
60
0
100
AcDbSpline
70
4
71
3
72
12
73
8
40
0
40
0
40
0
40
0
40
0.250000000000004
40
0.250000000000004
40
0.500000000000009
40
0.500000000000009
40
1
40
1
40
1
40
1
41
1
10
41.7981981579072
20
-3.4697634838684
30
0
41
1
10
41.8031515713918
20
-3.45653387495585
30
0
41
1
10
41.8077844591107
20
-3.44299756934129
30
0
41
1
10
41.815035396126
20
-3.41879793192461
30
0
41
1
10
41.8176242693231
20
-3.40816858760502
30
0
41
1
10
41.8214063631717
20
-3.38514202918279
30
0
41
1
10
41.8190474509822
20
-3.38102999033987
30
0
41
1
10
41.8143791875412
20
-3.38391115343336
30
0
0
SPLINE
5
BF
100
AcDbEntity
8
1
62
256
6
ByLayer
370
18
48
1
60
0
100
AcDbSpline
70
4
71
3
72
28
73
24
40
0
40
0
40
0
40
0
40
0.0200856184934663
40
0.0200856184934663
40
0.0954636478401229
40
0.0954636478401229
40
0.246219706533436
40
0.246219706533436
40
0.321597735880093
40
0.321597735880093
40
0.396975765226749
40
0.396975765226749
40
0.547731823920062
40
0.547731823920062
40
0.623109853266718
40
0.623109853266718
40
0.698487882613375
40
0.698487882613375
40
0.849243941306687
40
0.849243941306687
40
0.924621970653344
40
0.924621970653344
40
1
40
1
40
1
40
1
41
1
10
4.01401205506423
20
-3.54729883439188
30
0
41
1
10
4.01401177278899
20
-3.54725573265372
30
0
41
1
10
4.01401145658326
20
-3.54680295608702
30
0
41
1
10
4.01400981509835
20
-3.54270229430122
30
0
41
1
10
4.01400810022602
20
-3.53362919416045
30
0
41
1
10
4.01400250360032
20
-3.48893885717891
30
0
41
1
10
4.01399826562408
20
-3.43661557234867
30
0
41
1
10
4.01399380398209
20
-3.32540431538837
30
0
41
1
10
4.0139926253066
20
-3.28283935194634
30
0
41
1
10
4.01399126639188
20
-3.18640884061969
30
0
41
1
10
4.01399109665027
20
-3.1326193437574
30
0
41
1
10
4.01399252077744
20
-2.95786004497057
30
0
41
1
10
4.01399605278189
20
-2.82264147641402
30
0
41
1
10
4.01400610906043
20
-2.59168297025204
30
0
41
1
10
4.01401027863687
20
-2.50947213953819
30
0
41
1
10
4.01402008699103
20
-2.33813708580183
30
0
41
1
10
4.01402571362718
20
-2.24908176823598
30
0
41
1
10
4.01404455932061
20
-1.97201034366617
30
0
41
1
10
4.01405977675367
20
-1.7741862311816
30
0
41
1
10
4.01408526621586
20
-1.45705252131003
30
0
41
1
10
4.0140941001836
20
-1.34912236745336
30
0
41
1
10
4.0141119260374
20
-1.13062795659817
30
0
41
1
10
4.01412093989467
20
-1.01979636677362
30
0
41
1
10
4.01412984301629
20
-0.907393840704543
30
0
0
SPLINE
5
C0
100
AcDbEntity
8
1
62
256
6
ByLayer
370
18
48
1
60
0
100
AcDbSpline
70
4
71
3
72
84
73
80
40
0
40
0
40
0
40
0
40
0.0309229414853812
40
0.0309229414853812
40
0.0724314108574367
40
0.0724314108574367
40
0.0931856455434644
40
0.0931856455434644
40
0.113939880229492
40
0.113939880229492
40
0.13469411491552
40
0.13469411491552
40
0.155448349601547
40
0.155448349601547
40
0.196956818973604
40
0.196956818973604
40
0.217711053659633
40
0.217711053659633
40
0.238465288345662
40
0.238465288345662
40
0.259219523031691
40
0.259219523031691
40
0.27997375771772
40
0.27997375771772
40
0.321482227089779
40
0.321482227089779
40
0.342236461775808
40
0.342236461775808
40
0.362990696461837
40
0.362990696461837
40
0.383744931147866
40
0.383744931147866
40
0.404499165833895
40
0.404499165833895
40
0.446007635205953
40
0.446007635205953
40
0.487516104578011
40
0.487516104578011
40
0.50827033926404
40
0.50827033926404
40
0.529024573950069
40
0.529024573950069
40
0.549778808636098
40
0.549778808636098
40
0.570533043322127
40
0.570533043322127
40
0.591287278008156
40
0.591287278008156
40
0.612041512694185
40
0.612041512694185
40
0.653549982066243
40
0.653549982066243
40
0.674304216752273
40
0.674304216752273
40
0.695058451438301
40
0.695058451438301
40
0.715812686124331
40
0.715812686124331
40
0.73656692081036
40
0.73656692081036
40
0.757321155496389
40
0.757321155496389
40
0.778075390182418
40
0.778075390182418
40
0.798829624868447
40
0.798829624868447
40
0.819583859554476
40
0.819583859554476
40
0.840338094240505
40
0.840338094240505
40
0.861092328926534
40
0.861092328926534
40
0.902600798298592
40
0.902600798298592
40
0.94410926767065
40
0.94410926767065
40
0.985617737042709
40
0.985617737042709
40
1
40
1
40
1
40
1
41
1
10
35.677194844455
20
-2.58217080630143
30
0
41
1
10
35.433280620992
20
-2.66916071649641
30
0
41
1
10
35.1895701315106
20
-2.75065304618923
30
0
41
1
10
34.6174674480091
20
-2.92573869932235
30
0
41
1
10
34.2885941817677
20
-3.01470085472928
30
0
41
1
10
33.7972359197129
20
-3.12626219943905
30
0
41
1
10
33.6335176752647
20
-3.15989649952078
30
0
41
1
10
33.3059797248908
20
-3.2211687930735
30
0
41
1
10
33.1421903323138
20
-3.24880664380109
30
0
41
1
10
32.8146534948997
20
-3.29698865381411
30
0
41
1
10
32.6509907760327
20
-3.31743980515208
30
0
41
1
10
32.3228533896202
20
-3.351377057435
30
0
41
1
10
32.1584203345489
20
-3.36510554874673
30
0
41
1
10
31.6662465068373
20
-3.39535086126256
30
0
41
1
10
31.3394233213546
20
-3.39962632470031
30
0
41
1
10
30.8482226608327
20
-3.38684748907542
30
0
41
1
10
30.6843668466055
20
-3.37904133656761
30
0
41
1
10
30.3563455348955
20
-3.35543161322622
30
0
41
1
10
30.1920834135553
20
-3.33990339936085
30
0
41
1
10
29.8640668725859
20
-3.30269907607891
30
0
41
1
10
29.7001469506585
20
-3.28080774588943
30
0
41
1
10
29.3724413898985
20
-3.22971837056835
30
0
41
1
10
29.2086563327385
20
-3.20027531968358
30
0
41
1
10
28.7175865013322
20
-3.10283900506849
30
0
41
1
10
28.3903237467941
20
-3.02532206237581
30
0
41
1
10
27.8972787402355
20
-2.88851093936165
30
0
41
1
10
27.7331107562303
20
-2.84019119589451
30
0
41
1
10
27.4053169468849
20
-2.73766346898114
30
0
41
1
10
27.2417349229274
20
-2.68329353038706
30
0
41
1
10
26.9142238980223
20
-2.56898055932214
30
0
41
1
10
26.7503751990726
20
-2.50897224192442
30
0
41
1
10
26.4225474290249
20
-2.3844383074927
30
0
41
1
10
26.2586535458948
20
-2.31947887042554
30
0
41
1
10
25.7663614630939
20
-2.11676025357494
30
0
41
1
10
25.4379273013068
20
-1.97205792858503
30
0
41
1
10
24.7825014742598
20
-1.66897401348112
30
0
41
1
10
24.4555224372344
20
-1.50836164168152
30
0
41
1
10
23.9631323072381
20
-1.26065429487332
30
0
41
1
10
23.7986307000631
20
-1.17652385795236
30
0
41
1
10
23.4704208140789
20
-1.00551774572591
30
0
41
1
10
23.3066036340783
20
-0.91880568504007
30
0
41
1
10
22.978957612574
20
-0.744231292788015
30
0
41
1
10
22.8151310627625
20
-0.656349757086076
30
0
41
1
10
22.4874241887515
20
-0.479245096242892
30
0
41
1
10
22.323532182465
20
-0.390033503509869
30
0
41
1
10
21.9957427430209
20
-0.210390851269125
30
0
41
1
10
21.831741228315
20
-0.12004314150596
30
0
41
1
10
21.503103068306
20
0.0602577482483468
30
0
41
1
10
21.3389687864799
20
0.150122359273041
30
0
41
1
10
20.8471570504768
20
0.419058084429736
30
0
41
1
10
20.5201887765811
20
0.597927471114417
30
0
41
1
10
20.0284738673022
20
0.860257454481342
30
0
41
1
10
19.8643888104766
20
0.946796136611738
30
0
41
1
10
19.5359225963208
20
1.1183136953529
30
0
41
1
10
19.3717513084022
20
1.20350375337759
30
0
41
1
10
19.0439331621376
20
1.37019489954227
30
0
41
1
10
18.8801192986569
20
1.45156225038281
30
0
41
1
10
18.5524334613868
20
1.61141935284093
30
0
41
1
10
18.3886484036581
20
1.68992282399864
30
0
41
1
10
18.061178541966
20
1.84372017899801
30
0
41
1
10
17.8974376682953
20
1.91866288141949
30
0
41
1
10
17.5693411478411
20
2.06370184523468
30
0
41
1
10
17.4048675405946
20
2.13437012836641
30
0
41
1
10
17.0764736624013
20
2.27117788472805
30
0
41
1
10
16.9124583255473
20
2.33741440649627
30
0
41
1
10
16.5851113696119
20
2.46416669739702
30
0
41
1
10
16.4214814743872
20
2.52455756586741
30
0
41
1
10
16.093865758811
20
2.64057970601911
30
0
41
1
10
15.9299322172821
20
2.69602918521906
30
0
41
1
10
15.6019812863459
20
2.801220309705
30
0
41
1
10
15.4378579695852
20
2.85054853824775
30
0
41
1
10
14.9452031912919
20
2.98993317069505
30
0
41
1
10
14.6172395623947
20
3.07151485052162
30
0
41
1
10
13.9619704879469
20
3.20488621807513
30
0
41
1
10
13.6346446789923
20
3.25964835552929
30
0
41
1
10
12.9771348119143
20
3.33902274677413
30
0
41
1
10
12.6491819579491
20
3.36539502395109
30
0
41
1
10
12.2078768816508
20
3.38127271670285
30
0
41
1
10
12.0942904801435
20
3.38368292009258
30
0
41
1
10
11.9806812426783
20
3.38437815146097
30
0
0
SPLINE
5
C1
100
AcDbEntity
8
1
62
256
6
ByLayer
370
18
48
1
60
0
100
AcDbSpline
70
4
71
3
72
10
73
6
40
0
40
0
40
0
40
0
40
0.731587298763618
40
0.731587298763618
40
1
40
1
40
1
40
1
41
1
10
4.01400480648357
20
3.41902075998024
30
0
41
1
10
4.01401170447173
20
3.48173165999543
30
0
41
1
10
4.01401396082002
20
3.52176102518155
30
0
41
1
10
4.01401335199543
20
3.54443362709765
30
0
41
1
10
4.01401283177165
20
3.54741949609911
30
0
41
1
10
4.01401205427948
20
3.54729871352581
30
0
0
SPLINE
5
C2
100
AcDbEntity
8
1
62
256
6
ByLayer
370
18
48
1
60
0
100
AcDbSpline
70
4
71
3
72
8
73
4
40
0
40
0
40
0
40
0
40
1
40
1
40
1
40
1
41
1
10
41.7718630483761
20
-3.53998811385972
30
0
41
1
10
41.7806506036941
20
-3.51659249576227
30
0
41
1
10
41.789429129902
20
-3.49318386089581
30
0
41
1
10
41.7981981579302
20
-3.46976348387352
30
0
0
SPLINE
5
C3
100
AcDbEntity
8
1
62
256
6
ByLayer
370
18
48
1
60
0
100
AcDbSpline
70
4
71
3
72
44
73
40
40
0
40
0
40
0
40
0
40
0.0582157215412197
40
0.0582157215412197
40
0.116431443082439
40
0.116431443082439
40
0.23286288616488
40
0.23286288616488
40
0.2910786077061
40
0.2910786077061
40
0.34929432924732
40
0.34929432924732
40
0.37840219001793
40
0.37840219001793
40
0.40751005078854
40
0.40751005078854
40
0.465725772329759
40
0.465725772329759
40
0.523941493870979
40
0.523941493870979
40
0.582157215412199
40
0.582157215412199
40
0.698588658494638
40
0.698588658494638
40
0.727696519265248
40
0.727696519265248
40
0.756804380035858
40
0.756804380035858
40
0.815020101577077
40
0.815020101577077
40
0.873235823118297
40
0.873235823118297
40
0.902343683888908
40
0.902343683888908
40
0.931451544659518
40
0.931451544659518
40
0.989667266200737
40
0.989667266200737
40
1
40
1
40
1
40
1
41
1
10
41.7718630483762
20
-3.53998811385975
30
0
41
1
10
41.378751365946
20
-3.56920573713742
30
0
41
1
10
40.9864353425039
20
-3.576691915483
30
0
41
1
10
40.2003262905408
20
-3.54840591423962
30
0
41
1
10
39.8055898660096
20
-3.51232657945246
30
0
41
1
10
38.6318253583796
20
-3.34240643358467
30
0
41
1
10
37.8575985032894
20
-3.14728328791671
30
0
41
1
10
36.6884473662511
20
-2.74842053389398
30
0
41
1
10
36.2973194072256
20
-2.59770018201871
30
0
41
1
10
35.5091448900575
20
-2.26425399844257
30
0
41
1
10
35.1165807101102
20
-2.08338727576316
30
0
41
1
10
34.5272969571973
20
-1.79484974438154
30
0
41
1
10
34.3307912182921
20
-1.69580625839345
30
0
41
1
10
33.9372387440295
20
-1.49254735305001
30
0
41
1
10
33.7400094358615
20
-1.38821813263445
30
0
41
1
10
33.1498068929207
20
-1.07006570615943
30
0
41
1
10
32.7574352552845
20
-0.850774655186854
30
0
41
1
10
31.9711250201468
20
-0.404178327057963
30
0
41
1
10
31.5761565558089
20
-0.176067920991869
30
0
41
1
10
30.7932298737618
20
0.275879778958654
30
0
41
1
10
30.4038893241132
20
0.500116518473305
30
0
41
1
10
29.2372944847634
20
1.15919618407705
30
0
41
1
10
28.4614080845317
20
1.58029509320275
30
0
41
1
10
27.4765844007822
20
2.05432161638194
30
0
41
1
10
27.2798098551459
20
2.14604093456507
30
0
41
1
10
26.8879633138705
20
2.32186619568122
30
0
41
1
10
26.6926082355877
20
2.40611745990952
30
0
41
1
10
26.107689368751
20
2.6473226109095
30
0
41
1
10
25.7191934418904
20
2.7926166361998
30
0
41
1
10
24.9415887703626
20
3.04851810246552
30
0
41
1
10
24.5525618464049
20
3.15920772825004
30
0
41
1
10
23.9660213036711
20
3.2965730813242
30
0
41
1
10
23.7700045098571
20
3.33758284478753
30
0
41
1
10
23.3765484621629
20
3.40960205962162
30
0
41
1
10
23.1792018695027
20
3.4405646242387
30
0
41
1
10
22.5890039496242
20
3.51728263290389
30
0
41
1
10
22.196476505637
20
3.54718792659645
30
0
41
1
10
21.7332520281112
20
3.55693280191946
30
0
41
1
10
21.6633878793876
20
3.55771549190331
30
0
41
1
10
21.5934995738295
20
3.55781408390709
30
0
0
SPLINE
5
C4
100
AcDbEntity
8
1
62
256
6
ByLayer
370
18
48
1
60
0
100
AcDbSpline
70
2053
71
3
72
62
73
58
40
0
40
0
40
0
40
0
40
0.0312500000000011
40
0.0312500000000011
40
0.0625000000000023
40
0.0625000000000023
40
0.0937500000000034
40
0.0937500000000034
40
0.125000000000005
40
0.125000000000005
40
0.156250000000006
40
0.156250000000006
40
0.187500000000007
40
0.187500000000007
40
0.218750000000008
40
0.218750000000008
40
0.250000000000009
40
0.250000000000009
40
0.28125000000001
40
0.28125000000001
40
0.312500000000012
40
0.312500000000012
40
0.375000000000014
40
0.375000000000014
40
0.437500000000017
40
0.437500000000017
40
0.468750000000015
40
0.468750000000015
40
0.500000000000014
40
0.500000000000014
40
0.531250000000013
40
0.531250000000013
40
0.562500000000012
40
0.562500000000012
40
0.593750000000011
40
0.593750000000011
40
0.625000000000009
40
0.625000000000009
40
0.656250000000008
40
0.656250000000008
40
0.687500000000007
40
0.687500000000007
40
0.718750000000006
40
0.718750000000006
40
0.750000000000005
40
0.750000000000005
40
0.812500000000002
40
0.812500000000002
40
0.843750000000001
40
0.843750000000001
40
0.875
40
0.875
40
0.906249999999999
40
0.906249999999999
40
0.937499999999997
40
0.937499999999997
40
1
40
1
40
1
40
1
41
1
10
42.0215690102599
20
-1.15305113662724
30
0
41
1
10
42.0016853090925
20
-1.18125860929604
30
0
41
1
10
41.9822031253051
20
-1.21150673385347
30
0
41
1
10
41.9441077429133
20
-1.27641943505796
30
0
41
1
10
41.9252919104965
20
-1.3115025272302
30
0
41
1
10
41.8897985398772
20
-1.38476337517528
30
0
41
1
10
41.8731889016937
20
-1.42270434646949
30
0
41
1
10
41.8425632211698
20
-1.50157563752742
30
0
41
1
10
41.8288388996312
20
-1.54189390212943
30
0
41
1
10
41.8058726177641
20
-1.62107506896422
30
0
41
1
10
41.7963434328046
20
-1.66106091683946
30
0
41
1
10
41.7826625593376
20
-1.73640464971123
30
0
41
1
10
41.778380342909
20
-1.77206467725011
30
0
41
1
10
41.7749543572006
20
-1.83831406653385
30
0
41
1
10
41.7758342843244
20
-1.86788281777234
30
0
41
1
10
41.7822158569765
20
-1.92068207255426
30
0
41
1
10
41.7877206261783
20
-1.94349867833611
30
0
41
1
10
41.8024501522127
20
-1.98162177747486
30
0
41
1
10
41.8118126376817
20
-1.99722125630822
30
0
41
1
10
41.8333779258558
20
-2.02107856119943
30
0
41
1
10
41.8456030052813
20
-2.02949646313826
30
0
41
1
10
41.8862433525313
20
-2.04509947060674
30
0
41
1
10
41.9176562217628
20
-2.04244672911813
30
0
41
1
10
41.9870666406345
20
-2.01394762987667
30
0
41
1
10
42.0239037792446
20
-1.98863013501045
30
0
41
1
10
42.081955403352
20
-1.9344437219236
30
0
41
1
10
42.1017281139217
20
-1.91363206001543
30
0
41
1
10
42.1409756871277
20
-1.86760402096812
30
0
41
1
10
42.1606077349839
20
-1.8422517862237
30
0
41
1
10
42.1998898058474
20
-1.78645973844587
30
0
41
1
10
42.2197402101402
20
-1.75566091227401
30
0
41
1
10
42.258035558754
20
-1.6904195514571
30
0
41
1
10
42.2765651243699
20
-1.6559232626885
30
0
41
1
10
42.3122098926617
20
-1.58263889797416
30
0
41
1
10
42.3291969492913
20
-1.54401122605785
30
0
41
1
10
42.3598286096757
20
-1.46568606664854
30
0
41
1
10
42.3738586191155
20
-1.42493101195956
30
0
41
1
10
42.3972690876958
20
-1.34514361214246
30
0
41
1
10
42.4067476050947
20
-1.30605468367412
30
0
41
1
10
42.4209296773213
20
-1.22960257531386
30
0
41
1
10
42.4253238202223
20
-1.19379285477351
30
0
41
1
10
42.428937628444
20
-1.12769134412667
30
0
41
1
10
42.4280982671938
20
-1.0974185402888
30
0
41
1
10
42.4217418258092
20
-1.04480067578825
30
0
41
1
10
42.4161621557503
20
-1.02183962773316
30
0
41
1
10
42.3938177476826
20
-0.964864384258391
30
0
41
1
10
42.3712360498552
20
-0.941645317852021
30
0
41
1
10
42.3305751821415
20
-0.926600817369888
30
0
41
1
10
42.3156867560897
20
-0.924818583983011
30
0
41
1
10
42.2843307075625
20
-0.927359139180055
30
0
41
1
10
42.2678454146664
20
-0.931622380834938
30
0
41
1
10
42.2333450466318
20
-0.94582056137196
30
0
41
1
10
42.2151897166453
20
-0.955867803402612
30
0
41
1
10
42.1782108611238
20
-0.981188839265087
30
0
41
1
10
42.1593577539861
20
-0.996433537173743
30
0
41
1
10
42.1017005248398
20
-1.04996898385085
30
0
41
1
10
42.0613364125949
20
-1.09663619128963
30
0
41
1
10
42.0215690102599
20
-1.15305113662724
30
0
0
SPLINE
5
C5
100
AcDbEntity
8
1
62
256
6
ByLayer
370
18
48
1
60
0
100
AcDbSpline
70
4
71
3
72
28
73
24
40
0
40
0
40
0
40
0
40
0.129396918065479
40
0.129396918065479
40
0.184179411081751
40
0.184179411081751
40
0.238961904098022
40
0.238961904098022
40
0.348526890130563
40
0.348526890130563
40
0.567656862195643
40
0.567656862195643
40
0.622439355211916
40
0.622439355211916
40
0.677221848228189
40
0.677221848228189
40
0.786786834260733
40
0.786786834260733
40
0.896351820293278
40
0.896351820293278
40
0.951134313309549
40
0.951134313309549
40
1
40
1
40
1
40
1
41
1
10
26.3296246847148
20
2.50562176045679
30
0
41
1
10
26.7896510109883
20
2.32460951092466
30
0
41
1
10
27.2501222971125
20
2.12250718504612
30
0
41
1
10
27.9101439298999
20
1.80962033800316
30
0
41
1
10
28.1073907608496
20
1.71327866908953
30
0
41
1
10
28.5020182984985
20
1.51542355802132
30
0
41
1
10
28.6985620950387
20
1.4143606834451
30
0
41
1
10
29.2866489672402
20
1.10611527252272
30
0
41
1
10
29.6765924906207
20
0.893786281359183
30
0
41
1
10
30.8451212243615
20
0.245283193130973
30
0
41
1
10
31.6222753640518
20
-0.202655117793171
30
0
41
1
10
32.608599844671
20
-0.751318752446849
30
0
41
1
10
32.8058824878673
20
-0.860091668023557
30
0
41
1
10
33.1983940634677
20
-1.07376971370005
30
0
41
1
10
33.3940119321664
20
-1.17886032315323
30
0
41
1
10
33.9797348063464
20
-1.48761321680058
30
0
41
1
10
34.3687129449012
20
-1.68474883972374
30
0
41
1
10
35.14669914384
20
-2.05706957959896
30
0
41
1
10
35.5357050422331
20
-2.23227205613685
30
0
41
1
10
36.1218084018047
20
-2.47457745126167
30
0
41
1
10
36.3176048931099
20
-2.55193918527573
30
0
41
1
10
36.6892578196899
20
-2.69128098878431
30
0
41
1
10
36.8654147018787
20
-2.75414759698012
30
0
41
1
10
37.0411785524452
20
-2.81343908958073
30
0
0
SPLINE
5
C6
100
AcDbEntity
8
1
62
256
6
ByLayer
370
13
48
1
60
0
100
AcDbSpline
70
4
71
3
72
16
73
12
40
0
40
0
40
0
40
0
40
0.0133208375654548
40
0.0133208375654548
40
0.506660418782731
40
0.506660418782731
40
0.753330209391369
40
0.753330209391369
40
0.876665104695684
40
0.876665104695684
40
1
40
1
40
1
40
1
41
1
10
37.0411785522554
20
-2.81343908951666
30
0
41
1
10
37.0624605752128
20
-2.82061828422988
30
0
41
1
10
37.0837368358924
20
-2.82774506379872
30
0
41
1
10
37.8926741144602
20
-3.09676926246811
30
0
41
1
10
38.6689014278613
20
-3.28549545604079
30
0
41
1
10
39.8359494877775
20
-3.44779642424206
30
0
41
1
10
40.2254622400595
20
-3.4817978763127
30
0
41
1
10
40.8129293083221
20
-3.50128683491587
30
0
41
1
10
41.0092837001665
20
-3.50252321294135
30
0
41
1
10
41.4034576984799
20
-3.49422355196549
30
0
41
1
10
41.6009649253331
20
-3.48465754534502
30
0
41
1
10
41.7981981579169
20
-3.46976348386767
30
0
0
SPLINE
5
C7
100
AcDbEntity
8
1
62
256
6
ByLayer
370
18
48
1
60
0
100
AcDbSpline
70
4
71
3
72
8
73
4
40
0
40
0
40
0
40
0
40
1
40
1
40
1
40
1
41
1
10
41.7718630483762
20
3.53998811385975
30
0
41
1
10
41.5043141531683
20
3.55987341154466
30
0
41
1
10
41.2370199699293
20
3.56970101906478
30
0
41
1
10
40.9694963025555
20
3.56947752933144
30
0
0
SPLINE
5
C8
100
AcDbEntity
8
1
62
256
6
ByLayer
370
18
48
1
60
0
100
AcDbSpline
70
4
71
3
72
44
73
40
40
0
40
0
40
0
40
0
40
0.0245593889589792
40
0.0245593889589792
40
0.0855244271490408
40
0.0855244271490408
40
0.116006946244072
40
0.116006946244072
40
0.146489465339103
40
0.146489465339103
40
0.207454503529166
40
0.207454503529166
40
0.268419541719229
40
0.268419541719229
40
0.29890206081426
40
0.29890206081426
40
0.329384579909291
40
0.329384579909291
40
0.390349618099355
40
0.390349618099355
40
0.420832137194387
40
0.420832137194387
40
0.451314656289419
40
0.451314656289419
40
0.512279694479483
40
0.512279694479483
40
0.573244732669548
40
0.573244732669548
40
0.634209770859613
40
0.634209770859613
40
0.756139847239742
40
0.756139847239742
40
0.817104885429807
40
0.817104885429807
40
0.847587404524839
40
0.847587404524839
40
0.878069923619871
40
0.878069923619871
40
1
40
1
40
1
40
1
41
1
10
23.4269128564515
20
-3.39940952939713
30
0
41
1
10
23.2682283244651
20
-3.42639724906667
30
0
41
1
10
23.1096032937562
20
-3.45001765656127
30
0
41
1
10
22.5580538806989
20
-3.52014282348455
30
0
41
1
10
22.1654129559506
20
-3.5489554901869
30
0
41
1
10
21.5745120649856
20
-3.55964536357189
30
0
41
1
10
21.3772251124624
20
-3.55776967062147
30
0
41
1
10
20.9836650092035
20
-3.54320160537424
30
0
41
1
10
20.7871263167998
20
-3.53051824236454
30
0
41
1
10
20.1975442195165
20
-3.4764701150844
30
0
41
1
10
19.8040942848688
20
-3.41899594795043
30
0
41
1
10
19.0157030286652
20
-3.26290160307724
30
0
41
1
10
18.6230013632626
20
-3.16465340921241
30
0
41
1
10
18.0331862357004
20
-2.98948324250418
30
0
41
1
10
17.836483527675
20
-2.92644086766833
30
0
41
1
10
17.4425039736102
20
-2.79134670751904
30
0
41
1
10
17.2452243351382
20
-2.71931440453326
30
0
41
1
10
16.6547532294682
20
-2.4918229317253
30
0
41
1
10
16.2621362477902
20
-2.32432846316175
30
0
41
1
10
15.6718027638266
20
-2.05316233598867
30
0
41
1
10
15.4744972538237
20
-1.95926555780775
30
0
41
1
10
15.0806012509678
20
-1.76600999090743
30
0
41
1
10
14.8843936878264
20
-1.66689982811266
30
0
41
1
10
14.2971863793244
20
-1.36350059253607
30
0
41
1
10
13.9078512230923
20
-1.15273425690538
30
0
41
1
10
13.129685236219
20
-0.720670790066777
30
0
41
1
10
12.7408919183852
20
-0.499315240149798
30
0
41
1
10
11.9605932796469
20
-0.0516318415743626
30
0
41
1
10
11.5686788658704
20
0.174742960402483
30
0
41
1
10
10.3853636504376
20
0.850589825552589
30
0
41
1
10
9.60888887333203
20
1.28423885951204
30
0
41
1
10
8.44147325625701
20
1.87517945436491
30
0
41
1
10
8.05210551212411
20
2.06258253126637
30
0
41
1
10
7.46473580682525
20
2.32460065026214
30
0
41
1
10
7.26838898471487
20
2.40875670849493
30
0
41
1
10
6.87414606659144
20
2.57001952958396
30
0
41
1
10
6.67691827284517
20
2.64683825364051
30
0
41
1
10
5.69408978852152
20
3.00896861355852
30
0
41
1
10
4.91414877591868
20
3.23073656757646
30
0
41
1
10
4.12554716235104
20
3.37117087310651
30
0
0
SPLINE
5
C9
100
AcDbEntity
8
1
62
256
6
ByLayer
370
18
48
1
60
0
100
AcDbSpline
70
4
71
3
72
77
73
73
40
0
40
0
40
0
40
0
40
0.0301409942361254
40
0.0301409942361254
40
0.102774358703182
40
0.102774358703182
40
0.175407723170238
40
0.175407723170238
40
0.248041087637295
40
0.248041087637295
40
0.284357769870823
40
0.284357769870823
40
0.320674452104351
40
0.320674452104351
40
0.393307816571408
40
0.393307816571408
40
0.429624498804936
40
0.429624498804936
40
0.4477828399217
40
0.4477828399217
40
0.452322425200891
40
0.454592217840486
40
0.454592217840486
40
0.454875941920436
40
0.454875941920436
40
0.455159666000385
40
0.455159666000385
40
0.455727114160284
40
0.455727114160284
40
0.456862010480082
40
0.456862010480082
40
0.465941181038466
40
0.465941181038466
40
0.502257863272
40
0.502257863272
40
0.538574545505534
40
0.538574545505534
40
0.611207909972601
40
0.611207909972601
40
0.683841274439669
40
0.683841274439669
40
0.701999615556436
40
0.701999615556436
40
0.711078786114819
40
0.711078786114819
40
0.720157956673203
40
0.720157956673203
40
0.722427749312799
40
0.722427749312799
40
0.722711473392748
40
0.722711473392748
40
0.722995197472698
40
0.722995197472698
40
0.723562645632597
40
0.724697541952395
40
0.729237127231587
40
0.729237127231587
40
0.738316297789971
40
0.738316297789971
40
0.756474638906739
40
0.756474638906739
40
0.829108003373812
40
0.829108003373812
40
0.865424685607348
40
0.865424685607348
40
0.901741367840885
40
0.901741367840885
40
0.938058050074421
40
0.938058050074421
40
0.974374732307958
40
0.974374732307958
40
1
40
1
40
1
40
1
41
1
10
12.1113398496505
20
-0.480966033137747
30
0
41
1
10
12.00839946359
20
-0.42894921058604
30
0
41
1
10
11.9054000031752
20
-0.378189254824065
30
0
41
1
10
11.5538013583902
20
-0.2101328606484
30
0
41
1
10
11.3046720502307
20
-0.0999121498581985
30
0
41
1
10
10.8018726392056
20
0.0948313069034441
30
0
41
1
10
10.5533111177595
20
0.177212033482021
30
0
41
1
10
10.0584302902419
20
0.305357917510861
30
0
41
1
10
9.81203217154257
20
0.351126143071298
30
0
41
1
10
9.43997131967257
20
0.388660221255975
30
0
41
1
10
9.31504466434478
20
0.395999554369808
30
0
41
1
10
9.06607624062087
20
0.399881209178147
30
0
41
1
10
8.94236378650612
20
0.39647001654285
30
0
41
1
10
8.57234879572587
20
0.370846212631903
30
0
41
1
10
8.32714524945729
20
0.333250246833501
30
0
41
1
10
7.9572406652369
20
0.248884802931371
30
0
41
1
10
7.8335956055335
20
0.216100477101207
30
0
41
1
10
7.64711292999931
20
0.160263365838034
30
0
41
1
10
7.58472393094712
20
0.140520707638984
30
0
41
1
10
7.506663771787
20
0.114551793642363
30
0
41
1
10
7.48324411432236
20
0.106665842641945
30
0
41
1
10
7.45982057407642
20
0.09863854397463
30
0
41
1
10
7.45103634601134
20
0.0956107963272359
30
0
41
1
10
7.45118528303098
20
0.0945801859220978
30
0
41
1
10
7.45238040891775
20
0.0930000202505994
30
0
41
1
10
7.45311301350924
20
0.092269306280059
30
0
41
1
10
7.45534828480854
20
0.0901464019136142
30
0
41
1
10
7.45695107209588
20
0.0888149353127119
30
0
41
1
10
7.46184300168264
20
0.0848826254623987
30
0
41
1
10
7.46523325139168
20
0.08236701615931
30
0
41
1
10
7.49600306003379
20
0.0600458468269096
30
0
41
1
10
7.52495608009116
20
0.0417605297875241
30
0
41
1
10
7.66891096610897
20
-0.0502324693329967
30
0
41
1
10
7.78630987119715
20
-0.121501024760732
30
0
41
1
10
8.02101180013227
20
-0.264340551054232
30
0
41
1
10
8.13873584475488
20
-0.335480006186316
30
0
41
1
10
8.49238383037414
20
-0.548783027705923
30
0
41
1
10
8.72829630529171
20
-0.691576249219509
30
0
41
1
10
9.20034234556059
20
-0.978456531216978
30
0
41
1
10
9.43647719051762
20
-1.12247000615119
30
0
41
1
10
9.72960446127507
20
-1.30654530374198
30
0
41
1
10
9.78812890087198
20
-1.34356499594836
30
0
41
1
10
9.87551548607277
20
-1.39982714381705
30
0
41
1
10
9.90457998050391
20
-1.41869933633413
30
0
41
1
10
9.96239501915124
20
-1.45699718500646
30
0
41
1
10
9.99135394465955
20
-1.47613799122541
30
0
41
1
10
10.0261934100262
20
-1.50205271420242
30
0
41
1
10
10.0332766082691
20
-1.50713746708945
30
0
41
1
10
10.0402751771078
20
-1.51412014718309
30
0
41
1
10
10.0410324652134
20
-1.51491494790383
30
0
41
1
10
10.0423728092876
20
-1.51666690360639
30
0
41
1
10
10.0431168486012
20
-1.51799069294381
30
0
41
1
10
10.0404890911453
20
-1.5199991016203
30
0
41
1
10
10.035233614911
20
-1.52401403732179
30
0
41
1
10
10.0159638218774
20
-1.53871471388706
30
0
41
1
10
9.99844776811915
20
-1.5520142895341
30
0
41
1
10
9.95640915487331
20
-1.58380439776039
30
0
41
1
10
9.92839182869923
20
-1.60481956934413
30
0
41
1
10
9.84434536635405
20
-1.66728361966125
30
0
41
1
10
9.78825396868069
20
-1.70820010956473
30
0
41
1
10
9.50828424521518
20
-1.90772883737077
30
0
41
1
10
9.28607221162611
20
-2.05141470476022
30
0
41
1
10
8.94497771365326
20
-2.23164755859378
30
0
41
1
10
8.83075660651207
20
-2.28529342806698
30
0
41
1
10
8.60196045991651
20
-2.37718414152138
30
0
41
1
10
8.48700347793641
20
-2.41562493523355
30
0
41
1
10
8.2542534791956
20
-2.47654360041221
30
0
41
1
10
8.13645443143426
20
-2.49901309976113
30
0
41
1
10
7.8965031626532
20
-2.5275210040395
30
0
41
1
10
7.77521547105371
20
-2.53337193725025
30
0
41
1
10
7.56863752830702
20
-2.53029936463369
30
0
41
1
10
7.4829429834042
20
-2.52526319871873
30
0
41
1
10
7.39694103212207
20
-2.51686067544446
30
0
0
SPLINE
5
CA
100
AcDbEntity
8
1
62
256
6
ByLayer
370
18
48
1
60
0
100
AcDbSpline
70
4
71
3
72
32
73
28
40
0
40
0
40
0
40
0
40
0.250000000000004
40
0.250000000000004
40
0.375000000000011
40
0.375000000000011
40
0.500000000000017
40
0.500000000000017
40
0.625000000000023
40
0.625000000000023
40
0.687500000000022
40
0.687500000000022
40
0.750000000000022
40
0.750000000000022
40
0.812500000000021
40
0.812500000000021
40
0.843750000000017
40
0.843750000000017
40
0.875000000000014
40
0.875000000000014
40
0.90625000000001
40
0.90625000000001
40
0.937500000000007
40
0.937500000000007
40
0.968750000000003
40
0.968750000000003
40
1
40
1
40
1
40
1
41
1
10
38.8784128152811
20
1.15106636563715
30
0
41
1
10
39.1245215299728
20
0.973365886413234
30
0
41
1
10
39.3732285783816
20
0.811706466094051
30
0
41
1
10
39.7520736623505
20
0.60492856345968
30
0
41
1
10
39.8793051882515
20
0.541866468921143
30
0
41
1
10
40.1359844711867
20
0.429424392313791
30
0
41
1
10
40.2648999283301
20
0.380393803463193
30
0
41
1
10
40.5193899356382
20
0.300175295903216
30
0
41
1
10
40.6455857778391
20
0.268670401593198
30
0
41
1
10
40.8330816624971
20
0.236157782293503
30
0
41
1
10
40.8953860936983
20
0.227780820571752
30
0
41
1
10
41.0184861398519
20
0.21641294603674
30
0
41
1
10
41.0798757218844
20
0.211978889833063
30
0
41
1
10
41.1969452838104
20
0.220351955690376
30
0
41
1
10
41.2532921972313
20
0.231814860759272
30
0
41
1
10
41.32753836672
20
0.265553501488
30
0
41
1
10
41.3505206233905
20
0.279755737602272
30
0
41
1
10
41.3921969393552
20
0.315336121825908
30
0
41
1
10
41.4107118550515
20
0.336622946992747
30
0
41
1
10
41.4410677638554
20
0.385109330960773
30
0
41
1
10
41.4531919105207
20
0.412886877870193
30
0
41
1
10
41.4704164361849
20
0.473476307707557
30
0
41
1
10
41.4755983422787
20
0.505849717578997
30
0
41
1
10
41.4797954319145
20
0.574333389206515
30
0
41
1
10
41.4786878779903
20
0.610472274744183
30
0
41
1
10
41.4710026749556
20
0.683592204817018
30
0
41
1
10
41.4646293909145
20
0.720916374168553
30
0
41
1
10
41.455589713006
20
0.758860293962471
30
0
0
SPLINE
5
CB
100
AcDbEntity
8
1
62
256
6
ByLayer
370
18
48
1
60
0
100
AcDbSpline
70
4
71
3
72
34
73
30
40
0
40
0
40
0
40
0
40
0.104865425521316
40
0.104865425521316
40
0.209730851042632
40
0.209730851042632
40
0.26216356380329
40
0.26216356380329
40
0.314596276563948
40
0.314596276563948
40
0.419461702085263
40
0.419461702085263
40
0.47189441484592
40
0.47189441484592
40
0.524327127606577
40
0.524327127606577
40
0.576759840367234
40
0.576759840367234
40
0.629192553127891
40
0.629192553127891
40
0.734057978649204
40
0.734057978649204
40
0.78649069140986
40
0.78649069140986
40
0.838923404170516
40
0.838923404170516
40
0.943788829691829
40
0.943788829691829
40
1
40
1
40
1
40
1
41
1
10
12.1110913759585
20
-0.480840479356687
30
0
41
1
10
12.4211105701719
20
-0.658953802170089
30
0
41
1
10
12.7314299232786
20
-0.832478791736804
30
0
41
1
10
13.3508876847316
20
-1.1736715422127
30
0
41
1
10
13.6596279170325
20
-1.34191093599571
30
0
41
1
10
14.1253937223739
20
-1.58393958052426
30
0
41
1
10
14.2809929493269
20
-1.66324098932776
30
0
41
1
10
14.5911562595282
20
-1.81882708624232
30
0
41
1
10
14.7458356897415
20
-1.89522098522079
30
0
41
1
10
15.2098830127088
20
-2.11836639447614
30
0
41
1
10
15.5198331917919
20
-2.25835480737086
30
0
41
1
10
15.9847473175475
20
-2.45646087237876
30
0
41
1
10
16.1396236981957
20
-2.52077618497415
30
0
41
1
10
16.4498610325638
20
-2.64396511283468
30
0
41
1
10
16.6050058463442
20
-2.70271414811589
30
0
41
1
10
16.915078814172
20
-2.814956807833
30
0
41
1
10
17.0699984441793
20
-2.86845893890245
30
0
41
1
10
17.3793690615484
20
-2.9704124019631
30
0
41
1
10
17.5338880830533
20
-3.01877716351243
30
0
41
1
10
17.9981584346733
20
-3.15487029795557
30
0
41
1
10
18.3096038390448
20
-3.23359265390709
30
0
41
1
10
18.7743884660804
20
-3.33366643709132
30
0
41
1
10
18.928840284972
20
-3.36403862879024
30
0
41
1
10
19.23835324008
20
-3.41793916749293
30
0
41
1
10
19.3932517975973
20
-3.44159155562306
30
0
41
1
10
19.8579732026323
20
-3.50292942491674
30
0
41
1
10
20.16755644145
20
-3.5311238189752
30
0
41
1
10
20.6441520136303
20
-3.55347158163872
30
0
41
1
10
20.8104409312532
20
-3.55741697249215
30
0
41
1
10
20.9765545678694
20
-3.557507490006
30
0
0
SPLINE
5
CC
100
AcDbEntity
8
1
62
256
6
ByLayer
370
18
48
1
60
0
100
AcDbSpline
70
4
71
3
72
28
73
24
40
0
40
0
40
0
40
0
40
0.0974006081130915
40
0.0974006081130915
40
0.172617224103665
40
0.172617224103665
40
0.247833840094237
40
0.247833840094237
40
0.398267072075388
40
0.398267072075388
40
0.473483688065963
40
0.473483688065963
40
0.548700304056539
40
0.548700304056539
40
0.699133536037689
40
0.699133536037689
40
0.774350152028267
40
0.774350152028267
40
0.849566768018845
40
0.849566768018845
40
0.924783384009422
40
0.924783384009422
40
1
40
1
40
1
40
1
41
1
10
35.6724027123349
20
2.57878437999344
30
0
41
1
10
35.8727788623568
20
2.65858551253638
30
0
41
1
10
36.0730495488706
20
2.73437503146252
30
0
41
1
10
36.4278168930383
20
2.86148284511751
30
0
41
1
10
36.5825456869494
20
2.91421334473227
30
0
41
1
10
36.8928764756634
20
3.01379817555954
30
0
41
1
10
37.0482313839215
20
3.06072192652761
30
0
41
1
10
37.5130101071086
20
3.19285416960355
30
0
41
1
10
37.8213214973667
20
3.26974119653624
30
0
41
1
10
38.2856732174653
20
3.36527637717438
30
0
41
1
10
38.440593500766
20
3.39398134954305
30
0
41
1
10
38.7504111282759
20
3.44520994062532
30
0
41
1
10
38.9054228491042
20
3.46775011393109
30
0
41
1
10
39.3699978675925
20
3.52522722784863
30
0
41
1
10
39.6798009270319
20
3.55001472669525
30
0
41
1
10
40.1438430403123
20
3.56739960759069
30
0
41
1
10
40.2982163921159
20
3.56986445700258
30
0
41
1
10
40.6075835348248
20
3.56799453347548
30
0
41
1
10
40.7627630141577
20
3.56368956531017
30
0
41
1
10
41.0732155498106
20
3.54840942764645
30
0
41
1
10
41.2282334749195
20
3.53745018159992
30
0
41
1
10
41.5375913637109
20
3.50879792727352
30
0
41
1
10
41.6919880085946
20
3.49109810976137
30
0
41
1
10
41.8465081102775
20
3.47016464507794
30
0
0
SPLINE
5
CD
100
AcDbEntity
8
1
62
256
6
ByLayer
370
18
48
1
60
0
100
AcDbSpline
70
4
71
3
72
8
73
4
40
0
40
0
40
0
40
0
40
1
40
1
40
1
40
1
41
1
10
4.03938204088567
20
3.39578243441269
30
0
41
1
10
4.02335592097216
20
3.40302192949386
30
0
41
1
10
4.01400393296322
20
3.41107942456324
30
0
41
1
10
4.01400480648357
20
3.41902075997857
30
0
0
SPLINE
5
CE
100
AcDbEntity
8
1
62
256
6
ByLayer
370
18
48
1
60
0
100
AcDbSpline
70
4
71
3
72
24
73
20
40
0
40
0
40
0
40
0
40
0.1044020632418
40
0.1044020632418
40
0.161734368396283
40
0.161734368396283
40
0.219066673550767
40
0.219066673550767
40
0.448395894168698
40
0.448395894168698
40
0.563060504477665
40
0.563060504477665
40
0.677725114786631
40
0.677725114786631
40
0.907054335404566
40
0.907054335404566
40
0.964386640559049
40
0.964386640559049
40
1
40
1
40
1
40
1
41
1
10
6.65440299228499
20
2.60269203366565
30
0
41
1
10
7.01022396091284
20
2.46983652698182
30
0
41
1
10
7.36671507037104
20
2.32364798791602
30
0
41
1
10
7.92191391509715
20
2.07866031341922
30
0
41
1
10
8.11979813134914
20
1.98797479615519
30
0
41
1
10
8.51395202942194
20
1.80159993689
30
0
41
1
10
8.71037025910573
20
1.7058942965763
30
0
41
1
10
9.6901608151606
20
1.21646929459635
30
0
41
1
10
10.4661841418762
20
0.789406521949786
30
0
41
1
10
11.6391647581236
20
0.131610752703153
30
0
41
1
10
12.0320718766615
20
-0.09100263058221
30
0
41
1
10
12.8220104641811
20
-0.535000463511466
30
0
41
1
10
13.2140351495808
20
-0.753283366738543
30
0
41
1
10
14.385990338814
20
-1.38899488242535
30
0
41
1
10
15.1621209931651
20
-1.78689552154231
30
0
41
1
10
16.1425219274896
20
-2.22434857671601
30
0
41
1
10
16.339083381403
20
-2.30888482903978
30
0
41
1
10
16.6589450837077
20
-2.44048233703262
30
0
41
1
10
16.7816053487558
20
-2.48950942727066
30
0
41
1
10
16.9040531903826
20
-2.53696180642547
30
0
0
SPLINE
5
CF
100
AcDbEntity
8
1
62
256
6
ByLayer
370
13
48
1
60
0
100
AcDbSpline
70
4
71
3
72
20
73
16
40
0
40
0
40
0
40
0
40
0.036422646939726
40
0.036422646939726
40
0.228715066308179
40
0.228715066308179
40
0.613299905045088
40
0.613299905045088
40
0.709446114729315
40
0.709446114729315
40
0.805592324413542
40
0.805592324413542
40
0.997884743781999
40
0.997884743781999
40
1
40
1
40
1
40
1
41
1
10
16.9040531903623
20
-2.53696180641765
30
0
41
1
10
16.9787284826408
20
-2.56590082433439
30
0
41
1
10
17.0533247700256
20
-2.59425417292641
30
0
41
1
10
17.5208076642682
20
-2.76836638945412
30
0
41
1
10
17.9114464702764
20
-2.89803661097218
30
0
41
1
10
19.081560134932
20
-3.23231366499209
30
0
41
1
10
19.8588472830983
20
-3.3825581638676
30
0
41
1
10
20.8440594919495
20
-3.46613946148724
30
0
41
1
10
21.0418497486575
20
-3.47762020617276
30
0
41
1
10
21.4361904361085
20
-3.48985332556018
30
0
41
1
10
21.6331233720612
20
-3.49064775221862
30
0
41
1
10
22.2238185822874
20
-3.47703490949553
30
0
41
1
10
22.6177378097952
20
-3.44665656892403
30
0
41
1
10
23.0170983241067
20
-3.39468469530445
30
0
41
1
10
23.021443490963
20
-3.39411669753082
30
0
41
1
10
23.0257885779066
20
-3.39354618438543
30
0
0
SPLINE
5
D0
100
AcDbEntity
8
1
62
256
6
ByLayer
370
18
48
1
60
0
100
AcDbSpline
70
4
71
3
72
18
73
14
40
0
40
0
40
0
40
0
40
0.124999999999996
40
0.124999999999996
40
0.249999999999993
40
0.249999999999993
40
0.499999999999993
40
0.499999999999993
40
0.749999999999993
40
0.749999999999993
40
0.874999999999996
40
0.874999999999996
40
1
40
1
40
1
40
1
41
1
10
42.5009202719559
20
1.7673487070951
30
0
41
1
10
42.4741725971344
20
1.83949518764956
30
0
41
1
10
42.4473385769555
20
1.9115860990195
30
0
41
1
10
42.39364669144
20
2.05575257575811
30
0
41
1
10
42.3667244385339
20
2.12781386803638
30
0
41
1
10
42.2857509174204
20
2.34351221828359
30
0
41
1
10
42.2314333106584
20
2.48662917871007
30
0
41
1
10
42.1222108590847
20
2.7716686184599
30
0
41
1
10
42.067384554204
20
2.91423533328654
30
0
41
1
10
41.9847527973493
20
3.12439156539759
30
0
41
1
10
41.9571677040104
20
3.19409177677784
30
0
41
1
10
41.9019339801837
20
3.33294922699383
30
0
41
1
10
41.8742718181288
20
3.4019908284491
30
0
41
1
10
41.8465081102876
20
3.47016464507678
30
0
0
SPLINE
5
D1
100
AcDbEntity
8
1
62
256
6
ByLayer
370
18
48
1
60
0
100
AcDbSpline
70
4
71
3
72
14
73
10
40
0
40
0
40
0
40
0
40
0.25
40
0.25
40
0.5
40
0.5
40
0.75
40
0.75
40
1
40
1
40
1
40
1
41
1
10
4.25050559772896
20
-0.924456960284175
30
0
41
1
10
4.22793126694273
20
-0.909342615250836
30
0
41
1
10
4.20491998206091
20
-0.896414776799389
30
0
41
1
10
4.15774421788328
20
-0.876331588701163
30
0
41
1
10
4.1342234161724
20
-0.869521114602605
30
0
41
1
10
4.08938660212149
20
-0.864925493329281
30
0
41
1
10
4.06922066798779
20
-0.867325686947794
30
0
41
1
10
4.03563267621567
20
-0.881435648172527
30
0
41
1
10
4.02274790484284
20
-0.892999462992861
30
0
41
1
10
4.01412984301714
20
-0.90739384070443
30
0
0
SPLINE
5
D2
100
AcDbEntity
8
1
62
256
6
ByLayer
370
18
48
1
60
0
100
AcDbSpline
70
4
71
3
72
16
73
12
40
0
40
0
40
0
40
0
40
0.24999999999998
40
0.24999999999998
40
0.499999999999961
40
0.499999999999961
40
0.62499999999995
40
0.62499999999995
40
0.74999999999994
40
0.74999999999994
40
1
40
1
40
1
40
1
41
1
10
41.455589713006
20
0.758860293962471
30
0
41
1
10
41.4486066001644
20
0.78817181105984
30
0
41
1
10
41.4446386566175
20
0.818322396233867
30
0
41
1
10
41.4460617784026
20
0.880377792682395
30
0
41
1
10
41.4512737010563
20
0.911710419533478
30
0
41
1
10
41.468758342916
20
0.956725926179672
30
0
41
1
10
41.4760611069339
20
0.970938471673975
30
0
41
1
10
41.4940147278982
20
0.997548409389793
30
0
41
1
10
41.5047069547488
20
1.01009520784498
30
0
41
1
10
41.5412409356512
20
1.04212845043409
30
0
41
1
10
41.5713128705069
20
1.05559667560002
30
0
41
1
10
41.6026461753203
20
1.06304692561045
30
0
0
SPLINE
5
D3
100
AcDbEntity
8
1
62
256
6
ByLayer
370
18
48
1
60
0
100
AcDbSpline
70
4
71
3
72
22
73
18
40
0
40
0
40
0
40
0
40
0.124999999999999
40
0.124999999999999
40
0.187499999999998
40
0.187499999999998
40
0.249999999999997
40
0.249999999999997
40
0.499999999999998
40
0.499999999999998
40
0.624999999999998
40
0.624999999999998
40
0.749999999999999
40
0.749999999999999
40
0.874999999999999
40
0.874999999999999
40
1
40
1
40
1
40
1
41
1
10
41.7617213614018
20
-3.40214259853335
30
0
41
1
10
41.7103279895375
20
-3.40209514040583
30
0
41
1
10
41.6615040420564
20
-3.39428811965726
30
0
41
1
10
41.592324359684
20
-3.37032790352057
30
0
41
1
10
41.569942315394
20
-3.36029408443091
30
0
41
1
10
41.5265927954667
20
-3.33595450343253
30
0
41
1
10
41.5055952898816
20
-3.32160359734891
30
0
41
1
10
41.4057658972203
20
-3.23994261042421
30
0
41
1
10
41.3409362986101
20
-3.142842972892
30
0
41
1
10
41.2676998504157
20
-2.94645803652236
30
0
41
1
10
41.247262621891
20
-2.87174171976818
30
0
41
1
10
41.2161633881756
20
-2.70898018110697
30
0
41
1
10
41.2053016635427
20
-2.62069343458765
30
0
41
1
10
41.1929099251163
20
-2.43037291429235
30
0
41
1
10
41.1913785118792
20
-2.32834120210936
30
0
41
1
10
41.1980529914457
20
-2.10993324715852
30
0
41
1
10
41.2062484584539
20
-1.99512548443846
30
0
41
1
10
41.2190482256848
20
-1.87625054852134
30
0
0
SPLINE
5
D4
100
AcDbEntity
8
1
62
256
6
ByLayer
370
18
48
1
60
0
100
AcDbSpline
70
4
71
3
72
18
73
14
40
0
40
0
40
0
40
0
40
0.124999999999998
40
0.124999999999998
40
0.249999999999996
40
0.249999999999996
40
0.499999999999997
40
0.499999999999997
40
0.749999999999999
40
0.749999999999999
40
0.874999999999999
40
0.874999999999999
40
1
40
1
40
1
40
1
41
1
10
38.8784128152809
20
1.15106636563684
30
0
41
1
10
38.9202151953449
20
0.999456318430447
30
0
41
1
10
38.9742501249549
20
0.848851889790524
30
0
41
1
10
39.1032766592332
20
0.549365847647266
30
0
41
1
10
39.179090305014
20
0.399296614335356
30
0
41
1
10
39.4262301024224
20
-0.033848598505557
30
0
41
1
10
39.6179577749782
20
-0.304490779964823
30
0
41
1
10
40.0400541942927
20
-0.817931551822738
30
0
41
1
10
40.2636164759354
20
-1.05195091836296
30
0
41
1
10
40.6123633252722
20
-1.37866562399543
30
0
41
1
10
40.7308818331396
20
-1.4834534581245
30
0
41
1
10
40.9720594713119
20
-1.68551787422251
30
0
41
1
10
41.0949700064178
20
-1.78296270316858
30
0
41
1
10
41.2190482256834
20
-1.87625054851998
30
0
0
SPLINE
5
D5
100
AcDbEntity
8
1
62
256
6
ByLayer
370
18
48
1
60
0
100
AcDbSpline
70
4
71
3
72
63
73
59
40
0
40
0
40
0
40
0
40
0.0625000000000027
40
0.0625000000000027
40
0.125000000000005
40
0.125000000000005
40
0.250000000000011
40
0.250000000000011
40
0.375000000000016
40
0.375000000000016
40
0.500000000000022
40
0.500000000000022
40
0.625000000000028
40
0.625000000000028
40
0.640625000000028
40
0.648437500000028
40
0.648437500000028
40
0.652343750000028
40
0.652343750000028
40
0.656250000000027
40
0.656250000000027
40
0.660156250000027
40
0.660156250000027
40
0.664062500000027
40
0.664062500000027
40
0.671875000000026
40
0.671875000000026
40
0.687500000000025
40
0.687500000000025
40
0.703125000000023
40
0.703125000000023
40
0.718750000000022
40
0.718750000000022
40
0.73437500000002
40
0.73437500000002
40
0.750000000000019
40
0.750000000000019
40
0.765625000000017
40
0.765625000000017
40
0.781250000000016
40
0.781250000000016
40
0.796875000000015
40
0.796875000000015
40
0.812500000000013
40
0.812500000000013
40
0.828125000000012
40
0.828125000000012
40
0.84375000000001
40
0.84375000000001
40
0.875000000000008
40
0.875000000000008
40
0.906250000000006
40
0.906250000000006
40
0.937500000000004
40
0.937500000000004
40
0.968750000000002
40
0.968750000000002
40
1
40
1
40
1
40
1
41
1
10
12.1115951918909
20
-0.481153776217838
30
0
41
1
10
11.8462391990926
20
-0.329283650672807
30
0
41
1
10
11.5791289792245
20
-0.179984278391743
30
0
41
1
10
11.0408225968529
20
0.112277025336084
30
0
41
1
10
10.7690251554392
20
0.255524163721958
30
0
41
1
10
9.95099739256483
20
0.670509854505013
30
0
41
1
10
9.40281887917206
20
0.927136328819614
30
0
41
1
10
8.2924007215172
20
1.38730592952109
30
0
41
1
10
7.73007645724044
20
1.59064369244103
30
0
41
1
10
6.58413874263505
20
1.93621058702539
30
0
41
1
10
6.00051351747609
20
2.07849660069647
30
0
41
1
10
4.80780331507981
20
2.30219485495599
30
0
41
1
10
4.20328330658575
20
2.38293839425279
30
0
41
1
10
3.51835135644953
20
2.44158834764829
30
0
41
1
10
3.40408366997446
20
2.45069294667889
30
0
41
1
10
3.28964546070949
20
2.45880003322691
30
0
41
1
10
3.23239776357363
20
2.46268777057995
30
0
41
1
10
3.21330909075948
20
2.46395613700696
30
0
41
1
10
3.17512905145972
20
2.46643722674529
30
0
41
1
10
3.15604615122885
20
2.46815176313552
30
0
41
1
10
3.11783855518794
20
2.46879055975506
30
0
41
1
10
3.09836286018762
20
2.46761864932381
30
0
41
1
10
3.06089618644504
20
2.46012754888858
30
0
41
1
10
3.04444040367247
20
2.45297090802961
30
0
41
1
10
2.9936169179968
20
2.43359124558648
30
0
41
1
10
2.95995378725138
20
2.42021020994935
30
0
41
1
10
2.86004133855437
20
2.37867421324427
30
0
41
1
10
2.79479184200665
20
2.34911370036042
30
0
41
1
10
2.66758468571868
20
2.28532502159209
30
0
41
1
10
2.60562131860954
20
2.25110609721864
30
0
41
1
10
2.48584705026082
20
2.17661267358051
30
0
41
1
10
2.42806573726085
20
2.13630252991959
30
0
41
1
10
2.32024310021672
20
2.04947037265674
30
0
41
1
10
2.26990514534302
20
2.00280225363454
30
0
41
1
10
2.17848716536514
20
1.90081395833659
30
0
41
1
10
2.13720168125627
20
1.84493284305324
30
0
41
1
10
2.06997507612402
20
1.7265335007055
30
0
41
1
10
2.04351612476512
20
1.66341474618889
30
0
41
1
10
2.00805224531035
20
1.52930776542522
30
0
41
1
10
1.99963723097591
20
1.46070772966485
30
0
41
1
10
2.00035547429394
20
1.3203888361214
30
0
41
1
10
2.00979070912817
20
1.24823608935225
30
0
41
1
10
2.04298054783788
20
1.10795706938632
30
0
41
1
10
2.06663642062557
20
1.03890548905338
30
0
41
1
10
2.12517639369886
20
0.902421365012032
30
0
41
1
10
2.15970231824852
20
0.835916829613183
30
0
41
1
10
2.23550897030228
20
0.707344837213043
30
0
41
1
10
2.27697233117721
20
0.644913077374724
30
0
41
1
10
2.40958107809507
20
0.461833628547311
30
0
41
1
10
2.50918171139475
20
0.34510927786917
30
0
41
1
10
2.71693814875022
20
0.124461910130293
30
0
41
1
10
2.82590643672239
20
0.019587174715241
30
0
41
1
10
3.05072110432622
20
-0.182797079330896
30
0
41
1
10
3.16660952898747
20
-0.280261616955158
30
0
41
1
10
3.4035810491863
20
-0.469626462561223
30
0
41
1
10
3.52450709353937
20
-0.561349169280845
30
0
41
1
10
3.76780403401705
20
-0.738452889580856
30
0
41
1
10
3.89054072528935
20
-0.824113077640845
30
0
41
1
10
4.01412984297522
20
-0.907393840676463
30
0
0
SPLINE
5
D6
100
AcDbEntity
8
1
62
256
6
ByLayer
370
18
48
1
60
0
100
AcDbSpline
70
4
71
3
72
22
73
18
40
0
40
0
40
0
40
0
40
0.25
40
0.25
40
0.5
40
0.5
40
0.625
40
0.625
40
0.75
40
0.75
40
0.8125
40
0.8125
40
0.875
40
0.875
40
0.9375
40
0.9375
40
1
40
1
40
1
40
1
41
1
10
41.6026461753204
20
1.06304692560994
30
0
41
1
10
41.7045550728158
20
1.0872782273876
30
0
41
1
10
41.8056349555079
20
1.11486346651012
30
0
41
1
10
42.0027109023619
20
1.18134014826859
30
0
41
1
10
42.0990328334861
20
1.21985198601391
30
0
41
1
10
42.2361756270862
20
1.295851687658
30
0
41
1
10
42.279998325469
20
1.32398833373014
30
0
41
1
10
42.3613199205864
20
1.38913949278012
30
0
41
1
10
42.398417313354
20
1.42595361609264
30
0
41
1
10
42.4437243511222
20
1.4890598307752
30
0
41
1
10
42.4572900234355
20
1.51177377965953
30
0
41
1
10
42.4795554398522
20
1.55929152859289
30
0
41
1
10
42.4882417571219
20
1.58393644897714
30
0
41
1
10
42.5005216056673
20
1.63510013429533
30
0
41
1
10
42.5040537786407
20
1.66172685971304
30
0
41
1
10
42.5059995878467
20
1.71447777415216
30
0
41
1
10
42.5045122174555
20
1.74089311623055
30
0
41
1
10
42.5009202719559
20
1.7673487070951
30
0
0
SPLINE
5
D7
100
AcDbEntity
8
1
62
256
6
ByLayer
370
18
48
1
60
0
100
AcDbSpline
70
4
71
3
72
8
73
4
40
0
40
0
40
0
40
0
40
1
40
1
40
1
40
1
41
1
10
41.814379187542
20
-3.38391115343288
30
0
41
1
10
41.7947069473337
20
-3.39605248460035
30
0
41
1
10
41.777141540451
20
-3.40216624803409
30
0
41
1
10
41.761721361405
20
-3.4021425985334
30
0
0
SPLINE
5
D8
100
AcDbEntity
8
1
62
256
6
ByLayer
370
13
48
1
60
0
100
AcDbSpline
70
4
71
3
72
27
73
23
40
0
40
0
40
0
40
0
40
0.0655151299257918
40
0.143388869098642
40
0.143388869098642
40
0.221262608271493
40
0.221262608271493
40
0.299136347444344
40
0.299136347444344
40
0.377010086617194
40
0.377010086617194
40
0.532757564962895
40
0.532757564962895
40
0.610631304135746
40
0.610631304135746
40
0.688505043308597
40
0.688505043308597
40
0.844252521654298
40
0.844252521654298
40
0.922126260827149
40
0.922126260827149
40
1
40
1
40
1
40
1
41
1
10
4.25025018439342
20
-3.37954790291809
30
0
41
1
10
4.25024431691156
20
-3.3783484979179
30
0
41
1
10
4.25023026951158
20
-3.36707869245237
30
0
41
1
10
4.25021541694366
20
-3.33714476398612
30
0
41
1
10
4.25020000462371
20
-3.29347108654355
30
0
41
1
10
4.25019263246256
20
-3.26591003992809
30
0
41
1
10
4.25017989659474
20
-3.19989466104022
30
0
41
1
10
4.25017453972296
20
-3.16155622155412
30
0
41
1
10
4.25016677365511
20
-3.07423851153257
30
0
41
1
10
4.25016438011122
20
-3.0251419726668
30
0
41
1
10
4.25016277633159
20
-2.86445043166631
30
0
41
1
10
4.2501691150039
20
-2.73893322932852
30
0
41
1
10
4.25019175411296
20
-2.52320929053312
30
0
41
1
10
4.2502015373949
20
-2.44627356058001
30
0
41
1
10
4.25022527887151
20
-2.28488917156366
30
0
41
1
10
4.25023916064404
20
-2.20083038583064
30
0
41
1
10
4.25028622905924
20
-1.93883759773243
30
0
41
1
10
4.2503249165303
20
-1.75118469167086
30
0
41
1
10
4.25039026499999
20
-1.44956849623355
30
0
41
1
10
4.25041305624538
20
-1.34652304068928
30
0
41
1
10
4.25045912173812
20
-1.1379160131288
30
0
41
1
10
4.25048247606
20
-1.03199003386612
30
0
41
1
10
4.25050559772899
20
-0.924456960293412
30
0
0
SPLINE
5
D9
100
AcDbEntity
8
SK1
62
256
6
ByLayer
370
18
48
1
60
0
100
AcDbSpline
70
4
71
3
72
14
73
10
40
0
40
0
40
0
40
0
40
0.125
40
0.125
40
0.25
40
0.25
40
0.5
40
0.5
40
1
40
1
40
1
40
1
41
1
10
-35.15
20
-2.95872249989483
30
0
41
1
10
-35.15
20
-2.95136046418125
30
0
41
1
10
-35.1517507934569
20
-2.94181767384893
30
0
41
1
10
-35.1569069278761
20
-2.92202783097574
30
0
41
1
10
-35.160234831946
20
-2.91188113660564
30
0
41
1
10
-35.1714888412645
20
-2.88101453357953
30
0
41
1
10
-35.1802429568046
20
-2.86098270976643
30
0
41
1
10
-35.2083191353841
20
-2.80186934291285
30
0
41
1
10
-35.2286409685638
20
-2.76549634834134
30
0
41
1
10
-35.25
20
-2.7318790158518
30
0
0
SPLINE
5
DA
100
AcDbEntity
8
SK1
62
256
6
ByLayer
370
18
48
1
60
0
100
AcDbSpline
70
4
71
3
72
8
73
4
40
0
40
0
40
0
40
0
40
1
40
1
40
1
40
1
41
1
10
-35.25
20
-2.7318790158518
30
0
41
1
10
-35.5038946288025
20
-2.33227006451526
30
0
41
1
10
-35.7559872437786
20
-1.93181268618889
30
0
41
1
10
-36
20
-1.52755113602944
30
0
0
SPLINE
5
DB
100
AcDbEntity
8
SK1
62
256
6
ByLayer
370
18
48
1
60
0
100
AcDbSpline
70
4
71
3
72
8
73
4
40
0
40
0
40
0
40
0
40
1
40
1
40
1
40
1
41
1
10
-36
20
-2.48978868411592
30
0
41
1
10
-35.7560023534748
20
-2.89402520169378
30
0
41
1
10
-35.5039048565556
20
-3.29449151497218
30
0
41
1
10
-35.25
20
-3.69411656393831
30
0
0
SPLINE
5
DC
100
AcDbEntity
8
SK1
62
256
6
ByLayer
370
18
48
1
60
0
100
AcDbSpline
70
4
71
3
72
14
73
10
40
0
40
0
40
0
40
0
40
0.5
40
0.5
40
0.749999999999998
40
0.749999999999998
40
0.874999999999999
40
0.874999999999999
40
1
40
1
40
1
40
1
41
1
10
-35.25
20
-3.69411656393848
30
0
41
1
10
-35.2287404812744
20
-3.72757727172865
30
0
41
1
10
-35.208362723075
20
-3.75815743817111
30
0
41
1
10
-35.1802905070704
20
-3.79679898416836
30
0
41
1
10
-35.1714466180788
20
-3.808331602723
30
0
41
1
10
-35.1602396792677
20
-3.82088146316565
30
0
41
1
10
-35.1568594217207
20
-3.82424019803778
30
0
41
1
10
-35.1517495297274
20
-3.82767534846931
30
0
41
1
10
-35.15
20
-3.82772537421005
30
0
41
1
10
-35.15
20
-3.82473629317269
30
0
0
LINE
5
76
100
AcDbEntity
8
81
62
256
6
ByLayer
370
18
48
1
60
0
100
AcDbLine
10
43
20
0
30
0
11
48
21
0
31
0
39
0
210
0
220
0
230
1
0
LINE
5
77
100
AcDbEntity
8
1
62
256
6
ByLayer
370
18
48
1
60
0
100
AcDbLine
10
4.014008
20
3.547301
30
0
11
1.117479
21
3.545563
31
0
39
0
210
0
220
0
230
1
0
LINE
5
79
100
AcDbEntity
8
1
62
256
6
ByLayer
370
18
48
1
60
0
100
AcDbLine
10
21.570792
20
3.557835
30
0
11
20.975925
21
3.557478
31
0
39
0
210
0
220
0
230
1
0
LINE
5
7A
100
AcDbEntity
8
1
62
256
6
ByLayer
370
18
48
1
60
0
100
AcDbLine
10
40.971238
20
3.569475
30
0
11
40.383009
21
3.569122
31
0
39
0
210
0
220
0
230
1
0
LINE
5
7B
100
AcDbEntity
8
1
62
256
6
ByLayer
370
18
48
1
60
0
100
AcDbLine
10
40.383009
20
-3.569122
30
0
11
40.971743
21
-3.569475
31
0
39
0
210
0
220
0
230
1
0
LINE
5
7C
100
AcDbEntity
8
1
62
256
6
ByLayer
370
18
48
1
60
0
100
AcDbLine
10
20.975925
20
-3.557478
30
0
11
21.571086
21
-3.557835
31
0
39
0
210
0
220
0
230
1
0
LINE
5
7D
100
AcDbEntity
8
1
62
256
6
ByLayer
370
18
48
1
60
0
100
AcDbLine
10
1.117479
20
-3.545563
30
0
11
4.014008
21
-3.547301
31
0
39
0
210
0
220
0
230
1
0
LINE
5
7E
100
AcDbEntity
8
SK1
62
256
6
ByLayer
370
18
48
1
60
0
100
AcDbLine
10
-35.133975
20
4
30
0
11
-36
21
2.5
31
0
39
0
210
0
220
0
230
1
0
LINE
5
80
100
AcDbEntity
8
SK1
62
256
6
ByLayer
370
18
48
1
60
0
100
AcDbLine
10
-36
20
-2.5
30
0
11
-35.133975
21
-4
31
0
39
0
210
0
220
0
230
1
0
LINE
5
81
100
AcDbEntity
8
SK1
62
256
6
ByLayer
370
18
48
1
60
0
100
AcDbLine
10
0
20
4
30
0
11
-35.133975
21
4
31
0
39
0
210
0
220
0
230
1
0
LINE
5
82
100
AcDbEntity
8
SK1
62
256
6
ByLayer
370
18
48
1
60
0
100
AcDbLine
10
-35.133975
20
-4
30
0
11
0
21
-4
31
0
39
0
210
0
220
0
230
1
0
LINE
5
83
100
AcDbEntity
8
SK4
62
256
6
ByLayer
370
18
48
0.05
60
0
100
AcDbLine
10
48
20
0
30
0
11
-41
21
0
31
0
39
0
210
0
220
0
230
1
0
LINE
5
85
100
AcDbEntity
8
4
62
256
6
ByLayer
370
18
48
0.05
60
0
100
AcDbLine
10
43
20
0
30
0
11
0
21
0
31
0
39
0
210
0
220
0
230
1
0
LINE
5
87
100
AcDbEntity
8
80
62
256
6
ByLayer
370
18
48
1
60
0
100
AcDbLine
10
0
20
0
30
0
11
-5
21
0
31
0
39
0
210
0
220
0
230
1
0
LINE
5
88
100
AcDbEntity
8
1
62
256
6
ByLayer
370
13
48
1
60
0
100
AcDbLine
10
4.250265
20
3.372071
30
0
11
4.250252
21
3.379816
31
0
39
0
210
0
220
0
230
1
0
LINE
5
89
100
AcDbEntity
8
1
62
256
6
ByLayer
370
18
48
1
60
0
100
AcDbLine
10
4.250252
20
3.379816
30
0
11
4.25025
21
3.379548
31
0
39
0
210
0
220
0
230
1
0
LINE
5
8A
100
AcDbEntity
8
1
62
256
6
ByLayer
370
13
48
1
60
0
100
AcDbLine
10
41.976565
20
0.399937
30
0
11
42.894981
21
-0.144989
31
0
39
0
210
0
220
0
230
1
0
LINE
5
8B
100
AcDbEntity
8
1
62
256
6
ByLayer
370
13
48
1
60
0
100
AcDbLine
10
42.166472
20
0.735267
30
0
11
42.924095
21
0.285744
31
0
39
0
210
0
220
0
230
1
0
LINE
5
8C
100
AcDbEntity
8
1
62
256
6
ByLayer
370
13
48
1
60
0
100
AcDbLine
10
1.117479
20
3.545563
30
0
11
1.117479
21
-3.545563
31
0
39
0
210
0
220
0
230
1
0
LINE
5
8D
100
AcDbEntity
8
1
62
256
6
ByLayer
370
18
48
1
60
0
100
AcDbLine
10
43
20
0
30
0
11
42.993586
21
-0.035563
31
0
39
0
210
0
220
0
230
1
0
LINE
5
8E
100
AcDbEntity
8
1
62
256
6
ByLayer
370
18
48
1
60
0
100
AcDbLine
10
41.219048
20
-1.876251
30
0
11
42.894981
21
-0.144989
31
0
39
0
210
0
220
0
230
1
0
LINE
5
8F
100
AcDbEntity
8
1
62
256
6
ByLayer
370
18
48
1
60
0
100
AcDbLine
10
42.924095
20
-0.285744
30
0
11
42.819219
21
-0.735267
31
0
39
0
210
0
220
0
230
1
0
LINE
5
90
100
AcDbEntity
8
1
62
256
6
ByLayer
370
13
48
1
60
0
100
AcDbLine
10
42.819219
20
0.735267
30
0
11
42.166472
21
0.735267
31
0
39
0
210
0
220
0
230
1
0
LINE
5
91
100
AcDbEntity
8
1
62
256
6
ByLayer
370
18
48
1
60
0
100
AcDbLine
10
43
20
0
30
0
11
41.761721
21
-3.402143
31
0
39
0
210
0
220
0
230
1
0
LINE
5
92
100
AcDbEntity
8
1
62
256
6
ByLayer
370
13
48
1
60
0
100
AcDbLine
10
0.558499
20
3.772781
30
0
11
0.558499
21
-3.772781
31
0
39
0
210
0
220
0
230
1
0
LINE
5
93
100
AcDbEntity
8
1
62
256
6
ByLayer
370
18
48
1
60
0
100
AcDbLine
10
42.924095
20
0.285744
30
0
11
42.819219
21
0.735267
31
0
39
0
210
0
220
0
230
1
0
LINE
5
94
100
AcDbEntity
8
1
62
256
6
ByLayer
370
18
48
1
60
0
100
AcDbLine
10
42.993586
20
0.035563
30
0
11
43
21
0
31
0
39
0
210
0
220
0
230
1
0
LINE
5
95
100
AcDbEntity
8
1
62
256
6
ByLayer
370
18
48
1
60
0
100
AcDbLine
10
4.250253
20
-3.379817
30
0
11
4.25025
21
-3.379548
31
0
39
0
210
0
220
0
230
1
0
LINE
5
96
100
AcDbEntity
8
1
62
256
6
ByLayer
370
18
48
1
60
0
100
AcDbLine
10
0
20
-4
30
0
11
0
21
4
31
0
39
0
210
0
220
0
230
1
0
LINE
5
97
100
AcDbEntity
8
SK1
62
256
6
ByLayer
370
18
48
1
60
0
100
AcDbLine
10
-36
20
-2.5
30
0
11
-36
21
-2.489789
31
0
39
0
210
0
220
0
230
1
0
LINE
5
98
100
AcDbEntity
8
SK1
62
256
6
ByLayer
370
18
48
1
60
0
100
AcDbLine
10
-36
20
2.5
30
0
11
-36
21
-1.527551
31
0
39
0
210
0
220
0
230
1
0
LINE
5
99
100
AcDbEntity
8
SK1
62
256
6
ByLayer
370
18
48
1
60
0
100
AcDbLine
10
-35.133975
20
4
30
0
11
-35.133975
21
-4
31
0
39
0
210
0
220
0
230
1
0
LINE
5
9A
100
AcDbEntity
8
SK1
62
256
6
ByLayer
370
18
48
1
60
0
100
AcDbLine
10
-36
20
-1.52751
30
0
11
-36
21
-2.489789
31
0
39
0
210
0
220
0
230
1
0
LINE
5
9B
100
AcDbEntity
8
SK1
62
256
6
ByLayer
370
18
48
1
60
0
100
AcDbLine
10
-35.15
20
-3.824736
30
0
11
-35.15
21
-2.958722
31
0
39
0
210
0
220
0
230
1
0
LINE
5
9C
100
AcDbEntity
8
SK1
62
256
6
ByLayer
370
18
48
1
60
0
100
AcDbLine
10
0
20
-4
30
0
11
0
21
4
31
0
39
0
210
0
220
0
230
1
0
LINE
5
9D
100
AcDbEntity
8
SK1
62
256
6
ByLayer
370
13
48
1
60
0
100
AcDbLine
10
-35.25
20
-2.731824
30
0
11
-35.25
21
-3.694117
31
0
39
0
210
0
220
0
230
1
0
MTEXT
5
DD
100
AcDbEntity
8
SK6
62
256
6
ByLayer
370
13
48
1
60
0
100
AcDbMText
10
5.629169
20
35.952694
30
0
210
0
220
0
230
1
1
\W0.7470;R840-0714-30-A1A1220
40
3.5
41
0
44
1.084337
50
0
71
8
72
5
7
iso_b_vert
0
DIMENSION
5
EA
100
AcDbEntity
8
SK2
62
256
6
ByLayer
370
13
48
1
60
0
100
AcDbDimension
2
DimnDraft3D1
10
41.79
20
-13.783398
30
0
11
19.540059
21
-13.783398
31
0
70
32
71
5
72
1
41
1
210
0
220
0
230
1
3
Standard
100
AcDbAlignedDimension
13
0
23
-1.5875
33
0
14
41.79
24
-5.1575
34
0
50
0
100
AcDbRotatedDimension
1001
ACAD
1000
DSTYLE
1002
{
1070
   279
1070
     0
1070
   172
1070
     1
1070
   173
1070
     1
1070
   340
1005
DE
1070
   271
1070
     2
1070
   272
1070
     2
1070
    77
1070
     1
1070
    73
1070
     0
1070
   171
1070
     3
1070
   274
1070
     4
1070
   177
1070
    35
1070
   176
1070
    35
1070
   178
1070
    35
1070
    48
1040
-0.005
1070
    41
1041
3.5
1070
   147
1041
1.75
1070
    42
1041
1.5875
1070
    44
1041
2.0
1070
   140
1041
3.5
1070
   343
1005
0
1070
   344
1005
0
1002
}
0
DIMENSION
5
F4
100
AcDbEntity
8
SK2
62
256
6
ByLayer
370
13
48
1
60
0
100
AcDbDimension
2
DimnDraft3D2
10
43
20
-32.692985
30
0
11
3.6313
21
-32.692985
31
0
70
32
71
5
72
1
41
1
210
0
220
0
230
1
3
Standard
100
AcDbAlignedDimension
13
-36
23
-5.5875
33
0
14
43
24
-1.5875
34
0
50
0
100
AcDbRotatedDimension
1001
ACAD
1000
DSTYLE
1002
{
1070
   279
1070
     0
1070
   172
1070
     1
1070
   173
1070
     1
1070
   340
1005
DE
1070
   271
1070
     2
1070
   272
1070
     2
1070
    77
1070
     1
1070
    73
1070
     0
1070
   171
1070
     3
1070
   274
1070
     4
1070
   177
1070
    35
1070
   176
1070
    35
1070
   178
1070
    35
1070
    48
1040
-0.005
1070
    41
1041
3.5
1070
   147
1041
1.75
1070
    42
1041
1.5875
1070
    44
1041
2.0
1070
   140
1041
3.5
1070
   343
1005
0
1070
   344
1005
0
1002
}
0
DIMENSION
5
FE
100
AcDbEntity
8
SK2
62
256
6
ByLayer
370
13
48
1
60
0
100
AcDbDimension
2
DimnDraft3D3
10
43
20
15.179119
30
0
11
31.685
21
15.179119
31
0
70
32
71
5
72
1
41
1
210
0
220
0
230
1
3
Standard
100
AcDbAlignedDimension
13
20.37
23
5.1575
33
0
14
43
24
1.5875
34
0
50
0
100
AcDbRotatedDimension
1001
ACAD
1000
DSTYLE
1002
{
1070
   279
1070
     0
1070
   172
1070
     1
1070
   173
1070
     1
1070
   340
1005
DE
1070
   271
1070
     2
1070
   272
1070
     2
1070
    77
1070
     1
1070
    73
1070
     0
1070
   171
1070
     3
1070
   274
1070
     4
1070
   177
1070
    35
1070
   176
1070
    35
1070
   178
1070
    35
1070
    48
1040
-0.005
1070
    41
1041
3.5
1070
   147
1041
1.75
1070
    42
1041
1.5875
1070
    44
1041
2.0
1070
   140
1041
3.5
1070
   343
1005
0
1070
   344
1005
0
1002
}
0
DIMENSION
5
108
100
AcDbEntity
8
SK2
62
256
6
ByLayer
370
13
48
1
60
0
100
AcDbDimension
2
DimnDraft3D4
10
41.79
20
-16.372503
30
0
11
52.981425
21
-16.372503
31
0
70
32
71
5
72
1
41
1
210
0
220
0
230
1
3
Standard
100
AcDbAlignedDimension
13
43
23
-1.5875
33
0
14
41.79
24
-5.1575
34
0
50
0
100
AcDbRotatedDimension
1001
ACAD
1000
DSTYLE
1002
{
1070
   279
1070
     0
1070
   172
1070
     1
1070
   173
1070
     1
1070
   340
1005
DE
1070
   271
1070
     2
1070
   272
1070
     2
1070
    77
1070
     1
1070
    73
1070
     0
1070
   171
1070
     3
1070
   274
1070
     4
1070
   177
1070
    35
1070
   176
1070
    35
1070
   178
1070
    35
1070
    48
1040
-0.005
1070
    41
1041
3.5
1070
   147
1041
1.75
1070
    42
1041
1.5875
1070
    44
1041
2.0
1070
   140
1041
3.5
1070
   343
1005
0
1070
   344
1005
0
1002
}
0
DIMENSION
5
112
100
AcDbEntity
8
SK2
62
256
6
ByLayer
370
13
48
1
60
0
100
AcDbDimension
2
DimnDraft3D5
10
41.79
20
-22.343428
30
0
11
0.550676
21
-22.343428
31
0
70
32
71
5
72
1
41
1
210
0
220
0
230
1
3
Standard
100
AcDbAlignedDimension
13
-36
23
-5.5875
33
0
14
41.79
24
-5.1575
34
0
50
0
100
AcDbRotatedDimension
1001
ACAD
1000
DSTYLE
1002
{
1070
   279
1070
     0
1070
   172
1070
     1
1070
   173
1070
     1
1070
   340
1005
DE
1070
   271
1070
     2
1070
   272
1070
     2
1070
    77
1070
     1
1070
    73
1070
     0
1070
   171
1070
     3
1070
   274
1070
     4
1070
   177
1070
    35
1070
   176
1070
    35
1070
   178
1070
    35
1070
    48
1040
-0.005
1070
    41
1041
3.5
1070
   147
1041
1.75
1070
    42
1041
1.5875
1070
    44
1041
2.0
1070
   140
1041
3.5
1070
   343
1005
0
1070
   344
1005
0
1002
}
0
DIMENSION
5
11D
100
AcDbEntity
8
SK2
62
256
6
ByLayer
370
13
48
1
60
0
100
AcDbDimension
2
DimnDraft3D6
10
-46.625163
20
4
30
0
11
-47.250163
21
22.47418
31
0
70
33
71
5
72
1
41
1
210
0
220
0
230
1
3
Standard
100
AcDbAlignedDimension
13
-37.5875
23
-4
33
0
14
-37.5875
24
4
34
0
1001
ACAD
1000
DSTYLE
1002
{
1070
   279
1070
     0
1070
    74
1070
     0
1070
   173
1070
     1
1070
   340
1005
DE
1070
   271
1070
     3
1070
   272
1070
     2
1070
    77
1070
     1
1070
    73
1070
     0
1070
   171
1070
     3
1070
   274
1070
     4
1070
   177
1070
    35
1070
   176
1070
    35
1070
   178
1070
    35
1070
    48
1040
-0.005
1070
    41
1041
3.5
1070
   147
1041
1.75
1070
    42
1041
1.5875
1070
    44
1041
2.0
1070
   140
1041
3.5
1070
   343
1005
0
1070
   344
1005
0
1002
}
0
DIMENSION
5
128
100
AcDbEntity
8
2
62
256
6
ByLayer
370
13
48
1
60
0
100
AcDbDimension
2
DimnDraft3D7
10
57.083343
20
3.57
30
0
11
52.458343
21
20.637266
31
0
70
33
71
5
72
1
41
1
210
0
220
0
230
1
3
Standard
100
AcDbAlignedDimension
13
43.3775
23
-3.57
33
0
14
43.3775
24
3.57
34
0
1001
ACAD
1000
DSTYLE
1002
{
1070
   279
1070
     0
1070
    74
1070
     0
1070
   173
1070
     1
1070
   340
1005
DE
1070
   271
1070
     3
1070
   272
1070
     2
1070
    77
1070
     1
1070
    73
1070
     0
1070
   171
1070
     3
1070
   274
1070
     4
1070
   177
1070
    35
1070
   176
1070
    35
1070
   178
1070
    35
1070
    48
1040
-0.005
1070
    41
1041
3.5
1070
   147
1041
1.75
1070
    42
1041
1.5875
1070
    44
1041
2.0
1070
   140
1041
3.5
1070
   343
1005
0
1070
   344
1005
0
1002
}
0
ENDSEC
0
SECTION
2
OBJECTS
0
DICTIONARY
5
193
330
0
100
AcDbDictionary
280
0
281
1
3
ACAD_GROUP
350
194
3
ACAD_MLINESTYLE
350
195
0
DICTIONARY
5
194
330
0
100
AcDbDictionary
280
0
281
1
0
DICTIONARY
5
195
330
0
100
AcDbDictionary
280
0
281
1
3
Standard
350
18
0
MLINESTYLE
5
18
330
195
100
AcDbMlineStyle
2
Standard
70
0
3

62
256
51
90
52
90
71
2
49
-0.5
62
256
6
ByLayer
49
0.5
62
256
6
ByLayer
0
RASTERVARIABLES
5
181
330

100
AcDbRasterVariables
90
0
70
1
71
1
72
1
0
ENDSEC
0
EOF
