0
SECTION
2
HEADER
9
$ACADVER
1
AC1015
9
$DWGCODEPAGE
3
ANSI_1252
9
$HANDSEED
5
197
9
$ANGBASE
50
0
9
$ANGDIR
70
0
9
$ATTMODE
70
1
9
$AUNITS
70
0
9
$AUPREC
70
0
9
$CECOLOR
62
256
9
$CELTSCALE
40
1
9
$CELTYPE
6
ByLayer
9
$CELWEIGHT
370
18
9
$CLAYER
8
0
9
$CMLJUST
70
0
9
$CMLSCALE
40
1
9
$CMLSTYLE
2
Standard
9
$DIMSTYLE
2
Standard
9
$TEXTSIZE
40
0.2
9
$TEXTSTYLE
7
Standard
9
$LUNITS
70
2
9
$LUPREC
70
4
9
$EXTNAMES
290
1
9
$INSUNITS
70
4
9
$LTSCALE
40
1
9
$LWDISPLAY
290
1
9
$PDMODE
70
0
9
$PDSIZE
40
0
9
$PLINEGEN
70
0
0
ENDSEC
0
SECTION
2
CLASSES
0
CLASS
1
RASTERVARIABLES
2
AcDbRasterVariables
3
ISM
90
0
280
0
281
0
0
ENDSEC
0
SECTION
2
TABLES
0
TABLE
2
VPORT
5
18d
100
AcDbSymbolTable
0
VPORT
5
1
100
AcDbSymbolTableRecord
100
AcDbViewportTableRecord
2
*Active
70
0
10
0
20
0
11
1
21
1
12
-1
22
1
13
0
23
0
14
0.5
24
0.5
15
10
25
10
16
0
26
0
36
1
17
0
27
0
37
0
0
ENDTAB
0
TABLE
2
LTYPE
5
18e
100
AcDbSymbolTable
0
LTYPE
5
14
100
AcDbSymbolTableRecord
100
AcDbLinetypeTableRecord
70
0
2
ByBlock
3

72
65
73
0
40
0
0
LTYPE
5
15
100
AcDbSymbolTableRecord
100
AcDbLinetypeTableRecord
70
0
2
ByLayer
3

72
65
73
0
40
0
0
LTYPE
5
16
100
AcDbSymbolTableRecord
100
AcDbLinetypeTableRecord
70
0
2
CONTINUOUS
3
Solid line
72
65
73
0
40
0
0
LTYPE
5
6A
100
AcDbSymbolTableRecord
100
AcDbLinetypeTableRecord
70
0
2
CENTER
3
____ _ ____ _ ____ _ ____
72
65
73
4
40
47.5
49
22
74
0
49
-8.5
74
0
49
8.5
74
0
49
-8.5
74
0
0
LTYPE
5
6B
100
AcDbSymbolTableRecord
100
AcDbLinetypeTableRecord
70
0
2
DASHED
3
__ __ __ __ __ __ __ __ __
72
65
73
2
40
25.72
49
12.86
74
0
49
-12.86
74
0
0
ENDTAB
0
TABLE
2
LAYER
5
18f
100
AcDbSymbolTable
0
LAYER
5
10
100
AcDbSymbolTableRecord
100
AcDbLayerTableRecord
2
0
70
0
62
7
6
CONTINUOUS
290
1
370
-3
390
0
0
LAYER
5
6D
100
AcDbSymbolTableRecord
100
AcDbLayerTableRecord
2
81
70
0
62
-3
6
CONTINUOUS
290
1
370
-3
390
0
0
LAYER
5
6F
100
AcDbSymbolTableRecord
100
AcDbLayerTableRecord
2
80
70
0
62
-6
6
CONTINUOUS
290
1
370
-3
390
0
0
LAYER
5
74
100
AcDbSymbolTableRecord
100
AcDbLayerTableRecord
2
2
70
0
62
7
6
CONTINUOUS
290
1
370
-3
390
0
0
LAYER
5
78
100
AcDbSymbolTableRecord
100
AcDbLayerTableRecord
2
1
70
0
62
4
6
CONTINUOUS
290
1
370
-3
390
0
0
LAYER
5
86
100
AcDbSymbolTableRecord
100
AcDbLayerTableRecord
2
4
70
0
62
-2
6
CENTER
290
1
370
-3
390
0
0
LAYER
5
179
100
AcDbSymbolTableRecord
100
AcDbLayerTableRecord
2
SK2
70
0
62
7
6
CONTINUOUS
290
1
370
-3
390
0
0
LAYER
5
17a
100
AcDbSymbolTableRecord
100
AcDbLayerTableRecord
2
SK1
70
0
62
4
6
CONTINUOUS
290
1
370
-3
390
0
0
LAYER
5
17b
100
AcDbSymbolTableRecord
100
AcDbLayerTableRecord
2
SK4
70
0
62
2
6
CENTER
290
1
370
-3
390
0
0
LAYER
5
17c
100
AcDbSymbolTableRecord
100
AcDbLayerTableRecord
2
SK6
70
0
62
5
6
CONTINUOUS
290
1
370
-3
390
0
0
ENDTAB
0
TABLE
2
STYLE
5
190
100
AcDbSymbolTable
0
STYLE
5
11
100
AcDbSymbolTableRecord
100
AcDbTextStyleTableRecord
2
Standard
3
txt
70
0
71
0
40
0
41
1
42
0
50
0
0
STYLE
5
D5
100
AcDbSymbolTableRecord
100
AcDbTextStyleTableRecord
2
iso_b_vert
3
simplex.shx
70
0
71
0
40
0
41
1
42
0
50
0
0
STYLE
5
D6
100
AcDbSymbolTableRecord
100
AcDbTextStyleTableRecord
2
DWGDirectTextStyle
3
simplex
70
0
71
0
40
0
41
1
42
0
50
0
0
ENDTAB
0
TABLE
2
DIMSTYLE
5
191
100
AcDbSymbolTable
100
AcDbDimStyleTable
0
DIMSTYLE
105
27
100
AcDbSymbolTableRecord
100
AcDbDimStyleTableRecord
2
Standard
70
0
3
<>
41
0.18
42
0.0625
44
0.18
140
0.18
147
0.09
73
0
74
0
77
1
271
2
275
0
278
52
280
0
340
11
0
ENDTAB
0
TABLE
2
VIEW
5
192
100
AcDbSymbolTable
0
ENDTAB
0
TABLE
2
UCS
5
193
100
AcDbSymbolTable
0
ENDTAB
0
TABLE
2
APPID
5
194
100
AcDbSymbolTable
0
APPID
5
12
100
AcDbSymbolTableRecord
100
AcDbRegAppTableRecord
2
ACAD
70
0
0
ENDTAB
0
TABLE
2
BLOCK_RECORD
5
195
100
AcDbSymbolTable
0
BLOCK_RECORD
5
1F
100
AcDbSymbolTableRecord
100
AcDbBlockTableRecord
2
*Model_Space
340
0
70
0
0
BLOCK_RECORD
5
1B
100
AcDbSymbolTableRecord
100
AcDbBlockTableRecord
2
*Paper_Space
340
0
70
0
0
BLOCK_RECORD
5
23
100
AcDbSymbolTableRecord
100
AcDbBlockTableRecord
2
*Paper_Space0
340
0
70
0
0
BLOCK_RECORD
5
D8
100
AcDbSymbolTableRecord
100
AcDbBlockTableRecord
2
DimnDraft3D1
340
0
70
0
0
BLOCK_RECORD
5
E2
100
AcDbSymbolTableRecord
100
AcDbBlockTableRecord
2
DimnDraft3D2
340
0
70
0
0
BLOCK_RECORD
5
EC
100
AcDbSymbolTableRecord
100
AcDbBlockTableRecord
2
DimnDraft3D3
340
0
70
0
0
BLOCK_RECORD
5
F6
100
AcDbSymbolTableRecord
100
AcDbBlockTableRecord
2
DimnDraft3D4
340
0
70
0
0
BLOCK_RECORD
5
100
100
AcDbSymbolTableRecord
100
AcDbBlockTableRecord
2
DimnDraft3D5
340
0
70
0
0
BLOCK_RECORD
5
10A
100
AcDbSymbolTableRecord
100
AcDbBlockTableRecord
2
DimnDraft3D6
340
0
70
0
0
BLOCK_RECORD
5
115
100
AcDbSymbolTableRecord
100
AcDbBlockTableRecord
2
DimnDraft3D7
340
0
70
0
0
ENDTAB
0
ENDSEC
0
SECTION
2
BLOCKS
0
BLOCK
5
20
100
AcDbEntity
8
0
100
AcDbBlockBegin
2
*Model_Space
70
0
10
0
20
0
30
0
3
*Model_Space
0
ENDBLK
5
21
100
AcDbEntity
8
0
100
AcDbBlockEnd
0
BLOCK
5
1C
100
AcDbEntity
8
0
100
AcDbBlockBegin
2
*Paper_Space
70
0
10
0
20
0
30
0
3
*Paper_Space
0
ENDBLK
5
1D
100
AcDbEntity
8
0
100
AcDbBlockEnd
0
BLOCK
5
24
100
AcDbEntity
8
0
100
AcDbBlockBegin
2
*Paper_Space0
70
0
10
0
20
0
30
0
3
*Paper_Space0
0
ENDBLK
5
25
100
AcDbEntity
8
0
100
AcDbBlockEnd
0
BLOCK
5
DF
100
AcDbEntity
8
0
100
AcDbBlockBegin
2
DimnDraft3D1
70
0
10
0
20
0
30
0
3
DimnDraft3D1
0
MTEXT
5
D9
100
AcDbEntity
8
SK2
62
256
6
ByLayer
370
13
48
1
60
0
100
AcDbMText
10
15.344664
20
-12.888398
30
0
210
0
220
0
230
1
1
\W0.7059;41,79
40
3.5
41
0
44
1.084337
50
0
71
7
72
5
7
iso_b_vert
0
LINE
5
DA
100
AcDbEntity
8
SK2
62
256
6
ByLayer
370
13
48
1
60
0
100
AcDbLine
10
0
20
-1.5875
30
0
11
0
21
-15.763398
31
0
39
0
210
0
220
0
230
1
0
LINE
5
DB
100
AcDbEntity
8
SK2
62
256
6
ByLayer
370
13
48
1
60
0
100
AcDbLine
10
41.79
20
-5.1375
30
0
11
41.79
21
-15.763398
31
0
39
0
210
0
220
0
230
1
0
LINE
5
DC
100
AcDbEntity
8
SK2
62
256
6
ByLayer
370
13
48
1
60
0
100
AcDbLine
10
0
20
-13.763398
30
0
11
41.79
21
-13.763398
31
0
39
0
210
0
220
0
230
1
0
SOLID
5
DD
100
AcDbEntity
8
SK2
62
256
6
ByLayer
370
13
48
1
60
0
100
AcDbTrace
10
0
20
-13.763398
30
0
11
3.499998
21
-13.302615
31
0
12
3.500002
22
-14.224182
32
0
13
0
23
-13.763398
33
0
39
0
210
0
220
0
230
1
0
SOLID
5
DE
100
AcDbEntity
8
SK2
62
256
6
ByLayer
370
13
48
1
60
0
100
AcDbTrace
10
41.79
20
-13.763398
30
0
11
38.290002
21
-14.224182
31
0
12
38.289998
22
-13.302615
32
0
13
41.79
23
-13.763398
33
0
39
0
210
0
220
0
230
1
0
ENDBLK
5
E0
100
AcDbEntity
8
0
100
AcDbBlockEnd
0
BLOCK
5
E9
100
AcDbEntity
8
0
100
AcDbBlockBegin
2
DimnDraft3D2
70
0
10
0
20
0
30
0
3
DimnDraft3D2
0
MTEXT
5
E3
100
AcDbEntity
8
SK2
62
256
6
ByLayer
370
13
48
1
60
0
100
AcDbMText
10
-0.817384
20
-31.817985
30
0
210
0
220
0
230
1
1
\W0.7317;79,00
40
3.5
41
0
44
1.084337
50
0
71
7
72
5
7
iso_b_vert
0
LINE
5
E4
100
AcDbEntity
8
SK2
62
256
6
ByLayer
370
13
48
1
60
0
100
AcDbLine
10
-36
20
-5.5875
30
0
11
-36
21
-34.692985
31
0
39
0
210
0
220
0
230
1
0
LINE
5
E5
100
AcDbEntity
8
SK2
62
256
6
ByLayer
370
13
48
1
60
0
100
AcDbLine
10
43
20
-1.5875
30
0
11
43
21
-34.692985
31
0
39
0
210
0
220
0
230
1
0
LINE
5
E6
100
AcDbEntity
8
SK2
62
256
6
ByLayer
370
13
48
1
60
0
100
AcDbLine
10
-36
20
-32.692985
30
0
11
43
21
-32.692985
31
0
39
0
210
0
220
0
230
1
0
SOLID
5
E7
100
AcDbEntity
8
SK2
62
256
6
ByLayer
370
13
48
1
60
0
100
AcDbTrace
10
-36
20
-32.692985
30
0
11
-32.500002
21
-32.232202
31
0
12
-32.499998
22
-33.153769
32
0
13
-36
23
-32.692985
33
0
39
0
210
0
220
0
230
1
0
SOLID
5
E8
100
AcDbEntity
8
SK2
62
256
6
ByLayer
370
13
48
1
60
0
100
AcDbTrace
10
43
20
-32.692985
30
0
11
39.500002
21
-33.153769
31
0
12
39.499998
22
-32.232202
32
0
13
43
23
-32.692985
33
0
39
0
210
0
220
0
230
1
0
ENDBLK
5
EA
100
AcDbEntity
8
0
100
AcDbBlockEnd
0
BLOCK
5
F3
100
AcDbEntity
8
0
100
AcDbBlockBegin
2
DimnDraft3D3
70
0
10
0
20
0
30
0
3
DimnDraft3D3
0
MTEXT
5
ED
100
AcDbEntity
8
SK2
62
256
6
ByLayer
370
13
48
1
60
0
100
AcDbMText
10
27.733816
20
16.034119
30
0
210
0
220
0
230
1
1
\W0.7211;22,51
40
3.5
41
0
44
1.084337
50
0
71
7
72
5
7
iso_b_vert
0
LINE
5
EE
100
AcDbEntity
8
SK2
62
256
6
ByLayer
370
13
48
1
60
0
100
AcDbLine
10
20.49
20
5.1375
30
0
11
20.49
21
17.159119
31
0
39
0
210
0
220
0
230
1
0
LINE
5
EF
100
AcDbEntity
8
SK2
62
256
6
ByLayer
370
13
48
1
60
0
100
AcDbLine
10
43
20
1.5875
30
0
11
43
21
17.159119
31
0
39
0
210
0
220
0
230
1
0
LINE
5
F0
100
AcDbEntity
8
SK2
62
256
6
ByLayer
370
13
48
1
60
0
100
AcDbLine
10
20.49
20
15.159119
30
0
11
43
21
15.159119
31
0
39
0
210
0
220
0
230
1
0
SOLID
5
F1
100
AcDbEntity
8
SK2
62
256
6
ByLayer
370
13
48
1
60
0
100
AcDbTrace
10
20.49
20
15.159119
30
0
11
23.989998
21
15.619903
31
0
12
23.990002
22
14.698335
32
0
13
20.49
23
15.159119
33
0
39
0
210
0
220
0
230
1
0
SOLID
5
F2
100
AcDbEntity
8
SK2
62
256
6
ByLayer
370
13
48
1
60
0
100
AcDbTrace
10
43
20
15.159119
30
0
11
39.500002
21
14.698335
31
0
12
39.499998
22
15.619903
32
0
13
43
23
15.159119
33
0
39
0
210
0
220
0
230
1
0
ENDBLK
5
F4
100
AcDbEntity
8
0
100
AcDbBlockEnd
0
BLOCK
5
FD
100
AcDbEntity
8
0
100
AcDbBlockBegin
2
DimnDraft3D4
70
0
10
0
20
0
30
0
3
DimnDraft3D4
0
MTEXT
5
F7
100
AcDbEntity
8
SK2
62
256
6
ByLayer
370
13
48
1
60
0
100
AcDbMText
10
50.715636
20
-15.477503
30
0
210
0
220
0
230
1
1
\W0.6132;1,21
40
3.5
41
0
44
1.084337
50
0
71
7
72
5
7
iso_b_vert
0
LINE
5
F8
100
AcDbEntity
8
SK2
62
256
6
ByLayer
370
13
48
1
60
0
100
AcDbLine
10
43
20
-1.5875
30
0
11
43
21
-18.352503
31
0
39
0
210
0
220
0
230
1
0
LINE
5
F9
100
AcDbEntity
8
SK2
62
256
6
ByLayer
370
13
48
1
60
0
100
AcDbLine
10
41.79
20
-5.1375
30
0
11
41.79
21
-18.352503
31
0
39
0
210
0
220
0
230
1
0
LINE
5
FA
100
AcDbEntity
8
SK2
62
256
6
ByLayer
370
13
48
1
60
0
100
AcDbLine
10
33.04
20
-16.352503
30
0
11
56.122215
21
-16.352503
31
0
39
0
210
0
220
0
230
1
0
SOLID
5
FB
100
AcDbEntity
8
SK2
62
256
6
ByLayer
370
13
48
1
60
0
100
AcDbTrace
10
43
20
-16.352503
30
0
11
46.499998
21
-15.891719
31
0
12
46.500002
22
-16.813287
32
0
13
43
23
-16.352503
33
0
39
0
210
0
220
0
230
1
0
SOLID
5
FC
100
AcDbEntity
8
SK2
62
256
6
ByLayer
370
13
48
1
60
0
100
AcDbTrace
10
41.79
20
-16.352503
30
0
11
38.290002
21
-16.813287
31
0
12
38.289998
22
-15.891719
32
0
13
41.79
23
-16.352503
33
0
39
0
210
0
220
0
230
1
0
ENDBLK
5
FE
100
AcDbEntity
8
0
100
AcDbBlockEnd
0
BLOCK
5
107
100
AcDbEntity
8
0
100
AcDbBlockBegin
2
DimnDraft3D5
70
0
10
0
20
0
30
0
3
DimnDraft3D5
0
MTEXT
5
101
100
AcDbEntity
8
SK2
62
256
6
ByLayer
370
13
48
1
60
0
100
AcDbMText
10
-3.898008
20
-21.468428
30
0
210
0
220
0
230
1
1
\W0.7402;77,79
40
3.5
41
0
44
1.084337
50
0
71
7
72
5
7
iso_b_vert
0
LINE
5
102
100
AcDbEntity
8
SK2
62
256
6
ByLayer
370
13
48
1
60
0
100
AcDbLine
10
-36
20
-5.5875
30
0
11
-36
21
-24.343428
31
0
39
0
210
0
220
0
230
1
0
LINE
5
103
100
AcDbEntity
8
SK2
62
256
6
ByLayer
370
13
48
1
60
0
100
AcDbLine
10
41.79
20
-5.1375
30
0
11
41.79
21
-24.343428
31
0
39
0
210
0
220
0
230
1
0
LINE
5
104
100
AcDbEntity
8
SK2
62
256
6
ByLayer
370
13
48
1
60
0
100
AcDbLine
10
-36
20
-22.343428
30
0
11
41.79
21
-22.343428
31
0
39
0
210
0
220
0
230
1
0
SOLID
5
105
100
AcDbEntity
8
SK2
62
256
6
ByLayer
370
13
48
1
60
0
100
AcDbTrace
10
-36
20
-22.343428
30
0
11
-32.500002
21
-21.882645
31
0
12
-32.499998
22
-22.804212
32
0
13
-36
23
-22.343428
33
0
39
0
210
0
220
0
230
1
0
SOLID
5
106
100
AcDbEntity
8
SK2
62
256
6
ByLayer
370
13
48
1
60
0
100
AcDbTrace
10
41.79
20
-22.343428
30
0
11
38.290002
21
-22.804212
31
0
12
38.289998
22
-21.882645
32
0
13
41.79
23
-22.343428
33
0
39
0
210
0
220
0
230
1
0
ENDBLK
5
108
100
AcDbEntity
8
0
100
AcDbBlockEnd
0
BLOCK
5
112
100
AcDbEntity
8
0
100
AcDbBlockBegin
2
DimnDraft3D6
70
0
10
0
20
0
30
0
3
DimnDraft3D6
0
MTEXT
5
10B
100
AcDbEntity
8
SK2
62
256
6
ByLayer
370
13
48
1
60
0
100
AcDbMText
10
-46.375163
20
23.34918
30
0
210
0
220
0
230
1
1
\W0.7317;8,000
40
3.5
41
0
44
1.084337
50
90
71
7
72
5
7
iso_b_vert
0
MTEXT
5
10C
100
AcDbEntity
8
SK2
62
256
6
ByLayer
370
13
48
1
60
0
100
AcDbMText
10
-46.375163
20
18.126524
30
0
210
0
220
0
230
1
1
%%c
40
3.5
41
0
44
1.084337
50
90
71
7
72
5
7
iso_b_vert
0
LINE
5
10D
100
AcDbEntity
8
SK2
62
256
6
ByLayer
370
13
48
1
60
0
100
AcDbLine
10
-37.5875
20
-4
30
0
11
-46.625163
21
-4
31
0
39
0
210
0
220
0
230
1
0
LINE
5
10E
100
AcDbEntity
8
SK2
62
256
6
ByLayer
370
13
48
1
60
0
100
AcDbLine
10
-37.5875
20
4
30
0
11
-46.625163
21
4
31
0
39
0
210
0
220
0
230
1
0
LINE
5
10F
100
AcDbEntity
8
SK2
62
256
6
ByLayer
370
13
48
1
60
0
100
AcDbLine
10
-44.625163
20
-4
30
0
11
-44.625163
21
33.121549
31
0
39
0
210
0
220
0
230
1
0
SOLID
5
110
100
AcDbEntity
8
SK2
62
256
6
ByLayer
370
13
48
1
60
0
100
AcDbTrace
10
-44.625163
20
-4
30
0
11
-45.085946
21
-0.500002
31
0
12
-44.164379
22
-0.499998
32
0
13
-44.625163
23
-4
33
0
39
0
210
0
220
0
230
1
0
SOLID
5
111
100
AcDbEntity
8
SK2
62
256
6
ByLayer
370
13
48
1
60
0
100
AcDbTrace
10
-44.625163
20
4
30
0
11
-44.164379
21
0.500002
31
0
12
-45.085946
22
0.499998
32
0
13
-44.625163
23
4
33
0
39
0
210
0
220
0
230
1
0
ENDBLK
5
113
100
AcDbEntity
8
0
100
AcDbBlockEnd
0
BLOCK
5
11D
100
AcDbEntity
8
0
100
AcDbBlockBegin
2
DimnDraft3D7
70
0
10
0
20
0
30
0
3
DimnDraft3D7
0
MTEXT
5
116
100
AcDbEntity
8
2
62
256
6
ByLayer
370
13
48
1
60
0
100
AcDbMText
10
53.333343
20
21.492266
30
0
210
0
220
0
230
1
1
\W0.6713;7,100
40
3.5
41
0
44
1.084337
50
90
71
7
72
5
7
iso_b_vert
0
MTEXT
5
117
100
AcDbEntity
8
2
62
256
6
ByLayer
370
13
48
1
60
0
100
AcDbMText
10
53.333343
20
16.26961
30
0
210
0
220
0
230
1
1
%%c
40
3.5
41
0
44
1.084337
50
90
71
7
72
5
7
iso_b_vert
0
LINE
5
118
100
AcDbEntity
8
2
62
256
6
ByLayer
370
13
48
1
60
0
100
AcDbLine
10
43.3775
20
-3.55
30
0
11
57.083343
21
-3.55
31
0
39
0
210
0
220
0
230
1
0
LINE
5
119
100
AcDbEntity
8
2
62
256
6
ByLayer
370
13
48
1
60
0
100
AcDbLine
10
43.3775
20
3.55
30
0
11
57.083343
21
3.55
31
0
39
0
210
0
220
0
230
1
0
LINE
5
11A
100
AcDbEntity
8
2
62
256
6
ByLayer
370
13
48
1
60
0
100
AcDbLine
10
55.083343
20
-3.55
30
0
11
55.083343
21
30.389635
31
0
39
0
210
0
220
0
230
1
0
SOLID
5
11B
100
AcDbEntity
8
2
62
256
6
ByLayer
370
13
48
1
60
0
100
AcDbTrace
10
55.083343
20
-3.55
30
0
11
54.622559
21
-0.050002
31
0
12
55.544126
22
-0.049998
32
0
13
55.083343
23
-3.55
33
0
39
0
210
0
220
0
230
1
0
SOLID
5
11C
100
AcDbEntity
8
2
62
256
6
ByLayer
370
13
48
1
60
0
100
AcDbTrace
10
55.083343
20
3.55
30
0
11
55.544126
21
0.050002
31
0
12
54.622559
22
0.049998
32
0
13
55.083343
23
3.55
33
0
39
0
210
0
220
0
230
1
0
ENDBLK
5
11E
100
AcDbEntity
8
0
100
AcDbBlockEnd
0
ENDSEC
0
SECTION
2
ENTITIES
0
ARC
5
9A
100
AcDbEntity
8
1
62
256
6
ByLayer
370
18
48
1
60
0
100
AcDbCircle
39
0
10
0
20
3.2
30
0
40
0.799999999999999
210
0
220
0
230
1
100
AcDbArc
50
44.707005
51
90
0
ARC
5
9B
100
AcDbEntity
8
1
62
256
6
ByLayer
370
18
48
1
60
0
100
AcDbCircle
39
0
10
0
20
-3.2
30
0
40
0.799999999999999
210
0
220
0
230
1
100
AcDbArc
50
270
51
315.292995
0
ARC
5
9C
100
AcDbEntity
8
1
62
256
6
ByLayer
370
18
48
1
60
0
100
AcDbCircle
39
0
10
-1.137142
20
4.325571
30
0
40
0.799999999999999
210
0
220
0
230
-1
100
AcDbArc
50
269.965623
51
315.292995
0
ARC
5
9D
100
AcDbEntity
8
1
62
256
6
ByLayer
370
18
48
1
60
0
100
AcDbCircle
39
0
10
-1.137142
20
-4.325571
30
0
40
0.799999999999999
210
0
220
0
230
-1
100
AcDbArc
50
44.707005
51
90.034377
0
ELLIPSE
5
9E
100
AcDbEntity
8
1
62
256
6
ByLayer
370
18
48
1
60
0
100
AcDbEllipse
10
4.25
20
3.61033
30
0
11
-0.25
21
3.06151588455594E-17
31
0
210
0
220
0
230
1
40
0.999919
41
0.370959370500794
42
1.57979090396181
0
ELLIPSE
5
9F
100
AcDbEntity
8
1
62
256
6
ByLayer
370
18
48
1
60
0
100
AcDbEllipse
10
4.25
20
-3.61033
30
0
11
-0.25
21
3.06151588455594E-17
31
0
210
0
220
0
230
1
40
0.999919
41
-1.56380535770494
42
-0.366677567340037
0
ELLIPSE
5
A0
100
AcDbEntity
8
1
62
256
6
ByLayer
370
18
48
1
60
0
100
AcDbEllipse
10
42.860464
20
0.111077
30
0
11
0.0727819104945242
21
0.301917195705696
31
0
210
0
220
0
230
-1
40
0.478434
41
1.70774808808368
42
2.45976119972215
0
ELLIPSE
5
A1
100
AcDbEntity
8
1
62
256
6
ByLayer
370
18
48
1
60
0
100
AcDbEllipse
10
42.298278
20
-1.787202
30
0
11
0.550472935440567
21
1.48965144442091
31
0
210
0
220
0
230
-1
40
0.115174
41
0.742863466702759
42
1.50913000609092
0
ELLIPSE
5
A2
100
AcDbEntity
8
1
62
256
6
ByLayer
370
18
48
1
60
0
100
AcDbEllipse
10
43.04596
20
-0.001017
30
0
11
0.137979128880989
21
0.428995648177164
31
0
210
0
220
0
230
-1
40
0.08774
41
-2.32337572127748
42
-1.67912543130208
0
ELLIPSE
5
A3
100
AcDbEntity
8
1
62
256
6
ByLayer
370
13
48
1
60
0
100
AcDbEllipse
10
42.471358
20
1.664004
30
0
11
2.05580753442174
21
-1.41548194717806
31
0
210
0
220
0
230
-1
40
0.533762
41
1.44484622734525
42
1.69706048911545
0
ELLIPSE
5
A4
100
AcDbEntity
8
1
62
256
6
ByLayer
370
18
48
1
60
0
100
AcDbEllipse
10
42.298278
20
1.787202
30
0
11
0.55047293542445
21
-1.48965144438616
31
0
210
0
220
0
230
-1
40
0.115174
41
-1.50913000610687
42
-0.742863466702149
0
ELLIPSE
5
A5
100
AcDbEntity
8
1
62
256
6
ByLayer
370
18
48
1
60
0
100
AcDbEllipse
10
43.000319
20
-0.000775
30
0
11
1.31090396707478
21
-3.54747681516544
31
0
210
0
220
0
230
-1
40
0.115174
41
-2.96938514563748
42
-2.86192067384086
0
ELLIPSE
5
A6
100
AcDbEntity
8
1
62
256
6
ByLayer
370
13
48
1
60
0
100
AcDbEllipse
10
42.661264
20
1.787202
30
0
11
2.12704425899545
21
-1.06954861156729
31
0
210
0
220
0
230
-1
40
0.488387
41
1.55622271503698
42
1.83112040213338
0
ELLIPSE
5
A7
100
AcDbEntity
8
1
62
256
6
ByLayer
370
18
48
1
60
0
100
AcDbEllipse
10
43.000319
20
0.000775
30
0
11
1.31090397589602
21
3.54747684095102
31
0
210
0
220
0
230
-1
40
0.115174
41
2.86192067486905
42
2.96938514626991
0
ELLIPSE
5
A8
100
AcDbEntity
8
1
62
256
6
ByLayer
370
13
48
1
60
0
100
AcDbEllipse
10
42.169964
20
0.520774
30
0
11
0.153082081612423
21
0.258003636193771
31
0
210
0
220
0
230
1
40
0.454519
41
0.917105603404823
42
2.31336900500025
0
ELLIPSE
5
A9
100
AcDbEntity
8
1
62
256
6
ByLayer
370
18
48
1
60
0
100
AcDbEllipse
10
43.04596
20
0.001017
30
0
11
0.137979128831143
21
-0.428995648049862
31
0
210
0
220
0
230
-1
40
0.08774
41
1.67912543110399
42
2.32337572124748
0
POINT
5
6C
100
AcDbEntity
8
81
62
256
6
ByLayer
370
18
48
1
60
0
100
AcDbPoint
10
43
20
0
30
0
39
0
210
0
220
0
230
1
50
360
0
POINT
5
6E
100
AcDbEntity
8
80
62
256
6
ByLayer
370
18
48
1
60
0
100
AcDbPoint
10
0
20
0
30
0
39
0
210
0
220
0
230
1
50
360
0
POINT
5
70
100
AcDbEntity
8
SK2
62
256
6
ByLayer
370
18
48
1
60
1
100
AcDbPoint
10
-36
20
-4
30
0
39
0
210
0
220
0
230
1
50
360
0
POINT
5
72
100
AcDbEntity
8
SK2
62
256
6
ByLayer
370
18
48
1
60
1
100
AcDbPoint
10
-36
20
4
30
0
39
0
210
0
220
0
230
1
50
360
0
POINT
5
73
100
AcDbEntity
8
2
62
256
6
ByLayer
370
18
48
1
60
1
100
AcDbPoint
10
41.79
20
-3.55
30
0
39
0
210
0
220
0
230
1
50
360
0
POINT
5
75
100
AcDbEntity
8
2
62
256
6
ByLayer
370
18
48
1
60
1
100
AcDbPoint
10
41.79
20
3.55
30
0
39
0
210
0
220
0
230
1
50
360
0
SPLINE
5
AA
100
AcDbEntity
8
1
62
256
6
ByLayer
370
18
48
1
60
0
100
AcDbSpline
70
4
71
3
72
24
73
20
40
0
40
0
40
0
40
0
40
0.0735034988956559
40
0.156207851346332
40
0.218314087869984
40
0.269075827988037
40
0.312899380597547
40
0.381926223483069
40
0.4599406289945
40
0.53374827680336
40
0.591054848637616
40
0.641740971606963
40
0.709602203600226
40
0.782287506570685
40
0.817335515943019
40
0.844923534712834
40
0.888345882095767
40
0.957254592893982
40
1
40
1
40
1
40
1
41
1
10
4.25023927654689
20
-3.36047518961425
30
0
41
1
10
4.43753046741119
20
-3.36064803916915
30
0
41
1
10
4.8355616155844
20
-3.36096747004046
30
0
41
1
10
5.39188139909908
20
-3.3609919295848
30
0
41
1
10
5.89022380801947
20
-3.36133438666673
30
0
41
1
10
6.28950550072
20
-3.36178133027428
30
0
41
1
10
6.70643265177176
20
-3.3626608215296
30
0
41
1
10
7.1928032099712
20
-3.362140930549
30
0
41
1
10
7.75558406131913
20
-3.36130343390764
30
0
41
1
10
8.28849191079587
20
-3.36199561561443
30
0
41
1
10
8.75176191266232
20
-3.36397434148549
30
0
41
1
10
9.19988343376568
20
-3.36458178832183
30
0
41
1
10
9.68719126550292
20
-3.3640331608006
30
0
41
1
10
10.1346468264279
20
-3.36339550191059
30
0
41
1
10
10.4794774846137
20
-3.36326572753782
30
0
41
1
10
10.7497048889414
20
-3.36361749085651
30
0
41
1
10
11.1062481049419
20
-3.36489178676243
30
0
41
1
10
11.5014397042361
20
-3.36508794981495
30
0
41
1
10
11.785931767245
20
-3.36523589252786
30
0
41
1
10
11.8948430830298
20
-3.36524445557592
30
0
0
SPLINE
5
AB
100
AcDbEntity
8
1
62
256
6
ByLayer
370
18
48
1
60
0
100
AcDbSpline
70
4
71
3
72
29
73
25
40
0
40
0
40
0
40
0
40
0.0697355194074616
40
0.119833481686418
40
0.150424963391348
40
0.187709835318441
40
0.237586836289026
40
0.284448650839872
40
0.319538307453917
40
0.362713052086623
40
0.413046776525785
40
0.47772199809564
40
0.544933957414087
40
0.591166167496266
40
0.628367580022979
40
0.661452876587513
40
0.691156516669084
40
0.72712729353913
40
0.78160541460526
40
0.831358412666137
40
0.865620619727282
40
0.900442540299066
40
0.958985409212489
40
1
40
1
40
1
40
1
41
1
10
21.7821841448086
20
-3.37100363146266
30
0
41
1
10
22.0033616233978
20
-3.37114314809077
30
0
41
1
10
22.3834241910694
20
-3.37135905222783
30
0
41
1
10
22.8605254536275
20
-3.37171061583737
30
0
41
1
10
23.2346506678798
20
-3.37179247826529
30
0
41
1
10
23.6080668988101
20
-3.3721621764166
30
0
41
1
10
24.0331548931622
20
-3.37239494925657
30
0
41
1
10
24.4512689160882
20
-3.3724215731969
30
0
41
1
10
24.8480810418793
20
-3.37305242110807
30
0
41
1
10
25.2559557885564
20
-3.37283749989217
30
0
41
1
10
25.7576547655846
20
-3.37319403127694
30
0
41
1
10
26.3355982213429
20
-3.37338017464134
30
0
41
1
10
26.900530893667
20
-3.37365479813602
30
0
41
1
10
27.3783202280274
20
-3.37427043545438
30
0
41
1
10
27.7478770172069
20
-3.37379240927228
30
0
41
1
10
28.065007681724
20
-3.37424037543715
30
0
41
1
10
28.378217342131
20
-3.37484073804308
30
0
41
1
10
28.7592907471664
20
-3.3745193759342
30
0
41
1
10
29.2039687091377
20
-3.37479371150837
30
0
41
1
10
29.6432141030574
20
-3.3756650723879
30
0
41
1
10
30.020131099843
20
-3.37499232533938
30
0
41
1
10
30.4248926377276
20
-3.37554166862475
30
0
41
1
10
30.8511186644745
20
-3.3759107673533
30
0
41
1
10
31.1668537013806
20
-3.37619542545912
30
0
41
1
10
31.2969246931557
20
-3.37630350147211
30
0
0
SPLINE
5
AC
100
AcDbEntity
8
1
62
256
6
ByLayer
370
18
48
1
60
0
100
AcDbSpline
70
4
71
2
72
6
73
3
40
0
40
0
40
0
40
1
40
1
40
1
41
1
10
41.2002535288777
20
-3.38274863112801
30
0
41
1
10
41.4838750237218
20
-3.38189909772621
30
0
41
1
10
41.7670469680505
20
-3.38363116703189
30
0
0
SPLINE
5
AD
100
AcDbEntity
8
1
62
256
6
ByLayer
370
18
48
1
60
0
100
AcDbSpline
70
4
71
3
72
11
73
7
40
0
40
0
40
0
40
0
40
0.0876839239560593
40
0.42337369448355
40
0.634541422523757
40
1
40
1
40
1
40
1
41
1
10
32.3688006182856
20
-0.971266350673261
30
0
41
1
10
32.3685231576321
20
-0.971211562257452
30
0
41
1
10
32.3706812144971
20
-0.972458619869343
30
0
41
1
10
32.410596681147
20
-0.990400495069053
30
0
41
1
10
32.5912598050945
20
-1.07760379336256
30
0
41
1
10
32.7214644780181
20
-1.14723241527733
30
0
41
1
10
32.8175418116626
20
-1.20003540809191
30
0
0
SPLINE
5
AE
100
AcDbEntity
8
1
62
256
6
ByLayer
370
18
48
1
60
0
100
AcDbSpline
70
4
71
3
72
23
73
19
40
0
40
0
40
0
40
0
40
0.0527474917801346
40
0.135475258167565
40
0.202760534426041
40
0.25035496571715
40
0.30824508257734
40
0.376892240946909
40
0.467095609085968
40
0.534706818162624
40
0.588762205381192
40
0.6565619658811
40
0.724377293323168
40
0.76052296056779
40
0.800064064801653
40
0.857920154122526
40
0.93471359216613
40
1
40
1
40
1
40
1
41
1
10
11.9716049760574
20
3.36483814390718
30
0
41
1
10
11.8369231039538
20
3.36454997137142
30
0
41
1
10
11.4906026854045
20
3.36389824601542
30
0
41
1
10
10.9662571488119
20
3.36383166347716
30
0
41
1
10
10.4614246764908
20
3.36312798347254
30
0
41
1
10
10.0160449571713
20
3.36359359570628
30
0
41
1
10
9.56765390220983
20
3.36414860097418
30
0
41
1
10
9.00935702287205
20
3.36481826902698
30
0
41
1
10
8.42608419022201
20
3.36242639830374
30
0
41
1
10
7.88037324707653
20
3.36138787829927
30
0
41
1
10
7.39236747831549
20
3.36178644443712
30
0
41
1
10
6.90384509331091
20
3.36259275227232
30
0
41
1
10
6.46144320908766
20
3.36225350050714
30
0
41
1
10
6.09182796529751
20
3.36141384199527
30
0
41
1
10
5.74786813516536
20
3.36133861968116
30
0
41
1
10
5.2992854380206
20
3.36087902266698
30
0
41
1
10
4.78427719731329
20
3.36096585776193
30
0
41
1
10
4.41837823292622
20
3.36064634114288
30
0
41
1
10
4.25024978021688
20
3.36048139742329
30
0
0
SPLINE
5
AF
100
AcDbEntity
8
1
62
256
6
ByLayer
370
18
48
1
60
0
100
AcDbSpline
70
4
71
3
72
24
73
20
40
0
40
0
40
0
40
0
40
0.0612514279393314
40
0.155533307531563
40
0.228068006458945
40
0.287257426725498
40
0.359465276784278
40
0.454347093769748
40
0.551050663356048
40
0.605506753120471
40
0.653441147323789
40
0.696555429199707
40
0.752759619404191
40
0.822430797208549
40
0.880203106937315
40
0.915187641261084
40
0.946306480331339
40
0.975309939555524
40
1
40
1
40
1
40
1
41
1
10
31.3558366739952
20
3.37611232603157
30
0
41
1
10
31.1948278011284
20
3.37577137704457
30
0
41
1
10
30.7859780555308
20
3.37511546162449
30
0
41
1
10
30.1890324886953
20
3.37497558215031
30
0
41
1
10
29.592901249701
20
3.37559625665233
30
0
41
1
10
29.0571438910699
20
3.37432505698368
30
0
41
1
10
28.460114551554
20
3.37507936270117
30
0
41
1
10
27.7649866889488
20
3.37350962290321
30
0
41
1
10
27.1163708177483
20
3.37425590827667
30
0
41
1
10
26.5915998827872
20
3.37316550694342
30
0
41
1
10
26.2080238609261
20
3.3734834541718
30
0
41
1
10
25.8204575257495
20
3.37315479235929
30
0
41
1
10
25.3748042576129
20
3.37264824542629
30
0
41
1
10
24.8909381682183
20
3.37312246175583
30
0
41
1
10
24.462861193179
20
3.37245177298936
30
0
41
1
10
24.136405891357
20
3.37238249777576
30
0
41
1
10
23.8855002380156
20
3.37238525921259
30
0
41
1
10
23.6637576824342
20
3.37198999453597
30
0
41
1
10
23.5225162502575
20
3.37173148038474
30
0
41
1
10
23.4574837473964
20
3.37162490563176
30
0
0
SPLINE
5
B0
100
AcDbEntity
8
1
62
256
6
ByLayer
370
18
48
1
60
0
100
AcDbSpline
70
4
71
3
72
18
73
14
40
0
40
0
40
0
40
0
40
0.125000000000003
40
0.125000000000003
40
0.250000000000006
40
0.250000000000006
40
0.500000000000006
40
0.500000000000006
40
0.750000000000007
40
0.750000000000007
40
0.875000000000003
40
0.875000000000003
40
1
40
1
40
1
40
1
41
1
10
38.9055478889956
20
1.12777028573106
30
0
41
1
10
38.9478836052729
20
0.9775862849894
30
0
41
1
10
39.0021762213176
20
0.828533882041768
30
0
41
1
10
39.1311988245298
20
0.5323632634788
30
0
41
1
10
39.2067601811367
20
0.384022097767286
30
0
41
1
10
39.4528301018316
20
-0.0444147942590405
30
0
41
1
10
39.6429460289694
20
-0.311669661026429
30
0
41
1
10
40.0614301091571
20
-0.819224983717504
30
0
41
1
10
40.2833098553606
20
-1.05103382578471
30
0
41
1
10
40.6286832497127
20
-1.37415571748485
30
0
41
1
10
40.7460002914164
20
-1.47777442453642
30
0
41
1
10
40.9846327363497
20
-1.67755592613224
30
0
41
1
10
41.1061740923992
20
-1.7738741578645
30
0
41
1
10
41.229039350913
20
-1.86622968900016
30
0
0
SPLINE
5
B1
100
AcDbEntity
8
1
62
256
6
ByLayer
370
18
48
1
60
0
100
AcDbSpline
70
4
71
3
72
8
73
4
40
0
40
0
40
0
40
0
40
1
40
1
40
1
40
1
41
1
10
41.8210313609974
20
-3.36483820295766
30
0
41
1
10
41.8014858461618
20
-3.37689501324235
30
0
41
1
10
41.7840325868029
20
-3.38296605942952
30
0
41
1
10
41.7687096627538
20
-3.38294239837697
30
0
0
SPLINE
5
B2
100
AcDbEntity
8
1
62
256
6
ByLayer
370
18
48
1
60
0
100
AcDbSpline
70
4
71
3
72
14
73
10
40
0
40
0
40
0
40
0
40
0.25
40
0.25
40
0.5
40
0.5
40
0.75
40
0.75
40
1
40
1
40
1
40
1
41
1
10
4.25051044551159
20
-0.922728788982596
30
0
41
1
10
4.22797443100984
20
-0.907723896370754
30
0
41
1
10
4.20500227218477
20
-0.894908442232889
30
0
41
1
10
4.1579077815644
20
-0.875054222598806
30
0
41
1
10
4.13443549337757
20
-0.868359955377343
30
0
41
1
10
4.08968557510929
20
-0.863961643452228
30
0
41
1
10
4.06955870940322
20
-0.866436049329081
30
0
41
1
10
4.03598942789063
20
-0.880622168174028
30
0
41
1
10
4.02308593089523
20
-0.892184844408263
30
0
41
1
10
4.01441448896372
20
-0.906555730295054
30
0
0
SPLINE
5
B3
100
AcDbEntity
8
1
62
256
6
ByLayer
370
18
48
1
60
0
100
AcDbSpline
70
4
71
3
72
22
73
18
40
0
40
0
40
0
40
0
40
0.125000000000001
40
0.125000000000001
40
0.187500000000001
40
0.187500000000001
40
0.250000000000002
40
0.250000000000002
40
0.5
40
0.5
40
0.625
40
0.625
40
0.75
40
0.75
40
0.875
40
0.875
40
1
40
1
40
1
40
1
41
1
10
41.7687096627565
20
-3.38294239837694
30
0
41
1
10
41.717616765107
20
-3.38289486767553
30
0
41
1
10
41.6690777371913
20
-3.3751346026009
30
0
41
1
10
41.6003007918345
20
-3.35131870808439
30
0
41
1
10
41.5780488749147
20
-3.3413453947465
30
0
41
1
10
41.5349509956063
20
-3.31715275908428
30
0
41
1
10
41.514075110682
20
-3.30288853502344
30
0
41
1
10
41.4148222670833
20
-3.2217206671684
30
0
41
1
10
41.3503624364478
20
-3.12520738801248
30
0
41
1
10
41.2775340058329
20
-2.9300095671361
30
0
41
1
10
41.2572081930996
20
-2.85574476524175
30
0
41
1
10
41.2262722319755
20
-2.69396369694806
30
0
41
1
10
41.2154637830027
20
-2.60620847072261
30
0
41
1
10
41.203121962505
20
-2.41703343644306
30
0
41
1
10
41.2015872026448
20
-2.31561567376483
30
0
41
1
10
41.2081955156965
20
-2.09852220408621
30
0
41
1
10
41.2163290237814
20
-1.9843961890877
30
0
41
1
10
41.229039350913
20
-1.86622968900016
30
0
0
SPLINE
5
B4
100
AcDbEntity
8
1
62
256
6
ByLayer
370
18
48
1
60
0
100
AcDbSpline
70
4
71
3
72
34
73
30
40
0
40
0
40
0
40
0
40
0.104869947145887
40
0.104869947145887
40
0.209739894291775
40
0.209739894291775
40
0.262174867864718
40
0.262174867864718
40
0.314609841437662
40
0.314609841437662
40
0.419479788583549
40
0.419479788583549
40
0.471914762156492
40
0.471914762156492
40
0.524349735729435
40
0.524349735729435
40
0.576784709302377
40
0.576784709302377
40
0.62921968287532
40
0.62921968287532
40
0.734089630021206
40
0.734089630021206
40
0.786524603594149
40
0.786524603594149
40
0.838959577167091
40
0.838959577167091
40
0.943829524312977
40
0.943829524312977
40
1
40
1
40
1
40
1
41
1
10
12.1156448190263
20
-0.47778264066767
30
0
41
1
10
12.4279330181697
20
-0.656198229847831
30
0
41
1
10
12.7394893893677
20
-0.829391647645991
30
0
41
1
10
13.3595121411951
20
-1.16893366056095
30
0
41
1
10
13.6675870951729
20
-1.33581099677173
30
0
41
1
10
14.1308369827977
20
-1.57515073100714
30
0
41
1
10
14.2852646971262
20
-1.65341370025811
30
0
41
1
10
14.5938441017109
20
-1.80735613226366
30
0
41
1
10
14.7479668265053
20
-1.88306957358893
30
0
41
1
10
15.2110205970085
20
-2.10456966919421
30
0
41
1
10
15.521190350354
20
-2.24397256090268
30
0
41
1
10
15.9878120312192
20
-2.44176156235645
30
0
41
1
10
16.1433933317959
20
-2.50603382861954
30
0
41
1
10
16.4559438783888
20
-2.62944396875867
30
0
41
1
10
16.6121014171981
20
-2.6882191429099
30
0
41
1
10
16.9235467119447
20
-2.8002651822184
30
0
41
1
10
17.0788878535939
20
-2.85357188322007
30
0
41
1
10
17.3885918927543
20
-2.95498189574172
30
0
41
1
10
17.5430234924405
20
-3.00299307823738
30
0
41
1
10
18.0062411743216
20
-3.13786871489748
30
0
41
1
10
18.3152699867725
20
-3.21547409834611
30
0
41
1
10
18.7778061747742
20
-3.31454999302073
30
0
41
1
10
18.931730345955
20
-3.34468220880336
30
0
41
1
10
19.2405922352253
20
-3.39823931248952
30
0
41
1
10
19.3953692473606
20
-3.42178767858084
30
0
41
1
10
19.8603482843055
20
-3.4829405406708
30
0
41
1
10
20.1705471274929
20
-3.5111701910011
30
0
41
1
10
20.6506362397846
20
-3.53354866468371
30
0
41
1
10
20.817872433704
20
-3.5374570596114
30
0
41
1
10
20.9846368359788
20
-3.53750447178106
30
0
0
SPLINE
5
B5
100
AcDbEntity
8
1
62
256
6
ByLayer
370
18
48
1
60
0
100
AcDbSpline
70
4
71
3
72
28
73
24
40
0
40
0
40
0
40
0
40
0.0964489513044129
40
0.0964489513044129
40
0.247040792753673
40
0.247040792753673
40
0.322336713478305
40
0.322336713478305
40
0.397632634202938
40
0.397632634202938
40
0.47292855492757
40
0.47292855492757
40
0.548224475652203
40
0.548224475652203
40
0.698816317101468
40
0.698816317101468
40
0.774112237826101
40
0.774112237826101
40
0.849408158550734
40
0.849408158550734
40
0.924704079275367
40
0.924704079275367
40
1
40
1
40
1
40
1
41
1
10
35.682787848781
20
2.56632509455861
30
0
41
1
10
35.8803320874094
20
2.6444973209417
30
0
41
1
10
36.0779453874156
20
2.7188686104372
30
0
41
1
10
36.5843535672165
20
2.89939693655293
30
0
41
1
10
36.8945685940735
20
2.99854943847168
30
0
41
1
10
37.3621181678634
20
3.13082126126019
30
0
41
1
10
37.5184924300082
20
3.17233900374657
30
0
41
1
10
37.8297542375465
20
3.24899504701955
30
0
41
1
10
37.985222488279
20
3.2839079884381
30
0
41
1
10
38.2956414144965
20
3.34729578309876
30
0
41
1
10
38.4505877576794
20
3.37577461058294
30
0
41
1
10
38.7596633641427
20
3.42649249404803
30
0
41
1
10
38.913762332486
20
3.44872271214692
30
0
41
1
10
39.3759238080808
20
3.50548120962608
30
0
41
1
10
39.6844172717067
20
3.53003961037891
30
0
41
1
10
40.1468777679893
20
3.54734817506468
30
0
41
1
10
40.300795091881
20
3.54983030033341
30
0
41
1
10
40.6094177310504
20
3.54806581313969
30
0
41
1
10
40.7641842954697
20
3.54385452415363
30
0
41
1
10
41.0743577813436
20
3.52879189824978
30
0
41
1
10
41.229759067811
20
3.51793950620427
30
0
41
1
10
41.5409671604257
20
3.48935567990691
30
0
41
1
10
41.6970463161417
20
3.47158623356469
30
0
41
1
10
41.8531321077256
20
3.45054501445844
30
0
0
SPLINE
5
B6
100
AcDbEntity
8
1
62
256
6
ByLayer
370
18
48
1
60
0
100
AcDbSpline
70
4
71
3
72
66
73
62
40
0
40
0
40
0
40
0
40
0.062500000000002
40
0.062500000000002
40
0.125000000000004
40
0.125000000000004
40
0.250000000000008
40
0.250000000000008
40
0.375000000000012
40
0.375000000000012
40
0.500000000000016
40
0.500000000000016
40
0.62500000000002
40
0.62500000000002
40
0.64062500000002
40
0.64062500000002
40
0.64843750000002
40
0.64843750000002
40
0.65234375000002
40
0.65234375000002
40
0.65625000000002
40
0.65625000000002
40
0.65820312500002
40
0.65820312500002
40
0.66015625000002
40
0.66015625000002
40
0.66406250000002
40
0.66406250000002
40
0.67187500000002
40
0.67187500000002
40
0.687500000000019
40
0.687500000000019
40
0.703125000000018
40
0.703125000000018
40
0.718750000000016
40
0.718750000000016
40
0.734375000000015
40
0.734375000000015
40
0.750000000000014
40
0.750000000000014
40
0.757812500000014
40
0.757812500000014
40
0.765625000000013
40
0.765625000000013
40
0.781250000000013
40
0.781250000000013
40
0.789062500000012
40
0.789062500000012
40
0.796875000000012
40
0.796875000000012
40
0.812500000000011
40
0.812500000000011
40
0.843750000000009
40
0.843750000000009
40
0.875000000000007
40
0.875000000000007
40
0.906250000000005
40
0.906250000000005
40
0.937500000000004
40
0.937500000000004
40
1
40
1
40
1
40
1
41
1
10
12.1161295318738
20
-0.478082384605869
30
0
41
1
10
11.8487525666816
20
-0.325911009575179
30
0
41
1
10
11.5795934551228
20
-0.176373157195854
30
0
41
1
10
11.037136668841
20
0.116235196381098
30
0
41
1
10
10.7632265046007
20
0.259593065863953
30
0
41
1
10
9.93899072985454
20
0.674604320171369
30
0
41
1
10
9.38662311029279
20
0.930954327809957
30
0
41
1
10
8.26770212397065
20
1.38992966142649
30
0
41
1
10
7.70106335913613
20
1.59234746837276
30
0
41
1
10
6.54639731860635
20
1.93554043086024
30
0
41
1
10
5.95836009013175
20
2.07637958444471
30
0
41
1
10
4.75679341683804
20
2.29686437405209
30
0
41
1
10
4.14818534363673
20
2.37582263968594
30
0
41
1
10
3.45858058073486
20
2.43237668345793
30
0
41
1
10
3.38188234074522
20
2.43821175284268
30
0
41
1
10
3.26672039747018
20
2.44629622515512
30
0
41
1
10
3.22831014575985
20
2.44887991333383
30
0
41
1
10
3.17068323486455
20
2.45258771548586
30
0
41
1
10
3.15150977500926
20
2.45432179917484
30
0
41
1
10
3.11293680416662
20
2.45461099322173
30
0
41
1
10
3.09312325598097
20
2.45313453233749
30
0
41
1
10
3.06599901861068
20
2.4472539087177
30
0
41
1
10
3.05750170354452
20
2.44437942819911
30
0
41
1
10
3.04079137229164
20
2.43814062948675
30
0
41
1
10
3.0324491125607
20
2.43499407499371
30
0
41
1
10
3.00746195876832
20
2.4254707201161
30
0
41
1
10
2.99085127895859
20
2.41900811017771
30
0
41
1
10
2.94122423659789
20
2.39928198883254
30
0
41
1
10
2.90844085157522
20
2.3856923454139
30
0
41
1
10
2.81107828073465
20
2.34346308778834
30
0
41
1
10
2.74747888952299
20
2.31337642968634
30
0
41
1
10
2.62349500456969
20
2.24831273547758
30
0
41
1
10
2.56296546762923
20
2.21322413912895
30
0
41
1
10
2.44783019939993
20
2.13789675326743
30
0
41
1
10
2.39301598139289
20
2.09757837361468
30
0
41
1
10
2.29030405909341
20
2.01009322576516
30
0
41
1
10
2.24238656806188
20
1.96294818178401
30
0
41
1
10
2.15572030167758
20
1.85935262835204
30
0
41
1
10
2.11725975275311
20
1.80289161935778
30
0
41
1
10
2.07121312253369
20
1.71341246621262
30
0
41
1
10
2.0576826541265
20
1.68264714363903
30
0
41
1
10
2.03458801794884
20
1.61903776947469
30
0
41
1
10
2.02500509407747
20
1.58599660855526
30
0
41
1
10
2.00325939593725
20
1.48614892414233
30
0
41
1
10
1.99775750647703
20
1.41799947467067
30
0
41
1
10
2.00234583021845
20
1.31336452080836
30
0
41
1
10
2.00606121927279
20
1.27794495120241
30
0
41
1
10
2.01735119685949
20
1.20793784951636
30
0
41
1
10
2.02491695463149
20
1.17316452742094
30
0
41
1
10
2.05274051836116
20
1.06943404556893
30
0
41
1
10
2.07837520482681
20
1.000540198783
30
0
41
1
10
2.16931693004844
20
0.800871945301481
30
0
41
1
10
2.24805937946741
20
0.675915455368028
30
0
41
1
10
2.42679882469483
20
0.435202699555873
30
0
41
1
10
2.52502182293125
20
0.322229537026232
30
0
41
1
10
2.73114534477398
20
0.106383654339481
30
0
41
1
10
2.83937959035211
20
0.0033407293686025
30
0
41
1
10
3.06303848429792
20
-0.195999968619418
30
0
41
1
10
3.17879192828389
20
-0.292469293721894
30
0
41
1
10
3.52988577800034
20
-0.570751141123026
30
0
41
1
10
3.77026098224275
20
-0.74295045795057
30
0
41
1
10
4.01441448895534
20
-0.906555730289739
30
0
0
SPLINE
5
B7
100
AcDbEntity
8
1
62
256
6
ByLayer
370
18
48
1
60
0
100
AcDbSpline
70
4
71
3
72
88
73
84
40
0
40
0
40
0
40
0
40
0.0299818678424157
40
0.0299818678424157
40
0.0712478203330294
40
0.0712478203330294
40
0.0918807965783363
40
0.0918807965783363
40
0.112513772823643
40
0.112513772823643
40
0.13314674906895
40
0.13314674906895
40
0.153779725314257
40
0.153779725314257
40
0.195045677804872
40
0.195045677804872
40
0.215678654050179
40
0.215678654050179
40
0.236311630295487
40
0.236311630295487
40
0.256944606540794
40
0.256944606540794
40
0.277577582786102
40
0.277577582786102
40
0.298210559031409
40
0.298210559031409
40
0.318843535276717
40
0.318843535276717
40
0.339476511522024
40
0.339476511522024
40
0.360109487767332
40
0.360109487767332
40
0.38074246401264
40
0.38074246401264
40
0.401375440257946
40
0.401375440257946
40
0.442641392748561
40
0.442641392748561
40
0.483907345239175
40
0.483907345239175
40
0.504540321484482
40
0.504540321484482
40
0.525173297729789
40
0.525173297729789
40
0.545806273975097
40
0.545806273975097
40
0.566439250220404
40
0.566439250220404
40
0.587072226465711
40
0.587072226465711
40
0.607705202711018
40
0.607705202711018
40
0.648971155201633
40
0.648971155201633
40
0.669604131446941
40
0.669604131446941
40
0.690237107692248
40
0.690237107692248
40
0.710870083937556
40
0.710870083937556
40
0.731503060182863
40
0.731503060182863
40
0.752136036428171
40
0.752136036428171
40
0.772769012673479
40
0.772769012673479
40
0.793401988918786
40
0.793401988918786
40
0.814034965164094
40
0.814034965164094
40
0.834667941409401
40
0.834667941409401
40
0.855300917654709
40
0.855300917654709
40
0.896566870145324
40
0.896566870145324
40
0.937832822635939
40
0.937832822635939
40
0.979098775126554
40
0.979098775126554
40
0.999731751371862
40
0.999731751371862
40
1
40
1
40
1
40
1
41
1
10
35.6690720733038
20
-2.5684968375142
30
0
41
1
10
35.4293254258333
20
-2.65347637045448
30
0
41
1
10
35.1895278605045
20
-2.7332476061448
30
0
41
1
10
34.6221118351725
20
-2.90641386492823
30
0
41
1
10
34.2951199032483
20
-2.99453283955859
30
0
41
1
10
33.8060875456436
20
-3.10549133773495
30
0
41
1
10
33.6431800436569
20
-3.13897777897708
30
0
41
1
10
33.3172869204166
20
-3.20001926465395
30
0
41
1
10
33.1543332500292
20
-3.22758677076757
30
0
41
1
10
32.8284979673064
20
-3.27575037311647
30
0
41
1
10
32.6657205762361
20
-3.29626221840366
30
0
41
1
10
32.3394768491742
20
-3.33042075174609
30
0
41
1
10
32.1760733206497
20
-3.34430154425937
30
0
41
1
10
31.6849743947035
20
-3.37533802778847
30
0
41
1
10
31.3563120799001
20
-3.3803925340392
30
0
41
1
10
30.8610035352602
20
-3.3684321568584
30
0
41
1
10
30.6960756849135
20
-3.36087365134208
30
0
41
1
10
30.3665680943195
20
-3.33778357596094
30
0
41
1
10
30.20198795685
20
-3.3225395549286
30
0
41
1
10
29.8731048134892
20
-3.28585405361227
30
0
41
1
10
29.7085411434814
20
-3.26420236676466
30
0
41
1
10
29.3790730299095
20
-3.21348574869708
30
0
41
1
10
29.214143383562
20
-3.18417273678585
30
0
41
1
10
28.8840816739597
20
-3.11933714903705
30
0
41
1
10
28.7190590344553
20
-3.08381318951626
30
0
41
1
10
28.3902770021417
20
-3.00633971918109
30
0
41
1
10
28.2262714332618
20
-2.96434193568442
30
0
41
1
10
27.898818112913
20
-2.87414520386008
30
0
41
1
10
27.7353261480735
20
-2.82639578126992
30
0
41
1
10
27.4089429622077
20
-2.72512278110702
30
0
41
1
10
27.2461312337631
20
-2.67141681948417
30
0
41
1
10
26.9203016680177
20
-2.55853966667328
30
0
41
1
10
26.7573555724913
20
-2.49930580452704
30
0
41
1
10
26.4313993107785
20
-2.37647989177685
30
0
41
1
10
26.2684823821804
20
-2.31246008041177
30
0
41
1
10
25.7793796850847
20
-2.11267826849405
30
0
41
1
10
25.4524304900679
20
-1.96972783261268
30
0
41
1
10
24.7954771719743
20
-1.66832450461411
30
0
41
1
10
24.4649690721249
20
-1.50713559895723
30
0
41
1
10
23.9702418899585
20
-1.25985493894632
30
0
41
1
10
23.805446831947
20
-1.17615276304875
30
0
41
1
10
23.4762036141091
20
-1.00573143193003
30
0
41
1
10
23.31168212237
20
-0.919180262150718
30
0
41
1
10
22.9823062953109
20
-0.744710585980243
30
0
41
1
10
22.8174437041739
20
-0.656782554180182
30
0
41
1
10
22.4872359560389
20
-0.479363907266446
30
0
41
1
10
22.3218277101711
20
-0.389845124673002
30
0
41
1
10
21.9919703822029
20
-0.21017051223015
30
0
41
1
10
21.827319721397
20
-0.11994192681442
30
0
41
1
10
21.4978082487727
20
0.0598410100882916
30
0
41
1
10
21.3330368461719
20
0.149553052973573
30
0
41
1
10
20.8387280939304
20
0.418279921191186
30
0
41
1
10
20.5090004689015
20
0.597638287085971
30
0
41
1
10
20.0134298755176
20
0.860446924954147
30
0
41
1
10
19.8484057842802
20
0.946947879709199
30
0
41
1
10
19.5186738454821
20
1.11805778131614
30
0
41
1
10
19.3541045611838
20
1.20291263223845
30
0
41
1
10
19.0248006487628
20
1.36924130995166
30
0
41
1
10
18.8600222518604
20
1.45053689716281
30
0
41
1
10
18.5301213148695
20
1.61038397330708
30
0
41
1
10
18.3650728051281
20
1.68894074219227
30
0
41
1
10
18.0347199166087
20
1.84291843070082
30
0
41
1
10
17.8699249007705
20
1.91763791711662
30
0
41
1
10
17.541307800764
20
2.06171899377247
30
0
41
1
10
17.3772341659702
20
2.13165413004114
30
0
41
1
10
17.0496647953108
20
2.26696489144467
30
0
41
1
10
16.8861509838892
20
2.33240480206695
30
0
41
1
10
16.5600230590723
20
2.45745840104891
30
0
41
1
10
16.397084751646
20
2.51709059206945
30
0
41
1
10
16.071038109968
20
2.63154353562715
30
0
41
1
10
15.9079807756458
20
2.68620589973008
30
0
41
1
10
15.5819848899933
20
2.78977130368477
30
0
41
1
10
15.419050548211
20
2.83824685433314
30
0
41
1
10
14.929618273682
20
2.97556269863986
30
0
41
1
10
14.6023719120717
20
3.05628095316621
30
0
41
1
10
13.94478992263
20
3.18877109271389
30
0
41
1
10
13.6140624579599
20
3.24342833303066
30
0
41
1
10
12.9545474335957
20
3.32165456160374
30
0
41
1
10
12.6257278023805
20
3.34751809131029
30
0
41
1
10
12.1314565185372
20
3.36426645456356
30
0
41
1
10
11.9665104747303
20
3.3661809209963
30
0
41
1
10
11.7992198541451
20
3.36462428267791
30
0
41
1
10
11.7970728027469
20
3.36460371871328
30
0
41
1
10
11.7949257284827
20
3.36458256793938
30
0
0
SPLINE
5
B8
100
AcDbEntity
8
1
62
256
6
ByLayer
370
18
48
1
60
0
100
AcDbSpline
70
4
71
3
72
30
73
26
40
0
40
0
40
0
40
0
40
0.250000000000011
40
0.250000000000011
40
0.500000000000021
40
0.500000000000021
40
0.625000000000027
40
0.625000000000027
40
0.687500000000025
40
0.687500000000025
40
0.750000000000024
40
0.750000000000024
40
0.812500000000023
40
0.812500000000023
40
0.843750000000019
40
0.843750000000019
40
0.875000000000015
40
0.875000000000015
40
0.906250000000011
40
0.906250000000011
40
0.937500000000008
40
0.937500000000008
40
0.968750000000004
40
0.968750000000004
40
1
40
1
40
1
40
1
41
1
10
38.9055478889958
20
1.1277702857314
30
0
41
1
10
39.1499672763117
20
0.953260625233042
30
0
41
1
10
39.3962859764672
20
0.794896419026145
30
0
41
1
10
39.894511332375
20
0.525669439647032
30
0
41
1
10
40.1463144790056
20
0.413926768357868
30
0
41
1
10
40.5296128481481
20
0.293862593939025
30
0
41
1
10
40.6562707496458
20
0.262585140014494
30
0
41
1
10
40.8438318544665
20
0.230535478736527
30
0
41
1
10
40.9058475884398
20
0.222356846095607
30
0
41
1
10
41.0285601380584
20
0.211313678684405
30
0
41
1
10
41.0898248281109
20
0.207034687738002
30
0
41
1
10
41.2062432825214
20
0.215412948462585
30
0
41
1
10
41.2621765760294
20
0.226805020946415
30
0
41
1
10
41.3359524022607
20
0.260445352885313
30
0
41
1
10
41.3588670749271
20
0.274630208583261
30
0
41
1
10
41.4005779419705
20
0.310296120919446
30
0
41
1
10
41.4189720033875
20
0.331473733205911
30
0
41
1
10
41.4492420418099
20
0.379975273347838
30
0
41
1
10
41.4613527430523
20
0.407882785589294
30
0
41
1
10
41.4784526456252
20
0.468316369273794
30
0
41
1
10
41.4836136537995
20
0.500655009045573
30
0
41
1
10
41.4877076822928
20
0.569231688106385
30
0
41
1
10
41.4865341467211
20
0.605275991625064
30
0
41
1
10
41.4786901454585
20
0.678345268289434
30
0
41
1
10
41.4722881610468
20
0.715806948659321
30
0
41
1
10
41.46295679381
20
0.753678676996145
30
0
0
SPLINE
5
B9
100
AcDbEntity
8
1
62
256
6
ByLayer
370
18
48
1
60
0
100
AcDbSpline
70
4
71
3
72
44
73
40
40
0
40
0
40
0
40
0
40
0.058224242553603
40
0.058224242553603
40
0.116448485107206
40
0.116448485107206
40
0.232896970214412
40
0.232896970214412
40
0.291121212768014
40
0.291121212768014
40
0.349345455321617
40
0.349345455321617
40
0.378457576598417
40
0.378457576598417
40
0.407569697875217
40
0.407569697875217
40
0.46579394042882
40
0.46579394042882
40
0.524018182982422
40
0.524018182982422
40
0.582242425536024
40
0.582242425536024
40
0.69869091064323
40
0.69869091064323
40
0.727803031920032
40
0.727803031920032
40
0.756915153196833
40
0.756915153196833
40
0.815139395750437
40
0.815139395750437
40
0.873363638304041
40
0.873363638304041
40
0.902475759580843
40
0.902475759580843
40
0.931587880857645
40
0.931587880857645
40
0.989812123411248
40
0.989812123411248
40
1
40
1
40
1
40
1
41
1
10
41.7788170717463
20
-3.52010223948235
30
0
41
1
10
41.385387230355
20
-3.54920477539892
30
0
41
1
10
40.9927501030074
20
-3.55666282053383
30
0
41
1
10
40.20600880653
20
-3.52849289793934
30
0
41
1
10
39.8109642073683
20
-3.49256119645011
30
0
41
1
10
38.6362073652771
20
-3.32332204196541
30
0
41
1
10
37.8612698696223
20
-3.12896267899322
30
0
41
1
10
36.691098994137
20
-2.73169995149158
30
0
41
1
10
36.2996327722632
20
-2.58158935616413
30
0
41
1
10
35.5108386338498
20
-2.24954268536826
30
0
41
1
10
35.1179604805138
20
-2.06943999693496
30
0
41
1
10
34.5282144685411
20
-1.78214650119395
30
0
41
1
10
34.331556279594
20
-1.68353387538852
30
0
41
1
10
33.9377052106525
20
-1.48116847912667
30
0
41
1
10
33.7403210777739
20
-1.3772985350648
30
0
41
1
10
33.1496331418155
20
-1.06054807489531
30
0
41
1
10
32.7569432628405
20
-0.842249215575578
30
0
41
1
10
31.9700412062107
20
-0.397734689139952
30
0
41
1
10
31.5747449233074
20
-0.170690100276346
30
0
41
1
10
30.791082756371
20
0.27913566790005
30
0
41
1
10
30.401390076903
20
0.502278049031787
30
0
41
1
10
29.2338267413546
20
1.1580043571565
30
0
41
1
10
28.4573979008632
20
1.57674702482476
30
0
41
1
10
27.4721543017339
20
2.04777708946722
30
0
41
1
10
27.2750662493224
20
2.13901012984249
30
0
41
1
10
26.8827901072259
20
2.31378072148857
30
0
41
1
10
26.6872312252803
20
2.39750794952354
30
0
41
1
10
26.10173001316
20
2.63714584542461
30
0
41
1
10
25.7128883015665
20
2.78140588501233
30
0
41
1
10
24.9346985773704
20
3.03529653455547
30
0
41
1
10
24.5454335614397
20
3.14501027986228
30
0
41
1
10
23.9586306752865
20
3.28098814676403
30
0
41
1
10
23.7625432225717
20
3.32154907149328
30
0
41
1
10
23.3689831535182
20
3.39270545612493
30
0
41
1
10
23.171428793033
20
3.42328256430329
30
0
41
1
10
22.5806554078191
20
3.49888299150058
30
0
41
1
10
22.1878103371554
20
3.52810312242036
30
0
41
1
10
21.7252890329428
20
3.53712773039533
30
0
41
1
10
21.6563689295597
20
3.53780751022572
30
0
41
1
10
21.5874222682594
20
3.53782515227172
30
0
0
SPLINE
5
BA
100
AcDbEntity
8
1
62
256
6
ByLayer
370
18
48
1
60
0
100
AcDbSpline
70
4
71
3
72
16
73
12
40
0
40
0
40
0
40
0
40
0.121210202683914
40
0.121210202683914
40
0.242420405367828
40
0.242420405367828
40
0.484840810735657
40
0.484840810735657
40
0.969681621471314
40
0.969681621471314
40
1
40
1
40
1
40
1
41
1
10
41.8210313609976
20
-3.36483820295766
30
0
41
1
10
41.6239610934831
20
-3.37598040560945
30
0
41
1
10
41.4265743763764
20
-3.38192435736613
30
0
41
1
10
41.0331513623202
20
-3.38342231808056
30
0
41
1
10
40.8371150158151
20
-3.37899707854135
30
0
41
1
10
40.2504677381645
20
-3.35056155451292
30
0
41
1
10
39.86130846817
20
-3.31142453754794
30
0
41
1
10
38.6949548515295
20
-3.13626110458301
30
0
41
1
10
37.9187604112103
20
-2.94232305316115
30
0
41
1
10
37.082172454533
20
-2.66257322148951
30
0
41
1
10
37.0329103707891
20
-2.64584169689755
30
0
41
1
10
36.9836450070153
20
-2.62885743136971
30
0
0
SPLINE
5
BB
100
AcDbEntity
8
1
62
256
6
ByLayer
370
13
48
1
60
0
100
AcDbSpline
70
4
71
3
72
26
73
22
40
0
40
0
40
0
40
0
40
0.0477414266103931
40
0.0477414266103931
40
0.111407828283247
40
0.111407828283247
40
0.238740631628956
40
0.238740631628956
40
0.366073434974664
40
0.366073434974664
40
0.429739836647519
40
0.429739836647519
40
0.493406238320373
40
0.493406238320373
40
0.74807184501179
40
0.74807184501179
40
0.875404648357499
40
0.875404648357499
40
0.939071050030355
40
0.939071050030355
40
1
40
1
40
1
40
1
41
1
10
36.9836444412109
20
-2.62885723630819
30
0
41
1
10
36.8359514153117
20
-2.57793996581921
30
0
41
1
10
36.6882289111126
20
-2.52475119878807
30
0
41
1
10
36.3449207958911
20
-2.39626285437453
30
0
41
1
10
36.1493164994115
20
-2.31936064378601
30
0
41
1
10
35.5637074817588
20
-2.07909787152099
30
0
41
1
10
35.1749317575452
20
-1.90613357794822
30
0
41
1
10
34.3973456038603
20
-1.53999891227025
30
0
41
1
10
34.0085298188657
20
-1.34681254418331
30
0
41
1
10
33.4231036393898
20
-1.04534266512411
30
0
41
1
10
33.2276045424355
20
-0.942892072488121
30
0
41
1
10
32.8353800284537
20
-0.734932500568078
30
0
41
1
10
32.6382716639077
20
-0.629252673744958
30
0
41
1
10
31.6529589026831
20
-0.0970101082739632
30
0
41
1
10
30.8760055233589
20
0.33537121680385
30
0
41
1
10
29.7080101600907
20
0.957846804415738
30
0
41
1
10
29.3182635095067
20
1.16101825083706
30
0
41
1
10
28.7306732750755
20
1.45499480248398
30
0
41
1
10
28.5343284877957
20
1.55121331924534
30
0
41
1
10
28.1486491730242
20
1.73515585952802
30
0
41
1
10
27.9599756310439
20
1.82275386161947
30
0
41
1
10
27.7721313149393
20
1.90738700196533
30
0
0
SPLINE
5
BC
100
AcDbEntity
8
1
62
256
6
ByLayer
370
18
48
1
60
0
100
AcDbSpline
70
4
71
3
72
8
73
4
40
0
40
0
40
0
40
0
40
1
40
1
40
1
40
1
41
1
10
41.7788170717463
20
-3.52010223948235
30
0
41
1
10
41.7874979054909
20
-3.49697905644734
30
0
41
1
10
41.7961698723845
20
-3.47384329735846
30
0
41
1
10
41.804832520194
20
-3.45069619234758
30
0
0
SPLINE
5
BD
100
AcDbEntity
8
1
62
256
6
ByLayer
370
18
48
1
60
0
100
AcDbSpline
70
4
71
3
72
16
73
12
40
0
40
0
40
0
40
0
40
0.0001423741006
40
0.0001423741006
40
0.142530773215859
40
0.142530773215859
40
0.284919172331119
40
0.284919172331119
40
0.854472768792157
40
0.854472768792157
40
1
40
1
40
1
40
1
41
1
10
21.8681072065189
20
-3.37073084678139
30
0
41
1
10
21.8679105015306
20
-3.37073222661832
30
0
41
1
10
21.8677137965589
20
-3.37073360131629
30
0
41
1
10
21.6707923814963
20
-3.372104667456
30
0
41
1
10
21.4740286015833
20
-3.36832469073266
30
0
41
1
10
21.0800292866725
20
-3.35051978234807
30
0
41
1
10
20.8824447076051
20
-3.33644847324641
30
0
41
1
10
19.8982718198961
20
-3.2410087445339
30
0
41
1
10
19.121122218171
20
-3.08474898945147
30
0
41
1
10
18.1421008924157
20
-2.80183727614144
30
0
41
1
10
17.9426968337595
20
-2.73974917008556
30
0
41
1
10
17.7429136536422
20
-2.6733472269357
30
0
0
SPLINE
5
BE
100
AcDbEntity
8
1
62
256
6
ByLayer
370
13
48
1
60
0
100
AcDbSpline
70
4
71
3
72
26
73
22
40
0
40
0
40
0
40
0
40
0.0599276236166419
40
0.0599276236166419
40
0.12120607905361
40
0.12120607905361
40
0.182484534490578
40
0.182484534490578
40
0.427598356238448
40
0.427598356238448
40
0.550155267112384
40
0.550155267112384
40
0.611433722549352
40
0.611433722549352
40
0.67271217798632
40
0.67271217798632
40
0.917825999734187
40
0.917825999734187
40
0.979104455171155
40
0.979104455171155
40
1
40
1
40
1
40
1
41
1
10
17.7429136537858
20
-2.67334722698342
30
0
41
1
10
17.5517485975568
20
-2.609809689999
30
0
41
1
10
17.3602364230012
20
-2.54232246388614
30
0
41
1
10
16.9718081882222
20
-2.39819002393128
30
0
41
1
10
16.77441765489
20
-2.32120532779953
30
0
41
1
10
16.3802151988807
20
-2.16055460490887
30
0
41
1
10
16.1838234725555
20
-2.07707281299321
30
0
41
1
10
15.2041691060247
20
-1.64588936646379
30
0
41
1
10
14.4281629730663
20
-1.256434110253
30
0
41
1
10
13.2568828918021
20
-0.638006952301907
30
0
41
1
10
12.8651405382149
20
-0.426302056238626
30
0
41
1
10
12.2733750955983
20
-0.104313070949274
30
0
41
1
10
12.0762656750079
20
0.0032257157219533
30
0
41
1
10
11.6836874374237
20
0.217025811356649
30
0
41
1
10
11.4879464182107
20
0.323440987105755
30
0
41
1
10
10.5110099284565
20
0.851326768847116
30
0
41
1
10
9.73507745415532
20
1.26019682755725
30
0
41
1
10
8.75619087423948
20
1.72584163445006
30
0
41
1
10
8.55996698262277
20
1.81669038750104
30
0
41
1
10
8.296015657634
20
1.93509992895721
30
0
41
1
10
8.22879536070434
20
1.96492232932917
30
0
41
1
10
8.1615476292252
20
1.99440633496343
30
0
0
SPLINE
5
BF
100
AcDbEntity
8
1
62
256
6
ByLayer
370
13
48
1
60
0
100
AcDbSpline
70
4
71
3
72
27
73
23
40
0
40
0
40
0
40
0
40
0.0654415697228436
40
0.143321438912607
40
0.143321438912607
40
0.221201308102369
40
0.221201308102369
40
0.299081177292132
40
0.299081177292132
40
0.376961046481895
40
0.376961046481895
40
0.532720784861421
40
0.532720784861421
40
0.610600654051184
40
0.610600654051184
40
0.688480523240947
40
0.688480523240947
40
0.844240261620474
40
0.844240261620474
40
0.922120130810237
40
0.922120130810237
40
1
40
1
40
1
40
1
41
1
10
4.25025382096129
20
-3.36031373534297
30
0
41
1
10
4.25024834002775
20
-3.35904890132167
30
0
41
1
10
4.25023513215626
20
-3.34772238659573
30
0
41
1
10
4.2502210856608
20
-3.31791168792117
30
0
41
1
10
4.25020649965128
20
-3.27445164155637
30
0
41
1
10
4.25019952185443
20
-3.24704920324874
30
0
41
1
10
4.25018750286088
20
-3.18143265636738
30
0
41
1
10
4.25018246967088
20
-3.14334008538248
30
0
41
1
10
4.25017526679298
20
-3.05660955207125
30
0
41
1
10
4.25017311191601
20
-3.00784588704266
30
0
41
1
10
4.25017207363385
20
-2.84826333884015
30
0
41
1
10
4.25017859299086
20
-2.72364792831561
30
0
41
1
10
4.25020118673504
20
-2.50953859540414
30
0
41
1
10
4.25021089917763
20
-2.43320280884438
30
0
41
1
10
4.25023441309168
20
-2.27298849301084
30
0
41
1
10
4.25024813249166
20
-2.18954850608475
30
0
41
1
10
4.25029458306358
20
-1.92951648914723
30
0
41
1
10
4.2503326829073
20
-1.74330832538917
30
0
41
1
10
4.25039696481497
20
-1.44410186273558
30
0
41
1
10
4.25041941010545
20
-1.341724877123
30
0
41
1
10
4.25046473600025
20
-1.13461553120825
30
0
41
1
10
4.25048770785423
20
-1.02946283479315
30
0
41
1
10
4.25051044551159
20
-0.922728788997148
30
0
0
SPLINE
5
C0
100
AcDbEntity
8
1
62
256
6
ByLayer
370
18
48
1
60
0
100
AcDbSpline
70
4
71
3
72
16
73
12
40
0
40
0
40
0
40
0
40
0.25000000000002
40
0.25000000000002
40
0.50000000000004
40
0.50000000000004
40
0.625000000000051
40
0.625000000000051
40
0.750000000000061
40
0.750000000000061
40
1
40
1
40
1
40
1
41
1
10
41.46295679381
20
0.753678676996145
30
0
41
1
10
41.4557166059643
20
0.783063269869075
30
0
41
1
10
41.4516553892576
20
0.813256967629314
30
0
41
1
10
41.4528718641267
20
0.875444861477064
30
0
41
1
10
41.4580093099656
20
0.906830930547329
30
0
41
1
10
41.4753302709238
20
0.951985325870396
30
0
41
1
10
41.4825693731363
20
0.966259253967507
30
0
41
1
10
41.5004552874544
20
0.992978690704859
30
0
41
1
10
41.5111134009894
20
1.00564620565945
30
0
41
1
10
41.5475880660742
20
1.03774162839858
30
0
41
1
10
41.5776783606335
20
1.05123317446987
30
0
41
1
10
41.6090233064242
20
1.05867834815234
30
0
0
SPLINE
5
C1
100
AcDbEntity
8
1
62
256
6
ByLayer
370
18
48
1
60
0
100
AcDbSpline
70
4
71
3
72
22
73
18
40
0
40
0
40
0
40
0
40
0.25
40
0.25
40
0.5
40
0.5
40
0.625
40
0.625
40
0.75
40
0.75
40
0.8125
40
0.8125
40
0.875
40
0.875
40
0.9375
40
0.9375
40
1
40
1
40
1
40
1
41
1
10
41.6090233064242
20
1.05867834815237
30
0
41
1
10
41.7104470863996
20
1.08276891964331
30
0
41
1
10
41.8107381637438
20
1.11009136507494
30
0
41
1
10
42.0073947476832
20
1.17633038824383
30
0
41
1
10
42.104388504483
20
1.21519581618688
30
0
41
1
10
42.2399240001154
20
1.29026946383078
30
0
41
1
10
42.2838422447785
20
1.31844503205252
30
0
41
1
10
42.3644270163259
20
1.38293794037574
30
0
41
1
10
42.401406348832
20
1.41947306962339
30
0
41
1
10
42.4468647206535
20
1.48280284011514
30
0
41
1
10
42.460097070395
20
1.50501156019968
30
0
41
1
10
42.482139806807
20
1.5519910235372
30
0
41
1
10
42.4909731897552
20
1.57704700619152
30
0
41
1
10
42.5031018301238
20
1.62775769883558
30
0
41
1
10
42.5065369520888
20
1.6535812970489
30
0
41
1
10
42.5084995819954
20
1.70612393300036
30
0
41
1
10
42.5069698699653
20
1.73274748334916
30
0
41
1
10
42.503444961962
20
1.75867827154784
30
0
0
SPLINE
5
C2
100
AcDbEntity
8
1
62
256
6
ByLayer
370
18
48
1
60
0
100
AcDbSpline
70
4
71
3
72
28
73
24
40
0
40
0
40
0
40
0
40
0.0205662804189981
40
0.0205662804189981
40
0.0959073357713828
40
0.0959073357713828
40
0.246589446476152
40
0.246589446476152
40
0.321930501828537
40
0.321930501828537
40
0.397271557180922
40
0.397271557180922
40
0.547953667885691
40
0.547953667885691
40
0.623294723238076
40
0.623294723238076
40
0.698635778590461
40
0.698635778590461
40
0.84931788929523
40
0.84931788929523
40
0.924658944647615
40
0.924658944647615
40
1
40
1
40
1
40
1
41
1
10
4.0142944520889
20
-3.52729472426353
30
0
41
1
10
4.0142942127105
20
-3.52724861678948
30
0
41
1
10
4.01429393746781
20
-3.52677644903053
30
0
41
1
10
4.01429251041398
20
-3.52258640242695
30
0
41
1
10
4.01429096999834
20
-3.51352254975214
30
0
41
1
10
4.01428587175212
20
-3.46895741827385
30
0
41
1
10
4.01428193842588
20
-3.41690312856483
30
0
41
1
10
4.01427787801791
20
-3.30642628811566
30
0
41
1
10
4.01427682371562
20
-3.26416164181379
30
0
41
1
10
4.01427569139068
20
-3.16845813221767
30
0
41
1
10
4.01427562303095
20
-3.11501911895056
30
0
41
1
10
4.01427731378163
20
-2.94147042019577
30
0
41
1
10
4.01428097437557
20
-2.8072480993315
30
0
41
1
10
4.01429114280739
20
-2.57813187419788
30
0
41
1
10
4.01429533506752
20
-2.49661073536171
30
0
41
1
10
4.01430517789956
20
-2.32648897276542
30
0
41
1
10
4.0143108098886
20
-2.23808100194725
30
0
41
1
10
4.01432963792809
20
-1.96308267561747
30
0
41
1
10
4.01434479843874
20
-1.76681323741576
30
0
41
1
10
4.01437014623389
20
-1.45233477419359
30
0
41
1
10
4.0143789476499
20
-1.34504841485997
30
0
41
1
10
4.01439667987052
20
-1.12812329019363
30
0
41
1
10
4.0144056414301
20
-1.01810813428801
30
0
41
1
10
4.0144144889623
20
-0.906555730295167
30
0
0
SPLINE
5
C3
100
AcDbEntity
8
1
62
256
6
ByLayer
370
18
48
1
60
0
100
AcDbSpline
70
4
71
3
72
26
73
22
40
0
40
0
40
0
40
0
40
0.107113338904719
40
0.107113338904719
40
0.164209992376898
40
0.164209992376898
40
0.221306645849076
40
0.221306645849076
40
0.449693259737788
40
0.449693259737788
40
0.506789913209966
40
0.506789913209966
40
0.563886566682143
40
0.563886566682143
40
0.678079873626496
40
0.678079873626496
40
0.9064664875152
40
0.9064664875152
40
0.963563140987378
40
0.963563140987378
40
1
40
1
40
1
40
1
41
1
10
6.62339708969282
20
2.6021038718909
30
0
41
1
10
6.9901373283549
20
2.46686333944228
30
0
41
1
10
7.35756976669524
20
2.31747382778613
30
0
41
1
10
7.92396903546882
20
2.06906346556721
30
0
41
1
10
8.12193401585955
20
1.97888518943299
30
0
41
1
10
8.51598719832992
20
1.79367589545376
30
0
41
1
10
8.71237183382874
20
1.69855727366439
30
0
41
1
10
9.69203509307135
20
1.2120118846675
30
0
41
1
10
10.4683101761694
20
0.787521927255568
30
0
41
1
10
11.4460320216662
20
0.242029240073663
30
0
41
1
10
11.6419531429865
20
0.132201505261293
30
0
41
1
10
12.034942988706
20
-0.0882172615254149
30
0
41
1
10
12.2323268784087
20
-0.198984468393348
30
0
41
1
10
12.8247418539914
20
-0.530108233549811
30
0
41
1
10
13.2167747319045
20
-0.747214578293551
30
0
41
1
10
14.3888387501037
20
-1.37958253180034
30
0
41
1
10
15.1651545867912
20
-1.77549488153073
30
0
41
1
10
16.1457904283891
20
-2.21080838975891
30
0
41
1
10
16.3423994668174
20
-2.29493395891907
30
0
41
1
10
16.6656884573952
20
-2.42726691612006
30
0
41
1
10
16.7917245629872
20
-2.47734852901746
30
0
41
1
10
16.9175277633877
20
-2.52577249846954
30
0
0
SPLINE
5
C4
100
AcDbEntity
8
1
62
256
6
ByLayer
370
13
48
1
60
0
100
AcDbSpline
70
4
71
3
72
20
73
16
40
0
40
0
40
0
40
0
40
0.0348094831824792
40
0.0348094831824792
40
0.227212655673382
40
0.227212655673382
40
0.612019000655188
40
0.612019000655188
40
0.708220586900638
40
0.708220586900638
40
0.804422173146088
40
0.804422173146088
40
0.996825345636986
40
0.996825345636986
40
1
40
1
40
1
40
1
41
1
10
16.9175277633552
20
-2.525772498457
30
0
41
1
10
16.9888585073726
20
-2.55322901592484
30
0
41
1
10
17.0601143742412
20
-2.58015261433729
30
0
41
1
10
17.524344356741
20
-2.75218969421846
30
0
41
1
10
17.9150795180207
20
-2.8812555584299
30
0
41
1
10
19.0855059563017
20
-3.21401214095451
30
0
41
1
10
19.8630417550479
20
-3.36362557174286
30
0
41
1
10
20.8484819748171
20
-3.44693350962521
30
0
41
1
10
21.046304040582
20
-3.45838559082077
30
0
41
1
10
21.4407176243555
20
-3.47061743013288
30
0
41
1
10
21.6376897453727
20
-3.47143860820617
30
0
41
1
10
22.2285053788775
20
-3.45798723104917
30
0
41
1
10
22.6225069201292
20
-3.42782465598685
30
0
41
1
10
23.0241168599916
20
-3.37589838935176
30
0
41
1
10
23.030635692291
20
-3.37504987699413
30
0
41
1
10
23.0371543607122
20
-3.37419573371986
30
0
0
SPLINE
5
C5
100
AcDbEntity
8
1
62
256
6
ByLayer
370
18
48
1
60
0
100
AcDbSpline
70
4
71
3
72
79
73
75
40
0
40
0
40
0
40
0
40
0.0298549519393926
40
0.0298549519393926
40
0.102436421073742
40
0.102436421073742
40
0.175017890208092
40
0.175017890208092
40
0.247599359342442
40
0.247599359342442
40
0.283890093909616
40
0.283890093909616
40
0.320180828476791
40
0.320180828476791
40
0.392762297611141
40
0.392762297611141
40
0.429053032178316
40
0.429053032178316
40
0.447198399461903
40
0.447198399461903
40
0.456271083103697
40
0.456271083103697
40
0.456838125831309
40
0.456838125831309
40
0.457121647195115
40
0.457121647195115
40
0.457405168558921
40
0.457405168558921
40
0.458539254014145
40
0.458539254014145
40
0.460807424924593
40
0.460807424924593
40
0.46534376674549
40
0.46534376674549
40
0.483489134029076
40
0.483489134029076
40
0.501634501312662
40
0.501634501312662
40
0.537925235879835
40
0.537925235879835
40
0.61050670501418
40
0.61050670501418
40
0.683088174148525
40
0.683088174148525
40
0.701233541432111
40
0.701233541432111
40
0.719378908715697
40
0.719378908715697
40
0.723915250536594
40
0.723915250536594
40
0.724482293264206
40
0.724482293264206
40
0.724765814628012
40
0.724765814628012
40
0.725049335991818
40
0.726183421447042
40
0.72845159235749
40
0.737524275999282
40
0.737524275999282
40
0.755669643282866
40
0.755669643282866
40
0.791960377850034
40
0.791960377850034
40
0.828251112417202
40
0.828251112417202
40
0.900832581551538
40
0.900832581551538
40
0.918977948835122
40
0.918977948835122
40
0.937123316118706
40
0.937123316118706
40
0.973414050685874
40
0.973414050685874
40
1
40
1
40
1
40
1
41
1
10
12.1158838623077
20
-0.477902452133719
30
0
41
1
10
12.0143080127389
20
-0.42699039390348
30
0
41
1
10
11.9126647599477
20
-0.377292426206907
30
0
41
1
10
11.5634969505609
20
-0.211640897386928
30
0
41
1
10
11.3151609280495
20
-0.102556658041948
30
0
41
1
10
10.8149168018451
20
0.0901395381594057
30
0
41
1
10
10.5675325770028
20
0.17188707146363
30
0
41
1
10
10.0746509879729
20
0.299747321657264
30
0
41
1
10
9.82913215273095
20
0.345840405619839
30
0
41
1
10
9.45837417063197
20
0.384519550345885
30
0
41
1
10
9.33386068931742
20
0.392349496464618
30
0
41
1
10
9.08600264415014
20
0.397409128982815
30
0
41
1
10
8.96282675227343
20
0.39469013925256
30
0
41
1
10
8.59440921407779
20
0.371395953943278
30
0
41
1
10
8.35025627083809
20
0.335686694170136
30
0
41
1
10
7.98202906245487
20
0.254490100718414
30
0
41
1
10
7.85895945206556
20
0.222819460208086
30
0
41
1
10
7.67337677390842
20
0.168726232912007
30
0
41
1
10
7.61130699798755
20
0.149582069279745
30
0
41
1
10
7.51805721101624
20
0.119310071755422
30
0
41
1
10
7.48697008484061
20
0.108967110207203
30
0
41
1
10
7.45393345031377
20
0.0977164269573052
30
0
41
1
10
7.45199010227009
20
0.0970536640219279
30
0
41
1
10
7.44907505372865
20
0.0960580846857795
30
0
41
1
10
7.44750878426419
20
0.0960362311695349
30
0
41
1
10
7.44730883313966
20
0.0942707349369698
30
0
41
1
10
7.44821232688273
20
0.0934542010431016
30
0
41
1
10
7.4516741293078
20
0.0897283586920139
30
0
41
1
10
7.45509095212131
20
0.087196002792524
30
0
41
1
10
7.46515908995738
20
0.079548146320036
30
0
41
1
10
7.47213374349738
20
0.0747056724135575
30
0
41
1
10
7.49319152195793
20
0.0603071041875012
30
0
41
1
10
7.50749060031944
20
0.0509635340692114
30
0
41
1
10
7.57926447705259
20
0.0045963937336921
30
0
41
1
10
7.6377002983055
20
-0.0314201807003087
30
0
41
1
10
7.75472380002915
20
-0.103320461480877
30
0
41
1
10
7.81345250011381
20
-0.13905244926957
30
0
41
1
10
7.9899338294762
20
-0.246015354358775
30
0
41
1
10
8.10798905157216
20
-0.31700448515565
30
0
41
1
10
8.46265577086223
20
-0.52984526814663
30
0
41
1
10
8.6993436082312
20
-0.672178785214385
30
0
41
1
10
9.1728305769397
20
-0.958307140966554
30
0
41
1
10
9.40973876781979
20
-1.1018855594115
30
0
41
1
10
9.70394416649987
20
-1.28522379128475
30
0
41
1
10
9.76268955683844
20
-1.32208554344967
30
0
41
1
10
9.87971962151761
20
-1.3966558100926
30
0
41
1
10
9.93828316372787
20
-1.43388958694189
30
0
41
1
10
10.0096534598101
20
-1.48359327165156
30
0
41
1
10
10.0243444135165
20
-1.49320298370071
30
0
41
1
10
10.0387603114307
20
-1.50653480729184
30
0
41
1
10
10.0404499655521
20
-1.50792459988071
30
0
41
1
10
10.0420653474817
20
-1.51096657688194
30
0
41
1
10
10.0411294094912
20
-1.51186607923731
30
0
41
1
10
10.0393560376566
20
-1.51320743119945
30
0
41
1
10
10.0349226195423
20
-1.51656000217926
30
0
41
1
10
10.0233958122025
20
-1.52526618237357
30
0
41
1
10
9.98438287649881
20
-1.55464642276738
30
0
41
1
10
9.94892231355874
20
-1.58108232963275
30
0
41
1
10
9.86382281647832
20
-1.64394468991028
30
0
41
1
10
9.80704376156822
20
-1.68511321811019
30
0
41
1
10
9.63699223315191
20
-1.80557895906611
30
0
41
1
10
9.52388042927933
20
-1.8819517151284
30
0
41
1
10
9.29653262659261
20
-2.02500198632689
30
0
41
1
10
9.18177433352278
20
-2.09193444797617
30
0
41
1
10
8.83777518363999
20
-2.2724402488538
30
0
41
1
10
8.60863139046165
20
-2.36595075390144
30
0
41
1
10
8.31345494954226
20
-2.44277314562658
30
0
41
1
10
8.25398379184514
20
-2.45614366817625
30
0
41
1
10
8.13396170871488
20
-2.47878881697741
30
0
41
1
10
8.07322764204849
20
-2.48807678949021
30
0
41
1
10
7.89122832836711
20
-2.50949180530316
30
0
41
1
10
7.76975209630419
20
-2.51528809117497
30
0
41
1
10
7.55816806514895
20
-2.51222570272813
30
0
41
1
10
7.4683598993164
20
-2.50687596194271
30
0
41
1
10
7.37809682174543
20
-2.49788964517688
30
0
0
SPLINE
5
C6
100
AcDbEntity
8
1
62
256
6
ByLayer
370
18
48
1
60
0
100
AcDbSpline
70
4
71
3
72
18
73
14
40
0
40
0
40
0
40
0
40
0.124999999999998
40
0.124999999999998
40
0.249999999999996
40
0.249999999999996
40
0.5
40
0.5
40
0.750000000000004
40
0.750000000000004
40
0.875000000000002
40
0.875000000000002
40
1
40
1
40
1
40
1
41
1
10
42.5034449619627
20
1.75867827154815
30
0
41
1
10
42.4768217368156
20
1.83050976755555
30
0
41
1
10
42.4501005996946
20
1.90227888171577
30
0
41
1
10
42.3966487557385
20
2.04581101296333
30
0
41
1
10
42.3698412007195
20
2.11756976292935
30
0
41
1
10
42.2892882402062
20
2.33215695218152
30
0
41
1
10
42.23534989849
20
2.47427265731181
30
0
41
1
10
42.1270533146752
20
2.75682988627113
30
0
41
1
10
42.0728264791735
20
2.89779534024328
30
0
41
1
10
41.990780413203
20
3.10642938121728
30
0
41
1
10
41.9633562880239
20
3.1756732892153
30
0
41
1
10
41.9084053548553
20
3.31375169943712
30
0
41
1
10
41.8808553555306
20
3.38249373568166
30
0
41
1
10
41.8531321077455
20
3.45054501443977
30
0
0
SPLINE
5
C7
100
AcDbEntity
8
1
62
256
6
ByLayer
370
18
48
1
60
0
100
AcDbSpline
70
4
71
3
72
32
73
28
40
0
40
0
40
0
40
0
40
0.110827876928786
40
0.110827876928786
40
0.166241815393178
40
0.166241815393178
40
0.22165575385757
40
0.22165575385757
40
0.332483630786353
40
0.332483630786353
40
0.443311507715135
40
0.443311507715135
40
0.498725446179527
40
0.498725446179527
40
0.554139384643918
40
0.554139384643918
40
0.664967261572699
40
0.664967261572699
40
0.775795138501479
40
0.775795138501479
40
0.88662301543026
40
0.88662301543026
40
0.94203695389465
40
0.94203695389465
40
0.997450892359041
40
0.997450892359041
40
1
40
1
40
1
40
1
41
1
10
7.3787882846587
20
-2.49795841485712
30
0
41
1
10
7.70877986701018
20
-2.61796791172722
30
0
41
1
10
8.0383698190538
20
-2.72636944291304
30
0
41
1
10
8.53178664253028
20
-2.87371608060513
30
0
41
1
10
8.69602930556329
20
-2.92022104350977
30
0
41
1
10
9.02511722717358
20
-3.00594505705556
30
0
41
1
10
9.18987801409287
20
-3.04524241572378
30
0
41
1
10
9.68477251819223
20
-3.15307330957884
30
0
41
1
10
10.0145176627041
20
-3.21146990128381
30
0
41
1
10
10.672866079817
20
-3.30102250947885
30
0
41
1
10
11.0020493928798
20
-3.33351450888645
30
0
41
1
10
11.4959233665647
20
-3.35903832462319
30
0
41
1
10
11.6611677582601
20
-3.36365923173869
30
0
41
1
10
11.991051306967
20
-3.36603795801867
30
0
41
1
10
12.1555280712261
20
-3.36377265140609
30
0
41
1
10
12.6475674661358
20
-3.34606045614751
30
0
41
1
10
12.9738459073684
20
-3.31979747011243
30
0
41
1
10
13.62612539508
20
-3.24154433008278
30
0
41
1
10
13.9512530906634
20
-3.18755930075375
30
0
41
1
10
14.6027702163053
20
-3.05610933358221
30
0
41
1
10
14.9292360363993
20
-2.97568275477616
30
0
41
1
10
15.4201030907191
20
-2.83794512702565
30
0
41
1
10
15.5839537853044
20
-2.78918767644626
30
0
41
1
10
15.9129802906057
20
-2.68457484106955
30
0
41
1
10
16.0783193536838
20
-2.62908415198976
30
0
41
1
10
16.2509269287214
20
-2.56838936324624
30
0
41
1
10
16.2585171640005
20
-2.56571506738681
30
0
41
1
10
16.2661066917972
20
-2.5630356771174
30
0
0
SPLINE
5
C8
100
AcDbEntity
8
1
62
256
6
ByLayer
370
18
48
1
60
0
100
AcDbSpline
70
4
71
3
72
32
73
28
40
0
40
0
40
0
40
0
40
0.0217128101988283
40
0.0217128101988283
40
0.0869319561855708
40
0.0869319561855708
40
0.152151102172314
40
0.152151102172314
40
0.217370248159056
40
0.217370248159056
40
0.282589394145799
40
0.282589394145799
40
0.347808540132541
40
0.347808540132541
40
0.47824683210603
40
0.47824683210603
40
0.60868512407952
40
0.60868512407952
40
0.673904270066267
40
0.673904270066267
40
0.739123416053013
40
0.739123416053013
40
0.80434256203976
40
0.80434256203976
40
0.869561708026507
40
0.869561708026507
40
1
40
1
40
1
40
1
41
1
10
31.3680526005809
20
3.37575329525421
30
0
41
1
10
31.4228954041998
20
3.37551555686727
30
0
41
1
10
31.4776988009674
20
3.37491347618814
30
0
41
1
10
31.6968362747803
20
3.37108920768279
30
0
41
1
10
31.8608380909149
20
3.36439833507256
30
0
41
1
10
32.1882649225068
20
3.34334301692377
30
0
41
1
10
32.3516517994513
20
3.32930841571428
30
0
41
1
10
32.6778092355676
20
3.29482155242522
30
0
41
1
10
32.8405262103306
20
3.27413579317093
30
0
41
1
10
33.166183185673
20
3.22565933495631
30
0
41
1
10
33.3290158382795
20
3.19795797471892
30
0
41
1
10
33.6546118513074
20
3.13669094989302
30
0
41
1
10
33.81734341585
20
3.10308824601881
30
0
41
1
10
34.3057764869857
20
2.9917974362977
30
0
41
1
10
34.6322663096816
20
2.90354492547024
30
0
41
1
10
35.2882707145003
20
2.70287605685979
30
0
41
1
10
35.6183103123079
20
2.58952802751156
30
0
41
1
10
36.1125104966746
20
2.40637913258178
30
0
41
1
10
36.2770636377412
20
2.34288121757342
30
0
41
1
10
36.6058789799356
20
2.21025403538269
30
0
41
1
10
36.7701540599546
20
2.14117471444959
30
0
41
1
10
37.0989688751356
20
1.99872160716734
30
0
41
1
10
37.2635586651674
20
1.92546167154305
30
0
41
1
10
37.5931774069264
20
1.77485755572184
30
0
41
1
10
37.7584103432004
20
1.69728263011015
30
0
41
1
10
38.2519550617229
20
1.45970620411984
30
0
41
1
10
38.5792499182237
20
1.2958728173322
30
0
41
1
10
38.9055478889959
20
1.12777028573132
30
0
0
SPLINE
5
C9
100
AcDbEntity
8
1
62
256
6
ByLayer
370
18
48
1
60
0
100
AcDbSpline
70
4
71
3
72
16
73
12
40
0
40
0
40
0
40
0
40
0.25
40
0.25
40
0.5
40
0.5
40
0.75
40
0.75
40
0.875
40
0.875
40
1
40
1
40
1
40
1
41
1
10
7.37767492555142
20
-2.49755347087276
30
0
41
1
10
7.11074826534707
20
-2.4009479214877
30
0
41
1
10
6.84601226476028
20
-2.29583106394543
30
0
41
1
10
6.31979209602727
20
-2.06771870436893
30
0
41
1
10
6.05826196399261
20
-1.94503400978218
30
0
41
1
10
5.53742892083136
20
-1.68411049670084
30
0
41
1
10
5.27817221685027
20
-1.54537410981456
30
0
41
1
10
4.89099573783622
20
-1.32338315727299
30
0
41
1
10
4.76222979075538
20
-1.24703125372176
30
0
41
1
10
4.5053915335892
20
-1.08892334073266
30
0
41
1
10
4.37722007182117
20
-1.00709438677077
30
0
41
1
10
4.25051044661802
20
-0.922728789719315
30
0
0
SPLINE
5
CA
100
AcDbEntity
8
1
62
256
6
ByLayer
370
18
48
1
60
0
100
AcDbSpline
70
4
71
3
72
18
73
14
40
0
40
0
40
0
40
0
40
0.124999999999996
40
0.124999999999996
40
0.249999999999992
40
0.249999999999992
40
0.499999999999992
40
0.499999999999992
40
0.749999999999992
40
0.749999999999992
40
0.874999999999996
40
0.874999999999996
40
1
40
1
40
1
40
1
41
1
10
42.5034449619626
20
-1.75867827154812
30
0
41
1
10
42.4768217368156
20
-1.8305097675555
30
0
41
1
10
42.4501005996946
20
-1.90227888171572
30
0
41
1
10
42.3966487557386
20
-2.04581101296324
30
0
41
1
10
42.3698412007195
20
-2.11756976292926
30
0
41
1
10
42.2892882402062
20
-2.33215695218141
30
0
41
1
10
42.2353498984899
20
-2.47427265731167
30
0
41
1
10
42.1270533146752
20
-2.75682988627096
30
0
41
1
10
42.0728264791736
20
-2.89779534024311
30
0
41
1
10
41.9907804132031
20
-3.10642938121708
30
0
41
1
10
41.963356288024
20
-3.17567328921507
30
0
41
1
10
41.9084053548555
20
-3.31375169943686
30
0
41
1
10
41.8808553555307
20
-3.38249373568144
30
0
41
1
10
41.8531321077457
20
-3.45054501443951
30
0
0
SPLINE
5
CB
100
AcDbEntity
8
1
62
256
6
ByLayer
370
18
48
1
60
0
100
AcDbSpline
70
4
71
3
72
8
73
4
40
0
40
0
40
0
40
0
40
1
40
1
40
1
40
1
41
1
10
41.7788170717463
20
3.52010223948235
30
0
41
1
10
41.5110307866361
20
3.53991075210772
30
0
41
1
10
41.2434987015331
20
3.54970017512389
30
0
41
1
10
40.9757390453632
20
3.54947719713221
30
0
0
SPLINE
5
CC
100
AcDbEntity
8
1
62
256
6
ByLayer
370
18
48
1
60
0
100
AcDbSpline
70
4
71
3
72
46
73
42
40
0
40
0
40
0
40
0
40
0.0264714064617007
40
0.0264714064617007
40
0.0873169435578436
40
0.0873169435578436
40
0.117739712105915
40
0.117739712105915
40
0.148162480653987
40
0.148162480653987
40
0.209008017750132
40
0.209008017750132
40
0.269853554846276
40
0.269853554846276
40
0.300276323394349
40
0.300276323394349
40
0.330699091942421
40
0.330699091942421
40
0.391544629038566
40
0.391544629038566
40
0.513235703230854
40
0.513235703230854
40
0.543658471778926
40
0.543658471778926
40
0.574081240326997
40
0.574081240326997
40
0.634926777423142
40
0.634926777423142
40
0.665349545971214
40
0.665349545971214
40
0.695772314519286
40
0.695772314519286
40
0.756617851615429
40
0.756617851615429
40
0.817463388711573
40
0.817463388711573
40
0.847886157259644
40
0.847886157259644
40
0.878308925807716
40
0.878308925807716
40
1
40
1
40
1
40
1
41
1
10
23.4999055587596
20
-3.36880533146024
30
0
41
1
10
23.3285680248022
20
-3.39879322845633
30
0
41
1
10
23.1571140153805
20
-3.42493089311333
30
0
41
1
10
22.5925848618515
20
-3.49775858903197
30
0
41
1
10
22.1999778125768
20
-3.52741419176735
30
0
41
1
10
21.6095372845374
20
-3.5396016905012
30
0
41
1
10
21.4122100874311
20
-3.53826905397435
30
0
41
1
10
21.018251018952
20
-3.52480864048559
30
0
41
1
10
20.8215834192342
20
-3.51269865037182
30
0
41
1
10
20.2318253817948
20
-3.46045799900335
30
0
41
1
10
19.8390141683089
20
-3.40440245905131
30
0
41
1
10
19.0504653422884
20
-3.25111405877979
30
0
41
1
10
18.6570599915131
20
-3.15418103381151
30
0
41
1
10
18.0672991634037
20
-2.98130251861309
30
0
41
1
10
17.870677595965
20
-2.91907161765482
30
0
41
1
10
17.4770294638332
20
-2.78567793002594
30
0
41
1
10
17.279581855853
20
-2.7143895870141
30
0
41
1
10
16.6892653496203
20
-2.48936373116629
30
0
41
1
10
16.2985724684152
20
-2.32429002578576
30
0
41
1
10
15.129403656668
20
-1.79243631833509
30
0
41
1
10
14.3542565213813
20
-1.38843197945974
30
0
41
1
10
13.373526449922
20
-0.847983478628151
30
0
41
1
10
13.1764575003334
20
-0.738016881917133
30
0
41
1
10
12.782122185724
20
-0.515977096428685
30
0
41
1
10
12.5853274093485
20
-0.40416930714315
30
0
41
1
10
11.9952988863174
20
-0.0677211231106583
30
0
41
1
10
11.6024087305853
20
0.157922249850912
30
0
41
1
10
11.0112590639751
20
0.494000180704319
30
0
41
1
10
10.813863399891
20
0.60565403805029
30
0
41
1
10
10.4200573428084
20
0.826148804759555
30
0
41
1
10
10.2233898757465
20
0.935140261677674
30
0
41
1
10
9.63345538908808
20
1.25728173865778
30
0
41
1
10
9.23987291711924
20
1.46572654721692
30
0
41
1
10
8.45089259384247
20
1.86316708203864
30
0
41
1
10
8.05798772285033
20
2.05115930410108
30
0
41
1
10
7.46800271746062
20
2.31278893149391
30
0
41
1
10
7.27123095206736
20
2.39660254183266
30
0
41
1
10
6.87703775812045
20
2.55685025752439
30
0
41
1
10
6.67952646294572
20
2.63330298856957
30
0
41
1
10
5.69541038642731
20
2.99359332959472
30
0
41
1
10
4.91482986224511
20
3.21390001819299
30
0
41
1
10
4.12607531590422
20
3.3531728595504
30
0
0
SPLINE
5
CD
100
AcDbEntity
8
1
62
256
6
ByLayer
370
18
48
1
60
0
100
AcDbSpline
70
4
71
3
72
10
73
6
40
0
40
0
40
0
40
0
40
0.733421900852346
40
0.733421900852346
40
1
40
1
40
1
40
1
41
1
10
4.01428574145748
20
3.4008021699498
30
0
41
1
10
4.01429297803975
20
3.46280885931091
30
0
41
1
10
4.01429559496762
20
3.50232666051383
30
0
41
1
10
4.01429547278286
20
3.52451748194719
30
0
41
1
10
4.01429508971762
20
3.52741687854456
30
0
41
1
10
4.01429445230167
20
3.52729476513247
30
0
0
SPLINE
5
CE
100
AcDbEntity
8
1
62
256
6
ByLayer
370
18
48
1
60
0
100
AcDbSpline
70
4
71
3
72
8
73
4
40
0
40
0
40
0
40
0
40
1
40
1
40
1
40
1
41
1
10
4.04022418069255
20
3.37741708966223
30
0
41
1
10
4.02386376973575
20
3.38468848504533
30
0
41
1
10
4.01428480821767
20
3.39280570009578
30
0
41
1
10
4.01428574145746
20
3.40080216994599
30
0
0
SPLINE
5
CF
100
AcDbEntity
8
1
62
256
6
ByLayer
370
18
48
1
60
0
100
AcDbSpline
70
4
71
3
72
28
73
24
40
0
40
0
40
0
40
0
40
0.131168716358282
40
0.131168716358282
40
0.185753846423512
40
0.185753846423512
40
0.240338976488742
40
0.240338976488742
40
0.349509236619205
40
0.349509236619205
40
0.567849756880127
40
0.567849756880127
40
0.622434886945359
40
0.622434886945359
40
0.677020017010591
40
0.677020017010591
40
0.786190277141057
40
0.786190277141057
40
0.895360537271523
40
0.895360537271523
40
0.949945667336756
40
0.949945667336756
40
1
40
1
40
1
40
1
41
1
10
26.3104281216601
20
2.50176359961773
30
0
41
1
10
26.7785417948221
20
2.31936395375169
30
0
41
1
10
27.2471622311414
20
2.11514465850394
30
0
41
1
10
27.9156412295042
20
1.80002256287929
30
0
41
1
10
28.1131286924844
20
1.7040977779213
30
0
41
1
10
28.5076278194449
20
1.50740373450648
30
0
41
1
10
28.7041256528379
20
1.40692557887439
30
0
41
1
10
29.2921215237432
20
1.10043882639545
30
0
41
1
10
29.6820649796246
20
0.889284481159279
30
0
41
1
10
30.8507370292233
20
0.244286045487002
30
0
41
1
10
31.6281710136558
20
-0.201357432431479
30
0
41
1
10
32.6149537798748
20
-0.74725966601784
30
0
41
1
10
32.8121481710692
20
-0.855386148436367
30
0
41
1
10
33.2046387456843
20
-1.06787911009363
30
0
41
1
10
33.4002531672056
20
-1.17239073975489
30
0
41
1
10
33.985979607867
20
-1.479449962464
30
0
41
1
10
34.3749787231611
20
-1.67551358190278
30
0
41
1
10
35.1530181565362
20
-2.04581352426743
30
0
41
1
10
35.5420564134185
20
-2.22006712220971
30
0
41
1
10
36.1281961350986
20
-2.46105115959736
30
0
41
1
10
36.3240026095051
20
-2.53798959064494
30
0
41
1
10
36.7005771781867
20
-2.67839787180713
30
0
41
1
10
36.8816961779491
20
-2.74258925354741
30
0
41
1
10
37.0624158968567
20
-2.80301766393995
30
0
0
SPLINE
5
D0
100
AcDbEntity
8
1
62
256
6
ByLayer
370
13
48
1
60
0
100
AcDbSpline
70
4
71
3
72
16
73
12
40
0
40
0
40
0
40
0
40
0.010269180593346
40
0.010269180593346
40
0.505134590296676
40
0.505134590296676
40
0.752567295148338
40
0.752567295148338
40
0.876283647574169
40
0.876283647574169
40
1
40
1
40
1
40
1
41
1
10
37.0624149486689
20
-2.80301734688825
30
0
41
1
10
37.0787735777022
20
-2.80848728764698
30
0
41
1
10
37.0951289351477
20
-2.81392639557004
30
0
41
1
10
37.8994273615144
20
-3.07992725337695
30
0
41
1
10
38.6758467754732
20
-3.26760826687391
30
0
41
1
10
39.8429019946559
20
-3.42894874703688
30
0
41
1
10
40.2323694333074
20
-3.46273195383449
30
0
41
1
10
40.8196715607267
20
-3.4820802110635
30
0
41
1
10
41.0159549514024
20
-3.48330092692473
30
0
41
1
10
41.4099505634453
20
-3.47503936090871
30
0
41
1
10
41.6075529784144
20
-3.46552215767034
30
0
41
1
10
41.804832520194
20
-3.45069619234766
30
0
0
SPLINE
5
D1
100
AcDbEntity
8
1
62
256
6
ByLayer
370
18
48
1
60
0
100
AcDbSpline
70
4
71
3
72
12
73
8
40
0
40
0
40
0
40
0
40
0.249999999999993
40
0.249999999999993
40
0.499999999999987
40
0.499999999999987
40
1
40
1
40
1
40
1
41
1
10
41.8048325201684
20
-3.4506961923496
30
0
41
1
10
41.8097798945622
20
-3.43747651666376
30
0
41
1
10
41.8144062163584
20
-3.4239551454441
30
0
41
1
10
41.8216515525858
20
-3.39977648495648
30
0
41
1
10
41.8242424876881
20
-3.38915058944349
30
0
41
1
10
41.8280409005629
20
-3.36609829117145
30
0
41
1
10
41.8256949092851
20
-3.36196145514845
30
0
41
1
10
41.8210313609959
20
-3.36483820295865
30
0
0
SPLINE
5
D2
100
AcDbEntity
8
1
62
256
6
ByLayer
370
18
48
1
60
0
100
AcDbSpline
70
4
71
3
72
86
73
82
40
0
40
0
40
0
40
0
40
0.0012137145964468
40
0.0012137145964468
40
0.0204789329434662
40
0.0204789329434662
40
0.0397441512904855
40
0.0397441512904855
40
0.0590093696375048
40
0.0590093696375048
40
0.0975398063315434
40
0.0975398063315434
40
0.116805024678563
40
0.116805024678563
40
0.136070243025582
40
0.136070243025582
40
0.174600679719621
40
0.174600679719621
40
0.213131116413659
40
0.213131116413659
40
0.232396334760679
40
0.232396334760679
40
0.251661553107698
40
0.251661553107698
40
0.290191989801736
40
0.290191989801736
40
0.328722426495775
40
0.328722426495775
40
0.347987644842794
40
0.347987644842794
40
0.367252863189814
40
0.367252863189814
40
0.405783299883852
40
0.405783299883852
40
0.425048518230872
40
0.425048518230872
40
0.444313736577892
40
0.444313736577892
40
0.48284417327193
40
0.48284417327193
40
0.521374609965968
40
0.521374609965968
40
0.540639828312987
40
0.540639828312987
40
0.559905046660006
40
0.559905046660006
40
0.598435483354045
40
0.598435483354045
40
0.617700701701064
40
0.617700701701064
40
0.636965920048083
40
0.636965920048083
40
0.656231138395102
40
0.656231138395102
40
0.675496356742121
40
0.675496356742121
40
0.69476157508914
40
0.69476157508914
40
0.714026793436159
40
0.714026793436159
40
0.733292011783178
40
0.733292011783178
40
0.752557230130197
40
0.752557230130197
40
0.791087666824235
40
0.791087666824235
40
0.829618103518273
40
0.829618103518273
40
0.868148540212311
40
0.868148540212311
40
0.88741375855933
40
0.88741375855933
40
0.906678976906349
40
0.906678976906349
40
0.925944195253368
40
0.925944195253368
40
0.945209413600387
40
0.945209413600387
40
0.983739850294425
40
0.983739850294425
40
1
40
1
40
1
40
1
41
1
10
16.2701405361783
20
2.55604624392069
30
0
41
1
10
16.2799805803062
20
2.55995383314667
30
0
41
1
10
16.2898232154972
20
2.56385146056778
30
0
41
1
10
16.4559438783889
20
2.62944396875869
30
0
41
1
10
16.6121014171982
20
2.6882191429099
30
0
41
1
10
16.9235467119448
20
2.80026518221842
30
0
41
1
10
17.078887853594
20
2.8535718832201
30
0
41
1
10
17.3885918927544
20
2.95498189574175
30
0
41
1
10
17.5430234924406
20
3.00299307823741
30
0
41
1
10
18.0062411743217
20
3.13786871489751
30
0
41
1
10
18.3152699867726
20
3.21547409834614
30
0
41
1
10
18.7778061747743
20
3.31454999302076
30
0
41
1
10
18.9317303459551
20
3.34468220880336
30
0
41
1
10
19.2405922352254
20
3.39823931248952
30
0
41
1
10
19.3953692473607
20
3.42178767858087
30
0
41
1
10
19.8603482843056
20
3.4829405406708
30
0
41
1
10
20.170547127493
20
3.5111701910011
30
0
41
1
10
20.7958177141654
20
3.54031603290858
30
0
41
1
10
21.1076944390947
20
3.54130475952502
30
0
41
1
10
21.5718906062937
20
3.52276468350794
30
0
41
1
10
21.7262682958301
20
3.51321773384868
30
0
41
1
10
22.0352938316894
20
3.48773036808993
30
0
41
1
10
22.1897747564858
20
3.47177326708817
30
0
41
1
10
22.6527196816977
20
3.4141966698285
30
0
41
1
10
22.9601600013365
20
3.36247230580332
30
0
41
1
10
23.5778997782175
20
3.23492653429588
30
0
41
1
10
23.8877226676519
20
3.15907252360301
30
0
41
1
10
24.3531069258035
20
3.02579766460249
30
0
41
1
10
24.5087994397374
20
2.97851191160692
30
0
41
1
10
24.8214081670156
20
2.87834864119591
30
0
41
1
10
24.9778952289668
20
2.82553329502059
30
0
41
1
10
25.4449152427243
20
2.65932911100933
30
0
41
1
10
25.7538921744884
20
2.53757937239243
30
0
41
1
10
26.2176430225766
20
2.34360312187252
30
0
41
1
10
26.372102253148
20
2.27685403852505
30
0
41
1
10
26.6805654756198
20
2.13889357307752
30
0
41
1
10
26.8344299994177
20
2.06747307680112
30
0
41
1
10
27.2963272357982
20
1.84783388099458
30
0
41
1
10
27.6054762983746
20
1.69557093860919
30
0
41
1
10
28.2240058259332
20
1.37592434059644
30
0
41
1
10
28.5338135335634
20
1.20906976007572
30
0
41
1
10
29.0024049775729
20
0.953283819367812
30
0
41
1
10
29.1589933215051
20
0.866813858964463
30
0
41
1
10
29.4703345451152
20
0.692551761552835
30
0
41
1
10
29.6252525570141
20
0.604298114869692
30
0
41
1
10
30.0900131661308
20
0.340247725361138
30
0
41
1
10
30.399453319253
20
0.164406344909281
30
0
41
1
10
30.8616900812484
20
-0.101453330923164
30
0
41
1
10
31.0155599385847
20
-0.190220667563779
30
0
41
1
10
31.3236617536136
20
-0.366665543512539
30
0
41
1
10
31.4779576665825
20
-0.454231363360265
30
0
41
1
10
31.7867062901904
20
-0.628642936924848
30
0
41
1
10
31.9411583159869
20
-0.71548962008427
30
0
41
1
10
32.2500862993751
20
-0.888686123242451
30
0
41
1
10
32.4045533150828
20
-0.975049287109186
30
0
41
1
10
32.7148680319781
20
-1.14489844399546
30
0
41
1
10
32.8705266190594
20
-1.22871708636239
30
0
41
1
10
33.182592470403
20
-1.39458006014343
30
0
41
1
10
33.3390911995463
20
-1.47682855487804
30
0
41
1
10
33.650376836829
20
-1.63798464045084
30
0
41
1
10
33.8055385272385
20
-1.71692312935878
30
0
41
1
10
34.1156703712743
20
-1.87039260128668
30
0
41
1
10
34.2705948696174
20
-1.94501287025844
30
0
41
1
10
34.7344333222383
20
-2.16341031160749
30
0
41
1
10
35.0418349476864
20
-2.30242403629268
30
0
41
1
10
35.6584970298516
20
-2.55977288124609
30
0
41
1
10
35.9669580393679
20
-2.67930297749078
30
0
41
1
10
36.5843535672169
20
-2.89939693655302
30
0
41
1
10
36.8945685940738
20
-2.9985494384718
30
0
41
1
10
37.3621181678637
20
-3.13082126126028
30
0
41
1
10
37.5184924300085
20
-3.17233900374669
30
0
41
1
10
37.8297542375468
20
-3.24899504701961
30
0
41
1
10
37.9852224882794
20
-3.28390798843819
30
0
41
1
10
38.2956414144969
20
-3.34729578309882
30
0
41
1
10
38.4505877576798
20
-3.37577461058299
30
0
41
1
10
38.7596633641431
20
-3.42649249404809
30
0
41
1
10
38.9137623324864
20
-3.44872271214697
30
0
41
1
10
39.3759238080811
20
-3.50548120962611
30
0
41
1
10
39.684417271707
20
-3.53003961037893
30
0
41
1
10
40.1228322660518
20
-3.54644822116802
30
0
41
1
10
40.252772020693
20
-3.5489759701336
30
0
41
1
10
40.3829224203442
20
-3.54911562098951
30
0
0
SPLINE
5
D3
100
AcDbEntity
8
1
62
256
6
ByLayer
370
18
48
1
60
0
100
AcDbSpline
70
4
71
3
72
10
73
6
40
0
40
0
40
0
40
0
40
0.5
40
0.5
40
1
40
1
40
1
40
1
41
1
10
4.12607531590362
20
3.35317285955051
30
0
41
1
10
4.10865266637106
20
3.35624923092055
30
0
41
1
10
4.09276179212975
20
3.35986689623411
30
0
41
1
10
4.06393677450541
20
3.36803982145338
30
0
41
1
10
4.05098398099216
20
3.37263488936017
30
0
41
1
10
4.04022418069258
20
3.37741708966235
30
0
0
LINE
5
76
100
AcDbEntity
8
81
62
256
6
ByLayer
370
18
48
1
60
0
100
AcDbLine
10
43
20
0
30
0
11
48
21
0
31
0
39
0
210
0
220
0
230
1
0
LINE
5
77
100
AcDbEntity
8
1
62
256
6
ByLayer
370
18
48
1
60
0
100
AcDbLine
10
4.01429
20
3.527297
30
0
11
1.137622
21
3.525571
31
0
39
0
210
0
220
0
230
1
0
LINE
5
79
100
AcDbEntity
8
1
62
256
6
ByLayer
370
18
48
1
60
0
100
AcDbLine
10
21.577042
20
3.537834
30
0
11
20.980218
21
3.537476
31
0
39
0
210
0
220
0
230
1
0
LINE
5
7A
100
AcDbEntity
8
1
62
256
6
ByLayer
370
18
48
1
60
0
100
AcDbLine
10
20.980218
20
-3.537476
30
0
11
21.577047
21
-3.537834
31
0
39
0
210
0
220
0
230
1
0
LINE
5
7B
100
AcDbEntity
8
1
62
256
6
ByLayer
370
18
48
1
60
0
100
AcDbLine
10
1.137622
20
-3.525571
30
0
11
4.01429
21
-3.527297
31
0
39
0
210
0
220
0
230
1
0
LINE
5
7C
100
AcDbEntity
8
SK1
62
256
6
ByLayer
370
18
48
1
60
0
100
AcDbLine
10
-35.133975
20
4
30
0
11
-36
21
2.5
31
0
39
0
210
0
220
0
230
1
0
LINE
5
7E
100
AcDbEntity
8
SK1
62
256
6
ByLayer
370
18
48
1
60
0
100
AcDbLine
10
-36
20
-2.5
30
0
11
-35.133975
21
-4
31
0
39
0
210
0
220
0
230
1
0
LINE
5
7F
100
AcDbEntity
8
SK1
62
256
6
ByLayer
370
18
48
1
60
0
100
AcDbLine
10
0
20
4
30
0
11
-35.133975
21
4
31
0
39
0
210
0
220
0
230
1
0
LINE
5
80
100
AcDbEntity
8
SK1
62
256
6
ByLayer
370
18
48
1
60
0
100
AcDbLine
10
-35.133975
20
-4
30
0
11
0
21
-4
31
0
39
0
210
0
220
0
230
1
0
LINE
5
81
100
AcDbEntity
8
1
62
256
6
ByLayer
370
18
48
1
60
0
100
AcDbLine
10
40.977468
20
3.549475
30
0
11
40.387567
21
3.549121
31
0
39
0
210
0
220
0
230
1
0
LINE
5
82
100
AcDbEntity
8
1
62
256
6
ByLayer
370
18
48
1
60
0
100
AcDbLine
10
40.387567
20
-3.549121
30
0
11
40.977973
21
-3.549475
31
0
39
0
210
0
220
0
230
1
0
LINE
5
83
100
AcDbEntity
8
SK4
62
256
6
ByLayer
370
18
48
0.05
60
0
100
AcDbLine
10
48
20
0
30
0
11
-41
21
0
31
0
39
0
210
0
220
0
230
1
0
LINE
5
85
100
AcDbEntity
8
4
62
256
6
ByLayer
370
18
48
0.05
60
0
100
AcDbLine
10
43
20
0
30
0
11
0
21
0
31
0
39
0
210
0
220
0
230
1
0
LINE
5
87
100
AcDbEntity
8
80
62
256
6
ByLayer
370
18
48
1
60
0
100
AcDbLine
10
0
20
0
30
0
11
-5
21
0
31
0
39
0
210
0
220
0
230
1
0
LINE
5
88
100
AcDbEntity
8
1
62
256
6
ByLayer
370
13
48
1
60
0
100
AcDbLine
10
4.250268
20
3.353166
30
0
11
4.250257
21
3.360615
31
0
39
0
210
0
220
0
230
1
0
LINE
5
89
100
AcDbEntity
8
1
62
256
6
ByLayer
370
18
48
1
60
0
100
AcDbLine
10
4.250257
20
3.360615
30
0
11
4.250254
21
3.360314
31
0
39
0
210
0
220
0
230
1
0
LINE
5
8A
100
AcDbEntity
8
1
62
256
6
ByLayer
370
18
48
1
60
0
100
AcDbLine
10
43
20
0
30
0
11
42.993622
21
-0.035363
31
0
39
0
210
0
220
0
230
1
0
LINE
5
8B
100
AcDbEntity
8
1
62
256
6
ByLayer
370
18
48
1
60
0
100
AcDbLine
10
43
20
0
30
0
11
41.76871
21
-3.382942
31
0
39
0
210
0
220
0
230
1
0
LINE
5
8C
100
AcDbEntity
8
1
62
256
6
ByLayer
370
13
48
1
60
0
100
AcDbLine
10
42.81977
20
0.732906
30
0
11
42.169964
21
0.732906
31
0
39
0
210
0
220
0
230
1
0
LINE
5
8D
100
AcDbEntity
8
1
62
256
6
ByLayer
370
13
48
1
60
0
100
AcDbLine
10
42.169964
20
0.732906
30
0
11
42.924173
21
0.285409
31
0
39
0
210
0
220
0
230
1
0
LINE
5
8E
100
AcDbEntity
8
1
62
256
6
ByLayer
370
18
48
1
60
0
100
AcDbLine
10
4.250257
20
-3.360617
30
0
11
4.250254
21
-3.360314
31
0
39
0
210
0
220
0
230
1
0
LINE
5
8F
100
AcDbEntity
8
1
62
256
6
ByLayer
370
18
48
1
60
0
100
AcDbLine
10
0
20
-4
30
0
11
0
21
4
31
0
39
0
210
0
220
0
230
1
0
LINE
5
90
100
AcDbEntity
8
1
62
256
6
ByLayer
370
18
48
1
60
0
100
AcDbLine
10
42.924173
20
-0.285409
30
0
11
42.81977
21
-0.732906
31
0
39
0
210
0
220
0
230
1
0
LINE
5
91
100
AcDbEntity
8
1
62
256
6
ByLayer
370
18
48
1
60
0
100
AcDbLine
10
42.993622
20
0.035363
30
0
11
43
21
0
31
0
39
0
210
0
220
0
230
1
0
LINE
5
92
100
AcDbEntity
8
1
62
256
6
ByLayer
370
13
48
1
60
0
100
AcDbLine
10
0.568571
20
3.762785
30
0
11
0.568571
21
-3.762785
31
0
39
0
210
0
220
0
230
1
0
LINE
5
93
100
AcDbEntity
8
1
62
256
6
ByLayer
370
13
48
1
60
0
100
AcDbLine
10
41.980058
20
0.397576
30
0
11
42.894988
21
-0.145282
31
0
39
0
210
0
220
0
230
1
0
LINE
5
94
100
AcDbEntity
8
1
62
256
6
ByLayer
370
13
48
1
60
0
100
AcDbLine
10
1.137622
20
3.525571
30
0
11
1.137622
21
-3.525571
31
0
39
0
210
0
220
0
230
1
0
LINE
5
95
100
AcDbEntity
8
1
62
256
6
ByLayer
370
18
48
1
60
0
100
AcDbLine
10
42.924173
20
0.285409
30
0
11
42.81977
21
0.732906
31
0
39
0
210
0
220
0
230
1
0
LINE
5
96
100
AcDbEntity
8
1
62
256
6
ByLayer
370
18
48
1
60
0
100
AcDbLine
10
41.229039
20
-1.86623
30
0
11
42.894988
21
-0.145282
31
0
39
0
210
0
220
0
230
1
0
LINE
5
97
100
AcDbEntity
8
SK1
62
256
6
ByLayer
370
18
48
1
60
0
100
AcDbLine
10
0
20
-4
30
0
11
0
21
4
31
0
39
0
210
0
220
0
230
1
0
LINE
5
98
100
AcDbEntity
8
SK1
62
256
6
ByLayer
370
18
48
1
60
0
100
AcDbLine
10
-35.133975
20
4
30
0
11
-35.133975
21
-4
31
0
39
0
210
0
220
0
230
1
0
LINE
5
99
100
AcDbEntity
8
SK1
62
256
6
ByLayer
370
18
48
1
60
0
100
AcDbLine
10
-36
20
2.5
30
0
11
-36
21
-2.5
31
0
39
0
210
0
220
0
230
1
0
MTEXT
5
D4
100
AcDbEntity
8
SK6
62
256
6
ByLayer
370
13
48
1
60
0
100
AcDbMText
10
5.629169
20
35.932694
30
0
210
0
220
0
230
1
1
\W0.7542;R840-0710-30-A0A1220
40
3.5
41
0
44
1.084337
50
0
71
8
72
5
7
iso_b_vert
0
DIMENSION
5
E1
100
AcDbEntity
8
SK2
62
256
6
ByLayer
370
13
48
1
60
0
100
AcDbDimension
2
DimnDraft3D1
10
41.79
20
-13.763398
30
0
11
19.540059
21
-13.763398
31
0
70
32
71
5
72
1
41
1
210
0
220
0
230
1
3
Standard
100
AcDbAlignedDimension
13
0
23
-1.5875
33
0
14
41.79
24
-5.1375
34
0
50
0
100
AcDbRotatedDimension
1001
ACAD
1000
DSTYLE
1002
{
1070
   279
1070
     0
1070
   172
1070
     1
1070
   173
1070
     1
1070
   340
1005
D5
1070
   271
1070
     2
1070
   272
1070
     2
1070
    77
1070
     1
1070
    73
1070
     0
1070
   171
1070
     3
1070
   274
1070
     4
1070
   177
1070
    35
1070
   176
1070
    35
1070
   178
1070
    35
1070
    48
1040
-0.005
1070
    41
1041
3.5
1070
   147
1041
1.75
1070
    42
1041
1.5875
1070
    44
1041
2.0
1070
   140
1041
3.5
1070
   343
1005
0
1070
   344
1005
0
1002
}
0
DIMENSION
5
EB
100
AcDbEntity
8
SK2
62
256
6
ByLayer
370
13
48
1
60
0
100
AcDbDimension
2
DimnDraft3D2
10
43
20
-32.692985
30
0
11
3.6313
21
-32.692985
31
0
70
32
71
5
72
1
41
1
210
0
220
0
230
1
3
Standard
100
AcDbAlignedDimension
13
-36
23
-5.5875
33
0
14
43
24
-1.5875
34
0
50
0
100
AcDbRotatedDimension
1001
ACAD
1000
DSTYLE
1002
{
1070
   279
1070
     0
1070
   172
1070
     1
1070
   173
1070
     1
1070
   340
1005
D5
1070
   271
1070
     2
1070
   272
1070
     2
1070
    77
1070
     1
1070
    73
1070
     0
1070
   171
1070
     3
1070
   274
1070
     4
1070
   177
1070
    35
1070
   176
1070
    35
1070
   178
1070
    35
1070
    48
1040
-0.005
1070
    41
1041
3.5
1070
   147
1041
1.75
1070
    42
1041
1.5875
1070
    44
1041
2.0
1070
   140
1041
3.5
1070
   343
1005
0
1070
   344
1005
0
1002
}
0
DIMENSION
5
F5
100
AcDbEntity
8
SK2
62
256
6
ByLayer
370
13
48
1
60
0
100
AcDbDimension
2
DimnDraft3D3
10
43
20
15.159119
30
0
11
31.745
21
15.159119
31
0
70
32
71
5
72
1
41
1
210
0
220
0
230
1
3
Standard
100
AcDbAlignedDimension
13
20.49
23
5.1375
33
0
14
43
24
1.5875
34
0
50
0
100
AcDbRotatedDimension
1001
ACAD
1000
DSTYLE
1002
{
1070
   279
1070
     0
1070
   172
1070
     1
1070
   173
1070
     1
1070
   340
1005
D5
1070
   271
1070
     2
1070
   272
1070
     2
1070
    77
1070
     1
1070
    73
1070
     0
1070
   171
1070
     3
1070
   274
1070
     4
1070
   177
1070
    35
1070
   176
1070
    35
1070
   178
1070
    35
1070
    48
1040
-0.005
1070
    41
1041
3.5
1070
   147
1041
1.75
1070
    42
1041
1.5875
1070
    44
1041
2.0
1070
   140
1041
3.5
1070
   343
1005
0
1070
   344
1005
0
1002
}
0
DIMENSION
5
FF
100
AcDbEntity
8
SK2
62
256
6
ByLayer
370
13
48
1
60
0
100
AcDbDimension
2
DimnDraft3D4
10
41.79
20
-16.352503
30
0
11
52.981425
21
-16.352503
31
0
70
32
71
5
72
1
41
1
210
0
220
0
230
1
3
Standard
100
AcDbAlignedDimension
13
43
23
-1.5875
33
0
14
41.79
24
-5.1375
34
0
50
0
100
AcDbRotatedDimension
1001
ACAD
1000
DSTYLE
1002
{
1070
   279
1070
     0
1070
   172
1070
     1
1070
   173
1070
     1
1070
   340
1005
D5
1070
   271
1070
     2
1070
   272
1070
     2
1070
    77
1070
     1
1070
    73
1070
     0
1070
   171
1070
     3
1070
   274
1070
     4
1070
   177
1070
    35
1070
   176
1070
    35
1070
   178
1070
    35
1070
    48
1040
-0.005
1070
    41
1041
3.5
1070
   147
1041
1.75
1070
    42
1041
1.5875
1070
    44
1041
2.0
1070
   140
1041
3.5
1070
   343
1005
0
1070
   344
1005
0
1002
}
0
DIMENSION
5
109
100
AcDbEntity
8
SK2
62
256
6
ByLayer
370
13
48
1
60
0
100
AcDbDimension
2
DimnDraft3D5
10
41.79
20
-22.343428
30
0
11
0.550676
21
-22.343428
31
0
70
32
71
5
72
1
41
1
210
0
220
0
230
1
3
Standard
100
AcDbAlignedDimension
13
-36
23
-5.5875
33
0
14
41.79
24
-5.1375
34
0
50
0
100
AcDbRotatedDimension
1001
ACAD
1000
DSTYLE
1002
{
1070
   279
1070
     0
1070
   172
1070
     1
1070
   173
1070
     1
1070
   340
1005
D5
1070
   271
1070
     2
1070
   272
1070
     2
1070
    77
1070
     1
1070
    73
1070
     0
1070
   171
1070
     3
1070
   274
1070
     4
1070
   177
1070
    35
1070
   176
1070
    35
1070
   178
1070
    35
1070
    48
1040
-0.005
1070
    41
1041
3.5
1070
   147
1041
1.75
1070
    42
1041
1.5875
1070
    44
1041
2.0
1070
   140
1041
3.5
1070
   343
1005
0
1070
   344
1005
0
1002
}
0
DIMENSION
5
114
100
AcDbEntity
8
SK2
62
256
6
ByLayer
370
13
48
1
60
0
100
AcDbDimension
2
DimnDraft3D6
10
-46.625163
20
4
30
0
11
-47.250163
21
22.47418
31
0
70
33
71
5
72
1
41
1
210
0
220
0
230
1
3
Standard
100
AcDbAlignedDimension
13
-37.5875
23
-4
33
0
14
-37.5875
24
4
34
0
1001
ACAD
1000
DSTYLE
1002
{
1070
   279
1070
     0
1070
    74
1070
     0
1070
   173
1070
     1
1070
   340
1005
D5
1070
   271
1070
     3
1070
   272
1070
     2
1070
    77
1070
     1
1070
    73
1070
     0
1070
   171
1070
     3
1070
   274
1070
     4
1070
   177
1070
    35
1070
   176
1070
    35
1070
   178
1070
    35
1070
    48
1040
-0.005
1070
    41
1041
3.5
1070
   147
1041
1.75
1070
    42
1041
1.5875
1070
    44
1041
2.0
1070
   140
1041
3.5
1070
   343
1005
0
1070
   344
1005
0
1002
}
0
DIMENSION
5
11F
100
AcDbEntity
8
2
62
256
6
ByLayer
370
13
48
1
60
0
100
AcDbDimension
2
DimnDraft3D7
10
57.083343
20
3.55
30
0
11
52.458343
21
20.617266
31
0
70
33
71
5
72
1
41
1
210
0
220
0
230
1
3
Standard
100
AcDbAlignedDimension
13
43.3775
23
-3.55
33
0
14
43.3775
24
3.55
34
0
1001
ACAD
1000
DSTYLE
1002
{
1070
   279
1070
     0
1070
    74
1070
     0
1070
   173
1070
     1
1070
   340
1005
D5
1070
   271
1070
     3
1070
   272
1070
     2
1070
    77
1070
     1
1070
    73
1070
     0
1070
   171
1070
     3
1070
   274
1070
     4
1070
   177
1070
    35
1070
   176
1070
    35
1070
   178
1070
    35
1070
    48
1040
-0.005
1070
    41
1041
3.5
1070
   147
1041
1.75
1070
    42
1041
1.5875
1070
    44
1041
2.0
1070
   140
1041
3.5
1070
   343
1005
0
1070
   344
1005
0
1002
}
0
ENDSEC
0
SECTION
2
OBJECTS
0
DICTIONARY
5
18a
330
0
100
AcDbDictionary
280
0
281
1
3
ACAD_GROUP
350
18b
3
ACAD_MLINESTYLE
350
18c
0
DICTIONARY
5
18b
330
0
100
AcDbDictionary
280
0
281
1
0
DICTIONARY
5
18c
330
0
100
AcDbDictionary
280
0
281
1
3
Standard
350
18
0
MLINESTYLE
5
18
330
18c
100
AcDbMlineStyle
2
Standard
70
0
3

62
256
51
90
52
90
71
2
49
-0.5
62
256
6
ByLayer
49
0.5
62
256
6
ByLayer
0
RASTERVARIABLES
5
178
330

100
AcDbRasterVariables
90
0
70
1
71
1
72
1
0
ENDSEC
0
EOF
