0
SECTION
2
HEADER
9
$ACADVER
1
AC1015
9
$DWGCODEPAGE
3
ANSI_1252
9
$HANDSEED
5
1b3
9
$ANGBASE
50
0
9
$ANGDIR
70
0
9
$ATTMODE
70
1
9
$AUNITS
70
0
9
$AUPREC
70
0
9
$CECOLOR
62
256
9
$CELTSCALE
40
1
9
$CELTYPE
6
ByLayer
9
$CELWEIGHT
370
18
9
$CLAYER
8
0
9
$CMLJUST
70
0
9
$CMLSCALE
40
1
9
$CMLSTYLE
2
Standard
9
$DIMSTYLE
2
Standard
9
$TEXTSIZE
40
0.2
9
$TEXTSTYLE
7
Standard
9
$LUNITS
70
2
9
$LUPREC
70
4
9
$EXTNAMES
290
1
9
$INSUNITS
70
4
9
$LTSCALE
40
1
9
$LWDISPLAY
290
1
9
$PDMODE
70
0
9
$PDSIZE
40
0
9
$PLINEGEN
70
0
0
ENDSEC
0
SECTION
2
CLASSES
0
CLASS
1
RASTERVARIABLES
2
AcDbRasterVariables
3
ISM
90
0
280
0
281
0
0
ENDSEC
0
SECTION
2
TABLES
0
TABLE
2
VPORT
5
1a9
100
AcDbSymbolTable
0
VPORT
5
1
100
AcDbSymbolTableRecord
100
AcDbViewportTableRecord
2
*Active
70
0
10
0
20
0
11
1
21
1
12
-1
22
1
13
0
23
0
14
0.5
24
0.5
15
10
25
10
16
0
26
0
36
1
17
0
27
0
37
0
0
ENDTAB
0
TABLE
2
LTYPE
5
1aa
100
AcDbSymbolTable
0
LTYPE
5
14
100
AcDbSymbolTableRecord
100
AcDbLinetypeTableRecord
70
0
2
ByBlock
3

72
65
73
0
40
0
0
LTYPE
5
15
100
AcDbSymbolTableRecord
100
AcDbLinetypeTableRecord
70
0
2
ByLayer
3

72
65
73
0
40
0
0
LTYPE
5
16
100
AcDbSymbolTableRecord
100
AcDbLinetypeTableRecord
70
0
2
CONTINUOUS
3
Solid line
72
65
73
0
40
0
0
LTYPE
5
6A
100
AcDbSymbolTableRecord
100
AcDbLinetypeTableRecord
70
0
2
CENTER
3
____ _ ____ _ ____ _ ____
72
65
73
4
40
47.5
49
22
74
0
49
-8.5
74
0
49
8.5
74
0
49
-8.5
74
0
0
LTYPE
5
6B
100
AcDbSymbolTableRecord
100
AcDbLinetypeTableRecord
70
0
2
DASHED
3
__ __ __ __ __ __ __ __ __
72
65
73
2
40
25.72
49
12.86
74
0
49
-12.86
74
0
0
ENDTAB
0
TABLE
2
LAYER
5
1ab
100
AcDbSymbolTable
0
LAYER
5
10
100
AcDbSymbolTableRecord
100
AcDbLayerTableRecord
2
0
70
0
62
7
6
CONTINUOUS
290
1
370
-3
390
0
0
LAYER
5
6D
100
AcDbSymbolTableRecord
100
AcDbLayerTableRecord
2
81
70
0
62
-3
6
CONTINUOUS
290
1
370
-3
390
0
0
LAYER
5
6F
100
AcDbSymbolTableRecord
100
AcDbLayerTableRecord
2
80
70
0
62
-6
6
CONTINUOUS
290
1
370
-3
390
0
0
LAYER
5
74
100
AcDbSymbolTableRecord
100
AcDbLayerTableRecord
2
2
70
0
62
7
6
CONTINUOUS
290
1
370
-3
390
0
0
LAYER
5
78
100
AcDbSymbolTableRecord
100
AcDbLayerTableRecord
2
1
70
0
62
4
6
CONTINUOUS
290
1
370
-3
390
0
0
LAYER
5
88
100
AcDbSymbolTableRecord
100
AcDbLayerTableRecord
2
4
70
0
62
-2
6
CENTER
290
1
370
-3
390
0
0
LAYER
5
195
100
AcDbSymbolTableRecord
100
AcDbLayerTableRecord
2
SK2
70
0
62
7
6
CONTINUOUS
290
1
370
-3
390
0
0
LAYER
5
196
100
AcDbSymbolTableRecord
100
AcDbLayerTableRecord
2
SK1
70
0
62
4
6
CONTINUOUS
290
1
370
-3
390
0
0
LAYER
5
197
100
AcDbSymbolTableRecord
100
AcDbLayerTableRecord
2
SK4
70
0
62
2
6
CENTER
290
1
370
-3
390
0
0
LAYER
5
198
100
AcDbSymbolTableRecord
100
AcDbLayerTableRecord
2
SK6
70
0
62
5
6
CONTINUOUS
290
1
370
-3
390
0
0
ENDTAB
0
TABLE
2
STYLE
5
1ac
100
AcDbSymbolTable
0
STYLE
5
11
100
AcDbSymbolTableRecord
100
AcDbTextStyleTableRecord
2
Standard
3
txt
70
0
71
0
40
0
41
1
42
0
50
0
0
STYLE
5
F1
100
AcDbSymbolTableRecord
100
AcDbTextStyleTableRecord
2
iso_b_vert
3
simplex.shx
70
0
71
0
40
0
41
1
42
0
50
0
0
STYLE
5
F2
100
AcDbSymbolTableRecord
100
AcDbTextStyleTableRecord
2
DWGDirectTextStyle
3
simplex
70
0
71
0
40
0
41
1
42
0
50
0
0
ENDTAB
0
TABLE
2
DIMSTYLE
5
1ad
100
AcDbSymbolTable
100
AcDbDimStyleTable
0
DIMSTYLE
105
27
100
AcDbSymbolTableRecord
100
AcDbDimStyleTableRecord
2
Standard
70
0
3
<>
41
0.18
42
0.0625
44
0.18
140
0.18
147
0.09
73
0
74
0
77
1
271
2
275
0
278
52
280
0
340
11
0
ENDTAB
0
TABLE
2
VIEW
5
1ae
100
AcDbSymbolTable
0
ENDTAB
0
TABLE
2
UCS
5
1af
100
AcDbSymbolTable
0
ENDTAB
0
TABLE
2
APPID
5
1b0
100
AcDbSymbolTable
0
APPID
5
12
100
AcDbSymbolTableRecord
100
AcDbRegAppTableRecord
2
ACAD
70
0
0
ENDTAB
0
TABLE
2
BLOCK_RECORD
5
1b1
100
AcDbSymbolTable
0
BLOCK_RECORD
5
1F
100
AcDbSymbolTableRecord
100
AcDbBlockTableRecord
2
*Model_Space
340
0
70
0
0
BLOCK_RECORD
5
1B
100
AcDbSymbolTableRecord
100
AcDbBlockTableRecord
2
*Paper_Space
340
0
70
0
0
BLOCK_RECORD
5
23
100
AcDbSymbolTableRecord
100
AcDbBlockTableRecord
2
*Paper_Space0
340
0
70
0
0
BLOCK_RECORD
5
F4
100
AcDbSymbolTableRecord
100
AcDbBlockTableRecord
2
DimnDraft3D1
340
0
70
0
0
BLOCK_RECORD
5
FE
100
AcDbSymbolTableRecord
100
AcDbBlockTableRecord
2
DimnDraft3D2
340
0
70
0
0
BLOCK_RECORD
5
108
100
AcDbSymbolTableRecord
100
AcDbBlockTableRecord
2
DimnDraft3D3
340
0
70
0
0
BLOCK_RECORD
5
112
100
AcDbSymbolTableRecord
100
AcDbBlockTableRecord
2
DimnDraft3D4
340
0
70
0
0
BLOCK_RECORD
5
11C
100
AcDbSymbolTableRecord
100
AcDbBlockTableRecord
2
DimnDraft3D5
340
0
70
0
0
BLOCK_RECORD
5
126
100
AcDbSymbolTableRecord
100
AcDbBlockTableRecord
2
DimnDraft3D6
340
0
70
0
0
BLOCK_RECORD
5
131
100
AcDbSymbolTableRecord
100
AcDbBlockTableRecord
2
DimnDraft3D7
340
0
70
0
0
ENDTAB
0
ENDSEC
0
SECTION
2
BLOCKS
0
BLOCK
5
20
100
AcDbEntity
8
0
100
AcDbBlockBegin
2
*Model_Space
70
0
10
0
20
0
30
0
3
*Model_Space
0
ENDBLK
5
21
100
AcDbEntity
8
0
100
AcDbBlockEnd
0
BLOCK
5
1C
100
AcDbEntity
8
0
100
AcDbBlockBegin
2
*Paper_Space
70
0
10
0
20
0
30
0
3
*Paper_Space
0
ENDBLK
5
1D
100
AcDbEntity
8
0
100
AcDbBlockEnd
0
BLOCK
5
24
100
AcDbEntity
8
0
100
AcDbBlockBegin
2
*Paper_Space0
70
0
10
0
20
0
30
0
3
*Paper_Space0
0
ENDBLK
5
25
100
AcDbEntity
8
0
100
AcDbBlockEnd
0
BLOCK
5
FB
100
AcDbEntity
8
0
100
AcDbBlockBegin
2
DimnDraft3D1
70
0
10
0
20
0
30
0
3
DimnDraft3D1
0
MTEXT
5
F5
100
AcDbEntity
8
SK2
62
256
6
ByLayer
370
13
48
1
60
0
100
AcDbMText
10
21.548875
20
-12.838398
30
0
210
0
220
0
230
1
1
\W0.7211;53,81
40
3.5
41
0
44
1.084337
50
0
71
7
72
5
7
iso_b_vert
0
LINE
5
F6
100
AcDbEntity
8
SK2
62
256
6
ByLayer
370
13
48
1
60
0
100
AcDbLine
10
0
20
-1.5875
30
0
11
0
21
-15.713398
31
0
39
0
210
0
220
0
230
1
0
LINE
5
F7
100
AcDbEntity
8
SK2
62
256
6
ByLayer
370
13
48
1
60
0
100
AcDbLine
10
53.81
20
-5.0875
30
0
11
53.81
21
-15.713398
31
0
39
0
210
0
220
0
230
1
0
LINE
5
F8
100
AcDbEntity
8
SK2
62
256
6
ByLayer
370
13
48
1
60
0
100
AcDbLine
10
0
20
-13.713398
30
0
11
53.81
21
-13.713398
31
0
39
0
210
0
220
0
230
1
0
SOLID
5
F9
100
AcDbEntity
8
SK2
62
256
6
ByLayer
370
13
48
1
60
0
100
AcDbTrace
10
0
20
-13.713398
30
0
11
3.499998
21
-13.252615
31
0
12
3.500002
22
-14.174182
32
0
13
0
23
-13.713398
33
0
39
0
210
0
220
0
230
1
0
SOLID
5
FA
100
AcDbEntity
8
SK2
62
256
6
ByLayer
370
13
48
1
60
0
100
AcDbTrace
10
53.81
20
-13.713398
30
0
11
50.310002
21
-14.174182
31
0
12
50.309998
22
-13.252615
32
0
13
53.81
23
-13.713398
33
0
39
0
210
0
220
0
230
1
0
ENDBLK
5
FC
100
AcDbEntity
8
0
100
AcDbBlockEnd
0
BLOCK
5
105
100
AcDbEntity
8
0
100
AcDbBlockBegin
2
DimnDraft3D2
70
0
10
0
20
0
30
0
3
DimnDraft3D2
0
MTEXT
5
FF
100
AcDbEntity
8
SK2
62
256
6
ByLayer
370
13
48
1
60
0
100
AcDbMText
10
5.640116
20
-31.817985
30
0
210
0
220
0
230
1
1
\W0.6713;91,00
40
3.5
41
0
44
1.084337
50
0
71
7
72
5
7
iso_b_vert
0
LINE
5
100
100
AcDbEntity
8
SK2
62
256
6
ByLayer
370
13
48
1
60
0
100
AcDbLine
10
-36
20
-5.5875
30
0
11
-36
21
-34.692985
31
0
39
0
210
0
220
0
230
1
0
LINE
5
101
100
AcDbEntity
8
SK2
62
256
6
ByLayer
370
13
48
1
60
0
100
AcDbLine
10
55
20
-1.5875
30
0
11
55
21
-34.692985
31
0
39
0
210
0
220
0
230
1
0
LINE
5
102
100
AcDbEntity
8
SK2
62
256
6
ByLayer
370
13
48
1
60
0
100
AcDbLine
10
-36
20
-32.692985
30
0
11
55
21
-32.692985
31
0
39
0
210
0
220
0
230
1
0
SOLID
5
103
100
AcDbEntity
8
SK2
62
256
6
ByLayer
370
13
48
1
60
0
100
AcDbTrace
10
-36
20
-32.692985
30
0
11
-32.500002
21
-32.232202
31
0
12
-32.499998
22
-33.153769
32
0
13
-36
23
-32.692985
33
0
39
0
210
0
220
0
230
1
0
SOLID
5
104
100
AcDbEntity
8
SK2
62
256
6
ByLayer
370
13
48
1
60
0
100
AcDbTrace
10
55
20
-32.692985
30
0
11
51.500002
21
-33.153769
31
0
12
51.499998
22
-32.232202
32
0
13
55
23
-32.692985
33
0
39
0
210
0
220
0
230
1
0
ENDBLK
5
106
100
AcDbEntity
8
0
100
AcDbBlockEnd
0
BLOCK
5
10F
100
AcDbEntity
8
0
100
AcDbBlockBegin
2
DimnDraft3D3
70
0
10
0
20
0
30
0
3
DimnDraft3D3
0
MTEXT
5
109
100
AcDbEntity
8
SK2
62
256
6
ByLayer
370
13
48
1
60
0
100
AcDbMText
10
32.893816
20
15.984119
30
0
210
0
220
0
230
1
1
\W0.6791;36,19
40
3.5
41
0
44
1.084337
50
0
71
7
72
5
7
iso_b_vert
0
LINE
5
10A
100
AcDbEntity
8
SK2
62
256
6
ByLayer
370
13
48
1
60
0
100
AcDbLine
10
18.81
20
5.0875
30
0
11
18.81
21
17.109119
31
0
39
0
210
0
220
0
230
1
0
LINE
5
10B
100
AcDbEntity
8
SK2
62
256
6
ByLayer
370
13
48
1
60
0
100
AcDbLine
10
55
20
1.5875
30
0
11
55
21
17.109119
31
0
39
0
210
0
220
0
230
1
0
LINE
5
10C
100
AcDbEntity
8
SK2
62
256
6
ByLayer
370
13
48
1
60
0
100
AcDbLine
10
18.81
20
15.109119
30
0
11
55
21
15.109119
31
0
39
0
210
0
220
0
230
1
0
SOLID
5
10D
100
AcDbEntity
8
SK2
62
256
6
ByLayer
370
13
48
1
60
0
100
AcDbTrace
10
18.81
20
15.109119
30
0
11
22.309998
21
15.569903
31
0
12
22.310002
22
14.648335
32
0
13
18.81
23
15.109119
33
0
39
0
210
0
220
0
230
1
0
SOLID
5
10E
100
AcDbEntity
8
SK2
62
256
6
ByLayer
370
13
48
1
60
0
100
AcDbTrace
10
55
20
15.109119
30
0
11
51.500002
21
14.648335
31
0
12
51.499998
22
15.569903
32
0
13
55
23
15.109119
33
0
39
0
210
0
220
0
230
1
0
ENDBLK
5
110
100
AcDbEntity
8
0
100
AcDbBlockEnd
0
BLOCK
5
119
100
AcDbEntity
8
0
100
AcDbBlockBegin
2
DimnDraft3D4
70
0
10
0
20
0
30
0
3
DimnDraft3D4
0
MTEXT
5
113
100
AcDbEntity
8
SK2
62
256
6
ByLayer
370
13
48
1
60
0
100
AcDbMText
10
62.715636
20
-15.427503
30
0
210
0
220
0
230
1
1
\W0.5668;1,19
40
3.5
41
0
44
1.084337
50
0
71
7
72
5
7
iso_b_vert
0
LINE
5
114
100
AcDbEntity
8
SK2
62
256
6
ByLayer
370
13
48
1
60
0
100
AcDbLine
10
55
20
-1.5875
30
0
11
55
21
-18.302503
31
0
39
0
210
0
220
0
230
1
0
LINE
5
115
100
AcDbEntity
8
SK2
62
256
6
ByLayer
370
13
48
1
60
0
100
AcDbLine
10
53.81
20
-5.0875
30
0
11
53.81
21
-18.302503
31
0
39
0
210
0
220
0
230
1
0
LINE
5
116
100
AcDbEntity
8
SK2
62
256
6
ByLayer
370
13
48
1
60
0
100
AcDbLine
10
45.06
20
-16.302503
30
0
11
68.122215
21
-16.302503
31
0
39
0
210
0
220
0
230
1
0
SOLID
5
117
100
AcDbEntity
8
SK2
62
256
6
ByLayer
370
13
48
1
60
0
100
AcDbTrace
10
55
20
-16.302503
30
0
11
58.499998
21
-15.841719
31
0
12
58.500002
22
-16.763287
32
0
13
55
23
-16.302503
33
0
39
0
210
0
220
0
230
1
0
SOLID
5
118
100
AcDbEntity
8
SK2
62
256
6
ByLayer
370
13
48
1
60
0
100
AcDbTrace
10
53.81
20
-16.302503
30
0
11
50.310002
21
-16.763287
31
0
12
50.309998
22
-15.841719
32
0
13
53.81
23
-16.302503
33
0
39
0
210
0
220
0
230
1
0
ENDBLK
5
11A
100
AcDbEntity
8
0
100
AcDbBlockEnd
0
BLOCK
5
123
100
AcDbEntity
8
0
100
AcDbBlockBegin
2
DimnDraft3D5
70
0
10
0
20
0
30
0
3
DimnDraft3D5
0
MTEXT
5
11D
100
AcDbEntity
8
SK2
62
256
6
ByLayer
370
13
48
1
60
0
100
AcDbMText
10
2.559492
20
-21.468428
30
0
210
0
220
0
230
1
1
\W0.7211;89,81
40
3.5
41
0
44
1.084337
50
0
71
7
72
5
7
iso_b_vert
0
LINE
5
11E
100
AcDbEntity
8
SK2
62
256
6
ByLayer
370
13
48
1
60
0
100
AcDbLine
10
-36
20
-5.5875
30
0
11
-36
21
-24.343428
31
0
39
0
210
0
220
0
230
1
0
LINE
5
11F
100
AcDbEntity
8
SK2
62
256
6
ByLayer
370
13
48
1
60
0
100
AcDbLine
10
53.81
20
-5.0875
30
0
11
53.81
21
-24.343428
31
0
39
0
210
0
220
0
230
1
0
LINE
5
120
100
AcDbEntity
8
SK2
62
256
6
ByLayer
370
13
48
1
60
0
100
AcDbLine
10
-36
20
-22.343428
30
0
11
53.81
21
-22.343428
31
0
39
0
210
0
220
0
230
1
0
SOLID
5
121
100
AcDbEntity
8
SK2
62
256
6
ByLayer
370
13
48
1
60
0
100
AcDbTrace
10
-36
20
-22.343428
30
0
11
-32.500002
21
-21.882645
31
0
12
-32.499998
22
-22.804212
32
0
13
-36
23
-22.343428
33
0
39
0
210
0
220
0
230
1
0
SOLID
5
122
100
AcDbEntity
8
SK2
62
256
6
ByLayer
370
13
48
1
60
0
100
AcDbTrace
10
53.81
20
-22.343428
30
0
11
50.310002
21
-22.804212
31
0
12
50.309998
22
-21.882645
32
0
13
53.81
23
-22.343428
33
0
39
0
210
0
220
0
230
1
0
ENDBLK
5
124
100
AcDbEntity
8
0
100
AcDbBlockEnd
0
BLOCK
5
12E
100
AcDbEntity
8
0
100
AcDbBlockBegin
2
DimnDraft3D6
70
0
10
0
20
0
30
0
3
DimnDraft3D6
0
MTEXT
5
127
100
AcDbEntity
8
SK2
62
256
6
ByLayer
370
13
48
1
60
0
100
AcDbMText
10
-46.375163
20
23.34918
30
0
210
0
220
0
230
1
1
\W0.7317;8,000
40
3.5
41
0
44
1.084337
50
90
71
7
72
5
7
iso_b_vert
0
MTEXT
5
128
100
AcDbEntity
8
SK2
62
256
6
ByLayer
370
13
48
1
60
0
100
AcDbMText
10
-46.375163
20
18.126524
30
0
210
0
220
0
230
1
1
%%c
40
3.5
41
0
44
1.084337
50
90
71
7
72
5
7
iso_b_vert
0
LINE
5
129
100
AcDbEntity
8
SK2
62
256
6
ByLayer
370
13
48
1
60
0
100
AcDbLine
10
-37.5875
20
-4
30
0
11
-46.625163
21
-4
31
0
39
0
210
0
220
0
230
1
0
LINE
5
12A
100
AcDbEntity
8
SK2
62
256
6
ByLayer
370
13
48
1
60
0
100
AcDbLine
10
-37.5875
20
4
30
0
11
-46.625163
21
4
31
0
39
0
210
0
220
0
230
1
0
LINE
5
12B
100
AcDbEntity
8
SK2
62
256
6
ByLayer
370
13
48
1
60
0
100
AcDbLine
10
-44.625163
20
-4
30
0
11
-44.625163
21
33.121549
31
0
39
0
210
0
220
0
230
1
0
SOLID
5
12C
100
AcDbEntity
8
SK2
62
256
6
ByLayer
370
13
48
1
60
0
100
AcDbTrace
10
-44.625163
20
-4
30
0
11
-45.085946
21
-0.500002
31
0
12
-44.164379
22
-0.499998
32
0
13
-44.625163
23
-4
33
0
39
0
210
0
220
0
230
1
0
SOLID
5
12D
100
AcDbEntity
8
SK2
62
256
6
ByLayer
370
13
48
1
60
0
100
AcDbTrace
10
-44.625163
20
4
30
0
11
-44.164379
21
0.500002
31
0
12
-45.085946
22
0.499998
32
0
13
-44.625163
23
4
33
0
39
0
210
0
220
0
230
1
0
ENDBLK
5
12F
100
AcDbEntity
8
0
100
AcDbBlockEnd
0
BLOCK
5
139
100
AcDbEntity
8
0
100
AcDbBlockBegin
2
DimnDraft3D7
70
0
10
0
20
0
30
0
3
DimnDraft3D7
0
MTEXT
5
132
100
AcDbEntity
8
2
62
256
6
ByLayer
370
13
48
1
60
0
100
AcDbMText
10
65.333343
20
21.442266
30
0
210
0
220
0
230
1
1
\W0.7317;7,000
40
3.5
41
0
44
1.084337
50
90
71
7
72
5
7
iso_b_vert
0
MTEXT
5
133
100
AcDbEntity
8
2
62
256
6
ByLayer
370
13
48
1
60
0
100
AcDbMText
10
65.333343
20
16.21961
30
0
210
0
220
0
230
1
1
%%c
40
3.5
41
0
44
1.084337
50
90
71
7
72
5
7
iso_b_vert
0
LINE
5
134
100
AcDbEntity
8
2
62
256
6
ByLayer
370
13
48
1
60
0
100
AcDbLine
10
55.3975
20
-3.5
30
0
11
69.083343
21
-3.5
31
0
39
0
210
0
220
0
230
1
0
LINE
5
135
100
AcDbEntity
8
2
62
256
6
ByLayer
370
13
48
1
60
0
100
AcDbLine
10
55.3975
20
3.5
30
0
11
69.083343
21
3.5
31
0
39
0
210
0
220
0
230
1
0
LINE
5
136
100
AcDbEntity
8
2
62
256
6
ByLayer
370
13
48
1
60
0
100
AcDbLine
10
67.083343
20
31.214635
30
0
11
67.083343
21
-12.25
31
0
39
0
210
0
220
0
230
1
0
SOLID
5
137
100
AcDbEntity
8
2
62
256
6
ByLayer
370
13
48
1
60
0
100
AcDbTrace
10
67.083343
20
-3.5
30
0
11
67.544126
21
-6.999998
31
0
12
66.622559
22
-7.000002
32
0
13
67.083343
23
-3.5
33
0
39
0
210
0
220
0
230
1
0
SOLID
5
138
100
AcDbEntity
8
2
62
256
6
ByLayer
370
13
48
1
60
0
100
AcDbTrace
10
67.083343
20
3.5
30
0
11
66.622559
21
6.999998
31
0
12
67.544126
22
7.000002
32
0
13
67.083343
23
3.5
33
0
39
0
210
0
220
0
230
1
0
ENDBLK
5
13A
100
AcDbEntity
8
0
100
AcDbBlockEnd
0
ENDSEC
0
SECTION
2
ENTITIES
0
ARC
5
9D
100
AcDbEntity
8
1
62
256
6
ByLayer
370
18
48
1
60
0
100
AcDbCircle
39
0
10
0
20
3.2
30
0
40
0.8
210
0
220
0
230
1
100
AcDbArc
50
41.893307
51
90
0
ARC
5
9E
100
AcDbEntity
8
1
62
256
6
ByLayer
370
18
48
1
60
0
100
AcDbCircle
39
0
10
-1.191023
20
-4.268393
30
0
40
0.8
210
0
220
0
230
-1
100
AcDbArc
50
41.893307
51
90.034377
0
ARC
5
9F
100
AcDbEntity
8
1
62
256
6
ByLayer
370
18
48
1
60
0
100
AcDbCircle
39
0
10
0
20
-3.2
30
0
40
0.8
210
0
220
0
230
1
100
AcDbArc
50
270
51
318.106693
0
ARC
5
A0
100
AcDbEntity
8
1
62
256
6
ByLayer
370
18
48
1
60
0
100
AcDbCircle
39
0
10
-1.191023
20
4.268393
30
0
40
0.8
210
0
220
0
230
-1
100
AcDbArc
50
269.965623
51
318.106693
0
ELLIPSE
5
A1
100
AcDbEntity
8
1
62
256
6
ByLayer
370
18
48
1
60
0
100
AcDbEllipse
10
4.25
20
-3.556639
30
0
11
0.25
21
0
31
0
210
0
220
0
230
1
40
1
41
1.56847747213195
42
2.74780668864351
0
ELLIPSE
5
A2
100
AcDbEntity
8
1
62
256
6
ByLayer
370
18
48
1
60
0
100
AcDbEllipse
10
4.25
20
3.556639
30
0
11
0.25
21
0
31
0
210
0
220
0
230
1
40
1
41
-2.74148428333996
42
-1.56159025677012
0
ELLIPSE
5
A3
100
AcDbEntity
8
1
62
256
6
ByLayer
370
13
48
1
60
0
100
AcDbEllipse
10
54.664276
20
1.766425
30
0
11
2.10273619118704
21
-1.05322643426538
31
0
210
0
220
0
230
-1
40
0.48769
41
1.55745033842471
42
1.83178184871526
0
ELLIPSE
5
A4
100
AcDbEntity
8
1
62
256
6
ByLayer
370
18
48
1
60
0
100
AcDbEllipse
10
54.307006
20
1.766425
30
0
11
0.542719795495919
21
-1.46867043814273
31
0
210
0
220
0
230
-1
40
0.115174
41
-1.50275474638399
42
-0.742863466704267
0
ELLIPSE
5
A5
100
AcDbEntity
8
1
62
256
6
ByLayer
370
18
48
1
60
0
100
AcDbEllipse
10
54.307006
20
-1.766425
30
0
11
0.542719795493959
21
1.46867043813855
31
0
210
0
220
0
230
-1
40
0.115174
41
0.742863466704817
42
1.50275474638632
0
ELLIPSE
5
A6
100
AcDbEntity
8
1
62
256
6
ByLayer
370
13
48
1
60
0
100
AcDbEllipse
10
54.178737
20
0.514846
30
0
11
0.153082081612419
21
0.258003636193773
31
0
210
0
220
0
230
1
40
0.454519
41
0.917105603404884
42
2.31336900500022
0
ELLIPSE
5
A7
100
AcDbEntity
8
1
62
256
6
ByLayer
370
18
48
1
60
0
100
AcDbEllipse
10
55.000314
20
0.000765
30
0
11
1.29244047467226
21
3.49751220738983
31
0
210
0
220
0
230
-1
40
0.115174
41
2.86091865329976
42
2.96910693922635
0
ELLIPSE
5
A8
100
AcDbEntity
8
1
62
256
6
ByLayer
370
13
48
1
60
0
100
AcDbEllipse
10
4.250238
20
0.247685
30
0
11
0.0482004114347528
21
0.0876168952743736
31
0
210
0
220
0
230
1
40
0.036324
41
3.10081615863582
42
-1.6334526937955
0
ELLIPSE
5
A9
100
AcDbEntity
8
1
62
256
6
ByLayer
370
13
48
1
60
0
100
AcDbEllipse
10
54.47437
20
1.643227
30
0
11
2.03170258878923
21
-1.3988850066384
31
0
210
0
220
0
230
-1
40
0.533762
41
1.44484622737446
42
1.69515198659546
0
ELLIPSE
5
AA
100
AcDbEntity
8
1
62
256
6
ByLayer
370
18
48
1
60
0
100
AcDbEllipse
10
54.860481
20
0.110345
30
0
11
0.0727819104957319
21
0.301917195700245
31
0
210
0
220
0
230
-1
40
0.478434
41
1.7069539389289
42
2.45976119971595
0
ELLIPSE
5
AB
100
AcDbEntity
8
1
62
256
6
ByLayer
370
13
48
1
60
0
100
AcDbEllipse
10
4.177237
20
0.288941
30
0
11
0.0505227352838455
21
0.0862986281434327
31
0
210
0
220
0
230
1
40
0.401077
41
1.88437480420566
42
-3.08566692052839
0
ELLIPSE
5
AC
100
AcDbEntity
8
1
62
256
6
ByLayer
370
18
48
1
60
0
100
AcDbEllipse
10
55.000314
20
-0.000764
30
0
11
1.29244045902644
21
-3.49751216137172
31
0
210
0
220
0
230
-1
40
0.115174
41
-2.96910693808367
42
-2.8609186514364
0
ELLIPSE
5
AD
100
AcDbEntity
8
1
62
256
6
ByLayer
370
18
48
1
60
0
100
AcDbEllipse
10
55.046155
20
0.000178
30
0
11
0.137979128822643
21
-0.428995648028792
31
0
210
0
220
0
230
-1
40
0.08774
41
1.67991958020069
42
2.32337572122944
0
ELLIPSE
5
AE
100
AcDbEntity
8
1
62
256
6
ByLayer
370
18
48
1
60
0
100
AcDbEllipse
10
55.046155
20
-0.000178
30
0
11
0.137979128828502
21
0.428995648043637
31
0
210
0
220
0
230
-1
40
0.08774
41
-2.32337572123417
42
-1.67991958022506
0
POINT
5
6C
100
AcDbEntity
8
81
62
256
6
ByLayer
370
18
48
1
60
0
100
AcDbPoint
10
55
20
0
30
0
39
0
210
0
220
0
230
1
50
360
0
POINT
5
6E
100
AcDbEntity
8
80
62
256
6
ByLayer
370
18
48
1
60
0
100
AcDbPoint
10
0
20
0
30
0
39
0
210
0
220
0
230
1
50
360
0
POINT
5
70
100
AcDbEntity
8
SK2
62
256
6
ByLayer
370
18
48
1
60
1
100
AcDbPoint
10
-36
20
-4
30
0
39
0
210
0
220
0
230
1
50
360
0
POINT
5
72
100
AcDbEntity
8
SK2
62
256
6
ByLayer
370
18
48
1
60
1
100
AcDbPoint
10
-36
20
4
30
0
39
0
210
0
220
0
230
1
50
360
0
POINT
5
73
100
AcDbEntity
8
2
62
256
6
ByLayer
370
18
48
1
60
1
100
AcDbPoint
10
53.81
20
-3.5
30
0
39
0
210
0
220
0
230
1
50
360
0
POINT
5
75
100
AcDbEntity
8
2
62
256
6
ByLayer
370
18
48
1
60
1
100
AcDbPoint
10
53.81
20
3.5
30
0
39
0
210
0
220
0
230
1
50
360
0
SPLINE
5
AF
100
AcDbEntity
8
1
62
256
6
ByLayer
370
18
48
1
60
0
100
AcDbSpline
70
4
71
2
72
6
73
3
40
0
40
0
40
0
40
1
40
1
40
1
41
1
10
4.72710454894406
20
3.30873384449308
30
0
41
1
10
4.48911495601686
20
3.30815634061796
30
0
41
1
10
4.25142114409044
20
3.30605577574065
30
0
0
SPLINE
5
B0
100
AcDbEntity
8
1
62
256
6
ByLayer
370
18
48
1
60
0
100
AcDbSpline
70
4
71
3
72
24
73
20
40
0
40
0
40
0
40
0
40
0.0879512004024846
40
0.165206502911991
40
0.232736970719211
40
0.290539889137562
40
0.338559782302788
40
0.384612774937197
40
0.437554362149169
40
0.507003111209281
40
0.60898153987884
40
0.693207115778612
40
0.760199730324331
40
0.788340408971071
40
0.812987391234665
40
0.84105477083773
40
0.88885160425221
40
0.957147116924299
40
1
40
1
40
1
40
1
41
1
10
14.3466775934447
20
-3.31125725124988
30
0
41
1
10
14.6228192715909
20
-3.31101861761394
30
0
41
1
10
15.1424294914042
20
-3.31103702976236
30
0
41
1
10
15.8823545403203
20
-3.30966339783029
30
0
41
1
10
16.519274575423
20
-3.31370745335107
30
0
41
1
10
17.0649818270811
20
-3.3131071229067
30
0
41
1
10
17.5470908765278
20
-3.31408230802657
30
0
41
1
10
18.0124814472845
20
-3.31504145623006
30
0
41
1
10
18.546437045936
20
-3.31375705451819
30
0
41
1
10
19.2573901728055
20
-3.31665630138036
30
0
41
1
10
20.0675947390719
20
-3.31402561552926
30
0
41
1
10
20.8699089230838
20
-3.31835173515086
30
0
41
1
10
21.4384105243218
20
-3.31622615411405
30
0
41
1
10
21.817588898993
20
-3.31616692742406
30
0
41
1
10
22.0721320418406
20
-3.31649574956177
30
0
41
1
10
22.3893401774889
20
-3.31770743442195
30
0
41
1
10
22.846845777923
20
-3.31723766255956
30
0
41
1
10
23.3501676444608
20
-3.31682776191474
30
0
41
1
10
23.701643384166
20
-3.31769438920648
30
0
41
1
10
23.8370665220338
20
-3.3181387906879
30
0
0
SPLINE
5
B1
100
AcDbEntity
8
1
62
256
6
ByLayer
370
18
48
1
60
0
100
AcDbSpline
70
4
71
3
72
12
73
8
40
0
40
0
40
0
40
0
40
0.123583909335049
40
0.278130792113928
40
0.43106846920364
40
0.668971645218545
40
1
40
1
40
1
40
1
41
1
10
24.9926054836988
20
-0.967120300895431
30
0
41
1
10
24.9927499739028
20
-0.967109421231811
30
0
41
1
10
24.9956217328829
20
-0.968005673770392
30
0
41
1
10
25.0102428611569
20
-0.974124828616851
30
0
41
1
10
25.058642836929
20
-0.996742332183771
30
0
41
1
10
25.221464589723
20
-1.07504072187822
30
0
41
1
10
25.3636287280386
20
-1.1484014205044
30
0
41
1
10
25.4609594553727
20
-1.19940555434255
30
0
0
SPLINE
5
B2
100
AcDbEntity
8
1
62
256
6
ByLayer
370
18
48
1
60
0
100
AcDbSpline
70
4
71
3
72
26
73
22
40
0
40
0
40
0
40
0
40
0.0686287145392983
40
0.123172769903231
40
0.158654910661129
40
0.191395948075236
40
0.229895404922829
40
0.273684048832776
40
0.317022441092335
40
0.425270403697402
40
0.518780409842824
40
0.566381380989423
40
0.612472914950378
40
0.668063053728483
40
0.732059835388517
40
0.768699878175681
40
0.798061921674012
40
0.83010627694479
40
0.88146869896597
40
0.952283130885386
40
1
40
1
40
1
40
1
41
1
10
33.8003979804933
20
-3.32315790606467
30
0
41
1
10
34.017049876128
20
-3.32336871847445
30
0
41
1
10
34.4059145988869
20
-3.32366864087044
30
0
41
1
10
34.9069372444013
20
-3.3239507258487
30
0
41
1
10
35.2945557705622
20
-3.32396798503899
30
0
41
1
10
35.6315664138622
20
-3.32425237869092
30
0
41
1
10
35.9947774226425
20
-3.32479645451932
30
0
41
1
10
36.391422600264
20
-3.3248295817935
30
0
41
1
10
37.0083502964523
20
-3.32460916669589
30
0
41
1
10
37.7823056180013
20
-3.32620952040389
30
0
41
1
10
38.5696469395103
20
-3.32532345767098
30
0
41
1
10
39.1607642759291
20
-3.32692207055175
30
0
41
1
10
39.6321548190526
20
-3.3261639436125
30
0
41
1
10
40.1553155198799
20
-3.32668184937367
30
0
41
1
10
40.6486329733154
20
-3.32860830481087
30
0
41
1
10
41.0591247421188
20
-3.32777188565655
30
0
41
1
10
41.3686329650976
20
-3.32735442442959
30
0
41
1
10
41.7246098242157
20
-3.32719271938115
30
0
41
1
10
42.2116147219287
20
-3.32852169520854
30
0
41
1
10
42.7481252439942
20
-3.32670290696944
30
0
41
1
10
43.1223083837243
20
-3.3281891622718
30
0
41
1
10
43.2729299174182
20
-3.32893232010062
30
0
0
SPLINE
5
B3
100
AcDbEntity
8
1
62
256
6
ByLayer
370
18
48
1
60
0
100
AcDbSpline
70
4
71
2
72
6
73
3
40
0
40
0
40
0
40
1
40
1
40
1
41
1
10
53.2178959152721
20
-3.33472495105022
30
0
41
1
10
53.5026881642897
20
-3.33302849537171
30
0
41
1
10
53.7872966911356
20
-3.33590702827993
30
0
0
SPLINE
5
B4
100
AcDbEntity
8
1
62
256
6
ByLayer
370
18
48
1
60
0
100
AcDbSpline
70
4
71
3
72
24
73
20
40
0
40
0
40
0
40
0
40
0.045058851162111
40
0.112878561821325
40
0.159454496816167
40
0.211312903685121
40
0.274310785745203
40
0.339896601141929
40
0.398595068542063
40
0.439155267586356
40
0.486000354190458
40
0.545142137843752
40
0.65359950442525
40
0.752355973317239
40
0.835310065579074
40
0.87483937959893
40
0.914670985925804
40
0.956451309734381
40
1
40
1
40
1
40
1
41
1
10
43.3035247032349
20
3.32888069155024
30
0
41
1
10
43.1854928318935
20
3.328251942707
30
0
41
1
10
42.8898045695317
20
3.32706683745656
30
0
41
1
10
42.4718876049175
20
3.32768480962295
30
0
41
1
10
42.0365164161307
20
3.32818360195344
30
0
41
1
10
41.6136342147483
20
3.3270608924513
30
0
41
1
10
41.140770206116
20
3.32759728601062
30
0
41
1
10
40.6500422512395
20
3.32870915082611
30
0
41
1
10
40.2180830616115
20
3.32711218842874
30
0
41
1
10
39.8352436725742
20
3.32614787471891
30
0
41
1
10
39.4512321227672
20
3.32653454506621
30
0
41
1
10
38.889332202563
20
3.32671611939179
30
0
41
1
10
38.1914050244666
20
3.32497213262502
30
0
41
1
10
37.4310378989609
20
3.32610409978986
30
0
41
1
10
36.8513377520666
20
3.32465866514619
30
0
41
1
10
36.4260121023694
20
3.32486197221476
30
0
41
1
10
36.1085767110006
20
3.32482797913494
30
0
41
1
10
35.7806089415613
20
3.32450356989273
30
0
41
1
10
35.5570473301241
20
3.32422442266147
30
0
41
1
10
35.4429458422654
20
3.32411075618015
30
0
0
SPLINE
5
B5
100
AcDbEntity
8
1
62
256
6
ByLayer
370
18
48
1
60
0
100
AcDbSpline
70
4
71
3
72
24
73
20
40
0
40
0
40
0
40
0
40
0.0343949841219828
40
0.0962058351309175
40
0.140239620766878
40
0.183573018714637
40
0.235330324858156
40
0.295482003920232
40
0.393552234035732
40
0.476965525730098
40
0.547856787301955
40
0.607418059892646
40
0.668315214947955
40
0.742386693299046
40
0.826895735923306
40
0.87291741177085
40
0.909064818398071
40
0.95523767779327
40
1
40
1
40
1
40
1
41
1
10
23.9155485846995
20
3.31857593425681
30
0
41
1
10
23.8256826418138
20
3.31843098059161
30
0
41
1
10
23.5742854826112
20
3.31811466382371
30
0
41
1
10
23.2075221727612
20
3.31696462093169
30
0
41
1
10
22.8175141922584
20
3.31808351457127
30
0
41
1
10
22.4541448928798
20
3.31897571344982
30
0
41
1
10
22.0482097415881
20
3.31660203803085
30
0
41
1
10
21.4990855378507
20
3.31581575061975
30
0
41
1
10
20.8671816132002
20
3.31838797654962
30
0
41
1
10
20.2071887895198
20
3.31463905070132
30
0
41
1
10
19.6478997703921
20
3.31597899595786
30
0
41
1
10
19.1474909049763
20
3.31587067759787
30
0
41
1
10
18.6387781197643
20
3.31380440114069
30
0
41
1
10
18.0648227157004
20
3.31507622581626
30
0
41
1
10
17.5297613713437
20
3.31392318316472
30
0
41
1
10
17.0938639904259
20
3.31333594582207
30
0
41
1
10
16.7585915864972
20
3.31332417566585
30
0
41
1
10
16.4261315272573
20
3.31338628243321
30
0
41
1
10
16.1883772457465
20
3.31304587409611
30
0
41
1
10
16.071347425719
20
3.31287800963449
30
0
0
SPLINE
5
B6
100
AcDbEntity
8
1
62
256
6
ByLayer
370
18
48
1
60
0
100
AcDbSpline
70
4
71
2
72
6
73
3
40
0
40
0
40
0
40
1
40
1
40
1
41
1
10
4.25142114414655
20
-3.3060557757407
30
0
41
1
10
4.49547043585346
20
-3.30820481666271
30
0
41
1
10
4.73982341532684
20
-3.30879008238409
30
0
0
SPLINE
5
B7
100
AcDbEntity
8
1
62
256
6
ByLayer
370
18
48
1
60
0
100
AcDbSpline
70
4
71
3
72
12
73
8
40
0
40
0
40
0
40
0
40
0.240813592557693
40
0.341178622542306
40
0.502423316514591
40
0.728252719348532
40
1
40
1
40
1
40
1
41
1
10
44.3838952990949
20
-0.963771463226635
30
0
41
1
10
44.3833666251181
20
-0.963613318279357
30
0
41
1
10
44.3909357949664
20
-0.96670065119045
30
0
41
1
10
44.4287713523844
20
-0.983949191824479
30
0
41
1
10
44.5141421318742
20
-1.02253347065297
30
0
41
1
10
44.6534606988994
20
-1.0897332910659
30
0
41
1
10
44.7729703588109
20
-1.15273732437413
30
0
41
1
10
44.8433344446857
20
-1.19102033132296
30
0
0
SPLINE
5
B8
100
AcDbEntity
8
1
62
256
6
ByLayer
370
18
48
1
60
0
100
AcDbSpline
70
4
71
3
72
10
73
6
40
0
40
0
40
0
40
0
40
0.5
40
0.5
40
1
40
1
40
1
40
1
41
1
10
4.1274401699996
20
0.205118471111149
30
0
41
1
10
4.11033471140621
20
0.214722332786522
30
0
41
1
10
4.09468493620139
20
0.226117239494499
30
0
41
1
10
4.06619233617369
20
0.252353491838449
30
0
41
1
10
4.05330476831517
20
0.267355636102167
30
0
41
1
10
4.04250683605289
20
0.283372447048379
30
0
0
SPLINE
5
B9
100
AcDbEntity
8
1
62
256
6
ByLayer
370
18
48
1
60
0
100
AcDbSpline
70
4
71
3
72
12
73
8
40
0
40
0
40
0
40
0
40
0.250000000000004
40
0.250000000000004
40
0.500000000000009
40
0.500000000000009
40
1
40
1
40
1
40
1
41
1
10
53.8214098328737
20
-3.4030323587549
30
0
41
1
10
53.8263431378109
20
-3.38983558961854
30
0
41
1
10
53.8309540381165
20
-3.3763489625598
30
0
41
1
10
53.8381859044538
20
-3.35221939776648
30
0
41
1
10
53.840781127618
20
-3.34160277201895
30
0
41
1
10
53.844617246588
20
-3.31849059161641
30
0
41
1
10
53.8423018369184
20
-3.31429496666181
30
0
41
1
10
53.8376493884321
20
-3.3171609118636
30
0
0
SPLINE
5
BA
100
AcDbEntity
8
1
62
256
6
ByLayer
370
18
48
1
60
0
100
AcDbSpline
70
4
71
3
72
10
73
6
40
0
40
0
40
0
40
0
40
0.103997916789379
40
0.103997916789379
40
1
40
1
40
1
40
1
41
1
10
4.01546090306511
20
-3.4700855144834
30
0
41
1
10
4.01546149813814
20
-3.4700828699898
30
0
41
1
10
4.01546208472675
20
-3.47000439136087
30
0
41
1
10
4.01546764017729
20
-3.46852079191723
30
0
41
1
10
4.0154719959834
20
-3.46162872744404
30
0
41
1
10
4.01547559604251
20
-3.44924953479443
30
0
0
SPLINE
5
BB
100
AcDbEntity
8
1
62
256
6
ByLayer
370
13
48
1
60
0
100
AcDbSpline
70
4
71
3
72
8
73
4
40
0
40
0
40
0
40
0
40
1
40
1
40
1
40
1
41
1
10
4.12872773895481
20
0.281595894672449
30
0
41
1
10
4.16636560719084
20
0.267984480374992
30
0
41
1
10
4.20789243024277
20
0.254066845069047
30
0
41
1
10
4.25039600877824
20
0.240451604318423
30
0
0
SPLINE
5
BC
100
AcDbEntity
8
1
62
256
6
ByLayer
370
18
48
1
60
0
100
AcDbSpline
70
4
71
3
72
28
73
24
40
0
40
0
40
0
40
0
40
0.0306757629793537
40
0.0306757629793537
40
0.104771854225708
40
0.104771854225708
40
0.252964036718415
40
0.252964036718415
40
0.327060127964768
40
0.327060127964768
40
0.364108173587945
40
0.364108173587945
40
0.401156219211121
40
0.401156219211121
40
0.69754058419653
40
0.69754058419653
40
0.771636675442883
40
0.771636675442883
40
0.845732766689238
40
0.845732766689238
40
0.993924949181951
40
0.993924949181951
40
1
40
1
40
1
40
1
41
1
10
18.622235566068
20
2.57184011058121
30
0
41
1
10
18.7298068153264
20
2.53281368374965
30
0
41
1
10
18.8371778138569
20
2.49267723852276
30
0
41
1
10
19.2033265097148
20
2.35196687330225
30
0
41
1
10
19.4613600668885
20
2.24638653805036
30
0
41
1
10
20.234111966601
20
1.91356474446954
30
0
41
1
10
20.7473931894222
20
1.67005836942795
30
0
41
1
10
21.5200147375016
20
1.28115062556131
30
0
41
1
10
21.7780341962766
20
1.14763080315996
30
0
41
1
10
22.1664983391943
20
0.942609247765063
30
0
41
1
10
22.2962242545637
20
0.873475357628053
30
0
41
1
10
22.5562126564923
20
0.733718217467839
30
0
41
1
10
22.6866887377215
20
0.662985424970543
30
0
41
1
10
23.8577404116217
20
0.0248346569300963
30
0
41
1
10
24.880032469505
20
-0.556404639090545
30
0
41
1
10
26.1712724254924
20
-1.23342384461014
30
0
41
1
10
26.4301875381052
20
-1.36635655049938
30
0
41
1
10
26.9504484324739
20
-1.62530246659426
30
0
41
1
10
27.2113705383999
20
-1.75120684687121
30
0
41
1
10
27.9912943844868
20
-2.11285919805204
30
0
41
1
10
28.5105417820154
20
-2.3334637683254
30
0
41
1
10
29.0532111235065
20
-2.53607929768879
30
0
41
1
10
29.0745840099287
20
-2.54401351721637
30
0
41
1
10
29.0959585239139
20
-2.55190226012667
30
0
0
SPLINE
5
BD
100
AcDbEntity
8
1
62
256
6
ByLayer
370
13
48
1
60
0
100
AcDbSpline
70
4
71
3
72
20
73
16
40
0
40
0
40
0
40
0
40
0.11954801799041
40
0.11954801799041
40
0.249773030643046
40
0.249773030643046
40
0.510223055948321
40
0.510223055948321
40
0.770673081253596
40
0.770673081253596
40
0.835785587579915
40
0.835785587579915
40
0.900898093906233
40
0.900898093906233
40
1
40
1
40
1
40
1
41
1
10
29.0959585240017
20
-2.55190226015907
30
0
41
1
10
29.3352843705328
20
-2.64023082175069
30
0
41
1
10
29.5748142614015
20
-2.72285807061579
30
0
41
1
10
30.073009669534
20
-2.88156493373148
30
0
41
1
10
30.3315740882057
20
-2.95654910094021
30
0
41
1
10
31.1053549759129
20
-3.15723515707393
30
0
41
1
10
31.618625508848
20
-3.25873604346094
30
0
41
1
10
32.6469979675813
20
-3.39289115891512
30
0
41
1
10
33.1624044589336
20
-3.42541602059069
30
0
41
1
10
33.8126253623726
20
-3.42063519152822
30
0
41
1
10
33.9430867314655
20
-3.41739401091689
30
0
41
1
10
34.2030111723095
20
-3.40638956228639
30
0
41
1
10
34.3326770979552
20
-3.39862674922381
30
0
41
1
10
34.65908549649
20
-3.37344264620671
30
0
41
1
10
34.8555029496843
20
-3.35309359529668
30
0
41
1
10
35.0515587702164
20
-3.32774956653722
30
0
0
SPLINE
5
BE
100
AcDbEntity
8
1
62
256
6
ByLayer
370
18
48
1
60
0
100
AcDbSpline
70
4
71
3
72
74
73
70
40
0
40
0
40
0
40
0
40
0.0335341766206042
40
0.0335341766206042
40
0.0909031383468521
40
0.0909031383468521
40
0.119587619209975
40
0.119587619209975
40
0.148272100073099
40
0.148272100073099
40
0.176956580936222
40
0.176956580936222
40
0.205641061799345
40
0.205641061799345
40
0.234325542662468
40
0.234325542662468
40
0.263010023525592
40
0.263010023525592
40
0.291694504388715
40
0.291694504388715
40
0.320378985251838
40
0.320378985251838
40
0.349063466114961
40
0.349063466114961
40
0.377747946978085
40
0.377747946978085
40
0.406432427841208
40
0.406432427841208
40
0.435116908704331
40
0.435116908704331
40
0.463801389567454
40
0.463801389567454
40
0.492485870430578
40
0.492485870430578
40
0.521170351293701
40
0.521170351293701
40
0.549854832156824
40
0.549854832156824
40
0.578539313019947
40
0.578539313019947
40
0.607223793883071
40
0.607223793883071
40
0.635908274746194
40
0.635908274746194
40
0.664592755609317
40
0.664592755609317
40
0.69327723647244
40
0.69327723647244
40
0.721961717335564
40
0.721961717335564
40
0.750646198198687
40
0.750646198198687
40
0.77933067906181
40
0.77933067906181
40
0.808015159924933
40
0.808015159924933
40
0.836699640788057
40
0.836699640788057
40
0.86538412165118
40
0.86538412165118
40
0.894068602514303
40
0.894068602514303
40
0.922753083377426
40
0.922753083377426
40
0.95143756424055
40
0.95143756424055
40
0.980122045103673
40
0.980122045103673
40
1
40
1
40
1
40
1
41
1
10
47.684266264252
20
-2.52255096470634
30
0
41
1
10
47.4194916044645
20
-2.61576212222465
30
0
41
1
10
47.1552661762093
20
-2.70174168080413
30
0
41
1
10
46.4401934393014
20
-2.91467546287248
30
0
41
1
10
45.9879291865974
20
-3.02321201305384
30
0
41
1
10
45.3077258591263
20
-3.15388983780363
30
0
41
1
10
45.0804984446086
20
-3.19160315837175
30
0
41
1
10
44.6239080916003
20
-3.25401100370078
30
0
41
1
10
44.3942922252128
20
-3.2788287545072
30
0
41
1
10
43.9383711012758
20
-3.31440009296594
30
0
41
1
10
43.7116441793917
20
-3.32504363024529
30
0
41
1
10
43.2586914624666
20
-3.33101685299701
30
0
41
1
10
43.0325423841017
20
-3.32687748982229
30
0
41
1
10
42.5806744925721
20
-3.30788989137267
30
0
41
1
10
42.3552622896495
20
-3.29230472501709
30
0
41
1
10
41.9039833652437
20
-3.24677766290992
30
0
41
1
10
41.678025018617
20
-3.21679166642139
30
0
41
1
10
41.2254108922069
20
-3.14566607367317
30
0
41
1
10
40.9988730597452
20
-3.10400004014957
30
0
41
1
10
40.5447229179994
20
-3.00699123126927
30
0
41
1
10
40.316531673246
20
-2.95113517299424
30
0
41
1
10
39.8583535303948
20
-2.82786074637986
30
0
41
1
10
39.63001263533
20
-2.76150444644995
30
0
41
1
10
39.1753734140279
20
-2.6172906117823
30
0
41
1
10
38.948771743989
20
-2.53953148958502
30
0
41
1
10
38.4958761051295
20
-2.37433403665003
30
0
41
1
10
38.2696029992244
20
-2.28764995831762
30
0
41
1
10
37.8176163294368
20
-2.1052340712811
30
0
41
1
10
37.5919997035213
20
-2.00919059871671
30
0
41
1
10
37.1395855405627
20
-1.80912231640303
30
0
41
1
10
36.9129391977552
20
-1.70533872712053
30
0
41
1
10
36.4588447145695
20
-1.49134044015375
30
0
41
1
10
36.23161858841
20
-1.38036672694312
30
0
41
1
10
35.7749264160653
20
-1.15255446199603
30
0
41
1
10
35.5451979215934
20
-1.03556651085287
30
0
41
1
10
35.0885228748878
20
-0.799789346540422
30
0
41
1
10
34.8611299465722
20
-0.680203915407134
30
0
41
1
10
34.4076493052016
20
-0.438781022253721
30
0
41
1
10
34.1812513893734
20
-0.317542792959102
30
0
41
1
10
33.7286526388066
20
-0.0748819359757533
30
0
41
1
10
33.502490155901
20
0.0466195763560222
30
0
41
1
10
33.050659656928
20
0.290327047166755
30
0
41
1
10
32.8245759457456
20
0.411746277669721
30
0
41
1
10
32.3711715836115
20
0.652018686229013
30
0
41
1
10
32.1439845181913
20
0.771142169824486
30
0
41
1
10
31.6887114032646
20
1.00746979469162
30
0
41
1
10
31.4603867024533
20
1.12477314465488
30
0
41
1
10
31.0018321244485
20
1.35321123609168
30
0
41
1
10
30.7733431931341
20
1.46414150912219
30
0
41
1
10
30.3178323031324
20
1.68003951988453
30
0
41
1
10
30.0911510904081
20
1.78497330328324
30
0
41
1
10
29.6380488000741
20
1.98539213642488
30
0
41
1
10
29.4116618682841
20
2.0810113319074
30
0
41
1
10
28.9590331072909
20
2.26500090082243
30
0
41
1
10
28.7330274884644
20
2.3531805016853
30
0
41
1
10
28.2805786343965
20
2.51906295570402
30
0
41
1
10
28.0538249143096
20
2.59590629325143
30
0
41
1
10
27.5992549407324
20
2.74081871968218
30
0
41
1
10
27.3714899402702
20
2.80854985298069
30
0
41
1
10
26.914774512388
20
2.93275141298562
30
0
41
1
10
26.6849355379067
20
2.98813473343316
30
0
41
1
10
26.2275697062101
20
3.08642371842686
30
0
41
1
10
25.9995232479033
20
3.12977574905955
30
0
41
1
10
25.5450582500351
20
3.2039991419247
30
0
41
1
10
25.3186098450553
20
3.2338808273725
30
0
41
1
10
24.8655249040167
20
3.27939531415649
30
0
41
1
10
24.6389955513762
20
3.29636275194176
30
0
41
1
10
24.2556458548469
20
3.31440504935111
30
0
41
1
10
24.0988766294111
20
3.31847429352405
30
0
41
1
10
23.9419068106124
20
3.31895930903124
30
0
0
SPLINE
5
BF
100
AcDbEntity
8
1
62
256
6
ByLayer
370
18
48
1
60
0
100
AcDbSpline
70
4
71
3
72
10
73
6
40
0
40
0
40
0
40
0
40
0.471179191818085
40
0.471179191818085
40
1
40
1
40
1
40
1
41
1
10
8.63490028583755
20
-2.59296426134972
30
0
41
1
10
8.43064793037721
20
-2.66100164745021
30
0
41
1
10
8.22641162528365
20
-2.72449241361238
30
0
41
1
10
7.79275383917644
20
-2.85010718692513
30
0
41
1
10
7.56332572814591
20
-2.91097765548082
30
0
41
1
10
7.3337897585929
20
-2.96541974681384
30
0
0
SPLINE
5
C0
100
AcDbEntity
8
1
62
256
6
ByLayer
370
18
48
1
60
0
100
AcDbSpline
70
4
71
3
72
32
73
28
40
0
40
0
40
0
40
0
40
0.25
40
0.25
40
0.375
40
0.375
40
0.5
40
0.5
40
0.624999999999999
40
0.624999999999999
40
0.6875
40
0.6875
40
0.75
40
0.75
40
0.8125
40
0.8125
40
0.84375
40
0.84375
40
0.875
40
0.875
40
0.90625
40
0.90625
40
0.9375
40
0.9375
40
0.96875
40
0.96875
40
1
40
1
40
1
40
1
41
1
10
50.9722123367663
20
1.06956769754822
30
0
41
1
10
51.2144667519386
20
0.901601606961208
30
0
41
1
10
51.4588417521458
20
0.748669232197557
30
0
41
1
10
51.8303191605056
20
0.554114512525274
30
0
41
1
10
51.9549452797563
20
0.494936718041885
30
0
41
1
10
52.2060787039816
20
0.389917642876895
30
0
41
1
10
52.331762746096
20
0.344498404739142
30
0
41
1
10
52.5800832240391
20
0.270632818685783
30
0
41
1
10
52.7031850905067
20
0.241997654623475
30
0
41
1
10
52.8860292009146
20
0.213225012992012
30
0
41
1
10
52.9467023517659
20
0.20600911988484
30
0
41
1
10
53.0665899019639
20
0.196712275374551
30
0
41
1
10
53.1263594872549
20
0.193301581837602
30
0
41
1
10
53.2400775674866
20
0.203549108175224
30
0
41
1
10
53.2933361118728
20
0.215948545378325
30
0
41
1
10
53.3648846523568
20
0.250704486841812
30
0
41
1
10
53.3875798852422
20
0.265241265149058
30
0
41
1
10
53.4276505065594
20
0.30128427087152
30
0
41
1
10
53.4447598057641
20
0.322602752127779
30
0
41
1
10
53.4732368804852
20
0.371709162847651
30
0
41
1
10
53.4844887244769
20
0.399652870663345
30
0
41
1
10
53.5001642111608
20
0.459355233672312
30
0
41
1
10
53.5047774202472
20
0.491576152190675
30
0
41
1
10
53.5077450978337
20
0.559621138095423
30
0
41
1
10
53.5060769390436
20
0.594719661633093
30
0
41
1
10
53.497492231601
20
0.666708406786853
30
0
41
1
10
53.4904995496852
20
0.703817790386637
30
0
41
1
10
53.4814615207609
20
0.7406680808825
30
0
0
SPLINE
5
C1
100
AcDbEntity
8
1
62
256
6
ByLayer
370
18
48
1
60
0
100
AcDbSpline
70
4
71
3
72
8
73
4
40
0
40
0
40
0
40
0
40
1
40
1
40
1
40
1
41
1
10
4.04250683605289
20
0.283372447048407
30
0
41
1
10
4.02524252150175
20
0.308980985383897
30
0
41
1
10
4.0150444569727
20
0.338780313532254
30
0
41
1
10
4.01504868768444
20
0.369614102560206
30
0
0
SPLINE
5
C2
100
AcDbEntity
8
1
62
256
6
ByLayer
370
18
48
1
60
0
100
AcDbSpline
70
4
71
3
72
14
73
10
40
0
40
0
40
0
40
0
40
0.25
40
0.25
40
0.5
40
0.5
40
0.75
40
0.75
40
1
40
1
40
1
40
1
41
1
10
4.01547559604225
20
-3.4492495348091
30
0
41
1
10
4.02437269119582
20
-3.42439594288749
30
0
41
1
10
4.0373099508875
20
-3.40047129125605
30
0
41
1
10
4.07083151921034
20
-3.35805325732042
30
0
41
1
10
4.09123219285897
20
-3.33995527154579
30
0
41
1
10
4.13535581116716
20
-3.31264313653676
30
0
41
1
10
4.15913859174088
20
-3.30333132580523
30
0
41
1
10
4.20569064286053
20
-3.29277478965938
30
0
41
1
10
4.22901901396864
20
-3.29128700273915
30
0
41
1
10
4.251480429971
20
-3.2928237512985
30
0
0
SPLINE
5
C3
100
AcDbEntity
8
1
62
256
6
ByLayer
370
13
48
1
60
0
100
AcDbSpline
70
4
71
3
72
8
73
4
40
0
40
0
40
0
40
0
40
1
40
1
40
1
40
1
41
1
10
4.25145909511772
20
-3.30617072853153
30
0
41
1
10
4.25146726327546
20
-3.30478076269983
30
0
41
1
10
4.25147442512972
20
-3.30032933353164
30
0
41
1
10
4.25148042996446
20
-3.29282375132803
30
0
0
SPLINE
5
C4
100
AcDbEntity
8
1
62
256
6
ByLayer
370
18
48
1
60
0
100
AcDbSpline
70
4
71
3
72
22
73
18
40
0
40
0
40
0
40
0
40
0.250000000000014
40
0.250000000000014
40
0.500000000000029
40
0.500000000000029
40
0.625000000000022
40
0.625000000000022
40
0.750000000000015
40
0.750000000000015
40
0.812500000000011
40
0.812500000000011
40
0.875000000000007
40
0.875000000000007
40
0.937500000000004
40
0.937500000000004
40
1
40
1
40
1
40
1
41
1
10
53.6254480678455
20
1.04743627387077
30
0
41
1
10
53.7244957060875
20
1.07117012956155
30
0
41
1
10
53.8226288114232
20
1.09807082643121
30
0
41
1
10
54.0157239177489
20
1.16326551837409
30
0
41
1
10
54.1101635335303
20
1.20104445024683
30
0
41
1
10
54.2438778071258
20
1.27440776441961
30
0
41
1
10
54.2864901521621
20
1.30142383545112
30
0
41
1
10
54.3653941242319
20
1.3630820108794
30
0
41
1
10
54.4020113018974
20
1.39789531028569
30
0
41
1
10
54.4484697201053
20
1.4592422536887
30
0
41
1
10
54.462143435457
20
1.48075157959048
30
0
41
1
10
54.4853040594486
20
1.52624941576224
30
0
41
1
10
54.494851824169
20
1.55054847603336
30
0
41
1
10
54.50860780271
20
1.60009673772217
30
0
41
1
10
54.5129284253064
20
1.62536615643677
30
0
41
1
10
54.5165533049745
20
1.67689278103896
30
0
41
1
10
54.5157743280516
20
1.70323100477137
30
0
41
1
10
54.5126660102242
20
1.72893381081343
30
0
0
SPLINE
5
C5
100
AcDbEntity
8
1
62
256
6
ByLayer
370
18
48
1
60
0
100
AcDbSpline
70
4
71
3
72
14
73
10
40
0
40
0
40
0
40
0
40
0.25
40
0.25
40
0.5
40
0.5
40
0.75
40
0.75
40
1
40
1
40
1
40
1
41
1
10
4.25148043044393
20
-3.29282375133087
30
0
41
1
10
4.4991133365906
20
-3.30976611646779
30
0
41
1
10
4.75055875465588
20
-3.31284625710336
30
0
41
1
10
5.25931447241209
20
-3.29573879641484
30
0
41
1
10
5.51747303750264
20
-3.27543829723339
30
0
41
1
10
6.03449104797471
20
-3.21567898715645
30
0
41
1
10
6.29328777801092
20
-3.17623669446084
30
0
41
1
10
6.81223818189369
20
-3.08157233566573
30
0
41
1
10
7.07238728439626
20
-3.02705879548628
30
0
41
1
10
7.33377301956151
20
-2.96544722955957
30
0
0
SPLINE
5
C6
100
AcDbEntity
8
1
62
256
6
ByLayer
370
18
48
1
60
0
100
AcDbSpline
70
4
71
3
72
14
73
10
40
0
40
0
40
0
40
0
40
0.297105092033287
40
0.297105092033287
40
0.594210184066575
40
0.594210184066575
40
0.891315276099862
40
0.891315276099862
40
1
40
1
40
1
40
1
41
1
10
7.33377302016868
20
2.96544722941658
30
0
41
1
10
7.07095301227841
20
3.0273968696128
30
0
41
1
10
6.81019453619433
20
3.08198312860128
30
0
41
1
10
6.29147319520604
20
3.17652941677093
30
0
41
1
10
6.03358005524262
20
3.21576334327145
30
0
41
1
10
5.52009754019164
20
3.27515581602216
30
0
41
1
10
5.26449334123595
20
3.29540806100798
30
0
41
1
10
4.9169651779695
20
3.30730581771209
30
0
41
1
10
4.82404325623736
20
3.30893626925814
30
0
41
1
10
4.73129847447277
20
3.30888685227416
30
0
0
SPLINE
5
C7
100
AcDbEntity
8
1
62
256
6
ByLayer
370
18
48
1
60
0
100
AcDbSpline
70
4
71
3
72
22
73
18
40
0
40
0
40
0
40
0
40
0.124999999999997
40
0.124999999999997
40
0.187499999999996
40
0.187499999999996
40
0.249999999999995
40
0.249999999999995
40
0.499999999999996
40
0.499999999999996
40
0.624999999999997
40
0.624999999999997
40
0.749999999999998
40
0.749999999999998
40
0.874999999999999
40
0.874999999999999
40
1
40
1
40
1
40
1
41
1
10
53.7861721843811
20
-3.3349645145266
30
0
41
1
10
53.7358147407813
20
-3.33493922104606
30
0
41
1
10
53.6879686691033
20
-3.32732939462284
30
0
41
1
10
53.6201678044428
20
-3.3039302617519
30
0
41
1
10
53.5982306403935
20
-3.2941278656979
30
0
41
1
10
53.5557404996677
20
-3.27034272314708
30
0
41
1
10
53.5351556035187
20
-3.25631432935046
30
0
41
1
10
53.4372783645985
20
-3.17646797765701
30
0
41
1
10
53.3737010714514
20
-3.08147963325126
30
0
41
1
10
53.3018389807825
20
-2.88933603949715
30
0
41
1
10
53.2817714438519
20
-2.81622056765409
30
0
41
1
10
53.2512030366092
20
-2.65689698814038
30
0
41
1
10
53.2405107181079
20
-2.57047351679537
30
0
41
1
10
53.2282614421742
20
-2.38417449481156
30
0
41
1
10
53.2267031274219
20
-2.28430094286529
30
0
41
1
10
53.2331138042397
20
-2.07052460913275
30
0
41
1
10
53.241078964817
20
-1.95807037988686
30
0
41
1
10
53.2535548292451
20
-1.84165532376772
30
0
0
SPLINE
5
C8
100
AcDbEntity
8
1
62
256
6
ByLayer
370
18
48
1
60
0
100
AcDbSpline
70
4
71
3
72
18
73
14
40
0
40
0
40
0
40
0
40
0.142227267260464
40
0.142227267260464
40
0.284454534520928
40
0.284454534520928
40
0.56890906904186
40
0.56890906904186
40
0.853363603562791
40
0.853363603562791
40
0.995590870823258
40
0.995590870823258
40
1
40
1
40
1
40
1
41
1
10
4.20194764729825
20
0.160212481798567
30
0
41
1
10
4.46270277662319
20
0.0165893402972301
30
0
41
1
10
4.72326282174495
20
-0.127200191360288
30
0
41
1
10
5.24480079386055
20
-0.413648072523984
30
0
41
1
10
5.50581792828973
20
-0.556312633390462
30
0
41
1
10
6.28404196789035
20
-0.97640325634589
30
0
41
1
10
6.79870406022249
20
-1.24725059873373
30
0
41
1
10
7.82780152343244
20
-1.75679437519102
30
0
41
1
10
8.34202677101524
20
-1.99585064703098
30
0
41
1
10
9.11843609967795
20
-2.3218008090241
30
0
41
1
10
9.37828818975834
20
-2.42505794218172
30
0
41
1
10
9.6471758619106
20
-2.52494396227465
30
0
41
1
10
9.65525962823654
20
-2.52794044250109
30
0
41
1
10
9.66334213974358
20
-2.53092997363476
30
0
0
SPLINE
5
C9
100
AcDbEntity
8
1
62
256
6
ByLayer
370
13
48
1
60
0
100
AcDbSpline
70
4
71
3
72
16
73
12
40
0
40
0
40
0
40
0
40
0.126616819931328
40
0.126616819931328
40
0.649286751698782
40
0.649286751698782
40
0.779954234640648
40
0.779954234640648
40
0.910621717582512
40
0.910621717582512
40
1
40
1
40
1
40
1
41
1
10
9.66334150503442
20
-2.53092973887081
30
0
41
1
10
9.91598042400966
20
-2.62437495066737
30
0
41
1
10
10.16739334707
20
-2.711030691589
30
0
41
1
10
11.452601932986
20
-3.11878075102209
30
0
41
1
10
12.4738823480589
20
-3.32516126644245
30
0
41
1
10
13.7714052013151
20
-3.40481519658823
30
0
41
1
10
14.0327696998937
20
-3.41179822054985
30
0
41
1
10
14.5523778755071
20
-3.40744501339765
30
0
41
1
10
14.8110600671716
20
-3.39623743987198
30
0
41
1
10
15.2456658709267
20
-3.36258749084098
30
0
41
1
10
15.4218748214262
20
-3.34478582902341
30
0
41
1
10
15.5979242731426
20
-3.32294570888678
30
0
0
SPLINE
5
CA
100
AcDbEntity
8
1
62
256
6
ByLayer
370
18
48
1
60
0
100
AcDbSpline
70
4
71
3
72
26
73
22
40
0
40
0
40
0
40
0
40
0.149309134003511
40
0.149309134003511
40
0.307224622961813
40
0.307224622961813
40
0.386182367440963
40
0.386182367440963
40
0.465140111920112
40
0.465140111920112
40
0.623055600878415
40
0.623055600878415
40
0.780971089836716
40
0.780971089836716
40
0.859928834315867
40
0.859928834315867
40
0.899407706555443
40
0.899407706555443
40
0.938886578795019
40
0.938886578795019
40
1
40
1
40
1
40
1
41
1
10
38.4167768853365
20
2.43188959384469
30
0
41
1
10
38.9080807414742
20
2.24011741032541
30
0
41
1
10
39.3954274188534
20
2.02732381412082
30
0
41
1
10
40.3953615500054
20
1.55480523670258
30
0
41
1
10
40.9085515571736
20
1.29436654619752
30
0
41
1
10
41.6817373238894
20
0.884779148656605
30
0
41
1
10
41.9401958063098
20
0.745422621389309
30
0
41
1
10
42.4592707952587
20
0.462035823593453
30
0
41
1
10
42.7202816273851
20
0.31775290531985
30
0
41
1
10
43.4974244050607
20
-0.113535447177099
30
0
41
1
10
44.0115246314452
20
-0.39985845291605
30
0
41
1
10
45.0383602087394
20
-0.958287410166804
30
0
41
1
10
45.5510201495814
20
-1.23053720232321
30
0
41
1
10
46.324584111377
20
-1.61819186366279
30
0
41
1
10
46.5833164241897
20
-1.74377034468225
30
0
41
1
10
46.9733112414664
20
-1.92561309123721
30
0
41
1
10
47.1037083351118
20
-1.98516804948937
30
0
41
1
10
47.363444298045
20
-2.10109514874438
30
0
41
1
10
47.4930032762425
20
-2.15757300043703
30
0
41
1
10
47.8224891410515
20
-2.29752605522924
30
0
41
1
10
48.0220766481683
20
-2.37882152241667
30
0
41
1
10
48.2212928724221
20
-2.45615460575493
30
0
0
SPLINE
5
CB
100
AcDbEntity
8
1
62
256
6
ByLayer
370
13
48
1
60
0
100
AcDbSpline
70
4
71
3
72
14
73
10
40
0
40
0
40
0
40
0
40
0.446443368087215
40
0.446443368087215
40
0.584832526065411
40
0.584832526065411
40
0.723221684043607
40
0.723221684043607
40
1
40
1
40
1
40
1
41
1
10
48.2212919406089
20
-2.45615424403746
30
0
41
1
10
49.0516151032744
20
-2.77847467984898
30
0
41
1
10
49.8754884073991
20
-3.03196137088588
30
0
41
1
10
50.9667544151499
20
-3.25190928785932
30
0
41
1
10
51.2260444587989
20
-3.29573571527956
30
0
41
1
10
51.7469248661655
20
-3.3659854086379
30
0
41
1
10
52.0065454259759
20
-3.39214232686507
30
0
41
1
10
52.7844912852584
20
-3.44347713064377
30
0
41
1
10
53.3019434099707
20
-3.44154153450555
30
0
41
1
10
53.8214098328702
20
-3.40303235875516
30
0
0
SPLINE
5
CC
100
AcDbEntity
8
1
62
256
6
ByLayer
370
18
48
1
60
0
100
AcDbSpline
70
4
71
3
72
12
73
8
40
0
40
0
40
0
40
0
40
0.300249674785127
40
0.300249674785127
40
0.729435181305193
40
0.729435181305193
40
1
40
1
40
1
40
1
41
1
10
8.17620669331978
20
-2.4581086298551
30
0
41
1
10
8.09353394495074
20
-2.51386722806427
30
0
41
1
10
8.01003920868919
20
-2.56873069564568
30
0
41
1
10
7.80494012646946
20
-2.69890962395368
30
0
41
1
10
7.68429913937644
20
-2.77165464439864
30
0
41
1
10
7.48694986334118
20
-2.88365093925648
30
0
41
1
10
7.41046949468614
20
-2.9253251525941
30
0
41
1
10
7.33377210160941
20
-2.96542897939474
30
0
0
SPLINE
5
CD
100
AcDbEntity
8
1
62
256
6
ByLayer
370
13
48
1
60
0
100
AcDbSpline
70
4
71
3
72
29
73
25
40
0
40
0
40
0
40
0
40
0.134102687096296
40
0.134102687096296
40
0.201154030644443
40
0.201154030644443
40
0.268205374192591
40
0.335256717740739
40
0.335256717740739
40
0.402308061288887
40
0.402308061288887
40
0.469359404837035
40
0.469359404837035
40
0.536410748385182
40
0.536410748385182
40
0.670513435481478
40
0.670513435481478
40
0.737564779029626
40
0.737564779029626
40
0.804616122577773
40
0.804616122577773
40
0.938718809674069
40
0.938718809674069
40
1
40
1
40
1
40
1
41
1
10
4.25039600877824
20
0.240451604318423
30
0
41
1
10
4.25047474075461
20
0.460434738723222
30
0
41
1
10
4.25054438592625
20
0.676255422435446
30
0
41
1
10
4.25064020331712
20
0.993811423590273
30
0
41
1
10
4.25067069974412
20
1.09869188895701
30
0
41
1
10
4.25072847946802
20
1.30242793475736
30
0
41
1
10
4.2507833639917
20
1.50117123828122
30
0
41
1
10
4.25083412085507
20
1.69009403219792
30
0
41
1
10
4.25088352856133
20
1.87404388721151
30
0
41
1
10
4.2509076474083
20
1.9638631061303
30
0
41
1
10
4.25095470163217
20
2.13663209690472
30
0
41
1
10
4.25097757563793
20
2.21935742363755
30
0
41
1
10
4.25102257951525
20
2.37751188558812
30
0
41
1
10
4.2510447525184
20
2.45305846687415
30
0
41
1
10
4.25110970772025
20
2.66513181314389
30
0
41
1
10
4.25115137170417
20
2.78853361979307
30
0
41
1
10
4.25121253183298
20
2.94687887571357
30
0
41
1
10
4.25123272266336
20
2.99527349424608
30
0
41
1
10
4.2512723099706
20
3.08222033576354
30
0
41
1
10
4.25129163397213
20
3.12060015326506
30
0
41
1
10
4.25134711602757
20
3.21927457739849
30
0
41
1
10
4.25138114341439
20
3.26388117379497
30
0
41
1
10
4.2514238679918
20
3.29815270323252
30
0
41
1
10
4.25143630326872
20
3.30446483542696
30
0
41
1
10
4.25144736967181
20
3.30617037362933
30
0
0
SPLINE
5
CE
100
AcDbEntity
8
1
62
256
6
ByLayer
370
13
48
1
60
0
100
AcDbSpline
70
4
71
3
72
8
73
4
40
0
40
0
40
0
40
0
40
1
40
1
40
1
40
1
41
1
10
4.2514531684389
20
3.30664333225474
30
0
41
1
10
4.25146383137627
20
3.30670523879391
30
0
41
1
10
4.25147301321354
20
3.30209412033676
30
0
41
1
10
4.25148042996449
20
3.29282375129867
30
0
0
SPLINE
5
CF
100
AcDbEntity
8
1
62
256
6
ByLayer
370
18
48
1
60
0
100
AcDbSpline
70
4
71
3
72
14
73
10
40
0
40
0
40
0
40
0
40
0.236434755542806
40
0.236434755542806
40
0.472869511085612
40
0.472869511085612
40
0.94573902217122
40
0.94573902217122
40
1
40
1
40
1
40
1
41
1
10
12.0889720604796
20
3.37363437587692
30
0
41
1
10
11.8251916994304
20
3.33775357534947
30
0
41
1
10
11.5596591626252
20
3.29352978027279
30
0
41
1
10
11.0245768192246
20
3.19122913137619
30
0
41
1
10
10.754438388523
20
3.13299316210734
30
0
41
1
10
9.94170132934829
20
2.94293107156756
30
0
41
1
10
9.39712148139017
20
2.7958591896018
30
0
41
1
10
8.78270178458462
20
2.62494418941864
30
0
41
1
10
8.71936774046983
20
2.60727027132728
30
0
41
1
10
8.65594101108272
20
2.58953833558698
30
0
0
SPLINE
5
D0
100
AcDbEntity
8
1
62
256
6
ByLayer
370
18
48
1
60
0
100
AcDbSpline
70
4
71
3
72
68
73
64
40
0
40
0
40
0
40
0
40
0.0624902345195685
40
0.0624902345195685
40
0.0937353517793531
40
0.0937353517793531
40
0.124980469039138
40
0.124980469039138
40
0.156225586298922
40
0.156225586298922
40
0.187470703558707
40
0.187470703558707
40
0.218715820818492
40
0.218715820818492
40
0.249960938078276
40
0.249960938078276
40
0.281206055338061
40
0.281206055338061
40
0.312451172597845
40
0.312451172597845
40
0.34369628985763
40
0.34369628985763
40
0.374941407117415
40
0.374941407117415
40
0.406186524377199
40
0.406186524377199
40
0.437431641636984
40
0.437431641636984
40
0.499921876156552
40
0.499921876156552
40
0.531166993416337
40
0.531166993416337
40
0.562412110676121
40
0.562412110676121
40
0.593657227935905
40
0.593657227935905
40
0.624902345195689
40
0.624902345195689
40
0.656147462455474
40
0.656147462455474
40
0.687392579715258
40
0.687392579715258
40
0.718637696975042
40
0.718637696975042
40
0.749882814234826
40
0.749882814234826
40
0.78112793149461
40
0.78112793149461
40
0.812373048754395
40
0.812373048754395
40
0.843618166014179
40
0.843618166014179
40
0.874863283273963
40
0.874863283273963
40
0.906108400533747
40
0.906108400533747
40
0.937353517793532
40
0.937353517793532
40
0.968598635053316
40
0.968598635053316
40
0.9998437523131
40
0.9998437523131
40
1
40
1
40
1
40
1
41
1
10
12.0884586673007
20
3.37355887391385
30
0
41
1
10
12.5271741119752
20
3.43363784149275
30
0
41
1
10
12.9648525146683
20
3.46648739729295
30
0
41
1
10
13.6162355954022
20
3.4779626648116
30
0
41
1
10
13.8325958486963
20
3.47525391681984
30
0
41
1
10
14.2665802515781
20
3.45713200276739
30
0
41
1
10
14.4837503189833
20
3.44176082165473
30
0
41
1
10
14.9179377346951
20
3.39823248016407
30
0
41
1
10
15.1345359557098
20
3.3698297322504
30
0
41
1
10
15.569647533969
20
3.30070133643426
30
0
41
1
10
15.7882044124408
20
3.26011515511382
30
0
41
1
10
16.226644987486
20
3.16646690284932
30
0
41
1
10
16.4469518634479
20
3.11317490193346
30
0
41
1
10
16.8841264101241
20
2.99473089865856
30
0
41
1
10
17.1023733263244
20
2.93033516166904
30
0
41
1
10
17.5382190448622
20
2.79167251931355
30
0
41
1
10
17.7557193532489
20
2.71731281965157
30
0
41
1
10
18.1893457901824
20
2.55787475275841
30
0
41
1
10
18.4054772799692
20
2.47272433387101
30
0
41
1
10
18.83933681464
20
2.29539184788351
30
0
41
1
10
19.0566008262598
20
2.2026750047219
30
0
41
1
10
19.4912898617893
20
2.00837923061727
30
0
41
1
10
19.7083056839657
20
1.90613096182091
30
0
41
1
10
20.1444372875563
20
1.69538683169634
30
0
41
1
10
20.3636655507026
20
1.58715153298684
30
0
41
1
10
20.8037588624672
20
1.36376890134122
30
0
41
1
10
21.0227252284227
20
1.24946496480177
30
0
41
1
10
21.6761248450339
20
0.898695681775763
30
0
41
1
10
22.1112464837425
20
0.661593257182716
30
0
41
1
10
22.7610284698731
20
0.297285543227417
30
0
41
1
10
22.9770256400988
20
0.174185266579201
30
0
41
1
10
23.4108992882471
20
-0.0697829692982452
30
0
41
1
10
23.6283117390486
20
-0.191482875165747
30
0
41
1
10
24.0635836756346
20
-0.435244423575
30
0
41
1
10
24.2810459815127
20
-0.558043142023138
30
0
41
1
10
24.7182273939557
20
-0.800719425133195
30
0
41
1
10
24.9387328501687
20
-0.920543461085089
30
0
41
1
10
25.3772692238816
20
-1.15551171566048
30
0
41
1
10
25.5955718933293
20
-1.27087364644066
30
0
41
1
10
26.0300805304215
20
-1.49756383770568
30
0
41
1
10
26.2471734203328
20
-1.60738294708921
30
0
41
1
10
26.6813706218384
20
-1.81971271437044
30
0
41
1
10
26.8983228077002
20
-1.92247831474933
30
0
41
1
10
27.3314183114429
20
-2.12190970164056
30
0
41
1
10
27.5474392965234
20
-2.2186884700254
30
0
41
1
10
27.9816304255384
20
-2.40185319095727
30
0
41
1
10
28.1993385704525
20
-2.4889371196879
30
0
41
1
10
28.6354787443171
20
-2.65468276469349
30
0
41
1
10
28.8535326826033
20
-2.73376328627449
30
0
41
1
10
29.29201962992
20
-2.88117052456963
30
0
41
1
10
29.511874375548
20
-2.94893438489333
30
0
41
1
10
29.9490438361559
20
-3.07283460237292
30
0
41
1
10
30.1668176939545
20
-3.12911680206312
30
0
41
1
10
30.6004593132785
20
-3.23041142801429
30
0
41
1
10
30.8171850323105
20
-3.27475665751868
30
0
41
1
10
31.250989958547
20
-3.35092613941129
30
0
41
1
10
31.4678826842476
20
-3.3828865574219
30
0
41
1
10
31.9011398272582
20
-3.43462514009912
30
0
41
1
10
32.1173228197888
20
-3.45435544443475
30
0
41
1
10
32.552084478106
20
-3.48056909146879
30
0
41
1
10
32.7702130262673
20
-3.487258748096
30
0
41
1
10
32.9899339101885
20
-3.48747182847606
30
0
41
1
10
32.9910272156104
20
-3.48747272612951
30
0
41
1
10
32.9921205338196
20
-3.4874734611368
30
0
0
SPLINE
5
D1
100
AcDbEntity
8
1
62
256
6
ByLayer
370
18
48
1
60
0
100
AcDbSpline
70
4
71
3
72
24
73
20
40
0
40
0
40
0
40
0
40
0.156652898846932
40
0.156652898846932
40
0.262071286491066
40
0.262071286491066
40
0.3674896741352
40
0.3674896741352
40
0.472908061779333
40
0.472908061779333
40
0.578326449423466
40
0.578326449423466
40
0.683744837067599
40
0.683744837067599
40
0.789163224711733
40
0.789163224711733
40
0.894581612355866
40
0.894581612355866
40
1
40
1
40
1
40
1
41
1
10
47.6898048250769
20
2.52920327610266
30
0
41
1
10
48.0122093122815
20
2.65510162591201
30
0
41
1
10
48.3345264655374
20
2.76960262887985
30
0
41
1
10
48.8719325951061
20
2.94421409890819
30
0
41
1
10
49.0881781501373
20
3.00913919864485
30
0
41
1
10
49.5224801787535
20
3.12694348365187
30
0
41
1
10
49.7401887054807
20
3.18018269711487
30
0
41
1
10
50.1762448740994
20
3.2754761109891
30
0
41
1
10
50.3944346653063
20
3.31770808574817
30
0
41
1
10
50.833338662506
20
3.38873279168467
30
0
41
1
10
51.0521980013607
20
3.41757852582961
30
0
41
1
10
51.488220565573
20
3.46258096355208
30
0
41
1
10
51.7051542526625
20
3.47875838483353
30
0
41
1
10
52.1379619638687
20
3.49805988595011
30
0
41
1
10
52.3546211188915
20
3.50113341410244
30
0
41
1
10
52.7877504957641
20
3.49459307740904
30
0
41
1
10
53.004245095047
20
3.48497508375095
30
0
41
1
10
53.4365416946044
20
3.45264332519454
30
0
41
1
10
53.6527532034927
20
3.42994585793986
30
0
41
1
10
53.8700312607772
20
3.40111981036347
30
0
0
SPLINE
5
D2
100
AcDbEntity
8
1
62
256
6
ByLayer
370
18
48
1
60
0
100
AcDbSpline
70
4
71
3
72
36
73
32
40
0
40
0
40
0
40
0
40
0.0767784042211613
40
0.0767784042211613
40
0.115167606331741
40
0.115167606331741
40
0.153556808442321
40
0.153556808442321
40
0.230335212663481
40
0.230335212663481
40
0.268724414774061
40
0.268724414774061
40
0.307113616884641
40
0.307113616884641
40
0.460670425326962
40
0.460670425326962
40
0.499059627437541
40
0.499059627437541
40
0.53744882954812
40
0.53744882954812
40
0.614227233769278
40
0.614227233769278
40
0.691005637990436
40
0.691005637990436
40
0.729394840101016
40
0.729394840101016
40
0.767784042211595
40
0.767784042211595
40
0.921340850653911
40
0.921340850653911
40
1
40
1
40
1
40
1
41
1
10
53.7961889824853
20
-3.47039703561009
30
0
41
1
10
53.2760843688446
20
-3.50843201730157
30
0
41
1
10
52.7570346738849
20
-3.50915690050692
30
0
41
1
10
51.975020912326
20
-3.45447174488223
30
0
41
1
10
51.7148777676557
20
-3.4269741186618
30
0
41
1
10
51.1970859837232
20
-3.35442242479113
30
0
41
1
10
50.939037786335
20
-3.30935599541488
30
0
41
1
10
50.1662483538515
20
-3.14876678882433
30
0
41
1
10
49.6525641183998
20
-3.00801106974066
30
0
41
1
10
48.8784031239394
20
-2.75128814876746
30
0
41
1
10
48.619767200352
20
-2.65809410996283
30
0
41
1
10
48.1003343834823
20
-2.45730657504848
30
0
41
1
10
47.8389621160061
20
-2.34943817290105
30
0
41
1
10
46.5412126407186
20
-1.7842792075302
30
0
41
1
10
45.5204904534917
20
-1.24466871497881
30
0
41
1
10
44.2266000172762
20
-0.526618375183148
30
0
41
1
10
43.9667851448554
20
-0.38075082384438
30
0
41
1
10
43.4451072450499
20
-0.0863774310119254
30
0
41
1
10
43.1856335638535
20
0.0607094700515916
30
0
41
1
10
42.4099293150359
20
0.499252836004558
30
0
41
1
10
41.8957700808092
20
0.78682292629648
30
0
41
1
10
40.8668865727022
20
1.34114044643144
30
0
41
1
10
40.351648440676
20
1.60700619872335
30
0
41
1
10
39.5726918557492
20
1.98028857244131
30
0
41
1
10
39.3112270306568
20
2.10045169416702
30
0
41
1
10
38.7918034351043
20
2.32716649917509
30
0
41
1
10
38.533168930893
20
2.43415820472296
30
0
41
1
10
37.2435053398165
20
2.93537274161224
30
0
41
1
10
36.2206756601245
20
3.22552620219582
30
0
41
1
10
34.6423467855548
20
3.45102051453435
30
0
41
1
10
34.1131807507345
20
3.48854375254513
30
0
41
1
10
33.5854434768166
20
3.48786170242212
30
0
0
SPLINE
5
D3
100
AcDbEntity
8
1
62
256
6
ByLayer
370
18
48
1
60
0
100
AcDbSpline
70
4
71
3
72
26
73
22
40
0
40
0
40
0
40
0
40
0.0900824420821155
40
0.0900824420821155
40
0.155076553361965
40
0.155076553361965
40
0.220070664641815
40
0.220070664641815
40
0.480047109761211
40
0.480047109761211
40
0.54504122104106
40
0.54504122104106
40
0.610035332320909
40
0.610035332320909
40
0.740023554880606
40
0.740023554880606
40
0.870011777440303
40
0.870011777440303
40
0.935005888720152
40
0.935005888720152
40
1
40
1
40
1
40
1
41
1
10
16.0800722047914
20
-3.31618093655885
30
0
41
1
10
15.7231750303931
20
-3.37644671923863
30
0
41
1
10
15.3665018038718
20
-3.42006986018481
30
0
41
1
10
14.7505282066109
20
-3.46537160151843
30
0
41
1
10
14.4918648530287
20
-3.4753757359438
30
0
41
1
10
13.9723864964555
20
-3.47691937725389
30
0
41
1
10
13.7106925489397
20
-3.46837774903406
30
0
41
1
10
12.409564781834
20
-3.37980370830061
30
0
41
1
10
11.387053496648
20
-3.16308548118917
30
0
41
1
10
10.0930035840985
20
-2.73815936558557
30
0
41
1
10
9.83339879393043
20
-2.64548557487254
30
0
41
1
10
9.31158514472511
20
-2.44556448030011
30
0
41
1
10
9.05082157039072
20
-2.33884311557762
30
0
41
1
10
8.27298315823219
20
-2.00284223243918
30
0
41
1
10
7.75799875399255
20
-1.75701987658229
30
0
41
1
10
6.72759710471826
20
-1.23407235093725
30
0
41
1
10
6.21236747772491
20
-0.95661207576714
30
0
41
1
10
5.43315079077783
20
-0.526858301910039
30
0
41
1
10
5.17178515444991
20
-0.38100392646507
30
0
41
1
10
4.64951203638987
20
-0.0883246812805965
30
0
41
1
10
4.38857451184268
20
0.0585045651428686
30
0
41
1
10
4.12744016999989
20
0.205118471110978
30
0
0
SPLINE
5
D4
100
AcDbEntity
8
1
62
256
6
ByLayer
370
18
48
1
60
0
100
AcDbSpline
70
4
71
3
72
26
73
22
40
0
40
0
40
0
40
0
40
0.134345046320877
40
0.134345046320877
40
0.268690092641754
40
0.268690092641754
40
0.403035138962631
40
0.403035138962631
40
0.47020766212307
40
0.47020766212307
40
0.537380185283508
40
0.537380185283508
40
0.671725231604385
40
0.671725231604385
40
0.738897754764824
40
0.738897754764824
40
0.806070277925262
40
0.806070277925262
40
0.940415324246139
40
0.940415324246139
40
1
40
1
40
1
40
1
41
1
10
4.01504868768444
20
0.369614102561201
30
0
41
1
10
4.0150799289062
20
0.597302787806683
30
0
41
1
10
4.01510786641589
20
0.823139260474505
30
0
41
1
10
4.01515795214794
20
1.25686960448209
30
0
41
1
10
4.01518032761101
20
1.46637365828039
30
0
41
1
10
4.01522207844852
20
1.86865340819517
30
0
41
1
10
4.01524088318604
20
2.05569357469062
30
0
41
1
10
4.01526780794617
20
2.31591970376246
30
0
41
1
10
4.01527656108328
20
2.39924761791059
30
0
41
1
10
4.01529384769037
20
2.55891019470982
30
0
41
1
10
4.01530239531724
20
2.63532491420602
30
0
41
1
10
4.01532742003454
20
2.84897991733661
30
0
41
1
10
4.01534350586482
20
2.97260522079881
30
0
41
1
10
4.0153672876238
20
3.13000310585466
30
0
41
1
10
4.0153751822904
20
3.17794405077683
30
0
41
1
10
4.0153906672252
20
3.26316620121105
30
0
41
1
10
4.01539820739896
20
3.3002161634835
30
0
41
1
10
4.0154201296175
20
3.39518035699282
30
0
41
1
10
4.01543385361367
20
3.43706334153182
30
0
41
1
10
4.01545136619845
20
3.46575853345593
30
0
41
1
10
4.01545640656821
20
3.47013638897403
30
0
41
1
10
4.01546095085391
20
3.47008513888028
30
0
0
SPLINE
5
D5
100
AcDbEntity
8
1
62
256
6
ByLayer
370
18
48
1
60
0
100
AcDbSpline
70
4
71
3
72
10
73
6
40
0
40
0
40
0
40
0
40
0.965253483608355
40
0.965253483608355
40
1
40
1
40
1
40
1
41
1
10
53.7961889824853
20
3.47039703561009
30
0
41
1
10
53.5363428979117
20
3.48939944552947
30
0
41
1
10
53.2765873263153
20
3.49908144807174
30
0
41
1
10
53.0071727844825
20
3.49947849674342
30
0
41
1
10
52.9978104787633
20
3.49948018131846
30
0
41
1
10
52.9884471496054
20
3.49946975885464
30
0
0
SPLINE
5
D6
100
AcDbEntity
8
1
62
256
6
ByLayer
370
18
48
1
60
0
100
AcDbSpline
70
4
71
3
72
50
73
46
40
0
40
0
40
0
40
0
40
0.0141094689885629
40
0.0141094689885629
40
0.159945897661423
40
0.159945897661423
40
0.196405004829638
40
0.196405004829638
40
0.214634558413744
40
0.214634558413744
40
0.232864111997851
40
0.232864111997851
40
0.305782326334277
40
0.305782326334277
40
0.378700540670704
40
0.378700540670704
40
0.39693009425481
40
0.39693009425481
40
0.415159647838916
40
0.415159647838916
40
0.451618755007129
40
0.451618755007129
40
0.597455183679981
40
0.597455183679981
40
0.615684737264087
40
0.615684737264087
40
0.633914290848194
40
0.633914290848194
40
0.670373398016406
40
0.670373398016406
40
0.743291612352831
40
0.743291612352831
40
0.779750719521043
40
0.779750719521043
40
0.797980273105149
40
0.797980273105149
40
0.816209826689255
40
0.816209826689255
40
0.889128041025678
40
0.889128041025678
40
0.962046255362102
40
0.962046255362102
40
0.998505362530314
40
0.998505362530314
40
1
40
1
40
1
40
1
41
1
10
35.4793037216701
20
-3.32742168562893
30
0
41
1
10
35.3784067975954
20
-3.34450867275641
30
0
41
1
10
35.2774281734298
20
-3.36028898857214
30
0
41
1
10
34.1362670419559
20
-3.52330361492332
30
0
41
1
10
33.1140884451814
20
-3.52509471247933
30
0
41
1
10
31.8218796518141
20
-3.34726916073075
30
0
41
1
10
31.5626614876275
20
-3.30271219456276
30
0
41
1
10
31.171903966992
20
-3.22252393761823
30
0
41
1
10
31.0412467694818
20
-3.19354346987862
30
0
41
1
10
30.7809709648858
20
-3.13159691488033
30
0
41
1
10
30.6511362610293
20
-3.09858882477565
30
0
41
1
10
30.0031794496449
20
-2.92373074224895
30
0
41
1
10
29.4885412248077
20
-2.75258367483042
30
0
41
1
10
28.4591904794183
20
-2.3569265066786
30
0
41
1
10
27.9443028892262
20
-2.13265203749665
30
0
41
1
10
27.2959410304821
20
-1.82473023568221
30
0
41
1
10
27.1660132336021
20
-1.76179270059825
30
0
41
1
10
26.9055045141282
20
-1.63340168599299
30
0
41
1
10
26.7748129954851
20
-1.56787520941049
30
0
41
1
10
26.3842702454816
20
-1.36904666985876
30
0
41
1
10
26.1251785717871
20
-1.23301624968713
30
0
41
1
10
24.8330710779912
20
-0.540804678314714
30
0
41
1
10
23.8105299219327
20
0.0522735472720797
30
0
41
1
10
22.638542952012
20
0.702432967534151
30
0
41
1
10
22.5078672835797
20
0.774518834506068
30
0
41
1
10
22.2474402776411
20
0.916917569441949
30
0
41
1
10
22.1175093575335
20
0.987341382276554
30
0
41
1
10
21.7284546910924
20
1.19614131884006
30
0
41
1
10
21.4700646166852
20
1.33203596615556
30
0
41
1
10
20.6963940121558
20
1.72756128769976
30
0
41
1
10
20.1824653357941
20
1.97478561471897
30
0
41
1
10
19.4086413517815
20
2.31222602119979
30
0
41
1
10
19.1502557248006
20
2.41920141171099
30
0
41
1
10
18.7612133935964
20
2.57019716630643
30
0
41
1
10
18.6312800362478
20
2.61894065566881
30
0
41
1
10
18.3707909851889
20
2.71307446627699
30
0
41
1
10
18.2400514563909
20
2.75852120638223
30
0
41
1
10
17.5886487895603
20
2.97557254100124
30
0
41
1
10
17.0725550388349
20
3.11770915312695
30
0
41
1
10
16.042024258531
20
3.33387388823809
30
0
41
1
10
15.5278822190026
20
3.40810434768031
30
0
41
1
10
14.7521950279213
20
3.4652971251758
30
0
41
1
10
14.4929763034862
20
3.47536299175172
30
0
41
1
10
14.2218455814849
20
3.47617848368591
30
0
41
1
10
14.2111648348819
20
3.47619493386753
30
0
41
1
10
14.2004811211899
20
3.47619572819747
30
0
0
SPLINE
5
D7
100
AcDbEntity
8
1
62
256
6
ByLayer
370
18
48
1
60
0
100
AcDbSpline
70
4
71
3
72
8
73
4
40
0
40
0
40
0
40
0
40
1
40
1
40
1
40
1
41
1
10
53.7961889824852
20
-3.47039703561009
30
0
41
1
10
53.8046044938602
20
-3.44795325556822
30
0
41
1
10
53.8130115793563
20
-3.42549799069977
30
0
41
1
10
53.8214098328846
20
-3.40303235876112
30
0
0
SPLINE
5
D8
100
AcDbEntity
8
1
62
256
6
ByLayer
370
18
48
1
60
0
100
AcDbSpline
70
4
71
3
72
14
73
10
40
0
40
0
40
0
40
0
40
0.233403261339582
40
0.233403261339582
40
0.428071048377254
40
0.428071048377254
40
0.622738835414926
40
0.622738835414926
40
1
40
1
40
1
40
1
41
1
10
53.2146720733518
20
-3.33472940574128
30
0
41
1
10
52.9041058982999
20
-3.3349873026593
30
0
41
1
10
52.5937887712719
20
-3.32254396617407
30
0
41
1
10
52.0239202982122
20
-3.27670267953442
30
0
41
1
10
51.7644121535928
20
-3.24710709388685
30
0
41
1
10
51.2440797251829
20
-3.1706688157546
30
0
41
1
10
50.9851848825126
20
-3.12411586243778
30
0
41
1
10
50.2271676214877
20
-2.96425875534976
30
0
41
1
10
49.7302567699696
20
-2.82921816559284
30
0
41
1
10
49.2332117433653
20
-2.66828756251564
30
0
0
SPLINE
5
D9
100
AcDbEntity
8
1
62
256
6
ByLayer
370
13
48
1
60
0
100
AcDbSpline
70
4
71
3
72
26
73
22
40
0
40
0
40
0
40
0
40
0.167480644188624
40
0.167480644188624
40
0.208091351085151
40
0.208091351085151
40
0.248702057981677
40
0.248702057981677
40
0.32992347177473
40
0.32992347177473
40
0.492366299360836
40
0.492366299360836
40
0.654809126946943
40
0.654809126946943
40
0.736030540739996
40
0.736030540739996
40
0.817251954533049
40
0.817251954533049
40
0.979694782119152
40
0.979694782119152
40
1
40
1
40
1
40
1
41
1
10
49.2332117433652
20
-2.66828756251556
30
0
41
1
10
48.7043504274118
20
-2.49705564998229
30
0
41
1
10
48.1753372092735
20
-2.29651315752653
30
0
41
1
10
47.5130201622801
20
-2.01646918452241
30
0
41
1
10
47.3835233082509
20
-1.96036133607117
30
0
41
1
10
47.1239326383702
20
-1.84536902494043
30
0
41
1
10
46.9936570312003
20
-1.78639779589477
30
0
41
1
10
46.604153978342
20
-1.60665094672899
30
0
41
1
10
46.3456655834786
20
-1.4828182903232
30
0
41
1
10
45.572650038584
20
-1.10142332777707
30
0
41
1
10
45.0601777112427
20
-0.834607046258895
30
0
41
1
10
44.0336973501423
20
-0.289350596436151
30
0
41
1
10
43.5197161506921
20
-0.0108439269675387
30
0
41
1
10
42.742922866871
20
0.406937961610509
30
0
41
1
10
42.4821727039746
20
0.546401443012797
30
0
41
1
10
41.9636861767129
20
0.819743030722634
30
0
41
1
10
41.7054503233701
20
0.953899459956858
30
0
41
1
10
40.93279905077
20
1.34757306720826
30
0
41
1
10
40.4198108602002
20
1.59688098405323
30
0
41
1
10
39.8417783092015
20
1.85721332124672
30
0
41
1
10
39.7775290353455
20
1.8858392753269
30
0
41
1
10
39.7132502547806
20
1.9141563909495
30
0
0
SPLINE
5
DA
100
AcDbEntity
8
1
62
256
6
ByLayer
370
18
48
1
60
0
100
AcDbSpline
70
4
71
3
72
12
73
8
40
0
40
0
40
0
40
0
40
0.0144267460423473
40
0.0144267460423473
40
0.212055228265826
40
0.212055228265826
40
1
40
1
40
1
40
1
41
1
10
14.3907248158625
20
-3.31129371934978
30
0
41
1
10
14.3717853393897
20
-3.3112685798738
30
0
41
1
10
14.3528403628529
20
-3.31119687097095
30
0
41
1
10
14.0742892601244
20
-3.30945721730839
30
0
41
1
10
13.8132440146563
20
-3.29894459031701
30
0
41
1
10
12.5202912281
20
-3.203420730218
30
0
41
1
10
11.5023383041979
20
-2.99029934377845
30
0
41
1
10
10.4718681617818
20
-2.66170011619201
30
0
0
SPLINE
5
DB
100
AcDbEntity
8
1
62
256
6
ByLayer
370
13
48
1
60
0
100
AcDbSpline
70
4
71
3
72
20
73
16
40
0
40
0
40
0
40
0
40
0.0016223553975564
40
0.0016223553975564
40
0.126419560972863
40
0.126419560972863
40
0.251216766548168
40
0.251216766548168
40
0.50081117769878
40
0.50081117769878
40
0.750405588849392
40
0.750405588849392
40
0.875202794424697
40
0.875202794424697
40
1
40
1
40
1
40
1
41
1
10
10.4718681618015
20
-2.66170011619832
30
0
41
1
10
10.4685082312017
20
-2.66062869204504
30
0
41
1
10
10.4651481675267
20
-2.65955604020255
30
0
41
1
10
10.2033099029737
20
-2.57587567897335
30
0
41
1
10
9.94401858401068
20
-2.486031508319
30
0
41
1
10
9.42293561515783
20
-2.29268936769668
30
0
41
1
10
9.16335368977903
20
-2.19000897436322
30
0
41
1
10
8.38752357380642
20
-1.86674361875211
30
0
41
1
10
7.87352046505026
20
-1.63079953167926
30
0
41
1
10
6.84487366648153
20
-1.13005083613555
30
0
41
1
10
6.33042839726966
20
-0.864923311051342
30
0
41
1
10
5.55284082491809
20
-0.455246827443688
30
0
41
1
10
5.29210207739709
20
-0.316383951166955
30
0
41
1
10
4.77112910564557
20
-0.0380616437293213
30
0
41
1
10
4.51085121960105
20
0.10140431358974
30
0
41
1
10
4.25039600877824
20
0.240451604318395
30
0
0
SPLINE
5
DC
100
AcDbEntity
8
1
62
256
6
ByLayer
370
18
48
1
60
0
100
AcDbSpline
70
4
71
3
72
18
73
14
40
0
40
0
40
0
40
0
40
0.250000000000018
40
0.250000000000018
40
0.500000000000036
40
0.500000000000036
40
0.625000000000026
40
0.625000000000026
40
0.750000000000018
40
0.750000000000018
40
0.875000000000009
40
0.875000000000009
40
1
40
1
40
1
40
1
41
1
10
53.4814615207611
20
0.7406680808825
30
0
41
1
10
53.4742305161129
20
0.770150684234977
30
0
41
1
10
53.4706542455476
20
0.800372766935141
30
0
41
1
10
53.4718627406816
20
0.862716136993981
30
0
41
1
10
53.4766249946379
20
0.894330370010948
30
0
41
1
10
53.493102476646
20
0.939892595042494
30
0
41
1
10
53.5000820580717
20
0.954472611666972
30
0
41
1
10
53.5174398828337
20
0.981686929019617
30
0
41
1
10
53.5279336922302
20
0.994402206709196
30
0
41
1
10
53.5519151941555
20
1.01558693371877
30
0
41
1
10
53.5656585372145
20
1.02450157878971
30
0
41
1
10
53.5946106844176
20
1.03850966385781
30
0
41
1
10
53.6097668132892
20
1.04367872205739
30
0
41
1
10
53.6254480678455
20
1.0474362738708
30
0
0
SPLINE
5
DD
100
AcDbEntity
8
1
62
256
6
ByLayer
370
18
48
1
60
0
100
AcDbSpline
70
4
71
3
72
8
73
4
40
0
40
0
40
0
40
0
40
1
40
1
40
1
40
1
41
1
10
53.837649388432
20
-3.3171609118636
30
0
41
1
10
53.8184257169216
20
-3.32900284612424
30
0
41
1
10
53.8012538545239
20
-3.33497398859328
30
0
41
1
10
53.7861721843785
20
-3.33496451452663
30
0
0
SPLINE
5
DE
100
AcDbEntity
8
1
62
256
6
ByLayer
370
18
48
1
60
0
100
AcDbSpline
70
2053
71
3
72
62
73
58
40
0
40
0
40
0
40
0
40
0.0312499999999972
40
0.0312499999999972
40
0.0624999999999944
40
0.0624999999999944
40
0.0937499999999915
40
0.0937499999999915
40
0.124999999999989
40
0.124999999999989
40
0.156249999999986
40
0.156249999999986
40
0.187499999999983
40
0.187499999999983
40
0.21874999999998
40
0.21874999999998
40
0.249999999999977
40
0.249999999999977
40
0.281249999999975
40
0.281249999999975
40
0.312499999999972
40
0.312499999999972
40
0.374999999999969
40
0.374999999999969
40
0.437499999999967
40
0.437499999999967
40
0.468749999999968
40
0.468749999999968
40
0.49999999999997
40
0.49999999999997
40
0.531249999999971
40
0.531249999999971
40
0.562499999999972
40
0.562499999999972
40
0.593749999999973
40
0.593749999999973
40
0.624999999999975
40
0.624999999999975
40
0.656249999999976
40
0.656249999999976
40
0.687499999999977
40
0.687499999999977
40
0.718749999999979
40
0.718749999999979
40
0.74999999999998
40
0.74999999999998
40
0.781249999999981
40
0.781249999999981
40
0.812499999999982
40
0.812499999999982
40
0.874999999999988
40
0.874999999999988
40
0.937499999999994
40
0.937499999999994
40
0.968749999999997
40
0.968749999999997
40
1
40
1
40
1
40
1
41
1
10
54.1883794227088
20
-1.80268571795773
30
0
41
1
10
54.2082168565969
20
-1.77379389785597
30
0
41
1
10
54.2276099734434
20
-1.74291754725496
30
0
41
1
10
54.2654392183139
20
-1.6768904803761
30
0
41
1
10
54.2840753925116
20
-1.64131671861333
30
0
41
1
10
54.3191173969877
20
-1.5672894368447
30
0
41
1
10
54.3354603336982
20
-1.52906724445484
30
0
41
1
10
54.3654573592257
20
-1.44986442977998
30
0
41
1
10
54.378824407357
20
-1.40949886375219
30
0
41
1
10
54.4009974529936
20
-1.33049054190184
30
0
41
1
10
54.4100803109959
20
-1.29072096986224
30
0
41
1
10
54.4227991243253
20
-1.21609059737995
30
0
41
1
10
54.4265620884423
20
-1.18093483326834
30
0
41
1
10
54.4288903556184
20
-1.11597583729701
30
0
41
1
10
54.427449825218
20
-1.08717886829629
30
0
41
1
10
54.419946587173
20
-1.03611986215216
30
0
41
1
10
54.4138933683383
20
-1.01427863704617
30
0
41
1
10
54.3981354580515
20
-0.978132588547908
30
0
41
1
10
54.388289967428
20
-0.963566710345759
30
0
41
1
10
54.3658664668497
20
-0.94170724973813
30
0
41
1
10
54.3532573381191
20
-0.93425704076256
30
0
41
1
10
54.3116071587344
20
-0.921425302959165
30
0
41
1
10
54.2797295159479
20
-0.925672771936974
30
0
41
1
10
54.2096999686311
20
-0.956813051944891
30
0
41
1
10
54.1726468214816
20
-0.983190454813865
30
0
41
1
10
54.1144985977422
20
-1.03867169786352
30
0
41
1
10
54.0946502891926
20
-1.05994657577082
30
0
41
1
10
54.0553560872775
20
-1.10680750281895
30
0
41
1
10
54.0357413342425
20
-1.13253880210331
30
0
41
1
10
53.9965825690641
20
-1.18903304293002
30
0
41
1
10
53.9768196694347
20
-1.22018019199226
30
0
41
1
10
53.9386338526065
20
-1.28639088329851
30
0
41
1
10
53.9202389207421
20
-1.32132156484471
30
0
41
1
10
53.885041963241
20
-1.39534866805118
30
0
41
1
10
53.8683357794972
20
-1.43437694116412
30
0
41
1
10
53.8386336825722
20
-1.51274664663785
30
0
41
1
10
53.8252842071488
20
-1.55293789482673
30
0
41
1
10
53.8027772563919
20
-1.63329687051669
30
0
41
1
10
53.7939668629645
20
-1.67210886577595
30
0
41
1
10
53.7812160114041
20
-1.7470069549363
30
0
41
1
10
53.7774118868471
20
-1.782762370146
30
0
41
1
10
53.7750402986646
20
-1.84731903724449
30
0
41
1
10
53.7764415980831
20
-1.8769065447062
30
0
41
1
10
53.783768527479
20
-1.92809459232333
30
0
41
1
10
53.7897156093396
20
-1.95021846837781
30
0
41
1
10
53.8053715491241
20
-1.98704993713989
30
0
41
1
10
53.8149703898186
20
-2.0016538393285
30
0
41
1
10
53.8372950754335
20
-2.0241307092079
30
0
41
1
10
53.8500167879665
20
-2.03189645226436
30
0
41
1
10
53.8912906585159
20
-2.04522366441157
30
0
41
1
10
53.9237071769012
20
-2.04107780481203
30
0
41
1
10
53.9932438914389
20
-2.01010402210952
30
0
41
1
10
54.0312251395357
20
-1.98285790255423
30
0
41
1
10
54.0891711089953
20
-1.92703791621608
30
0
41
1
10
54.1087245884807
20
-1.90591956575878
30
0
41
1
10
54.1483418722698
20
-1.8583007828814
30
0
41
1
10
54.1685419888206
20
-1.83157753805949
30
0
41
1
10
54.1883794227087
20
-1.80268571795773
30
0
0
SPLINE
5
DF
100
AcDbEntity
8
1
62
256
6
ByLayer
370
18
48
1
60
0
100
AcDbSpline
70
4
71
3
72
18
73
14
40
0
40
0
40
0
40
0
40
0.25
40
0.25
40
0.375
40
0.375
40
0.5
40
0.5
40
0.75
40
0.75
40
0.875
40
0.875
40
1
40
1
40
1
40
1
41
1
10
54.512666010224
20
-1.72893381081337
30
0
41
1
10
54.4603002538776
20
-1.87038512552491
30
0
41
1
10
54.407824039801
20
-2.01173887227938
30
0
41
1
10
54.3284950345871
20
-2.22322653836244
30
0
41
1
10
54.3019552183809
20
-2.29363691027257
30
0
41
1
10
54.2485936131162
20
-2.43420858582815
30
0
41
1
10
54.2217555768784
20
-2.50435553824556
30
0
41
1
10
54.1411869120646
20
-2.7147482057762
30
0
41
1
10
54.0872886058272
20
-2.85483862900739
30
0
41
1
10
54.0060650053396
20
-3.06150542082511
30
0
41
1
10
53.9789023220848
20
-3.12975027136216
30
0
41
1
10
53.9245502549891
20
-3.26604488040502
30
0
41
1
10
53.8973361573456
20
-3.33391406362935
30
0
41
1
10
53.8700312607925
20
-3.40111981034704
30
0
0
SPLINE
5
E0
100
AcDbEntity
8
1
62
256
6
ByLayer
370
18
48
1
60
0
100
AcDbSpline
70
4
71
3
72
20
73
16
40
0
40
0
40
0
40
0
40
0.125000000000002
40
0.125000000000002
40
0.187500000000003
40
0.187500000000003
40
0.250000000000004
40
0.250000000000004
40
0.500000000000002
40
0.500000000000002
40
0.625000000000002
40
0.625000000000002
40
0.750000000000001
40
0.750000000000001
40
1
40
1
40
1
40
1
41
1
10
50.9722123367661
20
1.06956769754785
30
0
41
1
10
51.0158653207566
20
0.922825219020979
30
0
41
1
10
51.0708486552662
20
0.777519721524726
30
0
41
1
10
51.1678097121564
20
0.561398681144311
30
0
41
1
10
51.2025604014218
20
0.489666563837204
30
0
41
1
10
51.2766528235408
20
0.346784592104882
30
0
41
1
10
51.3159394264618
20
0.275787520895648
30
0
41
1
10
51.5193572303462
20
-0.0715732092463668
30
0
41
1
10
51.7065710469226
20
-0.330902053209229
30
0
41
1
10
52.013691214736
20
-0.699955803954936
30
0
41
1
10
52.1198847593343
20
-0.81868917897566
30
0
41
1
10
52.3358226806384
20
-1.04569795578175
30
0
41
1
10
52.4460423935157
20
-1.15452918643186
30
0
41
1
10
52.7825913031051
20
-1.46879415391288
30
0
41
1
10
53.0147293925196
20
-1.66216709095306
30
0
41
1
10
53.2535548292451
20
-1.84165532376772
30
0
0
SPLINE
5
E1
100
AcDbEntity
8
1
62
256
6
ByLayer
370
18
48
1
60
0
100
AcDbSpline
70
4
71
3
72
16
73
12
40
0
40
0
40
0
40
0
40
0.023848128721629
40
0.023848128721629
40
0.411671738611486
40
0.411671738611486
40
0.799495348501343
40
0.799495348501343
40
0.993407153446272
40
0.993407153446272
40
1
40
1
40
1
40
1
41
1
10
33.8068388392765
20
-3.32315786905409
30
0
41
1
10
33.7748504362295
20
-3.32315617075886
30
0
41
1
10
33.7428753528271
20
-3.32302112468233
30
0
41
1
10
33.1913732094379
20
-3.31838822936493
30
0
41
1
10
32.6762878110011
20
-3.27888512844891
30
0
41
1
10
31.6484159462668
20
-3.13332139792811
30
0
41
1
10
31.1352812034913
20
-3.02737825550074
30
0
41
1
10
30.361873280668
20
-2.82213046023844
30
0
41
1
10
30.1034474418266
20
-2.74598911324799
30
0
41
1
10
29.835049828751
20
-2.659626032734
30
0
41
1
10
29.8262232126771
20
-2.65677763918174
30
0
41
1
10
29.8173952945413
20
-2.65392062653092
30
0
0
SPLINE
5
E2
100
AcDbEntity
8
1
62
256
6
ByLayer
370
13
48
1
60
0
100
AcDbSpline
70
4
71
3
72
22
73
18
40
0
40
0
40
0
40
0
40
0.078947380367919
40
0.078947380367919
40
0.242399378463788
40
0.242399378463788
40
0.324125377511724
40
0.324125377511724
40
0.405851376559659
40
0.405851376559659
40
0.732755372751393
40
0.732755372751393
40
0.814481371799325
40
0.814481371799325
40
0.896207370847258
40
0.896207370847258
40
1
40
1
40
1
40
1
41
1
10
29.8173952949187
20
-2.6539206266531
30
0
41
1
10
29.5665724648564
20
-2.57274588221995
30
0
41
1
10
29.3146985224832
20
-2.48461321860339
30
0
41
1
10
28.5424158239359
20
-2.19596684346015
30
0
41
1
10
28.0236612078921
20
-1.97692845750964
30
0
41
1
10
27.244443698151
20
-1.61968825408439
30
0
41
1
10
26.9837769222331
20
-1.49561933557453
30
0
41
1
10
26.4640703037985
20
-1.24114011918067
30
0
41
1
10
26.2053715134165
20
-1.11074086785925
30
0
41
1
10
24.9150727663834
20
-0.447733496658799
30
0
41
1
10
23.8928219465761
20
0.117500883652923
30
0
41
1
10
22.5927555608853
20
0.801961831077392
30
0
41
1
10
22.3324973556676
20
0.937121718935799
30
0
41
1
10
21.8149641522096
20
1.19993762531297
30
0
41
1
10
21.5571177859029
20
1.32812005006636
30
0
41
1
10
20.9728378871722
20
1.6100972824365
30
0
41
1
10
20.6466100004829
20
1.76132769047462
30
0
41
1
10
20.3201682469513
20
1.9046227420707
30
0
0
SPLINE
5
E3
100
AcDbEntity
8
1
62
256
6
ByLayer
370
13
48
1
60
0
100
AcDbSpline
70
4
71
3
72
10
73
6
40
0
40
0
40
0
40
0
40
0.5
40
0.5
40
1
40
1
40
1
40
1
41
1
10
4.01504868768444
20
0.369614102561172
30
0
41
1
10
4.02488254371977
20
0.351504757432707
30
0
41
1
10
4.0391376850618
20
0.334816000299895
30
0
41
1
10
4.07765655452113
20
0.304494159512245
30
0
41
1
10
4.10102431897798
20
0.291614600419393
30
0
41
1
10
4.12872773895484
20
0.281595894672449
30
0
0
SPLINE
5
E4
100
AcDbEntity
8
1
62
256
6
ByLayer
370
18
48
1
60
0
100
AcDbSpline
70
4
71
3
72
70
73
66
40
0
40
0
40
0
40
0
40
0.0325679881116781
40
0.0325679881116781
40
0.0651359762233562
40
0.0651359762233562
40
0.0977039643350343
40
0.0977039643350343
40
0.130271952446712
40
0.130271952446712
40
0.162839940558391
40
0.162839940558391
40
0.195407928670069
40
0.195407928670069
40
0.227975916781747
40
0.227975916781747
40
0.260543904893425
40
0.260543904893425
40
0.293111893005103
40
0.293111893005103
40
0.325679881116781
40
0.325679881116781
40
0.358247869228459
40
0.358247869228459
40
0.390815857340137
40
0.390815857340137
40
0.423383845451816
40
0.423383845451816
40
0.455951833563494
40
0.455951833563494
40
0.488519821675172
40
0.488519821675172
40
0.52108780978685
40
0.52108780978685
40
0.553655797898528
40
0.553655797898528
40
0.569939791954367
40
0.569939791954367
40
0.586223786010207
40
0.586223786010207
40
0.618791774121886
40
0.618791774121886
40
0.651359762233564
40
0.651359762233564
40
0.683927750345243
40
0.683927750345243
40
0.716495738456922
40
0.716495738456922
40
0.749063726568601
40
0.749063726568601
40
0.78163171468028
40
0.78163171468028
40
0.814199702791959
40
0.814199702791959
40
0.846767690903638
40
0.846767690903638
40
0.879335679015317
40
0.879335679015317
40
0.911903667126996
40
0.911903667126996
40
0.944471655238675
40
0.944471655238675
40
0.977039643350354
40
0.977039643350354
40
1
40
1
40
1
40
1
41
1
10
7.33378975859273
20
2.96541974681389
30
0
41
1
10
7.5638016333011
20
2.910864778741
30
0
41
1
10
7.7930068121226
20
2.85002481767228
30
0
41
1
10
8.25003292515734
20
2.71765925837539
30
0
41
1
10
8.47785300455652
20
2.6462576683453
30
0
41
1
10
8.93231590998454
20
2.49255542714849
30
0
41
1
10
9.15918042600896
20
2.41033258096405
30
0
41
1
10
9.61324536581645
20
2.23715733917484
30
0
41
1
10
9.84026869112975
20
2.14618666974462
30
0
41
1
10
10.2943145123113
20
1.95536860546946
30
0
41
1
10
10.5212993846146
20
1.85519259186654
30
0
41
1
10
10.9771334874687
20
1.64795448609581
30
0
41
1
10
11.2057151790785
20
1.54080520759572
30
0
41
1
10
11.6640933485608
20
1.31966261781508
30
0
41
1
10
11.8943025451775
20
1.20460160785575
30
0
41
1
10
12.352388318265
20
0.972279154960148
30
0
41
1
10
12.5808388110339
20
0.854731433347411
30
0
41
1
10
13.036568389837
20
0.616967530037869
30
0
41
1
10
13.2636833176476
20
0.496414395962915
30
0
41
1
10
13.7173993669244
20
0.25375003663612
30
0
41
1
10
13.9443812874263
20
0.13239061557266
30
0
41
1
10
14.3984142092367
20
-0.110654881441292
30
0
41
1
10
14.6253910435095
20
-0.232466252669042
30
0
41
1
10
15.0798299479708
20
-0.475778305101215
30
0
41
1
10
15.3076514578769
20
-0.59656277617475
30
0
41
1
10
15.764883565792
20
-0.835565573716337
30
0
41
1
10
15.9943701922692
20
-0.95436396408158
30
0
41
1
10
16.4538168157657
20
-1.18847107460155
30
0
41
1
10
16.6822511008555
20
-1.30249917111121
30
0
41
1
10
17.1385774718451
20
-1.52346136043891
30
0
41
1
10
17.3662258947822
20
-1.63089927909775
30
0
41
1
10
17.8203959052603
20
-1.83962411658172
30
0
41
1
10
18.0467453411974
20
-1.94005067556921
30
0
41
1
10
18.5000503895248
20
-2.13161078225195
30
0
41
1
10
18.7268492991322
20
-2.22308086963332
30
0
41
1
10
19.0671148122037
20
-2.3547289859857
30
0
41
1
10
19.180544020419
20
-2.39766021285985
30
0
41
1
10
19.4075392647694
20
-2.48072913232215
30
0
41
1
10
19.5210933444806
20
-2.52085334433568
30
0
41
1
10
19.8623829268839
20
-2.6371481819088
30
0
41
1
10
20.0907689053495
20
-2.70937438122471
30
0
41
1
10
20.5488968559399
20
-2.84424019284569
30
0
41
1
10
20.7790724023233
20
-2.90735054588461
30
0
41
1
10
21.2360238922649
20
-3.01784362516642
30
0
41
1
10
21.4638576866771
20
-3.06598897076574
30
0
41
1
10
21.9187259423885
20
-3.15087647372326
30
0
41
1
10
22.1456813221216
20
-3.18822736187414
30
0
41
1
10
22.5985455046069
20
-3.24887794323729
30
0
41
1
10
22.8246781365722
20
-3.27112302779412
30
0
41
1
10
23.2777099262246
20
-3.30327827850769
30
0
41
1
10
23.5043701685181
20
-3.31343845531671
30
0
41
1
10
23.957910003624
20
-3.32143193933484
30
0
41
1
10
24.1848145912104
20
-3.31774371063992
30
0
41
1
10
24.6408270168127
20
-3.29627155037855
30
0
41
1
10
24.8696582096446
20
-3.27910511988523
30
0
41
1
10
25.3287113582021
20
-3.23273713064893
30
0
41
1
10
25.5569732186699
20
-3.20227278200139
30
0
41
1
10
26.0122371378856
20
-3.12746749071405
30
0
41
1
10
26.2394711692288
20
-3.08401820352546
30
0
41
1
10
26.6930237416431
20
-2.98623755935745
30
0
41
1
10
26.9192442304865
20
-2.93157286551917
30
0
41
1
10
27.3712460489899
20
-2.80857885985117
30
0
41
1
10
27.5974675940564
20
-2.74135015805993
30
0
41
1
10
27.9835274892241
20
-2.61834307663986
30
0
41
1
10
28.1432034366815
20
-2.56522688716595
30
0
41
1
10
28.3030254752581
20
-2.50918388773309
30
0
0
SPLINE
5
E5
100
AcDbEntity
8
1
62
256
6
ByLayer
370
18
48
1
60
0
100
AcDbSpline
70
4
71
3
72
30
73
26
40
0
40
0
40
0
40
0
40
0.0225647790008449
40
0.0225647790008449
40
0.111422526364405
40
0.111422526364405
40
0.200280273727964
40
0.200280273727964
40
0.289138021091523
40
0.289138021091523
40
0.377995768455083
40
0.377995768455083
40
0.466853515818643
40
0.466853515818643
40
0.555711263182203
40
0.555711263182203
40
0.644569010545762
40
0.644569010545762
40
0.733426757909322
40
0.733426757909322
40
0.822284505272881
40
0.822284505272881
40
0.91114225263644
40
0.91114225263644
40
1
40
1
40
1
40
1
41
1
10
43.3196290844822
20
3.32896911566036
30
0
41
1
10
43.3775538481989
20
3.32906813349015
30
0
41
1
10
43.4354143025646
20
3.32872817625702
30
0
41
1
10
43.720713626588
20
3.32474393988167
30
0
41
1
10
43.9470921296792
20
3.31385999187225
30
0
41
1
10
44.3997142655883
20
3.27826094649396
30
0
41
1
10
44.6258147188132
20
3.25374132423571
30
0
41
1
10
45.0776333341357
20
3.19200382635148
30
0
41
1
10
45.3032216791077
20
3.15466256730468
30
0
41
1
10
45.754804014992
20
3.06808943654559
30
0
41
1
10
45.9810638433356
20
3.01923001661214
30
0
41
1
10
46.4343099273266
20
2.90972984419619
30
0
41
1
10
46.66130425871
20
2.84878835023488
30
0
41
1
10
47.1166665264111
20
2.71328027632904
30
0
41
1
10
47.3460762525201
20
2.63923661039817
30
0
41
1
10
47.803021283855
20
2.48185467405756
30
0
41
1
10
48.0306365136151
20
2.39830086748074
30
0
41
1
10
48.4842608445545
20
2.22149216467898
30
0
41
1
10
48.7103926201349
20
2.12841283565734
30
0
41
1
10
49.1627393615379
20
1.93556002472772
30
0
41
1
10
49.3887298967914
20
1.83547711666574
30
0
41
1
10
49.8403916867491
20
1.62757713575147
30
0
41
1
10
50.0659391881084
20
1.51945552953407
30
0
41
1
10
50.5183552596123
20
1.29851627438015
30
0
41
1
10
50.7449851875541
20
1.18555364234661
30
0
41
1
10
50.9722123367665
20
1.06956769754814
30
0
0
SPLINE
5
E6
100
AcDbEntity
8
1
62
256
6
ByLayer
370
18
48
1
60
0
100
AcDbSpline
70
4
71
3
72
10
73
6
40
0
40
0
40
0
40
0
40
0.873390344918303
40
0.873390344918303
40
1
40
1
40
1
40
1
41
1
10
12.0884586673007
20
-3.37355887391385
30
0
41
1
10
12.5271741119752
20
-3.43363784149275
30
0
41
1
10
12.9648525146684
20
-3.46648739729295
30
0
41
1
10
13.4620590497331
20
-3.47524657168762
30
0
41
1
10
13.524945688471
20
-3.47580634921303
30
0
41
1
10
13.5878019219013
20
-3.47582133459207
30
0
0
SPLINE
5
E7
100
AcDbEntity
8
1
62
256
6
ByLayer
370
18
48
1
60
0
100
AcDbSpline
70
4
71
3
72
82
73
78
40
0
40
0
40
0
40
0
40
0.0059789859774704
40
0.0059789859774704
40
0.0330330651916451
40
0.0330330651916451
40
0.0600871444058198
40
0.0600871444058198
40
0.0871412236199944
40
0.0871412236199944
40
0.114195302834169
40
0.114195302834169
40
0.141249382048344
40
0.141249382048344
40
0.168303461262518
40
0.168303461262518
40
0.195357540476693
40
0.195357540476693
40
0.20888458008378
40
0.20888458008378
40
0.222411619690867
40
0.222411619690867
40
0.249465698905041
40
0.249465698905041
40
0.276519778119216
40
0.276519778119216
40
0.30357385733339
40
0.30357385733339
40
0.330627936547565
40
0.330627936547565
40
0.35768201576174
40
0.35768201576174
40
0.384736094975914
40
0.384736094975914
40
0.398263134583002
40
0.398263134583002
40
0.41179017419009
40
0.41179017419009
40
0.465898332618441
40
0.465898332618441
40
0.492952411832618
40
0.492952411832618
40
0.520006491046794
40
0.520006491046794
40
0.547060570260969
40
0.547060570260969
40
0.574114649475145
40
0.574114649475145
40
0.601168728689321
40
0.601168728689321
40
0.628222807903497
40
0.628222807903497
40
0.655276887117673
40
0.655276887117673
40
0.682330966331849
40
0.682330966331849
40
0.709385045546025
40
0.709385045546025
40
0.736439124760201
40
0.736439124760201
40
0.763493203974377
40
0.763493203974377
40
0.790547283188553
40
0.790547283188553
40
0.844655441616904
40
0.844655441616904
40
0.87170952083108
40
0.87170952083108
40
0.898763600045256
40
0.898763600045256
40
0.925817679259432
40
0.925817679259432
40
0.952871758473608
40
0.952871758473608
40
0.979925837687784
40
0.979925837687784
40
1
40
1
40
1
40
1
41
1
10
28.2728830950267
20
2.51624481165453
30
0
41
1
10
28.3210388010637
20
2.53497426644762
30
0
41
1
10
28.3692148903172
20
2.55349494282458
30
0
41
1
10
28.6354787443171
20
2.65468276469346
30
0
41
1
10
28.8535326826033
20
2.73376328627447
30
0
41
1
10
29.29201962992
20
2.8811705245696
30
0
41
1
10
29.511874375548
20
2.94893438489331
30
0
41
1
10
29.9490438361559
20
3.07283460237292
30
0
41
1
10
30.1668176939544
20
3.12911680206309
30
0
41
1
10
30.6004593132785
20
3.23041142801426
30
0
41
1
10
30.8171850323105
20
3.27475665751865
30
0
41
1
10
31.250989958547
20
3.35092613941129
30
0
41
1
10
31.4678826842476
20
3.3828865574219
30
0
41
1
10
31.9011398272582
20
3.43462514009912
30
0
41
1
10
32.1173228197887
20
3.45435544443475
30
0
41
1
10
32.5520844781061
20
3.48056909146877
30
0
41
1
10
32.7702130262673
20
3.487258748096
30
0
41
1
10
33.0981544132515
20
3.48757677829016
30
0
41
1
10
33.2075964074552
20
3.48605727645574
30
0
41
1
10
33.4266644793723
20
3.47966939266416
30
0
41
1
10
33.5363436310849
20
3.47477255271914
30
0
41
1
10
33.864785124855
20
3.45523943766597
30
0
41
1
10
34.0834481485008
20
3.43583099866973
30
0
41
1
10
34.5194447230754
20
3.38454116671082
30
0
41
1
10
34.7367937063757
20
3.35265165061628
30
0
41
1
10
35.1698013480267
20
3.27599934177306
30
0
41
1
10
35.3862678284651
20
3.23166185163709
30
0
41
1
10
35.8199016240815
20
3.13183217656385
30
0
41
1
10
36.0368461618153
20
3.07621115029477
30
0
41
1
10
36.4704897007045
20
2.95294962549747
30
0
41
1
10
36.6869529752167
20
2.88497927461927
30
0
41
1
10
37.1225355822146
20
2.73966094168461
30
0
41
1
10
37.3412219498028
20
2.66195632746482
30
0
41
1
10
37.6702221677038
20
2.53724749557458
30
0
41
1
10
37.7801950135079
20
2.49425857879268
30
0
41
1
10
37.9992518712173
20
2.40585053530552
30
0
41
1
10
38.1083762390209
20
2.36032218830883
30
0
41
1
10
38.6537742488136
20
2.12856433540384
30
0
41
1
10
39.0893615472825
20
1.93031761827314
30
0
41
1
10
39.7381807634105
20
1.60887769545462
30
0
41
1
10
39.9544676844635
20
1.49886627489781
30
0
41
1
10
40.3881148908197
20
1.27495163152113
30
0
41
1
10
40.6052119923631
20
1.16063353465392
30
0
41
1
10
41.0394601992788
20
0.926332531856986
30
0
41
1
10
41.2563297467357
20
0.805802585756965
30
0
41
1
10
41.6929646680696
20
0.563992365777807
30
0
41
1
10
41.9128304669318
20
0.441747031131598
30
0
41
1
10
42.3517623359218
20
0.195449848012601
30
0
41
1
10
42.5698085336838
20
0.0712343772174791
30
0
41
1
10
43.0047376416424
20
-0.176190069098851
30
0
41
1
10
43.2222196625606
20
-0.298311909043775
30
0
41
1
10
43.6564259443323
20
-0.540936283458677
30
0
41
1
10
43.8731927943953
20
-0.661359647928407
30
0
41
1
10
44.3055149232596
20
-0.901322621394513
30
0
41
1
10
44.5217263813357
20
-1.01969516784396
30
0
41
1
10
44.9555848078223
20
-1.25096830123218
30
0
41
1
10
45.172927852179
20
-1.36440323157711
30
0
41
1
10
45.6079576175091
20
-1.5876253334614
30
0
41
1
10
45.8253220781316
20
-1.69791966743173
30
0
41
1
10
46.2631834650578
20
-1.91017109419934
30
0
41
1
10
46.4834823849175
20
-2.0128092940308
30
0
41
1
10
46.9208858402425
20
-2.20953684732345
30
0
41
1
10
47.1383499669271
20
-2.30429076187471
30
0
41
1
10
47.7891104471793
20
-2.57468170965657
30
0
41
1
10
48.2234164400428
20
-2.73350128239537
30
0
41
1
10
48.871932595106
20
-2.9442140989081
30
0
41
1
10
49.0881781501372
20
-3.00913919864479
30
0
41
1
10
49.5224801787534
20
-3.12694348365184
30
0
41
1
10
49.7401887054806
20
-3.18018269711484
30
0
41
1
10
50.1762448740994
20
-3.27547611098905
30
0
41
1
10
50.3944346653062
20
-3.31770808574814
30
0
41
1
10
50.833338662506
20
-3.38873279168465
30
0
41
1
10
51.0521980013606
20
-3.41757852582958
30
0
41
1
10
51.4882205655729
20
-3.46258096355208
30
0
41
1
10
51.7051542526623
20
-3.4787583848335
30
0
41
1
10
52.0821300533676
20
-3.49557000498225
30
0
41
1
10
52.242842557637
20
-3.49910967987549
30
0
41
1
10
52.4035527344349
20
-3.49912356022858
30
0
0
SPLINE
5
E8
100
AcDbEntity
8
1
62
256
6
ByLayer
370
18
48
1
60
0
100
AcDbSpline
70
4
71
3
72
18
73
14
40
0
40
0
40
0
40
0
40
0.249999999999996
40
0.249999999999996
40
0.374999999999997
40
0.374999999999997
40
0.499999999999999
40
0.499999999999999
40
0.749999999999995
40
0.749999999999995
40
0.874999999999998
40
0.874999999999998
40
1
40
1
40
1
40
1
41
1
10
54.512666010224
20
1.7289338108134
30
0
41
1
10
54.4603002538771
20
1.87038512552627
30
0
41
1
10
54.4078240398
20
2.01173887228208
30
0
41
1
10
54.3284950345853
20
2.22322653836713
30
0
41
1
10
54.301955218379
20
2.29363691027791
30
0
41
1
10
54.2485936131136
20
2.43420858583482
30
0
41
1
10
54.2217555768756
20
2.5043555382529
30
0
41
1
10
54.1411869120611
20
2.71474820578553
30
0
41
1
10
54.0872886058231
20
2.85483862901802
30
0
41
1
10
54.0060650053346
20
3.06150542083745
30
0
41
1
10
53.9789023220796
20
3.12975027137512
30
0
41
1
10
53.9245502549834
20
3.2660448804192
30
0
41
1
10
53.8973361573397
20
3.3339140636441
30
0
41
1
10
53.8700312607863
20
3.40111981036233
30
0
0
SPLINE
5
E9
100
AcDbEntity
8
1
62
256
6
ByLayer
370
18
48
1
60
0
100
AcDbSpline
70
4
71
3
72
60
73
56
40
0
40
0
40
0
40
0
40
0.0625000000000162
40
0.0625000000000162
40
0.125000000000032
40
0.125000000000032
40
0.250000000000065
40
0.250000000000065
40
0.375000000000097
40
0.375000000000097
40
0.500000000000129
40
0.500000000000129
40
0.562500000000146
40
0.562500000000146
40
0.625000000000162
40
0.625000000000162
40
0.65625000000017
40
0.65625000000017
40
0.66015625000017
40
0.66015625000017
40
0.66406250000017
40
0.66406250000017
40
0.66601562500017
40
0.66601562500017
40
0.66796875000017
40
0.66796875000017
40
0.671875000000168
40
0.671875000000168
40
0.687500000000161
40
0.687500000000161
40
0.718750000000144
40
0.718750000000144
40
0.734375000000137
40
0.734375000000137
40
0.750000000000129
40
0.750000000000129
40
0.765625000000121
40
0.765625000000121
40
0.773437500000117
40
0.773437500000117
40
0.781250000000113
40
0.781250000000113
40
0.796875000000105
40
0.796875000000105
40
0.812500000000097
40
0.812500000000097
40
0.843750000000081
40
0.843750000000081
40
0.875000000000065
40
0.875000000000065
40
0.906250000000048
40
0.906250000000048
40
0.937500000000032
40
0.937500000000032
40
1
40
1
40
1
40
1
41
1
10
12.0889720604796
20
-3.37363437587692
30
0
41
1
10
11.8251916994301
20
-3.33775357534944
30
0
41
1
10
11.5596591626246
20
-3.29352978027268
30
0
41
1
10
11.0245768192233
20
-3.19122913137591
30
0
41
1
10
10.7544383885214
20
-3.132993162107
30
0
41
1
10
9.94170132934568
20
-2.94293107156687
30
0
41
1
10
9.39712148138688
20
-2.79585918960089
30
0
41
1
10
8.29477453792498
20
-2.48921597971798
30
0
41
1
10
7.73693152318515
20
-2.3297789513947
30
0
41
1
10
6.60146495275018
20
-2.02846428606247
30
0
41
1
10
6.02382992807287
20
-1.88676404412368
30
0
41
1
10
5.13968027416701
20
-1.70726293227489
30
0
41
1
10
4.84251210464754
20
-1.65301185975173
30
0
41
1
10
4.2460806341798
20
-1.55852124188706
30
0
41
1
10
3.94624978471896
20
-1.51817034985436
30
0
41
1
10
3.49460552016515
20
-1.46936210194093
30
0
41
1
10
3.34380101122943
20
-1.45504757608174
30
0
41
1
10
3.17389468511112
20
-1.44124111676925
30
0
41
1
10
3.1550446339628
20
-1.43929798061646
30
0
41
1
10
3.11719897528084
20
-1.43750259718206
30
0
41
1
10
3.09792110551945
20
-1.43844685417574
30
0
41
1
10
3.07025731068353
20
-1.44401929196599
30
0
41
1
10
3.06115624547655
20
-1.44657927858083
30
0
41
1
10
3.04375343974451
20
-1.45399164172562
30
0
41
1
10
3.03535067729749
20
-1.45819244934364
30
0
41
1
10
3.00980935521125
20
-1.47022815551944
30
0
41
1
10
2.99284782836509
20
-1.47834724915506
30
0
41
1
10
2.90838552038096
20
-1.51943823320909
30
0
41
1
10
2.84180115731624
20
-1.55395575901267
30
0
41
1
10
2.64744390247813
20
-1.66238187454974
30
0
41
1
10
2.5245554325482
20
-1.74107350575505
30
0
41
1
10
2.35641429089136
20
-1.87368383269103
30
0
41
1
10
2.30281150656884
20
-1.92071217948251
30
0
41
1
10
2.20594048222353
20
-2.0184950958492
30
0
41
1
10
2.16238069662603
20
-2.06939821155987
30
0
41
1
10
2.08793986059891
20
-2.17615185799414
30
0
41
1
10
2.05789408908424
20
-2.23111616625755
30
0
41
1
10
2.02630604333302
20
-2.31346406039034
30
0
41
1
10
2.01794268486839
20
-2.3410129136368
30
0
41
1
10
2.00577610806721
20
-2.39627535818278
30
0
41
1
10
2.00198191219371
20
-2.42419670470809
30
0
41
1
10
1.9978423538065
20
-2.50587458675793
30
0
41
1
10
2.00446338118797
20
-2.55795765387805
30
0
41
1
10
2.03381157388657
20
-2.65771603572003
30
0
41
1
10
2.05642807792685
20
-2.70464944034904
30
0
41
1
10
2.14054392278996
20
-2.83467411850941
30
0
41
1
10
2.21954567676281
20
-2.90953955097808
30
0
41
1
10
2.39660557886907
20
-3.03750999926456
30
0
41
1
10
2.49539276340022
20
-3.09155611196698
30
0
41
1
10
2.70570015397107
20
-3.18619641740159
30
0
41
1
10
2.8169913655955
20
-3.2264575996092
30
0
41
1
10
3.04434597078136
20
-3.29548367159532
30
0
41
1
10
3.16103458518535
20
-3.3244611623071
30
0
41
1
10
3.51758550890332
20
-3.39830995085421
30
0
41
1
10
3.76380144076288
20
-3.43027433588702
30
0
41
1
10
4.01547559605092
20
-3.44924953479415
30
0
0
SPLINE
5
EA
100
AcDbEntity
8
1
62
256
6
ByLayer
370
18
48
1
60
0
100
AcDbSpline
70
4
71
3
72
16
73
12
40
0
40
0
40
0
40
0
40
0.1223636183159
40
0.1223636183159
40
0.279998188139494
40
0.279998188139494
40
0.437632757963087
40
0.437632757963087
40
0.752901897610275
40
0.752901897610275
40
1
40
1
40
1
40
1
41
1
10
12.0887113708001
20
3.37366063430753
30
0
41
1
10
11.991058826505
20
3.334338273008
30
0
41
1
10
11.8933343270742
20
3.29378020158126
30
0
41
1
10
11.6694454107303
20
3.19799173982696
30
0
41
1
10
11.5431932850418
20
3.14191222876553
30
0
41
1
10
11.2899352134991
20
3.02536758353233
30
0
41
1
10
11.1626526830656
20
2.96476337115806
30
0
41
1
10
10.7808770785588
20
2.77751293569963
30
0
41
1
10
10.528893426537
20
2.64651763116095
30
0
41
1
10
10.0807063304205
20
2.40771047174297
30
0
41
1
10
9.88421060415288
20
2.30103406614367
30
0
41
1
10
9.68689992165196
20
2.19495795357562
30
0
0
SPLINE
5
EB
100
AcDbEntity
8
1
62
256
6
ByLayer
370
18
48
1
60
0
100
AcDbSpline
70
4
71
3
72
10
73
6
40
0
40
0
40
0
40
0
40
0.5
40
0.5
40
1
40
1
40
1
40
1
41
1
10
4.04250683604528
20
0.283372447054376
30
0
41
1
10
4.0530857152591
20
0.267124890621915
30
0
41
1
10
4.06585758353043
20
0.251606197072618
30
0
41
1
10
4.09466225167887
20
0.224104874828754
30
0
41
1
10
4.11073021474459
20
0.211952891499209
30
0
41
1
10
4.12872773895484
20
0.201644220066754
30
0
0
SPLINE
5
EC
100
AcDbEntity
8
SK1
62
256
6
ByLayer
370
18
48
1
60
0
100
AcDbSpline
70
4
71
3
72
14
73
10
40
0
40
0
40
0
40
0
40
0.500000000000001
40
0.500000000000001
40
0.75
40
0.75
40
0.875
40
0.875
40
1
40
1
40
1
40
1
41
1
10
-35.25
20
2.17018640113102
30
0
41
1
10
-35.2287404812744
20
2.1994674459921
30
0
41
1
10
-35.208362723075
20
2.23270876924826
30
0
41
1
10
-35.1802905070704
20
2.28909943789873
30
0
41
1
10
-35.1714466180788
20
2.30881648536686
30
0
41
1
10
-35.1602396792677
20
2.33988816135312
30
0
41
1
10
-35.1568594217207
20
2.35051712730353
30
0
41
1
10
-35.1517495297274
20
2.37142417379505
30
0
41
1
10
-35.15
20
2.38189728112826
30
0
41
1
10
-35.15
20
2.39073894230768
30
0
0
SPLINE
5
ED
100
AcDbEntity
8
SK1
62
256
6
ByLayer
370
18
48
1
60
0
100
AcDbSpline
70
4
71
3
72
8
73
4
40
0
40
0
40
0
40
0
40
1
40
1
40
1
40
1
41
1
10
-35.25
20
3.45312157038381
30
0
41
1
10
-35.5038880941382
20
3.10343779954633
30
0
41
1
10
-35.7559775883504
20
2.75300757855842
30
0
41
1
10
-36
20
2.39922937845299
30
0
0
SPLINE
5
EE
100
AcDbEntity
8
SK1
62
256
6
ByLayer
370
18
48
1
60
0
100
AcDbSpline
70
4
71
3
72
14
73
10
40
0
40
0
40
0
40
0
40
0.124999999999999
40
0.124999999999999
40
0.249999999999998
40
0.249999999999998
40
0.499999999999998
40
0.499999999999998
40
1
40
1
40
1
40
1
41
1
10
-35.15
20
3.54538059463508
30
0
41
1
10
-35.15
20
3.55035646525118
30
0
41
1
10
-35.1517507934569
20
3.55250559842739
30
0
41
1
10
-35.1569069278761
20
3.55319632678157
30
0
41
1
10
-35.160234831946
20
3.55186233852612
30
0
41
1
10
-35.1714888412645
20
3.54501541553893
30
0
41
1
10
-35.1802429568046
20
3.53699431221082
30
0
41
1
10
-35.2083191353841
20
3.50787129418987
30
0
41
1
10
-35.2286409685638
20
3.4825396755509
30
0
41
1
10
-35.25
20
3.45312157038381
30
0
0
SPLINE
5
EF
100
AcDbEntity
8
SK1
62
256
6
ByLayer
370
18
48
1
60
0
100
AcDbSpline
70
4
71
3
72
8
73
4
40
0
40
0
40
0
40
0
40
1
40
1
40
1
40
1
41
1
10
-36
20
1.11629420920033
30
0
41
1
10
-35.7560848054632
20
1.46991696834886
30
0
41
1
10
-35.5039315622472
20
1.82044276103386
30
0
41
1
10
-35.25
20
2.17018640113113
30
0
0
LINE
5
76
100
AcDbEntity
8
81
62
256
6
ByLayer
370
18
48
1
60
0
100
AcDbLine
10
55
20
0
30
0
11
60
21
0
31
0
39
0
210
0
220
0
230
1
0
LINE
5
77
100
AcDbEntity
8
1
62
256
6
ByLayer
370
18
48
1
60
0
100
AcDbLine
10
4.015453
20
3.470087
30
0
11
1.191503
21
3.468393
31
0
39
0
210
0
220
0
230
1
0
LINE
5
79
100
AcDbEntity
8
1
62
256
6
ByLayer
370
18
48
1
60
0
100
AcDbLine
10
33.592899
20
3.487834
30
0
11
32.99122
21
3.487473
31
0
39
0
210
0
220
0
230
1
0
LINE
5
7A
100
AcDbEntity
8
1
62
256
6
ByLayer
370
18
48
1
60
0
100
AcDbLine
10
52.993095
20
3.499474
30
0
11
52.396957
21
3.499116
31
0
39
0
210
0
220
0
230
1
0
LINE
5
7B
100
AcDbEntity
8
1
62
256
6
ByLayer
370
18
48
1
60
0
100
AcDbLine
10
52.396957
20
-3.499116
30
0
11
52.993226
21
-3.499474
31
0
39
0
210
0
220
0
230
1
0
LINE
5
7C
100
AcDbEntity
8
1
62
256
6
ByLayer
370
18
48
1
60
0
100
AcDbLine
10
32.99122
20
-3.487473
30
0
11
33.592695
21
-3.487834
31
0
39
0
210
0
220
0
230
1
0
LINE
5
7D
100
AcDbEntity
8
1
62
256
6
ByLayer
370
18
48
1
60
0
100
AcDbLine
10
1.191503
20
-3.468393
30
0
11
4.015453
21
-3.470087
31
0
39
0
210
0
220
0
230
1
0
LINE
5
7E
100
AcDbEntity
8
SK1
62
256
6
ByLayer
370
18
48
1
60
0
100
AcDbLine
10
-35.133975
20
4
30
0
11
-36
21
2.5
31
0
39
0
210
0
220
0
230
1
0
LINE
5
80
100
AcDbEntity
8
SK1
62
256
6
ByLayer
370
18
48
1
60
0
100
AcDbLine
10
-36
20
-2.5
30
0
11
-35.133975
21
-4
31
0
39
0
210
0
220
0
230
1
0
LINE
5
81
100
AcDbEntity
8
SK1
62
256
6
ByLayer
370
18
48
1
60
0
100
AcDbLine
10
0
20
4
30
0
11
-35.133975
21
4
31
0
39
0
210
0
220
0
230
1
0
LINE
5
82
100
AcDbEntity
8
SK1
62
256
6
ByLayer
370
18
48
1
60
0
100
AcDbLine
10
-35.133975
20
-4
30
0
11
0
21
-4
31
0
39
0
210
0
220
0
230
1
0
LINE
5
83
100
AcDbEntity
8
1
62
256
6
ByLayer
370
18
48
1
60
0
100
AcDbLine
10
14.192657
20
3.476194
30
0
11
13.58436
21
3.475829
31
0
39
0
210
0
220
0
230
1
0
LINE
5
84
100
AcDbEntity
8
1
62
256
6
ByLayer
370
18
48
1
60
0
100
AcDbLine
10
13.58436
20
-3.475829
30
0
11
14.192677
21
-3.476194
31
0
39
0
210
0
220
0
230
1
0
LINE
5
85
100
AcDbEntity
8
SK4
62
256
6
ByLayer
370
18
48
0.05
60
0
100
AcDbLine
10
60
20
0
30
0
11
-41
21
0
31
0
39
0
210
0
220
0
230
1
0
LINE
5
87
100
AcDbEntity
8
4
62
256
6
ByLayer
370
18
48
0.05
60
0
100
AcDbLine
10
55
20
0
30
0
11
0
21
0
31
0
39
0
210
0
220
0
230
1
0
LINE
5
89
100
AcDbEntity
8
80
62
256
6
ByLayer
370
18
48
1
60
0
100
AcDbLine
10
0
20
0
30
0
11
-5
21
0
31
0
39
0
210
0
220
0
230
1
0
LINE
5
8A
100
AcDbEntity
8
1
62
256
6
ByLayer
370
18
48
1
60
0
100
AcDbLine
10
0
20
-4
30
0
11
0
21
4
31
0
39
0
210
0
220
0
230
1
0
LINE
5
8B
100
AcDbEntity
8
1
62
256
6
ByLayer
370
18
48
1
60
0
100
AcDbLine
10
54.993712
20
0.034864
30
0
11
55
21
0
31
0
39
0
210
0
220
0
230
1
0
LINE
5
8C
100
AcDbEntity
8
1
62
256
6
ByLayer
370
18
48
1
60
0
100
AcDbLine
10
54.924369
20
-0.28457
30
0
11
54.821153
21
-0.726978
31
0
39
0
210
0
220
0
230
1
0
LINE
5
8D
100
AcDbEntity
8
1
62
256
6
ByLayer
370
13
48
1
60
0
100
AcDbLine
10
0.595512
20
3.734196
30
0
11
0.595512
21
-3.734196
31
0
39
0
210
0
220
0
230
1
0
LINE
5
8E
100
AcDbEntity
8
1
62
256
6
ByLayer
370
18
48
1
60
0
100
AcDbLine
10
55
20
0
30
0
11
53.786172
21
-3.334965
31
0
39
0
210
0
220
0
230
1
0
LINE
5
8F
100
AcDbEntity
8
1
62
256
6
ByLayer
370
13
48
1
60
0
100
AcDbLine
10
54.178737
20
0.726978
30
0
11
54.924369
21
0.28457
31
0
39
0
210
0
220
0
230
1
0
LINE
5
90
100
AcDbEntity
8
1
62
256
6
ByLayer
370
18
48
1
60
0
100
AcDbLine
10
54.924369
20
0.28457
30
0
11
54.821153
21
0.726978
31
0
39
0
210
0
220
0
230
1
0
LINE
5
91
100
AcDbEntity
8
1
62
256
6
ByLayer
370
13
48
1
60
0
100
AcDbLine
10
1.191503
20
3.468393
30
0
11
1.191503
21
-3.468393
31
0
39
0
210
0
220
0
230
1
0
LINE
5
92
100
AcDbEntity
8
1
62
256
6
ByLayer
370
18
48
1
60
0
100
AcDbLine
10
53.253555
20
-1.841655
30
0
11
54.895005
21
-0.146015
31
0
39
0
210
0
220
0
230
1
0
LINE
5
93
100
AcDbEntity
8
1
62
256
6
ByLayer
370
18
48
1
60
0
100
AcDbLine
10
55
20
0
30
0
11
54.993712
21
-0.034864
31
0
39
0
210
0
220
0
230
1
0
LINE
5
94
100
AcDbEntity
8
1
62
256
6
ByLayer
370
13
48
1
60
0
100
AcDbLine
10
53.98883
20
0.391648
30
0
11
54.895005
21
-0.146015
31
0
39
0
210
0
220
0
230
1
0
LINE
5
95
100
AcDbEntity
8
1
62
256
6
ByLayer
370
13
48
1
60
0
100
AcDbLine
10
54.821153
20
0.726978
30
0
11
54.178737
21
0.726978
31
0
39
0
210
0
220
0
230
1
0
LINE
5
96
100
AcDbEntity
8
SK1
62
256
6
ByLayer
370
18
48
1
60
0
100
AcDbLine
10
0
20
-4
30
0
11
0
21
4
31
0
39
0
210
0
220
0
230
1
0
LINE
5
97
100
AcDbEntity
8
SK1
62
256
6
ByLayer
370
18
48
1
60
0
100
AcDbLine
10
-35.15
20
2.390739
30
0
11
-35.15
21
3.545381
31
0
39
0
210
0
220
0
230
1
0
LINE
5
98
100
AcDbEntity
8
SK1
62
256
6
ByLayer
370
18
48
1
60
0
100
AcDbLine
10
-36
20
1.116294
30
0
11
-36
21
-2.5
31
0
39
0
210
0
220
0
230
1
0
LINE
5
99
100
AcDbEntity
8
SK1
62
256
6
ByLayer
370
18
48
1
60
0
100
AcDbLine
10
-36
20
2.399229
30
0
11
-36
21
1.116283
31
0
39
0
210
0
220
0
230
1
0
LINE
5
9A
100
AcDbEntity
8
SK1
62
256
6
ByLayer
370
18
48
1
60
0
100
AcDbLine
10
-35.133975
20
4
30
0
11
-35.133975
21
-4
31
0
39
0
210
0
220
0
230
1
0
LINE
5
9B
100
AcDbEntity
8
SK1
62
256
6
ByLayer
370
18
48
1
60
0
100
AcDbLine
10
-36
20
2.5
30
0
11
-36
21
2.399229
31
0
39
0
210
0
220
0
230
1
0
LINE
5
9C
100
AcDbEntity
8
SK1
62
256
6
ByLayer
370
13
48
1
60
0
100
AcDbLine
10
-35.25
20
3.453122
30
0
11
-35.25
21
2.170129
31
0
39
0
210
0
220
0
230
1
0
MTEXT
5
F0
100
AcDbEntity
8
SK6
62
256
6
ByLayer
370
13
48
1
60
0
100
AcDbMText
10
11.629169
20
35.882694
30
0
210
0
220
0
230
1
1
\W0.7542;R840-0700-50-A1A1220
40
3.5
41
0
44
1.084337
50
0
71
8
72
5
7
iso_b_vert
0
DIMENSION
5
FD
100
AcDbEntity
8
SK2
62
256
6
ByLayer
370
13
48
1
60
0
100
AcDbDimension
2
DimnDraft3D1
10
53.81
20
-13.713398
30
0
11
25.560059
21
-13.713398
31
0
70
32
71
5
72
1
41
1
210
0
220
0
230
1
3
Standard
100
AcDbAlignedDimension
13
0
23
-1.5875
33
0
14
53.81
24
-5.0875
34
0
50
0
100
AcDbRotatedDimension
1001
ACAD
1000
DSTYLE
1002
{
1070
   279
1070
     0
1070
   172
1070
     1
1070
   173
1070
     1
1070
   340
1005
F1
1070
   271
1070
     2
1070
   272
1070
     2
1070
    77
1070
     1
1070
    73
1070
     0
1070
   171
1070
     3
1070
   274
1070
     4
1070
   177
1070
    35
1070
   176
1070
    35
1070
   178
1070
    35
1070
    48
1040
-0.005
1070
    41
1041
3.5
1070
   147
1041
1.75
1070
    42
1041
1.5875
1070
    44
1041
2.0
1070
   140
1041
3.5
1070
   343
1005
0
1070
   344
1005
0
1002
}
0
DIMENSION
5
107
100
AcDbEntity
8
SK2
62
256
6
ByLayer
370
13
48
1
60
0
100
AcDbDimension
2
DimnDraft3D2
10
55
20
-32.692985
30
0
11
9.6513
21
-32.692985
31
0
70
32
71
5
72
1
41
1
210
0
220
0
230
1
3
Standard
100
AcDbAlignedDimension
13
-36
23
-5.5875
33
0
14
55
24
-1.5875
34
0
50
0
100
AcDbRotatedDimension
1001
ACAD
1000
DSTYLE
1002
{
1070
   279
1070
     0
1070
   172
1070
     1
1070
   173
1070
     1
1070
   340
1005
F1
1070
   271
1070
     2
1070
   272
1070
     2
1070
    77
1070
     1
1070
    73
1070
     0
1070
   171
1070
     3
1070
   274
1070
     4
1070
   177
1070
    35
1070
   176
1070
    35
1070
   178
1070
    35
1070
    48
1040
-0.005
1070
    41
1041
3.5
1070
   147
1041
1.75
1070
    42
1041
1.5875
1070
    44
1041
2.0
1070
   140
1041
3.5
1070
   343
1005
0
1070
   344
1005
0
1002
}
0
DIMENSION
5
111
100
AcDbEntity
8
SK2
62
256
6
ByLayer
370
13
48
1
60
0
100
AcDbDimension
2
DimnDraft3D3
10
55
20
15.109119
30
0
11
36.905
21
15.109119
31
0
70
32
71
5
72
1
41
1
210
0
220
0
230
1
3
Standard
100
AcDbAlignedDimension
13
18.81
23
5.0875
33
0
14
55
24
1.5875
34
0
50
0
100
AcDbRotatedDimension
1001
ACAD
1000
DSTYLE
1002
{
1070
   279
1070
     0
1070
   172
1070
     1
1070
   173
1070
     1
1070
   340
1005
F1
1070
   271
1070
     2
1070
   272
1070
     2
1070
    77
1070
     1
1070
    73
1070
     0
1070
   171
1070
     3
1070
   274
1070
     4
1070
   177
1070
    35
1070
   176
1070
    35
1070
   178
1070
    35
1070
    48
1040
-0.005
1070
    41
1041
3.5
1070
   147
1041
1.75
1070
    42
1041
1.5875
1070
    44
1041
2.0
1070
   140
1041
3.5
1070
   343
1005
0
1070
   344
1005
0
1002
}
0
DIMENSION
5
11B
100
AcDbEntity
8
SK2
62
256
6
ByLayer
370
13
48
1
60
0
100
AcDbDimension
2
DimnDraft3D4
10
53.81
20
-16.302503
30
0
11
64.981425
21
-16.302503
31
0
70
32
71
5
72
1
41
1
210
0
220
0
230
1
3
Standard
100
AcDbAlignedDimension
13
55
23
-1.5875
33
0
14
53.81
24
-5.0875
34
0
50
0
100
AcDbRotatedDimension
1001
ACAD
1000
DSTYLE
1002
{
1070
   279
1070
     0
1070
   172
1070
     1
1070
   173
1070
     1
1070
   340
1005
F1
1070
   271
1070
     2
1070
   272
1070
     2
1070
    77
1070
     1
1070
    73
1070
     0
1070
   171
1070
     3
1070
   274
1070
     4
1070
   177
1070
    35
1070
   176
1070
    35
1070
   178
1070
    35
1070
    48
1040
-0.005
1070
    41
1041
3.5
1070
   147
1041
1.75
1070
    42
1041
1.5875
1070
    44
1041
2.0
1070
   140
1041
3.5
1070
   343
1005
0
1070
   344
1005
0
1002
}
0
DIMENSION
5
125
100
AcDbEntity
8
SK2
62
256
6
ByLayer
370
13
48
1
60
0
100
AcDbDimension
2
DimnDraft3D5
10
53.81
20
-22.343428
30
0
11
6.570676
21
-22.343428
31
0
70
32
71
5
72
1
41
1
210
0
220
0
230
1
3
Standard
100
AcDbAlignedDimension
13
-36
23
-5.5875
33
0
14
53.81
24
-5.0875
34
0
50
0
100
AcDbRotatedDimension
1001
ACAD
1000
DSTYLE
1002
{
1070
   279
1070
     0
1070
   172
1070
     1
1070
   173
1070
     1
1070
   340
1005
F1
1070
   271
1070
     2
1070
   272
1070
     2
1070
    77
1070
     1
1070
    73
1070
     0
1070
   171
1070
     3
1070
   274
1070
     4
1070
   177
1070
    35
1070
   176
1070
    35
1070
   178
1070
    35
1070
    48
1040
-0.005
1070
    41
1041
3.5
1070
   147
1041
1.75
1070
    42
1041
1.5875
1070
    44
1041
2.0
1070
   140
1041
3.5
1070
   343
1005
0
1070
   344
1005
0
1002
}
0
DIMENSION
5
130
100
AcDbEntity
8
SK2
62
256
6
ByLayer
370
13
48
1
60
0
100
AcDbDimension
2
DimnDraft3D6
10
-46.625163
20
4
30
0
11
-47.250163
21
22.47418
31
0
70
33
71
5
72
1
41
1
210
0
220
0
230
1
3
Standard
100
AcDbAlignedDimension
13
-37.5875
23
-4
33
0
14
-37.5875
24
4
34
0
1001
ACAD
1000
DSTYLE
1002
{
1070
   279
1070
     0
1070
    74
1070
     0
1070
   173
1070
     1
1070
   340
1005
F1
1070
   271
1070
     3
1070
   272
1070
     2
1070
    77
1070
     1
1070
    73
1070
     0
1070
   171
1070
     3
1070
   274
1070
     4
1070
   177
1070
    35
1070
   176
1070
    35
1070
   178
1070
    35
1070
    48
1040
-0.005
1070
    41
1041
3.5
1070
   147
1041
1.75
1070
    42
1041
1.5875
1070
    44
1041
2.0
1070
   140
1041
3.5
1070
   343
1005
0
1070
   344
1005
0
1002
}
0
DIMENSION
5
13B
100
AcDbEntity
8
2
62
256
6
ByLayer
370
13
48
1
60
0
100
AcDbDimension
2
DimnDraft3D7
10
69.083343
20
3.5
30
0
11
64.458343
21
20.567266
31
0
70
33
71
5
72
1
41
1
210
0
220
0
230
1
3
Standard
100
AcDbAlignedDimension
13
55.3975
23
-3.5
33
0
14
55.3975
24
3.5
34
0
1001
ACAD
1000
DSTYLE
1002
{
1070
   279
1070
     0
1070
    74
1070
     0
1070
   173
1070
     1
1070
   340
1005
F1
1070
   271
1070
     3
1070
   272
1070
     2
1070
    77
1070
     1
1070
    73
1070
     0
1070
   171
1070
     3
1070
   274
1070
     4
1070
   177
1070
    35
1070
   176
1070
    35
1070
   178
1070
    35
1070
    48
1040
-0.005
1070
    41
1041
3.5
1070
   147
1041
1.75
1070
    42
1041
1.5875
1070
    44
1041
2.0
1070
   140
1041
3.5
1070
   343
1005
0
1070
   344
1005
0
1002
}
0
ENDSEC
0
SECTION
2
OBJECTS
0
DICTIONARY
5
1a6
330
0
100
AcDbDictionary
280
0
281
1
3
ACAD_GROUP
350
1a7
3
ACAD_MLINESTYLE
350
1a8
0
DICTIONARY
5
1a7
330
0
100
AcDbDictionary
280
0
281
1
0
DICTIONARY
5
1a8
330
0
100
AcDbDictionary
280
0
281
1
3
Standard
350
18
0
MLINESTYLE
5
18
330
1a8
100
AcDbMlineStyle
2
Standard
70
0
3

62
256
51
90
52
90
71
2
49
-0.5
62
256
6
ByLayer
49
0.5
62
256
6
ByLayer
0
RASTERVARIABLES
5
194
330

100
AcDbRasterVariables
90
0
70
1
71
1
72
1
0
ENDSEC
0
EOF
