0
SECTION
2
HEADER
9
$ACADVER
1
AC1015
9
$DWGCODEPAGE
3
ANSI_1252
9
$HANDSEED
5
1b3
9
$ANGBASE
50
0
9
$ANGDIR
70
0
9
$ATTMODE
70
1
9
$AUNITS
70
0
9
$AUPREC
70
0
9
$CECOLOR
62
256
9
$CELTSCALE
40
1
9
$CELTYPE
6
ByLayer
9
$CELWEIGHT
370
18
9
$CLAYER
8
0
9
$CMLJUST
70
0
9
$CMLSCALE
40
1
9
$CMLSTYLE
2
Standard
9
$DIMSTYLE
2
Standard
9
$TEXTSIZE
40
0.2
9
$TEXTSTYLE
7
Standard
9
$LUNITS
70
2
9
$LUPREC
70
4
9
$EXTNAMES
290
1
9
$INSUNITS
70
4
9
$LTSCALE
40
1
9
$LWDISPLAY
290
1
9
$PDMODE
70
0
9
$PDSIZE
40
0
9
$PLINEGEN
70
0
0
ENDSEC
0
SECTION
2
CLASSES
0
CLASS
1
RASTERVARIABLES
2
AcDbRasterVariables
3
ISM
90
0
280
0
281
0
0
ENDSEC
0
SECTION
2
TABLES
0
TABLE
2
VPORT
5
1a9
100
AcDbSymbolTable
0
VPORT
5
1
100
AcDbSymbolTableRecord
100
AcDbViewportTableRecord
2
*Active
70
0
10
0
20
0
11
1
21
1
12
-1
22
1
13
0
23
0
14
0.5
24
0.5
15
10
25
10
16
0
26
0
36
1
17
0
27
0
37
0
0
ENDTAB
0
TABLE
2
LTYPE
5
1aa
100
AcDbSymbolTable
0
LTYPE
5
14
100
AcDbSymbolTableRecord
100
AcDbLinetypeTableRecord
70
0
2
ByBlock
3

72
65
73
0
40
0
0
LTYPE
5
15
100
AcDbSymbolTableRecord
100
AcDbLinetypeTableRecord
70
0
2
ByLayer
3

72
65
73
0
40
0
0
LTYPE
5
16
100
AcDbSymbolTableRecord
100
AcDbLinetypeTableRecord
70
0
2
CONTINUOUS
3
Solid line
72
65
73
0
40
0
0
LTYPE
5
6A
100
AcDbSymbolTableRecord
100
AcDbLinetypeTableRecord
70
0
2
CENTER
3
____ _ ____ _ ____ _ ____
72
65
73
4
40
47.5
49
22
74
0
49
-8.5
74
0
49
8.5
74
0
49
-8.5
74
0
0
LTYPE
5
6B
100
AcDbSymbolTableRecord
100
AcDbLinetypeTableRecord
70
0
2
DASHED
3
__ __ __ __ __ __ __ __ __
72
65
73
2
40
25.72
49
12.86
74
0
49
-12.86
74
0
0
ENDTAB
0
TABLE
2
LAYER
5
1ab
100
AcDbSymbolTable
0
LAYER
5
10
100
AcDbSymbolTableRecord
100
AcDbLayerTableRecord
2
0
70
0
62
7
6
CONTINUOUS
290
1
370
-3
390
0
0
LAYER
5
6D
100
AcDbSymbolTableRecord
100
AcDbLayerTableRecord
2
81
70
0
62
-3
6
CONTINUOUS
290
1
370
-3
390
0
0
LAYER
5
6F
100
AcDbSymbolTableRecord
100
AcDbLayerTableRecord
2
80
70
0
62
-6
6
CONTINUOUS
290
1
370
-3
390
0
0
LAYER
5
74
100
AcDbSymbolTableRecord
100
AcDbLayerTableRecord
2
2
70
0
62
7
6
CONTINUOUS
290
1
370
-3
390
0
0
LAYER
5
78
100
AcDbSymbolTableRecord
100
AcDbLayerTableRecord
2
1
70
0
62
4
6
CONTINUOUS
290
1
370
-3
390
0
0
LAYER
5
88
100
AcDbSymbolTableRecord
100
AcDbLayerTableRecord
2
4
70
0
62
-2
6
CENTER
290
1
370
-3
390
0
0
LAYER
5
195
100
AcDbSymbolTableRecord
100
AcDbLayerTableRecord
2
SK2
70
0
62
7
6
CONTINUOUS
290
1
370
-3
390
0
0
LAYER
5
196
100
AcDbSymbolTableRecord
100
AcDbLayerTableRecord
2
SK1
70
0
62
4
6
CONTINUOUS
290
1
370
-3
390
0
0
LAYER
5
197
100
AcDbSymbolTableRecord
100
AcDbLayerTableRecord
2
SK4
70
0
62
2
6
CENTER
290
1
370
-3
390
0
0
LAYER
5
198
100
AcDbSymbolTableRecord
100
AcDbLayerTableRecord
2
SK6
70
0
62
5
6
CONTINUOUS
290
1
370
-3
390
0
0
ENDTAB
0
TABLE
2
STYLE
5
1ac
100
AcDbSymbolTable
0
STYLE
5
11
100
AcDbSymbolTableRecord
100
AcDbTextStyleTableRecord
2
Standard
3
txt
70
0
71
0
40
0
41
1
42
0
50
0
0
STYLE
5
F1
100
AcDbSymbolTableRecord
100
AcDbTextStyleTableRecord
2
iso_b_vert
3
simplex.shx
70
0
71
0
40
0
41
1
42
0
50
0
0
STYLE
5
F2
100
AcDbSymbolTableRecord
100
AcDbTextStyleTableRecord
2
DWGDirectTextStyle
3
simplex
70
0
71
0
40
0
41
1
42
0
50
0
0
ENDTAB
0
TABLE
2
DIMSTYLE
5
1ad
100
AcDbSymbolTable
100
AcDbDimStyleTable
0
DIMSTYLE
105
27
100
AcDbSymbolTableRecord
100
AcDbDimStyleTableRecord
2
Standard
70
0
3
<>
41
0.18
42
0.0625
44
0.18
140
0.18
147
0.09
73
0
74
0
77
1
271
2
275
0
278
52
280
0
340
11
0
ENDTAB
0
TABLE
2
VIEW
5
1ae
100
AcDbSymbolTable
0
ENDTAB
0
TABLE
2
UCS
5
1af
100
AcDbSymbolTable
0
ENDTAB
0
TABLE
2
APPID
5
1b0
100
AcDbSymbolTable
0
APPID
5
12
100
AcDbSymbolTableRecord
100
AcDbRegAppTableRecord
2
ACAD
70
0
0
ENDTAB
0
TABLE
2
BLOCK_RECORD
5
1b1
100
AcDbSymbolTable
0
BLOCK_RECORD
5
1F
100
AcDbSymbolTableRecord
100
AcDbBlockTableRecord
2
*Model_Space
340
0
70
0
0
BLOCK_RECORD
5
1B
100
AcDbSymbolTableRecord
100
AcDbBlockTableRecord
2
*Paper_Space
340
0
70
0
0
BLOCK_RECORD
5
23
100
AcDbSymbolTableRecord
100
AcDbBlockTableRecord
2
*Paper_Space0
340
0
70
0
0
BLOCK_RECORD
5
F4
100
AcDbSymbolTableRecord
100
AcDbBlockTableRecord
2
DimnDraft3D1
340
0
70
0
0
BLOCK_RECORD
5
FE
100
AcDbSymbolTableRecord
100
AcDbBlockTableRecord
2
DimnDraft3D2
340
0
70
0
0
BLOCK_RECORD
5
108
100
AcDbSymbolTableRecord
100
AcDbBlockTableRecord
2
DimnDraft3D3
340
0
70
0
0
BLOCK_RECORD
5
112
100
AcDbSymbolTableRecord
100
AcDbBlockTableRecord
2
DimnDraft3D4
340
0
70
0
0
BLOCK_RECORD
5
11C
100
AcDbSymbolTableRecord
100
AcDbBlockTableRecord
2
DimnDraft3D5
340
0
70
0
0
BLOCK_RECORD
5
126
100
AcDbSymbolTableRecord
100
AcDbBlockTableRecord
2
DimnDraft3D6
340
0
70
0
0
BLOCK_RECORD
5
131
100
AcDbSymbolTableRecord
100
AcDbBlockTableRecord
2
DimnDraft3D7
340
0
70
0
0
ENDTAB
0
ENDSEC
0
SECTION
2
BLOCKS
0
BLOCK
5
20
100
AcDbEntity
8
0
100
AcDbBlockBegin
2
*Model_Space
70
0
10
0
20
0
30
0
3
*Model_Space
0
ENDBLK
5
21
100
AcDbEntity
8
0
100
AcDbBlockEnd
0
BLOCK
5
1C
100
AcDbEntity
8
0
100
AcDbBlockBegin
2
*Paper_Space
70
0
10
0
20
0
30
0
3
*Paper_Space
0
ENDBLK
5
1D
100
AcDbEntity
8
0
100
AcDbBlockEnd
0
BLOCK
5
24
100
AcDbEntity
8
0
100
AcDbBlockBegin
2
*Paper_Space0
70
0
10
0
20
0
30
0
3
*Paper_Space0
0
ENDBLK
5
25
100
AcDbEntity
8
0
100
AcDbBlockEnd
0
BLOCK
5
FB
100
AcDbEntity
8
0
100
AcDbBlockBegin
2
DimnDraft3D1
70
0
10
0
20
0
30
0
3
DimnDraft3D1
0
MTEXT
5
F5
100
AcDbEntity
8
SK2
62
256
6
ByLayer
370
13
48
1
60
0
100
AcDbMText
10
20.957164
20
-12.738398
30
0
210
0
220
0
230
1
1
\W0.7495;53,84
40
3.5
41
0
44
1.084337
50
0
71
7
72
5
7
iso_b_vert
0
LINE
5
F6
100
AcDbEntity
8
SK2
62
256
6
ByLayer
370
13
48
1
60
0
100
AcDbLine
10
0
20
-1.5875
30
0
11
0
21
-15.613398
31
0
39
0
210
0
220
0
230
1
0
LINE
5
F7
100
AcDbEntity
8
SK2
62
256
6
ByLayer
370
13
48
1
60
0
100
AcDbLine
10
53.84
20
-4.9875
30
0
11
53.84
21
-15.613398
31
0
39
0
210
0
220
0
230
1
0
LINE
5
F8
100
AcDbEntity
8
SK2
62
256
6
ByLayer
370
13
48
1
60
0
100
AcDbLine
10
0
20
-13.613398
30
0
11
53.84
21
-13.613398
31
0
39
0
210
0
220
0
230
1
0
SOLID
5
F9
100
AcDbEntity
8
SK2
62
256
6
ByLayer
370
13
48
1
60
0
100
AcDbTrace
10
0
20
-13.613398
30
0
11
3.499998
21
-13.152615
31
0
12
3.500002
22
-14.074182
32
0
13
0
23
-13.613398
33
0
39
0
210
0
220
0
230
1
0
SOLID
5
FA
100
AcDbEntity
8
SK2
62
256
6
ByLayer
370
13
48
1
60
0
100
AcDbTrace
10
53.84
20
-13.613398
30
0
11
50.340002
21
-14.074182
31
0
12
50.339998
22
-13.152615
32
0
13
53.84
23
-13.613398
33
0
39
0
210
0
220
0
230
1
0
ENDBLK
5
FC
100
AcDbEntity
8
0
100
AcDbBlockEnd
0
BLOCK
5
105
100
AcDbEntity
8
0
100
AcDbBlockBegin
2
DimnDraft3D2
70
0
10
0
20
0
30
0
3
DimnDraft3D2
0
MTEXT
5
FF
100
AcDbEntity
8
SK2
62
256
6
ByLayer
370
13
48
1
60
0
100
AcDbMText
10
5.670116
20
-31.817985
30
0
210
0
220
0
230
1
1
\W0.6713;91,00
40
3.5
41
0
44
1.084337
50
0
71
7
72
5
7
iso_b_vert
0
LINE
5
100
100
AcDbEntity
8
SK2
62
256
6
ByLayer
370
13
48
1
60
0
100
AcDbLine
10
-36
20
-5.5875
30
0
11
-36
21
-34.692985
31
0
39
0
210
0
220
0
230
1
0
LINE
5
101
100
AcDbEntity
8
SK2
62
256
6
ByLayer
370
13
48
1
60
0
100
AcDbLine
10
55
20
-1.5875
30
0
11
55
21
-34.692985
31
0
39
0
210
0
220
0
230
1
0
LINE
5
102
100
AcDbEntity
8
SK2
62
256
6
ByLayer
370
13
48
1
60
0
100
AcDbLine
10
-36
20
-32.692985
30
0
11
55
21
-32.692985
31
0
39
0
210
0
220
0
230
1
0
SOLID
5
103
100
AcDbEntity
8
SK2
62
256
6
ByLayer
370
13
48
1
60
0
100
AcDbTrace
10
-36
20
-32.692985
30
0
11
-32.500002
21
-32.232202
31
0
12
-32.499998
22
-33.153769
32
0
13
-36
23
-32.692985
33
0
39
0
210
0
220
0
230
1
0
SOLID
5
104
100
AcDbEntity
8
SK2
62
256
6
ByLayer
370
13
48
1
60
0
100
AcDbTrace
10
55
20
-32.692985
30
0
11
51.500002
21
-33.153769
31
0
12
51.499998
22
-32.232202
32
0
13
55
23
-32.692985
33
0
39
0
210
0
220
0
230
1
0
ENDBLK
5
106
100
AcDbEntity
8
0
100
AcDbBlockEnd
0
BLOCK
5
10F
100
AcDbEntity
8
0
100
AcDbBlockBegin
2
DimnDraft3D3
70
0
10
0
20
0
30
0
3
DimnDraft3D3
0
MTEXT
5
109
100
AcDbEntity
8
SK2
62
256
6
ByLayer
370
13
48
1
60
0
100
AcDbMText
10
33.408816
20
15.884119
30
0
210
0
220
0
230
1
1
\W0.6713;35,16
40
3.5
41
0
44
1.084337
50
0
71
7
72
5
7
iso_b_vert
0
LINE
5
10A
100
AcDbEntity
8
SK2
62
256
6
ByLayer
370
13
48
1
60
0
100
AcDbLine
10
19.84
20
4.9875
30
0
11
19.84
21
17.009119
31
0
39
0
210
0
220
0
230
1
0
LINE
5
10B
100
AcDbEntity
8
SK2
62
256
6
ByLayer
370
13
48
1
60
0
100
AcDbLine
10
55
20
1.5875
30
0
11
55
21
17.009119
31
0
39
0
210
0
220
0
230
1
0
LINE
5
10C
100
AcDbEntity
8
SK2
62
256
6
ByLayer
370
13
48
1
60
0
100
AcDbLine
10
19.84
20
15.009119
30
0
11
55
21
15.009119
31
0
39
0
210
0
220
0
230
1
0
SOLID
5
10D
100
AcDbEntity
8
SK2
62
256
6
ByLayer
370
13
48
1
60
0
100
AcDbTrace
10
19.84
20
15.009119
30
0
11
23.339998
21
15.469903
31
0
12
23.340002
22
14.548335
32
0
13
19.84
23
15.009119
33
0
39
0
210
0
220
0
230
1
0
SOLID
5
10E
100
AcDbEntity
8
SK2
62
256
6
ByLayer
370
13
48
1
60
0
100
AcDbTrace
10
55
20
15.009119
30
0
11
51.500002
21
14.548335
31
0
12
51.499998
22
15.469903
32
0
13
55
23
15.009119
33
0
39
0
210
0
220
0
230
1
0
ENDBLK
5
110
100
AcDbEntity
8
0
100
AcDbBlockEnd
0
BLOCK
5
119
100
AcDbEntity
8
0
100
AcDbBlockBegin
2
DimnDraft3D4
70
0
10
0
20
0
30
0
3
DimnDraft3D4
0
MTEXT
5
113
100
AcDbEntity
8
SK2
62
256
6
ByLayer
370
13
48
1
60
0
100
AcDbMText
10
62.715636
20
-15.327503
30
0
210
0
220
0
230
1
1
\W0.5583;1,16
40
3.5
41
0
44
1.084337
50
0
71
7
72
5
7
iso_b_vert
0
LINE
5
114
100
AcDbEntity
8
SK2
62
256
6
ByLayer
370
13
48
1
60
0
100
AcDbLine
10
55
20
-1.5875
30
0
11
55
21
-18.202503
31
0
39
0
210
0
220
0
230
1
0
LINE
5
115
100
AcDbEntity
8
SK2
62
256
6
ByLayer
370
13
48
1
60
0
100
AcDbLine
10
53.84
20
-4.9875
30
0
11
53.84
21
-18.202503
31
0
39
0
210
0
220
0
230
1
0
LINE
5
116
100
AcDbEntity
8
SK2
62
256
6
ByLayer
370
13
48
1
60
0
100
AcDbLine
10
45.09
20
-16.202503
30
0
11
68.122215
21
-16.202503
31
0
39
0
210
0
220
0
230
1
0
SOLID
5
117
100
AcDbEntity
8
SK2
62
256
6
ByLayer
370
13
48
1
60
0
100
AcDbTrace
10
55
20
-16.202503
30
0
11
58.499998
21
-15.741719
31
0
12
58.500002
22
-16.663287
32
0
13
55
23
-16.202503
33
0
39
0
210
0
220
0
230
1
0
SOLID
5
118
100
AcDbEntity
8
SK2
62
256
6
ByLayer
370
13
48
1
60
0
100
AcDbTrace
10
53.84
20
-16.202503
30
0
11
50.340002
21
-16.663287
31
0
12
50.339998
22
-15.741719
32
0
13
53.84
23
-16.202503
33
0
39
0
210
0
220
0
230
1
0
ENDBLK
5
11A
100
AcDbEntity
8
0
100
AcDbBlockEnd
0
BLOCK
5
123
100
AcDbEntity
8
0
100
AcDbBlockBegin
2
DimnDraft3D5
70
0
10
0
20
0
30
0
3
DimnDraft3D5
0
MTEXT
5
11D
100
AcDbEntity
8
SK2
62
256
6
ByLayer
370
13
48
1
60
0
100
AcDbMText
10
1.967782
20
-21.468428
30
0
210
0
220
0
230
1
1
\W0.7495;89,84
40
3.5
41
0
44
1.084337
50
0
71
7
72
5
7
iso_b_vert
0
LINE
5
11E
100
AcDbEntity
8
SK2
62
256
6
ByLayer
370
13
48
1
60
0
100
AcDbLine
10
-36
20
-5.5875
30
0
11
-36
21
-24.343428
31
0
39
0
210
0
220
0
230
1
0
LINE
5
11F
100
AcDbEntity
8
SK2
62
256
6
ByLayer
370
13
48
1
60
0
100
AcDbLine
10
53.84
20
-4.9875
30
0
11
53.84
21
-24.343428
31
0
39
0
210
0
220
0
230
1
0
LINE
5
120
100
AcDbEntity
8
SK2
62
256
6
ByLayer
370
13
48
1
60
0
100
AcDbLine
10
-36
20
-22.343428
30
0
11
53.84
21
-22.343428
31
0
39
0
210
0
220
0
230
1
0
SOLID
5
121
100
AcDbEntity
8
SK2
62
256
6
ByLayer
370
13
48
1
60
0
100
AcDbTrace
10
-36
20
-22.343428
30
0
11
-32.500002
21
-21.882645
31
0
12
-32.499998
22
-22.804212
32
0
13
-36
23
-22.343428
33
0
39
0
210
0
220
0
230
1
0
SOLID
5
122
100
AcDbEntity
8
SK2
62
256
6
ByLayer
370
13
48
1
60
0
100
AcDbTrace
10
53.84
20
-22.343428
30
0
11
50.340002
21
-22.804212
31
0
12
50.339998
22
-21.882645
32
0
13
53.84
23
-22.343428
33
0
39
0
210
0
220
0
230
1
0
ENDBLK
5
124
100
AcDbEntity
8
0
100
AcDbBlockEnd
0
BLOCK
5
12E
100
AcDbEntity
8
0
100
AcDbBlockBegin
2
DimnDraft3D6
70
0
10
0
20
0
30
0
3
DimnDraft3D6
0
MTEXT
5
127
100
AcDbEntity
8
SK2
62
256
6
ByLayer
370
13
48
1
60
0
100
AcDbMText
10
-46.375163
20
23.34918
30
0
210
0
220
0
230
1
1
\W0.7317;8,000
40
3.5
41
0
44
1.084337
50
90
71
7
72
5
7
iso_b_vert
0
MTEXT
5
128
100
AcDbEntity
8
SK2
62
256
6
ByLayer
370
13
48
1
60
0
100
AcDbMText
10
-46.375163
20
18.126524
30
0
210
0
220
0
230
1
1
%%c
40
3.5
41
0
44
1.084337
50
90
71
7
72
5
7
iso_b_vert
0
LINE
5
129
100
AcDbEntity
8
SK2
62
256
6
ByLayer
370
13
48
1
60
0
100
AcDbLine
10
-37.5875
20
-4
30
0
11
-46.625163
21
-4
31
0
39
0
210
0
220
0
230
1
0
LINE
5
12A
100
AcDbEntity
8
SK2
62
256
6
ByLayer
370
13
48
1
60
0
100
AcDbLine
10
-37.5875
20
4
30
0
11
-46.625163
21
4
31
0
39
0
210
0
220
0
230
1
0
LINE
5
12B
100
AcDbEntity
8
SK2
62
256
6
ByLayer
370
13
48
1
60
0
100
AcDbLine
10
-44.625163
20
-4
30
0
11
-44.625163
21
33.121549
31
0
39
0
210
0
220
0
230
1
0
SOLID
5
12C
100
AcDbEntity
8
SK2
62
256
6
ByLayer
370
13
48
1
60
0
100
AcDbTrace
10
-44.625163
20
-4
30
0
11
-45.085946
21
-0.500002
31
0
12
-44.164379
22
-0.499998
32
0
13
-44.625163
23
-4
33
0
39
0
210
0
220
0
230
1
0
SOLID
5
12D
100
AcDbEntity
8
SK2
62
256
6
ByLayer
370
13
48
1
60
0
100
AcDbTrace
10
-44.625163
20
4
30
0
11
-44.164379
21
0.500002
31
0
12
-45.085946
22
0.499998
32
0
13
-44.625163
23
4
33
0
39
0
210
0
220
0
230
1
0
ENDBLK
5
12F
100
AcDbEntity
8
0
100
AcDbBlockEnd
0
BLOCK
5
139
100
AcDbEntity
8
0
100
AcDbBlockBegin
2
DimnDraft3D7
70
0
10
0
20
0
30
0
3
DimnDraft3D7
0
MTEXT
5
132
100
AcDbEntity
8
2
62
256
6
ByLayer
370
13
48
1
60
0
100
AcDbMText
10
65.333343
20
21.342266
30
0
210
0
220
0
230
1
1
\W0.7317;6,800
40
3.5
41
0
44
1.084337
50
90
71
7
72
5
7
iso_b_vert
0
MTEXT
5
133
100
AcDbEntity
8
2
62
256
6
ByLayer
370
13
48
1
60
0
100
AcDbMText
10
65.333343
20
16.11961
30
0
210
0
220
0
230
1
1
%%c
40
3.5
41
0
44
1.084337
50
90
71
7
72
5
7
iso_b_vert
0
LINE
5
134
100
AcDbEntity
8
2
62
256
6
ByLayer
370
13
48
1
60
0
100
AcDbLine
10
55.4275
20
-3.4
30
0
11
69.083343
21
-3.4
31
0
39
0
210
0
220
0
230
1
0
LINE
5
135
100
AcDbEntity
8
2
62
256
6
ByLayer
370
13
48
1
60
0
100
AcDbLine
10
55.4275
20
3.4
30
0
11
69.083343
21
3.4
31
0
39
0
210
0
220
0
230
1
0
LINE
5
136
100
AcDbEntity
8
2
62
256
6
ByLayer
370
13
48
1
60
0
100
AcDbLine
10
67.083343
20
31.114635
30
0
11
67.083343
21
-12.15
31
0
39
0
210
0
220
0
230
1
0
SOLID
5
137
100
AcDbEntity
8
2
62
256
6
ByLayer
370
13
48
1
60
0
100
AcDbTrace
10
67.083343
20
-3.4
30
0
11
67.544126
21
-6.899998
31
0
12
66.622559
22
-6.900002
32
0
13
67.083343
23
-3.4
33
0
39
0
210
0
220
0
230
1
0
SOLID
5
138
100
AcDbEntity
8
2
62
256
6
ByLayer
370
13
48
1
60
0
100
AcDbTrace
10
67.083343
20
3.4
30
0
11
66.622559
21
6.899998
31
0
12
67.544126
22
6.900002
32
0
13
67.083343
23
3.4
33
0
39
0
210
0
220
0
230
1
0
ENDBLK
5
13A
100
AcDbEntity
8
0
100
AcDbBlockEnd
0
ENDSEC
0
SECTION
2
ENTITIES
0
ARC
5
9E
100
AcDbEntity
8
1
62
256
6
ByLayer
370
18
48
1
60
0
100
AcDbCircle
39
0
10
0
20
3.2
30
0
40
0.800000000000001
210
0
220
0
230
1
100
AcDbArc
50
37.247856
51
90
0
ARC
5
9F
100
AcDbEntity
8
1
62
256
6
ByLayer
370
18
48
1
60
0
100
AcDbCircle
39
0
10
0
20
-3.2
30
0
40
0.800000000000001
210
0
220
0
230
1
100
AcDbArc
50
270
51
322.752144
0
ARC
5
A0
100
AcDbEntity
8
1
62
256
6
ByLayer
370
18
48
1
60
0
100
AcDbCircle
39
0
10
-1.273639
20
4.168423
30
0
40
0.799999999999995
210
0
220
0
230
-1
100
AcDbArc
50
269.965623
51
322.752144
0
ARC
5
A1
100
AcDbEntity
8
1
62
256
6
ByLayer
370
18
48
1
60
0
100
AcDbCircle
39
0
10
-1.273639
20
-4.168423
30
0
40
0.799999999999995
210
0
220
0
230
-1
100
AcDbArc
50
37.247856
51
90.034377
0
ELLIPSE
5
A2
100
AcDbEntity
8
1
62
256
6
ByLayer
370
18
48
1
60
0
100
AcDbEllipse
10
4.25
20
3.460696
30
0
11
-0.25
21
3.06151588455594E-17
31
0
210
0
220
0
230
1
40
1
41
0.400457839171266
42
1.59377082271878
0
ELLIPSE
5
A3
100
AcDbEntity
8
1
62
256
6
ByLayer
370
18
48
1
60
0
100
AcDbEllipse
10
4.25
20
-3.460696
30
0
11
-0.25
21
3.06151588455594E-17
31
0
210
0
220
0
230
1
40
1
41
-1.55976026251558
42
-0.396197406963962
0
ELLIPSE
5
A4
100
AcDbEntity
8
1
62
256
6
ByLayer
370
13
48
1
60
0
100
AcDbEllipse
10
54.670826
20
1.724558
30
0
11
2.05410580882749
21
-1.02060473413327
31
0
210
0
220
0
230
-1
40
0.486233
41
1.55998624743113
42
1.83431374032305
0
ELLIPSE
5
A5
100
AcDbEntity
8
1
62
256
6
ByLayer
370
18
48
1
60
0
100
AcDbEllipse
10
55.000305
20
-0.000743
30
0
11
1.25551341542821
21
-3.39758277174817
31
0
210
0
220
0
230
-1
40
0.115174
41
-2.96855387977482
42
-2.85983548477016
0
ELLIPSE
5
A6
100
AcDbEntity
8
1
62
256
6
ByLayer
370
18
48
1
60
0
100
AcDbEllipse
10
54.324535
20
-1.724558
30
0
11
0.527213515645514
21
1.42670842566945
31
0
210
0
220
0
230
-1
40
0.115174
41
0.74286346670505
42
1.50404244166831
0
ELLIPSE
5
A7
100
AcDbEntity
8
1
62
256
6
ByLayer
370
18
48
1
60
0
100
AcDbEllipse
10
55.046547
20
0.001501
30
0
11
0.137979128834586
21
0.428995648059067
31
0
210
0
220
0
230
-1
40
0.08774
41
-2.32337572123994
42
-1.68151028908442
0
ELLIPSE
5
A8
100
AcDbEntity
8
1
62
256
6
ByLayer
370
13
48
1
60
0
100
AcDbEllipse
10
4.250239
20
0.259904
30
0
11
0.0471313447085308
21
0.0881965778585861
31
0
210
0
220
0
230
1
40
0.038307
41
3.09624569289538
42
-1.63897914509961
0
ELLIPSE
5
A9
100
AcDbEntity
8
1
62
256
6
ByLayer
370
18
48
1
60
0
100
AcDbEllipse
10
54.324535
20
1.724558
30
0
11
0.527213515648618
21
-1.42670842567599
31
0
210
0
220
0
230
-1
40
0.115174
41
-1.50404244166408
42
-0.742863466703566
0
ELLIPSE
5
AA
100
AcDbEntity
8
1
62
256
6
ByLayer
370
13
48
1
60
0
100
AcDbEllipse
10
54.480919
20
1.601361
30
0
11
1.98349269759651
21
-1.36569112563236
31
0
210
0
220
0
230
-1
40
0.533762
41
1.44484622742524
42
1.69143316817163
0
ELLIPSE
5
AB
100
AcDbEntity
8
1
62
256
6
ByLayer
370
13
48
1
60
0
100
AcDbEllipse
10
54.196808
20
0.502678
30
0
11
0.153082081612419
21
0.258003636193773
31
0
210
0
220
0
230
1
40
0.454519
41
0.917105603404793
42
2.31336900500028
0
ELLIPSE
5
AC
100
AcDbEntity
8
1
62
256
6
ByLayer
370
18
48
1
60
0
100
AcDbEllipse
10
54.860515
20
0.108878
30
0
11
0.0727819104949699
21
0.301917195704642
31
0
210
0
220
0
230
-1
40
0.478434
41
1.70536323010633
42
2.45976119971806
0
ELLIPSE
5
AD
100
AcDbEntity
8
1
62
256
6
ByLayer
370
18
48
1
60
0
100
AcDbEllipse
10
55.046547
20
-0.001501
30
0
11
0.137979128832678
21
-0.428995648054363
31
0
210
0
220
0
230
-1
40
0.08774
41
1.68151028907504
42
2.32337572123661
0
ELLIPSE
5
AE
100
AcDbEntity
8
1
62
256
6
ByLayer
370
13
48
1
60
0
100
AcDbEllipse
10
4.178826
20
0.299194
30
0
11
0.0495936296389603
21
0.0868358906169197
31
0
210
0
220
0
230
1
40
0.391452
41
1.87939421263715
42
-3.08113066580648
0
ELLIPSE
5
AF
100
AcDbEntity
8
1
62
256
6
ByLayer
370
18
48
1
60
0
100
AcDbEllipse
10
55.000305
20
0.000743
30
0
11
1.25551340823192
21
3.39758275062749
31
0
210
0
220
0
230
-1
40
0.115174
41
2.85983548388527
42
2.96855387923319
0
POINT
5
6C
100
AcDbEntity
8
81
62
256
6
ByLayer
370
18
48
1
60
0
100
AcDbPoint
10
55
20
0
30
0
39
0
210
0
220
0
230
1
50
360
0
POINT
5
6E
100
AcDbEntity
8
80
62
256
6
ByLayer
370
18
48
1
60
0
100
AcDbPoint
10
0
20
0
30
0
39
0
210
0
220
0
230
1
50
360
0
POINT
5
70
100
AcDbEntity
8
SK2
62
256
6
ByLayer
370
18
48
1
60
1
100
AcDbPoint
10
-36
20
-4
30
0
39
0
210
0
220
0
230
1
50
360
0
POINT
5
72
100
AcDbEntity
8
SK2
62
256
6
ByLayer
370
18
48
1
60
1
100
AcDbPoint
10
-36
20
4
30
0
39
0
210
0
220
0
230
1
50
360
0
POINT
5
73
100
AcDbEntity
8
2
62
256
6
ByLayer
370
18
48
1
60
1
100
AcDbPoint
10
53.84
20
-3.4
30
0
39
0
210
0
220
0
230
1
50
360
0
POINT
5
75
100
AcDbEntity
8
2
62
256
6
ByLayer
370
18
48
1
60
1
100
AcDbPoint
10
53.84
20
3.4
30
0
39
0
210
0
220
0
230
1
50
360
0
SPLINE
5
B0
100
AcDbEntity
8
1
62
256
6
ByLayer
370
18
48
1
60
0
100
AcDbSpline
70
4
71
2
72
6
73
3
40
0
40
0
40
0
40
1
40
1
40
1
41
1
10
4.70696190293745
20
3.21275920164393
30
0
41
1
10
4.47905105928257
20
3.21214956486233
30
0
41
1
10
4.25140811460969
20
3.21001567100024
30
0
0
SPLINE
5
B1
100
AcDbEntity
8
1
62
256
6
ByLayer
370
18
48
1
60
0
100
AcDbSpline
70
4
71
3
72
24
73
20
40
0
40
0
40
0
40
0
40
0.0865621337354422
40
0.163343764621807
40
0.231309002406942
40
0.289639810712382
40
0.33804642795777
40
0.384616147579126
40
0.438121592091927
40
0.507829219948239
40
0.609602447293862
40
0.694397251961497
40
0.762450321310738
40
0.790939990714422
40
0.815795614411545
40
0.843901697072527
40
0.891223252542149
40
0.958485321891003
40
1
40
1
40
1
40
1
41
1
10
14.3827454761081
20
-3.21531276443298
30
0
41
1
10
14.6524614821888
20
-3.21503437080943
30
0
41
1
10
15.1623820614417
20
-3.21499571251457
30
0
41
1
10
15.8928519552685
20
-3.21366499189506
30
0
41
1
10
16.5265646171673
20
-3.21777271043035
30
0
41
1
10
17.0728317502247
20
-3.21716547250128
30
0
41
1
10
17.5560771371517
20
-3.21814239621821
30
0
41
1
10
18.0228370464544
20
-3.2190591414292
30
0
41
1
10
18.5572902920026
20
-3.21785209068403
30
0
41
1
10
19.265234435876
20
-3.22067101956893
30
0
41
1
10
20.0717539226449
20
-3.21815076963824
30
0
41
1
10
20.872968381796
20
-3.22230716617688
30
0
41
1
10
21.4437227058789
20
-3.22030259194392
30
0
41
1
10
21.8253860774854
20
-3.22023369866011
30
0
41
1
10
22.0801835157138
20
-3.22055856869159
30
0
41
1
10
22.3945917417444
20
-3.22172558157416
30
0
41
1
10
22.8442163880451
20
-3.2213574479033
30
0
41
1
10
23.3351063206789
20
-3.22082851360247
30
0
41
1
10
23.6767237039222
20
-3.22171540425725
30
0
41
1
10
23.807024540917
20
-3.22216223702767
30
0
0
SPLINE
5
B2
100
AcDbEntity
8
1
62
256
6
ByLayer
370
18
48
1
60
0
100
AcDbSpline
70
4
71
3
72
13
73
9
40
0
40
0
40
0
40
0
40
0.0005431822819986
40
0.266711213285131
40
0.396885434937231
40
0.527727706159803
40
0.725859002195102
40
1
40
1
40
1
40
1
41
1
10
25.0282959237656
20
-0.95264697878136
30
0
41
1
10
25.0282949003644
20
-0.952647624243184
30
0
41
1
10
25.0278045249086
20
-0.952966609402836
30
0
41
1
10
25.0359311063646
20
-0.954935128131893
30
0
41
1
10
25.0803885525256
20
-0.972447976348377
30
0
41
1
10
25.1541053953005
20
-1.00532767523831
30
0
41
1
10
25.3377176934988
20
-1.09144195072989
30
0
41
1
10
25.4925658059415
20
-1.16866498332649
30
0
41
1
10
25.5947930909347
20
-1.22062005256163
30
0
0
SPLINE
5
B3
100
AcDbEntity
8
1
62
256
6
ByLayer
370
18
48
1
60
0
100
AcDbSpline
70
4
71
3
72
13
73
9
40
0
40
0
40
0
40
0
40
0.0976940006086858
40
0.419686340653399
40
0.506869279199132
40
0.613596193115358
40
0.772852856074398
40
1
40
1
40
1
40
1
41
1
10
44.4241474747265
20
-0.95140220884403
30
0
41
1
10
44.4240953321717
20
-0.951363633071537
30
0
41
1
10
44.4300579006614
20
-0.952784696136462
30
0
41
1
10
44.4475073287056
20
-0.959450859218833
30
0
41
1
10
44.4982583444612
20
-0.981761987018785
30
0
41
1
10
44.6068801744111
20
-1.02960503549175
30
0
41
1
10
44.7638537820238
20
-1.10264193973526
30
0
41
1
10
44.883787056201
20
-1.16323596526257
30
0
41
1
10
44.9541481099279
20
-1.20039499314868
30
0
0
SPLINE
5
B4
100
AcDbEntity
8
1
62
256
6
ByLayer
370
18
48
1
60
0
100
AcDbSpline
70
4
71
3
72
26
73
22
40
0
40
0
40
0
40
0
40
0.0685193870718387
40
0.123081238310064
40
0.158752075951512
40
0.191650106412487
40
0.230167205402064
40
0.273850456970884
40
0.317193903592038
40
0.426421525613572
40
0.520903126099256
40
0.563261375445718
40
0.602932796486785
40
0.650373680949997
40
0.707988957969292
40
0.763642897997985
40
0.797403179821761
40
0.828764712600629
40
0.87927479366577
40
0.950596251409111
40
1
40
1
40
1
40
1
41
1
10
33.8357973506104
20
-3.22715503006918
30
0
41
1
10
34.0505349920595
20
-3.22735677759692
30
0
41
1
10
34.4362896359868
20
-3.2276462678872
30
0
41
1
10
34.933963096484
20
-3.22800669845097
30
0
41
1
10
35.3199050805782
20
-3.22799015165287
30
0
41
1
10
35.65559904577
20
-3.22820220174725
30
0
41
1
10
36.0163835670233
20
-3.22881139179069
30
0
41
1
10
36.4098836972012
20
-3.22885617648586
30
0
41
1
10
37.0250741228379
20
-3.22860446654042
30
0
41
1
10
37.79952701902
20
-3.23023159831442
30
0
41
1
10
38.5708245267032
20
-3.2292590547205
30
0
41
1
10
39.1241216915147
20
-3.23076724646302
30
0
41
1
10
39.5299736317207
20
-3.23041753221008
30
0
41
1
10
39.983651876329
20
-3.22993867476563
30
0
41
1
10
40.4874226771517
20
-3.23249279213735
30
0
41
1
10
40.9483339105124
20
-3.23190956730744
30
0
41
1
10
41.3268290562268
20
-3.23137529668844
30
0
41
1
10
41.6890306450322
20
-3.2309966509155
30
0
41
1
10
42.1693219945558
20
-3.23234405982456
30
0
41
1
10
42.7061162099421
20
-3.23056969535855
30
0
41
1
10
43.0844219427087
20
-3.23201962194037
30
0
41
1
10
43.2392157327589
20
-3.23275476526211
30
0
0
SPLINE
5
B5
100
AcDbEntity
8
1
62
256
6
ByLayer
370
18
48
1
60
0
100
AcDbSpline
70
4
71
1
72
4
73
2
40
0
40
0
40
1
40
1
41
1
10
43.3235560619179
20
0.0002453868647194
30
0
41
1
10
43.3235467470596
20
0.0002523013635312
30
0
0
SPLINE
5
B6
100
AcDbEntity
8
1
62
256
6
ByLayer
370
18
48
1
60
0
100
AcDbSpline
70
4
71
3
72
23
73
19
40
0
40
0
40
0
40
0
40
0.0459812804972766
40
0.112988673542877
40
0.163665561150167
40
0.223181459215315
40
0.293784920957735
40
0.390765049975228
40
0.473901136791859
40
0.545188676732204
40
0.598864021270887
40
0.652970168543677
40
0.71559783165781
40
0.790715728426179
40
0.858459861084572
40
0.899087361151123
40
0.943956830787988
40
1
40
1
40
1
40
1
41
1
10
23.8900132019708
20
3.22246464240695
30
0
41
1
10
23.7701369898528
20
3.22211963311139
30
0
41
1
10
23.4755293236762
20
3.22156031166071
30
0
41
1
10
23.0478786725169
20
3.22111025679516
30
0
41
1
10
22.5861703239428
20
3.22304843335013
30
0
41
1
10
22.1143185913475
20
3.2210568527658
30
0
41
1
10
21.5214483189386
20
3.21972683451494
30
0
41
1
10
20.8669301634529
20
3.22233253308437
30
0
41
1
10
20.210619286725
20
3.21873924321108
30
0
41
1
10
19.6673589819379
20
3.21994431841509
30
0
41
1
10
19.1998803275925
20
3.22007426263667
30
0
41
1
10
18.7550201924753
20
3.21812804792248
30
0
41
1
10
18.2541781210854
20
3.21858213480095
30
0
41
1
10
17.7177576723942
20
3.21886210238196
30
0
41
1
10
17.2386467503375
20
3.21738103565016
30
0
41
1
10
16.8389609445432
20
3.21739057020417
30
0
41
1
10
16.4694071811333
20
3.21741782464858
30
0
41
1
10
16.2060157552185
20
3.21706212127006
30
0
41
1
10
16.0597368505357
20
3.21688210056712
30
0
0
SPLINE
5
B7
100
AcDbEntity
8
1
62
256
6
ByLayer
370
18
48
1
60
0
100
AcDbSpline
70
4
71
2
72
6
73
3
40
0
40
0
40
0
40
1
40
1
40
1
41
1
10
4.25140811540589
20
-3.2100156710072
30
0
41
1
10
4.48526442119163
20
-3.212200166847
30
0
41
1
10
4.71939593650404
20
-3.21281881101194
30
0
0
SPLINE
5
B8
100
AcDbEntity
8
1
62
256
6
ByLayer
370
18
48
1
60
0
100
AcDbSpline
70
4
71
2
72
6
73
3
40
0
40
0
40
0
40
1
40
1
40
1
41
1
10
53.2744787478122
20
-3.2386804619874
30
0
41
1
10
53.5493389691788
20
-3.23706029889277
30
0
41
1
10
53.8239179381223
20
-3.23981969392457
30
0
0
SPLINE
5
B9
100
AcDbEntity
8
1
62
256
6
ByLayer
370
18
48
1
60
0
100
AcDbSpline
70
4
71
3
72
24
73
20
40
0
40
0
40
0
40
0
40
0.0415523289642965
40
0.108247696003628
40
0.156904788401742
40
0.209522801235529
40
0.271268489922657
40
0.33516397959428
40
0.393155107294261
40
0.434015918099268
40
0.481270860576629
40
0.540991496789657
40
0.6504694537736
40
0.749926781317011
40
0.833344393977058
40
0.873093685059598
40
0.913108564282358
40
0.955191263435815
40
1
40
1
40
1
40
1
41
1
10
43.2819811457767
20
3.23262893003439
30
0
41
1
10
43.1736275058303
20
3.23203075840342
30
0
41
1
10
42.8913367470859
20
3.23084487037946
30
0
41
1
10
42.4817019318854
20
3.23150409227185
30
0
41
1
10
42.0438008049459
20
3.23201446169304
30
0
41
1
10
41.6185919892964
20
3.23099438418873
30
0
41
1
10
41.1533451690944
20
3.23155345524435
30
0
41
1
10
40.6741491038209
20
3.23257196828729
30
0
41
1
10
40.2494279777191
20
3.23107320783959
30
0
41
1
10
39.868143400569
20
3.23010769585258
30
0
41
1
10
39.4823373496497
20
3.23049053158596
30
0
41
1
10
38.9174878125239
20
3.23067074894655
30
0
41
1
10
38.2164049930738
20
3.22898679536189
30
0
41
1
10
37.453445702506
20
3.23007116354313
30
0
41
1
10
36.8724983951846
20
3.22866741581979
30
0
41
1
10
36.446648522053
20
3.22888150414963
30
0
41
1
10
36.1286688181867
20
3.22885123278206
30
0
41
1
10
35.7974871003129
20
3.22845920801143
30
0
41
1
10
35.5707596667663
20
3.22820349616774
30
0
41
1
10
35.45383498875
20
3.22810197884246
30
0
0
SPLINE
5
BA
100
AcDbEntity
8
1
62
256
6
ByLayer
370
13
48
1
60
0
100
AcDbSpline
70
4
71
3
72
8
73
4
40
0
40
0
40
0
40
0
40
1
40
1
40
1
40
1
41
1
10
4.13137742835983
20
0.291316074399305
30
0
41
1
10
4.16834066031436
20
0.278243506171577
30
0
41
1
10
4.20888901969244
20
0.264998638176621
30
0
41
1
10
4.2503990142404
20
0.252093627286968
30
0
0
SPLINE
5
BB
100
AcDbEntity
8
1
62
256
6
ByLayer
370
18
48
1
60
0
100
AcDbSpline
70
4
71
3
72
10
73
6
40
0
40
0
40
0
40
0
40
0.058100473867769
40
0.058100473867769
40
1
40
1
40
1
40
1
41
1
10
4.01700479933942
20
-3.37006766806459
30
0
41
1
10
4.01700510609129
20
-3.37007019846189
30
0
41
1
10
4.01700541012971
20
-3.37005207264312
30
0
41
1
10
4.01701059537459
20
-3.36938408047501
30
0
41
1
10
4.01701478024486
20
-3.36340559380247
30
0
41
1
10
4.0170181473411
20
-3.35218917293122
30
0
0
SPLINE
5
BC
100
AcDbEntity
8
1
62
256
6
ByLayer
370
13
48
1
60
0
100
AcDbSpline
70
4
71
3
72
10
73
6
40
0
40
0
40
0
40
0
40
0.5
40
0.5
40
1
40
1
40
1
40
1
41
1
10
4.0165428016839
20
0.378199454675126
30
0
41
1
10
4.026762441709
20
0.360222263426692
30
0
41
1
10
4.04131349494102
20
0.34369540485838
30
0
41
1
10
4.0802344516309
20
0.313765517783338
30
0
41
1
10
4.10370010731538
20
0.30110454928672
30
0
41
1
10
4.13137742835983
20
0.291316074399276
30
0
0
SPLINE
5
BD
100
AcDbEntity
8
1
62
256
6
ByLayer
370
18
48
1
60
0
100
AcDbSpline
70
4
71
3
72
55
73
51
40
0
40
0
40
0
40
0
40
0.0625000000000088
40
0.0625000000000088
40
0.125000000000018
40
0.125000000000018
40
0.250000000000036
40
0.250000000000036
40
0.375000000000055
40
0.375000000000055
40
0.500000000000074
40
0.500000000000074
40
0.562500000000082
40
0.562500000000082
40
0.625000000000091
40
0.625000000000091
40
0.656250000000095
40
0.656250000000095
40
0.664062500000097
40
0.664062500000097
40
0.666015625000097
40
0.666015625000097
40
0.667968750000096
40
0.667968750000096
40
0.671875000000094
40
0.687500000000091
40
0.687500000000091
40
0.718750000000081
40
0.718750000000081
40
0.750000000000072
40
0.750000000000072
40
0.765625000000068
40
0.765625000000068
40
0.781250000000064
40
0.781250000000064
40
0.79687500000006
40
0.79687500000006
40
0.812500000000056
40
0.812500000000056
40
0.828125000000052
40
0.828125000000052
40
0.843750000000048
40
0.843750000000048
40
0.875000000000038
40
0.875000000000038
40
0.906250000000029
40
0.906250000000029
40
0.93750000000002
40
0.93750000000002
40
1
40
1
40
1
40
1
41
1
10
12.1077018060285
20
-3.27573794646653
30
0
41
1
10
11.8422287055231
20
-3.2405168535455
30
0
41
1
10
11.5749813165269
20
-3.19713906051308
30
0
41
1
10
11.0364968764047
20
-3.09695704712641
30
0
41
1
10
10.7646812696294
20
-3.03999952063688
30
0
41
1
10
9.94715494685789
20
-2.85441081754479
30
0
41
1
10
9.39944237444843
20
-2.71111865910112
30
0
41
1
10
8.29156777992975
20
-2.41304729576311
30
0
41
1
10
7.7313360555076
20
-2.25839527074871
30
0
41
1
10
6.59239537217974
20
-1.96668966859446
30
0
41
1
10
6.01367646517889
20
-1.82980487193325
30
0
41
1
10
5.12915284716644
20
-1.65672744532853
30
0
41
1
10
4.83157546478597
20
-1.60438962736899
30
0
41
1
10
4.23474554174734
20
-1.51336695939577
30
0
41
1
10
3.93496306327933
20
-1.47456891496225
30
0
41
1
10
3.48330252887069
20
-1.42770415530728
30
0
41
1
10
3.33253269669362
20
-1.4139796890932
30
0
41
1
10
3.14379400200795
20
-1.39929564653789
30
0
41
1
10
3.10592203027926
20
-1.39449513748241
30
0
41
1
10
3.05951178961752
20
-1.4043935690861
30
0
41
1
10
3.0502249708511
20
-1.40717386725228
30
0
41
1
10
3.03328668650755
20
-1.41487034236155
30
0
41
1
10
3.02487497063331
20
-1.4188080527349
30
0
41
1
10
2.99962777263852
20
-1.43059038423601
30
0
41
1
10
2.9158006857599
20
-1.47032426016332
30
0
41
1
10
2.83367989719798
20
-1.51242154843149
30
0
41
1
10
2.64060738189269
20
-1.61888739479417
30
0
41
1
10
2.51816728824116
20
-1.69638669661731
30
0
41
1
10
2.29650430062432
20
-1.86897110417567
30
0
41
1
10
2.19580489927589
20
-1.96575680275578
30
0
41
1
10
2.08556069662851
20
-2.12223228145754
30
0
41
1
10
2.05538242034226
20
-2.1769923767159
30
0
41
1
10
2.01408798795393
20
-2.28526319152189
30
0
41
1
10
2.002396716595
20
-2.33955471942582
30
0
41
1
10
1.99824479371625
20
-2.44714620403528
30
0
41
1
10
2.00578026315247
20
-2.49820137061027
30
0
41
1
10
2.03680198134907
20
-2.59542562173786
30
0
41
1
10
2.06038171344448
20
-2.64132454920036
30
0
41
1
10
2.11808799160411
20
-2.72553360022195
30
0
41
1
10
2.15239839235142
20
-2.76441269725981
30
0
41
1
10
2.2293279633366
20
-2.83703356253787
30
0
41
1
10
2.27182925489638
20
-2.87058309621827
30
0
41
1
10
2.40607579157586
20
-2.96302422726168
30
0
41
1
10
2.50533706339354
20
-3.01474863407208
30
0
41
1
10
2.71580430359535
20
-3.10501699616631
30
0
41
1
10
2.82737860085103
20
-3.14344339998758
30
0
41
1
10
3.05453677491786
20
-3.20895270858051
30
0
41
1
10
3.1707696433856
20
-3.23627778730372
30
0
41
1
10
3.525107757526
20
-3.30557824846522
30
0
41
1
10
3.7687360734673
20
-3.33505326866413
30
0
41
1
10
4.01701814734176
20
-3.35218917293122
30
0
0
SPLINE
5
BE
100
AcDbEntity
8
1
62
256
6
ByLayer
370
18
48
1
60
0
100
AcDbSpline
70
4
71
3
72
12
73
8
40
0
40
0
40
0
40
0
40
0.333667074596762
40
0.333667074596762
40
0.739305314087552
40
0.739305314087552
40
1
40
1
40
1
40
1
41
1
10
8.14945194769047
20
-2.37710195122688
30
0
41
1
10
8.05005014909051
20
-2.44067723170429
30
0
41
1
10
7.94962533897575
20
-2.50304168986844
30
0
41
1
10
7.7278508889209
20
-2.6354654856564
30
0
41
1
10
7.60597740507126
20
-2.7047414941137
30
0
41
1
10
7.4048964097737
20
-2.81265796904785
30
0
41
1
10
7.32600485718118
20
-2.85340233810189
30
0
41
1
10
7.24684142491392
20
-2.89269071421688
30
0
0
SPLINE
5
BF
100
AcDbEntity
8
1
62
256
6
ByLayer
370
18
48
1
60
0
100
AcDbSpline
70
4
71
3
72
66
73
62
40
0
40
0
40
0
40
0
40
0.0624921890953139
40
0.0624921890953139
40
0.0937382836429709
40
0.0937382836429709
40
0.124984378190628
40
0.124984378190628
40
0.156230472738285
40
0.156230472738285
40
0.187476567285942
40
0.187476567285942
40
0.218722661833599
40
0.218722661833599
40
0.249968756381256
40
0.249968756381256
40
0.281214850928913
40
0.281214850928913
40
0.31246094547657
40
0.31246094547657
40
0.343707040024227
40
0.343707040024227
40
0.374953134571884
40
0.374953134571884
40
0.40619922911954
40
0.40619922911954
40
0.437445323667198
40
0.437445323667198
40
0.499937512762512
40
0.499937512762512
40
0.53118360731017
40
0.53118360731017
40
0.562429701857827
40
0.562429701857827
40
0.593675796405484
40
0.593675796405484
40
0.624921890953142
40
0.624921890953142
40
0.656167985500799
40
0.656167985500799
40
0.687414080048457
40
0.687414080048457
40
0.718660174596113
40
0.718660174596113
40
0.74990626914377
40
0.74990626914377
40
0.781152363691426
40
0.781152363691426
40
0.812398458239083
40
0.812398458239083
40
0.84364455278674
40
0.84364455278674
40
0.874890647334396
40
0.874890647334396
40
0.937382836429711
40
0.937382836429711
40
0.968628930977368
40
0.968628930977368
40
0.999875025525026
40
0.999875025525026
40
1
40
1
40
1
40
1
41
1
10
12.107238623264
20
3.27567131781439
30
0
41
1
10
12.5459938085207
20
3.33427811582669
30
0
41
1
10
12.9837288168276
20
3.36640826685044
30
0
41
1
10
13.6352513652578
20
3.37790927769245
30
0
41
1
10
13.8516726941192
20
3.37539312493809
30
0
41
1
10
14.2856949912535
20
3.358021061225
30
0
41
1
10
14.5028586570126
20
3.34320763920852
30
0
41
1
10
14.9369879318994
20
3.30116564375777
30
0
41
1
10
15.153544088484
20
3.27369021264298
30
0
41
1
10
15.5884891191921
20
3.20681462186707
30
0
41
1
10
15.8068966293678
20
3.16754165121273
30
0
41
1
10
16.2449296788998
20
3.07691567416259
30
0
41
1
10
16.4651044253786
20
3.02530637342915
30
0
41
1
10
16.9028299816909
20
2.91034370184161
30
0
41
1
10
17.1213273230309
20
2.84785619268351
30
0
41
1
10
17.5575529842477
20
2.71327140596009
30
0
41
1
10
17.7751992852198
20
2.64109408208324
30
0
41
1
10
18.2090259246332
20
2.48628690338646
30
0
41
1
10
18.4252559648562
20
2.40364288186902
30
0
41
1
10
18.8591168766927
20
2.2315891870692
30
0
41
1
10
19.0763031563948
20
2.1416490705119
30
0
41
1
10
19.5106853681097
20
1.95318161597064
30
0
41
1
10
19.7274764216302
20
1.85397441479844
30
0
41
1
10
20.163044652293
20
1.64976402261297
30
0
41
1
10
20.3818661715954
20
1.54491413792081
30
0
41
1
10
20.8209296055306
20
1.32859029056399
30
0
41
1
10
21.0409685998304
20
1.21702442611888
30
0
41
1
10
21.6957369473292
20
0.875704632208539
30
0
41
1
10
22.1314752499156
20
0.64534033714375
30
0
41
1
10
22.7815172669712
20
0.291205050176984
30
0
41
1
10
22.9975801304262
20
0.171674000882547
30
0
41
1
10
23.4312876589183
20
-0.0651064451508034
30
0
41
1
10
23.6484862283697
20
-0.183182808093164
30
0
41
1
10
24.0830734996964
20
-0.419647656174447
30
0
41
1
10
24.3000604037149
20
-0.538796155673197
30
0
41
1
10
24.7361506515096
20
-0.773804005924092
30
0
41
1
10
24.9553322655322
20
-0.88950931839625
30
0
41
1
10
25.3953084474672
20
-1.11857530086587
30
0
41
1
10
25.6142966895584
20
-1.23113127620022
30
0
41
1
10
26.0499474494711
20
-1.45202754940075
30
0
41
1
10
26.2675496499255
20
-1.55883633394768
30
0
41
1
10
26.7023706712897
20
-1.76541321518317
30
0
41
1
10
26.9194869220213
20
-1.86535984280789
30
0
41
1
10
27.3526049222313
20
-2.05931613110047
30
0
41
1
10
27.5685919748178
20
-2.1532796015357
30
0
41
1
10
28.0023229745107
20
-2.33102381029946
30
0
41
1
10
28.2196169468023
20
-2.41550234771785
30
0
41
1
10
28.6545639850582
20
-2.57627366636603
30
0
41
1
10
28.8718221933104
20
-2.65300667079595
30
0
41
1
10
29.3085483974973
20
-2.7957241854721
30
0
41
1
10
29.5287234452348
20
-2.86180141399944
30
0
41
1
10
29.9677584709085
20
-2.98292900150423
30
0
41
1
10
30.1862535721205
20
-3.037954898837
30
0
41
1
10
30.8385867969811
20
-3.18629259004584
30
0
41
1
10
31.2732542643435
20
-3.26015150356651
30
0
41
1
10
31.9227414660308
20
-3.33577324118542
30
0
41
1
10
32.1387122773787
20
-3.35496655180359
30
0
41
1
10
32.5725668182014
20
-3.38053930371714
30
0
41
1
10
32.7900011573531
20
-3.38711992738297
30
0
41
1
10
33.0085656054533
20
-3.38745922203657
30
0
41
1
10
33.0094363093542
20
-3.38746047223353
30
0
41
1
10
33.0103070112658
20
-3.38746162095722
30
0
0
SPLINE
5
C0
100
AcDbEntity
8
1
62
256
6
ByLayer
370
18
48
1
60
0
100
AcDbSpline
70
4
71
3
72
26
73
22
40
0
40
0
40
0
40
0
40
0.161689583865483
40
0.161689583865483
40
0.266478385882299
40
0.266478385882299
40
0.371267187899116
40
0.371267187899116
40
0.476055989915932
40
0.476055989915932
40
0.580844791932748
40
0.580844791932748
40
0.633239192941156
40
0.633239192941156
40
0.685633593949565
40
0.685633593949565
40
0.790422395966377
40
0.790422395966377
40
0.895211197983189
40
0.895211197983189
40
1
40
1
40
1
40
1
41
1
10
47.6730843875379
20
2.44060531267397
30
0
41
1
10
48.0099912781523
20
2.56929760891785
30
0
41
1
10
48.3458507674287
20
2.68572801541154
30
0
41
1
10
48.8960721810782
20
2.85974048142825
30
0
41
1
10
49.1124462035222
20
2.92258227389456
30
0
41
1
10
49.5458677049783
20
3.03679239884369
30
0
41
1
10
49.762712790469
20
3.08837376836536
30
0
41
1
10
50.1961720201654
20
3.18070336924177
30
0
41
1
10
50.4125829535428
20
3.22149006678907
30
0
41
1
10
50.8479885026778
20
3.29019960247459
30
0
41
1
10
51.0665544418746
20
3.31846649621318
30
0
41
1
10
51.3953353730087
20
3.35176398227185
30
0
41
1
10
51.5052229170522
20
3.36134697043309
30
0
41
1
10
51.7242713748799
20
3.37733267218496
30
0
41
1
10
51.8334444627009
20
3.3837427509477
30
0
41
1
10
52.1610151807762
20
3.39804064737376
30
0
41
1
10
52.3794258177253
20
3.40109245804894
30
0
41
1
10
52.8155360207067
20
3.39470630473906
30
0
41
1
10
53.0332541171977
20
3.38525582619863
30
0
41
1
10
53.4676054882971
20
3.35346122752512
30
0
41
1
10
53.6850344618008
20
3.33127445159778
30
0
41
1
10
53.9031008468805
20
3.30307366932939
30
0
0
SPLINE
5
C1
100
AcDbEntity
8
1
62
256
6
ByLayer
370
18
48
1
60
0
100
AcDbSpline
70
4
71
3
72
10
73
6
40
0
40
0
40
0
40
0
40
0.96154116896246
40
0.96154116896246
40
1
40
1
40
1
40
1
41
1
10
53.8309163001148
20
3.37099815294499
30
0
41
1
10
53.5707555412165
20
3.38955425898868
30
0
41
1
10
53.3106864258705
20
3.39903449183706
30
0
41
1
10
53.0399229024069
20
3.39947757213199
30
0
41
1
10
53.0295084001423
20
3.39948005896707
30
0
41
1
10
53.0190927253743
20
3.39946799772136
30
0
0
SPLINE
5
C2
100
AcDbEntity
8
1
62
256
6
ByLayer
370
18
48
1
60
0
100
AcDbSpline
70
4
71
3
72
44
73
40
40
0
40
0
40
0
40
0
40
0.0123942244795872
40
0.0123942244795872
40
0.0489559547265555
40
0.0489559547265555
40
0.0855176849735238
40
0.0855176849735238
40
0.15864114546746
40
0.15864114546746
40
0.195202875714428
40
0.195202875714428
40
0.213483740837911
40
0.213483740837911
40
0.231764605961395
40
0.231764605961395
40
0.304888066455327
40
0.304888066455327
40
0.378011526949258
40
0.378011526949258
40
0.414573257196224
40
0.414573257196224
40
0.451134987443189
40
0.451134987443189
40
0.597381908431048
40
0.597381908431048
40
0.633943638678013
40
0.633943638678013
40
0.670505368924978
40
0.670505368924978
40
0.743628829418908
40
0.743628829418908
40
0.816752289912839
40
0.816752289912839
40
0.853314020159803
40
0.853314020159803
40
0.889875750406768
40
0.889875750406768
40
1
40
1
40
1
40
1
41
1
10
35.4576683050089
20
-3.24066889138251
30
0
41
1
10
35.3694386592597
20
-3.25477838758769
30
0
41
1
10
35.2810806666547
20
-3.26791752774275
30
0
41
1
10
34.9315022331471
20
-3.31591576558472
30
0
41
1
10
34.6711332092856
20
-3.34284317470929
30
0
41
1
10
34.1527041210286
20
-3.37871109873518
30
0
41
1
10
33.8943717291169
20
-3.38770746105445
30
0
41
1
10
33.1206428780819
20
-3.38808586181705
30
0
41
1
10
32.6063088474559
20
-3.3528861136686
30
0
41
1
10
31.8319457966992
20
-3.24792904165236
30
0
41
1
10
31.5732822300442
20
-3.20427162410044
30
0
41
1
10
31.1837543433155
20
-3.12599559913886
30
0
41
1
10
31.0536548377684
20
-3.09777402620293
30
0
41
1
10
30.7928549303763
20
-3.03708051097513
30
0
41
1
10
30.6620723568537
20
-3.00457726114459
30
0
41
1
10
30.0107090186003
20
-2.83275498361329
30
0
41
1
10
29.4942823875347
20
-2.66489106350434
30
0
41
1
10
28.4633270781906
20
-2.27826936760928
30
0
41
1
10
27.9487675034392
20
-2.05955236090699
30
0
41
1
10
27.1728636984973
20
-1.70082625101915
30
0
41
1
10
26.9135121655711
20
-1.57620874677846
30
0
41
1
10
26.392523081799
20
-1.31806425515728
30
0
41
1
10
26.1308542862036
20
-1.18445661895441
30
0
41
1
10
24.8318212639257
20
-0.507579888902995
30
0
41
1
10
23.8083471946521
20
0.0692908297840233
30
0
41
1
10
22.5123861408946
20
0.766965325616951
30
0
41
1
10
22.2522283909779
20
0.905270735603835
30
0
41
1
10
21.7294974462527
20
1.17734645420185
30
0
41
1
10
21.4694600871623
20
1.30991036419684
30
0
41
1
10
20.6919149717867
20
1.69502151101787
30
0
41
1
10
20.1768207840241
20
1.93471716204453
30
0
41
1
10
19.1458324474355
20
2.36923628203817
30
0
41
1
10
18.6300907972676
20
2.56425328703082
30
0
41
1
10
17.8501709000448
20
2.81491700878601
30
0
41
1
10
17.5883547274437
20
2.89180043990436
30
0
41
1
10
17.0673511152936
20
3.02884892329806
30
0
41
1
10
16.8079530169742
20
3.08912364482319
30
0
41
1
10
15.7699016149146
20
3.297223138812
30
0
41
1
10
14.9967816376759
20
3.37705276714675
30
0
41
1
10
14.2170052625181
20
3.37614358269997
30
0
0
SPLINE
5
C3
100
AcDbEntity
8
1
62
256
6
ByLayer
370
18
48
1
60
0
100
AcDbSpline
70
4
71
3
72
12
73
8
40
0
40
0
40
0
40
0
40
0.249999999999993
40
0.249999999999993
40
0.499999999999986
40
0.499999999999986
40
1
40
1
40
1
40
1
41
1
10
53.8545512111915
20
-3.30771653209163
30
0
41
1
10
53.8594546469368
20
-3.29456908585706
30
0
41
1
10
53.864033105871
20
-3.28115636625259
30
0
41
1
10
53.8712372200739
20
-3.25712932913939
30
0
41
1
10
53.8738409284276
20
-3.24653507652579
30
0
41
1
10
53.8777579495631
20
-3.223292287954
30
0
41
1
10
53.8755073336336
20
-3.21897356339318
30
0
41
1
10
53.8708788394665
20
-3.22181554018087
30
0
0
SPLINE
5
C4
100
AcDbEntity
8
1
62
256
6
ByLayer
370
18
48
1
60
0
100
AcDbSpline
70
4
71
3
72
30
73
26
40
0
40
0
40
0
40
0
40
0.249999999999993
40
0.249999999999993
40
0.499999999999987
40
0.499999999999987
40
0.624999999999979
40
0.624999999999979
40
0.687499999999979
40
0.687499999999979
40
0.74999999999998
40
0.74999999999998
40
0.81249999999998
40
0.81249999999998
40
0.843749999999983
40
0.843749999999983
40
0.874999999999987
40
0.874999999999987
40
0.90624999999999
40
0.90624999999999
40
0.937499999999993
40
0.937499999999993
40
0.968749999999997
40
0.968749999999997
40
1
40
1
40
1
40
1
41
1
10
51.1105880820201
20
0.954390332198841
30
0
41
1
10
51.3460713948782
20
0.801376445940434
30
0
41
1
10
51.5825162475394
20
0.661837095858886
30
0
41
1
10
52.0586044468918
20
0.427580485609582
30
0
41
1
10
52.2981799604877
20
0.331912646496818
30
0
41
1
10
52.6606994943405
20
0.232641179714875
30
0
41
1
10
52.7804319845861
20
0.207410799846997
30
0
41
1
10
52.9572498409331
20
0.1833450271061
30
0
41
1
10
53.01568135758
20
0.177591486827652
30
0
41
1
10
53.1312497855395
20
0.170885917668727
30
0
41
1
10
53.188827138269
20
0.168864587079554
30
0
41
1
10
53.2979548730285
20
0.1815146537065
30
0
41
1
10
53.3492239721836
20
0.194929402144425
30
0
41
1
10
53.4169996904785
20
0.231307423815565
30
0
41
1
10
53.4382698825002
20
0.246547987032585
30
0
41
1
10
53.4753851789156
20
0.283671393212188
30
0
41
1
10
53.4912309609674
20
0.30517363699056
30
0
41
1
10
53.5174716163035
20
0.354088673998291
30
0
41
1
10
53.5277466426788
20
0.381691448689878
30
0
41
1
10
53.5416819548629
20
0.440417566691082
30
0
41
1
10
53.5455392906158
20
0.4718807288628
30
0
41
1
10
53.547179441816
20
0.538502628680163
30
0
41
1
10
53.5449431338106
20
0.572753144006924
30
0
41
1
10
53.5354071983591
20
0.642810693887554
30
0
41
1
10
53.5279745163095
20
0.678885667974157
30
0
41
1
10
53.5185611035001
20
0.714696585398741
30
0
0
SPLINE
5
C5
100
AcDbEntity
8
1
62
256
6
ByLayer
370
18
48
1
60
0
100
AcDbSpline
70
4
71
3
72
14
73
10
40
0
40
0
40
0
40
0
40
0.122270338296324
40
0.122270338296324
40
0.436767699330487
40
0.436767699330487
40
0.75126506036465
40
0.75126506036465
40
1
40
1
40
1
40
1
41
1
10
12.1074667035502
20
3.27576135204458
30
0
41
1
10
12.0086437500185
20
3.23675205291985
30
0
41
1
10
11.9097580991767
20
3.19659850228601
30
0
41
1
10
11.5561468103634
20
3.04888444396872
30
0
41
1
10
11.3008462087839
20
2.93453597028105
30
0
41
1
10
10.7859953454493
20
2.6904475411279
30
0
41
1
10
10.530892113493
20
2.56281713123167
30
0
41
1
10
10.0753719059649
20
2.32987045843035
30
0
41
1
10
9.8746514407521
20
2.22548383612815
30
0
41
1
10
9.67321429769311
20
2.12186753570626
30
0
0
SPLINE
5
C6
100
AcDbEntity
8
1
62
256
6
ByLayer
370
18
48
1
60
0
100
AcDbSpline
70
4
71
3
72
26
73
22
40
0
40
0
40
0
40
0
40
0.0091691436176982
40
0.0091691436176982
40
0.0855867836313502
40
0.0855867836313502
40
0.238422063658656
40
0.238422063658656
40
0.31483970367231
40
0.31483970367231
40
0.353048523679137
40
0.353048523679137
40
0.391257343685963
40
0.391257343685963
40
0.696927903740567
40
0.696927903740567
40
0.773345543754219
40
0.773345543754219
40
0.849763183767871
40
0.849763183767871
40
1
40
1
40
1
40
1
41
1
10
18.8585068462895
20
2.42584045080903
30
0
41
1
10
18.8896039772556
20
2.41445912684216
30
0
41
1
10
18.9206849987581
20
2.40299004788307
30
0
41
1
10
19.2106456775109
20
2.29513098263388
30
0
41
1
10
19.46870508947
20
2.19288052218772
30
0
41
1
10
20.2416901934237
20
1.8703383681995
30
0
41
1
10
20.7553404235466
20
1.63407894834921
30
0
41
1
10
21.5286019135941
20
1.2564413628759
30
0
41
1
10
21.7868487540329
20
1.1267466632207
30
0
41
1
10
22.1756434803295
20
0.927548772136646
30
0
41
1
10
22.3054777870071
20
0.860370250390872
30
0
41
1
10
22.5656772255968
20
0.72455140879029
30
0
41
1
10
22.6962409465928
20
0.655813160859907
30
0
41
1
10
23.8679605030816
20
0.035652405446001
30
0
41
1
10
24.8916534848332
20
-0.530244746418134
30
0
41
1
10
26.1842515625916
20
-1.18954364711345
30
0
41
1
10
26.4434192743482
20
-1.31900243495696
30
0
41
1
10
26.9640487592969
20
-1.57126834314371
30
0
41
1
10
27.2251221202807
20
-1.69388515256082
30
0
41
1
10
27.9968298124094
20
-2.04220156915372
30
0
41
1
10
28.5076230769962
20
-2.25408540405778
30
0
41
1
10
29.0202849358982
20
-2.44148253463805
30
0
0
SPLINE
5
C7
100
AcDbEntity
8
1
62
256
6
ByLayer
370
13
48
1
60
0
100
AcDbSpline
70
4
71
3
72
20
73
16
40
0
40
0
40
0
40
0
40
0.0043824130988944
40
0.0043824130988944
40
0.133263818434571
40
0.133263818434571
40
0.262145223770247
40
0.262145223770247
40
0.519908034441594
40
0.519908034441594
40
0.777670845112943
40
0.777670845112943
40
0.906552250448619
40
0.906552250448619
40
1
40
1
40
1
40
1
41
1
10
29.020284935823
20
-2.44148253461057
30
0
41
1
10
29.0291518255555
20
-2.44472371525276
30
0
41
1
10
29.0380192742672
20
-2.44795757083915
30
0
41
1
10
29.3076849428098
20
-2.54607155126249
30
0
41
1
10
29.5681982363166
20
-2.63428140515847
30
0
41
1
10
30.0895620437562
20
-2.79634113643419
30
0
41
1
10
30.3503973770551
20
-2.87016654609676
30
0
41
1
10
31.1283253006783
20
-3.06698007858563
30
0
41
1
10
31.6430708482917
20
-3.1660789111483
30
0
41
1
10
32.6714879608823
20
-3.29707565624489
30
0
41
1
10
33.1854921603684
20
-3.32883144692917
30
0
41
1
10
33.9610955171914
20
-3.32402676977844
30
0
41
1
10
34.2204572845412
20
-3.31370081209099
30
0
41
1
10
34.6700675411135
20
-3.28046249189404
30
0
41
1
10
34.858680517131
20
-3.26186762156735
30
0
41
1
10
35.0467482016694
20
-3.23884977770754
30
0
0
SPLINE
5
C8
100
AcDbEntity
8
1
62
256
6
ByLayer
370
18
48
1
60
0
100
AcDbSpline
70
4
71
3
72
10
73
6
40
0
40
0
40
0
40
0
40
0.5
40
0.5
40
1
40
1
40
1
40
1
41
1
10
4.04706083073296
20
0.287983118344556
30
0
41
1
10
4.05769352409263
20
0.27269281061109
30
0
41
1
10
4.07032654784382
20
0.258139926191092
30
0
41
1
10
4.09846936842371
20
0.232390314869889
30
0
41
1
10
4.11405154505579
20
0.221008879369322
30
0
41
1
10
4.13137742835983
20
0.21134341917562
30
0
0
SPLINE
5
C9
100
AcDbEntity
8
1
62
256
6
ByLayer
370
18
48
1
60
0
100
AcDbSpline
70
4
71
3
72
8
73
4
40
0
40
0
40
0
40
0
40
1
40
1
40
1
40
1
41
1
10
53.8708788394665
20
-3.22181554018087
30
0
41
1
10
53.8523010965322
20
-3.23322260093983
30
0
41
1
10
53.8357007170738
20
-3.23897293136579
30
0
41
1
10
53.821114215932
20
-3.23896207184353
30
0
0
SPLINE
5
CA
100
AcDbEntity
8
1
62
256
6
ByLayer
370
18
48
1
60
0
100
AcDbSpline
70
2053
71
3
72
62
73
58
40
0
40
0
40
0
40
0
40
0.0312500000000001
40
0.0312500000000001
40
0.0625000000000001
40
0.0625000000000001
40
0.0937500000000002
40
0.0937500000000002
40
0.125
40
0.125
40
0.15625
40
0.15625
40
0.1875
40
0.1875
40
0.21875
40
0.21875
40
0.250000000000001
40
0.250000000000001
40
0.281250000000001
40
0.281250000000001
40
0.312500000000001
40
0.312500000000001
40
0.375000000000001
40
0.375000000000001
40
0.437500000000001
40
0.437500000000001
40
0.468750000000001
40
0.468750000000001
40
0.500000000000001
40
0.500000000000001
40
0.531250000000001
40
0.531250000000001
40
0.562500000000001
40
0.562500000000001
40
0.593750000000001
40
0.593750000000001
40
0.625000000000001
40
0.625000000000001
40
0.656250000000001
40
0.656250000000001
40
0.687500000000001
40
0.687500000000001
40
0.718750000000002
40
0.718750000000002
40
0.750000000000002
40
0.750000000000002
40
0.812500000000004
40
0.812500000000004
40
0.843750000000003
40
0.843750000000003
40
0.875000000000002
40
0.875000000000002
40
0.906250000000002
40
0.906250000000002
40
0.937500000000001
40
0.937500000000001
40
1
40
1
40
1
40
1
41
1
10
54.0215992379261
20
-1.1530076377044
30
0
41
1
10
54.0017147391899
20
-1.18121200872346
30
0
41
1
10
53.9822314361894
20
-1.21145697729133
30
0
41
1
10
53.9441331448252
20
-1.27636332907815
30
0
41
1
10
53.9253155973595
20
-1.31144293120417
30
0
41
1
10
53.8898170185361
20
-1.3846995627292
30
0
41
1
10
53.8732043958239
20
-1.42263890867349
30
0
41
1
10
53.8425720392571
20
-1.50150823585719
30
0
41
1
10
53.8288434333186
20
-1.54182805673022
30
0
41
1
10
53.8058691896143
20
-1.62101249178502
30
0
41
1
10
53.7963358597172
20
-1.66100096524531
30
0
41
1
10
53.7826470931851
20
-1.73635291605427
30
0
41
1
10
53.7783614105102
20
-1.7720164877766
30
0
41
1
10
53.7749291040197
20
-1.83827581776203
30
0
41
1
10
53.7758064477251
20
-1.86784911123979
30
0
41
1
10
53.7821834785282
20
-1.92065724062758
30
0
41
1
10
53.7876863700426
20
-1.94347829049371
30
0
41
1
10
53.8024125928698
20
-1.98160992077703
30
0
41
1
10
53.8117736161865
20
-1.99721360894023
30
0
41
1
10
53.8333362358964
20
-2.02107937689067
30
0
41
1
10
53.8455601288796
20
-2.02950158069308
30
0
41
1
10
53.8861971959461
20
-2.0451179964434
30
0
41
1
10
53.917607987256
20
-2.04247468301796
30
0
41
1
10
53.9870156876832
20
-2.01399520189264
30
0
41
1
10
54.0238517590316
20
-1.98868769313359
30
0
41
1
10
54.0819033228699
20
-1.93451492083457
30
0
41
1
10
54.1016762486646
20
-1.91370755557918
30
0
41
1
10
54.1409246251398
20
-1.86768732264247
30
0
41
1
10
54.160557270391
20
-1.84233862664507
30
0
41
1
10
54.199840962057
20
-1.78655284452421
30
0
41
1
10
54.2196924502266
20
-1.75575670016977
30
0
41
1
10
54.2579905062327
20
-1.69051941816764
30
0
41
1
10
54.276521588979
20
-1.65602472164804
30
0
41
1
10
54.3121698496992
20
-1.58274277385345
30
0
41
1
10
54.3291590940204
20
-1.54411543596348
30
0
41
1
10
54.3597955593231
20
-1.46579016328701
30
0
41
1
10
54.373828324905
20
-1.42503460858393
30
0
41
1
10
54.3972454315087
20
-1.3452432377598
30
0
41
1
10
54.4067275399989
20
-1.30615170461692
30
0
41
1
10
54.4209175444934
20
-1.22969299897258
30
0
41
1
10
54.4253161788782
20
-1.19387703526968
30
0
41
1
10
54.4289385584803
20
-1.12776434833572
30
0
41
1
10
54.4281034791985
20
-1.09748426050635
30
0
41
1
10
54.4217547362719
20
-1.04485272397284
30
0
41
1
10
54.4161785953433
20
-1.02188457414783
30
0
41
1
10
54.3938429011881
20
-0.964888936721849
30
0
41
1
10
54.3712649846242
20
-0.941658301781246
30
0
41
1
10
54.330607536938
20
-0.926600581899066
30
0
41
1
10
54.3157199169742
20
-0.924814518972198
30
0
41
1
10
54.2843647220762
20
-0.927348562751064
30
0
41
1
10
54.2678796488595
20
-0.931609098452356
30
0
41
1
10
54.2333794548001
20
-0.945802437537196
30
0
41
1
10
54.2152240937901
20
-0.955847520216111
30
0
41
1
10
54.1782449127595
20
-0.981164482365216
30
0
41
1
10
54.1593915219205
20
-0.996407257731079
30
0
41
1
10
54.1017331700795
20
-1.04993661744913
30
0
41
1
10
54.0613682353984
20
-1.09659889566629
30
0
41
1
10
54.0215992379261
20
-1.1530076377044
30
0
0
SPLINE
5
CB
100
AcDbEntity
8
1
62
256
6
ByLayer
370
18
48
1
60
0
100
AcDbSpline
70
4
71
3
72
78
73
74
40
0
40
0
40
0
40
0
40
8.63740317226E-05
40
8.63740317226E-05
40
0.028879079541839
40
0.028879079541839
40
0.0576717850519555
40
0.0576717850519555
40
0.0864644905620719
40
0.0864644905620719
40
0.115257196072188
40
0.115257196072188
40
0.144049901582305
40
0.144049901582305
40
0.172842607092421
40
0.172842607092421
40
0.201635312602538
40
0.201635312602538
40
0.230428018112654
40
0.230428018112654
40
0.25922072362277
40
0.25922072362277
40
0.288013429132887
40
0.288013429132887
40
0.316806134643003
40
0.316806134643003
40
0.34559884015312
40
0.34559884015312
40
0.374391545663236
40
0.374391545663236
40
0.403184251173352
40
0.403184251173352
40
0.431976956683469
40
0.431976956683469
40
0.460769662193585
40
0.460769662193585
40
0.489562367703702
40
0.489562367703702
40
0.518355073213818
40
0.518355073213818
40
0.547147778723935
40
0.547147778723935
40
0.575940484234051
40
0.575940484234051
40
0.604733189744167
40
0.604733189744167
40
0.633525895254284
40
0.633525895254284
40
0.6623186007644
40
0.6623186007644
40
0.691111306274517
40
0.691111306274517
40
0.719904011784633
40
0.719904011784633
40
0.74869671729475
40
0.74869671729475
40
0.777489422804866
40
0.777489422804866
40
0.806282128314982
40
0.806282128314982
40
0.835074833825099
40
0.835074833825099
40
0.863867539335215
40
0.863867539335215
40
0.892660244845332
40
0.892660244845332
40
0.921452950355448
40
0.921452950355448
40
0.950245655865565
40
0.950245655865565
40
0.979038361375681
40
0.979038361375681
40
1
40
1
40
1
40
1
41
1
10
47.6835619497784
20
-2.43942882654091
30
0
41
1
10
47.6828762438614
20
-2.43966441404862
30
0
41
1
10
47.6821905406412
20
-2.439899952996
30
0
41
1
10
47.4529271855748
20
-2.51863594827247
30
0
41
1
10
47.2247294742185
20
-2.5920121525615
30
0
41
1
10
46.7692095659468
20
-2.72788466058353
30
0
41
1
10
46.5419075602378
20
-2.79004945061808
30
0
41
1
10
46.0863385977801
20
-2.90168393929235
30
0
41
1
10
45.8582523693086
20
-2.9517085140065
30
0
41
1
10
45.401561542582
20
-3.04101852916233
30
0
41
1
10
45.1731690876893
20
-3.0802386849426
30
0
41
1
10
44.7144836907628
20
-3.14584269894098
30
0
41
1
10
44.4840479127824
20
-3.17236363926543
30
0
41
1
10
44.0222805828693
20
-3.21191305849473
30
0
41
1
10
43.7927155600715
20
-3.22469593733126
30
0
41
1
10
43.3350299176245
20
-3.23500276864181
30
0
41
1
10
43.1066510443756
20
-3.23271173255037
30
0
41
1
10
42.6503325671748
20
-3.21782872361831
30
0
41
1
10
42.4225597683151
20
-3.20455312319527
30
0
41
1
10
41.9677184932424
20
-3.16371927994308
30
0
41
1
10
41.740193353654
20
-3.13606604979472
30
0
41
1
10
41.2844838065956
20
-3.06978604498011
30
0
41
1
10
41.0563601831382
20
-3.03078844078269
30
0
41
1
10
40.5996882851164
20
-2.93935538270736
30
0
41
1
10
40.3708561349228
20
-2.8863185377821
30
0
41
1
10
39.910953267994
20
-2.76873098229433
30
0
41
1
10
39.6795517969764
20
-2.70479796141862
30
0
41
1
10
39.2194717962145
20
-2.56596968688643
30
0
41
1
10
38.9906704806254
20
-2.49060106162685
30
0
41
1
10
38.5335898069044
20
-2.33047034738539
30
0
41
1
10
38.3053419629111
20
-2.24641353931386
30
0
41
1
10
37.8495804533946
20
-2.06975872895376
30
0
41
1
10
37.6223146448281
20
-1.97662992523809
30
0
41
1
10
37.1673357305846
20
-1.78220650217688
30
0
41
1
10
36.939564743833
20
-1.68142363470329
30
0
41
1
10
36.4834630384759
20
-1.4739133953849
30
0
41
1
10
36.2552815409063
20
-1.36662205037254
30
0
41
1
10
35.7977569076281
20
-1.14525486894817
30
0
41
1
10
35.568010421847
20
-1.03174142602742
30
0
41
1
10
35.106873479004
20
-0.801346369347613
30
0
41
1
10
34.8762047931861
20
-0.684239438822175
30
0
41
1
10
34.4180663137477
20
-0.447533465576157
30
0
41
1
10
34.1897496727322
20
-0.328494819414203
30
0
41
1
10
33.7334682980196
20
-0.0909322817302893
30
0
41
1
10
33.5055994493905
20
0.0278059218370004
30
0
41
1
10
33.0507849560858
20
0.26562865084756
30
0
41
1
10
32.8237434598853
20
0.384524085390467
30
0
41
1
10
32.3686993265395
20
0.619059766208579
30
0
41
1
10
32.1408804613393
20
0.735171440458743
30
0
41
1
10
31.6847159057242
20
0.965020339269699
30
0
41
1
10
31.4565559872574
20
1.0790967635939
30
0
41
1
10
30.9980395222877
20
1.30152361300492
30
0
41
1
10
30.767386900375
20
1.41053220895296
30
0
41
1
10
30.3064980662643
20
1.62290638353124
30
0
41
1
10
30.0773363055214
20
1.72593855451876
30
0
41
1
10
29.6202222618585
20
1.92281022126619
30
0
41
1
10
29.3920842218772
20
2.01654537405432
30
0
41
1
10
28.9363109424191
20
2.19672432425594
30
0
41
1
10
28.7088607330446
20
2.28281799834346
30
0
41
1
10
28.254548163462
20
2.4447238549061
30
0
41
1
10
28.0272318908029
20
2.51959866219002
30
0
41
1
10
27.5718971917771
20
2.66077177538597
30
0
41
1
10
27.3439502837547
20
2.72666264930015
30
0
41
1
10
26.8875803033547
20
2.84715815487615
30
0
41
1
10
26.6587777335342
20
2.9006254300439
30
0
41
1
10
26.1991069900617
20
2.99678950818606
30
0
41
1
10
25.9679302794688
20
3.03968356323551
30
0
41
1
10
25.5086694607447
20
3.11219716643544
30
0
41
1
10
25.2803251414384
20
3.14105209608172
30
0
41
1
10
24.8239482700231
20
3.18544361014844
30
0
41
1
10
24.5960248485054
20
3.20190769571272
30
0
41
1
10
24.2028124018612
20
3.21943663581703
30
0
41
1
10
24.0374908398869
20
3.22305765266358
30
0
41
1
10
23.8721453699773
20
3.22287556838751
30
0
0
SPLINE
5
CC
100
AcDbEntity
8
1
62
256
6
ByLayer
370
18
48
1
60
0
100
AcDbSpline
70
4
71
3
72
12
73
8
40
0
40
0
40
0
40
0
40
0.0049750827738589
40
0.0049750827738589
40
0.502487541386929
40
0.502487541386929
40
1
40
1
40
1
40
1
41
1
10
8.63291808713063
20
-2.50906480059416
30
0
41
1
10
8.63063440608087
20
-2.50980892027764
30
0
41
1
10
8.62835066229013
20
-2.51055252428458
30
0
41
1
10
8.39768423229938
20
-2.58560497973718
30
0
41
1
10
8.16844172449157
20
-2.65466205356702
30
0
41
1
10
7.70806351433703
20
-2.78232955502907
30
0
41
1
10
7.47746396465845
20
-2.84068203585795
30
0
41
1
10
7.24728123722926
20
-2.89247242141445
30
0
0
SPLINE
5
CD
100
AcDbEntity
8
1
62
256
6
ByLayer
370
13
48
1
60
0
100
AcDbSpline
70
4
71
3
72
29
73
25
40
0
40
0
40
0
40
0
40
0.125000000000001
40
0.125000000000001
40
0.187500000000001
40
0.187500000000001
40
0.250000000000001
40
0.312500000000001
40
0.312500000000001
40
0.375000000000001
40
0.375000000000001
40
0.437500000000001
40
0.437500000000001
40
0.500000000000001
40
0.500000000000001
40
0.625000000000001
40
0.625000000000001
40
0.750000000000001
40
0.750000000000001
40
0.812500000000001
40
0.812500000000001
40
0.875
40
0.875
40
1
40
1
40
1
40
1
41
1
10
4.2503990142404
20
0.252093627286968
30
0
41
1
10
4.25048209547933
20
0.464106598657366
30
0
41
1
10
4.25055658192898
20
0.672016430522376
30
0
41
1
10
4.25065991810828
20
0.977795723369951
30
0
41
1
10
4.2506929782279
20
1.07879937484231
30
0
41
1
10
4.25075580530813
20
1.27499323092132
30
0
41
1
10
4.25081567672248
20
1.46635236244396
30
0
41
1
10
4.25087115727564
20
1.64820673135745
30
0
41
1
10
4.25092508932963
20
1.82525253268557
30
0
41
1
10
4.25095136919285
20
1.91165980631172
30
0
41
1
10
4.2510025091878
20
2.07807064967224
30
0
41
1
10
4.25102726956504
20
2.15774802798612
30
0
41
1
10
4.2510756908934
20
2.3100768553094
30
0
41
1
10
4.25109941485812
20
2.38290029921259
30
0
41
1
10
4.25116841103417
20
2.58744332545785
30
0
41
1
10
4.25121193720906
20
2.70649162259818
30
0
41
1
10
4.2512955433196
20
2.91035373474293
30
0
41
1
10
4.25133580391588
20
2.99524546332881
30
0
41
1
10
4.25139067757812
20
3.09138418162644
30
0
41
1
10
4.25140812086804
20
3.11846230687038
30
0
41
1
10
4.25144096535965
20
3.16256324360501
30
0
41
1
10
4.25145632490879
20
3.17949108532636
30
0
41
1
10
4.25149782986554
20
3.21434728035905
30
0
41
1
10
4.25151981146013
20
3.21695196478507
30
0
41
1
10
4.25153372476103
20
3.19891436771672
30
0
0
SPLINE
5
CE
100
AcDbEntity
8
1
62
256
6
ByLayer
370
18
48
1
60
0
100
AcDbSpline
70
4
71
3
72
14
73
10
40
0
40
0
40
0
40
0
40
0.25
40
0.25
40
0.5
40
0.5
40
0.75
40
0.75
40
1
40
1
40
1
40
1
41
1
10
4.25153372606269
20
-3.19891436774765
30
0
41
1
10
4.49237845309696
20
-3.21412287179879
30
0
41
1
10
4.73677326021618
20
-3.21650575209131
30
0
41
1
10
5.2310568440173
20
-3.1998362876086
30
0
41
1
10
5.48169532399953
20
-3.1806849396919
30
0
41
1
10
5.98416392953266
20
-3.12475619705822
30
0
41
1
10
6.23567322283924
20
-3.08802722825166
30
0
41
1
10
6.73988734226538
20
-3.0000441977248
30
0
41
1
10
6.99259241999462
20
-2.94938158989217
30
0
41
1
10
7.24634286093175
20
-2.89268351843023
30
0
0
SPLINE
5
CF
100
AcDbEntity
8
1
62
256
6
ByLayer
370
18
48
1
60
0
100
AcDbSpline
70
4
71
3
72
14
73
10
40
0
40
0
40
0
40
0
40
0.25
40
0.25
40
0.5
40
0.5
40
0.75
40
0.75
40
1
40
1
40
1
40
1
41
1
10
7.24634286093502
20
2.89268351842955
30
0
41
1
10
6.99173798491844
20
2.94957250511129
30
0
41
1
10
6.73870453719371
20
3.00026968344122
30
0
41
1
10
6.23483357259911
20
3.0881545748496
30
0
41
1
10
5.98403485192281
20
3.12474348570333
30
0
41
1
10
5.48416626817118
20
3.18043685614433
30
0
41
1
10
5.23508576658392
20
3.19961480894034
30
0
41
1
10
4.73863158736194
20
3.2165276768913
30
0
41
1
10
4.49294351256637
20
3.21415855331179
30
0
41
1
10
4.25153372662709
20
3.19891436778332
30
0
0
SPLINE
5
D0
100
AcDbEntity
8
1
62
256
6
ByLayer
370
18
48
1
60
0
100
AcDbSpline
70
4
71
3
72
10
73
6
40
0
40
0
40
0
40
0
40
0.5
40
0.5
40
1
40
1
40
1
40
1
41
1
10
4.13014904785942
20
0.214786482707041
30
0
41
1
10
4.11364887520102
20
0.22378108745167
30
0
41
1
10
4.09846561827251
20
0.23443711776676
30
0
41
1
10
4.07063406119684
20
0.258940418216611
30
0
41
1
10
4.05790168682503
20
0.272966126662738
30
0
41
1
10
4.04706083073614
20
0.28798311834214
30
0
0
SPLINE
5
D1
100
AcDbEntity
8
1
62
256
6
ByLayer
370
18
48
1
60
0
100
AcDbSpline
70
4
71
3
72
8
73
4
40
0
40
0
40
0
40
0
40
1
40
1
40
1
40
1
41
1
10
4.0470608307362
20
0.287983118342112
30
0
41
1
10
4.02799633746557
20
0.31439167265458
30
0
41
1
10
4.01653763075507
20
0.345688434347665
30
0
41
1
10
4.01654280168393
20
0.378199454674103
30
0
0
SPLINE
5
D2
100
AcDbEntity
8
1
62
256
6
ByLayer
370
18
48
1
60
0
100
AcDbSpline
70
4
71
3
72
10
73
6
40
0
40
0
40
0
40
0
40
0.869972485628713
40
0.869972485628713
40
1
40
1
40
1
40
1
41
1
10
12.107238623264
20
-3.27567131781439
30
0
41
1
10
12.5459938085206
20
-3.33427811582669
30
0
41
1
10
12.9837288168275
20
-3.36640826685044
30
0
41
1
10
13.4829956014618
20
-3.37522158070575
30
0
41
1
10
13.5478467491156
20
-3.37580016475471
30
0
41
1
10
13.6126664886623
20
-3.37581616592001
30
0
0
SPLINE
5
D3
100
AcDbEntity
8
1
62
256
6
ByLayer
370
18
48
1
60
0
100
AcDbSpline
70
4
71
3
72
84
73
80
40
0
40
0
40
0
40
0
40
0.0068130503294034
40
0.0068130503294034
40
0.0338488394039951
40
0.0338488394039951
40
0.0608846284785868
40
0.0608846284785868
40
0.0879204175531784
40
0.0879204175531784
40
0.141991995702361
40
0.141991995702361
40
0.169027784776951
40
0.169027784776951
40
0.196063573851541
40
0.196063573851541
40
0.223099362926132
40
0.223099362926132
40
0.250135152000722
40
0.250135152000722
40
0.277170941075312
40
0.277170941075312
40
0.304206730149903
40
0.304206730149903
40
0.331242519224493
40
0.331242519224493
40
0.358278308299083
40
0.358278308299083
40
0.385314097373673
40
0.385314097373673
40
0.412349886448264
40
0.412349886448264
40
0.439385675522854
40
0.439385675522854
40
0.466421464597444
40
0.466421464597444
40
0.493457253672035
40
0.493457253672035
40
0.520493042746625
40
0.520493042746625
40
0.547528831821215
40
0.547528831821215
40
0.574564620895806
40
0.574564620895806
40
0.5880825154331
40
0.5880825154331
40
0.601600409970395
40
0.601600409970395
40
0.628636199044984
40
0.628636199044984
40
0.655671988119573
40
0.655671988119573
40
0.682707777194162
40
0.682707777194162
40
0.709743566268751
40
0.709743566268751
40
0.73677935534334
40
0.73677935534334
40
0.763815144417929
40
0.763815144417929
40
0.777333038955223
40
0.777333038955223
40
0.790850933492518
40
0.790850933492518
40
0.844922511641696
40
0.844922511641696
40
0.871958300716284
40
0.871958300716284
40
0.898994089790873
40
0.898994089790873
40
0.926029878865461
40
0.926029878865461
40
0.95306566794005
40
0.95306566794005
40
0.966583562477344
40
0.966583562477344
40
0.980101457014639
40
0.980101457014639
40
1
40
1
40
1
40
1
41
1
10
28.2727179154957
20
2.43433160617957
30
0
41
1
10
28.3274947078502
20
2.45511353099496
30
0
41
1
10
28.3822868858661
20
2.47563072728465
30
0
41
1
10
28.6545639850576
20
2.57627366636581
30
0
41
1
10
28.8718221933098
20
2.65300667079575
30
0
41
1
10
29.3085483974967
20
2.7957241854719
30
0
41
1
10
29.5287234452342
20
2.86180141399924
30
0
41
1
10
29.9677584709079
20
2.98292900150406
30
0
41
1
10
30.1862535721198
20
3.03795489883686
30
0
41
1
10
30.8385867969804
20
3.1862925900457
30
0
41
1
10
31.2732542643428
20
3.26015150356642
30
0
41
1
10
31.9227414660302
20
3.33577324118537
30
0
41
1
10
32.138712277378
20
3.35496655180353
30
0
41
1
10
32.5725668182006
20
3.38053930371711
30
0
41
1
10
32.7900011573524
20
3.38711992738294
30
0
41
1
10
33.2253886416085
20
3.3877958133605
30
0
41
1
10
33.4429529133771
20
3.38179100815037
30
0
41
1
10
33.880383498792
20
3.35692748956021
30
0
41
1
10
34.1008289303763
20
3.33813767348153
30
0
41
1
10
34.5389016883289
20
3.28835981408173
30
0
41
1
10
34.757012282785
20
3.25733185781411
30
0
41
1
10
35.1912498843841
20
3.1827929212244
30
0
41
1
10
35.4082464764973
20
3.13978662750264
30
0
41
1
10
35.8422425793637
20
3.04290370687173
30
0
41
1
10
36.0591068175082
20
2.98894374950052
30
0
41
1
10
36.4920511776367
20
2.86939990129432
30
0
41
1
10
36.7080408791523
20
2.80362944234992
30
0
41
1
10
37.1421032377693
20
2.66325716457482
30
0
41
1
10
37.3597259825183
20
2.5882586074033
30
0
41
1
10
37.795661515682
20
2.42792241256538
30
0
41
1
10
38.0135960179151
20
2.34201057451912
30
0
41
1
10
38.4518477909093
20
2.16165887729025
30
0
41
1
10
38.6717767685832
20
2.06784993985679
30
0
41
1
10
39.1089567813764
20
1.87365060431526
30
0
41
1
10
39.3267162173591
20
1.77300392337622
30
0
41
1
10
39.7603662390586
20
1.56421906433465
30
0
41
1
10
39.9771145128669
20
1.45748273806407
30
0
41
1
10
40.4108265716427
20
1.24010128804522
30
0
41
1
10
40.6276345738094
20
1.1291992325099
30
0
41
1
10
41.0606431862023
20
0.90201861264913
30
0
41
1
10
41.2767149878729
20
0.785470320077195
30
0
41
1
10
41.7110983417477
20
0.55208500930982
30
0
41
1
10
41.928964817959
20
0.434467991919576
30
0
41
1
10
42.2564095009841
20
0.25592335606521
30
0
41
1
10
42.3656683491704
20
0.196059162097157
30
0
41
1
10
42.5843326037074
20
0.0754549725645575
30
0
41
1
10
42.6938315381566
20
0.014595525532684
30
0
41
1
10
43.0227473141647
20
-0.166840565508068
30
0
41
1
10
43.2416444566114
20
-0.286163106354053
30
0
41
1
10
43.6780001300856
20
-0.523047923784418
30
0
41
1
10
43.8954518544945
20
-0.640616791880149
30
0
41
1
10
44.3286182988406
20
-0.87446561174076
30
0
41
1
10
44.5451664060071
20
-0.989213580657918
30
0
41
1
10
44.9786940836629
20
-1.21360668879689
30
0
41
1
10
45.1954962070175
20
-1.32357511275473
30
0
41
1
10
45.6286716784284
20
-1.53985735195514
30
0
41
1
10
45.8448776385296
20
-1.64641167718474
30
0
41
1
10
46.2797060687622
20
-1.85107007795909
30
0
41
1
10
46.4978882539789
20
-1.94993103674733
30
0
41
1
10
46.8259484574311
20
-2.09355118167221
30
0
41
1
10
46.9354361962269
20
-2.14063888753384
30
0
41
1
10
47.1546087244749
20
-2.23331795160405
30
0
41
1
10
47.2641396887725
20
-2.2789006464497
30
0
41
1
10
47.81087068632
20
-2.49937924462992
30
0
41
1
10
48.2469721508125
20
-2.65445676444446
30
0
41
1
10
48.8960721810768
20
-2.85974048142782
30
0
41
1
10
49.1124462035208
20
-2.92258227389416
30
0
41
1
10
49.545867704977
20
-3.03679239884337
30
0
41
1
10
49.7627127904677
20
-3.08837376836505
30
0
41
1
10
50.1961720201641
20
-3.18070336924148
30
0
41
1
10
50.4125829535415
20
-3.22149006678885
30
0
41
1
10
50.8479885026763
20
-3.29019960247439
30
0
41
1
10
51.0665544418733
20
-3.31846649621301
30
0
41
1
10
51.3953353730072
20
-3.35176398227171
30
0
41
1
10
51.5052229170507
20
-3.36134697043295
30
0
41
1
10
51.7242713748784
20
-3.37733267218488
30
0
41
1
10
51.8334444626995
20
-3.38374275094762
30
0
41
1
10
52.1033643678695
20
-3.39552428890113
30
0
41
1
10
52.2641103706069
20
-3.39902953479682
30
0
41
1
10
52.4247189340369
20
-3.39911824158224
30
0
0
SPLINE
5
D4
100
AcDbEntity
8
1
62
256
6
ByLayer
370
18
48
1
60
0
100
AcDbSpline
70
4
71
3
72
8
73
4
40
0
40
0
40
0
40
0
40
1
40
1
40
1
40
1
41
1
10
53.8309163001148
20
-3.37099815294496
30
0
41
1
10
53.8388023440867
20
-3.34991353856154
30
0
41
1
10
53.8466807592456
20
-3.32881935660396
30
0
41
1
10
53.8545512112075
20
-3.30771653209746
30
0
0
SPLINE
5
D5
100
AcDbEntity
8
1
62
256
6
ByLayer
370
18
48
1
60
0
100
AcDbSpline
70
4
71
3
72
22
73
18
40
0
40
0
40
0
40
0
40
0.125000000000002
40
0.125000000000002
40
0.187500000000003
40
0.187500000000003
40
0.250000000000004
40
0.250000000000004
40
0.500000000000002
40
0.500000000000002
40
0.625000000000001
40
0.625000000000001
40
0.750000000000001
40
0.750000000000001
40
0.875
40
0.875
40
1
40
1
40
1
40
1
41
1
10
53.821114215927
20
-3.23896207184347
30
0
41
1
10
53.772260792786
20
-3.23893456520474
30
0
41
1
10
53.7258414015548
20
-3.23155540278503
30
0
41
1
10
53.6600576824469
20
-3.20887225925341
30
0
41
1
10
53.638772366586
20
-3.19937035590607
30
0
41
1
10
53.5975429342865
20
-3.17631564238258
30
0
41
1
10
53.5775676023908
20
-3.16271849512802
30
0
41
1
10
53.482580613187
20
-3.08532717784061
30
0
41
1
10
53.420858026001
20
-2.9932623227715
30
0
41
1
10
53.3510444420943
20
-2.80704243103915
30
0
41
1
10
53.3315370526705
20
-2.73618142088813
30
0
41
1
10
53.3017908540986
20
-2.58175643612088
30
0
41
1
10
53.2913675545174
20
-2.49798890951604
30
0
41
1
10
53.2793727957936
20
-2.31741414197154
30
0
41
1
10
53.2778000361506
20
-2.22060881680932
30
0
41
1
10
53.2838842200845
20
-2.01340181957605
30
0
41
1
10
53.2915411455659
20
-1.90436020745437
30
0
41
1
10
53.303570932419
20
-1.79148972068683
30
0
0
SPLINE
5
D6
100
AcDbEntity
8
1
62
256
6
ByLayer
370
18
48
1
60
0
100
AcDbSpline
70
4
71
3
72
22
73
18
40
0
40
0
40
0
40
0
40
0.24999999999999
40
0.24999999999999
40
0.49999999999998
40
0.49999999999998
40
0.624999999999975
40
0.624999999999975
40
0.74999999999997
40
0.74999999999997
40
0.812499999999978
40
0.812499999999978
40
0.874999999999985
40
0.874999999999985
40
0.937499999999993
40
0.937499999999993
40
1
40
1
40
1
40
1
41
1
10
53.656654994461
20
1.02610742288994
30
0
41
1
10
53.7534012044683
20
1.04920323253637
30
0
41
1
10
53.8492651205659
20
1.07536574020608
30
0
41
1
10
54.0379298613174
20
1.13873347010863
30
0
41
1
10
54.1302351570865
20
1.17543676598578
30
0
41
1
10
54.2610316468247
20
1.24672125885669
30
0
41
1
10
54.3026991096795
20
1.27297168146961
30
0
41
1
10
54.379946258365
20
1.33298772995516
30
0
41
1
10
54.4159065638277
20
1.367010701917
30
0
41
1
10
54.4613133974105
20
1.42673556500196
30
0
41
1
10
54.4746907215892
20
1.44770028127456
30
0
41
1
10
54.4973470588877
20
1.49212157359659
30
0
41
1
10
54.5066711760335
20
1.51586883542285
30
0
41
1
10
54.5200034748722
20
1.56418504750314
30
0
41
1
10
54.5241324538274
20
1.58886266049666
30
0
41
1
10
54.5275150288765
20
1.6392361232395
30
0
41
1
10
54.5267015970599
20
1.66490030835675
30
0
41
1
10
54.523655651422
20
1.68997686591351
30
0
0
SPLINE
5
D7
100
AcDbEntity
8
1
62
256
6
ByLayer
370
18
48
1
60
0
100
AcDbSpline
70
4
71
3
72
27
73
23
40
0
40
0
40
0
40
0
40
0.133801801587796
40
0.133801801587796
40
0.267603603175592
40
0.267603603175592
40
0.33450450396949
40
0.33450450396949
40
0.401405404763388
40
0.468306305557286
40
0.468306305557286
40
0.535207206351184
40
0.535207206351184
40
0.66900900793898
40
0.66900900793898
40
0.735909908732878
40
0.735909908732878
40
0.802810809526776
40
0.802810809526776
40
0.936612611114572
40
0.936612611114572
40
1
40
1
40
1
40
1
41
1
10
4.0165428016839
20
0.378199454675126
30
0
41
1
10
4.01657767010653
20
0.597426594523284
30
0
41
1
10
4.01660932784915
20
0.814863827835524
30
0
41
1
10
4.01666663422873
20
1.23217237384654
30
0
41
1
10
4.01669249399987
20
1.43325478760073
30
0
41
1
10
4.01672887810452
20
1.72324717173896
30
0
41
1
10
4.01674049709152
20
1.81711843236735
30
0
41
1
10
4.01676279187004
20
1.99747862921029
30
0
41
1
10
4.01678422277743
20
2.17109302698057
30
0
41
1
10
4.01680445842769
20
2.33135276564465
30
0
41
1
10
4.01682431006353
20
2.48481230404602
30
0
41
1
10
4.01683409324545
20
2.55848616073786
30
0
41
1
10
4.01686257566166
20
2.76498171912422
30
0
41
1
10
4.01688054876456
20
2.88431682715617
30
0
41
1
10
4.01690655931537
20
3.03632201458305
30
0
41
1
10
4.01691506243048
20
3.08245937644898
30
0
41
1
10
4.01693172255182
20
3.16535953968059
30
0
41
1
10
4.01693976544536
20
3.20154373002961
30
0
41
1
10
4.01696285510903
20
3.294299794392
30
0
41
1
10
4.01697695311751
20
3.33547109471132
30
0
41
1
10
4.0169948949077
20
3.36530378422552
30
0
41
1
10
4.01700023655681
20
3.37012286560258
30
0
41
1
10
4.01700493590809
20
3.37006742764791
30
0
0
SPLINE
5
D8
100
AcDbEntity
8
1
62
256
6
ByLayer
370
18
48
1
60
0
100
AcDbSpline
70
4
71
3
72
44
73
40
40
0
40
0
40
0
40
0
40
0.0768167150894759
40
0.0768167150894759
40
0.115225072634215
40
0.115225072634215
40
0.153633430178953
40
0.153633430178953
40
0.230450145268431
40
0.230450145268431
40
0.26885850281317
40
0.26885850281317
40
0.30726686035791
40
0.30726686035791
40
0.460900290536868
40
0.460900290536868
40
0.499308648081607
40
0.499308648081607
40
0.537717005626347
40
0.537717005626347
40
0.614533720715827
40
0.614533720715827
40
0.691350435805308
40
0.691350435805308
40
0.710554614577678
40
0.710554614577678
40
0.729758793350048
40
0.729758793350048
40
0.768167150894787
40
0.768167150894787
40
0.844983865984266
40
0.844983865984266
40
0.921800581073745
40
0.921800581073745
40
0.960208938618485
40
0.960208938618485
40
0.998617296163226
40
0.998617296163226
40
1
40
1
40
1
40
1
41
1
10
53.8309163001147
20
-3.37099815294496
30
0
41
1
10
53.310274254376
20
-3.4081332268602
30
0
41
1
10
52.790658145645
20
-3.40894727758473
30
0
41
1
10
52.0079547652805
20
-3.35589041448813
30
0
41
1
10
51.7475095620671
20
-3.32917692889018
30
0
41
1
10
51.2290637499451
20
-3.25864483696426
30
0
41
1
10
50.9706594254544
20
-3.21481395600531
30
0
41
1
10
50.1967684300473
20
-3.05857757594552
30
0
41
1
10
49.6823148534834
20
-2.92157954786376
30
0
41
1
10
48.9071792396505
20
-2.67175069506018
30
0
41
1
10
48.6482490554923
20
-2.5810638586276
30
0
41
1
10
48.1283262569771
20
-2.38572282317847
30
0
41
1
10
47.8667241216866
20
-2.28079149894768
30
0
41
1
10
46.5674790002349
20
-1.73087539187912
30
0
41
1
10
45.5454051154335
20
-1.20571029827678
30
0
41
1
10
44.2512792764261
20
-0.507942925898476
30
0
41
1
10
43.9916376835826
20
-0.366320286120896
30
0
41
1
10
43.4699036295068
20
-0.0803223053509328
30
0
41
1
10
43.2093881151831
20
0.0631414418524798
30
0
41
1
10
42.4321519051346
20
0.489935743920654
30
0
41
1
10
41.9172209229247
20
0.769613937480358
30
0
41
1
10
40.8875276543747
20
1.30818108823812
30
0
41
1
10
40.3722807375545
20
1.56621390261742
30
0
41
1
10
39.7238197498147
20
1.86773575262657
30
0
41
1
10
39.5938728394475
20
1.92693114657118
30
0
41
1
10
39.3333378589374
20
2.04287801729248
30
0
41
1
10
39.2025958084194
20
2.09969681224351
30
0
41
1
10
38.8117605011016
20
2.26516225040595
30
0
41
1
10
38.552394928879
20
2.36920178888258
30
0
41
1
10
37.7767420653964
20
2.6613614608037
30
0
41
1
10
37.262169227213
20
2.82862672689475
30
0
41
1
10
36.2320303957295
20
3.10225240269671
30
0
41
1
10
35.7159271980137
20
3.20808558222069
30
0
41
1
10
34.935118992802
20
3.31548172594253
30
0
41
1
10
34.6734808365927
20
3.34263970135768
30
0
41
1
10
34.1539311461282
20
3.3786669754746
30
0
41
1
10
33.8951885365474
20
3.38769436099773
30
0
41
1
10
33.6277206373852
20
3.38783831290871
30
0
41
1
10
33.6184270364001
20
3.3878318052453
30
0
41
1
10
33.6091340852091
20
3.3878137930653
30
0
0
SPLINE
5
D9
100
AcDbEntity
8
1
62
256
6
ByLayer
370
18
48
1
60
0
100
AcDbSpline
70
4
71
3
72
25
73
21
40
0
40
0
40
0
40
0
40
0.220830838971413
40
0.220830838971413
40
0.285761602390462
40
0.285761602390462
40
0.350692365809511
40
0.350692365809511
40
0.48055389264761
40
0.48055389264761
40
0.610415419485709
40
0.610415419485709
40
0.642880801195233
40
0.642880801195233
40
0.675346182904758
40
0.740276946323806
40
0.740276946323806
40
0.870138473161903
40
0.870138473161903
40
1
40
1
40
1
40
1
41
1
10
16.0879979400593
20
-3.22460015831442
30
0
41
1
10
15.2093496385612
20
-3.36687153982339
30
0
41
1
10
14.3370334538868
20
-3.4101722998752
30
0
41
1
10
13.1925480778353
20
-3.3315519011087
30
0
41
1
10
12.9306701007392
20
-3.30454895713913
30
0
41
1
10
12.4097874071325
20
-3.2333399136009
30
0
41
1
10
12.1504381811384
20
-3.1891864704435
30
0
41
1
10
11.3743415363722
20
-3.0323842033211
30
0
41
1
10
10.8596660782724
20
-2.89526150947145
30
0
41
1
10
9.82800850240938
20
-2.56333560276349
30
0
41
1
10
9.31103569457068
20
-2.36856015436831
30
0
41
1
10
8.65881327485266
20
-2.09382727093302
30
0
41
1
10
8.52790821774215
20
-2.03723857527396
30
0
41
1
10
8.26708869290616
20
-1.9218217693861
30
0
41
1
10
7.8768105599591
20
-1.74513632875437
30
0
41
1
10
7.48879631427366
20
-1.5588115887885
30
0
41
1
10
6.71445245174337
20
-1.1756933938801
30
0
41
1
10
6.20049619957479
20
-0.906261058256149
30
0
41
1
10
5.16938204404613
20
-0.353293929688533
30
0
41
1
10
4.65221678946781
20
-0.0698040535798157
30
0
41
1
10
4.1301490478603
20
0.214786482706586
30
0
0
SPLINE
5
DA
100
AcDbEntity
8
1
62
256
6
ByLayer
370
18
48
1
60
0
100
AcDbSpline
70
4
71
3
72
18
73
14
40
0
40
0
40
0
40
0
40
0.250000000000003
40
0.250000000000003
40
0.374999999999999
40
0.374999999999999
40
0.499999999999996
40
0.499999999999996
40
0.749999999999998
40
0.749999999999998
40
0.874999999999999
40
0.874999999999999
40
1
40
1
40
1
40
1
41
1
10
54.5236556514218
20
-1.68997686591345
30
0
41
1
10
54.4728404255977
20
-1.82726146139538
30
0
41
1
10
54.4218859946161
20
-1.96447673545845
30
0
41
1
10
54.3451650144674
20
-2.16903781095732
30
0
41
1
10
54.3195357485139
20
-2.23703362426704
30
0
41
1
10
54.2681197855163
20
-2.37248389306305
30
0
41
1
10
54.2423135788299
20
-2.43987126080063
30
0
41
1
10
54.1648383228746
20
-2.64183861032595
30
0
41
1
10
54.1130902103951
20
-2.77614671768629
30
0
41
1
10
54.0347704027626
20
-2.97520990987022
30
0
41
1
10
54.0085066917976
20
-3.04102405900508
30
0
41
1
10
53.9559293157509
20
-3.17248058020232
30
0
41
1
10
53.9295823611429
20
-3.23800847966996
30
0
41
1
10
53.9031008468978
20
-3.30307366931333
30
0
0
SPLINE
5
DB
100
AcDbEntity
8
1
62
256
6
ByLayer
370
18
48
1
60
0
100
AcDbSpline
70
4
71
3
72
14
73
10
40
0
40
0
40
0
40
0
40
0.234576770805369
40
0.234576770805369
40
0.469153541610738
40
0.469153541610738
40
0.938307083221475
40
0.938307083221475
40
1
40
1
40
1
40
1
41
1
10
12.1077018060285
20
3.27573794646653
30
0
41
1
10
11.8422287055231
20
3.2405168535455
30
0
41
1
10
11.5749813165268
20
3.19713906051308
30
0
41
1
10
11.0364968764046
20
3.09695704712641
30
0
41
1
10
10.7646812696293
20
3.03999952063688
30
0
41
1
10
9.94715494685772
20
2.85441081754476
30
0
41
1
10
9.39944237444826
20
2.71111865910106
30
0
41
1
10
8.7726632364068
20
2.54248503115059
30
0
41
1
10
8.69971255354756
20
2.52278996809264
30
0
41
1
10
8.6266463339783
20
2.50303056702802
30
0
0
SPLINE
5
DC
100
AcDbEntity
8
1
62
256
6
ByLayer
370
18
48
1
60
0
100
AcDbSpline
70
4
71
3
72
16
73
12
40
0
40
0
40
0
40
0
40
0.25
40
0.25
40
0.5
40
0.5
40
0.75
40
0.75
40
0.875
40
0.875
40
1
40
1
40
1
40
1
41
1
10
53.5185611035001
20
0.714696585398741
30
0
41
1
10
53.5107462600378
20
0.74442615527775
30
0
41
1
10
53.5063969920307
20
0.774941818609562
30
0
41
1
10
53.5059484276613
20
0.837909831368421
30
0
41
1
10
53.5099406749009
20
0.869972294963276
30
0
41
1
10
53.5303312491687
20
0.931724349015923
30
0
41
1
10
53.5469359857266
20
0.961306432205703
30
0
41
1
10
53.582754849808
20
0.993789416249228
30
0
41
1
10
53.5965621210595
20
1.00290389939315
30
0
41
1
10
53.6256132937477
20
1.0171181751754
30
0
41
1
10
53.6408578152608
20
1.02233622974728
30
0
41
1
10
53.6566549944609
20
1.02610742288994
30
0
0
SPLINE
5
DD
100
AcDbEntity
8
1
62
256
6
ByLayer
370
18
48
1
60
0
100
AcDbSpline
70
4
71
3
72
14
73
10
40
0
40
0
40
0
40
0
40
0.0285370432416844
40
0.0285370432416844
40
0.427659267068089
40
0.427659267068089
40
0.826781490894495
40
0.826781490894495
40
1
40
1
40
1
40
1
41
1
10
33.8421212509418
20
-3.22715282247907
30
0
41
1
10
33.8051457478201
20
-3.22714989451006
30
0
41
1
10
33.7681875976912
20
-3.22697395709844
30
0
41
1
10
33.214571333153
20
-3.22175568868201
30
0
41
1
10
32.7007505910044
20
-3.18305609163713
30
0
41
1
10
31.672686932155
20
-3.04070064692331
30
0
41
1
10
31.158074960643
20
-2.93716640555374
30
0
41
1
10
30.4148287245739
20
-2.74470993307816
30
0
41
1
10
30.1887834184042
20
-2.68055093110874
30
0
41
1
10
29.9627171972152
20
-2.61116526236631
30
0
0
SPLINE
5
DE
100
AcDbEntity
8
1
62
256
6
ByLayer
370
13
48
1
60
0
100
AcDbSpline
70
4
71
3
72
24
73
20
40
0
40
0
40
0
40
0
40
0.0105366044962659
40
0.0105366044962659
40
0.0903577414340959
40
0.0903577414340959
40
0.250000015309756
40
0.250000015309756
40
0.329821152247585
40
0.329821152247585
40
0.409642289185415
40
0.409642289185415
40
0.72892683693673
40
0.72892683693673
40
0.808747973874559
40
0.808747973874559
40
0.888569110812388
40
0.888569110812388
40
1
40
1
40
1
40
1
41
1
10
29.9627171973649
20
-2.61116526241227
30
0
41
1
10
29.9283376572545
20
-2.6006132773833
30
0
41
1
10
29.8939576334318
20
-2.58994041259453
30
0
41
1
10
29.5991566544997
20
-2.49739821668456
30
0
41
1
10
29.3388810860642
20
-2.40884430416838
30
0
41
1
10
28.5572696842617
20
-2.12422106162524
30
0
41
1
10
28.0381332598295
20
-1.9106288862163
30
0
41
1
10
27.2582741886456
20
-1.56277993412886
30
0
41
1
10
26.9974526797645
20
-1.44201623436444
30
0
41
1
10
26.4773531721163
20
-1.19425422481095
30
0
41
1
10
26.2183948113925
20
-1.06734054164454
30
0
41
1
10
24.9267064208497
20
-0.4221138703615
30
0
41
1
10
23.9030324544202
20
0.127700693639895
30
0
41
1
10
22.6022088317983
20
0.792139848673457
30
0
41
1
10
22.3417150819174
20
0.923354233332191
30
0
41
1
10
21.8237241049676
20
1.17840158922078
30
0
41
1
10
21.5656409003176
20
1.30275803503281
30
0
41
1
10
20.9483937455955
20
1.59138528275668
30
0
41
1
10
20.5895878980785
20
1.7517961118545
30
0
41
1
10
20.2304980274355
20
1.90262801257387
30
0
0
SPLINE
5
DF
100
AcDbEntity
8
1
62
256
6
ByLayer
370
18
48
1
60
0
100
AcDbSpline
70
4
71
3
72
16
73
12
40
0
40
0
40
0
40
0
40
0.148037952538347
40
0.148037952538347
40
0.296075905076695
40
0.296075905076695
40
0.59215181015339
40
0.59215181015339
40
0.888227715230085
40
0.888227715230085
40
1
40
1
40
1
40
1
41
1
10
4.20300336553564
20
0.171879637944358
30
0
41
1
10
4.46399348042937
20
0.0322146415869042
30
0
41
1
10
4.72531071222997
20
-0.107938729179182
30
0
41
1
10
5.24675749023652
20
-0.386364456249453
30
0
41
1
10
5.50624602933175
20
-0.524285947453563
30
0
41
1
10
6.28236075803261
20
-0.931844496575593
30
0
41
1
10
6.796622660434
20
-1.19531714224362
30
0
41
1
10
7.82636288202488
20
-1.69230791143338
30
0
41
1
10
8.34172743965723
20
-1.92605004241457
30
0
41
1
10
9.05735825484854
20
-2.21909773384999
30
0
41
1
10
9.25452542715604
20
-2.29657357247857
30
0
41
1
10
9.4512899219705
20
-2.37031347568219
30
0
0
SPLINE
5
E0
100
AcDbEntity
8
1
62
256
6
ByLayer
370
13
48
1
60
0
100
AcDbSpline
70
4
71
3
72
20
73
16
40
0
40
0
40
0
40
0
40
0.0305762260714599
40
0.0305762260714599
40
0.155389162884524
40
0.155389162884524
40
0.654640910136773
40
0.654640910136773
40
0.717047378543304
40
0.717047378543304
40
0.779453846949835
40
0.779453846949835
40
0.9042667837629
40
0.9042667837629
40
1
40
1
40
1
40
1
41
1
10
9.45128918554147
20
-2.37031319969637
30
0
41
1
10
9.51513169610789
20
-2.3942389649873
30
0
41
1
10
9.57893181487535
20
-2.4177714287172
30
0
41
1
10
9.90269874809798
20
-2.53520884004288
30
0
41
1
10
10.1616316643662
20
-2.62267589681812
30
0
41
1
10
11.453023505719
20
-3.02355049265051
30
0
41
1
10
12.4756921344815
20
-3.22736918200712
30
0
41
1
10
13.646855040521
20
-3.29992951469362
30
0
41
1
10
13.7774843351216
20
-3.30581941265916
30
0
41
1
10
14.0380537348831
20
-3.31313949162717
30
0
41
1
10
14.1680284211517
20
-3.31458055036401
30
0
41
1
10
14.5571887541831
20
-3.31230207482082
30
0
41
1
10
14.8156497951238
20
-3.30202828175189
30
0
41
1
10
15.2714849824029
20
-3.26878570868439
30
0
41
1
10
15.4690185404363
20
-3.24929892887383
30
0
41
1
10
15.6664353427746
20
-3.22487675154167
30
0
0
SPLINE
5
E1
100
AcDbEntity
8
1
62
256
6
ByLayer
370
18
48
1
60
0
100
AcDbSpline
70
4
71
3
72
26
73
22
40
0
40
0
40
0
40
0
40
0.0089033636397113
40
0.0089033636397113
40
0.0479531422507249
40
0.0479531422507249
40
0.0870029208617379
40
0.0870029208617379
40
0.165102478083764
40
0.165102478083764
40
0.321301592527817
40
0.321301592527817
40
0.47750070697187
40
0.47750070697187
40
0.555600264193898
40
0.555600264193898
40
0.633699821415926
40
0.633699821415926
40
0.946098050304041
40
0.946098050304041
40
1
40
1
40
1
40
1
41
1
10
38.2641032182925
20
2.43247063316187
30
0
41
1
10
38.293597993441
20
2.42162054642827
30
0
41
1
10
38.3231037358867
20
2.41068216512366
30
0
41
1
10
38.4820829844508
20
2.3512961448385
30
0
41
1
10
38.6117890751764
20
2.30130211157143
30
0
41
1
10
38.8718422543091
20
2.19818430136883
30
0
41
1
10
39.002381017228
20
2.14493501965978
30
0
41
1
10
39.3927816093573
20
1.98135526218715
30
0
41
1
10
39.6517715121649
20
1.86710894603365
30
0
41
1
10
40.4263986628308
20
1.51142905635322
30
0
41
1
10
40.9402011053736
20
1.25791130217283
30
0
41
1
10
41.968449550023
20
0.728507718989817
30
0
41
1
10
42.48337078853
20
0.453520456041275
30
0
41
1
10
43.2615909237039
20
0.0337626450642574
30
0
41
1
10
43.5228498875408
20
-0.107410412474252
30
0
41
1
10
44.0419419453652
20
-0.386582940664908
30
0
41
1
10
44.3004263972658
20
-0.524831977777382
30
0
41
1
10
45.5893981430273
20
-1.20614523377807
30
0
41
1
10
46.6095590339224
20
-1.71917558038177
30
0
41
1
10
47.8273686976372
20
-2.22234334088333
30
0
41
1
10
48.0072761764649
20
-2.29395206510205
30
0
41
1
10
48.186772988205
20
-2.36243438397304
30
0
0
SPLINE
5
E2
100
AcDbEntity
8
1
62
256
6
ByLayer
370
13
48
1
60
0
100
AcDbSpline
70
4
71
3
72
18
73
14
40
0
40
0
40
0
40
0
40
0.04238542703536
40
0.04238542703536
40
0.179187508887453
40
0.179187508887453
40
0.452791672591636
40
0.452791672591636
40
0.726395836295819
40
0.726395836295819
40
0.863197918147909
40
0.863197918147909
40
1
40
1
40
1
40
1
41
1
10
48.1867729882984
20
-2.36243438400862
30
0
41
1
10
48.2673525114044
20
-2.39317739577717
30
0
41
1
10
48.3478492734959
20
-2.42329034858491
30
0
41
1
10
48.6873791016088
20
-2.54766648104663
30
0
41
1
10
48.9455409301721
20
-2.63576655438865
30
0
41
1
10
49.7182329869883
20
-2.87820345642061
30
0
41
1
10
50.2308632890901
20
-3.01079639365338
30
0
41
1
10
51.2584429466184
20
-3.21171768920763
30
0
41
1
10
51.7735121069028
20
-3.28008835253547
30
0
41
1
10
52.5531901381015
20
-3.3303805092016
30
0
41
1
10
52.8141269773508
20
-3.33835653641955
30
0
41
1
10
53.3344387643337
20
-3.33640201315225
30
0
41
1
10
53.5944077827061
20
-3.32651673510426
30
0
41
1
10
53.8545512111937
20
-3.30771653209149
30
0
0
SPLINE
5
E3
100
AcDbEntity
8
1
62
256
6
ByLayer
370
18
48
1
60
0
100
AcDbSpline
70
4
71
3
72
18
73
14
40
0
40
0
40
0
40
0
40
0.250000000000001
40
0.250000000000001
40
0.375000000000005
40
0.375000000000005
40
0.50000000000001
40
0.50000000000001
40
0.750000000000009
40
0.750000000000009
40
0.875000000000005
40
0.875000000000005
40
1
40
1
40
1
40
1
41
1
10
54.5236556514218
20
1.68997686591342
30
0
41
1
10
54.4728404255976
20
1.82726146139535
30
0
41
1
10
54.4218859946161
20
1.96447673545842
30
0
41
1
10
54.3451650144674
20
2.16903781095729
30
0
41
1
10
54.3195357485139
20
2.23703362426704
30
0
41
1
10
54.2681197855163
20
2.37248389306305
30
0
41
1
10
54.2423135788299
20
2.43987126080063
30
0
41
1
10
54.1648383228746
20
2.64183861032598
30
0
41
1
10
54.1130902103951
20
2.77614671768632
30
0
41
1
10
54.0347704027626
20
2.97520990987024
30
0
41
1
10
54.0085066917976
20
3.04102405900511
30
0
41
1
10
53.9559293157508
20
3.17248058020238
30
0
41
1
10
53.9295823611429
20
3.23800847966999
30
0
41
1
10
53.9031008468978
20
3.30307366931336
30
0
0
SPLINE
5
E4
100
AcDbEntity
8
1
62
256
6
ByLayer
370
18
48
1
60
0
100
AcDbSpline
70
4
71
3
72
72
73
68
40
0
40
0
40
0
40
0
40
0.0326147095522759
40
0.0326147095522759
40
0.0652294191045519
40
0.0652294191045519
40
0.0978441286568277
40
0.0978441286568277
40
0.130458838209104
40
0.130458838209104
40
0.16307354776138
40
0.16307354776138
40
0.195688257313655
40
0.195688257313655
40
0.228302966865931
40
0.228302966865931
40
0.260917676418207
40
0.260917676418207
40
0.293532385970483
40
0.293532385970483
40
0.326147095522759
40
0.326147095522759
40
0.358761805075035
40
0.358761805075035
40
0.391376514627311
40
0.391376514627311
40
0.423991224179587
40
0.423991224179587
40
0.456605933731863
40
0.456605933731863
40
0.489220643284139
40
0.489220643284139
40
0.521835352836415
40
0.521835352836415
40
0.554450062388691
40
0.554450062388691
40
0.587064771940967
40
0.587064771940967
40
0.619679481493242
40
0.619679481493242
40
0.635986836269381
40
0.635986836269381
40
0.652294191045519
40
0.652294191045519
40
0.684908900597796
40
0.684908900597796
40
0.717523610150072
40
0.717523610150072
40
0.750138319702349
40
0.750138319702349
40
0.782753029254626
40
0.782753029254626
40
0.815367738806903
40
0.815367738806903
40
0.847982448359179
40
0.847982448359179
40
0.864289803135318
40
0.864289803135318
40
0.880597157911456
40
0.880597157911456
40
0.913211867463732
40
0.913211867463732
40
0.945826577016008
40
0.945826577016008
40
0.978441286568284
40
0.978441286568284
40
1
40
1
40
1
40
1
41
1
10
7.24728123722912
20
2.89247242141451
30
0
41
1
10
7.47832391022507
20
2.84048855082568
30
0
41
1
10
7.70856121666111
20
2.7821892641276
30
0
41
1
10
8.16766439087877
20
2.65487988764932
30
0
41
1
10
8.39653113537634
20
2.58595939660205
30
0
41
1
10
8.85308066865204
20
2.43745227082945
30
0
41
1
10
9.08100424773403
20
2.35794105385034
30
0
41
1
10
9.53714695692076
20
2.19013861872742
30
0
41
1
10
9.76520646463104
20
2.10186657589344
30
0
41
1
10
10.2212712852704
20
1.91674021552888
30
0
41
1
10
10.4492526881824
20
1.81958624862477
30
0
41
1
10
10.9070096291317
20
1.61838947330796
30
0
41
1
10
11.1365406192576
20
1.51421341127565
30
0
41
1
10
11.5966998013739
20
1.29923175363496
30
0
41
1
10
11.8278823191689
20
1.18734477614791
30
0
41
1
10
12.2883383384972
20
0.961134265870555
30
0
41
1
10
12.5179292379884
20
0.846588197210281
30
0
41
1
10
12.9758946302685
20
0.614785731414855
30
0
41
1
10
13.2040900890746
20
0.497173339628631
30
0
41
1
10
13.6600199956167
20
0.260610792483732
30
0
41
1
10
13.8880663259844
20
0.142294059836502
30
0
41
1
10
14.3441221694563
20
-0.0947489419150997
30
0
41
1
10
14.5720436693445
20
-0.213632468712689
30
0
41
1
10
15.028287857988
20
-0.451050825697848
30
0
41
1
10
15.2570394858799
20
-0.568728819168882
30
0
41
1
10
15.7159086509352
20
-0.801742433067773
30
0
41
1
10
15.9458646988784
20
-0.917383812292115
30
0
41
1
10
16.4072452869229
20
-1.1461802350214
30
0
41
1
10
16.637502704095
20
-1.25780339990035
30
0
41
1
10
17.0965167490187
20
-1.47374082770128
30
0
41
1
10
17.3254399792113
20
-1.57865884463936
30
0
41
1
10
17.7820458962523
20
-1.78278690205318
30
0
41
1
10
18.009598286241
20
-1.88104587469883
30
0
41
1
10
18.4652231366819
20
-2.06798525267919
30
0
41
1
10
18.6930825134007
20
-2.15722366549832
30
0
41
1
10
19.1487348071114
20
-2.32844630258271
30
0
41
1
10
19.3763547331989
20
-2.41018148210483
30
0
41
1
10
19.8332178205993
20
-2.56116040653262
30
0
41
1
10
20.0623731273874
20
-2.63143530455784
30
0
41
1
10
20.4069692937851
20
-2.72982133311686
30
0
41
1
10
20.5219693475628
20
-2.76149278305147
30
0
41
1
10
20.7522990470143
20
-2.82222932143012
30
0
41
1
10
20.8677635471707
20
-2.85122299291467
30
0
41
1
10
21.2129996455358
20
-2.93225149612775
30
0
41
1
10
21.4424877808401
20
-2.97907195490703
30
0
41
1
10
21.9003479218909
20
-3.06158334017658
30
0
41
1
10
22.1286907681552
20
-3.09775356177451
30
0
41
1
10
22.5841363890919
20
-3.15667168434061
30
0
41
1
10
22.8116559891604
20
-3.17806806236993
30
0
41
1
10
23.2670233391868
20
-3.20872451549025
30
0
41
1
10
23.4947289174839
20
-3.21817696799377
30
0
41
1
10
23.9500874740657
20
-3.22517710306101
30
0
41
1
10
24.1779014753245
20
-3.22121042569123
30
0
41
1
10
24.6354535541369
20
-3.19936562703023
30
0
41
1
10
24.8648950182895
20
-3.18213719500324
30
0
41
1
10
25.2098772193607
20
-3.14746240300769
30
0
41
1
10
25.325171047714
20
-3.13434535890795
30
0
41
1
10
25.5554878194408
20
-3.10402411713287
30
0
41
1
10
25.6703876657194
20
-3.08700934865868
30
0
41
1
10
26.0147368770959
20
-3.03133329167159
30
0
41
1
10
26.2436984412542
20
-2.98805595614095
30
0
41
1
10
26.7004655181193
20
-2.89118460846368
30
0
41
1
10
26.9280503835994
20
-2.83708139957435
30
0
41
1
10
27.3829902861508
20
-2.71562909468122
30
0
41
1
10
27.6105645620037
20
-2.64927848365676
30
0
41
1
10
27.988552482185
20
-2.53118730094914
30
0
41
1
10
28.1389178238302
20
-2.48225173201223
30
0
41
1
10
28.2893487678755
20
-2.43085355402795
30
0
0
SPLINE
5
E5
100
AcDbEntity
8
1
62
256
6
ByLayer
370
18
48
1
60
0
100
AcDbSpline
70
4
71
3
72
30
73
26
40
0
40
0
40
0
40
0
40
0.0375488634455016
40
0.0375488634455016
40
0.125044421314092
40
0.125044421314092
40
0.212539979182683
40
0.212539979182683
40
0.300035537051274
40
0.300035537051274
40
0.387531094919865
40
0.387531094919865
40
0.475026652788456
40
0.475026652788456
40
0.562522210657047
40
0.562522210657047
40
0.650017768525637
40
0.650017768525637
40
0.737513326394228
40
0.737513326394228
40
0.825008884262819
40
0.825008884262819
40
0.912504442131409
40
0.912504442131409
40
1
40
1
40
1
40
1
41
1
10
43.2967594186282
20
3.23260138033706
30
0
41
1
10
43.3952955751288
20
3.23273659985799
30
0
41
1
10
43.4939129293416
20
3.23165696205064
30
0
41
1
10
43.8224324563615
20
3.22335432378782
30
0
41
1
10
44.051220514075
20
3.20992084250693
30
0
41
1
10
44.5079445464838
20
3.16977072552024
30
0
41
1
10
44.7357224371174
20
3.1431453248758
30
0
41
1
10
45.1902154647781
20
3.07743035223675
30
0
41
1
10
45.4168652674046
20
3.03824359179893
30
0
41
1
10
45.8706899660559
20
2.94904464790054
30
0
41
1
10
46.0976343025422
20
2.89909486353824
30
0
41
1
10
46.5515554195368
20
2.78749798588208
30
0
41
1
10
46.7783760835623
20
2.72528901750675
30
0
41
1
10
47.233674156396
20
2.58919996179876
30
0
41
1
10
47.4620910108437
20
2.51563031937783
30
0
41
1
10
47.9203266142134
20
2.35796916745889
30
0
41
1
10
48.1507004944284
20
2.27332464850576
30
0
41
1
10
48.6091081234648
20
2.09545754559869
30
0
41
1
10
48.8377657410248
20
2.00278845574098
30
0
41
1
10
49.2939513509469
20
1.81041371525683
30
0
41
1
10
49.5214529189125
20
1.7106295119435
30
0
41
1
10
49.9754196648399
20
1.50366729691626
30
0
41
1
10
50.2022893746474
20
1.39716066031895
30
0
41
1
10
50.6563398894507
20
1.17961240809572
30
0
41
1
10
50.883374584483
20
1.06841084317782
30
0
41
1
10
51.1105880820201
20
0.954390332198869
30
0
0
SPLINE
5
E6
100
AcDbEntity
8
1
62
256
6
ByLayer
370
18
48
1
60
0
100
AcDbSpline
70
4
71
3
72
16
73
12
40
0
40
0
40
0
40
0
40
0.0430953393399331
40
0.0430953393399331
40
0.230466511264147
40
0.230466511264147
40
0.605208855112584
40
0.605208855112584
40
0.97995119896102
40
0.97995119896102
40
1
40
1
40
1
40
1
41
1
10
53.2705848825972
20
-3.23868924421743
30
0
41
1
10
53.2108126799301
20
-3.23883790847788
30
0
41
1
10
53.1510351051021
20
-3.23852964179593
30
0
41
1
10
52.8313042812119
20
-3.23443989081235
30
0
41
1
10
52.5706121881683
20
-3.22243070233583
30
0
41
1
10
51.7919112519676
20
-3.16106210570379
30
0
41
1
10
51.2772235712031
20
-3.08658790906219
30
0
41
1
10
50.2500784151171
20
-2.87625672580842
30
0
41
1
10
49.737553249119
20
-2.74030967537254
30
0
41
1
10
49.1950337141483
20
-2.56805259678936
30
0
41
1
10
49.1674761497901
20
-2.55922562052652
30
0
41
1
10
49.1399114191735
20
-2.55032000717264
30
0
0
SPLINE
5
E7
100
AcDbEntity
8
1
62
256
6
ByLayer
370
13
48
1
60
0
100
AcDbSpline
70
4
71
3
72
22
73
18
40
0
40
0
40
0
40
0
40
0.0731127891776302
40
0.0731127891776302
40
0.154986055244632
40
0.154986055244632
40
0.48247911951264
40
0.48247911951264
40
0.564352385579643
40
0.564352385579643
40
0.646225651646646
40
0.646225651646646
40
0.809972183780651
40
0.809972183780651
40
0.973718715914657
40
0.973718715914657
40
1
40
1
40
1
40
1
41
1
10
49.1399114191942
20
-2.55032000717935
30
0
41
1
10
48.9098629454347
20
-2.47599594472277
30
0
41
1
10
48.6793153301878
20
-2.39619468166376
30
0
41
1
10
48.1888726177275
20
-2.21610294036051
30
0
41
1
10
47.9279998446679
20
-2.11418048395913
30
0
41
1
10
46.6312459226956
20
-1.58103559642316
30
0
41
1
10
45.6111222553916
20
-1.07631459382714
30
0
41
1
10
44.3226757348252
20
-0.411580435071954
30
0
41
1
10
44.0643197664274
20
-0.276951432066113
30
0
41
1
10
43.545524366597
20
-0.0057180569776278
30
0
41
1
10
43.2845572212847
20
0.131046465334805
30
0
41
1
10
42.5071077078678
20
0.537056784453341
30
0
41
1
10
41.9924938747167
20
0.802182213752872
30
0
41
1
10
40.9646557182506
20
1.31061482715424
30
0
41
1
10
40.4509935507067
20
1.55304041298703
30
0
41
1
10
39.851923393882
20
1.81485509079508
30
0
41
1
10
39.7689940621384
20
1.85061260984205
30
0
41
1
10
39.6859718247152
20
1.88588835099671
30
0
0
SPLINE
5
E8
100
AcDbEntity
8
1
62
256
6
ByLayer
370
18
48
1
60
0
100
AcDbSpline
70
4
71
3
72
12
73
8
40
0
40
0
40
0
40
0
40
0.0217473769685374
40
0.0217473769685374
40
0.217672175112091
40
0.217672175112091
40
1
40
1
40
1
40
1
41
1
10
14.4249562623253
20
-3.21534860125391
30
0
41
1
10
14.3962003578494
20
-3.21530668202479
30
0
41
1
10
14.3674336087358
20
-3.21516054514961
30
0
41
1
10
14.0793891268557
20
-3.21265263490727
30
0
41
1
10
13.8183384356724
20
-3.20178823672265
30
0
41
1
10
12.5201518828439
20
-3.10522581793433
30
0
41
1
10
11.4992723749851
20
-2.8942301112036
30
0
41
1
10
10.4685346712619
20
-2.57233159717822
30
0
0
SPLINE
5
E9
100
AcDbEntity
8
1
62
256
6
ByLayer
370
13
48
1
60
0
100
AcDbSpline
70
4
71
3
72
20
73
16
40
0
40
0
40
0
40
0
40
0.0008741675231258
40
0.0008741675231258
40
0.125764896582736
40
0.125764896582736
40
0.250655625642345
40
0.250655625642345
40
0.500437083761562
40
0.500437083761562
40
0.75021854188078
40
0.75021854188078
40
0.87510927094039
40
0.87510927094039
40
1
40
1
40
1
40
1
41
1
10
10.4685346707986
20
-2.57233159703353
30
0
41
1
10
10.466727857575
20
-2.57176733079032
30
0
41
1
10
10.4649210140596
20
-2.57120272376818
30
0
41
1
10
10.204969334406
20
-2.48992472566638
30
0
41
1
10
9.94618666145681
20
-2.40228200947615
30
0
41
1
10
9.42649680698293
20
-2.21403149579334
30
0
41
1
10
9.16521867136811
20
-2.11323360611902
30
0
41
1
10
8.38661863565642
20
-1.79688428953486
30
0
41
1
10
7.87148092284568
20
-1.56632225168718
30
0
41
1
10
6.84212378439574
20
-1.07823023602444
30
0
41
1
10
6.32802293994382
20
-0.8204773314026
30
0
41
1
10
5.55239352170378
20
-0.423273821997213
30
0
41
1
10
5.29310221115352
20
-0.289102581554431
30
0
41
1
10
4.77215297301393
20
-0.0187923592861523
30
0
41
1
10
4.51111478784935
20
0.117012176959633
30
0
41
1
10
4.25039901424046
20
0.252093627286939
30
0
0
SPLINE
5
EA
100
AcDbEntity
8
1
62
256
6
ByLayer
370
18
48
1
60
0
100
AcDbSpline
70
4
71
3
72
14
73
10
40
0
40
0
40
0
40
0
40
0.25
40
0.25
40
0.5
40
0.5
40
0.75
40
0.75
40
1
40
1
40
1
40
1
41
1
10
4.01701814734176
20
-3.35218917293125
30
0
41
1
10
4.02615145134192
20
-3.32800808779481
30
0
41
1
10
4.03919799386642
20
-3.30468650646975
30
0
41
1
10
4.07258968102386
20
-3.26336950131375
30
0
41
1
10
4.09278812720868
20
-3.24568481678438
30
0
41
1
10
4.13648746504595
20
-3.21885080238621
30
0
41
1
10
4.16003564061413
20
-3.20962740317123
30
0
41
1
10
4.20616323968102
20
-3.1990750932477
30
0
41
1
10
4.22926515138019
20
-3.19750818496186
30
0
41
1
10
4.25153372476089
20
-3.19891436766545
30
0
0
SPLINE
5
EB
100
AcDbEntity
8
1
62
256
6
ByLayer
370
18
48
1
60
0
100
AcDbSpline
70
4
71
3
72
20
73
16
40
0
40
0
40
0
40
0
40
0.125000000000003
40
0.125000000000003
40
0.187500000000002
40
0.187500000000002
40
0.250000000000001
40
0.250000000000001
40
0.500000000000008
40
0.500000000000008
40
0.625000000000008
40
0.625000000000008
40
0.750000000000008
40
0.750000000000008
40
1
40
1
40
1
40
1
41
1
10
51.1105880820198
20
0.954390332198528
30
0
41
1
10
51.1563740263555
20
0.815283253009369
30
0
41
1
10
51.2121292560635
20
0.678104473478243
30
0
41
1
10
51.3083716924432
20
0.474775302632736
30
0
41
1
10
51.3425681469171
20
0.407408128484178
30
0
41
1
10
51.4149330528185
20
0.273442059966925
30
0
41
1
10
51.4532598670157
20
0.206600467767174
30
0
41
1
10
51.6512467436166
20
-0.12080573001785
30
0
41
1
10
51.830749767278
20
-0.364352466613781
30
0
41
1
10
52.1224641699164
20
-0.710122426875103
30
0
41
1
10
52.2239625596106
20
-0.822430897227946
30
0
41
1
10
52.4303211914915
20
-1.03739542007935
30
0
41
1
10
52.5354937739896
20
-1.14046872016837
30
0
41
1
10
52.8562308167557
20
-1.43814391710867
30
0
41
1
10
53.0769436845002
20
-1.62135790930512
30
0
41
1
10
53.303570932419
20
-1.79148972068683
30
0
0
SPLINE
5
EC
100
AcDbEntity
8
SK1
62
256
6
ByLayer
370
18
48
1
60
0
100
AcDbSpline
70
4
71
3
72
8
73
4
40
0
40
0
40
0
40
0
40
1
40
1
40
1
40
1
41
1
10
-35.25
20
3.45312157038234
30
0
41
1
10
-35.5038880941382
20
3.10343779954513
30
0
41
1
10
-35.7559775883504
20
2.75300757855749
30
0
41
1
10
-36
20
2.39922937845233
30
0
0
SPLINE
5
ED
100
AcDbEntity
8
SK1
62
256
6
ByLayer
370
18
48
1
60
0
100
AcDbSpline
70
4
71
3
72
14
73
10
40
0
40
0
40
0
40
0
40
0.499999999999997
40
0.499999999999997
40
0.749999999999999
40
0.749999999999999
40
0.874999999999999
40
0.874999999999999
40
1
40
1
40
1
40
1
41
1
10
-35.25
20
2.17018640112812
30
0
41
1
10
-35.2287404812744
20
2.19946744598917
30
0
41
1
10
-35.208362723075
20
2.23270876924534
30
0
41
1
10
-35.1802905070704
20
2.28909943789577
30
0
41
1
10
-35.1714466180788
20
2.30881648536391
30
0
41
1
10
-35.1602396792677
20
2.33988816135016
30
0
41
1
10
-35.1568594217207
20
2.35051712730058
30
0
41
1
10
-35.1517495297274
20
2.37142417379209
30
0
41
1
10
-35.15
20
2.38189728112531
30
0
41
1
10
-35.15
20
2.39073894230472
30
0
0
SPLINE
5
EE
100
AcDbEntity
8
SK1
62
256
6
ByLayer
370
18
48
1
60
0
100
AcDbSpline
70
4
71
3
72
8
73
4
40
0
40
0
40
0
40
0
40
1
40
1
40
1
40
1
41
1
10
-36
20
1.11629420919826
30
0
41
1
10
-35.7560848054632
20
1.4699169683465
30
0
41
1
10
-35.5039315622472
20
1.82044276103125
30
0
41
1
10
-35.25
20
2.17018640112826
30
0
0
SPLINE
5
EF
100
AcDbEntity
8
SK1
62
256
6
ByLayer
370
18
48
1
60
0
100
AcDbSpline
70
4
71
3
72
14
73
10
40
0
40
0
40
0
40
0
40
0.124999999999999
40
0.124999999999999
40
0.249999999999999
40
0.249999999999999
40
0.499999999999999
40
0.499999999999999
40
1
40
1
40
1
40
1
41
1
10
-35.15
20
3.5453805946334
30
0
41
1
10
-35.15
20
3.55035646524954
30
0
41
1
10
-35.1517507934569
20
3.55250559842574
30
0
41
1
10
-35.1569069278761
20
3.55319632677995
30
0
41
1
10
-35.160234831946
20
3.5518623385245
30
0
41
1
10
-35.1714888412645
20
3.54501541553734
30
0
41
1
10
-35.1802429568046
20
3.53699431220926
30
0
41
1
10
-35.2083191353841
20
3.50787129418836
30
0
41
1
10
-35.2286409685638
20
3.48253967554939
30
0
41
1
10
-35.25
20
3.45312157038234
30
0
0
LINE
5
76
100
AcDbEntity
8
81
62
256
6
ByLayer
370
18
48
1
60
0
100
AcDbLine
10
55
20
0
30
0
11
60
21
0
31
0
39
0
210
0
220
0
230
1
0
LINE
5
77
100
AcDbEntity
8
1
62
256
6
ByLayer
370
18
48
1
60
0
100
AcDbLine
10
4.016999
20
3.370069
30
0
11
1.274119
21
3.368423
31
0
39
0
210
0
220
0
230
1
0
LINE
5
79
100
AcDbEntity
8
1
62
256
6
ByLayer
370
18
48
1
60
0
100
AcDbLine
10
33.624389
20
3.387833
30
0
11
33.017344
21
3.387469
31
0
39
0
210
0
220
0
230
1
0
LINE
5
7A
100
AcDbEntity
8
1
62
256
6
ByLayer
370
18
48
1
60
0
100
AcDbLine
10
53.024406
20
3.399473
30
0
11
52.426379
21
3.399114
31
0
39
0
210
0
220
0
230
1
0
LINE
5
7B
100
AcDbEntity
8
1
62
256
6
ByLayer
370
18
48
1
60
0
100
AcDbLine
10
52.426379
20
-3.399114
30
0
11
53.024544
21
-3.399473
31
0
39
0
210
0
220
0
230
1
0
LINE
5
7C
100
AcDbEntity
8
1
62
256
6
ByLayer
370
18
48
1
60
0
100
AcDbLine
10
33.017344
20
-3.387469
30
0
11
33.624251
21
-3.387833
31
0
39
0
210
0
220
0
230
1
0
LINE
5
7D
100
AcDbEntity
8
1
62
256
6
ByLayer
370
18
48
1
60
0
100
AcDbLine
10
13.609377
20
-3.375824
30
0
11
14.224023
21
-3.376193
31
0
39
0
210
0
220
0
230
1
0
LINE
5
7E
100
AcDbEntity
8
1
62
256
6
ByLayer
370
18
48
1
60
0
100
AcDbLine
10
1.274119
20
-3.368423
30
0
11
4.016999
21
-3.370069
31
0
39
0
210
0
220
0
230
1
0
LINE
5
7F
100
AcDbEntity
8
SK1
62
256
6
ByLayer
370
18
48
1
60
0
100
AcDbLine
10
-35.133975
20
4
30
0
11
-36
21
2.5
31
0
39
0
210
0
220
0
230
1
0
LINE
5
81
100
AcDbEntity
8
SK1
62
256
6
ByLayer
370
18
48
1
60
0
100
AcDbLine
10
-36
20
-2.5
30
0
11
-35.133975
21
-4
31
0
39
0
210
0
220
0
230
1
0
LINE
5
82
100
AcDbEntity
8
1
62
256
6
ByLayer
370
18
48
1
60
0
100
AcDbLine
10
14.224423
20
3.376193
30
0
11
13.609377
21
3.375824
31
0
39
0
210
0
220
0
230
1
0
LINE
5
83
100
AcDbEntity
8
SK1
62
256
6
ByLayer
370
18
48
1
60
0
100
AcDbLine
10
0
20
4
30
0
11
-35.133975
21
4
31
0
39
0
210
0
220
0
230
1
0
LINE
5
84
100
AcDbEntity
8
SK1
62
256
6
ByLayer
370
18
48
1
60
0
100
AcDbLine
10
-35.133975
20
-4
30
0
11
0
21
-4
31
0
39
0
210
0
220
0
230
1
0
LINE
5
85
100
AcDbEntity
8
SK4
62
256
6
ByLayer
370
18
48
0.05
60
0
100
AcDbLine
10
60
20
0
30
0
11
-41
21
0
31
0
39
0
210
0
220
0
230
1
0
LINE
5
87
100
AcDbEntity
8
4
62
256
6
ByLayer
370
18
48
0.05
60
0
100
AcDbLine
10
55
20
0
30
0
11
0
21
0
31
0
39
0
210
0
220
0
230
1
0
LINE
5
89
100
AcDbEntity
8
80
62
256
6
ByLayer
370
18
48
1
60
0
100
AcDbLine
10
0
20
0
30
0
11
-5
21
0
31
0
39
0
210
0
220
0
230
1
0
LINE
5
8A
100
AcDbEntity
8
1
62
256
6
ByLayer
370
18
48
1
60
0
100
AcDbLine
10
32.982082
20
0.301332
30
0
11
32.980866
21
0.302085
31
0
39
0
210
0
220
0
230
1
0
LINE
5
8B
100
AcDbEntity
8
1
62
256
6
ByLayer
370
13
48
1
60
0
100
AcDbLine
10
54.823991
20
0.71481
30
0
11
54.196808
21
0.71481
31
0
39
0
210
0
220
0
230
1
0
LINE
5
8C
100
AcDbEntity
8
1
62
256
6
ByLayer
370
18
48
1
60
0
100
AcDbLine
10
55
20
0
30
0
11
54.993892
21
-0.033866
31
0
39
0
210
0
220
0
230
1
0
LINE
5
8D
100
AcDbEntity
8
1
62
256
6
ByLayer
370
13
48
1
60
0
100
AcDbLine
10
0.63682
20
3.684211
30
0
11
0.63682
21
-3.684211
31
0
39
0
210
0
220
0
230
1
0
LINE
5
8E
100
AcDbEntity
8
1
62
256
6
ByLayer
370
13
48
1
60
0
100
AcDbLine
10
1.274119
20
3.368423
30
0
11
1.274119
21
-3.368423
31
0
39
0
210
0
220
0
230
1
0
LINE
5
8F
100
AcDbEntity
8
1
62
256
6
ByLayer
370
13
48
1
60
0
100
AcDbLine
10
54.196808
20
0.71481
30
0
11
54.92476
21
0.282891
31
0
39
0
210
0
220
0
230
1
0
LINE
5
90
100
AcDbEntity
8
1
62
256
6
ByLayer
370
18
48
1
60
0
100
AcDbLine
10
54.92476
20
-0.282891
30
0
11
54.823991
21
-0.71481
31
0
39
0
210
0
220
0
230
1
0
LINE
5
91
100
AcDbEntity
8
1
62
256
6
ByLayer
370
18
48
1
60
0
100
AcDbLine
10
53.303571
20
-1.79149
30
0
11
54.895039
21
-0.147481
31
0
39
0
210
0
220
0
230
1
0
LINE
5
92
100
AcDbEntity
8
1
62
256
6
ByLayer
370
18
48
1
60
0
100
AcDbLine
10
0
20
-4
30
0
11
0
21
4
31
0
39
0
210
0
220
0
230
1
0
LINE
5
93
100
AcDbEntity
8
1
62
256
6
ByLayer
370
18
48
1
60
0
100
AcDbLine
10
54.92476
20
0.282891
30
0
11
54.823991
21
0.71481
31
0
39
0
210
0
220
0
230
1
0
LINE
5
94
100
AcDbEntity
8
1
62
256
6
ByLayer
370
13
48
1
60
0
100
AcDbLine
10
54.006901
20
0.379481
30
0
11
54.895039
21
-0.147481
31
0
39
0
210
0
220
0
230
1
0
LINE
5
95
100
AcDbEntity
8
1
62
256
6
ByLayer
370
18
48
1
60
0
100
AcDbLine
10
55
20
0
30
0
11
53.821114
21
-3.238962
31
0
39
0
210
0
220
0
230
1
0
LINE
5
96
100
AcDbEntity
8
1
62
256
6
ByLayer
370
18
48
1
60
0
100
AcDbLine
10
54.993892
20
0.033866
30
0
11
55
21
0
31
0
39
0
210
0
220
0
230
1
0
LINE
5
97
100
AcDbEntity
8
SK1
62
256
6
ByLayer
370
18
48
1
60
0
100
AcDbLine
10
-35.15
20
2.390739
30
0
11
-35.15
21
3.545381
31
0
39
0
210
0
220
0
230
1
0
LINE
5
98
100
AcDbEntity
8
SK1
62
256
6
ByLayer
370
18
48
1
60
0
100
AcDbLine
10
0
20
-4
30
0
11
0
21
4
31
0
39
0
210
0
220
0
230
1
0
LINE
5
99
100
AcDbEntity
8
SK1
62
256
6
ByLayer
370
18
48
1
60
0
100
AcDbLine
10
-36
20
2.5
30
0
11
-36
21
2.399229
31
0
39
0
210
0
220
0
230
1
0
LINE
5
9A
100
AcDbEntity
8
SK1
62
256
6
ByLayer
370
18
48
1
60
0
100
AcDbLine
10
-36
20
1.116294
30
0
11
-36
21
-2.5
31
0
39
0
210
0
220
0
230
1
0
LINE
5
9B
100
AcDbEntity
8
SK1
62
256
6
ByLayer
370
18
48
1
60
0
100
AcDbLine
10
-35.133975
20
4
30
0
11
-35.133975
21
-4
31
0
39
0
210
0
220
0
230
1
0
LINE
5
9C
100
AcDbEntity
8
SK1
62
256
6
ByLayer
370
18
48
1
60
0
100
AcDbLine
10
-36
20
2.399229
30
0
11
-36
21
1.116283
31
0
39
0
210
0
220
0
230
1
0
LINE
5
9D
100
AcDbEntity
8
SK1
62
256
6
ByLayer
370
13
48
1
60
0
100
AcDbLine
10
-35.25
20
3.453122
30
0
11
-35.25
21
2.170129
31
0
39
0
210
0
220
0
230
1
0
MTEXT
5
F0
100
AcDbEntity
8
SK6
62
256
6
ByLayer
370
13
48
1
60
0
100
AcDbMText
10
11.629169
20
35.782694
30
0
210
0
220
0
230
1
1
\W0.7542;R840-0680-50-A1A1220
40
3.5
41
0
44
1.084337
50
0
71
8
72
5
7
iso_b_vert
0
DIMENSION
5
FD
100
AcDbEntity
8
SK2
62
256
6
ByLayer
370
13
48
1
60
0
100
AcDbDimension
2
DimnDraft3D1
10
53.84
20
-13.613398
30
0
11
25.590059
21
-13.613398
31
0
70
32
71
5
72
1
41
1
210
0
220
0
230
1
3
Standard
100
AcDbAlignedDimension
13
0
23
-1.5875
33
0
14
53.84
24
-4.9875
34
0
50
0
100
AcDbRotatedDimension
1001
ACAD
1000
DSTYLE
1002
{
1070
   279
1070
     0
1070
   172
1070
     1
1070
   173
1070
     1
1070
   340
1005
F1
1070
   271
1070
     2
1070
   272
1070
     2
1070
    77
1070
     1
1070
    73
1070
     0
1070
   171
1070
     3
1070
   274
1070
     4
1070
   177
1070
    35
1070
   176
1070
    35
1070
   178
1070
    35
1070
    48
1040
-0.005
1070
    41
1041
3.5
1070
   147
1041
1.75
1070
    42
1041
1.5875
1070
    44
1041
2.0
1070
   140
1041
3.5
1070
   343
1005
0
1070
   344
1005
0
1002
}
0
DIMENSION
5
107
100
AcDbEntity
8
SK2
62
256
6
ByLayer
370
13
48
1
60
0
100
AcDbDimension
2
DimnDraft3D2
10
55
20
-32.692985
30
0
11
9.6813
21
-32.692985
31
0
70
32
71
5
72
1
41
1
210
0
220
0
230
1
3
Standard
100
AcDbAlignedDimension
13
-36
23
-5.5875
33
0
14
55
24
-1.5875
34
0
50
0
100
AcDbRotatedDimension
1001
ACAD
1000
DSTYLE
1002
{
1070
   279
1070
     0
1070
   172
1070
     1
1070
   173
1070
     1
1070
   340
1005
F1
1070
   271
1070
     2
1070
   272
1070
     2
1070
    77
1070
     1
1070
    73
1070
     0
1070
   171
1070
     3
1070
   274
1070
     4
1070
   177
1070
    35
1070
   176
1070
    35
1070
   178
1070
    35
1070
    48
1040
-0.005
1070
    41
1041
3.5
1070
   147
1041
1.75
1070
    42
1041
1.5875
1070
    44
1041
2.0
1070
   140
1041
3.5
1070
   343
1005
0
1070
   344
1005
0
1002
}
0
DIMENSION
5
111
100
AcDbEntity
8
SK2
62
256
6
ByLayer
370
13
48
1
60
0
100
AcDbDimension
2
DimnDraft3D3
10
55
20
15.009119
30
0
11
37.42
21
15.009119
31
0
70
32
71
5
72
1
41
1
210
0
220
0
230
1
3
Standard
100
AcDbAlignedDimension
13
19.84
23
4.9875
33
0
14
55
24
1.5875
34
0
50
0
100
AcDbRotatedDimension
1001
ACAD
1000
DSTYLE
1002
{
1070
   279
1070
     0
1070
   172
1070
     1
1070
   173
1070
     1
1070
   340
1005
F1
1070
   271
1070
     2
1070
   272
1070
     2
1070
    77
1070
     1
1070
    73
1070
     0
1070
   171
1070
     3
1070
   274
1070
     4
1070
   177
1070
    35
1070
   176
1070
    35
1070
   178
1070
    35
1070
    48
1040
-0.005
1070
    41
1041
3.5
1070
   147
1041
1.75
1070
    42
1041
1.5875
1070
    44
1041
2.0
1070
   140
1041
3.5
1070
   343
1005
0
1070
   344
1005
0
1002
}
0
DIMENSION
5
11B
100
AcDbEntity
8
SK2
62
256
6
ByLayer
370
13
48
1
60
0
100
AcDbDimension
2
DimnDraft3D4
10
53.84
20
-16.202503
30
0
11
64.981425
21
-16.202503
31
0
70
32
71
5
72
1
41
1
210
0
220
0
230
1
3
Standard
100
AcDbAlignedDimension
13
55
23
-1.5875
33
0
14
53.84
24
-4.9875
34
0
50
0
100
AcDbRotatedDimension
1001
ACAD
1000
DSTYLE
1002
{
1070
   279
1070
     0
1070
   172
1070
     1
1070
   173
1070
     1
1070
   340
1005
F1
1070
   271
1070
     2
1070
   272
1070
     2
1070
    77
1070
     1
1070
    73
1070
     0
1070
   171
1070
     3
1070
   274
1070
     4
1070
   177
1070
    35
1070
   176
1070
    35
1070
   178
1070
    35
1070
    48
1040
-0.005
1070
    41
1041
3.5
1070
   147
1041
1.75
1070
    42
1041
1.5875
1070
    44
1041
2.0
1070
   140
1041
3.5
1070
   343
1005
0
1070
   344
1005
0
1002
}
0
DIMENSION
5
125
100
AcDbEntity
8
SK2
62
256
6
ByLayer
370
13
48
1
60
0
100
AcDbDimension
2
DimnDraft3D5
10
53.84
20
-22.343428
30
0
11
6.600676
21
-22.343428
31
0
70
32
71
5
72
1
41
1
210
0
220
0
230
1
3
Standard
100
AcDbAlignedDimension
13
-36
23
-5.5875
33
0
14
53.84
24
-4.9875
34
0
50
0
100
AcDbRotatedDimension
1001
ACAD
1000
DSTYLE
1002
{
1070
   279
1070
     0
1070
   172
1070
     1
1070
   173
1070
     1
1070
   340
1005
F1
1070
   271
1070
     2
1070
   272
1070
     2
1070
    77
1070
     1
1070
    73
1070
     0
1070
   171
1070
     3
1070
   274
1070
     4
1070
   177
1070
    35
1070
   176
1070
    35
1070
   178
1070
    35
1070
    48
1040
-0.005
1070
    41
1041
3.5
1070
   147
1041
1.75
1070
    42
1041
1.5875
1070
    44
1041
2.0
1070
   140
1041
3.5
1070
   343
1005
0
1070
   344
1005
0
1002
}
0
DIMENSION
5
130
100
AcDbEntity
8
SK2
62
256
6
ByLayer
370
13
48
1
60
0
100
AcDbDimension
2
DimnDraft3D6
10
-46.625163
20
4
30
0
11
-47.250163
21
22.47418
31
0
70
33
71
5
72
1
41
1
210
0
220
0
230
1
3
Standard
100
AcDbAlignedDimension
13
-37.5875
23
-4
33
0
14
-37.5875
24
4
34
0
1001
ACAD
1000
DSTYLE
1002
{
1070
   279
1070
     0
1070
    74
1070
     0
1070
   173
1070
     1
1070
   340
1005
F1
1070
   271
1070
     3
1070
   272
1070
     2
1070
    77
1070
     1
1070
    73
1070
     0
1070
   171
1070
     3
1070
   274
1070
     4
1070
   177
1070
    35
1070
   176
1070
    35
1070
   178
1070
    35
1070
    48
1040
-0.005
1070
    41
1041
3.5
1070
   147
1041
1.75
1070
    42
1041
1.5875
1070
    44
1041
2.0
1070
   140
1041
3.5
1070
   343
1005
0
1070
   344
1005
0
1002
}
0
DIMENSION
5
13B
100
AcDbEntity
8
2
62
256
6
ByLayer
370
13
48
1
60
0
100
AcDbDimension
2
DimnDraft3D7
10
69.083343
20
3.4
30
0
11
64.458343
21
20.467266
31
0
70
33
71
5
72
1
41
1
210
0
220
0
230
1
3
Standard
100
AcDbAlignedDimension
13
55.4275
23
-3.4
33
0
14
55.4275
24
3.4
34
0
1001
ACAD
1000
DSTYLE
1002
{
1070
   279
1070
     0
1070
    74
1070
     0
1070
   173
1070
     1
1070
   340
1005
F1
1070
   271
1070
     3
1070
   272
1070
     2
1070
    77
1070
     1
1070
    73
1070
     0
1070
   171
1070
     3
1070
   274
1070
     4
1070
   177
1070
    35
1070
   176
1070
    35
1070
   178
1070
    35
1070
    48
1040
-0.005
1070
    41
1041
3.5
1070
   147
1041
1.75
1070
    42
1041
1.5875
1070
    44
1041
2.0
1070
   140
1041
3.5
1070
   343
1005
0
1070
   344
1005
0
1002
}
0
ENDSEC
0
SECTION
2
OBJECTS
0
DICTIONARY
5
1a6
330
0
100
AcDbDictionary
280
0
281
1
3
ACAD_GROUP
350
1a7
3
ACAD_MLINESTYLE
350
1a8
0
DICTIONARY
5
1a7
330
0
100
AcDbDictionary
280
0
281
1
0
DICTIONARY
5
1a8
330
0
100
AcDbDictionary
280
0
281
1
3
Standard
350
18
0
MLINESTYLE
5
18
330
1a8
100
AcDbMlineStyle
2
Standard
70
0
3

62
256
51
90
52
90
71
2
49
-0.5
62
256
6
ByLayer
49
0.5
62
256
6
ByLayer
0
RASTERVARIABLES
5
194
330

100
AcDbRasterVariables
90
0
70
1
71
1
72
1
0
ENDSEC
0
EOF
