0
SECTION
2
HEADER
9
$ACADVER
1
AC1015
9
$DWGCODEPAGE
3
ANSI_1252
9
$HANDSEED
5
1a8
9
$ANGBASE
50
0
9
$ANGDIR
70
0
9
$ATTMODE
70
1
9
$AUNITS
70
0
9
$AUPREC
70
0
9
$CECOLOR
62
256
9
$CELTSCALE
40
1
9
$CELTYPE
6
ByLayer
9
$CELWEIGHT
370
18
9
$CLAYER
8
0
9
$CMLJUST
70
0
9
$CMLSCALE
40
1
9
$CMLSTYLE
2
Standard
9
$DIMSTYLE
2
Standard
9
$TEXTSIZE
40
0.2
9
$TEXTSTYLE
7
Standard
9
$LUNITS
70
2
9
$LUPREC
70
4
9
$EXTNAMES
290
1
9
$INSUNITS
70
4
9
$LTSCALE
40
1
9
$LWDISPLAY
290
1
9
$PDMODE
70
0
9
$PDSIZE
40
0
9
$PLINEGEN
70
0
0
ENDSEC
0
SECTION
2
CLASSES
0
CLASS
1
RASTERVARIABLES
2
AcDbRasterVariables
3
ISM
90
0
280
0
281
0
0
ENDSEC
0
SECTION
2
TABLES
0
TABLE
2
VPORT
5
19e
100
AcDbSymbolTable
0
VPORT
5
1
100
AcDbSymbolTableRecord
100
AcDbViewportTableRecord
2
*Active
70
0
10
0
20
0
11
1
21
1
12
-1
22
1
13
0
23
0
14
0.5
24
0.5
15
10
25
10
16
0
26
0
36
1
17
0
27
0
37
0
0
ENDTAB
0
TABLE
2
LTYPE
5
19f
100
AcDbSymbolTable
0
LTYPE
5
14
100
AcDbSymbolTableRecord
100
AcDbLinetypeTableRecord
70
0
2
ByBlock
3

72
65
73
0
40
0
0
LTYPE
5
15
100
AcDbSymbolTableRecord
100
AcDbLinetypeTableRecord
70
0
2
ByLayer
3

72
65
73
0
40
0
0
LTYPE
5
16
100
AcDbSymbolTableRecord
100
AcDbLinetypeTableRecord
70
0
2
CONTINUOUS
3
Solid line
72
65
73
0
40
0
0
LTYPE
5
6A
100
AcDbSymbolTableRecord
100
AcDbLinetypeTableRecord
70
0
2
CENTER
3
____ _ ____ _ ____ _ ____
72
65
73
4
40
47.5
49
22
74
0
49
-8.5
74
0
49
8.5
74
0
49
-8.5
74
0
0
LTYPE
5
6B
100
AcDbSymbolTableRecord
100
AcDbLinetypeTableRecord
70
0
2
DASHED
3
__ __ __ __ __ __ __ __ __
72
65
73
2
40
25.72
49
12.86
74
0
49
-12.86
74
0
0
ENDTAB
0
TABLE
2
LAYER
5
1a0
100
AcDbSymbolTable
0
LAYER
5
10
100
AcDbSymbolTableRecord
100
AcDbLayerTableRecord
2
0
70
0
62
7
6
CONTINUOUS
290
1
370
-3
390
0
0
LAYER
5
6D
100
AcDbSymbolTableRecord
100
AcDbLayerTableRecord
2
81
70
0
62
-3
6
CONTINUOUS
290
1
370
-3
390
0
0
LAYER
5
6F
100
AcDbSymbolTableRecord
100
AcDbLayerTableRecord
2
80
70
0
62
-6
6
CONTINUOUS
290
1
370
-3
390
0
0
LAYER
5
74
100
AcDbSymbolTableRecord
100
AcDbLayerTableRecord
2
2
70
0
62
7
6
CONTINUOUS
290
1
370
-3
390
0
0
LAYER
5
78
100
AcDbSymbolTableRecord
100
AcDbLayerTableRecord
2
1
70
0
62
4
6
CONTINUOUS
290
1
370
-3
390
0
0
LAYER
5
86
100
AcDbSymbolTableRecord
100
AcDbLayerTableRecord
2
4
70
0
62
-2
6
CENTER
290
1
370
-3
390
0
0
LAYER
5
18a
100
AcDbSymbolTableRecord
100
AcDbLayerTableRecord
2
SK2
70
0
62
7
6
CONTINUOUS
290
1
370
-3
390
0
0
LAYER
5
18b
100
AcDbSymbolTableRecord
100
AcDbLayerTableRecord
2
SK1
70
0
62
4
6
CONTINUOUS
290
1
370
-3
390
0
0
LAYER
5
18c
100
AcDbSymbolTableRecord
100
AcDbLayerTableRecord
2
SK4
70
0
62
2
6
CENTER
290
1
370
-3
390
0
0
LAYER
5
18d
100
AcDbSymbolTableRecord
100
AcDbLayerTableRecord
2
SK6
70
0
62
5
6
CONTINUOUS
290
1
370
-3
390
0
0
ENDTAB
0
TABLE
2
STYLE
5
1a1
100
AcDbSymbolTable
0
STYLE
5
11
100
AcDbSymbolTableRecord
100
AcDbTextStyleTableRecord
2
Standard
3
txt
70
0
71
0
40
0
41
1
42
0
50
0
0
STYLE
5
E6
100
AcDbSymbolTableRecord
100
AcDbTextStyleTableRecord
2
iso_b_vert
3
simplex.shx
70
0
71
0
40
0
41
1
42
0
50
0
0
STYLE
5
E7
100
AcDbSymbolTableRecord
100
AcDbTextStyleTableRecord
2
DWGDirectTextStyle
3
simplex
70
0
71
0
40
0
41
1
42
0
50
0
0
ENDTAB
0
TABLE
2
DIMSTYLE
5
1a2
100
AcDbSymbolTable
100
AcDbDimStyleTable
0
DIMSTYLE
105
27
100
AcDbSymbolTableRecord
100
AcDbDimStyleTableRecord
2
Standard
70
0
3
<>
41
0.18
42
0.0625
44
0.18
140
0.18
147
0.09
73
0
74
0
77
1
271
2
275
0
278
52
280
0
340
11
0
ENDTAB
0
TABLE
2
VIEW
5
1a3
100
AcDbSymbolTable
0
ENDTAB
0
TABLE
2
UCS
5
1a4
100
AcDbSymbolTable
0
ENDTAB
0
TABLE
2
APPID
5
1a5
100
AcDbSymbolTable
0
APPID
5
12
100
AcDbSymbolTableRecord
100
AcDbRegAppTableRecord
2
ACAD
70
0
0
ENDTAB
0
TABLE
2
BLOCK_RECORD
5
1a6
100
AcDbSymbolTable
0
BLOCK_RECORD
5
1F
100
AcDbSymbolTableRecord
100
AcDbBlockTableRecord
2
*Model_Space
340
0
70
0
0
BLOCK_RECORD
5
1B
100
AcDbSymbolTableRecord
100
AcDbBlockTableRecord
2
*Paper_Space
340
0
70
0
0
BLOCK_RECORD
5
23
100
AcDbSymbolTableRecord
100
AcDbBlockTableRecord
2
*Paper_Space0
340
0
70
0
0
BLOCK_RECORD
5
E9
100
AcDbSymbolTableRecord
100
AcDbBlockTableRecord
2
DimnDraft3D1
340
0
70
0
0
BLOCK_RECORD
5
F3
100
AcDbSymbolTableRecord
100
AcDbBlockTableRecord
2
DimnDraft3D2
340
0
70
0
0
BLOCK_RECORD
5
FD
100
AcDbSymbolTableRecord
100
AcDbBlockTableRecord
2
DimnDraft3D3
340
0
70
0
0
BLOCK_RECORD
5
107
100
AcDbSymbolTableRecord
100
AcDbBlockTableRecord
2
DimnDraft3D4
340
0
70
0
0
BLOCK_RECORD
5
111
100
AcDbSymbolTableRecord
100
AcDbBlockTableRecord
2
DimnDraft3D5
340
0
70
0
0
BLOCK_RECORD
5
11B
100
AcDbSymbolTableRecord
100
AcDbBlockTableRecord
2
DimnDraft3D6
340
0
70
0
0
BLOCK_RECORD
5
126
100
AcDbSymbolTableRecord
100
AcDbBlockTableRecord
2
DimnDraft3D7
340
0
70
0
0
ENDTAB
0
ENDSEC
0
SECTION
2
BLOCKS
0
BLOCK
5
20
100
AcDbEntity
8
0
100
AcDbBlockBegin
2
*Model_Space
70
0
10
0
20
0
30
0
3
*Model_Space
0
ENDBLK
5
21
100
AcDbEntity
8
0
100
AcDbBlockEnd
0
BLOCK
5
1C
100
AcDbEntity
8
0
100
AcDbBlockBegin
2
*Paper_Space
70
0
10
0
20
0
30
0
3
*Paper_Space
0
ENDBLK
5
1D
100
AcDbEntity
8
0
100
AcDbBlockEnd
0
BLOCK
5
24
100
AcDbEntity
8
0
100
AcDbBlockBegin
2
*Paper_Space0
70
0
10
0
20
0
30
0
3
*Paper_Space0
0
ENDBLK
5
25
100
AcDbEntity
8
0
100
AcDbBlockEnd
0
BLOCK
5
F0
100
AcDbEntity
8
0
100
AcDbBlockBegin
2
DimnDraft3D1
70
0
10
0
20
0
30
0
3
DimnDraft3D1
0
MTEXT
5
EA
100
AcDbEntity
8
SK2
62
256
6
ByLayer
370
13
48
1
60
0
100
AcDbMText
10
15.210454
20
-12.738398
30
0
210
0
220
0
230
1
1
\W0.7159;41,84
40
3.5
41
0
44
1.084337
50
0
71
7
72
5
7
iso_b_vert
0
LINE
5
EB
100
AcDbEntity
8
SK2
62
256
6
ByLayer
370
13
48
1
60
0
100
AcDbLine
10
0
20
-1.5875
30
0
11
0
21
-15.613398
31
0
39
0
210
0
220
0
230
1
0
LINE
5
EC
100
AcDbEntity
8
SK2
62
256
6
ByLayer
370
13
48
1
60
0
100
AcDbLine
10
41.84
20
-4.9875
30
0
11
41.84
21
-15.613398
31
0
39
0
210
0
220
0
230
1
0
LINE
5
ED
100
AcDbEntity
8
SK2
62
256
6
ByLayer
370
13
48
1
60
0
100
AcDbLine
10
0
20
-13.613398
30
0
11
41.84
21
-13.613398
31
0
39
0
210
0
220
0
230
1
0
SOLID
5
EE
100
AcDbEntity
8
SK2
62
256
6
ByLayer
370
13
48
1
60
0
100
AcDbTrace
10
0
20
-13.613398
30
0
11
3.499998
21
-13.152615
31
0
12
3.500002
22
-14.074182
32
0
13
0
23
-13.613398
33
0
39
0
210
0
220
0
230
1
0
SOLID
5
EF
100
AcDbEntity
8
SK2
62
256
6
ByLayer
370
13
48
1
60
0
100
AcDbTrace
10
41.84
20
-13.613398
30
0
11
38.340002
21
-14.074182
31
0
12
38.339998
22
-13.152615
32
0
13
41.84
23
-13.613398
33
0
39
0
210
0
220
0
230
1
0
ENDBLK
5
F1
100
AcDbEntity
8
0
100
AcDbBlockEnd
0
BLOCK
5
FA
100
AcDbEntity
8
0
100
AcDbBlockBegin
2
DimnDraft3D2
70
0
10
0
20
0
30
0
3
DimnDraft3D2
0
MTEXT
5
F4
100
AcDbEntity
8
SK2
62
256
6
ByLayer
370
13
48
1
60
0
100
AcDbMText
10
-0.767384
20
-31.817985
30
0
210
0
220
0
230
1
1
\W0.7317;79,00
40
3.5
41
0
44
1.084337
50
0
71
7
72
5
7
iso_b_vert
0
LINE
5
F5
100
AcDbEntity
8
SK2
62
256
6
ByLayer
370
13
48
1
60
0
100
AcDbLine
10
-36
20
-5.5875
30
0
11
-36
21
-34.692985
31
0
39
0
210
0
220
0
230
1
0
LINE
5
F6
100
AcDbEntity
8
SK2
62
256
6
ByLayer
370
13
48
1
60
0
100
AcDbLine
10
43
20
-1.5875
30
0
11
43
21
-34.692985
31
0
39
0
210
0
220
0
230
1
0
LINE
5
F7
100
AcDbEntity
8
SK2
62
256
6
ByLayer
370
13
48
1
60
0
100
AcDbLine
10
-36
20
-32.692985
30
0
11
43
21
-32.692985
31
0
39
0
210
0
220
0
230
1
0
SOLID
5
F8
100
AcDbEntity
8
SK2
62
256
6
ByLayer
370
13
48
1
60
0
100
AcDbTrace
10
-36
20
-32.692985
30
0
11
-32.500002
21
-32.232202
31
0
12
-32.499998
22
-33.153769
32
0
13
-36
23
-32.692985
33
0
39
0
210
0
220
0
230
1
0
SOLID
5
F9
100
AcDbEntity
8
SK2
62
256
6
ByLayer
370
13
48
1
60
0
100
AcDbTrace
10
43
20
-32.692985
30
0
11
39.500002
21
-33.153769
31
0
12
39.499998
22
-32.232202
32
0
13
43
23
-32.692985
33
0
39
0
210
0
220
0
230
1
0
ENDBLK
5
FB
100
AcDbEntity
8
0
100
AcDbBlockEnd
0
BLOCK
5
104
100
AcDbEntity
8
0
100
AcDbBlockBegin
2
DimnDraft3D3
70
0
10
0
20
0
30
0
3
DimnDraft3D3
0
MTEXT
5
FE
100
AcDbEntity
8
SK2
62
256
6
ByLayer
370
13
48
1
60
0
100
AcDbMText
10
28.208816
20
15.884119
30
0
210
0
220
0
230
1
1
\W0.6713;21,56
40
3.5
41
0
44
1.084337
50
0
71
7
72
5
7
iso_b_vert
0
LINE
5
FF
100
AcDbEntity
8
SK2
62
256
6
ByLayer
370
13
48
1
60
0
100
AcDbLine
10
21.44
20
4.9875
30
0
11
21.44
21
17.009119
31
0
39
0
210
0
220
0
230
1
0
LINE
5
100
100
AcDbEntity
8
SK2
62
256
6
ByLayer
370
13
48
1
60
0
100
AcDbLine
10
43
20
1.5875
30
0
11
43
21
17.009119
31
0
39
0
210
0
220
0
230
1
0
LINE
5
101
100
AcDbEntity
8
SK2
62
256
6
ByLayer
370
13
48
1
60
0
100
AcDbLine
10
21.44
20
15.009119
30
0
11
43
21
15.009119
31
0
39
0
210
0
220
0
230
1
0
SOLID
5
102
100
AcDbEntity
8
SK2
62
256
6
ByLayer
370
13
48
1
60
0
100
AcDbTrace
10
21.44
20
15.009119
30
0
11
24.939998
21
15.469903
31
0
12
24.940002
22
14.548335
32
0
13
21.44
23
15.009119
33
0
39
0
210
0
220
0
230
1
0
SOLID
5
103
100
AcDbEntity
8
SK2
62
256
6
ByLayer
370
13
48
1
60
0
100
AcDbTrace
10
43
20
15.009119
30
0
11
39.500002
21
14.548335
31
0
12
39.499998
22
15.469903
32
0
13
43
23
15.009119
33
0
39
0
210
0
220
0
230
1
0
ENDBLK
5
105
100
AcDbEntity
8
0
100
AcDbBlockEnd
0
BLOCK
5
10E
100
AcDbEntity
8
0
100
AcDbBlockBegin
2
DimnDraft3D4
70
0
10
0
20
0
30
0
3
DimnDraft3D4
0
MTEXT
5
108
100
AcDbEntity
8
SK2
62
256
6
ByLayer
370
13
48
1
60
0
100
AcDbMText
10
50.715636
20
-15.327503
30
0
210
0
220
0
230
1
1
\W0.5583;1,16
40
3.5
41
0
44
1.084337
50
0
71
7
72
5
7
iso_b_vert
0
LINE
5
109
100
AcDbEntity
8
SK2
62
256
6
ByLayer
370
13
48
1
60
0
100
AcDbLine
10
43
20
-1.5875
30
0
11
43
21
-18.202503
31
0
39
0
210
0
220
0
230
1
0
LINE
5
10A
100
AcDbEntity
8
SK2
62
256
6
ByLayer
370
13
48
1
60
0
100
AcDbLine
10
41.84
20
-4.9875
30
0
11
41.84
21
-18.202503
31
0
39
0
210
0
220
0
230
1
0
LINE
5
10B
100
AcDbEntity
8
SK2
62
256
6
ByLayer
370
13
48
1
60
0
100
AcDbLine
10
33.09
20
-16.202503
30
0
11
56.122215
21
-16.202503
31
0
39
0
210
0
220
0
230
1
0
SOLID
5
10C
100
AcDbEntity
8
SK2
62
256
6
ByLayer
370
13
48
1
60
0
100
AcDbTrace
10
43
20
-16.202503
30
0
11
46.499998
21
-15.741719
31
0
12
46.500002
22
-16.663287
32
0
13
43
23
-16.202503
33
0
39
0
210
0
220
0
230
1
0
SOLID
5
10D
100
AcDbEntity
8
SK2
62
256
6
ByLayer
370
13
48
1
60
0
100
AcDbTrace
10
41.84
20
-16.202503
30
0
11
38.340002
21
-16.663287
31
0
12
38.339998
22
-15.741719
32
0
13
41.84
23
-16.202503
33
0
39
0
210
0
220
0
230
1
0
ENDBLK
5
10F
100
AcDbEntity
8
0
100
AcDbBlockEnd
0
BLOCK
5
118
100
AcDbEntity
8
0
100
AcDbBlockBegin
2
DimnDraft3D5
70
0
10
0
20
0
30
0
3
DimnDraft3D5
0
MTEXT
5
112
100
AcDbEntity
8
SK2
62
256
6
ByLayer
370
13
48
1
60
0
100
AcDbMText
10
-4.032218
20
-21.468428
30
0
210
0
220
0
230
1
1
\W0.7495;77,84
40
3.5
41
0
44
1.084337
50
0
71
7
72
5
7
iso_b_vert
0
LINE
5
113
100
AcDbEntity
8
SK2
62
256
6
ByLayer
370
13
48
1
60
0
100
AcDbLine
10
-36
20
-5.5875
30
0
11
-36
21
-24.343428
31
0
39
0
210
0
220
0
230
1
0
LINE
5
114
100
AcDbEntity
8
SK2
62
256
6
ByLayer
370
13
48
1
60
0
100
AcDbLine
10
41.84
20
-4.9875
30
0
11
41.84
21
-24.343428
31
0
39
0
210
0
220
0
230
1
0
LINE
5
115
100
AcDbEntity
8
SK2
62
256
6
ByLayer
370
13
48
1
60
0
100
AcDbLine
10
-36
20
-22.343428
30
0
11
41.84
21
-22.343428
31
0
39
0
210
0
220
0
230
1
0
SOLID
5
116
100
AcDbEntity
8
SK2
62
256
6
ByLayer
370
13
48
1
60
0
100
AcDbTrace
10
-36
20
-22.343428
30
0
11
-32.500002
21
-21.882645
31
0
12
-32.499998
22
-22.804212
32
0
13
-36
23
-22.343428
33
0
39
0
210
0
220
0
230
1
0
SOLID
5
117
100
AcDbEntity
8
SK2
62
256
6
ByLayer
370
13
48
1
60
0
100
AcDbTrace
10
41.84
20
-22.343428
30
0
11
38.340002
21
-22.804212
31
0
12
38.339998
22
-21.882645
32
0
13
41.84
23
-22.343428
33
0
39
0
210
0
220
0
230
1
0
ENDBLK
5
119
100
AcDbEntity
8
0
100
AcDbBlockEnd
0
BLOCK
5
123
100
AcDbEntity
8
0
100
AcDbBlockBegin
2
DimnDraft3D6
70
0
10
0
20
0
30
0
3
DimnDraft3D6
0
MTEXT
5
11C
100
AcDbEntity
8
SK2
62
256
6
ByLayer
370
13
48
1
60
0
100
AcDbMText
10
-46.375163
20
23.34918
30
0
210
0
220
0
230
1
1
\W0.7317;8,000
40
3.5
41
0
44
1.084337
50
90
71
7
72
5
7
iso_b_vert
0
MTEXT
5
11D
100
AcDbEntity
8
SK2
62
256
6
ByLayer
370
13
48
1
60
0
100
AcDbMText
10
-46.375163
20
18.126524
30
0
210
0
220
0
230
1
1
%%c
40
3.5
41
0
44
1.084337
50
90
71
7
72
5
7
iso_b_vert
0
LINE
5
11E
100
AcDbEntity
8
SK2
62
256
6
ByLayer
370
13
48
1
60
0
100
AcDbLine
10
-37.5875
20
-4
30
0
11
-46.625163
21
-4
31
0
39
0
210
0
220
0
230
1
0
LINE
5
11F
100
AcDbEntity
8
SK2
62
256
6
ByLayer
370
13
48
1
60
0
100
AcDbLine
10
-37.5875
20
4
30
0
11
-46.625163
21
4
31
0
39
0
210
0
220
0
230
1
0
LINE
5
120
100
AcDbEntity
8
SK2
62
256
6
ByLayer
370
13
48
1
60
0
100
AcDbLine
10
-44.625163
20
-4
30
0
11
-44.625163
21
33.121549
31
0
39
0
210
0
220
0
230
1
0
SOLID
5
121
100
AcDbEntity
8
SK2
62
256
6
ByLayer
370
13
48
1
60
0
100
AcDbTrace
10
-44.625163
20
-4
30
0
11
-45.085946
21
-0.500002
31
0
12
-44.164379
22
-0.499998
32
0
13
-44.625163
23
-4
33
0
39
0
210
0
220
0
230
1
0
SOLID
5
122
100
AcDbEntity
8
SK2
62
256
6
ByLayer
370
13
48
1
60
0
100
AcDbTrace
10
-44.625163
20
4
30
0
11
-44.164379
21
0.500002
31
0
12
-45.085946
22
0.499998
32
0
13
-44.625163
23
4
33
0
39
0
210
0
220
0
230
1
0
ENDBLK
5
124
100
AcDbEntity
8
0
100
AcDbBlockEnd
0
BLOCK
5
12E
100
AcDbEntity
8
0
100
AcDbBlockBegin
2
DimnDraft3D7
70
0
10
0
20
0
30
0
3
DimnDraft3D7
0
MTEXT
5
127
100
AcDbEntity
8
2
62
256
6
ByLayer
370
13
48
1
60
0
100
AcDbMText
10
53.333343
20
21.342266
30
0
210
0
220
0
230
1
1
\W0.7317;6,800
40
3.5
41
0
44
1.084337
50
90
71
7
72
5
7
iso_b_vert
0
MTEXT
5
128
100
AcDbEntity
8
2
62
256
6
ByLayer
370
13
48
1
60
0
100
AcDbMText
10
53.333343
20
16.11961
30
0
210
0
220
0
230
1
1
%%c
40
3.5
41
0
44
1.084337
50
90
71
7
72
5
7
iso_b_vert
0
LINE
5
129
100
AcDbEntity
8
2
62
256
6
ByLayer
370
13
48
1
60
0
100
AcDbLine
10
43.4275
20
-3.4
30
0
11
57.083343
21
-3.4
31
0
39
0
210
0
220
0
230
1
0
LINE
5
12A
100
AcDbEntity
8
2
62
256
6
ByLayer
370
13
48
1
60
0
100
AcDbLine
10
43.4275
20
3.4
30
0
11
57.083343
21
3.4
31
0
39
0
210
0
220
0
230
1
0
LINE
5
12B
100
AcDbEntity
8
2
62
256
6
ByLayer
370
13
48
1
60
0
100
AcDbLine
10
55.083343
20
31.114635
30
0
11
55.083343
21
-12.15
31
0
39
0
210
0
220
0
230
1
0
SOLID
5
12C
100
AcDbEntity
8
2
62
256
6
ByLayer
370
13
48
1
60
0
100
AcDbTrace
10
55.083343
20
-3.4
30
0
11
55.544126
21
-6.899998
31
0
12
54.622559
22
-6.900002
32
0
13
55.083343
23
-3.4
33
0
39
0
210
0
220
0
230
1
0
SOLID
5
12D
100
AcDbEntity
8
2
62
256
6
ByLayer
370
13
48
1
60
0
100
AcDbTrace
10
55.083343
20
3.4
30
0
11
54.622559
21
6.899998
31
0
12
55.544126
22
6.900002
32
0
13
55.083343
23
3.4
33
0
39
0
210
0
220
0
230
1
0
ENDBLK
5
12F
100
AcDbEntity
8
0
100
AcDbBlockEnd
0
ENDSEC
0
SECTION
2
ENTITIES
0
ARC
5
9B
100
AcDbEntity
8
1
62
256
6
ByLayer
370
18
48
1
60
0
100
AcDbCircle
39
0
10
0
20
3.2
30
0
40
0.799999999999996
210
0
220
0
230
1
100
AcDbArc
50
37.572306
51
90
0
ARC
5
9C
100
AcDbEntity
8
1
62
256
6
ByLayer
370
18
48
1
60
0
100
AcDbCircle
39
0
10
-1.268135
20
-4.175619
30
0
40
0.800000000000002
210
0
220
0
230
-1
100
AcDbArc
50
37.572306
51
90.034377
0
ARC
5
9D
100
AcDbEntity
8
1
62
256
6
ByLayer
370
18
48
1
60
0
100
AcDbCircle
39
0
10
0
20
-3.2
30
0
40
0.799999999999996
210
0
220
0
230
1
100
AcDbArc
50
270
51
322.427694
0
ARC
5
9E
100
AcDbEntity
8
1
62
256
6
ByLayer
370
18
48
1
60
0
100
AcDbCircle
39
0
10
-1.268135
20
4.175619
30
0
40
0.800000000000002
210
0
220
0
230
-1
100
AcDbArc
50
269.965623
51
322.427694
0
ELLIPSE
5
9F
100
AcDbEntity
8
1
62
256
6
ByLayer
370
18
48
1
60
0
100
AcDbEllipse
10
11.25
20
-3.471717
30
0
11
-0.25
21
3.06151588455594E-17
31
0
210
0
220
0
230
1
40
0.999959
41
-1.57314566065334
42
-0.380380868579275
0
ELLIPSE
5
A0
100
AcDbEntity
8
1
62
256
6
ByLayer
370
18
48
1
60
0
100
AcDbEllipse
10
11.25
20
3.471717
30
0
11
-0.25
21
3.06151588455594E-17
31
0
210
0
220
0
230
1
40
0.999959
41
0.382617534692928
42
1.57793018776565
0
ELLIPSE
5
A1
100
AcDbEntity
8
1
62
256
6
ByLayer
370
18
48
1
60
0
100
AcDbEllipse
10
43.000305
20
-0.000743
30
0
11
1.2555134249653
21
-3.39758279983438
31
0
210
0
220
0
230
-1
40
0.115174
41
-2.96854470330841
42
-2.86035954639555
0
ELLIPSE
5
A2
100
AcDbEntity
8
1
62
256
6
ByLayer
370
13
48
1
60
0
100
AcDbEllipse
10
42.196358
20
0.502945
30
0
11
0.153082081612419
21
0.258003636193772
31
0
210
0
220
0
230
1
40
0.454519
41
0.917105603404791
42
2.31336900500031
0
ELLIPSE
5
A3
100
AcDbEntity
8
1
62
256
6
ByLayer
370
18
48
1
60
0
100
AcDbEllipse
10
42.324472
20
1.724825
30
0
11
0.527213515615319
21
-1.42670842560459
31
0
210
0
220
0
230
-1
40
0.115174
41
-1.49642256750406
42
-0.74286346670568
0
ELLIPSE
5
A4
100
AcDbEntity
8
1
62
256
6
ByLayer
370
18
48
1
60
0
100
AcDbEllipse
10
42.324472
20
-1.724825
30
0
11
0.52721351563031
21
1.4267084256366
31
0
210
0
220
0
230
-1
40
0.115174
41
0.742863466705018
42
1.49642256748819
0
ELLIPSE
5
A5
100
AcDbEntity
8
1
62
256
6
ByLayer
370
18
48
1
60
0
100
AcDbEllipse
10
43.046547
20
0.001501
30
0
11
0.137979128830146
21
0.428995648047452
31
0
210
0
220
0
230
-1
40
0.08774
41
-2.32337572124271
42
-1.68151028906554
0
ELLIPSE
5
A6
100
AcDbEntity
8
1
62
256
6
ByLayer
370
13
48
1
60
0
100
AcDbEllipse
10
11.250226
20
0.474366
30
0
11
0.0469510764318509
21
0.0882926747917997
31
0
210
0
220
0
230
1
40
0.068763
41
3.03900349759882
42
-1.69621000078097
0
ELLIPSE
5
A7
100
AcDbEntity
8
1
62
256
6
ByLayer
370
13
48
1
60
0
100
AcDbEllipse
10
42.48047
20
1.601628
30
0
11
1.98349269754584
21
-1.36569112561328
31
0
210
0
220
0
230
-1
40
0.533762
41
1.44484622741231
42
1.69170575433604
0
ELLIPSE
5
A8
100
AcDbEntity
8
1
62
256
6
ByLayer
370
13
48
1
60
0
100
AcDbEllipse
10
42.670376
20
1.724825
30
0
11
2.05410580862752
21
-1.02060473405772
31
0
210
0
220
0
230
-1
40
0.486233
41
1.55998624741107
42
1.83339009511072
0
ELLIPSE
5
A9
100
AcDbEntity
8
1
62
256
6
ByLayer
370
18
48
1
60
0
100
AcDbEllipse
10
42.860515
20
0.108878
30
0
11
0.0727819104952198
21
0.301917195703006
31
0
210
0
220
0
230
-1
40
0.478434
41
1.70536323010856
42
2.45976119971924
0
ELLIPSE
5
AA
100
AcDbEntity
8
1
62
256
6
ByLayer
370
18
48
1
60
0
100
AcDbEllipse
10
43.000305
20
0.000743
30
0
11
1.25551344351969
21
3.39758285428914
31
0
210
0
220
0
230
-1
40
0.115174
41
2.86035954867377
42
2.96854470470657
0
ELLIPSE
5
AB
100
AcDbEntity
8
1
62
256
6
ByLayer
370
13
48
1
60
0
100
AcDbEllipse
10
11.178695
20
0.514691
30
0
11
-0.0516445788128769
21
-0.085631988644668
31
0
210
0
220
0
230
1
40
0.361631
41
-1.20106802068743
42
0.0608461494145019
0
ELLIPSE
5
AC
100
AcDbEntity
8
1
62
256
6
ByLayer
370
18
48
1
60
0
100
AcDbEllipse
10
43.046547
20
-0.001501
30
0
11
0.137979128870334
21
-0.428995648150372
31
0
210
0
220
0
230
-1
40
0.08774
41
1.68151028922332
42
2.32337572126565
0
POINT
5
6C
100
AcDbEntity
8
81
62
256
6
ByLayer
370
18
48
1
60
0
100
AcDbPoint
10
43
20
0
30
0
39
0
210
0
220
0
230
1
50
360
0
POINT
5
6E
100
AcDbEntity
8
80
62
256
6
ByLayer
370
18
48
1
60
0
100
AcDbPoint
10
0
20
0
30
0
39
0
210
0
220
0
230
1
50
360
0
POINT
5
70
100
AcDbEntity
8
SK2
62
256
6
ByLayer
370
18
48
1
60
1
100
AcDbPoint
10
-36
20
-4
30
0
39
0
210
0
220
0
230
1
50
360
0
POINT
5
72
100
AcDbEntity
8
SK2
62
256
6
ByLayer
370
18
48
1
60
1
100
AcDbPoint
10
-36
20
4
30
0
39
0
210
0
220
0
230
1
50
360
0
POINT
5
73
100
AcDbEntity
8
2
62
256
6
ByLayer
370
18
48
1
60
1
100
AcDbPoint
10
41.84
20
-3.4
30
0
39
0
210
0
220
0
230
1
50
360
0
POINT
5
75
100
AcDbEntity
8
2
62
256
6
ByLayer
370
18
48
1
60
1
100
AcDbPoint
10
41.84
20
3.4
30
0
39
0
210
0
220
0
230
1
50
360
0
SPLINE
5
AD
100
AcDbEntity
8
1
62
256
6
ByLayer
370
18
48
1
60
0
100
AcDbSpline
70
4
71
2
72
6
73
3
40
0
40
0
40
0
40
1
40
1
40
1
41
1
10
41.239359729916
20
-3.23872286983229
30
0
41
1
10
41.5289070492993
20
-3.23812421116173
30
0
41
1
10
41.817955300072
20
-3.23935925025546
30
0
0
SPLINE
5
AE
100
AcDbEntity
8
1
62
256
6
ByLayer
370
18
48
1
60
0
100
AcDbSpline
70
4
71
2
72
6
73
3
40
0
40
0
40
0
40
1
40
1
40
1
41
1
10
11.2511856401411
20
-3.22161652080206
30
0
41
1
10
11.6073045683755
20
-3.22369293012068
30
0
41
1
10
11.9635046781853
20
-3.22365444242325
30
0
0
SPLINE
5
AF
100
AcDbEntity
8
1
62
256
6
ByLayer
370
18
48
1
60
0
100
AcDbSpline
70
4
71
2
72
6
73
3
40
0
40
0
40
0
40
1
40
1
40
1
41
1
10
11.9656795618364
20
-3.22365418771429
30
0
41
1
10
11.9844344484819
20
-3.2236518212809
30
0
41
1
10
12.003189560187
20
-3.22364359171905
30
0
0
SPLINE
5
B0
100
AcDbEntity
8
1
62
256
6
ByLayer
370
18
48
1
60
0
100
AcDbSpline
70
4
71
3
72
15
73
11
40
0
40
0
40
0
40
0
40
0.1395069693983
40
0.317829863356658
40
0.462002021517798
40
0.621964765178861
40
0.667718032275955
40
0.731109369475575
40
0.842932082412662
40
1
40
1
40
1
40
1
41
1
10
32.4314051467252
20
-0.952533893775751
30
0
41
1
10
32.4309720198139
20
-0.952704483008944
30
0
41
1
10
32.4359359233325
20
-0.954889036057068
30
0
41
1
10
32.4213994676019
20
-0.948893416568978
30
0
41
1
10
32.4599449243228
20
-0.964432012060598
30
0
41
1
10
32.5486588535858
20
-1.00205440715786
30
0
41
1
10
32.6284946680414
20
-1.03848996321975
30
0
41
1
10
32.706143339201
20
-1.07496522969237
30
0
41
1
10
32.8373834164827
20
-1.13978685370986
30
0
41
1
10
32.9474753325864
20
-1.19594454380197
30
0
41
1
10
33.014522514029
20
-1.23088143285216
30
0
0
SPLINE
5
B1
100
AcDbEntity
8
1
62
256
6
ByLayer
370
18
48
1
60
0
100
AcDbSpline
70
4
71
3
72
25
73
21
40
0
40
0
40
0
40
0
40
0.0794657601012013
40
0.142537560012998
40
0.188477459230064
40
0.2239257336593
40
0.265383885407378
40
0.312608728178262
40
0.369309299770117
40
0.407525670743417
40
0.454355944126266
40
0.515783949316046
40
0.577529038309388
40
0.629867899208161
40
0.687178001023422
40
0.751908577925554
40
0.805137502484455
40
0.86177270728619
40
0.941986307372551
40
1
40
1
40
1
40
1
41
1
10
21.7842298625947
20
-3.22703018690214
30
0
41
1
10
22.0360500961767
20
-3.22672433701328
30
0
41
1
10
22.4878999259379
20
-3.22657406351436
30
0
41
1
10
23.086286953671
20
-3.22743650596402
30
0
41
1
10
23.5444523068814
20
-3.22849714655072
30
0
41
1
10
23.9351566549944
20
-3.22842112895529
30
0
41
1
10
24.3296784697582
20
-3.22820174811179
30
0
41
1
10
24.7918524232327
20
-3.22802077559481
30
0
41
1
10
25.2436684261418
20
-3.22885335530492
30
0
41
1
10
25.6942664873789
20
-3.22942662110171
30
0
41
1
10
26.1598513264404
20
-3.22894349762424
30
0
41
1
10
26.7002516773653
20
-3.22910841756485
30
0
41
1
10
27.2581899518772
20
-3.2304761861449
30
0
41
1
10
27.8029375272462
20
-3.22959081771501
30
0
41
1
10
28.3572928872666
20
-3.22856489527163
30
0
41
1
10
28.9143622962659
20
-3.23033354275691
30
0
41
1
10
29.4696062810138
20
-3.23074013703575
30
0
41
1
10
30.0727867399777
20
-3.23241351357106
30
0
41
1
10
30.6913047990865
20
-3.22843832845402
30
0
41
1
10
31.1290884687016
20
-3.23012791221044
30
0
41
1
10
31.312724651688
20
-3.23107592595556
30
0
0
SPLINE
5
B2
100
AcDbEntity
8
1
62
256
6
ByLayer
370
18
48
1
60
0
100
AcDbSpline
70
4
71
3
72
23
73
19
40
0
40
0
40
0
40
0
40
0.0597877080924815
40
0.149640271703229
40
0.218719492771449
40
0.271303855456588
40
0.339779704274713
40
0.425992929247477
40
0.501299140943253
40
0.587483176503057
40
0.663180544855677
40
0.720395229781317
40
0.768247311811111
40
0.838964654652495
40
0.906243432544665
40
0.951673918891342
40
0.992346092027814
40
1
40
1
40
1
40
1
41
1
10
31.3161790987196
20
3.23097640304661
30
0
41
1
10
31.1602631158721
20
3.23013118974919
30
0
41
1
10
30.7697562874975
20
3.22861433864668
30
0
41
1
10
30.1956665189395
20
3.23154915909774
30
0
41
1
10
29.6434345695625
20
3.23156976766327
30
0
41
1
10
29.1444470896537
20
3.23018876943937
30
0
41
1
10
28.6011400326685
20
3.22951344560829
30
0
41
1
10
27.9980324567976
20
3.22885658260924
30
0
41
1
10
27.3486471268581
20
3.2306678440456
30
0
41
1
10
26.7267410597564
20
3.22912422308741
30
0
41
1
10
26.1522877902522
20
3.22894536612478
30
0
41
1
10
25.6783645011079
20
3.22943906720224
30
0
41
1
10
25.2174553742479
20
3.22878655679173
30
0
41
1
10
24.7301980901961
20
3.22795861432544
30
0
41
1
10
24.2492273153544
20
3.22827155046392
30
0
41
1
10
23.8471522067226
20
3.2284408906975
30
0
41
1
10
23.6011473288724
20
3.22844959844045
30
0
41
1
10
23.4746112841305
20
3.22827486387976
30
0
41
1
10
23.4545756364771
20
3.22824361659474
30
0
0
SPLINE
5
B3
100
AcDbEntity
8
1
62
256
6
ByLayer
370
18
48
1
60
0
100
AcDbSpline
70
4
71
1
72
4
73
2
40
0
40
0
40
1
40
1
41
1
10
11.9149607351033
20
0.0053607599865018
30
0
41
1
10
11.9149463732992
20
0.0053671647470424
30
0
0
SPLINE
5
B4
100
AcDbEntity
8
1
62
256
6
ByLayer
370
18
48
1
60
0
100
AcDbSpline
70
4
71
2
72
6
73
3
40
0
40
0
40
0
40
1
40
1
40
1
41
1
10
12.0038253108645
20
3.22364428865112
30
0
41
1
10
11.6274601982555
20
3.22380994235124
30
0
41
1
10
11.251185640148
20
3.22161652080206
30
0
0
SPLINE
5
B5
100
AcDbEntity
8
1
62
256
6
ByLayer
370
18
48
1
60
0
100
AcDbSpline
70
4
71
3
72
12
73
8
40
0
40
0
40
0
40
0
40
0.33771946878564
40
0.33771946878564
40
0.842123852861507
40
0.842123852861507
40
1
40
1
40
1
40
1
41
1
10
41.2356316054234
20
-3.2387098698143
30
0
41
1
10
40.8068219958295
20
-3.23847983731264
30
0
41
1
10
40.378204129014
20
-3.21472409302123
30
0
41
1
10
39.3060476137008
20
-3.09776601264144
30
0
41
1
10
38.6714727283149
20
-2.97727627718018
30
0
41
1
10
37.8399089067894
20
-2.76103607555606
30
0
41
1
10
37.6417804070722
20
-2.70519118148866
30
0
41
1
10
37.4435656525191
20
-2.64525057586775
30
0
0
SPLINE
5
B6
100
AcDbEntity
8
1
62
256
6
ByLayer
370
13
48
1
60
0
100
AcDbSpline
70
4
71
3
72
26
73
22
40
0
40
0
40
0
40
0
40
0.132383410179885
40
0.132383410179885
40
0.180557530897465
40
0.180557530897465
40
0.228731651615045
40
0.228731651615045
40
0.325079893050203
40
0.325079893050203
40
0.51777637592052
40
0.51777637592052
40
0.614124617355679
40
0.614124617355679
40
0.710472858790838
40
0.710472858790838
40
0.806821100225996
40
0.806821100225996
40
0.903169341661155
40
0.903169341661155
40
1
40
1
40
1
40
1
41
1
10
37.44356565253
20
-2.64525057587105
30
0
41
1
10
37.0084967033834
20
-2.51368470754093
30
0
41
1
10
36.5730122000396
20
-2.36238672671348
30
0
41
1
10
35.975775984174
20
-2.13202210845523
30
0
41
1
10
35.8161062431478
20
-2.06823375099665
30
0
41
1
10
35.4958712067483
20
-1.93633724126443
30
0
41
1
10
35.3350043149784
20
-1.86810295682841
30
0
41
1
10
34.8542421801876
20
-1.65869977403949
30
0
41
1
10
34.5355351418131
20
-1.51257336121031
30
0
41
1
10
33.5823326891435
20
-1.05923238971957
30
0
41
1
10
32.9504340433976
20
-0.737613139182628
30
0
41
1
10
31.9990030939619
20
-0.24308850779704
30
0
41
1
10
31.6811439110417
20
-0.0764376158530808
30
0
41
1
10
31.0425841404535
20
0.257725224152153
30
0
41
1
10
30.7209717948826
20
0.425734226271118
30
0
41
1
10
30.0794930023581
20
0.755738769589698
30
0
41
1
10
29.7592998347813
20
0.917969208147923
30
0
41
1
10
29.1184814475006
20
1.23409934739226
30
0
41
1
10
28.7972909590233
20
1.38814224167223
30
0
41
1
10
28.1537155879719
20
1.68432817416181
30
0
41
1
10
27.8318452085493
20
1.82602402570612
30
0
41
1
10
27.5098984494375
20
1.95973844658215
30
0
0
SPLINE
5
B7
100
AcDbEntity
8
1
62
256
6
ByLayer
370
18
48
1
60
0
100
AcDbSpline
70
4
71
3
72
20
73
16
40
0
40
0
40
0
40
0
40
0.124999999999998
40
0.124999999999998
40
0.187499999999997
40
0.187499999999997
40
0.249999999999997
40
0.249999999999997
40
0.499999999999993
40
0.499999999999993
40
0.624999999999995
40
0.624999999999995
40
0.749999999999996
40
0.749999999999996
40
1
40
1
40
1
40
1
41
1
10
39.1129895204825
20
0.953381612701008
30
0
41
1
10
39.1584633873491
20
0.814357551342795
30
0
41
1
10
39.2138767725882
20
0.677195957657602
30
0
41
1
10
39.3098059433996
20
0.47385373589492
30
0
41
1
10
39.3439259402772
20
0.406474664468533
30
0
41
1
10
39.416195362479
20
0.272471556210348
30
0
41
1
10
39.4544887785298
20
0.205626570772608
30
0
41
1
10
39.6522533213018
20
-0.121594722396338
30
0
41
1
10
39.831813563037
20
-0.364963484554181
30
0
41
1
10
40.1238483862181
20
-0.710447866154396
30
0
41
1
10
40.2254303806535
20
-0.82258120504622
30
0
41
1
10
40.4317968930883
20
-1.03704403619992
30
0
41
1
10
40.5369758475035
20
-1.13987933422771
30
0
41
1
10
40.8576945493397
20
-1.4369706909882
30
0
41
1
10
41.0783381952836
20
-1.61998389852783
30
0
41
1
10
41.3047664961528
20
-1.79025468686777
30
0
0
SPLINE
5
B8
100
AcDbEntity
8
1
62
256
6
ByLayer
370
18
48
1
60
0
100
AcDbSpline
70
4
71
3
72
48
73
44
40
0
40
0
40
0
40
0
40
0.0474697109463931
40
0.0474697109463931
40
0.0712045664195888
40
0.0712045664195888
40
0.0949394218927846
40
0.0949394218927846
40
0.189878843785566
40
0.189878843785566
40
0.284818265678348
40
0.284818265678348
40
0.308553121151542
40
0.308553121151542
40
0.332287976624738
40
0.332287976624738
40
0.379757687571127
40
0.379757687571127
40
0.474697109463909
40
0.474697109463909
40
0.498431964937104
40
0.498431964937104
40
0.5221668204103
40
0.5221668204103
40
0.569636531356689
40
0.569636531356689
40
0.664575953249467
40
0.664575953249467
40
0.712045664195856
40
0.712045664195856
40
0.735780519669051
40
0.735780519669051
40
0.759515375142246
40
0.759515375142246
40
0.854454797035023
40
0.854454797035023
40
0.901924507981413
40
0.901924507981413
40
0.925659363454608
40
0.925659363454608
40
0.949394218927803
40
0.949394218927803
40
1
40
1
40
1
40
1
41
1
10
41.8309218215162
20
-3.37099409152094
30
0
41
1
10
41.5092914398705
20
-3.39392188527725
30
0
41
1
10
41.18819089009
20
-3.40299010015264
30
0
41
1
10
40.7060873539359
20
-3.39589510012232
30
0
41
1
10
40.5453106613787
20
-3.39007969005215
30
0
41
1
10
40.2234063848099
20
-3.37154865551563
30
0
41
1
10
40.0620474238794
20
-3.35880462512643
30
0
41
1
10
39.2579208779384
20
-3.27827330771788
30
0
41
1
10
38.6216035602821
20
-3.16015062113635
30
0
41
1
10
37.3486584387023
20
-2.82840390134464
30
0
41
1
10
36.7119869005741
20
-2.6148521294329
30
0
41
1
10
35.9072072878737
20
-2.29613293411617
30
0
41
1
10
35.7459471355972
20
-2.22984627409949
30
0
41
1
10
35.4248717326615
20
-2.09354873978586
30
0
41
1
10
35.2647380754706
20
-2.02341722853831
30
0
41
1
10
34.7852620339598
20
-1.80757330592763
30
0
41
1
10
34.4668581215692
20
-1.65638935337844
30
0
41
1
10
33.5128270031791
20
-1.18531248366364
30
0
41
1
10
32.8780431000032
20
-0.848468567577726
30
0
41
1
10
32.0778196438145
20
-0.413197361449193
30
0
41
1
10
31.917437545972
20
-0.325431013251404
30
0
41
1
10
31.5957004979399
20
-0.149008104999922
30
0
41
1
10
31.4342702993806
20
-0.060288643204558
30
0
41
1
10
30.9523288006062
20
0.204610493323997
30
0
41
1
10
30.6327668886543
20
0.380111491423975
30
0
41
1
10
29.6764435590791
20
0.898265098478419
30
0
41
1
10
29.0423317802199
20
1.23309230954788
30
0
41
1
10
28.0857534947533
20
1.70072026121048
30
0
41
1
10
27.7659493704347
20
1.85075996005847
30
0
41
1
10
27.2835286998927
20
2.06480221362781
30
0
41
1
10
27.1220144212213
20
2.13441201758181
30
0
41
1
10
26.8004128911553
20
2.26857828777599
30
0
41
1
10
26.6400788708022
20
2.33325954316126
30
0
41
1
10
25.8400846073837
20
2.64392587751561
30
0
41
1
10
25.2053192248078
20
2.85152967445305
30
0
41
1
10
24.2508211530014
20
3.09156030646102
30
0
41
1
10
23.9321943178267
20
3.1596145565187
30
0
41
1
10
23.4522453434666
20
3.24258707960507
30
0
41
1
10
23.2919416585802
20
3.26707143686735
30
0
41
1
10
22.9705869099555
20
3.30952788283639
30
0
41
1
10
22.809172706172
20
3.32750506723278
30
0
41
1
10
22.3051960149614
20
3.37288264106257
30
0
41
1
10
21.9641006119796
20
3.38807253791379
30
0
41
1
10
21.6240209832353
20
3.38785287482571
30
0
0
SPLINE
5
B9
100
AcDbEntity
8
1
62
256
6
ByLayer
370
18
48
1
60
0
100
AcDbSpline
70
4
71
3
72
64
73
60
40
0
40
0
40
0
40
0
40
0.021011912196672
40
0.021011912196672
40
0.0572707302634607
40
0.0572707302634607
40
0.0935295483302494
40
0.0935295483302494
40
0.129788366397038
40
0.129788366397038
40
0.166047184463827
40
0.166047184463827
40
0.184176593497221
40
0.184176593497221
40
0.202306002530615
40
0.202306002530615
40
0.238564820597405
40
0.238564820597405
40
0.274823638664196
40
0.274823638664196
40
0.311082456730986
40
0.311082456730986
40
0.347341274797776
40
0.347341274797776
40
0.383600092864566
40
0.383600092864566
40
0.419858910931357
40
0.419858910931357
40
0.456117728998147
40
0.456117728998147
40
0.492376547064937
40
0.492376547064937
40
0.528635365131727
40
0.528635365131727
40
0.564894183198517
40
0.564894183198517
40
0.601153001265308
40
0.601153001265308
40
0.637411819332098
40
0.637411819332098
40
0.673670637398888
40
0.673670637398888
40
0.709929455465678
40
0.709929455465678
40
0.746188273532469
40
0.746188273532469
40
0.782447091599259
40
0.782447091599259
40
0.818705909666049
40
0.818705909666049
40
0.854964727732839
40
0.854964727732839
40
0.891223545799629
40
0.891223545799629
40
0.927482363866419
40
0.927482363866419
40
0.96374118193321
40
0.96374118193321
40
1
40
1
40
1
40
1
41
1
10
35.6794863227647
20
-2.44056539927556
30
0
41
1
10
35.5292986753404
20
-2.49200876042357
30
0
41
1
10
35.3789743210637
20
-2.54118136219151
30
0
41
1
10
34.9689790293983
20
-2.66911446954603
30
0
41
1
10
34.7100624028282
20
-2.7441207617982
30
0
41
1
10
34.1921004124511
20
-2.87803501366562
30
0
41
1
10
33.9334132832918
20
-2.93801822158073
30
0
41
1
10
33.4155919275648
20
-3.0405796675951
30
0
41
1
10
33.1557879313607
20
-3.08321207086209
30
0
41
1
10
32.6367444344585
20
-3.15469145177511
30
0
41
1
10
32.3780160882882
20
-3.18268255296584
30
0
41
1
10
31.9896545001935
20
-3.21124419495177
30
0
41
1
10
31.8601939894298
20
-3.21849968338483
30
0
41
1
10
31.6013000716155
20
-3.22768654930445
30
0
41
1
10
31.4718727511777
20
-3.22982547953257
30
0
41
1
10
31.0832755714026
20
-3.23152682687726
30
0
41
1
10
30.8233229746915
20
-3.22498342871768
30
0
41
1
10
30.304596958085
20
-3.19533997025368
30
0
41
1
10
30.0459762129281
20
-3.17243555457694
30
0
41
1
10
29.5283665037537
20
-3.10777237565762
30
0
41
1
10
29.2693737742076
20
-3.06674546327264
30
0
41
1
10
28.7509612248917
20
-2.96939478079329
30
0
41
1
10
28.4911403152563
20
-2.91194790760011
30
0
41
1
10
27.9725445935072
20
-2.7846937372131
30
0
41
1
10
27.7137853223715
20
-2.71402070889448
30
0
41
1
10
27.1960324309383
20
-2.55763011460868
30
0
41
1
10
26.9368125644868
20
-2.47198816012471
30
0
41
1
10
26.4177453041567
20
-2.28736513285404
30
0
41
1
10
26.158145226066
20
-2.18925329464764
30
0
41
1
10
25.6397196621472
20
-1.98308174625544
30
0
41
1
10
25.3808596129045
20
-1.87415006894221
30
0
41
1
10
24.8630485947271
20
-1.6459022048179
30
0
41
1
10
24.6035950336803
20
-1.52778319563299
30
0
41
1
10
24.0839085817767
20
-1.28364024739952
30
0
41
1
10
23.8248901676156
20
-1.15786097160534
30
0
41
1
10
23.3068308944161
20
-0.901475228245175
30
0
41
1
10
23.0479156030576
20
-0.770028468094523
30
0
41
1
10
22.5300077897206
20
-0.503898143607017
30
0
41
1
10
22.2702179394472
20
-0.369570623160342
30
0
41
1
10
21.7509974731133
20
-0.0995194561692756
30
0
41
1
10
21.4922603900372
20
0.0364990883289806
30
0
41
1
10
20.9747296397459
20
0.306753676014154
30
0
41
1
10
20.7157629816695
20
0.440897828081234
30
0
41
1
10
20.1976838135164
20
0.707421433156071
30
0
41
1
10
19.9379377349326
20
0.839619417280659
30
0
41
1
10
19.4191521294542
20
1.09791951104017
30
0
41
1
10
19.1604300607763
20
1.2248383963049
30
0
41
1
10
18.6430299156836
20
1.47067480054591
30
0
41
1
10
18.3841031116906
20
1.58889864128634
30
0
41
1
10
17.8656190077305
20
1.81839964881692
30
0
41
1
10
17.6060071913333
20
1.92992613092909
30
0
41
1
10
17.0874690158041
20
2.1403895060279
30
0
41
1
10
16.8286047660596
20
2.23960770821012
30
0
41
1
10
16.3105787141618
20
2.42536940228561
30
0
41
1
10
16.0508041550401
20
2.51249552825408
30
0
41
1
10
15.5319742020365
20
2.67365095986503
30
0
41
1
10
15.2732448436346
20
2.74779313402288
30
0
41
1
10
14.755153886155
20
2.8800383775893
30
0
41
1
10
14.4958539670151
20
2.93829553974169
30
0
41
1
10
14.2363499293706
20
2.9889675784971
30
0
0
SPLINE
5
BA
100
AcDbEntity
8
1
62
256
6
ByLayer
370
18
48
1
60
0
100
AcDbSpline
70
4
71
3
72
16
73
12
40
0
40
0
40
0
40
0
40
0.249431102248721
40
0.249431102248721
40
0.368378847072135
40
0.368378847072135
40
0.487326591895549
40
0.487326591895549
40
0.725222081542373
40
0.725222081542373
40
1
40
1
40
1
40
1
41
1
10
21.8062746904299
20
-3.22699230295638
30
0
41
1
10
21.4731397999208
20
-3.22597814619098
30
0
41
1
10
21.1395260654863
20
-3.21086665488374
30
0
41
1
10
20.6448867259793
20
-3.16763280297056
30
0
41
1
10
20.4848166657657
20
-3.15042426156455
30
0
41
1
10
20.1638400715441
20
-3.10955384614178
30
0
41
1
10
20.0030436816928
20
-3.0858962975002
30
0
41
1
10
19.5227246950938
20
-3.00604183508523
30
0
41
1
10
19.2040477095528
20
-2.94083385002881
30
0
41
1
10
18.5189587298257
20
-2.7760777042221
30
0
41
1
10
18.1528102775529
20
-2.67273010235999
30
0
41
1
10
17.7864344899391
20
-2.55587350783665
30
0
0
SPLINE
5
BB
100
AcDbEntity
8
1
62
256
6
ByLayer
370
13
48
1
60
0
100
AcDbSpline
70
4
71
3
72
18
73
14
40
0
40
0
40
0
40
0
40
0.123443255900346
40
0.123443255900346
40
0.269536046583622
40
0.269536046583622
40
0.34258244192526
40
0.34258244192526
40
0.415628837266898
40
0.415628837266898
40
0.707814418633449
40
0.707814418633449
40
1
40
1
40
1
40
1
41
1
10
17.7864354423526
20
-2.55587381161158
30
0
41
1
10
17.5184138849701
20
-2.47038759425692
30
0
41
1
10
17.2502706667556
20
-2.37767186574865
30
0
41
1
10
16.6634366740472
20
-2.16075472797962
30
0
41
1
10
16.3445071672779
20
-2.03374244043712
30
0
41
1
10
15.8638319211543
20
-1.83058936225748
30
0
41
1
10
15.7028861373441
20
-1.76067583100246
30
0
41
1
10
15.3822199566766
20
-1.61802971876656
30
0
41
1
10
15.2223290719462
20
-1.54522818195826
30
0
41
1
10
14.4246176307948
20
-1.17472316810176
30
0
41
1
10
13.7919479421141
20
-0.857640259668983
30
0
41
1
10
12.5257185701937
20
-0.205093913716354
30
0
41
1
10
11.8916803561095
20
0.129426296378142
30
0
41
1
10
11.2503767939611
20
0.460118554786447
30
0
0
SPLINE
5
BC
100
AcDbEntity
8
1
62
256
6
ByLayer
370
18
48
1
60
0
100
AcDbSpline
70
4
71
3
72
20
73
16
40
0
40
0
40
0
40
0
40
0.249999999999992
40
0.249999999999992
40
0.499999999999984
40
0.499999999999984
40
0.62499999999998
40
0.62499999999998
40
0.749999999999976
40
0.749999999999976
40
0.812499999999984
40
0.812499999999984
40
0.874999999999993
40
0.874999999999993
40
1
40
1
40
1
40
1
41
1
10
41.6579185137297
20
1.02522387051084
30
0
41
1
10
41.7543680063265
20
1.04818435434035
30
0
41
1
10
41.8499197831847
20
1.07424632040357
30
0
41
1
10
42.036692393508
20
1.13671307468391
30
0
41
1
10
42.1285174627678
20
1.17298170965609
30
0
41
1
10
42.2589598782887
20
1.24309493651734
30
0
41
1
10
42.3008258289728
20
1.2689667876783
30
0
41
1
10
42.3794526283981
20
1.32877481443305
30
0
41
1
10
42.415424671047
20
1.36209351913524
30
0
41
1
10
42.4611260661506
20
1.41991693749949
30
0
41
1
10
42.4750712064382
20
1.44075558113761
30
0
41
1
10
42.4984921514758
20
1.48427216704619
30
0
41
1
10
42.5080802600828
20
1.50703083521518
30
0
41
1
10
42.5296427239375
20
1.57874151917414
30
0
41
1
10
42.533426391644
20
1.62932482379239
30
0
41
1
10
42.5275124714688
20
1.67936656515334
30
0
0
SPLINE
5
BD
100
AcDbEntity
8
1
62
256
6
ByLayer
370
18
48
1
60
0
100
AcDbSpline
70
4
71
3
72
8
73
4
40
0
40
0
40
0
40
0
40
1
40
1
40
1
40
1
41
1
10
41.8708875468094
20
-3.22181238477185
30
0
41
1
10
41.8523084545516
20
-3.23321673116857
30
0
41
1
10
41.8357122327848
20
-3.23894865139383
30
0
41
1
10
41.8211336988742
20
-3.23890854289982
30
0
0
SPLINE
5
BE
100
AcDbEntity
8
1
62
256
6
ByLayer
370
18
48
1
60
0
100
AcDbSpline
70
4
71
3
72
12
73
8
40
0
40
0
40
0
40
0
40
0.383803791360412
40
0.383803791360412
40
0.767607582720824
40
0.767607582720824
40
1
40
1
40
1
40
1
41
1
10
19.1684392639842
20
-3.23550778446085
30
0
41
1
10
19.4055285190493
20
-3.27427938420391
30
0
41
1
10
19.6427248599281
20
-3.30540556732646
30
0
41
1
10
20.11654962726
20
-3.35319898951406
30
0
41
1
10
20.3528048351478
20
-3.36988901995531
30
0
41
1
10
20.7327617968911
20
-3.38459357496905
30
0
41
1
10
20.8762999104962
20
-3.38740678279896
30
0
41
1
10
21.0199653776815
20
-3.38748080835936
30
0
0
SPLINE
5
BF
100
AcDbEntity
8
1
62
256
6
ByLayer
370
18
48
1
60
0
100
AcDbSpline
70
4
71
3
72
24
73
20
40
0
40
0
40
0
40
0
40
0.0874347128561057
40
0.0874347128561057
40
0.201505373749092
40
0.201505373749092
40
0.315576034642079
40
0.315576034642079
40
0.429646695535066
40
0.429646695535066
40
0.543717356428053
40
0.543717356428053
40
0.65778801732104
40
0.65778801732104
40
0.771858678214026
40
0.771858678214026
40
0.885929339107013
40
0.885929339107013
40
1
40
1
40
1
40
1
41
1
10
35.6769297693493
20
2.4408176813937
30
0
41
1
10
35.8584610078804
20
2.51009192108381
30
0
41
1
10
36.0401656352183
20
2.57624360182206
30
0
41
1
10
36.4590235247448
20
2.7217802982413
30
0
41
1
10
36.6957607388936
20
2.79819505905951
30
0
41
1
10
37.169334912383
20
2.93753867889524
30
0
41
1
10
37.4058222661067
20
3.0009927028122
30
0
41
1
10
37.8783829313436
20
3.11504931057263
30
0
41
1
10
38.1153796477242
20
3.16494265582688
30
0
41
1
10
38.5901215272435
20
3.25105502887624
30
0
41
1
10
38.8266886922547
20
3.28721386223506
30
0
41
1
10
39.2996353862334
20
3.34451980467017
30
0
41
1
10
39.53634244267
20
3.36571418995499
30
0
41
1
10
40.0092836641358
20
3.39353249409874
30
0
41
1
10
40.2454159757659
20
3.40004462117159
30
0
41
1
10
40.7198552709457
20
3.39797298855945
30
0
41
1
10
40.9572284508403
20
3.38947087268619
30
0
41
1
10
41.4299958606449
20
3.35747291826598
30
0
41
1
10
41.6661931451457
20
3.33404798789783
30
0
41
1
10
41.9027210691263
20
3.30349549143764
30
0
0
SPLINE
5
C0
100
AcDbEntity
8
1
62
256
6
ByLayer
370
18
48
1
60
0
100
AcDbSpline
70
4
71
3
72
22
73
18
40
0
40
0
40
0
40
0
40
0.124999999999996
40
0.124999999999996
40
0.187499999999997
40
0.187499999999997
40
0.249999999999997
40
0.249999999999997
40
0.499999999999998
40
0.499999999999998
40
0.624999999999999
40
0.624999999999999
40
0.749999999999999
40
0.749999999999999
40
0.875
40
0.875
40
1
40
1
40
1
40
1
41
1
10
41.8211336988691
20
-3.23890854289977
30
0
41
1
10
41.7723179311814
20
-3.2388312589494
30
0
41
1
10
41.7259432129396
20
-3.23138078815777
30
0
41
1
10
41.6602314704964
20
-3.2085751500926
30
0
41
1
10
41.6389710120749
20
-3.19902971350999
30
0
41
1
10
41.5977924826612
20
-3.17588416076916
30
0
41
1
10
41.5778482087268
20
-3.16224266193368
30
0
41
1
10
41.4830206664585
20
-3.08463953696648
30
0
41
1
10
41.4214131861815
20
-2.99241271745919
30
0
41
1
10
41.3517602753888
20
-2.80594514730893
30
0
41
1
10
41.3323129036064
20
-2.73501884217569
30
0
41
1
10
41.3026843244487
20
-2.5805423274241
30
0
41
1
10
41.2923116571329
20
-2.49675164092662
30
0
41
1
10
41.2804083521803
20
-2.31612621120348
30
0
41
1
10
41.2788764145516
20
-2.21929338576916
30
0
41
1
10
41.2850369267125
20
-2.01201961129863
30
0
41
1
10
41.292720722308
20
-1.90306576717214
30
0
41
1
10
41.3047664961528
20
-1.79025468686774
30
0
0
SPLINE
5
C1
100
AcDbEntity
8
1
62
256
6
ByLayer
370
18
48
1
60
0
100
AcDbSpline
70
4
71
3
72
10
73
6
40
0
40
0
40
0
40
0
40
0.414320344027435
40
0.414320344027435
40
1
40
1
40
1
40
1
41
1
10
11.0169126178933
20
-3.38145851229976
30
0
41
1
10
11.0169178488764
20
-3.38142519219642
30
0
41
1
10
11.0169229363308
20
-3.37868729458378
30
0
41
1
10
11.0169345937767
20
-3.36559966090229
30
0
41
1
10
11.0169409411445
20
-3.35262748799116
30
0
41
1
10
11.0169466535323
20
-3.33445755505457
30
0
0
SPLINE
5
C2
100
AcDbEntity
8
1
62
256
6
ByLayer
370
18
48
1
60
0
100
AcDbSpline
70
4
71
3
72
27
73
23
40
0
40
0
40
0
40
0
40
0.13998945273812
40
0.13998945273812
40
0.27997890547624
40
0.27997890547624
40
0.3499736318453
40
0.3499736318453
40
0.41996835821436
40
0.48996308458342
40
0.48996308458342
40
0.55995781095248
40
0.55995781095248
40
0.6999472636906
40
0.6999472636906
40
0.76994199005966
40
0.76994199005966
40
0.83993671642872
40
0.83993671642872
40
0.97992616916684
40
0.97992616916684
40
1
40
1
40
1
40
1
41
1
10
11.0165315145895
20
0.595734866396469
30
0
41
1
10
11.0165614382594
20
0.813536067568776
30
0
41
1
10
11.0165873669495
20
1.028122357103
30
0
41
1
10
11.0166326879308
20
1.43717384165532
30
0
41
1
10
11.0166522697189
20
1.63286346932941
30
0
41
1
10
11.0166793343334
20
1.91281802306625
30
0
41
1
10
11.0166878847042
20
2.00298128179386
30
0
41
1
10
11.0167042818802
20
2.17547733645827
30
0
41
1
10
11.0167200286131
20
2.34070493563107
30
0
41
1
10
11.0167351603369
20
2.49153732699122
30
0
41
1
10
11.0167502737408
20
2.63503745808003
30
0
41
1
10
11.0167578610108
20
2.7034273073055
30
0
41
1
10
11.0167805228689
20
2.89350628853325
30
0
41
1
10
11.0167956152289
20
3.00118928556512
30
0
41
1
10
11.0168190076849
20
3.13465579095717
30
0
41
1
10
11.0168269218652
20
3.17443567046121
30
0
41
1
10
11.0168430068862
20
3.24424993935077
30
0
41
1
10
11.0168510634454
20
3.27377558311702
30
0
41
1
10
11.0168750887302
20
3.34640249402631
30
0
41
1
10
11.0168909923705
20
3.37387013541652
30
0
41
1
10
11.0169082227264
20
3.38100536485044
30
0
41
1
10
11.0169103677774
20
3.38145434201627
30
0
41
1
10
11.0169124893923
20
3.38145878683761
30
0
0
SPLINE
5
C3
100
AcDbEntity
8
1
62
256
6
ByLayer
370
13
48
1
60
0
100
AcDbSpline
70
4
71
3
72
10
73
6
40
0
40
0
40
0
40
0
40
0.344106097411901
40
0.344106097411901
40
1
40
1
40
1
40
1
41
1
10
11.2511886530123
20
-3.22184638088123
30
0
41
1
10
11.2511975630577
20
-3.22187427785471
30
0
41
1
10
11.2512062797552
20
-3.22045918953998
30
0
41
1
10
11.2512307243835
20
-3.21216460636236
30
0
41
1
10
11.251245744885
20
-3.20155467289894
30
0
41
1
10
11.2512593640467
20
-3.18587060518919
30
0
0
SPLINE
5
C4
100
AcDbEntity
8
1
62
256
6
ByLayer
370
18
48
1
60
0
100
AcDbSpline
70
4
71
3
72
14
73
10
40
0
40
0
40
0
40
0
40
0.166758923824664
40
0.166758923824664
40
0.47402365875419
40
0.47402365875419
40
0.781288393683719
40
0.781288393683719
40
1
40
1
40
1
40
1
41
1
10
15.4198933512377
20
-2.3082620049729
30
0
41
1
10
15.3558385014742
20
-2.35093264750614
30
0
41
1
10
15.2915255346737
20
-2.39311242364502
30
0
41
1
10
15.107678031924
20
-2.51116094303924
30
0
41
1
10
14.9872898203886
20
-2.58549848847258
30
0
41
1
10
14.7430998454063
20
-2.72835086948899
30
0
41
1
10
14.6201757848833
20
-2.79630754278489
30
0
41
1
10
14.4106642090468
20
-2.90493140097209
30
0
41
1
10
14.3235318535504
20
-2.94796241328172
30
0
41
1
10
14.2363194251699
20
-2.98898192593308
30
0
0
SPLINE
5
C5
100
AcDbEntity
8
1
62
256
6
ByLayer
370
18
48
1
60
0
100
AcDbSpline
70
4
71
3
72
14
73
10
40
0
40
0
40
0
40
0
40
0.25
40
0.25
40
0.5
40
0.5
40
0.75
40
0.75
40
1
40
1
40
1
40
1
41
1
10
42.5275124714688
20
-1.67936656515337
30
0
41
1
10
42.4766853758331
20
-1.81707704917722
30
0
41
1
10
42.4256394850892
20
-1.9546842776675
30
0
41
1
10
42.3223914026204
20
-2.22895432582857
30
0
41
1
10
42.2706529202329
20
-2.36582801575093
30
0
41
1
10
42.1664582702993
20
-2.63793651271482
30
0
41
1
10
42.113885925807
20
-2.77325285284542
30
0
41
1
10
42.0085963426064
20
-3.04144378788109
30
0
41
1
10
41.9557407428866
20
-3.17332955529676
30
0
41
1
10
41.9027210691384
20
-3.30349549143611
30
0
0
SPLINE
5
C6
100
AcDbEntity
8
1
62
256
6
ByLayer
370
18
48
1
60
0
100
AcDbSpline
70
4
71
3
72
8
73
4
40
0
40
0
40
0
40
0
40
1
40
1
40
1
40
1
41
1
10
41.8309218215162
20
3.37099409152097
30
0
41
1
10
41.5605069828279
20
3.39027092606116
30
0
41
1
10
41.2904155485048
20
3.39975431108428
30
0
41
1
10
41.0201532283259
20
3.39946964358279
30
0
0
SPLINE
5
C7
100
AcDbEntity
8
1
62
256
6
ByLayer
370
18
48
1
60
0
100
AcDbSpline
70
4
71
3
72
30
73
26
40
0
40
0
40
0
40
0
40
0.0265173865560667
40
0.0265173865560667
40
0.0654566910938231
40
0.0654566910938231
40
0.221213909244853
40
0.221213909244853
40
0.376971127395884
40
0.376971127395884
40
0.415910431933641
40
0.415910431933641
40
0.454849736471399
40
0.454849736471399
40
0.532728345546914
40
0.532728345546914
40
0.688485563697946
40
0.688485563697946
40
0.727424868235703
40
0.727424868235703
40
0.76636417277346
40
0.76636417277346
40
0.844242781848974
40
0.844242781848974
40
1
40
1
40
1
40
1
41
1
10
23.4588147087923
20
-3.24046004707338
30
0
41
1
10
23.3496414173359
20
-3.25792156077412
30
0
41
1
10
23.2403032136575
20
-3.27389827205479
30
0
41
1
10
22.9699589802086
20
-3.30960418785784
30
0
41
1
10
22.8084926744239
20
-3.32757392497555
30
0
41
1
10
22.0046674289548
20
-3.39991136678645
30
0
41
1
10
21.36826990103
20
-3.40264478683531
30
0
41
1
10
20.0961586812817
20
-3.30138374949766
30
0
41
1
10
19.4599875033857
20
-3.19742528076256
30
0
41
1
10
18.6561914409184
20
-3.00345265939794
30
0
41
1
10
18.4946853055996
20
-2.96135159853668
30
0
41
1
10
18.172818213382
20
-2.871510017829
30
0
41
1
10
18.0123329008651
20
-2.82375857722377
30
0
41
1
10
17.5319105250574
20
-2.67245065921725
30
0
41
1
10
17.2130099417992
20
-2.56083219890971
30
0
41
1
10
16.2576750899045
20
-2.19758796057155
30
0
41
1
10
15.6230455326096
20
-1.9169294314199
30
0
41
1
10
14.8232400983967
20
-1.53130612548321
30
0
41
1
10
14.6629703699772
20
-1.4524181908786
30
0
41
1
10
14.3415987454463
20
-1.29142254342423
30
0
41
1
10
14.1802183954717
20
-1.20916514411797
30
0
41
1
10
13.6966923518426
20
-0.959309570789998
30
0
41
1
10
13.3757021093452
20
-0.78882589366745
30
0
41
1
10
12.4142735022139
20
-0.270279100598714
30
0
41
1
10
11.7746929390734
20
0.0836274539552448
30
0
41
1
10
11.1299339192992
20
0.433696694690923
30
0
0
SPLINE
5
C8
100
AcDbEntity
8
1
62
256
6
ByLayer
370
18
48
1
60
0
100
AcDbSpline
70
4
71
3
72
10
73
6
40
0
40
0
40
0
40
0
40
0.5
40
0.5
40
1
40
1
40
1
40
1
41
1
10
11.1299339192985
20
0.433696694691292
30
0
41
1
10
11.1134728551522
20
0.442634161327163
30
0
41
1
10
11.0983255668361
20
0.453213207337683
30
0
41
1
10
11.0705597309827
20
0.477518095781448
30
0
41
1
10
11.0578560355704
20
0.491421439889109
30
0
41
1
10
11.0470369889609
20
0.506298352759416
30
0
0
SPLINE
5
C9
100
AcDbEntity
8
1
62
256
6
ByLayer
370
13
48
1
60
0
100
AcDbSpline
70
4
71
3
72
29
73
25
40
0
40
0
40
0
40
0
40
0.138081250440891
40
0.138081250440891
40
0.207121875661336
40
0.207121875661336
40
0.276162500881781
40
0.345203126102226
40
0.345203126102226
40
0.414243751322671
40
0.414243751322671
40
0.483284376543117
40
0.483284376543117
40
0.552325001763562
40
0.552325001763562
40
0.690406252204453
40
0.690406252204453
40
0.759446877424898
40
0.759446877424898
40
0.828487502645343
40
0.828487502645343
40
0.966568753086233
40
0.966568753086233
40
1
40
1
40
1
40
1
41
1
10
11.250376793961
20
0.460118554786504
30
0
41
1
10
11.250441603831
20
0.671376525121588
30
0
41
1
10
11.2504955946848
20
0.877181063076364
30
0
41
1
10
11.2505663096661
20
1.17779986151589
30
0
41
1
10
11.2505881671246
20
1.27673803420529
30
0
41
1
10
11.2506286461255
20
1.46820655749389
30
0
41
1
10
11.2506661252274
20
1.65423293593554
30
0
41
1
10
11.250699647918
20
1.82956029869209
30
0
41
1
10
11.2507321013796
20
1.99947482008778
30
0
41
1
10
11.2507478465381
20
2.08200067621269
30
0
41
1
10
11.2507788375053
20
2.24008259424656
30
0
41
1
10
11.2507940243138
20
2.31533615115825
30
0
41
1
10
11.2508245209713
20
2.45830067008399
30
0
41
1
10
11.250839876374
20
2.52616571684601
30
0
41
1
10
11.2508862709614
20
2.71529281366327
30
0
41
1
10
11.250917928668
20
2.82329348956304
30
0
41
1
10
11.2509683131559
20
2.95847456624102
30
0
41
1
10
11.2509856185815
20
2.99912992989243
30
0
41
1
10
11.2510209958114
20
3.07066846129558
30
0
41
1
10
11.251038866516
20
3.10117838141463
30
0
41
1
10
11.251092736706
20
3.17745978254359
30
0
41
1
10
11.2511290880147
20
3.20812676682951
30
0
41
1
10
11.2511725027248
20
3.22065586040213
30
0
41
1
10
11.2511808867172
20
3.22186580691425
30
0
41
1
10
11.2511891043915
20
3.22184655933751
30
0
0
SPLINE
5
CA
100
AcDbEntity
8
1
62
256
6
ByLayer
370
18
48
1
60
0
100
AcDbSpline
70
4
71
3
72
66
73
62
40
0
40
0
40
0
40
0
40
0.0334196777277453
40
0.0334196777277453
40
0.0668393554554907
40
0.0668393554554907
40
0.100259033183236
40
0.100259033183236
40
0.133678710910981
40
0.133678710910981
40
0.167098388638727
40
0.167098388638727
40
0.200518066366472
40
0.200518066366472
40
0.233937744094217
40
0.233937744094217
40
0.267357421821963
40
0.267357421821963
40
0.300777099549708
40
0.300777099549708
40
0.334196777277453
40
0.334196777277453
40
0.3676164550052
40
0.3676164550052
40
0.401036132732946
40
0.401036132732946
40
0.434455810460692
40
0.434455810460692
40
0.467875488188438
40
0.467875488188438
40
0.501295165916184
40
0.501295165916184
40
0.53471484364393
40
0.53471484364393
40
0.568134521371676
40
0.568134521371676
40
0.601554199099422
40
0.601554199099422
40
0.634973876827168
40
0.634973876827168
40
0.668393554554915
40
0.668393554554915
40
0.701813232282661
40
0.701813232282661
40
0.735232910010407
40
0.735232910010407
40
0.768652587738153
40
0.768652587738153
40
0.802072265465899
40
0.802072265465899
40
0.835491943193645
40
0.835491943193645
40
0.868911620921391
40
0.868911620921391
40
0.902331298649137
40
0.902331298649137
40
0.935750976376883
40
0.935750976376883
40
0.969170654104629
40
0.969170654104629
40
1
40
1
40
1
40
1
41
1
10
19.1684392639842
20
3.23550778446085
30
0
41
1
10
19.4055285190493
20
3.27427938420391
30
0
41
1
10
19.6427248599281
20
3.30540556732646
30
0
41
1
10
20.1165496272601
20
3.35319898951408
30
0
41
1
10
20.3528048351479
20
3.36988901995531
30
0
41
1
10
20.8261246005934
20
3.38820676967663
30
0
41
1
10
21.0634419200641
20
3.3899126571533
30
0
41
1
10
21.5383672441806
20
3.37835800529828
30
0
41
1
10
21.7748886381467
20
3.36499323509756
30
0
41
1
10
22.2485383187982
20
3.32376621666742
30
0
41
1
10
22.4854235189172
20
3.29594261506705
30
0
41
1
10
22.9585444241036
20
3.22541201815756
30
0
41
1
10
23.1952579565937
20
3.18286611457589
30
0
41
1
10
23.6704735937236
20
3.08418245075606
30
0
41
1
10
23.9073582389006
20
3.02785962735882
30
0
41
1
10
24.3804277707849
20
2.90194023525942
30
0
41
1
10
24.6171633927044
20
2.83283625996216
30
0
41
1
10
25.0908249867153
20
2.68229956085671
30
0
41
1
10
25.327267974579
20
2.60026611669079
30
0
41
1
10
25.8020435746475
20
2.42555446115145
30
0
41
1
10
26.039370037888
20
2.33333889453877
30
0
41
1
10
26.5126469472324
20
2.13803370828171
30
0
41
1
10
26.74879666124
20
2.0350742646898
30
0
41
1
10
27.2224183710998
20
1.82193993859954
30
0
41
1
10
27.4595476963875
20
1.71131106528222
30
0
41
1
10
27.9338346957653
20
1.48074252985714
30
0
41
1
10
28.1707500373537
20
1.36246279449836
30
0
41
1
10
28.644463912804
20
1.12133573928671
30
0
41
1
10
28.8807942257195
20
0.997559302745685
30
0
41
1
10
29.3537812918424
20
0.745914622250922
30
0
41
1
10
29.5908891520621
20
0.618866792770461
30
0
41
1
10
30.0657822960854
20
0.36133383952739
30
0
41
1
10
30.3022314266069
20
0.230635763831742
30
0
41
1
10
30.7756473982717
20
-0.029023427890138
30
0
41
1
10
31.0124726481586
20
-0.158410497908221
30
0
41
1
10
31.4855017576919
20
-0.417861222982765
30
0
41
1
10
31.7220175059548
20
-0.547352699652663
30
0
41
1
10
32.1969823810882
20
-0.802351537062975
30
0
41
1
10
32.4341083469826
20
-0.928113240501091
30
0
41
1
10
32.90684660434
20
-1.17638199799589
30
0
41
1
10
33.1434370706535
20
-1.29736788564509
30
0
41
1
10
33.6169710902219
20
-1.53329706085299
30
0
41
1
10
33.8534854010264
20
-1.64893036948703
30
0
41
1
10
34.327820871014
20
-1.87247169922915
30
0
41
1
10
34.5650905714707
20
-1.97945217480517
30
0
41
1
10
35.0384634389958
20
-2.18492847506104
30
0
41
1
10
35.274399048371
20
-2.2837597283407
30
0
41
1
10
35.7477564939518
20
-2.46950865395652
30
0
41
1
10
35.984798987806
20
-2.55700586234602
30
0
41
1
10
36.4590235247458
20
-2.72178029824164
30
0
41
1
10
36.6957607388947
20
-2.79819505905985
30
0
41
1
10
37.1693349123841
20
-2.93753867889552
30
0
41
1
10
37.4058222661078
20
-3.00099270281248
30
0
41
1
10
37.8783829313447
20
-3.11504931057289
30
0
41
1
10
38.1153796477253
20
-3.16494265582708
30
0
41
1
10
38.5901215272446
20
-3.25105502887641
30
0
41
1
10
38.826688692256
20
-3.28721386223521
30
0
41
1
10
39.2996353862346
20
-3.34451980467028
30
0
41
1
10
39.5363424426714
20
-3.36571418995507
30
0
41
1
10
39.9909550208929
20
-3.3924544071206
30
0
41
1
10
40.2088090994611
20
-3.39899068299871
30
0
41
1
10
40.4274944551564
20
-3.39911369423143
30
0
0
SPLINE
5
CB
100
AcDbEntity
8
1
62
256
6
ByLayer
370
18
48
1
60
0
100
AcDbSpline
70
4
71
3
72
10
73
6
40
0
40
0
40
0
40
0
40
0.5
40
0.5
40
1
40
1
40
1
40
1
41
1
10
11.0470369889579
20
0.506298352761178
30
0
41
1
10
11.0576489420271
20
0.490574528524348
30
0
41
1
10
11.070253876931
20
0.475605864282585
30
0
41
1
10
11.0983293247925
20
0.449110201776534
30
0
41
1
10
11.1138738866273
20
0.43739194450788
30
0
41
1
10
11.1311575690511
20
0.427432458089157
30
0
0
SPLINE
5
CC
100
AcDbEntity
8
1
62
256
6
ByLayer
370
18
48
1
60
0
100
AcDbSpline
70
4
71
3
72
14
73
10
40
0
40
0
40
0
40
0
40
0.25
40
0.25
40
0.5
40
0.5
40
0.75
40
0.75
40
1
40
1
40
1
40
1
41
1
10
11.2512593640467
20
-3.18587060518416
30
0
41
1
10
11.2290344842288
20
-3.18355247415846
30
0
41
1
10
11.2063766246841
20
-3.18419905914271
30
0
41
1
10
11.159926629703
20
-3.1932701183328
30
0
41
1
10
11.1368078089532
20
-3.20164221074043
30
0
41
1
10
11.0926779683992
20
-3.2277557475133
30
0
41
1
10
11.0727857342136
20
-3.24490102777918
30
0
41
1
10
11.0392033874931
20
-3.2862681807722
30
0
41
1
10
11.0260891291016
20
-3.30988221746375
30
0
41
1
10
11.0169466535333
20
-3.33445755505395
30
0
0
SPLINE
5
CD
100
AcDbEntity
8
1
62
256
6
ByLayer
370
18
48
1
60
0
100
AcDbSpline
70
4
71
3
72
12
73
8
40
0
40
0
40
0
40
0
40
0.265657238217896
40
0.265657238217896
40
0.531314476435793
40
0.531314476435793
40
1
40
1
40
1
40
1
41
1
10
19.1688526445372
20
3.235582046171
30
0
41
1
10
18.9016508487369
20
3.1920069146054
30
0
41
1
10
18.6326742267494
20
3.1405109908797
30
0
41
1
10
18.0907309776969
20
3.02460029899149
30
0
41
1
10
17.817187610073
20
2.96002024633313
30
0
41
1
10
17.0588269531692
20
2.76877682226106
30
0
41
1
10
16.5727489083491
20
2.63251810209658
30
0
41
1
10
16.0821237437293
20
2.4917158928651
30
0
0
SPLINE
5
CE
100
AcDbEntity
8
1
62
256
6
ByLayer
370
18
48
1
60
0
100
AcDbSpline
70
4
71
3
72
52
73
48
40
0
40
0
40
0
40
0
40
0.0624999999999928
40
0.0624999999999928
40
0.124999999999986
40
0.124999999999986
40
0.249999999999972
40
0.249999999999972
40
0.374999999999959
40
0.374999999999959
40
0.499999999999946
40
0.499999999999946
40
0.562499999999939
40
0.562499999999939
40
0.624999999999933
40
0.624999999999933
40
0.65624999999993
40
0.65624999999993
40
0.664062499999928
40
0.664062499999928
40
0.667968749999928
40
0.667968749999928
40
0.671874999999928
40
0.671874999999928
40
0.687499999999931
40
0.687499999999931
40
0.718749999999938
40
0.718749999999938
40
0.749999999999945
40
0.749999999999945
40
0.765624999999948
40
0.765624999999948
40
0.781249999999952
40
0.781249999999952
40
0.796874999999955
40
0.796874999999955
40
0.812499999999958
40
0.812499999999958
40
0.843749999999965
40
0.843749999999965
40
0.874999999999972
40
0.874999999999972
40
0.906249999999979
40
0.906249999999979
40
0.937499999999986
40
0.937499999999986
40
1
40
1
40
1
40
1
41
1
10
19.1688526445372
20
-3.235582046171
30
0
41
1
10
18.9016508487368
20
-3.1920069146054
30
0
41
1
10
18.6326742267492
20
-3.14051099087968
30
0
41
1
10
18.0907309776965
20
-3.02460029899143
30
0
41
1
10
17.8171876100726
20
-2.96002024633302
30
0
41
1
10
16.9941496167628
20
-2.75246648869927
30
0
41
1
10
16.4428059441566
20
-2.59584891015422
30
0
41
1
10
15.3275784638735
20
-2.27425247932476
30
0
41
1
10
14.7636219407017
20
-2.10941336100751
30
0
41
1
10
13.6169632432438
20
-1.80074929941037
30
0
41
1
10
13.0342500517646
20
-1.65709217935944
30
0
41
1
10
12.1434577053021
20
-1.47630541792424
30
0
41
1
10
11.8437663032427
20
-1.42180866499805
30
0
41
1
10
11.242670526748
20
-1.32725637359962
30
0
41
1
10
10.9407125451686
20
-1.28707977436042
30
0
41
1
10
10.4858000848508
20
-1.23869426753012
30
0
41
1
10
10.3339420523213
20
-1.22455363210261
30
0
41
1
10
10.1438376805482
20
-1.20945969484774
30
0
41
1
10
10.1057461299573
20
-1.2046259739285
30
0
41
1
10
10.0493269303528
20
-1.21850668457654
30
0
41
1
10
10.0329778089679
20
-1.22749337685812
30
0
41
1
10
9.9993289347068
20
-1.24365322727488
30
0
41
1
10
9.98256867321788
20
-1.25183008012021
30
0
41
1
10
9.89910319635089
20
-1.29321912280423
30
0
41
1
10
9.83337547527441
20
-1.32794840057161
30
0
41
1
10
9.64026666601683
20
-1.43786440051349
30
0
41
1
10
9.51845934741334
20
-1.51761659452939
30
0
41
1
10
9.29692895112899
20
-1.69663704141684
30
0
41
1
10
9.19612086906017
20
-1.79746208576319
30
0
41
1
10
9.08567984678302
20
-1.96156681648873
30
0
41
1
10
9.05550969886613
20
-2.01902261659154
30
0
41
1
10
9.01411381101605
20
-2.13318950435487
30
0
41
1
10
9.00232210612572
20
-2.19105620552611
30
0
41
1
10
8.99811435469934
20
-2.30501603179289
30
0
41
1
10
9.00556204556548
20
-2.3594640244454
30
0
41
1
10
9.03651766503233
20
-2.46378615443848
30
0
41
1
10
9.06000052991095
20
-2.51310409847037
30
0
41
1
10
9.14638788823407
20
-2.64977030668129
30
0
41
1
10
9.22655636146237
20
-2.72885086408036
30
0
41
1
10
9.40535361873344
20
-2.86513838581271
30
0
41
1
10
9.50463929924661
20
-2.92321806641397
30
0
41
1
10
9.71538517383908
20
-3.02596144136532
30
0
41
1
10
9.82685334388307
20
-3.07036354455678
30
0
41
1
10
10.0538246935506
20
-3.14749279749873
30
0
41
1
10
10.1700249168157
20
-3.18049669423584
30
0
41
1
10
10.5244164682586
20
-3.26654154618095
30
0
41
1
10
10.768280020075
20
-3.30679685646379
30
0
41
1
10
11.0169466535256
20
-3.33445755505375
30
0
0
SPLINE
5
CF
100
AcDbEntity
8
1
62
256
6
ByLayer
370
18
48
1
60
0
100
AcDbSpline
70
4
71
3
72
14
73
10
40
0
40
0
40
0
40
0
40
0.25
40
0.25
40
0.5
40
0.5
40
0.75
40
0.75
40
1
40
1
40
1
40
1
41
1
10
14.2363070698127
20
-2.98899701993758
30
0
41
1
10
13.982646532984
20
-3.03826719887516
30
0
41
1
10
13.7305761465039
20
-3.08008096301847
30
0
41
1
10
13.2285174416597
20
-3.14951483828864
30
0
41
1
10
12.9785273198582
20
-3.17735531099365
30
0
41
1
10
12.4802078900909
20
-3.21489359155194
30
0
41
1
10
12.2318602347557
20
-3.22475576183331
30
0
41
1
10
11.7367771165261
20
-3.22276771695962
30
0
41
1
10
11.4919919411614
20
-3.21097983681363
30
0
41
1
10
11.2512593647848
20
-3.18587060526144
30
0
0
SPLINE
5
D0
100
AcDbEntity
8
1
62
256
6
ByLayer
370
18
48
1
60
0
100
AcDbSpline
70
4
71
3
72
28
73
24
40
0
40
0
40
0
40
0
40
0.249999999999996
40
0.249999999999996
40
0.499999999999992
40
0.499999999999992
40
0.624999999999994
40
0.624999999999994
40
0.687499999999995
40
0.687499999999995
40
0.749999999999996
40
0.749999999999996
40
0.812499999999997
40
0.812499999999997
40
0.843749999999997
40
0.843749999999997
40
0.874999999999998
40
0.874999999999998
40
0.906249999999998
40
0.906249999999998
40
0.937499999999999
40
0.937499999999999
40
1
40
1
40
1
40
1
41
1
10
39.1129895204826
20
0.953381612701264
30
0
41
1
10
39.3506111953414
20
0.798765761309909
30
0
41
1
10
39.5910303800499
20
0.657672097139539
30
0
41
1
10
40.0748365041805
20
0.421213577710205
30
0
41
1
10
40.3148055930013
20
0.327102673054583
30
0
41
1
10
40.6690727216785
20
0.231408733861088
30
0
41
1
10
40.7863107377669
20
0.2070673436817
30
0
41
1
10
40.9606954364677
20
0.183628593971804
30
0
41
1
10
41.0186735112469
20
0.177983111552777
30
0
41
1
10
41.1336778292188
20
0.171460825344326
30
0
41
1
10
41.190863488338
20
0.169191800931259
30
0
41
1
10
41.2996846739109
20
0.182051517270935
30
0
41
1
10
41.3505910392196
20
0.196303367007914
30
0
41
1
10
41.4174070924955
20
0.234192512622855
30
0
41
1
10
41.4383510461385
20
0.249795555177826
30
0
41
1
10
41.4756183751915
20
0.286534708533395
30
0
41
1
10
41.4919036806851
20
0.307533556844874
30
0
41
1
10
41.5189745063759
20
0.355688927514962
30
0
41
1
10
41.5297757604396
20
0.38270462347316
30
0
41
1
10
41.5424089944261
20
0.441896317040857
30
0
41
1
10
41.545482138991
20
0.473925650303443
30
0
41
1
10
41.5464110931696
20
0.573672730562123
30
0
41
1
10
41.5359415797458
20
0.643728818437694
30
0
41
1
10
41.5175990177384
20
0.715367490776515
30
0
0
SPLINE
5
D1
100
AcDbEntity
8
1
62
256
6
ByLayer
370
18
48
1
60
0
100
AcDbSpline
70
4
71
3
72
14
73
10
40
0
40
0
40
0
40
0
40
0.25
40
0.25
40
0.5
40
0.5
40
0.75
40
0.75
40
1
40
1
40
1
40
1
41
1
10
42.5275124714688
20
1.67936656515334
30
0
41
1
10
42.4766853758331
20
1.81707704917716
30
0
41
1
10
42.4256394850892
20
1.95468427766747
30
0
41
1
10
42.3223914026204
20
2.22895432582857
30
0
41
1
10
42.270652920233
20
2.36582801575093
30
0
41
1
10
42.1664582702992
20
2.63793651271479
30
0
41
1
10
42.113885925807
20
2.77325285284539
30
0
41
1
10
42.0085963426064
20
3.04144378788109
30
0
41
1
10
41.9557407428866
20
3.17332955529676
30
0
41
1
10
41.9027210691384
20
3.30349549143611
30
0
0
SPLINE
5
D2
100
AcDbEntity
8
1
62
256
6
ByLayer
370
18
48
1
60
0
100
AcDbSpline
70
4
71
3
72
18
73
14
40
0
40
0
40
0
40
0
40
0.332529735847873
40
0.332529735847873
40
0.665059471695746
40
0.665059471695746
40
0.748191905657715
40
0.748191905657715
40
0.831324339619684
40
0.831324339619684
40
0.997589207543624
40
0.997589207543624
40
1
40
1
40
1
40
1
41
1
10
11.2029001002995
20
0.386867971843714
30
0
41
1
10
11.8468597224303
20
0.0433505224278861
30
0
41
1
10
12.4836260436616
20
-0.302562674240903
30
0
41
1
10
13.7531778634825
20
-0.973482707746939
30
0
41
1
10
14.3869364930637
20
-1.29774658966411
30
0
41
1
10
15.1858155056334
20
-1.67443101644565
30
0
41
1
10
15.3459281470887
20
-1.74833285874942
30
0
41
1
10
15.6670211723245
20
-1.8929084041464
30
0
41
1
10
15.8281412235597
20
-1.96363601883994
30
0
41
1
10
16.3092135163159
20
-2.16877540304955
30
0
41
1
10
16.6283117631837
20
-2.29652347452768
30
0
41
1
10
16.9511638976814
20
-2.41596222882316
30
0
41
1
10
16.9557780649702
20
-2.41766723531788
30
0
41
1
10
16.960392046508
20
-2.41937017004213
30
0
0
SPLINE
5
D3
100
AcDbEntity
8
1
62
256
6
ByLayer
370
13
48
1
60
0
100
AcDbSpline
70
4
71
3
72
18
73
14
40
0
40
0
40
0
40
0
40
0.311598675269116
40
0.311598675269116
40
0.468535775342255
40
0.468535775342255
40
0.547004325378827
40
0.547004325378827
40
0.625472875415398
40
0.625472875415398
40
0.939347075561677
40
0.939347075561677
40
1
40
1
40
1
40
1
41
1
10
16.9603919391719
20
-2.41937013042639
30
0
41
1
10
17.5922019455666
20
-2.65255945072528
30
0
41
1
10
18.2205289594124
20
-2.84690128442497
30
0
41
1
10
19.1702428180245
20
-3.06913223689099
30
0
41
1
10
19.4891908035747
20
-3.13183393639051
30
0
41
1
10
19.970034136413
20
-3.20713380045623
30
0
41
1
10
20.1310475535568
20
-3.22913923362256
30
0
41
1
10
20.4522955965196
20
-3.26642371672926
30
0
41
1
10
20.6124823975911
20
-3.28170837819673
30
0
41
1
10
21.4115938478691
20
-3.34134403494389
30
0
41
1
10
22.0459845961273
20
-3.33576653628566
30
0
41
1
10
22.804235076999
20
-3.26650197990477
30
0
41
1
10
22.9270894081897
20
-3.25335189483562
30
0
41
1
10
23.050057084613
20
-3.2382729952968
30
0
0
SPLINE
5
D4
100
AcDbEntity
8
1
62
256
6
ByLayer
370
18
48
1
60
0
100
AcDbSpline
70
4
71
3
72
16
73
12
40
0
40
0
40
0
40
0
40
0.24999999999998
40
0.24999999999998
40
0.49999999999996
40
0.49999999999996
40
0.74999999999994
40
0.74999999999994
40
0.87499999999997
40
0.87499999999997
40
1
40
1
40
1
40
1
41
1
10
41.5175990177384
20
0.715367490776515
30
0
41
1
10
41.5100134540513
20
0.744993652665471
30
0
41
1
10
41.5060296301569
20
0.775377938043846
30
0
41
1
10
41.5063726888653
20
0.838071315494233
30
0
41
1
10
41.5107369504021
20
0.869931842463188
30
0
41
1
10
41.5315559870348
20
0.931298113495501
30
0
41
1
10
41.5483866080809
20
0.961011359315876
30
0
41
1
10
41.5844120789217
20
0.993320119121762
30
0
41
1
10
41.5982417307662
20
1.00233583876277
30
0
41
1
10
41.62706645397
20
1.01632297776624
30
0
41
1
10
41.6422085923225
20
1.02148401261508
30
0
41
1
10
41.6579185137297
20
1.02522387051087
30
0
0
SPLINE
5
D5
100
AcDbEntity
8
1
62
256
6
ByLayer
370
18
48
1
60
0
100
AcDbSpline
70
4
71
3
72
12
73
8
40
0
40
0
40
0
40
0
40
0.249999999999994
40
0.249999999999994
40
0.499999999999988
40
0.499999999999988
40
1
40
1
40
1
40
1
41
1
10
41.8545529569368
20
-3.30772165535038
30
0
41
1
10
41.8594555535843
20
-3.29457601554387
30
0
41
1
10
41.8640332990514
20
-3.28116551034739
30
0
41
1
10
41.8712375426418
20
-3.25714033516215
30
0
41
1
10
41.8738421785406
20
-3.24654561994865
30
0
41
1
10
41.8777633617214
20
-3.22329515469173
30
0
41
1
10
41.8755150044649
20
-3.2189719268363
30
0
41
1
10
41.8708875468094
20
-3.22181238477185
30
0
0
SPLINE
5
D6
100
AcDbEntity
8
1
62
256
6
ByLayer
370
18
48
1
60
0
100
AcDbSpline
70
4
71
3
72
14
73
10
40
0
40
0
40
0
40
0
40
0.0088787573452455
40
0.0088787573452455
40
0.33925250489683
40
0.33925250489683
40
0.669626252448415
40
0.669626252448415
40
1
40
1
40
1
40
1
41
1
10
11.9615136228156
20
3.22363945913514
30
0
41
1
10
11.968128008554
20
3.22368383378378
30
0
41
1
10
11.9747442867041
20
3.22372044671852
30
0
41
1
10
12.2276203424609
20
3.22482478293313
30
0
41
1
10
12.4770843744916
20
3.21508707095495
30
0
41
1
10
12.9781690460501
20
3.17742382441656
30
0
41
1
10
13.2289445899235
20
3.14946855720666
30
0
41
1
10
13.7315889412479
20
3.07992806570206
30
0
41
1
10
13.9834473288411
20
3.03811165495145
30
0
41
1
10
14.236307069813
20
2.98899701993744
30
0
0
SPLINE
5
D7
100
AcDbEntity
8
1
62
256
6
ByLayer
370
18
48
1
60
0
100
AcDbSpline
70
4
71
3
72
12
73
8
40
0
40
0
40
0
40
0
40
0.421151735887171
40
0.421151735887171
40
0.842303471774341
40
0.842303471774341
40
1
40
1
40
1
40
1
41
1
10
14.2363499293703
20
-2.98896757849724
30
0
41
1
10
14.4964599670713
20
-2.93817720918091
30
0
41
1
10
14.756246517116
20
-2.87978911961113
30
0
41
1
10
15.2750671466192
20
-2.74729817388572
30
0
41
1
10
15.5340404884978
20
-2.67304551250339
30
0
41
1
10
15.8907717401591
20
-2.56218987824312
30
0
41
1
10
15.9880357897
20
-2.53106236049007
30
0
41
1
10
16.0853348569169
20
-2.49904182472221
30
0
0
SPLINE
5
D8
100
AcDbEntity
8
1
62
256
6
ByLayer
370
18
48
1
60
0
100
AcDbSpline
70
4
71
3
72
30
73
26
40
0
40
0
40
0
40
0
40
0.0031898124212192
40
0.0031898124212192
40
0.0530303218001582
40
0.0530303218001582
40
0.102870831179097
40
0.102870831179097
40
0.202551849936975
40
0.202551849936975
40
0.302232868694853
40
0.302232868694853
40
0.401913887452731
40
0.401913887452731
40
0.50159490621061
40
0.50159490621061
40
0.601275924968488
40
0.601275924968488
40
0.700956943726366
40
0.700956943726366
40
0.800637962484244
40
0.800637962484244
40
0.900318981242122
40
0.900318981242122
40
1
40
1
40
1
40
1
41
1
10
31.3207337553232
20
3.23046928792712
30
0
41
1
10
31.3290163131073
20
3.23044668922131
30
0
41
1
10
31.3372989933287
20
3.23041625866566
30
0
41
1
10
31.474999895651
20
3.22978048495449
30
0
41
1
10
31.6044452694863
20
3.22762054706396
30
0
41
1
10
31.8637961793459
20
3.2183250529865
30
0
41
1
10
31.9935667948294
20
3.2110021660765
30
0
41
1
10
32.3821365404921
20
3.18228598458234
30
0
41
1
10
32.6404665597505
20
3.15423371245026
30
0
41
1
10
33.1577416888659
20
3.08288755835483
30
0
41
1
10
33.4163926337003
20
3.04043918271231
30
0
41
1
10
33.9341496807127
20
2.93785420870884
30
0
41
1
10
34.1937519980671
20
2.87763962082931
30
0
41
1
10
34.7116694535696
20
2.74367346503243
30
0
41
1
10
34.9700244891122
20
2.66878879726124
30
0
41
1
10
35.487149931109
20
2.50742617755591
30
0
41
1
10
35.7459768344341
20
2.41997457007471
30
0
41
1
10
36.2643830663877
20
2.2307253801732
30
0
41
1
10
36.5236569283569
20
2.12970764749073
30
0
41
1
10
37.0414523659176
20
1.91891105409454
30
0
41
1
10
37.2998808500969
20
1.80872998077618
30
0
41
1
10
37.8170320954856
20
1.57762611020729
30
0
41
1
10
38.0761741626203
20
1.45753857313315
30
0
41
1
10
38.5952489633378
20
1.20978758606887
30
0
41
1
10
38.8540944843668
20
1.08255747230481
30
0
41
1
10
39.1129895204828
20
0.953381612701264
30
0
0
SPLINE
5
D9
100
AcDbEntity
8
1
62
256
6
ByLayer
370
18
48
1
60
0
100
AcDbSpline
70
4
71
3
72
8
73
4
40
0
40
0
40
0
40
0
40
1
40
1
40
1
40
1
41
1
10
11.0470369889609
20
0.506298352759387
30
0
41
1
10
11.0279798561414
20
0.532503185287368
30
0
41
1
10
11.0165270905451
20
0.563534195504587
30
0
41
1
10
11.0165315145895
20
0.595734866395361
30
0
0
SPLINE
5
DA
100
AcDbEntity
8
1
62
256
6
ByLayer
370
18
48
1
60
0
100
AcDbSpline
70
4
71
3
72
26
73
22
40
0
40
0
40
0
40
0
40
0.183140504208158
40
0.183140504208158
40
0.280763348204841
40
0.280763348204841
40
0.378386192201523
40
0.378386192201523
40
0.476009036198206
40
0.476009036198206
40
0.573631880194888
40
0.573631880194888
40
0.768877568188252
40
0.768877568188252
40
0.866500412184935
40
0.866500412184935
40
0.915311834183277
40
0.915311834183277
40
0.96412325618162
40
0.96412325618162
40
1
40
1
40
1
40
1
41
1
10
26.6446555546924
20
2.28794308931342
30
0
41
1
10
27.2475482076776
20
2.05211794184729
30
0
41
1
10
27.8477294179015
20
1.78489933136933
30
0
41
1
10
28.771920643179
20
1.33963563965821
30
0
41
1
10
29.0933797164801
20
1.1786807943783
30
0
41
1
10
29.7347676163165
20
0.84923159808335
30
0
41
1
10
30.0552700751589
20
0.680612320947773
30
0
41
1
10
30.6974674530065
20
0.338422459866337
30
0
41
1
10
31.0193792393617
20
0.164664418200715
30
0
41
1
10
31.6582502424598
20
-0.180062978502548
30
0
41
1
10
31.9761959922665
20
-0.351577766482137
30
0
41
1
10
32.9279751106129
20
-0.859110845948436
30
0
41
1
10
33.5600204659876
20
-1.18765281964565
30
0
41
1
10
34.5139063068135
20
-1.64830244542898
30
0
41
1
10
34.8329167788767
20
-1.7963671629592
30
0
41
1
10
35.314285130904
20
-2.00791573611798
30
0
41
1
10
35.4752967472802
20
-2.07670336759432
30
0
41
1
10
35.7957223042132
20
-2.2093515409814
30
0
41
1
10
35.9554776531294
20
-2.2733564025325
30
0
41
1
10
36.232079145108
20
-2.3801192091959
30
0
41
1
10
36.3490773817194
20
-2.42401116494798
30
0
41
1
10
36.4659369758489
20
-2.46652663157894
30
0
0
SPLINE
5
DB
100
AcDbEntity
8
1
62
256
6
ByLayer
370
13
48
1
60
0
100
AcDbSpline
70
4
71
3
72
12
73
8
40
0
40
0
40
0
40
0
40
0.289835448450163
40
0.289835448450163
40
0.644917724225081
40
0.644917724225081
40
1
40
1
40
1
40
1
41
1
10
36.4659360359958
20
-2.46652628964469
30
0
41
1
10
36.9850411583976
20
-2.65538541040971
30
0
41
1
10
37.5014105173474
20
-2.81708297643851
30
0
41
1
10
38.6522586651213
20
-3.10861164019499
30
0
41
1
10
39.2872143078157
20
-3.22280470521741
30
0
41
1
10
40.5735085752466
20
-3.34613072283244
30
0
41
1
10
41.2127648268235
20
-3.35424262018193
30
0
41
1
10
41.854552956952
20
-3.30772165534927
30
0
0
SPLINE
5
DC
100
AcDbEntity
8
1
62
256
6
ByLayer
370
13
48
1
60
0
100
AcDbSpline
70
4
71
3
72
8
73
4
40
0
40
0
40
0
40
0
40
1
40
1
40
1
40
1
41
1
10
11.250376793961
20
0.460118554786504
30
0
41
1
10
11.2087921120792
20
0.472983078743852
30
0
41
1
10
11.1681707553541
20
0.486841624399148
30
0
41
1
10
11.1311575690511
20
0.501160987386726
30
0
0
SPLINE
5
DD
100
AcDbEntity
8
1
62
256
6
ByLayer
370
18
48
1
60
0
100
AcDbSpline
70
4
71
3
72
8
73
4
40
0
40
0
40
0
40
0
40
1
40
1
40
1
40
1
41
1
10
41.8309218215163
20
-3.37099409152094
30
0
41
1
10
41.8388067080459
20
-3.34991265799175
30
0
41
1
10
41.8466838698594
20
-3.32882153199887
30
0
41
1
10
41.854552956952
20
-3.30772165534924
30
0
0
SPLINE
5
DE
100
AcDbEntity
8
1
62
256
6
ByLayer
370
18
48
1
60
0
100
AcDbSpline
70
4
71
3
72
14
73
10
40
0
40
0
40
0
40
0
40
0.152438567678455
40
0.152438567678455
40
0.498949201454573
40
0.498949201454573
40
0.845459835230692
40
0.845459835230692
40
1
40
1
40
1
40
1
41
1
10
19.1686437116975
20
3.23559217042774
30
0
41
1
10
19.0566579627256
20
3.18937074793169
30
0
41
1
10
18.9445987738178
20
3.14182046688731
30
0
41
1
10
18.5773711302308
20
2.9816371384193
30
0
41
1
10
18.3216446700628
20
2.86315327512821
30
0
41
1
10
17.8059557914801
20
2.61283778123911
30
0
41
1
10
17.5504757165543
20
2.48319321809535
30
0
41
1
10
17.1821005824879
20
2.29396193963561
30
0
41
1
10
17.0686223762056
20
2.23536071276752
30
0
41
1
10
16.9550747959527
20
2.1769388181101
30
0
0
SPLINE
5
DF
100
AcDbEntity
8
1
62
256
6
ByLayer
370
13
48
1
60
0
100
AcDbSpline
70
4
71
3
72
10
73
6
40
0
40
0
40
0
40
0
40
0.5
40
0.5
40
1
40
1
40
1
40
1
41
1
10
11.0165315145895
20
0.595734866396441
30
0
41
1
10
11.0267340615643
20
0.576213156650482
30
0
41
1
10
11.0412585771501
20
0.558240017255685
30
0
41
1
10
11.0801119937914
20
0.525651746082559
30
0
41
1
10
11.1035297619868
20
0.511849410552912
30
0
41
1
10
11.1311575690511
20
0.501160987386754
30
0
0
SPLINE
5
E0
100
AcDbEntity
8
1
62
256
6
ByLayer
370
18
48
1
60
0
100
AcDbSpline
70
2053
71
3
72
62
73
58
40
0
40
0
40
0
40
0
40
0.03125
40
0.03125
40
0.0625
40
0.0625
40
0.09375
40
0.09375
40
0.125
40
0.125
40
0.15625
40
0.15625
40
0.1875
40
0.1875
40
0.21875
40
0.21875
40
0.25
40
0.25
40
0.28125
40
0.28125
40
0.3125
40
0.3125
40
0.375
40
0.375
40
0.4375
40
0.4375
40
0.46875
40
0.46875
40
0.5
40
0.5
40
0.53125
40
0.53125
40
0.5625
40
0.5625
40
0.59375
40
0.59375
40
0.625
40
0.625
40
0.65625
40
0.65625
40
0.6875
40
0.6875
40
0.71875
40
0.71875
40
0.75
40
0.75
40
0.78125
40
0.78125
40
0.8125
40
0.8125
40
0.875
40
0.875
40
0.9375
40
0.9375
40
0.96875
40
0.96875
40
1
40
1
40
1
40
1
41
1
10
42.1884372519288
20
-1.80256522331598
30
0
41
1
10
42.2082739777293
20
-1.77367105279711
30
0
41
1
10
42.2276661199219
20
-1.7427922424578
30
0
41
1
10
42.2654927785967
20
-1.6767596673061
30
0
41
1
10
42.2841274732388
20
-1.64118241353509
30
0
41
1
10
42.3191640552184
20
-1.56715105284726
30
0
41
1
10
42.3355037785741
20
-1.52892694960821
30
0
41
1
10
42.3654931180268
20
-1.44972049056366
30
0
41
1
10
42.378854289682
20
-1.40935747352708
30
0
41
1
10
42.4010159455078
20
-1.33035290838927
30
0
41
1
10
42.4100923871457
20
-1.29058620091166
30
0
41
1
10
42.4227975659121
20
-1.21596933981448
30
0
41
1
10
42.4265541654001
20
-1.18081754753288
30
0
41
1
10
42.4288699805118
20
-1.11587786676876
30
0
41
1
10
42.4274242168394
20
-1.08708912452082
30
0
41
1
10
42.4199115392039
20
-1.03604507156089
30
0
41
1
10
42.4138548126826
20
-1.0142127334934
30
0
41
1
10
42.3980907002306
20
-0.978080334630107
30
0
41
1
10
42.3882427155144
20
-0.963520740496392
30
0
41
1
10
42.3658154637247
20
-0.94167290444372
30
0
41
1
10
42.3532047503139
20
-0.934227781705374
30
0
41
1
10
42.3115499293594
20
-0.921411018108216
30
0
41
1
10
42.2796712137657
20
-0.925667716266361
30
0
41
1
10
42.2096374884973
20
-0.956829393306123
30
0
41
1
10
42.1725841215616
20
-0.983217386962878
30
0
41
1
10
42.1144344576144
20
-1.03871714667989
30
0
41
1
10
42.0945865522194
20
-1.05999765509759
30
0
41
1
10
42.0552932565095
20
-1.10686959658221
30
0
41
1
10
42.0356790171651
20
-1.13260637782795
30
0
41
1
10
41.9965214124665
20
-1.1891115699471
30
0
41
1
10
41.9767591207449
20
-1.22026446738641
30
0
41
1
10
41.9385775483066
20
-1.28648090901893
30
0
41
1
10
41.9201846243902
20
-1.32141422081713
30
0
41
1
10
41.8849916188869
20
-1.39544654036609
30
0
41
1
10
41.8682887560534
20
-1.43447424874381
30
0
41
1
10
41.8385926697412
20
-1.51284324250776
30
0
41
1
10
41.8252456878021
20
-1.55303583007128
30
0
41
1
10
41.8027466966693
20
-1.63338896216268
30
0
41
1
10
41.7939404057586
20
-1.67219758524109
30
0
41
1
10
41.781198820832
20
-1.74708757482898
30
0
41
1
10
41.777400133448
20
-1.78283616965052
30
0
41
1
10
41.7750397468313
20
-1.84737802504705
30
0
41
1
10
41.7764470617761
20
-1.87695637062942
30
0
41
1
10
41.7837854885162
20
-1.92812430781882
30
0
41
1
10
41.7897384460921
20
-1.95023808266981
30
0
41
1
10
41.805404301305
20
-1.98704712693106
30
0
41
1
10
41.8150076454632
20
-2.00164047708407
30
0
41
1
10
41.8373405225173
20
-2.02409743748686
30
0
41
1
10
41.8500651651038
20
-2.03185340400043
30
0
41
1
10
41.8913467331521
20
-2.04515541615981
30
0
41
1
10
41.9237660412518
20
-2.04099685735741
30
0
41
1
10
41.9933052248457
20
-2.0100053443762
30
0
41
1
10
42.0312866295651
20
-1.98275360409767
30
0
41
1
10
42.0892315510381
20
-1.92692750724609
30
0
41
1
10
42.1087845952121
20
-1.90580737156148
30
0
41
1
10
42.1484008988145
20
-1.858184769563
30
0
41
1
10
42.1686005261283
20
-1.83145939383485
30
0
41
1
10
42.1884372519288
20
-1.80256522331598
30
0
0
SPLINE
5
E1
100
AcDbEntity
8
SK1
62
256
6
ByLayer
370
18
48
1
60
0
100
AcDbSpline
70
4
71
3
72
8
73
4
40
0
40
0
40
0
40
0
40
1
40
1
40
1
40
1
41
1
10
-36
20
-2.48978868411697
30
0
41
1
10
-35.7560023534748
20
-2.89402520169583
30
0
41
1
10
-35.5039048565556
20
-3.29449151497528
30
0
41
1
10
-35.25
20
-3.6941165639424
30
0
0
SPLINE
5
E2
100
AcDbEntity
8
SK1
62
256
6
ByLayer
370
18
48
1
60
0
100
AcDbSpline
70
4
71
3
72
14
73
10
40
0
40
0
40
0
40
0
40
0.500000000000002
40
0.500000000000002
40
0.75
40
0.75
40
0.875
40
0.875
40
1
40
1
40
1
40
1
41
1
10
-35.25
20
-3.69411656394257
30
0
41
1
10
-35.2287404812744
20
-3.72757727173283
30
0
41
1
10
-35.208362723075
20
-3.7581574381754
30
0
41
1
10
-35.1802905070704
20
-3.79679898417288
30
0
41
1
10
-35.1714466180788
20
-3.80833160272758
30
0
41
1
10
-35.1602396792677
20
-3.82088146317037
30
0
41
1
10
-35.1568594217207
20
-3.82424019804253
30
0
41
1
10
-35.1517495297274
20
-3.82767534847417
30
0
41
1
10
-35.15
20
-3.82772537421496
30
0
41
1
10
-35.15
20
-3.82473629317764
30
0
0
SPLINE
5
E3
100
AcDbEntity
8
SK1
62
256
6
ByLayer
370
18
48
1
60
0
100
AcDbSpline
70
4
71
3
72
14
73
10
40
0
40
0
40
0
40
0
40
0.125000000000001
40
0.125000000000001
40
0.250000000000002
40
0.250000000000002
40
0.500000000000002
40
0.500000000000002
40
1
40
1
40
1
40
1
41
1
10
-35.15
20
-2.95872249990708
30
0
41
1
10
-35.15
20
-2.95136046419353
30
0
41
1
10
-35.1517507934569
20
-2.94181767386127
30
0
41
1
10
-35.1569069278761
20
-2.9220278309881
30
0
41
1
10
-35.160234831946
20
-2.91188113661803
30
0
41
1
10
-35.1714888412645
20
-2.88101453359192
30
0
41
1
10
-35.1802429568046
20
-2.86098270977882
30
0
41
1
10
-35.2083191353841
20
-2.80186934292519
30
0
41
1
10
-35.2286409685638
20
-2.76549634835362
30
0
41
1
10
-35.25
20
-2.73187901586402
30
0
0
SPLINE
5
E4
100
AcDbEntity
8
SK1
62
256
6
ByLayer
370
18
48
1
60
0
100
AcDbSpline
70
4
71
3
72
8
73
4
40
0
40
0
40
0
40
0
40
1
40
1
40
1
40
1
41
1
10
-35.25
20
-2.73187901586402
30
0
41
1
10
-35.5038946288025
20
-2.33227006452646
30
0
41
1
10
-35.7559872437786
20
-1.93181268619904
30
0
41
1
10
-36
20
-1.5275511360386
30
0
0
LINE
5
76
100
AcDbEntity
8
81
62
256
6
ByLayer
370
18
48
1
60
0
100
AcDbLine
10
43
20
0
30
0
11
48
21
0
31
0
39
0
210
0
220
0
230
1
0
LINE
5
77
100
AcDbEntity
8
1
62
256
6
ByLayer
370
18
48
1
60
0
100
AcDbLine
10
11.016909
20
3.381469
30
0
11
1.268615
21
3.37562
31
0
39
0
210
0
220
0
230
1
0
LINE
5
79
100
AcDbEntity
8
1
62
256
6
ByLayer
370
18
48
1
60
0
100
AcDbLine
10
21.62452
20
3.387833
30
0
11
21.020093
21
3.38747
31
0
39
0
210
0
220
0
230
1
0
LINE
5
7A
100
AcDbEntity
8
1
62
256
6
ByLayer
370
18
48
1
60
0
100
AcDbLine
10
41.024518
20
3.399473
30
0
11
40.427417
21
3.399115
31
0
39
0
210
0
220
0
230
1
0
LINE
5
7B
100
AcDbEntity
8
1
62
256
6
ByLayer
370
18
48
1
60
0
100
AcDbLine
10
40.427417
20
-3.399115
30
0
11
41.024608
21
-3.399473
31
0
39
0
210
0
220
0
230
1
0
LINE
5
7C
100
AcDbEntity
8
1
62
256
6
ByLayer
370
18
48
1
60
0
100
AcDbLine
10
21.020093
20
-3.38747
30
0
11
21.624612
21
-3.387833
31
0
39
0
210
0
220
0
230
1
0
LINE
5
7D
100
AcDbEntity
8
1
62
256
6
ByLayer
370
18
48
1
60
0
100
AcDbLine
10
1.268615
20
-3.37562
30
0
11
11.016909
21
-3.381469
31
0
39
0
210
0
220
0
230
1
0
LINE
5
7E
100
AcDbEntity
8
SK1
62
256
6
ByLayer
370
18
48
1
60
0
100
AcDbLine
10
-35.133975
20
4
30
0
11
-36
21
2.5
31
0
39
0
210
0
220
0
230
1
0
LINE
5
80
100
AcDbEntity
8
SK1
62
256
6
ByLayer
370
18
48
1
60
0
100
AcDbLine
10
-36
20
-2.5
30
0
11
-35.133975
21
-4
31
0
39
0
210
0
220
0
230
1
0
LINE
5
81
100
AcDbEntity
8
SK1
62
256
6
ByLayer
370
18
48
1
60
0
100
AcDbLine
10
0
20
4
30
0
11
-35.133975
21
4
31
0
39
0
210
0
220
0
230
1
0
LINE
5
82
100
AcDbEntity
8
SK1
62
256
6
ByLayer
370
18
48
1
60
0
100
AcDbLine
10
-35.133975
20
-4
30
0
11
0
21
-4
31
0
39
0
210
0
220
0
230
1
0
LINE
5
83
100
AcDbEntity
8
SK4
62
256
6
ByLayer
370
18
48
0.05
60
0
100
AcDbLine
10
48
20
0
30
0
11
-41
21
0
31
0
39
0
210
0
220
0
230
1
0
LINE
5
85
100
AcDbEntity
8
4
62
256
6
ByLayer
370
18
48
0.05
60
0
100
AcDbLine
10
43
20
0
30
0
11
0
21
0
31
0
39
0
210
0
220
0
230
1
0
LINE
5
87
100
AcDbEntity
8
80
62
256
6
ByLayer
370
18
48
1
60
0
100
AcDbLine
10
0
20
0
30
0
11
-5
21
0
31
0
39
0
210
0
220
0
230
1
0
LINE
5
88
100
AcDbEntity
8
1
62
256
6
ByLayer
370
13
48
1
60
0
100
AcDbLine
10
42.006452
20
0.379747
30
0
11
42.895039
21
-0.147481
31
0
39
0
210
0
220
0
230
1
0
LINE
5
89
100
AcDbEntity
8
1
62
256
6
ByLayer
370
18
48
1
60
0
100
AcDbLine
10
42.92476
20
-0.282891
30
0
11
42.823929
21
-0.715077
31
0
39
0
210
0
220
0
230
1
0
LINE
5
8A
100
AcDbEntity
8
1
62
256
6
ByLayer
370
13
48
1
60
0
100
AcDbLine
10
42.823929
20
0.715077
30
0
11
42.196358
21
0.715077
31
0
39
0
210
0
220
0
230
1
0
LINE
5
8B
100
AcDbEntity
8
1
62
256
6
ByLayer
370
13
48
1
60
0
100
AcDbLine
10
1.268615
20
3.37562
30
0
11
1.268615
21
-3.37562
31
0
39
0
210
0
220
0
230
1
0
LINE
5
8C
100
AcDbEntity
8
1
62
256
6
ByLayer
370
13
48
1
60
0
100
AcDbLine
10
42.196358
20
0.715077
30
0
11
42.92476
21
0.282891
31
0
39
0
210
0
220
0
230
1
0
LINE
5
8D
100
AcDbEntity
8
1
62
256
6
ByLayer
370
13
48
1
60
0
100
AcDbLine
10
0.634068
20
3.68781
30
0
11
0.634068
21
-3.68781
31
0
39
0
210
0
220
0
230
1
0
LINE
5
8E
100
AcDbEntity
8
1
62
256
6
ByLayer
370
18
48
1
60
0
100
AcDbLine
10
0
20
-4
30
0
11
0
21
4
31
0
39
0
210
0
220
0
230
1
0
LINE
5
8F
100
AcDbEntity
8
1
62
256
6
ByLayer
370
18
48
1
60
0
100
AcDbLine
10
41.304766
20
-1.790255
30
0
11
42.895039
21
-0.147481
31
0
39
0
210
0
220
0
230
1
0
LINE
5
90
100
AcDbEntity
8
1
62
256
6
ByLayer
370
18
48
1
60
0
100
AcDbLine
10
42.92476
20
0.282891
30
0
11
42.823929
21
0.715077
31
0
39
0
210
0
220
0
230
1
0
LINE
5
91
100
AcDbEntity
8
1
62
256
6
ByLayer
370
18
48
1
60
0
100
AcDbLine
10
42.993892
20
0.033866
30
0
11
43
21
0
31
0
39
0
210
0
220
0
230
1
0
LINE
5
92
100
AcDbEntity
8
1
62
256
6
ByLayer
370
18
48
1
60
0
100
AcDbLine
10
43
20
0
30
0
11
41.821134
21
-3.238909
31
0
39
0
210
0
220
0
230
1
0
LINE
5
93
100
AcDbEntity
8
1
62
256
6
ByLayer
370
18
48
1
60
0
100
AcDbLine
10
43
20
0
30
0
11
42.993892
21
-0.033866
31
0
39
0
210
0
220
0
230
1
0
LINE
5
94
100
AcDbEntity
8
SK1
62
256
6
ByLayer
370
18
48
1
60
0
100
AcDbLine
10
-36
20
2.5
30
0
11
-36
21
-1.527551
31
0
39
0
210
0
220
0
230
1
0
LINE
5
95
100
AcDbEntity
8
SK1
62
256
6
ByLayer
370
18
48
1
60
0
100
AcDbLine
10
-36
20
-2.5
30
0
11
-36
21
-2.489789
31
0
39
0
210
0
220
0
230
1
0
LINE
5
96
100
AcDbEntity
8
SK1
62
256
6
ByLayer
370
18
48
1
60
0
100
AcDbLine
10
-35.15
20
-3.824736
30
0
11
-35.15
21
-2.958722
31
0
39
0
210
0
220
0
230
1
0
LINE
5
97
100
AcDbEntity
8
SK1
62
256
6
ByLayer
370
18
48
1
60
0
100
AcDbLine
10
-35.133975
20
4
30
0
11
-35.133975
21
-4
31
0
39
0
210
0
220
0
230
1
0
LINE
5
98
100
AcDbEntity
8
SK1
62
256
6
ByLayer
370
18
48
1
60
0
100
AcDbLine
10
0
20
-4
30
0
11
0
21
4
31
0
39
0
210
0
220
0
230
1
0
LINE
5
99
100
AcDbEntity
8
SK1
62
256
6
ByLayer
370
13
48
1
60
0
100
AcDbLine
10
-35.25
20
-2.731824
30
0
11
-35.25
21
-3.694117
31
0
39
0
210
0
220
0
230
1
0
LINE
5
9A
100
AcDbEntity
8
SK1
62
256
6
ByLayer
370
18
48
1
60
0
100
AcDbLine
10
-36
20
-1.52751
30
0
11
-36
21
-2.489789
31
0
39
0
210
0
220
0
230
1
0
MTEXT
5
E5
100
AcDbEntity
8
SK6
62
256
6
ByLayer
370
13
48
1
60
0
100
AcDbMText
10
5.629169
20
35.782694
30
0
210
0
220
0
230
1
1
\W0.7542;R840-0680-30-A1A1220
40
3.5
41
0
44
1.084337
50
0
71
8
72
5
7
iso_b_vert
0
DIMENSION
5
F2
100
AcDbEntity
8
SK2
62
256
6
ByLayer
370
13
48
1
60
0
100
AcDbDimension
2
DimnDraft3D1
10
41.84
20
-13.613398
30
0
11
19.590059
21
-13.613398
31
0
70
32
71
5
72
1
41
1
210
0
220
0
230
1
3
Standard
100
AcDbAlignedDimension
13
0
23
-1.5875
33
0
14
41.84
24
-4.9875
34
0
50
0
100
AcDbRotatedDimension
1001
ACAD
1000
DSTYLE
1002
{
1070
   279
1070
     0
1070
   172
1070
     1
1070
   173
1070
     1
1070
   340
1005
E6
1070
   271
1070
     2
1070
   272
1070
     2
1070
    77
1070
     1
1070
    73
1070
     0
1070
   171
1070
     3
1070
   274
1070
     4
1070
   177
1070
    35
1070
   176
1070
    35
1070
   178
1070
    35
1070
    48
1040
-0.005
1070
    41
1041
3.5
1070
   147
1041
1.75
1070
    42
1041
1.5875
1070
    44
1041
2.0
1070
   140
1041
3.5
1070
   343
1005
0
1070
   344
1005
0
1002
}
0
DIMENSION
5
FC
100
AcDbEntity
8
SK2
62
256
6
ByLayer
370
13
48
1
60
0
100
AcDbDimension
2
DimnDraft3D2
10
43
20
-32.692985
30
0
11
3.6813
21
-32.692985
31
0
70
32
71
5
72
1
41
1
210
0
220
0
230
1
3
Standard
100
AcDbAlignedDimension
13
-36
23
-5.5875
33
0
14
43
24
-1.5875
34
0
50
0
100
AcDbRotatedDimension
1001
ACAD
1000
DSTYLE
1002
{
1070
   279
1070
     0
1070
   172
1070
     1
1070
   173
1070
     1
1070
   340
1005
E6
1070
   271
1070
     2
1070
   272
1070
     2
1070
    77
1070
     1
1070
    73
1070
     0
1070
   171
1070
     3
1070
   274
1070
     4
1070
   177
1070
    35
1070
   176
1070
    35
1070
   178
1070
    35
1070
    48
1040
-0.005
1070
    41
1041
3.5
1070
   147
1041
1.75
1070
    42
1041
1.5875
1070
    44
1041
2.0
1070
   140
1041
3.5
1070
   343
1005
0
1070
   344
1005
0
1002
}
0
DIMENSION
5
106
100
AcDbEntity
8
SK2
62
256
6
ByLayer
370
13
48
1
60
0
100
AcDbDimension
2
DimnDraft3D3
10
43
20
15.009119
30
0
11
32.22
21
15.009119
31
0
70
32
71
5
72
1
41
1
210
0
220
0
230
1
3
Standard
100
AcDbAlignedDimension
13
21.44
23
4.9875
33
0
14
43
24
1.5875
34
0
50
0
100
AcDbRotatedDimension
1001
ACAD
1000
DSTYLE
1002
{
1070
   279
1070
     0
1070
   172
1070
     1
1070
   173
1070
     1
1070
   340
1005
E6
1070
   271
1070
     2
1070
   272
1070
     2
1070
    77
1070
     1
1070
    73
1070
     0
1070
   171
1070
     3
1070
   274
1070
     4
1070
   177
1070
    35
1070
   176
1070
    35
1070
   178
1070
    35
1070
    48
1040
-0.005
1070
    41
1041
3.5
1070
   147
1041
1.75
1070
    42
1041
1.5875
1070
    44
1041
2.0
1070
   140
1041
3.5
1070
   343
1005
0
1070
   344
1005
0
1002
}
0
DIMENSION
5
110
100
AcDbEntity
8
SK2
62
256
6
ByLayer
370
13
48
1
60
0
100
AcDbDimension
2
DimnDraft3D4
10
41.84
20
-16.202503
30
0
11
52.981425
21
-16.202503
31
0
70
32
71
5
72
1
41
1
210
0
220
0
230
1
3
Standard
100
AcDbAlignedDimension
13
43
23
-1.5875
33
0
14
41.84
24
-4.9875
34
0
50
0
100
AcDbRotatedDimension
1001
ACAD
1000
DSTYLE
1002
{
1070
   279
1070
     0
1070
   172
1070
     1
1070
   173
1070
     1
1070
   340
1005
E6
1070
   271
1070
     2
1070
   272
1070
     2
1070
    77
1070
     1
1070
    73
1070
     0
1070
   171
1070
     3
1070
   274
1070
     4
1070
   177
1070
    35
1070
   176
1070
    35
1070
   178
1070
    35
1070
    48
1040
-0.005
1070
    41
1041
3.5
1070
   147
1041
1.75
1070
    42
1041
1.5875
1070
    44
1041
2.0
1070
   140
1041
3.5
1070
   343
1005
0
1070
   344
1005
0
1002
}
0
DIMENSION
5
11A
100
AcDbEntity
8
SK2
62
256
6
ByLayer
370
13
48
1
60
0
100
AcDbDimension
2
DimnDraft3D5
10
41.84
20
-22.343428
30
0
11
0.600676
21
-22.343428
31
0
70
32
71
5
72
1
41
1
210
0
220
0
230
1
3
Standard
100
AcDbAlignedDimension
13
-36
23
-5.5875
33
0
14
41.84
24
-4.9875
34
0
50
0
100
AcDbRotatedDimension
1001
ACAD
1000
DSTYLE
1002
{
1070
   279
1070
     0
1070
   172
1070
     1
1070
   173
1070
     1
1070
   340
1005
E6
1070
   271
1070
     2
1070
   272
1070
     2
1070
    77
1070
     1
1070
    73
1070
     0
1070
   171
1070
     3
1070
   274
1070
     4
1070
   177
1070
    35
1070
   176
1070
    35
1070
   178
1070
    35
1070
    48
1040
-0.005
1070
    41
1041
3.5
1070
   147
1041
1.75
1070
    42
1041
1.5875
1070
    44
1041
2.0
1070
   140
1041
3.5
1070
   343
1005
0
1070
   344
1005
0
1002
}
0
DIMENSION
5
125
100
AcDbEntity
8
SK2
62
256
6
ByLayer
370
13
48
1
60
0
100
AcDbDimension
2
DimnDraft3D6
10
-46.625163
20
4
30
0
11
-47.250163
21
22.47418
31
0
70
33
71
5
72
1
41
1
210
0
220
0
230
1
3
Standard
100
AcDbAlignedDimension
13
-37.5875
23
-4
33
0
14
-37.5875
24
4
34
0
1001
ACAD
1000
DSTYLE
1002
{
1070
   279
1070
     0
1070
    74
1070
     0
1070
   173
1070
     1
1070
   340
1005
E6
1070
   271
1070
     3
1070
   272
1070
     2
1070
    77
1070
     1
1070
    73
1070
     0
1070
   171
1070
     3
1070
   274
1070
     4
1070
   177
1070
    35
1070
   176
1070
    35
1070
   178
1070
    35
1070
    48
1040
-0.005
1070
    41
1041
3.5
1070
   147
1041
1.75
1070
    42
1041
1.5875
1070
    44
1041
2.0
1070
   140
1041
3.5
1070
   343
1005
0
1070
   344
1005
0
1002
}
0
DIMENSION
5
130
100
AcDbEntity
8
2
62
256
6
ByLayer
370
13
48
1
60
0
100
AcDbDimension
2
DimnDraft3D7
10
57.083343
20
3.4
30
0
11
52.458343
21
20.467266
31
0
70
33
71
5
72
1
41
1
210
0
220
0
230
1
3
Standard
100
AcDbAlignedDimension
13
43.4275
23
-3.4
33
0
14
43.4275
24
3.4
34
0
1001
ACAD
1000
DSTYLE
1002
{
1070
   279
1070
     0
1070
    74
1070
     0
1070
   173
1070
     1
1070
   340
1005
E6
1070
   271
1070
     3
1070
   272
1070
     2
1070
    77
1070
     1
1070
    73
1070
     0
1070
   171
1070
     3
1070
   274
1070
     4
1070
   177
1070
    35
1070
   176
1070
    35
1070
   178
1070
    35
1070
    48
1040
-0.005
1070
    41
1041
3.5
1070
   147
1041
1.75
1070
    42
1041
1.5875
1070
    44
1041
2.0
1070
   140
1041
3.5
1070
   343
1005
0
1070
   344
1005
0
1002
}
0
ENDSEC
0
SECTION
2
OBJECTS
0
DICTIONARY
5
19b
330
0
100
AcDbDictionary
280
0
281
1
3
ACAD_GROUP
350
19c
3
ACAD_MLINESTYLE
350
19d
0
DICTIONARY
5
19c
330
0
100
AcDbDictionary
280
0
281
1
0
DICTIONARY
5
19d
330
0
100
AcDbDictionary
280
0
281
1
3
Standard
350
18
0
MLINESTYLE
5
18
330
19d
100
AcDbMlineStyle
2
Standard
70
0
3

62
256
51
90
52
90
71
2
49
-0.5
62
256
6
ByLayer
49
0.5
62
256
6
ByLayer
0
RASTERVARIABLES
5
189
330

100
AcDbRasterVariables
90
0
70
1
71
1
72
1
0
ENDSEC
0
EOF
