0
SECTION
2
HEADER
9
$ACADVER
1
AC1015
9
$DWGCODEPAGE
3
ANSI_1252
9
$HANDSEED
5
1a9
9
$ANGBASE
50
0
9
$ANGDIR
70
0
9
$ATTMODE
70
1
9
$AUNITS
70
0
9
$AUPREC
70
0
9
$CECOLOR
62
256
9
$CELTSCALE
40
1
9
$CELTYPE
6
ByLayer
9
$CELWEIGHT
370
18
9
$CLAYER
8
0
9
$CMLJUST
70
0
9
$CMLSCALE
40
1
9
$CMLSTYLE
2
Standard
9
$DIMSTYLE
2
Standard
9
$TEXTSIZE
40
0.2
9
$TEXTSTYLE
7
Standard
9
$LUNITS
70
2
9
$LUPREC
70
4
9
$EXTNAMES
290
1
9
$INSUNITS
70
4
9
$LTSCALE
40
1
9
$LWDISPLAY
290
1
9
$PDMODE
70
0
9
$PDSIZE
40
0
9
$PLINEGEN
70
0
0
ENDSEC
0
SECTION
2
CLASSES
0
CLASS
1
RASTERVARIABLES
2
AcDbRasterVariables
3
ISM
90
0
280
0
281
0
0
ENDSEC
0
SECTION
2
TABLES
0
TABLE
2
VPORT
5
19f
100
AcDbSymbolTable
0
VPORT
5
1
100
AcDbSymbolTableRecord
100
AcDbViewportTableRecord
2
*Active
70
0
10
0
20
0
11
1
21
1
12
-1
22
1
13
0
23
0
14
0.5
24
0.5
15
10
25
10
16
0
26
0
36
1
17
0
27
0
37
0
0
ENDTAB
0
TABLE
2
LTYPE
5
1a0
100
AcDbSymbolTable
0
LTYPE
5
14
100
AcDbSymbolTableRecord
100
AcDbLinetypeTableRecord
70
0
2
ByBlock
3

72
65
73
0
40
0
0
LTYPE
5
15
100
AcDbSymbolTableRecord
100
AcDbLinetypeTableRecord
70
0
2
ByLayer
3

72
65
73
0
40
0
0
LTYPE
5
16
100
AcDbSymbolTableRecord
100
AcDbLinetypeTableRecord
70
0
2
CONTINUOUS
3
Solid line
72
65
73
0
40
0
0
LTYPE
5
6A
100
AcDbSymbolTableRecord
100
AcDbLinetypeTableRecord
70
0
2
CENTER
3
____ _ ____ _ ____ _ ____
72
65
73
4
40
47.5
49
22
74
0
49
-8.5
74
0
49
8.5
74
0
49
-8.5
74
0
0
LTYPE
5
6B
100
AcDbSymbolTableRecord
100
AcDbLinetypeTableRecord
70
0
2
DASHED
3
__ __ __ __ __ __ __ __ __
72
65
73
2
40
25.72
49
12.86
74
0
49
-12.86
74
0
0
ENDTAB
0
TABLE
2
LAYER
5
1a1
100
AcDbSymbolTable
0
LAYER
5
10
100
AcDbSymbolTableRecord
100
AcDbLayerTableRecord
2
0
70
0
62
7
6
CONTINUOUS
290
1
370
-3
390
0
0
LAYER
5
6D
100
AcDbSymbolTableRecord
100
AcDbLayerTableRecord
2
81
70
0
62
-3
6
CONTINUOUS
290
1
370
-3
390
0
0
LAYER
5
6F
100
AcDbSymbolTableRecord
100
AcDbLayerTableRecord
2
80
70
0
62
-6
6
CONTINUOUS
290
1
370
-3
390
0
0
LAYER
5
74
100
AcDbSymbolTableRecord
100
AcDbLayerTableRecord
2
2
70
0
62
7
6
CONTINUOUS
290
1
370
-3
390
0
0
LAYER
5
78
100
AcDbSymbolTableRecord
100
AcDbLayerTableRecord
2
1
70
0
62
4
6
CONTINUOUS
290
1
370
-3
390
0
0
LAYER
5
86
100
AcDbSymbolTableRecord
100
AcDbLayerTableRecord
2
4
70
0
62
-2
6
CENTER
290
1
370
-3
390
0
0
LAYER
5
18b
100
AcDbSymbolTableRecord
100
AcDbLayerTableRecord
2
SK2
70
0
62
7
6
CONTINUOUS
290
1
370
-3
390
0
0
LAYER
5
18c
100
AcDbSymbolTableRecord
100
AcDbLayerTableRecord
2
SK1
70
0
62
4
6
CONTINUOUS
290
1
370
-3
390
0
0
LAYER
5
18d
100
AcDbSymbolTableRecord
100
AcDbLayerTableRecord
2
SK4
70
0
62
2
6
CENTER
290
1
370
-3
390
0
0
LAYER
5
18e
100
AcDbSymbolTableRecord
100
AcDbLayerTableRecord
2
SK6
70
0
62
5
6
CONTINUOUS
290
1
370
-3
390
0
0
ENDTAB
0
TABLE
2
STYLE
5
1a2
100
AcDbSymbolTable
0
STYLE
5
11
100
AcDbSymbolTableRecord
100
AcDbTextStyleTableRecord
2
Standard
3
txt
70
0
71
0
40
0
41
1
42
0
50
0
0
STYLE
5
E7
100
AcDbSymbolTableRecord
100
AcDbTextStyleTableRecord
2
iso_b_vert
3
simplex.shx
70
0
71
0
40
0
41
1
42
0
50
0
0
STYLE
5
E8
100
AcDbSymbolTableRecord
100
AcDbTextStyleTableRecord
2
DWGDirectTextStyle
3
simplex
70
0
71
0
40
0
41
1
42
0
50
0
0
ENDTAB
0
TABLE
2
DIMSTYLE
5
1a3
100
AcDbSymbolTable
100
AcDbDimStyleTable
0
DIMSTYLE
105
27
100
AcDbSymbolTableRecord
100
AcDbDimStyleTableRecord
2
Standard
70
0
3
<>
41
0.18
42
0.0625
44
0.18
140
0.18
147
0.09
73
0
74
0
77
1
271
2
275
0
278
52
280
0
340
11
0
ENDTAB
0
TABLE
2
VIEW
5
1a4
100
AcDbSymbolTable
0
ENDTAB
0
TABLE
2
UCS
5
1a5
100
AcDbSymbolTable
0
ENDTAB
0
TABLE
2
APPID
5
1a6
100
AcDbSymbolTable
0
APPID
5
12
100
AcDbSymbolTableRecord
100
AcDbRegAppTableRecord
2
ACAD
70
0
0
ENDTAB
0
TABLE
2
BLOCK_RECORD
5
1a7
100
AcDbSymbolTable
0
BLOCK_RECORD
5
1F
100
AcDbSymbolTableRecord
100
AcDbBlockTableRecord
2
*Model_Space
340
0
70
0
0
BLOCK_RECORD
5
1B
100
AcDbSymbolTableRecord
100
AcDbBlockTableRecord
2
*Paper_Space
340
0
70
0
0
BLOCK_RECORD
5
23
100
AcDbSymbolTableRecord
100
AcDbBlockTableRecord
2
*Paper_Space0
340
0
70
0
0
BLOCK_RECORD
5
EA
100
AcDbSymbolTableRecord
100
AcDbBlockTableRecord
2
DimnDraft3D1
340
0
70
0
0
BLOCK_RECORD
5
F4
100
AcDbSymbolTableRecord
100
AcDbBlockTableRecord
2
DimnDraft3D2
340
0
70
0
0
BLOCK_RECORD
5
FE
100
AcDbSymbolTableRecord
100
AcDbBlockTableRecord
2
DimnDraft3D3
340
0
70
0
0
BLOCK_RECORD
5
108
100
AcDbSymbolTableRecord
100
AcDbBlockTableRecord
2
DimnDraft3D4
340
0
70
0
0
BLOCK_RECORD
5
112
100
AcDbSymbolTableRecord
100
AcDbBlockTableRecord
2
DimnDraft3D5
340
0
70
0
0
BLOCK_RECORD
5
11C
100
AcDbSymbolTableRecord
100
AcDbBlockTableRecord
2
DimnDraft3D6
340
0
70
0
0
BLOCK_RECORD
5
127
100
AcDbSymbolTableRecord
100
AcDbBlockTableRecord
2
DimnDraft3D7
340
0
70
0
0
ENDTAB
0
ENDSEC
0
SECTION
2
BLOCKS
0
BLOCK
5
20
100
AcDbEntity
8
0
100
AcDbBlockBegin
2
*Model_Space
70
0
10
0
20
0
30
0
3
*Model_Space
0
ENDBLK
5
21
100
AcDbEntity
8
0
100
AcDbBlockEnd
0
BLOCK
5
1C
100
AcDbEntity
8
0
100
AcDbBlockBegin
2
*Paper_Space
70
0
10
0
20
0
30
0
3
*Paper_Space
0
ENDBLK
5
1D
100
AcDbEntity
8
0
100
AcDbBlockEnd
0
BLOCK
5
24
100
AcDbEntity
8
0
100
AcDbBlockBegin
2
*Paper_Space0
70
0
10
0
20
0
30
0
3
*Paper_Space0
0
ENDBLK
5
25
100
AcDbEntity
8
0
100
AcDbBlockEnd
0
BLOCK
5
F1
100
AcDbEntity
8
0
100
AcDbBlockBegin
2
DimnDraft3D1
70
0
10
0
20
0
30
0
3
DimnDraft3D1
0
MTEXT
5
EB
100
AcDbEntity
8
SK2
62
256
6
ByLayer
370
13
48
1
60
0
100
AcDbMText
10
15.414664
20
-12.688398
30
0
210
0
220
0
230
1
1
\W0.6977;41,86
40
3.5
41
0
44
1.084337
50
0
71
7
72
5
7
iso_b_vert
0
LINE
5
EC
100
AcDbEntity
8
SK2
62
256
6
ByLayer
370
13
48
1
60
0
100
AcDbLine
10
0
20
-1.5875
30
0
11
0
21
-15.563398
31
0
39
0
210
0
220
0
230
1
0
LINE
5
ED
100
AcDbEntity
8
SK2
62
256
6
ByLayer
370
13
48
1
60
0
100
AcDbLine
10
41.86
20
-4.9375
30
0
11
41.86
21
-15.563398
31
0
39
0
210
0
220
0
230
1
0
LINE
5
EE
100
AcDbEntity
8
SK2
62
256
6
ByLayer
370
13
48
1
60
0
100
AcDbLine
10
0
20
-13.563398
30
0
11
41.86
21
-13.563398
31
0
39
0
210
0
220
0
230
1
0
SOLID
5
EF
100
AcDbEntity
8
SK2
62
256
6
ByLayer
370
13
48
1
60
0
100
AcDbTrace
10
0
20
-13.563398
30
0
11
3.499998
21
-13.102615
31
0
12
3.500002
22
-14.024182
32
0
13
0
23
-13.563398
33
0
39
0
210
0
220
0
230
1
0
SOLID
5
F0
100
AcDbEntity
8
SK2
62
256
6
ByLayer
370
13
48
1
60
0
100
AcDbTrace
10
41.86
20
-13.563398
30
0
11
38.360002
21
-14.024182
31
0
12
38.359998
22
-13.102615
32
0
13
41.86
23
-13.563398
33
0
39
0
210
0
220
0
230
1
0
ENDBLK
5
F2
100
AcDbEntity
8
0
100
AcDbBlockEnd
0
BLOCK
5
FB
100
AcDbEntity
8
0
100
AcDbBlockBegin
2
DimnDraft3D2
70
0
10
0
20
0
30
0
3
DimnDraft3D2
0
MTEXT
5
F5
100
AcDbEntity
8
SK2
62
256
6
ByLayer
370
13
48
1
60
0
100
AcDbMText
10
-0.747384
20
-31.817985
30
0
210
0
220
0
230
1
1
\W0.7317;79,00
40
3.5
41
0
44
1.084337
50
0
71
7
72
5
7
iso_b_vert
0
LINE
5
F6
100
AcDbEntity
8
SK2
62
256
6
ByLayer
370
13
48
1
60
0
100
AcDbLine
10
-36
20
-5.5875
30
0
11
-36
21
-34.692985
31
0
39
0
210
0
220
0
230
1
0
LINE
5
F7
100
AcDbEntity
8
SK2
62
256
6
ByLayer
370
13
48
1
60
0
100
AcDbLine
10
43
20
-1.5875
30
0
11
43
21
-34.692985
31
0
39
0
210
0
220
0
230
1
0
LINE
5
F8
100
AcDbEntity
8
SK2
62
256
6
ByLayer
370
13
48
1
60
0
100
AcDbLine
10
-36
20
-32.692985
30
0
11
43
21
-32.692985
31
0
39
0
210
0
220
0
230
1
0
SOLID
5
F9
100
AcDbEntity
8
SK2
62
256
6
ByLayer
370
13
48
1
60
0
100
AcDbTrace
10
-36
20
-32.692985
30
0
11
-32.500002
21
-32.232202
31
0
12
-32.499998
22
-33.153769
32
0
13
-36
23
-32.692985
33
0
39
0
210
0
220
0
230
1
0
SOLID
5
FA
100
AcDbEntity
8
SK2
62
256
6
ByLayer
370
13
48
1
60
0
100
AcDbTrace
10
43
20
-32.692985
30
0
11
39.500002
21
-33.153769
31
0
12
39.499998
22
-32.232202
32
0
13
43
23
-32.692985
33
0
39
0
210
0
220
0
230
1
0
ENDBLK
5
FC
100
AcDbEntity
8
0
100
AcDbBlockEnd
0
BLOCK
5
105
100
AcDbEntity
8
0
100
AcDbBlockBegin
2
DimnDraft3D3
70
0
10
0
20
0
30
0
3
DimnDraft3D3
0
MTEXT
5
FF
100
AcDbEntity
8
SK2
62
256
6
ByLayer
370
13
48
1
60
0
100
AcDbMText
10
28.184605
20
15.834119
30
0
210
0
220
0
230
1
1
\W0.6898;21,24
40
3.5
41
0
44
1.084337
50
0
71
7
72
5
7
iso_b_vert
0
LINE
5
100
100
AcDbEntity
8
SK2
62
256
6
ByLayer
370
13
48
1
60
0
100
AcDbLine
10
21.76
20
4.9375
30
0
11
21.76
21
16.959119
31
0
39
0
210
0
220
0
230
1
0
LINE
5
101
100
AcDbEntity
8
SK2
62
256
6
ByLayer
370
13
48
1
60
0
100
AcDbLine
10
43
20
1.5875
30
0
11
43
21
16.959119
31
0
39
0
210
0
220
0
230
1
0
LINE
5
102
100
AcDbEntity
8
SK2
62
256
6
ByLayer
370
13
48
1
60
0
100
AcDbLine
10
21.76
20
14.959119
30
0
11
43
21
14.959119
31
0
39
0
210
0
220
0
230
1
0
SOLID
5
103
100
AcDbEntity
8
SK2
62
256
6
ByLayer
370
13
48
1
60
0
100
AcDbTrace
10
21.76
20
14.959119
30
0
11
25.259998
21
15.419903
31
0
12
25.260002
22
14.498335
32
0
13
21.76
23
14.959119
33
0
39
0
210
0
220
0
230
1
0
SOLID
5
104
100
AcDbEntity
8
SK2
62
256
6
ByLayer
370
13
48
1
60
0
100
AcDbTrace
10
43
20
14.959119
30
0
11
39.500002
21
14.498335
31
0
12
39.499998
22
15.419903
32
0
13
43
23
14.959119
33
0
39
0
210
0
220
0
230
1
0
ENDBLK
5
106
100
AcDbEntity
8
0
100
AcDbBlockEnd
0
BLOCK
5
10F
100
AcDbEntity
8
0
100
AcDbBlockBegin
2
DimnDraft3D4
70
0
10
0
20
0
30
0
3
DimnDraft3D4
0
MTEXT
5
109
100
AcDbEntity
8
SK2
62
256
6
ByLayer
370
13
48
1
60
0
100
AcDbMText
10
50.531425
20
-15.277503
30
0
210
0
220
0
230
1
1
\W0.5839;1,14
40
3.5
41
0
44
1.084337
50
0
71
7
72
5
7
iso_b_vert
0
LINE
5
10A
100
AcDbEntity
8
SK2
62
256
6
ByLayer
370
13
48
1
60
0
100
AcDbLine
10
43
20
-1.5875
30
0
11
43
21
-18.152503
31
0
39
0
210
0
220
0
230
1
0
LINE
5
10B
100
AcDbEntity
8
SK2
62
256
6
ByLayer
370
13
48
1
60
0
100
AcDbLine
10
41.86
20
-4.9375
30
0
11
41.86
21
-18.152503
31
0
39
0
210
0
220
0
230
1
0
LINE
5
10C
100
AcDbEntity
8
SK2
62
256
6
ByLayer
370
13
48
1
60
0
100
AcDbLine
10
33.11
20
-16.152503
30
0
11
56.306425
21
-16.152503
31
0
39
0
210
0
220
0
230
1
0
SOLID
5
10D
100
AcDbEntity
8
SK2
62
256
6
ByLayer
370
13
48
1
60
0
100
AcDbTrace
10
43
20
-16.152503
30
0
11
46.499998
21
-15.691719
31
0
12
46.500002
22
-16.613287
32
0
13
43
23
-16.152503
33
0
39
0
210
0
220
0
230
1
0
SOLID
5
10E
100
AcDbEntity
8
SK2
62
256
6
ByLayer
370
13
48
1
60
0
100
AcDbTrace
10
41.86
20
-16.152503
30
0
11
38.360002
21
-16.613287
31
0
12
38.359998
22
-15.691719
32
0
13
41.86
23
-16.152503
33
0
39
0
210
0
220
0
230
1
0
ENDBLK
5
110
100
AcDbEntity
8
0
100
AcDbBlockEnd
0
BLOCK
5
119
100
AcDbEntity
8
0
100
AcDbBlockBegin
2
DimnDraft3D5
70
0
10
0
20
0
30
0
3
DimnDraft3D5
0
MTEXT
5
113
100
AcDbEntity
8
SK2
62
256
6
ByLayer
370
13
48
1
60
0
100
AcDbMText
10
-3.828008
20
-21.468428
30
0
210
0
220
0
230
1
1
\W0.7317;77,86
40
3.5
41
0
44
1.084337
50
0
71
7
72
5
7
iso_b_vert
0
LINE
5
114
100
AcDbEntity
8
SK2
62
256
6
ByLayer
370
13
48
1
60
0
100
AcDbLine
10
-36
20
-5.5875
30
0
11
-36
21
-24.343428
31
0
39
0
210
0
220
0
230
1
0
LINE
5
115
100
AcDbEntity
8
SK2
62
256
6
ByLayer
370
13
48
1
60
0
100
AcDbLine
10
41.86
20
-4.9375
30
0
11
41.86
21
-24.343428
31
0
39
0
210
0
220
0
230
1
0
LINE
5
116
100
AcDbEntity
8
SK2
62
256
6
ByLayer
370
13
48
1
60
0
100
AcDbLine
10
-36
20
-22.343428
30
0
11
41.86
21
-22.343428
31
0
39
0
210
0
220
0
230
1
0
SOLID
5
117
100
AcDbEntity
8
SK2
62
256
6
ByLayer
370
13
48
1
60
0
100
AcDbTrace
10
-36
20
-22.343428
30
0
11
-32.500002
21
-21.882645
31
0
12
-32.499998
22
-22.804212
32
0
13
-36
23
-22.343428
33
0
39
0
210
0
220
0
230
1
0
SOLID
5
118
100
AcDbEntity
8
SK2
62
256
6
ByLayer
370
13
48
1
60
0
100
AcDbTrace
10
41.86
20
-22.343428
30
0
11
38.360002
21
-22.804212
31
0
12
38.359998
22
-21.882645
32
0
13
41.86
23
-22.343428
33
0
39
0
210
0
220
0
230
1
0
ENDBLK
5
11A
100
AcDbEntity
8
0
100
AcDbBlockEnd
0
BLOCK
5
124
100
AcDbEntity
8
0
100
AcDbBlockBegin
2
DimnDraft3D6
70
0
10
0
20
0
30
0
3
DimnDraft3D6
0
MTEXT
5
11D
100
AcDbEntity
8
SK2
62
256
6
ByLayer
370
13
48
1
60
0
100
AcDbMText
10
-46.375163
20
23.34918
30
0
210
0
220
0
230
1
1
\W0.7317;8,000
40
3.5
41
0
44
1.084337
50
90
71
7
72
5
7
iso_b_vert
0
MTEXT
5
11E
100
AcDbEntity
8
SK2
62
256
6
ByLayer
370
13
48
1
60
0
100
AcDbMText
10
-46.375163
20
18.126524
30
0
210
0
220
0
230
1
1
%%c
40
3.5
41
0
44
1.084337
50
90
71
7
72
5
7
iso_b_vert
0
LINE
5
11F
100
AcDbEntity
8
SK2
62
256
6
ByLayer
370
13
48
1
60
0
100
AcDbLine
10
-37.5875
20
-4
30
0
11
-46.625163
21
-4
31
0
39
0
210
0
220
0
230
1
0
LINE
5
120
100
AcDbEntity
8
SK2
62
256
6
ByLayer
370
13
48
1
60
0
100
AcDbLine
10
-37.5875
20
4
30
0
11
-46.625163
21
4
31
0
39
0
210
0
220
0
230
1
0
LINE
5
121
100
AcDbEntity
8
SK2
62
256
6
ByLayer
370
13
48
1
60
0
100
AcDbLine
10
-44.625163
20
-4
30
0
11
-44.625163
21
33.121549
31
0
39
0
210
0
220
0
230
1
0
SOLID
5
122
100
AcDbEntity
8
SK2
62
256
6
ByLayer
370
13
48
1
60
0
100
AcDbTrace
10
-44.625163
20
-4
30
0
11
-45.085946
21
-0.500002
31
0
12
-44.164379
22
-0.499998
32
0
13
-44.625163
23
-4
33
0
39
0
210
0
220
0
230
1
0
SOLID
5
123
100
AcDbEntity
8
SK2
62
256
6
ByLayer
370
13
48
1
60
0
100
AcDbTrace
10
-44.625163
20
4
30
0
11
-44.164379
21
0.500002
31
0
12
-45.085946
22
0.499998
32
0
13
-44.625163
23
4
33
0
39
0
210
0
220
0
230
1
0
ENDBLK
5
125
100
AcDbEntity
8
0
100
AcDbBlockEnd
0
BLOCK
5
12F
100
AcDbEntity
8
0
100
AcDbBlockBegin
2
DimnDraft3D7
70
0
10
0
20
0
30
0
3
DimnDraft3D7
0
MTEXT
5
128
100
AcDbEntity
8
2
62
256
6
ByLayer
370
13
48
1
60
0
100
AcDbMText
10
53.333343
20
21.292266
30
0
210
0
220
0
230
1
1
\W0.7317;6,700
40
3.5
41
0
44
1.084337
50
90
71
7
72
5
7
iso_b_vert
0
MTEXT
5
129
100
AcDbEntity
8
2
62
256
6
ByLayer
370
13
48
1
60
0
100
AcDbMText
10
53.333343
20
16.06961
30
0
210
0
220
0
230
1
1
%%c
40
3.5
41
0
44
1.084337
50
90
71
7
72
5
7
iso_b_vert
0
LINE
5
12A
100
AcDbEntity
8
2
62
256
6
ByLayer
370
13
48
1
60
0
100
AcDbLine
10
43.4475
20
-3.35
30
0
11
57.083343
21
-3.35
31
0
39
0
210
0
220
0
230
1
0
LINE
5
12B
100
AcDbEntity
8
2
62
256
6
ByLayer
370
13
48
1
60
0
100
AcDbLine
10
43.4475
20
3.35
30
0
11
57.083343
21
3.35
31
0
39
0
210
0
220
0
230
1
0
LINE
5
12C
100
AcDbEntity
8
2
62
256
6
ByLayer
370
13
48
1
60
0
100
AcDbLine
10
55.083343
20
31.064635
30
0
11
55.083343
21
-12.1
31
0
39
0
210
0
220
0
230
1
0
SOLID
5
12D
100
AcDbEntity
8
2
62
256
6
ByLayer
370
13
48
1
60
0
100
AcDbTrace
10
55.083343
20
-3.35
30
0
11
55.544126
21
-6.849998
31
0
12
54.622559
22
-6.850002
32
0
13
55.083343
23
-3.35
33
0
39
0
210
0
220
0
230
1
0
SOLID
5
12E
100
AcDbEntity
8
2
62
256
6
ByLayer
370
13
48
1
60
0
100
AcDbTrace
10
55.083343
20
3.35
30
0
11
54.622559
21
6.849998
31
0
12
55.544126
22
6.850002
32
0
13
55.083343
23
3.35
33
0
39
0
210
0
220
0
230
1
0
ENDBLK
5
130
100
AcDbEntity
8
0
100
AcDbBlockEnd
0
ENDSEC
0
SECTION
2
ENTITIES
0
ARC
5
9C
100
AcDbEntity
8
1
62
256
6
ByLayer
370
18
48
1
60
0
100
AcDbCircle
39
0
10
0
20
3.2
30
0
40
0.800000000000001
210
0
220
0
230
1
100
AcDbArc
50
35.3465
51
90
0
ARC
5
9D
100
AcDbEntity
8
1
62
256
6
ByLayer
370
18
48
1
60
0
100
AcDbCircle
39
0
10
-1.305069
20
-4.125632
30
0
40
0.800000000000001
210
0
220
0
230
-1
100
AcDbArc
50
35.3465
51
90.034377
0
ARC
5
9E
100
AcDbEntity
8
1
62
256
6
ByLayer
370
18
48
1
60
0
100
AcDbCircle
39
0
10
0
20
-3.2
30
0
40
0.800000000000001
210
0
220
0
230
1
100
AcDbArc
50
270
51
324.6535
0
ARC
5
9F
100
AcDbEntity
8
1
62
256
6
ByLayer
370
18
48
1
60
0
100
AcDbCircle
39
0
10
-1.305069
20
4.125632
30
0
40
0.800000000000001
210
0
220
0
230
-1
100
AcDbArc
50
269.965623
51
324.6535
0
ELLIPSE
5
A0
100
AcDbEntity
8
1
62
256
6
ByLayer
370
18
48
1
60
0
100
AcDbEllipse
10
11.25
20
-3.423872
30
0
11
-0.25
21
3.06151588455594E-17
31
0
210
0
220
0
230
1
40
1
41
-1.57487965005328
42
-0.402825293231006
0
ELLIPSE
5
A1
100
AcDbEntity
8
1
62
256
6
ByLayer
370
18
48
1
60
0
100
AcDbEllipse
10
11.25
20
3.423872
30
0
11
-0.25
21
3.06151588455594E-17
31
0
210
0
220
0
230
1
40
1
41
0.402597248161062
42
1.5763096722937
0
ELLIPSE
5
A2
100
AcDbEntity
8
1
62
256
6
ByLayer
370
13
48
1
60
0
100
AcDbEllipse
10
42.205722
20
0.496665
30
0
11
0.153082081612417
21
0.258003636193774
31
0
210
0
220
0
230
1
40
0.454519
41
0.917105603404792
42
2.31336900500028
0
ELLIPSE
5
A3
100
AcDbEntity
8
1
62
256
6
ByLayer
370
18
48
1
60
0
100
AcDbEllipse
10
43.000301
20
0.000732
30
0
11
1.23704990298587
21
3.34761810389199
31
0
210
0
220
0
230
-1
40
0.115174
41
2.8598373742201
42
2.96828129881098
0
ELLIPSE
5
A4
100
AcDbEntity
8
1
62
256
6
ByLayer
370
13
48
1
60
0
100
AcDbEllipse
10
42.484073
20
1.580499
30
0
11
1.95938775173488
21
-1.34909418495111
31
0
210
0
220
0
230
-1
40
0.533762
41
1.4448462274317
42
1.68986847999635
0
ELLIPSE
5
A5
100
AcDbEntity
8
1
62
256
6
ByLayer
370
18
48
1
60
0
100
AcDbEllipse
10
42.333282
20
-1.703697
30
0
11
0.519460375722647
21
1.40572741943779
31
0
210
0
220
0
230
-1
40
0.115174
41
0.742863466704218
42
1.49656079252765
0
ELLIPSE
5
A6
100
AcDbEntity
8
1
62
256
6
ByLayer
370
18
48
1
60
0
100
AcDbEllipse
10
43.046743
20
0.00234
30
0
11
0.137979128850652
21
0.428995648099679
31
0
210
0
220
0
230
-1
40
0.08774
41
-2.32337572126103
42
-1.68230685472914
0
ELLIPSE
5
A7
100
AcDbEntity
8
1
62
256
6
ByLayer
370
13
48
1
60
0
100
AcDbEllipse
10
11.179499
20
0.516338
30
0
11
-0.0511558705656861
21
-0.0859248328870459
31
0
210
0
220
0
230
1
40
0.356989
41
-1.20342563746465
42
0.0608494185609054
0
ELLIPSE
5
A8
100
AcDbEntity
8
1
62
256
6
ByLayer
370
13
48
1
60
0
100
AcDbEllipse
10
42.673979
20
1.703697
30
0
11
2.02978317214303
21
-1.0043058123778
31
0
210
0
220
0
230
-1
40
0.485472
41
1.56129626065019
42
1.83487160937809
0
ELLIPSE
5
A9
100
AcDbEntity
8
1
62
256
6
ByLayer
370
18
48
1
60
0
100
AcDbEllipse
10
42.860532
20
0.108145
30
0
11
0.0727819104947584
21
0.301917195704825
31
0
210
0
220
0
230
-1
40
0.478434
41
1.70456666453591
42
2.45976119972173
0
ELLIPSE
5
AA
100
AcDbEntity
8
1
62
256
6
ByLayer
370
18
48
1
60
0
100
AcDbEllipse
10
43.000301
20
-0.000732
30
0
11
1.23704991245398
21
-3.34761813156527
31
0
210
0
220
0
230
-1
40
0.115174
41
-2.96828129953534
42
-2.85983737539853
0
ELLIPSE
5
AB
100
AcDbEntity
8
1
62
256
6
ByLayer
370
18
48
1
60
0
100
AcDbEllipse
10
42.333282
20
1.703697
30
0
11
0.519460375675952
21
-1.40572741933738
31
0
210
0
220
0
230
-1
40
0.115174
41
-1.49656079257753
42
-0.742863466705313
0
ELLIPSE
5
AC
100
AcDbEntity
8
1
62
256
6
ByLayer
370
18
48
1
60
0
100
AcDbEllipse
10
43.046743
20
-0.00234
30
0
11
0.137979128878092
21
-0.428995648170064
31
0
210
0
220
0
230
-1
40
0.08774
41
1.68230685483392
42
2.32337572127267
0
ELLIPSE
5
AD
100
AcDbEntity
8
1
62
256
6
ByLayer
370
13
48
1
60
0
100
AcDbEllipse
10
11.250227
20
0.477014
30
0
11
0.0464042540977847
21
0.0885812914876964
31
0
210
0
220
0
230
1
40
0.069363
41
3.03649733109814
42
-1.69921388759208
0
POINT
5
6C
100
AcDbEntity
8
81
62
256
6
ByLayer
370
18
48
1
60
0
100
AcDbPoint
10
43
20
0
30
0
39
0
210
0
220
0
230
1
50
360
0
POINT
5
6E
100
AcDbEntity
8
80
62
256
6
ByLayer
370
18
48
1
60
0
100
AcDbPoint
10
0
20
0
30
0
39
0
210
0
220
0
230
1
50
360
0
POINT
5
70
100
AcDbEntity
8
SK2
62
256
6
ByLayer
370
18
48
1
60
1
100
AcDbPoint
10
-36
20
-4
30
0
39
0
210
0
220
0
230
1
50
360
0
POINT
5
72
100
AcDbEntity
8
SK2
62
256
6
ByLayer
370
18
48
1
60
1
100
AcDbPoint
10
-36
20
4
30
0
39
0
210
0
220
0
230
1
50
360
0
POINT
5
73
100
AcDbEntity
8
2
62
256
6
ByLayer
370
18
48
1
60
1
100
AcDbPoint
10
41.86
20
-3.35
30
0
39
0
210
0
220
0
230
1
50
360
0
POINT
5
75
100
AcDbEntity
8
2
62
256
6
ByLayer
370
18
48
1
60
1
100
AcDbPoint
10
41.86
20
3.35
30
0
39
0
210
0
220
0
230
1
50
360
0
SPLINE
5
AE
100
AcDbEntity
8
1
62
256
6
ByLayer
370
18
48
1
60
0
100
AcDbSpline
70
4
71
3
72
15
73
11
40
0
40
0
40
0
40
0
40
0.0051604391941072
40
0.201734101997119
40
0.363439202754071
40
0.496597253159801
40
0.651068813417413
40
0.696100172947115
40
0.759972738066453
40
1
40
1
40
1
40
1
41
1
10
32.4406351634395
20
-0.942161881039283
30
0
41
1
10
32.4406656353547
20
-0.9421711170001
30
0
41
1
10
32.4419669765932
20
-0.942578587493756
30
0
41
1
10
32.4506276866834
20
-0.946379734941473
30
0
41
1
10
32.4518010844952
20
-0.945860578551333
30
0
41
1
10
32.5075439561959
20
-0.968118664918819
30
0
41
1
10
32.6065500383375
20
-1.0100057479149
30
0
41
1
10
32.6959522108844
20
-1.05046635591538
30
0
41
1
10
32.8305723505023
20
-1.1133171982346
30
0
41
1
10
32.9566841162449
20
-1.17583307132898
30
0
41
1
10
33.0651193538667
20
-1.23165291541892
30
0
0
SPLINE
5
AF
100
AcDbEntity
8
1
62
256
6
ByLayer
370
18
48
1
60
0
100
AcDbSpline
70
4
71
2
72
6
73
3
40
0
40
0
40
0
40
1
40
1
40
1
41
1
10
11.2512044344638
20
-3.17362398252755
30
0
41
1
10
11.6081245816708
20
-3.17575336389649
30
0
41
1
10
11.9651363474956
20
-3.17567647861569
30
0
0
SPLINE
5
B0
100
AcDbEntity
8
1
62
256
6
ByLayer
370
18
48
1
60
0
100
AcDbSpline
70
4
71
2
72
6
73
3
40
0
40
0
40
0
40
1
40
1
40
1
41
1
10
11.9704452730165
20
-3.17567521333021
30
0
41
1
10
11.9785067492112
20
-3.17567310682128
30
0
41
1
10
11.9865682721197
20
-3.17566987539547
30
0
0
SPLINE
5
B1
100
AcDbEntity
8
1
62
256
6
ByLayer
370
18
48
1
60
0
100
AcDbSpline
70
4
71
1
72
4
73
2
40
0
40
0
40
1
40
1
41
1
10
11.9305527886695
20
0.0053508684681844
30
0
41
1
10
11.9305395601034
20
0.0053569724322244
30
0
0
SPLINE
5
B2
100
AcDbEntity
8
1
62
256
6
ByLayer
370
18
48
1
60
0
100
AcDbSpline
70
4
71
2
72
6
73
3
40
0
40
0
40
0
40
1
40
1
40
1
41
1
10
41.2578499220755
20
-3.19071897810335
30
0
41
1
10
41.5469224775529
20
-3.19012972638143
30
0
41
1
10
41.8355161465689
20
-3.1913577213142
30
0
0
SPLINE
5
B3
100
AcDbEntity
8
1
62
256
6
ByLayer
370
18
48
1
60
0
100
AcDbSpline
70
4
71
3
72
25
73
21
40
0
40
0
40
0
40
0
40
0.0869541042932338
40
0.154767525059376
40
0.20084530782294
40
0.242360593827846
40
0.292117899093683
40
0.347188426003727
40
0.391696182196959
40
0.426956217612662
40
0.476678417086277
40
0.561269274076692
40
0.628165045259452
40
0.698248196117534
40
0.759610892536076
40
0.806240472219896
40
0.831937797065934
40
0.879507344263451
40
0.949082327746984
40
1
40
1
40
1
40
1
41
1
10
21.8025116048573
20
-3.17902984128048
30
0
41
1
10
22.0754226759497
20
-3.17863196632382
30
0
41
1
10
22.5612725013487
20
-3.17836363576075
30
0
41
1
10
23.1911475626269
20
-3.1798646676707
30
0
41
1
10
23.6797710150748
20
-3.18052166648212
30
0
41
1
10
24.1118867077412
20
-3.18035501822118
30
0
41
1
10
24.5722104692877
20
-3.1800535232062
30
0
41
1
10
25.0419786181338
20
-3.18033638305408
30
0
41
1
10
25.4661319790892
20
-3.18127549065329
30
0
41
1
10
25.8734558724428
20
-3.1813128754103
30
0
41
1
10
26.4068570873027
20
-3.18067247221288
30
0
41
1
10
27.0398257275854
20
-3.18235611101454
30
0
41
1
10
27.7367474646974
20
-3.18190004237667
30
0
41
1
10
28.3606805886433
20
-3.18051214636088
30
0
41
1
10
28.9208445975677
20
-3.18240889256859
30
0
41
1
10
29.3413967858508
20
-3.18243632563693
30
0
41
1
10
29.7185381855181
20
-3.18372146379906
30
0
41
1
10
30.1678500787634
20
-3.18370334224735
30
0
41
1
10
30.6965358373702
20
-3.18188692697771
30
0
41
1
10
31.0755396220014
20
-3.18270001517652
30
0
41
1
10
31.2356963379955
20
-3.1831965493254
30
0
0
SPLINE
5
B4
100
AcDbEntity
8
1
62
256
6
ByLayer
370
18
48
1
60
0
100
AcDbSpline
70
4
71
2
72
6
73
3
40
0
40
0
40
0
40
1
40
1
40
1
41
1
10
11.987654337743
20
3.17567113867162
30
0
41
1
10
11.619380713762
20
3.17581963856989
30
0
41
1
10
11.2512044344638
20
3.17362398252746
30
0
0
SPLINE
5
B5
100
AcDbEntity
8
1
62
256
6
ByLayer
370
18
48
1
60
0
100
AcDbSpline
70
4
71
3
72
30
73
26
40
0
40
0
40
0
40
0
40
0.0509064469104322
40
0.122168179597749
40
0.165873968767366
40
0.192681682888177
40
0.228513090980974
40
0.272702552252415
40
0.313278263481604
40
0.346066837257811
40
0.375640125867391
40
0.423675802567749
40
0.483674031066086
40
0.535723305077052
40
0.578245456060063
40
0.61373197221728
40
0.648073849390019
40
0.679352510827388
40
0.725113785571151
40
0.787559137627445
40
0.835994538789479
40
0.871495694633042
40
0.917070399552722
40
0.971090003599253
40
1
40
1
40
1
40
1
41
1
10
31.2262151544019
20
3.18306484913671
30
0
41
1
10
31.09489151574
20
3.18261900136668
30
0
41
1
10
30.7797035295064
20
3.18192260562981
30
0
41
1
10
30.3515862053039
20
3.18292693700872
30
0
41
1
10
29.9856884536581
20
3.183754239476
30
0
41
1
10
29.7115173859191
20
3.18364392091172
30
0
41
1
10
29.4357865372521
20
3.1827242969751
30
0
41
1
10
29.1245709711451
20
3.18232078269844
30
0
41
1
10
28.8211896598038
20
3.18207449739228
30
0
41
1
10
28.5555337540017
20
3.18132560679473
30
0
41
1
10
28.2706233471752
20
3.18091966897785
30
0
41
1
10
27.9154929551685
20
3.18138397715177
30
0
41
1
10
27.5023587662491
20
3.18219423938743
30
0
41
1
10
27.1034497468669
20
3.18217059103657
30
0
41
1
10
26.7678017806948
20
3.18140757826657
30
0
41
1
10
26.4778515472787
20
3.18100327242075
30
0
41
1
10
26.216917836847
20
3.18103593000882
30
0
41
1
10
25.9294698702794
20
3.1812041575447
30
0
41
1
10
25.5694966894562
20
3.18140871342547
30
0
41
1
10
25.1652376048492
20
3.18059061555337
30
0
41
1
10
24.7874647449213
20
3.18015003947153
30
0
41
1
10
24.4532259786438
20
3.1801500965536
30
0
41
1
10
24.1045844414111
20
3.18035474299094
30
0
41
1
10
23.7729485029918
20
3.18045399822105
30
0
41
1
10
23.5589172489223
20
3.18036045916875
30
0
41
1
10
23.4843083283763
20
3.18028241492536
30
0
0
SPLINE
5
B6
100
AcDbEntity
8
1
62
256
6
ByLayer
370
18
48
1
60
0
100
AcDbSpline
70
4
71
3
72
8
73
4
40
0
40
0
40
0
40
0
40
1
40
1
40
1
40
1
41
1
10
11.0494320603501
20
0.505036101906967
30
0
41
1
10
11.0294305576392
20
0.531610835542153
30
0
41
1
10
11.0173026538855
20
0.563380862812153
30
0
41
1
10
11.0173074969215
20
0.596424791943406
30
0
0
SPLINE
5
B7
100
AcDbEntity
8
1
62
256
6
ByLayer
370
18
48
1
60
0
100
AcDbSpline
70
4
71
3
72
27
73
23
40
0
40
0
40
0
40
0
40
0.139651779866607
40
0.139651779866607
40
0.279303559733214
40
0.279303559733214
40
0.349129449666517
40
0.349129449666517
40
0.41895533959982
40
0.488781229533124
40
0.488781229533124
40
0.558607119466427
40
0.558607119466427
40
0.698258899333034
40
0.698258899333034
40
0.768084789266337
40
0.768084789266337
40
0.837910679199641
40
0.837910679199641
40
0.977562459066248
40
0.977562459066248
40
1
40
1
40
1
40
1
41
1
10
11.0173074969215
20
0.5964247919446
30
0
41
1
10
11.0173388017814
20
0.810017155102145
30
0
41
1
10
11.0173661761086
20
1.02045547936717
30
0
41
1
10
11.017414330867
20
1.42148512828922
30
0
41
1
10
11.0174353024401
20
1.61322009268682
30
0
41
1
10
11.0174643594567
20
1.8873766940219
30
0
41
1
10
11.0174735913729
20
1.97602486711199
30
0
41
1
10
11.0174912555283
20
2.14529759623662
30
0
41
1
10
11.0175082073682
20
2.30737522394941
30
0
41
1
10
11.017524409453
20
2.4552402862802
30
0
41
1
10
11.0175405203459
20
2.59588646391421
30
0
41
1
10
11.0175485746594
20
2.66293457160089
30
0
41
1
10
11.0175725670505
20
2.84978992716782
30
0
41
1
10
11.0175883632859
20
2.95558401491672
30
0
41
1
10
11.0176125425904
20
3.08676834726549
30
0
41
1
10
11.0176206740473
20
3.12587990533203
30
0
41
1
10
11.017637103573
20
3.19458187676281
30
0
41
1
10
11.0176453399407
20
3.22387035193867
30
0
41
1
10
11.0176697069477
20
3.29578515967452
30
0
41
1
10
11.0176856659208
20
3.3231648434712
30
0
41
1
10
11.0177030635263
20
3.33093176356945
30
0
41
1
10
11.0177054494761
20
3.33146266334225
30
0
41
1
10
11.0177078029365
20
3.33144916987422
30
0
0
SPLINE
5
B8
100
AcDbEntity
8
1
62
256
6
ByLayer
370
18
48
1
60
0
100
AcDbSpline
70
4
71
3
72
16
73
12
40
0
40
0
40
0
40
0
40
0.25
40
0.25
40
0.5
40
0.5
40
0.75
40
0.75
40
0.875
40
0.875
40
1
40
1
40
1
40
1
41
1
10
42.5332665496759
20
1.6591011064184
30
0
41
1
10
42.4831062642886
20
1.79502104699233
30
0
41
1
10
42.4326629755646
20
1.9310374751451
30
0
41
1
10
42.3312026155747
20
2.20058338093131
30
0
41
1
10
42.2803713128196
20
2.33495606994271
30
0
41
1
10
42.1781952115265
20
2.60166893011356
30
0
41
1
10
42.1268030569903
20
2.73382165686721
30
0
41
1
10
42.0493993633584
20
2.93080208670241
30
0
41
1
10
42.0235194346872
20
2.9961507298697
30
0
41
1
10
41.9714865913206
20
3.12576748353757
30
0
41
1
10
41.9454044258062
20
3.19031563328704
30
0
41
1
10
41.9192304396484
20
3.25450033877257
30
0
0
SPLINE
5
B9
100
AcDbEntity
8
1
62
256
6
ByLayer
370
18
48
1
60
0
100
AcDbSpline
70
4
71
3
72
14
73
10
40
0
40
0
40
0
40
0
40
0.0081209308451992
40
0.0081209308451992
40
0.338747287230133
40
0.338747287230133
40
0.669373643615066
40
0.669373643615066
40
1
40
1
40
1
40
1
41
1
10
11.9514268612736
20
3.17570311966736
30
0
41
1
10
11.9573705490865
20
3.17573882476538
30
0
41
1
10
11.9633157576277
20
3.17576833591033
30
0
41
1
10
12.2113703528101
20
3.17674252164116
30
0
41
1
10
12.4563432498045
20
3.1673794192973
30
0
41
1
10
12.9494331974779
20
3.1312169384212
30
0
41
1
10
13.1968607105335
20
3.10435683699305
30
0
41
1
10
13.6938399528644
20
3.03723555576687
30
0
41
1
10
13.9433793987487
20
2.99698799815562
30
0
41
1
10
14.1945031293488
20
2.94947678843391
30
0
0
SPLINE
5
BA
100
AcDbEntity
8
1
62
256
6
ByLayer
370
18
48
1
60
0
100
AcDbSpline
70
4
71
3
72
16
73
12
40
0
40
0
40
0
40
0
40
0.0865496013464678
40
0.0865496013464678
40
0.213084186224658
40
0.213084186224658
40
0.339618771102849
40
0.339618771102849
40
0.845757110615586
40
0.845757110615586
40
1
40
1
40
1
40
1
41
1
10
41.254612835663
20
-3.19071264413941
30
0
41
1
10
41.1450095286647
20
-3.19066259594828
30
0
41
1
10
41.0354094633251
20
-3.18909801497409
30
0
41
1
10
40.7655075730378
20
-3.18152983889345
30
0
41
1
10
40.6051743076658
20
-3.17380734699592
30
0
41
1
10
40.2842041428242
20
-3.15194345578894
30
0
41
1
10
40.1233660035655
20
-3.13777478990338
30
0
41
1
10
39.322044178279
20
-3.0514406275079
30
0
41
1
10
38.6878693953608
20
-2.93277621881023
30
0
41
1
10
37.8613556146058
20
-2.72091808658419
30
0
41
1
10
37.6683559315631
20
-2.66740762846163
30
0
41
1
10
37.4752325367226
20
-2.61004939902725
30
0
0
SPLINE
5
BB
100
AcDbEntity
8
1
62
256
6
ByLayer
370
13
48
1
60
0
100
AcDbSpline
70
4
71
3
72
26
73
22
40
0
40
0
40
0
40
0
40
0.133523009250591
40
0.133523009250591
40
0.181535220095882
40
0.181535220095882
40
0.229547430941172
40
0.229547430941172
40
0.32557185263175
40
0.32557185263175
40
0.517620696012906
40
0.517620696012906
40
0.613645117703483
40
0.613645117703483
40
0.709669539394059
40
0.709669539394059
40
0.805693961084635
40
0.805693961084635
40
0.901718382775211
40
0.901718382775211
40
1
40
1
40
1
40
1
41
1
10
37.4752325367343
20
-2.61004939903071
30
0
41
1
10
37.0346336590192
20
-2.47919020645429
30
0
41
1
10
36.5933908669338
20
-2.32830353643499
30
0
41
1
10
35.9898674312213
20
-2.09883389097985
30
0
41
1
10
35.829899831419
20
-2.03583687362556
30
0
41
1
10
35.5090205254775
20
-1.90555693536473
30
0
41
1
10
35.3481986539393
20
-1.83831103827438
30
0
41
1
10
34.8679216544803
20
-1.63211702474609
30
0
41
1
10
34.5494045303906
20
-1.48819080801079
30
0
41
1
10
33.5964415924323
20
-1.04154406568008
30
0
41
1
10
32.9642659133485
20
-0.724509268756634
30
0
41
1
10
32.0119794878345
20
-0.236836785422838
30
0
41
1
10
31.6937643447052
20
-0.0724637040332254
30
0
41
1
10
31.0543696827062
20
0.257151048404296
30
0
41
1
10
30.7324531841898
20
0.422802514587886
30
0
41
1
10
30.090881621236
20
0.747887113415487
30
0
41
1
10
29.7705771597703
20
0.907716987385726
30
0
41
1
10
29.1294411593023
20
1.21917942781394
30
0
41
1
10
28.8079953785089
20
1.37097113163713
30
0
41
1
10
28.1583219743376
20
1.66532420775326
30
0
41
1
10
27.8304258226656
20
1.80729472256056
30
0
41
1
10
27.5024199300097
20
1.94107352672478
30
0
0
SPLINE
5
BC
100
AcDbEntity
8
1
62
256
6
ByLayer
370
18
48
1
60
0
100
AcDbSpline
70
4
71
3
72
14
73
10
40
0
40
0
40
0
40
0
40
0.150909386927979
40
0.150909386927979
40
0.49488110444601
40
0.49488110444601
40
0.838852821964042
40
0.838852821964042
40
1
40
1
40
1
40
1
41
1
10
19.1776265528696
20
3.18719592554314
30
0
41
1
10
19.0656051957729
20
3.14145799012451
30
0
41
1
10
18.9534973157511
20
3.09445211577656
30
0
41
1
10
18.5853748168766
20
2.93597329239108
30
0
41
1
10
18.3283662304953
20
2.81871713972896
30
0
41
1
10
17.8116723729834
20
2.57231496069724
30
0
41
1
10
17.5554050617981
20
2.4448231848508
30
0
41
1
10
17.1798515244044
20
2.25589319588934
30
0
41
1
10
17.0601515649225
20
2.19537016513471
30
0
41
1
10
16.9403327180829
20
2.13506436885584
30
0
0
SPLINE
5
BD
100
AcDbEntity
8
1
62
256
6
ByLayer
370
18
48
1
60
0
100
AcDbSpline
70
4
71
3
72
16
73
12
40
0
40
0
40
0
40
0
40
0.25
40
0.25
40
0.5
40
0.5
40
0.75
40
0.75
40
0.875
40
0.875
40
1
40
1
40
1
40
1
41
1
10
41.5363191830385
20
0.702318818829127
30
0
41
1
10
41.5284771841866
20
0.732072106974073
30
0
41
1
10
41.5241534934935
20
0.762604233929494
30
0
41
1
10
41.5237069140505
20
0.825608140993609
30
0
41
1
10
41.5276270243888
20
0.857722782743792
30
0
41
1
10
41.5474858305229
20
0.919640017214732
30
0
41
1
10
41.5637286267902
20
0.949539188040575
30
0
41
1
10
41.5995243091211
20
0.982206289081319
30
0
41
1
10
41.6133515604594
20
0.9913644401733
30
0
41
1
10
41.6424220582453
20
1.00560869241991
30
0
41
1
10
41.6576870300158
20
1.01082821110413
30
0
41
1
10
41.6735113898757
20
1.01459414254276
30
0
0
SPLINE
5
BE
100
AcDbEntity
8
1
62
256
6
ByLayer
370
18
48
1
60
0
100
AcDbSpline
70
4
71
3
72
8
73
4
40
0
40
0
40
0
40
0
40
1
40
1
40
1
40
1
41
1
10
41.8482704110178
20
-3.32130545081912
30
0
41
1
10
41.8558920113669
20
-3.3009024617281
30
0
41
1
10
41.8635062875729
20
-3.2804906639422
30
0
41
1
10
41.8711129236121
20
-3.26007091021574
30
0
0
SPLINE
5
BF
100
AcDbEntity
8
1
62
256
6
ByLayer
370
18
48
1
60
0
100
AcDbSpline
70
4
71
3
72
66
73
62
40
0
40
0
40
0
40
0
40
0.0178770331282965
40
0.0178770331282965
40
0.0542519578272471
40
0.0542519578272471
40
0.0906268825261977
40
0.0906268825261977
40
0.127001807225148
40
0.127001807225148
40
0.163376731924099
40
0.163376731924099
40
0.181564194273575
40
0.181564194273575
40
0.199751656623051
40
0.199751656623051
40
0.236126581322003
40
0.236126581322003
40
0.272501506020956
40
0.272501506020956
40
0.308876430719908
40
0.308876430719908
40
0.34525135541886
40
0.34525135541886
40
0.381626280117812
40
0.381626280117812
40
0.418001204816764
40
0.418001204816764
40
0.454376129515716
40
0.454376129515716
40
0.490751054214668
40
0.490751054214668
40
0.527125978913621
40
0.527125978913621
40
0.563500903612573
40
0.563500903612573
40
0.599875828311525
40
0.599875828311525
40
0.636250753010477
40
0.636250753010477
40
0.654438215359954
40
0.654438215359954
40
0.67262567770943
40
0.67262567770943
40
0.709000602408382
40
0.709000602408382
40
0.745375527107335
40
0.745375527107335
40
0.781750451806287
40
0.781750451806287
40
0.818125376505239
40
0.818125376505239
40
0.854500301204191
40
0.854500301204191
40
0.890875225903144
40
0.890875225903144
40
0.927250150602096
40
0.927250150602096
40
0.963625075301048
40
0.963625075301048
40
1
40
1
40
1
40
1
41
1
10
35.6577115321801
20
-2.40633192065491
30
0
41
1
10
35.5295557798932
20
-2.44953407670522
30
0
41
1
10
35.401302433143
20
-2.49110433238394
30
0
41
1
10
35.0117215641053
20
-2.61226391260465
30
0
41
1
10
34.7507791027953
20
-2.68781736859938
30
0
41
1
10
34.2293752180278
20
-2.82275395450276
30
0
41
1
10
33.9689197500348
20
-2.88313815959802
30
0
41
1
10
33.4479716191415
20
-2.98694533670692
30
0
41
1
10
33.1870329918559
20
-3.03008892825304
30
0
41
1
10
32.6642011413225
20
-3.10282529905572
30
0
41
1
10
32.4036707060716
20
-3.13149438226267
30
0
41
1
10
32.0128235886237
20
-3.16113973941404
30
0
41
1
10
31.8825528066173
20
-3.1687694115333
30
0
41
1
10
31.6220507382623
20
-3.17872920950262
30
0
41
1
10
31.4918381882992
20
-3.18120992328014
30
0
41
1
10
31.1010088169348
20
-3.18401091567208
30
0
41
1
10
30.8397532722584
20
-3.17824726838597
30
0
41
1
10
30.3173274369788
20
-3.15014691809102
30
0
41
1
10
30.0569089807331
20
-3.12804846938383
30
0
41
1
10
29.5361226968227
20
-3.06496746239984
30
0
41
1
10
29.2755949537738
20
-3.02479784115218
30
0
41
1
10
28.7543384782109
20
-2.92923094223264
30
0
41
1
10
28.4929916327785
20
-2.87262557203613
30
0
41
1
10
27.9708196709709
20
-2.74702783777082
30
0
41
1
10
27.710308170361
20
-2.67725879594795
30
0
41
1
10
27.1894811178631
20
-2.52254041322982
30
0
41
1
10
26.9288256870982
20
-2.43778690346079
30
0
41
1
10
26.4070722335753
20
-2.25528077809255
30
0
41
1
10
26.1455182656192
20
-2.15794599934867
30
0
41
1
10
25.6249725977883
20
-1.95403225308041
30
0
41
1
10
25.3657718725796
20
-1.84662679900921
30
0
41
1
10
24.8489620104518
20
-1.62213465870354
30
0
41
1
10
24.5907483116152
20
-1.50631946163511
30
0
41
1
10
24.0748126658013
20
-1.26775741272351
30
0
41
1
10
23.8172454233639
20
-1.14459081555157
30
0
41
1
10
23.3011715093792
20
-0.893024390053085
30
0
41
1
10
23.0426398030352
20
-0.7637858160831
30
0
41
1
10
22.5248226364778
20
-0.501899009749678
30
0
41
1
10
22.2651502652649
20
-0.369490048240778
30
0
41
1
10
21.8739131001641
20
-0.16909931747287
30
0
41
1
10
21.7431542449838
20
-0.101833521376164
30
0
41
1
10
21.4822738962193
20
0.0326708741841344
30
0
41
1
10
21.3520441878972
20
0.0999552466902287
30
0
41
1
10
20.9614362277752
20
0.300976336886265
30
0
41
1
10
20.7010000560082
20
0.433878506321349
30
0
41
1
10
20.1803993557426
20
0.697625616215021
30
0
41
1
10
19.9200242561425
20
0.828261635851618
30
0
41
1
10
19.3977714007193
20
1.08437251795269
30
0
41
1
10
19.1368426753357
20
1.21036617649659
30
0
41
1
10
18.6162478630416
20
1.45384025000757
30
0
41
1
10
18.3560165547277
20
1.57077613258312
30
0
41
1
10
17.8353024557834
20
1.79757903507488
30
0
41
1
10
17.5750045106563
20
1.90762261633566
30
0
41
1
10
17.0526539054315
20
2.11593670043766
30
0
41
1
10
16.7924442333564
20
2.21374782910127
30
0
41
1
10
16.2731521192396
20
2.39655870115223
30
0
41
1
10
16.0136250226227
20
2.48204283178603
30
0
41
1
10
15.4947002572712
20
2.64012580684161
30
0
41
1
10
15.2355669983414
20
2.71288978285915
30
0
41
1
10
14.71594424498
20
2.84261675916267
30
0
41
1
10
14.4555222435243
20
2.8998048010771
30
0
41
1
10
14.194542043021
20
2.94944981114665
30
0
0
SPLINE
5
C0
100
AcDbEntity
8
1
62
256
6
ByLayer
370
18
48
1
60
0
100
AcDbSpline
70
4
71
3
72
68
73
64
40
0
40
0
40
0
40
0
40
0.0334252629196347
40
0.0334252629196347
40
0.0668505258392694
40
0.0668505258392694
40
0.100275788758904
40
0.100275788758904
40
0.133701051678539
40
0.133701051678539
40
0.167126314598174
40
0.167126314598174
40
0.200551577517808
40
0.200551577517808
40
0.233976840437443
40
0.233976840437443
40
0.267402103357078
40
0.267402103357078
40
0.300827366276712
40
0.300827366276712
40
0.334252629196347
40
0.334252629196347
40
0.367677892115982
40
0.367677892115982
40
0.401103155035616
40
0.401103155035616
40
0.417815786495434
40
0.417815786495434
40
0.434528417955251
40
0.434528417955251
40
0.467953680874884
40
0.467953680874884
40
0.501378943794518
40
0.501378943794518
40
0.534804206714151
40
0.534804206714151
40
0.568229469633784
40
0.568229469633784
40
0.601654732553417
40
0.601654732553417
40
0.63507999547305
40
0.63507999547305
40
0.668505258392683
40
0.668505258392683
40
0.701930521312316
40
0.701930521312316
40
0.73535578423195
40
0.73535578423195
40
0.768781047151583
40
0.768781047151583
40
0.802206310071216
40
0.802206310071216
40
0.835631572990849
40
0.835631572990849
40
0.869056835910482
40
0.869056835910482
40
0.902482098830115
40
0.902482098830115
40
0.935907361749749
40
0.935907361749749
40
0.969332624669382
40
0.969332624669382
40
1
40
1
40
1
40
1
41
1
10
19.1774328511143
20
3.18711683655315
30
0
41
1
10
19.4162490510238
20
3.22567610595181
30
0
41
1
10
19.6545935339437
20
3.25649810718841
30
0
41
1
10
20.1296435088535
20
3.30372563387255
30
0
41
1
10
20.3659821841344
20
3.32015130931342
30
0
41
1
10
20.8383673082365
20
3.3381707835926
30
0
41
1
10
21.0746449480208
20
3.33984721076268
30
0
41
1
10
21.5463722480999
20
3.32867811134716
30
0
41
1
10
21.7818013109016
20
3.31570573804254
30
0
41
1
10
22.254257739986
20
3.27546160204366
30
0
41
1
10
22.4910328755855
20
3.24823076393733
30
0
41
1
10
22.9649531174689
20
3.17890346904298
30
0
41
1
10
23.202560501349
20
3.13696763554594
30
0
41
1
10
23.6804885597487
20
3.03935686317158
30
0
41
1
10
23.9193519675383
20
2.98341784784077
30
0
41
1
10
24.3941821325763
20
2.85890390396281
30
0
41
1
10
24.6311913660669
20
2.79072568749606
30
0
41
1
10
25.1041644713268
20
2.64259445958748
30
0
41
1
10
25.3396701207532
20
2.56205608009674
30
0
41
1
10
25.8113322294498
20
2.39114700125211
30
0
41
1
10
26.0474571910196
20
2.30082980469496
30
0
41
1
10
26.5193270443802
20
2.10911327922472
30
0
41
1
10
26.7552440201311
20
2.00787628726351
30
0
41
1
10
27.2292220382355
20
1.79789765551357
30
0
41
1
10
27.4669436195516
20
1.68869344517535
30
0
41
1
10
27.8242325481546
20
1.51760773493416
30
0
41
1
10
27.9437225405167
20
1.45942540624952
30
0
41
1
10
28.182505331966
20
1.34229375663787
30
0
41
1
10
28.3017215257236
20
1.28322324407699
30
0
41
1
10
28.6586784691078
20
1.10420480001389
30
0
41
1
10
28.8954537487697
20
0.981944734216114
30
0
41
1
10
29.3680463249418
20
0.734238658848028
30
0
41
1
10
29.6042771400809
20
0.609565161878834
30
0
41
1
10
30.0760101842816
20
0.357490550190675
30
0
41
1
10
30.3111602698918
20
0.229418660119194
30
0
41
1
10
30.7828755244315
20
-0.0254385480726
30
0
41
1
10
31.0192008381188
20
-0.15266521913307
30
0
41
1
10
31.4920032968495
20
-0.408228816448855
30
0
41
1
10
31.7288065691738
20
-0.535951077319339
30
0
41
1
10
32.2049970057357
20
-0.787861833926428
30
0
41
1
10
32.4446562796138
20
-0.913174541259735
30
0
41
1
10
32.9204939101287
20
-1.15943494153799
30
0
41
1
10
33.1579125158248
20
-1.27892994330665
30
0
41
1
10
33.6315107919415
20
-1.51141888891149
30
0
41
1
10
33.867304088827
20
-1.62504008863752
30
0
41
1
10
34.3387380314247
20
-1.84389993214157
30
0
41
1
10
34.5746710642042
20
-1.94872265138682
30
0
41
1
10
35.0461382267904
20
-2.15051430787363
30
0
41
1
10
35.2814617672196
20
-2.24771971319672
30
0
41
1
10
35.7541492712446
20
-2.43062229147211
30
0
41
1
10
35.9911105919575
20
-2.51694104235764
30
0
41
1
10
36.465794393828
20
-2.6796857005892
30
0
41
1
10
36.7045645289376
20
-2.75569990025957
30
0
41
1
10
37.1821148519964
20
-2.89422317825168
30
0
41
1
10
37.419718247983
20
-2.95707211937736
30
0
41
1
10
37.8930149327132
20
-3.06955679809497
30
0
41
1
10
38.1295556298574
20
-3.11852683930096
30
0
41
1
10
38.6016171747466
20
-3.20292988007594
30
0
41
1
10
38.8368625768651
20
-3.23842703892524
30
0
41
1
10
39.3079856496164
20
-3.29480970160651
30
0
41
1
10
39.5439997628344
20
-3.31574848151081
30
0
41
1
10
39.9965342519152
20
-3.3422223454462
30
0
41
1
10
40.2130240202123
20
-3.34878490583043
30
0
41
1
10
40.4304985470297
20
-3.34910170954044
30
0
0
SPLINE
5
C1
100
AcDbEntity
8
1
62
256
6
ByLayer
370
13
48
1
60
0
100
AcDbSpline
70
4
71
3
72
10
73
6
40
0
40
0
40
0
40
0
40
0.5
40
0.5
40
1
40
1
40
1
40
1
41
1
10
11.0173074969215
20
0.596424791944543
30
0
41
1
10
11.0277003204097
20
0.576985421959307
30
0
41
1
10
11.0423705955151
20
0.559110137591318
30
0
41
1
10
11.0814206722836
20
0.52675328319043
30
0
41
1
10
11.1048853891444
20
0.513077759634967
30
0
41
1
10
11.1324983959961
20
0.502520980675513
30
0
0
SPLINE
5
C2
100
AcDbEntity
8
1
62
256
6
ByLayer
370
13
48
1
60
0
100
AcDbSpline
70
4
71
3
72
8
73
4
40
0
40
0
40
0
40
0
40
1
40
1
40
1
40
1
41
1
10
11.250377474282
20
0.462477689553594
30
0
41
1
10
11.2092940343858
20
0.47499236043754
30
0
41
1
10
11.1691667130607
20
0.488502249571127
30
0
41
1
10
11.1324983959961
20
0.502520980675513
30
0
0
SPLINE
5
C3
100
AcDbEntity
8
1
62
256
6
ByLayer
370
18
48
1
60
0
100
AcDbSpline
70
4
71
3
72
12
73
8
40
0
40
0
40
0
40
0
40
0.383142126877032
40
0.383142126877032
40
0.766284253754065
40
0.766284253754065
40
1
40
1
40
1
40
1
41
1
10
19.1774328511144
20
-3.18711683655315
30
0
41
1
10
19.4162490510239
20
-3.22567610595183
30
0
41
1
10
19.6545935339439
20
-3.25649810718846
30
0
41
1
10
20.129643508854
20
-3.3037256338726
30
0
41
1
10
20.365982184135
20
-3.32015130931347
30
0
41
1
10
20.7462516226901
20
-3.33465696374151
30
0
41
1
10
20.890360156361
20
-3.33742417860031
30
0
41
1
10
21.0343870697465
20
-3.33747910906646
30
0
0
SPLINE
5
C4
100
AcDbEntity
8
1
62
256
6
ByLayer
370
18
48
1
60
0
100
AcDbSpline
70
4
71
3
72
24
73
20
40
0
40
0
40
0
40
0
40
0.0895637276218063
40
0.0895637276218063
40
0.203368261669081
40
0.203368261669081
40
0.317172795716355
40
0.317172795716355
40
0.430977329763629
40
0.430977329763629
40
0.544781863810903
40
0.544781863810903
40
0.658586397858177
40
0.658586397858177
40
0.772390931905452
40
0.772390931905452
40
0.886195465952726
40
0.886195465952726
40
1
40
1
40
1
40
1
41
1
10
35.6689136904772
20
2.39691263731771
30
0
41
1
10
35.8551138961697
20
2.46717032546982
30
0
41
1
10
36.0416653358994
20
2.53427366355192
30
0
41
1
10
36.4657943938368
20
2.67968570059205
30
0
41
1
10
36.7045645289464
20
2.75569990026233
30
0
41
1
10
37.1821148520054
20
2.89422317825418
30
0
41
1
10
37.4197182479923
20
2.95707211937972
30
0
41
1
10
37.8930149327226
20
3.06955679809704
30
0
41
1
10
38.1295556298668
20
3.11852683930283
30
0
41
1
10
38.6016171747563
20
3.2029298800775
30
0
41
1
10
38.8368625768749
20
3.23842703892663
30
0
41
1
10
39.3079856496265
20
3.29480970160753
30
0
41
1
10
39.5439997628446
20
3.31574848151161
30
0
41
1
10
40.0160066794168
20
3.3433615081145
30
0
41
1
10
40.251961120112
20
3.34991586447146
30
0
41
1
10
40.726428901285
20
3.34815522338423
30
0
41
1
10
40.9644247067197
20
3.33993524569962
30
0
41
1
10
41.4418801258755
20
3.30824351837373
30
0
41
1
10
41.6805479194916
20
3.28494262613722
30
0
41
1
10
41.919230439644
20
3.25450033878317
30
0
0
SPLINE
5
C5
100
AcDbEntity
8
1
62
256
6
ByLayer
370
18
48
1
60
0
100
AcDbSpline
70
4
71
3
72
22
73
18
40
0
40
0
40
0
40
0
40
0.124999999999995
40
0.124999999999995
40
0.187499999999994
40
0.187499999999994
40
0.249999999999994
40
0.249999999999994
40
0.499999999999996
40
0.499999999999996
40
0.624999999999997
40
0.624999999999997
40
0.749999999999998
40
0.749999999999998
40
0.874999999999999
40
0.874999999999999
40
1
40
1
40
1
40
1
41
1
10
41.8386040369563
20
-3.19090918349539
30
0
41
1
10
41.79053873796
20
-3.19083279204892
30
0
41
1
10
41.7448754911083
20
-3.18350068107122
30
0
41
1
10
41.6801693125926
20
-3.1610582647865
30
0
41
1
10
41.6592337389914
20
-3.15166493739895
30
0
41
1
10
41.6186834392603
20
-3.12888848630865
30
0
41
1
10
41.5990426215908
20
-3.11546448861165
30
0
41
1
10
41.5056534756923
20
-3.03909783982837
30
0
41
1
10
41.4449686154185
20
-2.94833952788758
30
0
41
1
10
41.3763333448778
20
-2.76484447444653
30
0
41
1
10
41.3571634972196
20
-2.69504802761207
30
0
41
1
10
41.3279410750275
20
-2.54302291590719
30
0
41
1
10
41.3177007779496
20
-2.46056121313788
30
0
41
1
10
41.3059207877204
20
-2.28280033864874
30
0
41
1
10
41.3043798229742
20
-2.18750304312778
30
0
41
1
10
41.310373568483
20
-1.9835175774968
30
0
41
1
10
41.3179019961034
20
-1.87626582441695
30
0
41
1
10
41.3297238875731
20
-1.76522461823137
30
0
0
SPLINE
5
C6
100
AcDbEntity
8
1
62
256
6
ByLayer
370
13
48
1
60
0
100
AcDbSpline
70
4
71
3
72
10
73
6
40
0
40
0
40
0
40
0
40
0.325194124901088
40
0.325194124901088
40
1
40
1
40
1
40
1
41
1
10
11.2512093190239
20
-3.17385879456063
30
0
41
1
10
11.2512171615844
20
-3.17379816935164
30
0
41
1
10
11.2512248293339
20
-3.17254717536602
30
0
41
1
10
11.2512476131362
20
-3.16503379845059
30
0
41
1
10
11.2512619450941
20
-3.15489764892934
30
0
41
1
10
11.2512748725391
20
-3.13980296822226
30
0
0
SPLINE
5
C7
100
AcDbEntity
8
1
62
256
6
ByLayer
370
18
48
1
60
0
100
AcDbSpline
70
4
71
3
72
46
73
42
40
0
40
0
40
0
40
0
40
0.0474900121405611
40
0.0474900121405611
40
0.0712350182108425
40
0.0712350182108425
40
0.0949800242811238
40
0.0949800242811238
40
0.189960048562252
40
0.189960048562252
40
0.284940072843381
40
0.284940072843381
40
0.308685078913663
40
0.308685078913663
40
0.332430084983945
40
0.332430084983945
40
0.379920097124508
40
0.379920097124508
40
0.474900121405635
40
0.474900121405635
40
0.498645127475917
40
0.498645127475917
40
0.522390133546199
40
0.522390133546199
40
0.569880145686765
40
0.569880145686765
40
0.664860169967898
40
0.664860169967898
40
0.712350182108465
40
0.712350182108465
40
0.736095188178747
40
0.736095188178747
40
0.75984019424903
40
0.75984019424903
40
0.854820218530161
40
0.854820218530161
40
0.902310230670727
40
0.902310230670727
40
0.949800242811293
40
0.949800242811293
40
1
40
1
40
1
40
1
41
1
10
41.8482704110179
20
-3.32130545081912
30
0
41
1
10
41.5264750408446
20
-3.34395049084284
30
0
41
1
10
41.2052004332539
20
-3.35292626371344
30
0
41
1
10
40.7228487190216
20
-3.3459753661339
30
0
41
1
10
40.561991450036
20
-3.34025522746956
30
0
41
1
10
40.2399346421034
20
-3.32201008482741
30
0
41
1
10
40.0785065144244
20
-3.30945764245834
30
0
41
1
10
39.2739437746877
20
-3.23010509855476
30
0
41
1
10
38.6371421389007
20
-3.11363672736604
30
0
41
1
10
37.3632817510373
20
-2.78645947911013
30
0
41
1
10
36.7261662227289
20
-2.57583491483652
30
0
41
1
10
35.9210504061557
20
-2.26157889730533
30
0
41
1
10
35.7597014967046
20
-2.19621198513326
30
0
41
1
10
35.4384425954161
20
-2.06180509759463
30
0
41
1
10
35.278214720519
20
-1.99264661879568
30
0
41
1
10
34.7984564610955
20
-1.7797986985691
30
0
41
1
10
34.4798651260547
20
-1.63071385493066
30
0
41
1
10
33.5253287118483
20
-1.16621430638381
30
0
41
1
10
32.8902837375917
20
-0.83413583978961
30
0
41
1
10
32.0900244271307
20
-0.405217928918404
30
0
41
1
10
31.9296497114763
20
-0.3187422345583
30
0
41
1
10
31.6079637164874
20
-0.14493743652983
30
0
41
1
10
31.446418366686
20
-0.0574620478745658
30
0
41
1
10
30.9639356288571
20
0.203820721239481
30
0
41
1
10
30.6440498150291
20
0.376901885709572
30
0
41
1
10
29.6869152309698
20
0.887786311007915
30
0
41
1
10
29.0524690410868
20
1.21774770655065
30
0
41
1
10
28.0959301290105
20
1.6782455095159
30
0
41
1
10
27.7762307996873
20
1.82593894625003
30
0
41
1
10
27.2941399526074
20
2.03654962097241
30
0
41
1
10
27.1326932157265
20
2.10506268229182
30
0
41
1
10
26.8105378458349
20
2.23737915693764
30
0
41
1
10
26.6499464858748
20
2.30115282163601
30
0
41
1
10
25.8487758334105
20
2.60737960453164
30
0
41
1
10
25.2134227867429
20
2.8117381732186
30
0
41
1
10
24.2587736994335
20
3.04768326680139
30
0
41
1
10
23.9402213682207
20
3.11450947422685
30
0
41
1
10
23.3007297657069
20
3.22303001579755
30
0
41
1
10
22.9798035690424
20
3.26484984417564
30
0
41
1
10
22.3162367129783
20
3.3233218751289
30
0
41
1
10
21.9773364291836
20
3.33807273693478
30
0
41
1
10
21.63960086828
20
3.33785095223894
30
0
0
SPLINE
5
C8
100
AcDbEntity
8
1
62
256
6
ByLayer
370
18
48
1
60
0
100
AcDbSpline
70
4
71
3
72
16
73
12
40
0
40
0
40
0
40
0
40
0.253306276066993
40
0.253306276066993
40
0.372566078171954
40
0.372566078171954
40
0.491825880276916
40
0.491825880276916
40
0.730345484486838
40
0.730345484486838
40
1
40
1
40
1
40
1
41
1
10
21.8263154434722
20
-3.17899510905545
30
0
41
1
10
21.4886755179455
20
-3.17803422929123
30
0
41
1
10
21.1505710203702
20
-3.16280828580483
30
0
41
1
10
20.6513582162503
20
-3.11934465295002
30
0
41
1
10
20.4912138715451
20
-3.10223007324635
30
0
41
1
10
20.1701092051648
20
-3.06164314596202
30
0
41
1
10
20.0092272956663
20
-3.03817091185638
30
0
41
1
10
19.5286397077602
20
-2.95899990832686
30
0
41
1
10
19.2097742853772
20
-2.89442036167125
30
0
41
1
10
18.5320905438245
20
-2.73323589774796
30
0
41
1
10
18.173494499161
20
-2.63350895993256
30
0
41
1
10
17.8147434537288
20
-2.52102446671734
30
0
0
SPLINE
5
C9
100
AcDbEntity
8
1
62
256
6
ByLayer
370
13
48
1
60
0
100
AcDbSpline
70
4
71
3
72
18
73
14
40
0
40
0
40
0
40
0
40
0.126569667068666
40
0.126569667068666
40
0.272141389223888
40
0.272141389223888
40
0.3449272503015
40
0.3449272503015
40
0.41771311137911
40
0.41771311137911
40
0.708856555689555
40
0.708856555689555
40
1
40
1
40
1
40
1
41
1
10
17.8147434537053
20
-2.52102446670995
30
0
41
1
10
17.5388367986908
20
-2.43451539402761
30
0
41
1
10
17.262838464257
20
-2.34046051831831
30
0
41
1
10
16.6680731132869
20
-2.12341357989467
30
0
41
1
10
16.3491119460713
20
-1.99804695935404
30
0
41
1
10
15.8684869300172
20
-1.79761895081617
30
0
41
1
10
15.7075500225112
20
-1.72865022290455
30
0
41
1
10
15.3865048577835
20
-1.58777039098982
30
0
41
1
10
15.2264212573983
20
-1.51587532305882
30
0
41
1
10
14.4277407137556
20
-1.15001180366937
30
0
41
1
10
13.7942763439661
20
-0.836996003066645
30
0
41
1
10
12.526653067495
20
-0.193182227972443
30
0
41
1
10
11.8920263348543
20
0.136679471335583
30
0
41
1
10
11.2503774742819
20
0.462477689553594
30
0
0
SPLINE
5
CA
100
AcDbEntity
8
1
62
256
6
ByLayer
370
18
48
1
60
0
100
AcDbSpline
70
4
71
3
72
18
73
14
40
0
40
0
40
0
40
0
40
0.250000000000015
40
0.250000000000015
40
0.50000000000003
40
0.50000000000003
40
0.625000000000023
40
0.625000000000023
40
0.750000000000015
40
0.750000000000015
40
0.875000000000008
40
0.875000000000008
40
1
40
1
40
1
40
1
41
1
10
41.6735113898758
20
1.01459414254197
30
0
41
1
10
41.768679094909
20
1.03724245536466
30
0
41
1
10
41.8631706578855
20
1.06298621474846
30
0
41
1
10
42.0477719474088
20
1.12462492589151
30
0
41
1
10
42.1385766843399
20
1.16043280974202
30
0
41
1
10
42.2672350076777
20
1.22937168835381
30
0
41
1
10
42.3085221382404
20
1.25479498251067
30
0
41
1
10
42.386065213643
20
1.31348288851675
30
0
41
1
10
42.421954441427
20
1.34653136413942
30
0
41
1
10
42.4822804796479
20
1.42241360918388
30
0
41
1
10
42.5066251109672
20
1.46572704348759
30
0
41
1
10
42.5351766829327
20
1.55978486827428
30
0
41
1
10
42.5390446561204
20
1.60966346324096
30
0
41
1
10
42.5332665496759
20
1.6591011064184
30
0
0
SPLINE
5
CB
100
AcDbEntity
8
1
62
256
6
ByLayer
370
18
48
1
60
0
100
AcDbSpline
70
4
71
3
72
14
73
10
40
0
40
0
40
0
40
0
40
0.67900197895826
40
0.67900197895826
40
0.763877226328041
40
0.763877226328041
40
0.848752473697823
40
0.848752473697823
40
1
40
1
40
1
40
1
41
1
10
11.2034338353774
20
0.389259156892365
30
0
41
1
10
12.4913036074203
20
-0.287620639661668
30
0
41
1
10
13.7481507774935
20
-0.974087899380322
30
0
41
1
10
15.1876749096946
20
-1.6438692460593
30
0
41
1
10
15.3479689842528
20
-1.71688270023898
30
0
41
1
10
15.6694409641823
20
-1.85973993198402
30
0
41
1
10
15.8305563088655
20
-1.9295486202559
30
0
41
1
10
16.2766651617878
20
-2.11734221300057
30
0
41
1
10
16.5611847409531
20
-2.23061892604937
30
0
41
1
10
16.8449910911272
20
-2.33616897121061
30
0
0
SPLINE
5
CC
100
AcDbEntity
8
1
62
256
6
ByLayer
370
13
48
1
60
0
100
AcDbSpline
70
4
71
3
72
20
73
16
40
0
40
0
40
0
40
0
40
0.0167115778504156
40
0.0167115778504156
40
0.323343475600153
40
0.323343475600153
40
0.476659424475021
40
0.476659424475021
40
0.553317398912455
40
0.553317398912455
40
0.629975373349889
40
0.629975373349889
40
0.936607271099621
40
0.936607271099621
40
1
40
1
40
1
40
1
41
1
10
16.8449911482219
20
-2.33616899244458
30
0
41
1
10
16.8797107710001
20
-2.34908152141102
30
0
41
1
10
16.9144197195928
20
-2.36187841305494
30
0
41
1
10
17.5857967058481
20
-2.60721603658516
30
0
41
1
10
18.2190647122557
20
-2.80119383838371
30
0
41
1
10
19.1739979011442
20
-3.02232322245362
30
0
41
1
10
19.4931552852292
20
-3.0844653642406
30
0
41
1
10
19.9742975072414
20
-3.15918427728417
30
0
41
1
10
20.1354035609636
20
-3.1810383023309
30
0
41
1
10
20.4568166609953
20
-3.21810989307252
30
0
41
1
10
20.6170960271441
20
-3.2333353805854
30
0
41
1
10
21.4167117394938
20
-3.29290336256875
30
0
41
1
10
22.0516161295082
20
-3.28798256946675
30
0
41
1
10
22.8190551928275
20
-3.21952199661192
30
0
41
1
10
22.9505999283331
20
-3.20560870468898
30
0
41
1
10
23.082276457301
20
-3.18951610772149
30
0
0
SPLINE
5
CD
100
AcDbEntity
8
1
62
256
6
ByLayer
370
18
48
1
60
0
100
AcDbSpline
70
4
71
3
72
14
73
10
40
0
40
0
40
0
40
0
40
0.177754789881615
40
0.177754789881615
40
0.479373308677734
40
0.479373308677734
40
0.780991827473854
40
0.780991827473854
40
1
40
1
40
1
40
1
41
1
10
15.409421074906
20
-2.26905591771359
30
0
41
1
10
15.3392267367327
20
-2.31456098117093
30
0
41
1
10
15.2687157040359
20
-2.35951836705806
30
0
41
1
10
15.077365112685
20
-2.47875417512415
30
0
41
1
10
14.9557106949544
20
-2.55166296710385
30
0
41
1
10
14.7089875083322
20
-2.69187068665326
30
0
41
1
10
14.5858575237863
20
-2.75805863767494
30
0
41
1
10
14.3733962979362
20
-2.86538237906464
30
0
41
1
10
14.2839991639332
20
-2.90841748514805
30
0
41
1
10
14.1945140586756
20
-2.94946264711427
30
0
0
SPLINE
5
CE
100
AcDbEntity
8
1
62
256
6
ByLayer
370
18
48
1
60
0
100
AcDbSpline
70
4
71
3
72
8
73
4
40
0
40
0
40
0
40
0
40
1
40
1
40
1
40
1
41
1
10
41.8874909955683
20
-3.174146153642
30
0
41
1
10
41.8692394897352
20
-3.18532856423411
30
0
41
1
10
41.8529325005467
20
-3.19094866849284
30
0
41
1
10
41.8386040369611
20
-3.19090918349542
30
0
0
SPLINE
5
CF
100
AcDbEntity
8
1
62
256
6
ByLayer
370
18
48
1
60
0
100
AcDbSpline
70
2053
71
3
72
62
73
58
40
0
40
0
40
0
40
0
40
0.0312499999999992
40
0.0312499999999992
40
0.0624999999999983
40
0.0624999999999983
40
0.0937499999999975
40
0.0937499999999975
40
0.124999999999997
40
0.124999999999997
40
0.156249999999996
40
0.156249999999996
40
0.187499999999995
40
0.187499999999995
40
0.218749999999994
40
0.218749999999994
40
0.249999999999993
40
0.249999999999993
40
0.281249999999992
40
0.281249999999992
40
0.312499999999992
40
0.312499999999992
40
0.374999999999993
40
0.374999999999993
40
0.437499999999995
40
0.437499999999995
40
0.468749999999996
40
0.468749999999996
40
0.499999999999996
40
0.499999999999996
40
0.531249999999997
40
0.531249999999997
40
0.562499999999998
40
0.562499999999998
40
0.593749999999999
40
0.593749999999999
40
0.625
40
0.625
40
0.65625
40
0.65625
40
0.687500000000001
40
0.687500000000001
40
0.718750000000002
40
0.718750000000002
40
0.750000000000003
40
0.750000000000003
40
0.781250000000004
40
0.781250000000004
40
0.812500000000005
40
0.812500000000005
40
0.875000000000003
40
0.875000000000003
40
0.937500000000001
40
0.937500000000001
40
0.968750000000001
40
0.968750000000001
40
1
40
1
40
1
40
1
41
1
10
42.1884372519287
20
-1.80256522331614
30
0
41
1
10
42.2082739777292
20
-1.77367105279728
30
0
41
1
10
42.2276661199217
20
-1.74279224245799
30
0
41
1
10
42.2654927785965
20
-1.6767596673063
30
0
41
1
10
42.2841274732388
20
-1.64118241353529
30
0
41
1
10
42.3191640552183
20
-1.56715105284746
30
0
41
1
10
42.3355037785741
20
-1.52892694960843
30
0
41
1
10
42.3654931180268
20
-1.44972049056389
30
0
41
1
10
42.3788542896821
20
-1.40935747352728
30
0
41
1
10
42.4010159455078
20
-1.33035290838947
30
0
41
1
10
42.4100923871456
20
-1.29058620091183
30
0
41
1
10
42.4227975659122
20
-1.21596933981465
30
0
41
1
10
42.4265541654
20
-1.18081754753302
30
0
41
1
10
42.4288699805118
20
-1.11587786676887
30
0
41
1
10
42.4274242168393
20
-1.08708912452093
30
0
41
1
10
42.419911539204
20
-1.03604507156098
30
0
41
1
10
42.4138548126828
20
-1.01421273349348
30
0
41
1
10
42.3980907002306
20
-0.978080334630164
30
0
41
1
10
42.3882427155145
20
-0.963520740496421
30
0
41
1
10
42.3658154637248
20
-0.941672904443749
30
0
41
1
10
42.3532047503139
20
-0.934227781705374
30
0
41
1
10
42.3115499293594
20
-0.921411018108188
30
0
41
1
10
42.2796712137657
20
-0.925667716266304
30
0
41
1
10
42.2096374884973
20
-0.956829393306037
30
0
41
1
10
42.1725841215617
20
-0.983217386962764
30
0
41
1
10
42.1144344576146
20
-1.03871714667977
30
0
41
1
10
42.0945865522195
20
-1.05999765509748
30
0
41
1
10
42.0552932565096
20
-1.1068695965821
30
0
41
1
10
42.0356790171651
20
-1.13260637782784
30
0
41
1
10
41.9965214124665
20
-1.18911156994696
30
0
41
1
10
41.9767591207449
20
-1.22026446738627
30
0
41
1
10
41.9385775483066
20
-1.28648090901879
30
0
41
1
10
41.9201846243904
20
-1.32141422081702
30
0
41
1
10
41.8849916188871
20
-1.39544654036598
30
0
41
1
10
41.8682887560534
20
-1.43447424874367
30
0
41
1
10
41.8385926697412
20
-1.51284324250764
30
0
41
1
10
41.8252456878021
20
-1.55303583007114
30
0
41
1
10
41.8027466966694
20
-1.63338896216254
30
0
41
1
10
41.7939404057586
20
-1.67219758524098
30
0
41
1
10
41.781198820832
20
-1.7470875748289
30
0
41
1
10
41.7774001334481
20
-1.78283616965044
30
0
41
1
10
41.7750397468313
20
-1.84737802504699
30
0
41
1
10
41.7764470617762
20
-1.87695637062936
30
0
41
1
10
41.7837854885162
20
-1.92812430781879
30
0
41
1
10
41.7897384460921
20
-1.95023808266978
30
0
41
1
10
41.8054043013049
20
-1.98704712693106
30
0
41
1
10
41.8150076454631
20
-2.0016404770841
30
0
41
1
10
41.8373405225173
20
-2.02409743748692
30
0
41
1
10
41.8500651651037
20
-2.03185340400049
30
0
41
1
10
41.8913467331521
20
-2.0451554161599
30
0
41
1
10
41.9237660412517
20
-2.04099685735747
30
0
41
1
10
41.9933052248455
20
-2.01000534437631
30
0
41
1
10
42.0312866295651
20
-1.98275360409778
30
0
41
1
10
42.0892315510381
20
-1.92692750724623
30
0
41
1
10
42.1087845952121
20
-1.90580737156165
30
0
41
1
10
42.1484008988145
20
-1.85818476956317
30
0
41
1
10
42.1686005261282
20
-1.83145939383499
30
0
41
1
10
42.1884372519287
20
-1.80256522331614
30
0
0
SPLINE
5
D0
100
AcDbEntity
8
1
62
256
6
ByLayer
370
18
48
1
60
0
100
AcDbSpline
70
4
71
3
72
14
73
10
40
0
40
0
40
0
40
0
40
0.25
40
0.25
40
0.5
40
0.5
40
0.75
40
0.75
40
1
40
1
40
1
40
1
41
1
10
14.1945031293469
20
-2.9494767884344
30
0
41
1
10
13.9445779803005
20
-2.99676123320865
30
0
41
1
10
13.6961343214557
20
-3.03686808574139
30
0
41
1
10
13.2011896048593
20
-3.10382901307898
30
0
41
1
10
12.9546992293567
20
-3.13068727966683
30
0
41
1
10
12.4633058068555
20
-3.16700872446819
30
0
41
1
10
12.2183859800962
20
-3.17662572899968
30
0
41
1
10
11.7300994035049
20
-3.17499385407299
30
0
41
1
10
11.4887706879166
20
-3.16380896860534
30
0
41
1
10
11.2512748733359
20
-3.13980296829749
30
0
0
SPLINE
5
D1
100
AcDbEntity
8
1
62
256
6
ByLayer
370
18
48
1
60
0
100
AcDbSpline
70
4
71
3
72
10
73
6
40
0
40
0
40
0
40
0
40
0.5
40
0.5
40
1
40
1
40
1
40
1
41
1
10
11.0494320603483
20
0.505036101908019
30
0
41
1
10
11.0600514225592
20
0.489813587407809
30
0
41
1
10
11.0725640350215
20
0.475352802021007
30
0
41
1
10
11.1002755771285
20
0.449766452701198
30
0
41
1
10
11.1155626607452
20
0.438447706738032
30
0
41
1
10
11.1324983959961
20
0.428821122543866
30
0
0
SPLINE
5
D2
100
AcDbEntity
8
1
62
256
6
ByLayer
370
18
48
1
60
0
100
AcDbSpline
70
4
71
3
72
20
73
16
40
0
40
0
40
0
40
0
40
0.125000000000003
40
0.125000000000003
40
0.187500000000005
40
0.187500000000005
40
0.250000000000006
40
0.250000000000006
40
0.500000000000007
40
0.500000000000007
40
0.625000000000003
40
0.625000000000003
40
0.749999999999999
40
0.749999999999999
40
1
40
1
40
1
40
1
41
1
10
39.1823434169233
20
0.89724954966178
30
0
41
1
10
39.2287143494704
20
0.762022333559628
30
0
41
1
10
39.2844411529007
20
0.628871367790794
30
0
41
1
10
39.3799291828786
20
0.431785278658936
30
0
41
1
10
39.4137525151046
20
0.366532420665493
30
0
41
1
10
39.4851311065108
20
0.236854892099984
30
0
41
1
10
39.5228532218734
20
0.172167077606474
30
0
41
1
10
39.71785080662
20
-0.14532416279863
30
0
41
1
10
39.8936277926873
20
-0.381080061774867
30
0
41
1
10
40.1782318464205
20
-0.715407559157285
30
0
41
1
10
40.2771326127245
20
-0.823995997014094
30
0
41
1
10
40.4787261662934
20
-1.03254265321703
30
0
41
1
10
40.5813962667855
20
-1.13255474999895
30
0
41
1
10
40.8942750176747
20
-1.42151682555141
30
0
41
1
10
41.1092806934982
20
-1.59955505697968
30
0
41
1
10
41.3297238875731
20
-1.76522461823137
30
0
0
SPLINE
5
D3
100
AcDbEntity
8
1
62
256
6
ByLayer
370
18
48
1
60
0
100
AcDbSpline
70
4
71
3
72
32
73
28
40
0
40
0
40
0
40
0
40
0.249999999999989
40
0.249999999999989
40
0.374999999999987
40
0.374999999999987
40
0.499999999999986
40
0.499999999999986
40
0.624999999999985
40
0.624999999999985
40
0.687499999999984
40
0.687499999999984
40
0.749999999999983
40
0.749999999999983
40
0.812499999999983
40
0.812499999999983
40
0.843749999999986
40
0.843749999999986
40
0.874999999999988
40
0.874999999999988
40
0.906249999999991
40
0.906249999999991
40
0.937499999999994
40
0.937499999999994
40
0.968749999999997
40
0.968749999999997
40
1
40
1
40
1
40
1
41
1
10
39.1823434169235
20
0.897249549662064
30
0
41
1
10
39.4149748260106
20
0.750697467679913
30
0
41
1
10
39.6487872914512
20
0.617617611783544
30
0
41
1
10
40.0023158647531
20
0.450049874450343
30
0
41
1
10
40.1206194698552
20
0.399449674185263
30
0
41
1
10
40.3583127546158
20
0.310638049118893
30
0
41
1
10
40.4773680598475
20
0.27262198834012
30
0
41
1
10
40.7118841426864
20
0.212240882885368
30
0
41
1
10
40.8278777944564
20
0.189649854429035
30
0
41
1
10
40.9997262551916
20
0.168637752450451
30
0
41
1
10
41.0567402221114
20
0.163770124036375
30
0
41
1
10
41.1694627062615
20
0.158674620417202
30
0
41
1
10
41.2256782847871
20
0.157317610344052
30
0
41
1
10
41.33144545872
20
0.172283239433426
30
0
41
1
10
41.3808605986782
20
0.187496304585181
30
0
41
1
10
41.445544815925
20
0.226694208651054
30
0
41
1
10
41.4656850700928
20
0.242577642202519
30
0
41
1
10
41.5011315755924
20
0.279415770447628
30
0
41
1
10
41.5166344767957
20
0.300449830253427
30
0
41
1
10
41.5422498400451
20
0.348866482893555
30
0
41
1
10
41.5514919502525
20
0.375642194093587
30
0
41
1
10
41.5628094918209
20
0.434207735086801
30
0
41
1
10
41.5655722743864
20
0.465886996608845
30
0
41
1
10
41.5655229839626
20
0.530878073422031
30
0
41
1
10
41.5627977238432
20
0.564241951439641
30
0
41
1
10
41.5528508572032
20
0.632415435880745
30
0
41
1
10
41.545498344689
20
0.66749220807975
30
0
41
1
10
41.5363191830385
20
0.702318818829127
30
0
0
SPLINE
5
D4
100
AcDbEntity
8
1
62
256
6
ByLayer
370
13
48
1
60
0
100
AcDbSpline
70
4
71
3
72
29
73
25
40
0
40
0
40
0
40
0
40
0.137767127345913
40
0.137767127345913
40
0.20665069101887
40
0.20665069101887
40
0.275534254691827
40
0.344417818364783
40
0.344417818364783
40
0.41330138203774
40
0.41330138203774
40
0.482184945710697
40
0.482184945710697
40
0.551068509383653
40
0.551068509383653
40
0.688835636729566
40
0.688835636729566
40
0.757719200402523
40
0.757719200402523
40
0.826602764075479
40
0.826602764075479
40
0.964369891421392
40
0.964369891421392
40
1
40
1
40
1
40
1
41
1
10
11.250377474282
20
0.462477689553594
30
0
41
1
10
11.2504436800614
20
0.669727720139093
30
0
41
1
10
11.2504994277322
20
0.871587859573225
30
0
41
1
10
11.2505730283739
20
1.16638537315691
30
0
41
1
10
11.2505958954548
20
1.26341514453807
30
0
41
1
10
11.2506383941185
20
1.45118898980377
30
0
41
1
10
11.250677900438
20
1.63361526205796
30
0
41
1
10
11.2507133742215
20
1.80553128286476
30
0
41
1
10
11.2507476975462
20
1.9721325489335
30
0
41
1
10
11.2507643360979
20
2.05302756842431
30
0
41
1
10
11.2507970010402
20
2.2080967165445
30
0
41
1
10
11.250812953419
20
2.2819162689031
30
0
41
1
10
11.2508448084082
20
2.42216176147059
30
0
41
1
10
11.2508607626324
20
2.48876273120195
30
0
41
1
10
11.2509086526384
20
2.67444283183599
30
0
41
1
10
11.2509408948981
20
2.78049949245539
30
0
41
1
10
11.2509915037716
20
2.91333725444878
30
0
41
1
10
11.2510087567913
20
2.95327024466505
30
0
41
1
10
11.2510438986107
20
3.02374709913087
30
0
41
1
10
11.2510615461817
20
3.05382653153362
30
0
41
1
10
11.2511144696486
20
3.12913324551934
30
0
41
1
10
11.2511498166523
20
3.15956778547951
30
0
41
1
10
11.2511922399418
20
3.17260895093318
30
0
41
1
10
11.2512008595622
20
3.17391971268427
30
0
41
1
10
11.2512092779583
20
3.17385910111827
30
0
0
SPLINE
5
D5
100
AcDbEntity
8
1
62
256
6
ByLayer
370
18
48
1
60
0
100
AcDbSpline
70
4
71
3
72
8
73
4
40
0
40
0
40
0
40
0
40
1
40
1
40
1
40
1
41
1
10
11.1313057581152
20
0.434959279981882
30
0
41
1
10
11.0990127959913
20
0.452228277055127
30
0
41
1
10
11.0710732591341
20
0.476282807639848
30
0
41
1
10
11.0494320603501
20
0.505036101906938
30
0
0
SPLINE
5
D6
100
AcDbEntity
8
1
62
256
6
ByLayer
370
18
48
1
60
0
100
AcDbSpline
70
4
71
3
72
12
73
8
40
0
40
0
40
0
40
0
40
0.263209917101588
40
0.263209917101588
40
0.526419834203177
40
0.526419834203177
40
1
40
1
40
1
40
1
41
1
10
19.1778244264966
20
3.18718644203517
30
0
41
1
10
18.9097036243317
20
3.14401480713104
30
0
41
1
10
18.6397972999958
20
3.09301803960534
30
0
41
1
10
18.0960081214201
20
2.97832226081522
30
0
41
1
10
17.8215516291681
20
2.91446067533056
30
0
41
1
10
17.0511561533398
20
2.72310976404091
30
0
41
1
10
16.5538508961721
20
2.58566992544459
30
0
41
1
10
16.0518961073665
20
2.44391724159505
30
0
0
SPLINE
5
D7
100
AcDbEntity
8
1
62
256
6
ByLayer
370
18
48
1
60
0
100
AcDbSpline
70
4
71
3
72
8
73
4
40
0
40
0
40
0
40
0
40
1
40
1
40
1
40
1
41
1
10
41.8482704110179
20
3.32130545081912
30
0
41
1
10
41.5772344790088
20
3.34037850188543
30
0
41
1
10
41.3065177439258
20
3.34975803623394
30
0
41
1
10
41.0356338336638
20
3.34946889809436
30
0
0
SPLINE
5
D8
100
AcDbEntity
8
1
62
256
6
ByLayer
370
18
48
1
60
0
100
AcDbSpline
70
4
71
3
72
28
73
24
40
0
40
0
40
0
40
0
40
0.0276533493196639
40
0.0276533493196639
40
0.0665472153468772
40
0.0665472153468772
40
0.222122679455731
40
0.222122679455731
40
0.377698143564586
40
0.377698143564586
40
0.455485875619013
40
0.455485875619013
40
0.53327360767344
40
0.53327360767344
40
0.688849071782295
40
0.688849071782295
40
0.766636803836722
40
0.766636803836722
40
0.805530669863936
40
0.805530669863936
40
0.844424535891149
40
0.844424535891149
40
1
40
1
40
1
40
1
41
1
10
23.4818162122978
20
-3.19150180076855
30
0
41
1
10
23.3679509658652
20
-3.20951262135844
30
0
41
1
10
23.2539255580595
20
-3.22592918335181
30
0
41
1
10
22.9790970141685
20
-3.26153064359573
30
0
41
1
10
22.8178039524214
20
-3.27913268729105
30
0
41
1
10
22.0121075017538
20
-3.35008980175317
30
0
41
1
10
21.3747318349102
20
-3.35222380031996
30
0
41
1
10
20.1019018544905
20
-3.25132978188805
30
0
41
1
10
19.4659993346969
20
-3.14833961718819
30
0
41
1
10
18.5030647890398
20
-2.9187365015772
30
0
41
1
10
18.17952206613
20
-2.82927235114516
30
0
41
1
10
17.5373753897163
20
-2.62957780191073
30
0
41
1
10
17.2178629020246
20
-2.519156691284
30
0
41
1
10
16.2612692787043
20
-2.16012274536274
30
0
41
1
10
15.6265545534569
20
-1.88310490363929
30
0
41
1
10
14.6680661265413
20
-1.4273462892003
30
0
41
1
10
14.3475903062437
20
-1.26858884589248
30
0
41
1
10
13.8640442352629
20
-1.02228131222316
30
0
41
1
10
13.70250995047
20
-0.938901686133789
30
0
41
1
10
13.3805175006918
20
-0.770843771166369
30
0
41
1
10
13.2198042041793
20
-0.686014178489188
30
0
41
1
10
12.4169148476174
20
-0.259229339320967
30
0
41
1
10
11.7764185986138
20
0.0899784847315743
30
0
41
1
10
11.1313057581158
20
0.43495927998157
30
0
0
SPLINE
5
D9
100
AcDbEntity
8
1
62
256
6
ByLayer
370
18
48
1
60
0
100
AcDbSpline
70
4
71
3
72
10
73
6
40
0
40
0
40
0
40
0
40
0.406431584947712
40
0.406431584947712
40
1
40
1
40
1
40
1
41
1
10
11.0177076697227
20
-3.33144935235336
30
0
41
1
10
11.0177126872558
20
-3.33146436251272
30
0
41
1
10
11.0177175581356
20
-3.32900749842034
30
0
41
1
10
11.0177289404012
20
-3.31687727264188
30
0
41
1
10
11.0177351875799
20
-3.3044752538606
30
0
41
1
10
11.0177407788454
20
-3.28699757253503
30
0
0
SPLINE
5
DA
100
AcDbEntity
8
1
62
256
6
ByLayer
370
18
48
1
60
0
100
AcDbSpline
70
4
71
3
72
16
73
12
40
0
40
0
40
0
40
0
40
0.250000000000003
40
0.250000000000003
40
0.500000000000005
40
0.500000000000005
40
0.750000000000007
40
0.750000000000007
40
0.875000000000004
40
0.875000000000004
40
1
40
1
40
1
40
1
41
1
10
42.5332665496759
20
-1.6591011064184
30
0
41
1
10
42.4831062642886
20
-1.79502104699233
30
0
41
1
10
42.4326629755646
20
-1.93103747514507
30
0
41
1
10
42.3312026155748
20
-2.20058338093131
30
0
41
1
10
42.2803713128197
20
-2.33495606994271
30
0
41
1
10
42.1781952115266
20
-2.60166893011359
30
0
41
1
10
42.1268030569903
20
-2.73382165686721
30
0
41
1
10
42.0493993633584
20
-2.93080208670241
30
0
41
1
10
42.0235194346872
20
-2.99615072986967
30
0
41
1
10
41.9714865913206
20
-3.12576748353754
30
0
41
1
10
41.9454044258062
20
-3.19031563328701
30
0
41
1
10
41.9192304396483
20
-3.25450033877254
30
0
0
SPLINE
5
DB
100
AcDbEntity
8
1
62
256
6
ByLayer
370
18
48
1
60
0
100
AcDbSpline
70
4
71
3
72
12
73
8
40
0
40
0
40
0
40
0
40
0.249999999999993
40
0.249999999999993
40
0.499999999999987
40
0.499999999999987
40
1
40
1
40
1
40
1
41
1
10
41.8711129235967
20
-3.26007091021685
30
0
41
1
10
41.8760007766462
20
-3.24694963623907
30
0
41
1
10
41.8805624934254
20
-3.2335756258891
30
0
41
1
10
41.8877529580599
20
-3.20960069067044
30
0
41
1
10
41.8903611207476
20
-3.19901905002402
30
0
41
1
10
41.894322348891
20
-3.17570278481446
30
0
41
1
10
41.892106379555
20
-3.17131838045711
30
0
41
1
10
41.8874909955683
20
-3.174146153642
30
0
0
SPLINE
5
DC
100
AcDbEntity
8
1
62
256
6
ByLayer
370
18
48
1
60
0
100
AcDbSpline
70
4
71
3
72
62
73
58
40
0
40
0
40
0
40
0
40
0.0624999999999994
40
0.0624999999999994
40
0.124999999999999
40
0.124999999999999
40
0.249999999999997
40
0.249999999999997
40
0.374999999999994
40
0.374999999999994
40
0.499999999999992
40
0.499999999999992
40
0.562499999999991
40
0.562499999999991
40
0.624999999999989
40
0.624999999999989
40
0.656249999999989
40
0.656249999999989
40
0.660156249999989
40
0.660156249999989
40
0.66406249999999
40
0.66406249999999
40
0.66601562499999
40
0.66601562499999
40
0.66796874999999
40
0.66796874999999
40
0.67187499999999
40
0.67187499999999
40
0.687499999999991
40
0.687499999999991
40
0.718749999999992
40
0.718749999999992
40
0.734374999999992
40
0.734374999999992
40
0.749999999999993
40
0.749999999999993
40
0.765624999999993
40
0.765624999999993
40
0.781249999999994
40
0.781249999999994
40
0.789062499999994
40
0.789062499999994
40
0.796874999999994
40
0.796874999999994
40
0.812499999999995
40
0.812499999999995
40
0.828124999999995
40
0.828124999999995
40
0.843749999999996
40
0.843749999999996
40
0.874999999999997
40
0.874999999999997
40
0.906249999999997
40
0.906249999999997
40
0.937499999999998
40
0.937499999999998
40
1
40
1
40
1
40
1
41
1
10
19.1778244264966
20
-3.18718644203517
30
0
41
1
10
18.9097036243318
20
-3.14401480713107
30
0
41
1
10
18.639797299996
20
-3.09301803960537
30
0
41
1
10
18.0960081214204
20
-2.9783222608153
30
0
41
1
10
17.8215516291685
20
-2.91446067533064
30
0
41
1
10
16.995906439169
20
-2.70938683408252
30
0
41
1
10
16.442850856976
20
-2.55482039926559
30
0
41
1
10
15.3245536652133
20
-2.23782382851005
30
0
41
1
10
14.7592424598135
20
-2.07552982652371
30
0
41
1
10
13.6105071437903
20
-1.77196467262144
30
0
41
1
10
13.0270729002536
20
-1.63085691250529
30
0
41
1
10
12.1358084465649
20
-1.45349014315735
30
0
41
1
10
11.8358782385177
20
-1.40003083174784
30
0
41
1
10
11.2344179503385
20
-1.30735420230309
30
0
41
1
10
10.932414183297
20
-1.26802598701545
30
0
41
1
10
10.4773967550137
20
-1.22071977545795
30
0
41
1
10
10.3254777671762
20
-1.20690567879259
30
0
41
1
10
10.1543603732933
20
-1.19365628272522
30
0
41
1
10
10.1353736310709
20
-1.19156090168693
30
0
41
1
10
10.0972372639048
20
-1.19122642557008
30
0
41
1
10
10.0777769410555
20
-1.19305064752831
30
0
41
1
10
10.0508925524144
20
-1.20043663856717
30
0
41
1
10
10.0424207626703
20
-1.20409620228537
30
0
41
1
10
10.0257065125689
20
-1.21196961750172
30
0
41
1
10
10.0173608348491
20
-1.21593138743739
30
0
41
1
10
9.99235900712836
20
-1.2278936115672
30
0
41
1
10
9.97574309783039
20
-1.23596864447128
30
0
41
1
10
9.89303986007292
20
-1.27681546990479
30
0
41
1
10
9.82798144913926
20
-1.31103713379574
30
0
41
1
10
9.63685890336342
20
-1.41925663537899
30
0
41
1
10
9.51549605795839
20
-1.4982951521543
30
0
41
1
10
9.35161047947324
20
-1.62969469795618
30
0
41
1
10
9.29989550407794
20
-1.67574142015857
30
0
41
1
10
9.20432643364518
20
-1.77372161220362
30
0
41
1
10
9.16009669776716
20
-1.82630462859265
30
0
41
1
10
9.08636526047422
20
-1.93439865274757
30
0
41
1
10
9.05629914298106
20
-1.99054831824421
30
0
41
1
10
9.01405184233039
20
-2.10533836646465
30
0
41
1
10
9.00248563553492
20
-2.16213708406474
30
0
41
1
10
8.99929383461557
20
-2.24619660225849
30
0
41
1
10
9.00062996555351
20
-2.27421731253389
30
0
41
1
10
9.00781888787489
20
-2.3286338448857
30
0
41
1
10
9.01362732971938
20
-2.35506846597624
30
0
41
1
10
9.03696220056247
20
-2.43224700946459
30
0
41
1
10
9.06068462594138
20
-2.48125802941576
30
0
41
1
10
9.11889035670194
20
-2.57160727207591
30
0
41
1
10
9.15332822629961
20
-2.61325301617416
30
0
41
1
10
9.23007739061688
20
-2.69112230248666
30
0
41
1
10
9.27264265886049
20
-2.72749414496431
30
0
41
1
10
9.40783468647467
20
-2.82864890615647
30
0
41
1
10
9.50723379746472
20
-2.88554669459816
30
0
41
1
10
9.71700955572982
20
-2.98583303495607
30
0
41
1
10
9.82770433056396
20
-3.02913543256946
30
0
41
1
10
10.0561767390182
20
-3.10517570581149
30
0
41
1
10
10.1727990457455
20
-3.13752077465816
30
0
41
1
10
10.5276318710868
20
-3.22155770888403
30
0
41
1
10
10.7707022566186
20
-3.26043834523804
30
0
41
1
10
11.0177407788272
20
-3.28699757253312
30
0
0
SPLINE
5
DD
100
AcDbEntity
8
1
62
256
6
ByLayer
370
18
48
1
60
0
100
AcDbSpline
70
4
71
3
72
12
73
8
40
0
40
0
40
0
40
0
40
0.414762111425374
40
0.414762111425374
40
0.829524222850748
40
0.829524222850748
40
1
40
1
40
1
40
1
41
1
10
14.1945420430206
20
-2.94944981114685
30
0
41
1
10
14.4561759698172
20
-2.89968044586433
30
0
41
1
10
14.7168470990706
20
-2.84240656613241
30
0
41
1
10
15.2361702853294
20
-2.71272391444524
30
0
41
1
10
15.4947490675457
20
-2.64009615907332
30
0
41
1
10
15.8595197979327
20
-2.5289948127396
30
0
41
1
10
15.9657221481401
20
-2.49557042869293
30
0
41
1
10
16.0718768650931
20
-2.46112388899607
30
0
0
SPLINE
5
DE
100
AcDbEntity
8
1
62
256
6
ByLayer
370
18
48
1
60
0
100
AcDbSpline
70
4
71
3
72
32
73
28
40
0
40
0
40
0
40
0
40
0.018837262392838
40
0.018837262392838
40
0.0678953992731942
40
0.0678953992731942
40
0.11695353615355
40
0.11695353615355
40
0.215069809914267
40
0.215069809914267
40
0.313186083674984
40
0.313186083674984
40
0.4113023574357
40
0.4113023574357
40
0.509418631196417
40
0.509418631196417
40
0.607534904957133
40
0.607534904957133
40
0.70565117871785
40
0.70565117871785
40
0.803767452478567
40
0.803767452478567
40
0.901883726239283
40
0.901883726239283
40
0.950941863119642
40
0.950941863119642
40
1
40
1
40
1
40
1
41
1
10
31.2016247129361
20
3.18233016232782
30
0
41
1
10
31.2516608033786
20
3.18257482377362
30
0
41
1
10
31.301692043134
20
3.18253346023082
30
0
41
1
10
31.4820114123278
20
3.18136979917568
30
0
41
1
10
31.6122997326909
20
3.17896716028409
30
0
41
1
10
31.8731566032603
20
3.16925397003638
30
0
41
1
10
32.0037174419845
20
3.16172616560681
30
0
41
1
10
32.3957204827038
20
3.13229583565232
30
0
41
1
10
32.6571013441772
20
3.10366611884115
30
0
41
1
10
33.1791254300054
20
3.03133177023687
30
0
41
1
10
33.4398129525494
20
2.9883839967957
30
0
41
1
10
33.9611103422511
20
2.88487575082493
30
0
41
1
10
34.2221051399289
20
2.82450923730656
30
0
41
1
10
34.7452508302259
20
2.68937118185284
30
0
41
1
10
35.0063636872192
20
2.61383883672107
30
0
41
1
10
35.5281688804479
20
2.45173830191939
30
0
41
1
10
35.7889113424288
20
2.36381224544212
30
0
41
1
10
36.3104694685766
20
2.17422303057634
30
0
41
1
10
36.5715828483325
20
2.07329863568225
30
0
41
1
10
37.0949405614402
20
1.86165284235361
30
0
41
1
10
37.355704459178
20
1.7509160301114
30
0
41
1
10
37.8772173249926
20
1.51988372485522
30
0
41
1
10
38.1380600696494
20
1.40003543962686
30
0
41
1
10
38.5293531153818
20
1.21483934221285
30
0
41
1
10
38.6598043830978
20
1.1522076922428
30
0
41
1
10
38.9209271044854
20
1.02562707085366
30
0
41
1
10
39.0517358373892
20
0.961717383493863
30
0
41
1
10
39.182343416911
20
0.897249549668231
30
0
0
SPLINE
5
DF
100
AcDbEntity
8
1
62
256
6
ByLayer
370
18
48
1
60
0
100
AcDbSpline
70
4
71
3
72
26
73
22
40
0
40
0
40
0
40
0
40
0.175725331221764
40
0.175725331221764
40
0.272437056290913
40
0.272437056290913
40
0.369148781360063
40
0.369148781360063
40
0.465860506429212
40
0.465860506429212
40
0.562572231498361
40
0.562572231498361
40
0.75599568163666
40
0.75599568163666
40
0.852707406705808
40
0.852707406705808
40
0.901063269240382
40
0.901063269240382
40
0.949419131774955
40
0.949419131774955
40
1
40
1
40
1
40
1
41
1
10
26.7101794301042
20
2.23566226069283
30
0
41
1
10
27.2942601104852
20
2.00879789652907
30
0
41
1
10
27.8759417785865
20
1.75307471307721
30
0
41
1
10
28.781454466937
20
1.32332898814573
30
0
41
1
10
29.10321736578
20
1.16461241985201
30
0
41
1
10
29.7449769936425
20
0.839822688926631
30
0
41
1
10
30.0656128781202
20
0.673599094711363
30
0
41
1
10
30.7079392718446
20
0.336322032887523
30
0
41
1
10
31.0302311815077
20
0.164878649952982
30
0
41
1
10
31.6700207374778
20
-0.175360996492884
30
0
41
1
10
31.9883578746759
20
-0.344625454874745
30
0
41
1
10
32.9410786569003
20
-0.845382967146435
30
0
41
1
10
33.5734357666356
20
-1.16937855582663
30
0
41
1
10
34.5270961291757
20
-1.62338146206051
30
0
41
1
10
34.8459154015095
20
-1.7692598362097
30
0
41
1
10
35.3267860969229
20
-1.97761948969895
30
0
41
1
10
35.4878510866904
20
-2.04547026683312
30
0
41
1
10
35.8089723386623
20
-2.1765436268754
30
0
41
1
10
35.9690489261503
20
-2.23977644736689
30
0
41
1
10
36.2958322337184
20
-2.36413141651499
30
0
41
1
10
36.4625046979472
20
-2.42501821512687
30
0
41
1
10
36.628898653061
20
-2.48310448417504
30
0
0
SPLINE
5
E0
100
AcDbEntity
8
1
62
256
6
ByLayer
370
13
48
1
60
0
100
AcDbSpline
70
4
71
3
72
16
73
12
40
0
40
0
40
0
40
0
40
0.269672433744043
40
0.269672433744043
40
0.634836216872022
40
0.634836216872022
40
0.726127162654018
40
0.726127162654018
40
0.817418108436014
40
0.817418108436014
40
1
40
1
40
1
40
1
41
1
10
36.6288977087995
20
-2.48310415454395
30
0
41
1
10
37.0988018260735
20
-2.64714245611555
30
0
41
1
10
37.5664847663951
20
-2.78884588227177
30
0
41
1
10
38.6683380927685
20
-3.06393857536733
30
0
41
1
10
39.3028858583773
20
-3.17634098351451
30
0
41
1
10
40.105351597466
20
-3.25226038663138
30
0
41
1
10
40.2663909839949
20
-3.264213036923
30
0
41
1
10
40.5876774075448
20
-3.28141719861731
30
0
41
1
10
40.7481603525765
20
-3.28669551801042
30
0
41
1
10
41.2294130479939
20
-3.29250866134404
30
0
41
1
10
41.5499877541641
20
-3.2830339643719
30
0
41
1
10
41.8711129236122
20
-3.26007091021577
30
0
0
SPLINE
5
E1
100
AcDbEntity
8
1
62
256
6
ByLayer
370
18
48
1
60
0
100
AcDbSpline
70
4
71
3
72
14
73
10
40
0
40
0
40
0
40
0
40
0.25
40
0.25
40
0.5
40
0.5
40
0.75
40
0.75
40
1
40
1
40
1
40
1
41
1
10
11.2512748725382
20
-3.13980296821524
30
0
41
1
10
11.2291493201555
20
-3.13756652451667
30
0
41
1
10
11.2065941560871
20
-3.13827034326155
30
0
41
1
10
11.1603609575746
20
-3.14737771449862
30
0
41
1
10
11.1373681727758
20
-3.15572390499736
30
0
41
1
10
11.0934697353291
20
-3.18162343848169
30
0
41
1
10
11.0736782528678
20
-3.19857826821772
30
0
41
1
10
11.0401540619844
20
-3.23943854470622
30
0
41
1
10
11.0270047912692
20
-3.26272785446142
30
0
41
1
10
11.0177407788458
20
-3.28699757253432
30
0
0
SPLINE
5
E2
100
AcDbEntity
8
SK1
62
256
6
ByLayer
370
18
48
1
60
0
100
AcDbSpline
70
4
71
3
72
14
73
10
40
0
40
0
40
0
40
0
40
0.125
40
0.125
40
0.25
40
0.25
40
0.5
40
0.5
40
1
40
1
40
1
40
1
41
1
10
-35.15
20
-2.95872249989407
30
0
41
1
10
-35.15
20
-2.95136046418048
30
0
41
1
10
-35.1517507934569
20
-2.94181767384819
30
0
41
1
10
-35.1569069278761
20
-2.92202783097497
30
0
41
1
10
-35.160234831946
20
-2.9118811366049
30
0
41
1
10
-35.1714888412645
20
-2.88101453357876
30
0
41
1
10
-35.1802429568046
20
-2.86098270976566
30
0
41
1
10
-35.2083191353841
20
-2.80186934291208
30
0
41
1
10
-35.2286409685638
20
-2.76549634834058
30
0
41
1
10
-35.25
20
-2.73187901585106
30
0
0
SPLINE
5
E3
100
AcDbEntity
8
SK1
62
256
6
ByLayer
370
18
48
1
60
0
100
AcDbSpline
70
4
71
3
72
8
73
4
40
0
40
0
40
0
40
0
40
1
40
1
40
1
40
1
41
1
10
-35.25
20
-2.73187901585106
30
0
41
1
10
-35.5038946288025
20
-2.33227006451457
30
0
41
1
10
-35.7559872437786
20
-1.93181268618824
30
0
41
1
10
-36
20
-1.52755113602888
30
0
0
SPLINE
5
E4
100
AcDbEntity
8
SK1
62
256
6
ByLayer
370
18
48
1
60
0
100
AcDbSpline
70
4
71
3
72
8
73
4
40
0
40
0
40
0
40
0
40
1
40
1
40
1
40
1
41
1
10
-36
20
-2.48978868411587
30
0
41
1
10
-35.7560023534748
20
-2.89402520169364
30
0
41
1
10
-35.5039048565556
20
-3.29449151497201
30
0
41
1
10
-35.25
20
-3.69411656393805
30
0
0
SPLINE
5
E5
100
AcDbEntity
8
SK1
62
256
6
ByLayer
370
18
48
1
60
0
100
AcDbSpline
70
4
71
3
72
14
73
10
40
0
40
0
40
0
40
0
40
0.500000000000001
40
0.500000000000001
40
0.75
40
0.75
40
0.875
40
0.875
40
1
40
1
40
1
40
1
41
1
10
-35.25
20
-3.69411656393822
30
0
41
1
10
-35.2287404812744
20
-3.72757727172839
30
0
41
1
10
-35.208362723075
20
-3.75815743817085
30
0
41
1
10
-35.1802905070704
20
-3.79679898416808
30
0
41
1
10
-35.1714466180788
20
-3.80833160272272
30
0
41
1
10
-35.1602396792677
20
-3.82088146316536
30
0
41
1
10
-35.1568594217207
20
-3.82424019803747
30
0
41
1
10
-35.1517495297274
20
-3.82767534846903
30
0
41
1
10
-35.15
20
-3.82772537420976
30
0
41
1
10
-35.15
20
-3.82473629317238
30
0
0
LINE
5
76
100
AcDbEntity
8
81
62
256
6
ByLayer
370
18
48
1
60
0
100
AcDbLine
10
43
20
0
30
0
11
48
21
0
31
0
39
0
210
0
220
0
230
1
0
LINE
5
77
100
AcDbEntity
8
1
62
256
6
ByLayer
370
18
48
1
60
0
100
AcDbLine
10
11.017703
20
3.331459
30
0
11
1.305549
21
3.325632
31
0
39
0
210
0
220
0
230
1
0
LINE
5
79
100
AcDbEntity
8
1
62
256
6
ByLayer
370
18
48
1
60
0
100
AcDbLine
10
41.040238
20
3.349473
30
0
11
40.439979
21
3.349112
31
0
39
0
210
0
220
0
230
1
0
LINE
5
7A
100
AcDbEntity
8
1
62
256
6
ByLayer
370
18
48
1
60
0
100
AcDbLine
10
40.439979
20
-3.349112
30
0
11
41.040329
21
-3.349473
31
0
39
0
210
0
220
0
230
1
0
LINE
5
7B
100
AcDbEntity
8
1
62
256
6
ByLayer
370
18
48
1
60
0
100
AcDbLine
10
1.305549
20
-3.325632
30
0
11
11.017703
21
-3.331459
31
0
39
0
210
0
220
0
230
1
0
LINE
5
7C
100
AcDbEntity
8
1
62
256
6
ByLayer
370
18
48
1
60
0
100
AcDbLine
10
21.639746
20
3.337832
30
0
11
21.032941
21
3.337468
31
0
39
0
210
0
220
0
230
1
0
LINE
5
7D
100
AcDbEntity
8
1
62
256
6
ByLayer
370
18
48
1
60
0
100
AcDbLine
10
21.032941
20
-3.337468
30
0
11
21.640009
21
-3.337832
31
0
39
0
210
0
220
0
230
1
0
LINE
5
7E
100
AcDbEntity
8
SK1
62
256
6
ByLayer
370
18
48
1
60
0
100
AcDbLine
10
-35.133975
20
4
30
0
11
-36
21
2.5
31
0
39
0
210
0
220
0
230
1
0
LINE
5
80
100
AcDbEntity
8
SK1
62
256
6
ByLayer
370
18
48
1
60
0
100
AcDbLine
10
-36
20
-2.5
30
0
11
-35.133975
21
-4
31
0
39
0
210
0
220
0
230
1
0
LINE
5
81
100
AcDbEntity
8
SK1
62
256
6
ByLayer
370
18
48
1
60
0
100
AcDbLine
10
0
20
4
30
0
11
-35.133975
21
4
31
0
39
0
210
0
220
0
230
1
0
LINE
5
82
100
AcDbEntity
8
SK1
62
256
6
ByLayer
370
18
48
1
60
0
100
AcDbLine
10
-35.133975
20
-4
30
0
11
0
21
-4
31
0
39
0
210
0
220
0
230
1
0
LINE
5
83
100
AcDbEntity
8
SK4
62
256
6
ByLayer
370
18
48
0.05
60
0
100
AcDbLine
10
48
20
0
30
0
11
-41
21
0
31
0
39
0
210
0
220
0
230
1
0
LINE
5
85
100
AcDbEntity
8
4
62
256
6
ByLayer
370
18
48
0.05
60
0
100
AcDbLine
10
43
20
0
30
0
11
0
21
0
31
0
39
0
210
0
220
0
230
1
0
LINE
5
87
100
AcDbEntity
8
80
62
256
6
ByLayer
370
18
48
1
60
0
100
AcDbLine
10
0
20
0
30
0
11
-5
21
0
31
0
39
0
210
0
220
0
230
1
0
LINE
5
88
100
AcDbEntity
8
1
62
256
6
ByLayer
370
18
48
1
60
0
100
AcDbLine
10
20.922552
20
0.320484
30
0
11
20.921834
21
0.320911
31
0
39
0
210
0
220
0
230
1
0
LINE
5
89
100
AcDbEntity
8
1
62
256
6
ByLayer
370
13
48
1
60
0
100
AcDbLine
10
42.205722
20
0.708797
30
0
11
42.924956
21
0.282052
31
0
39
0
210
0
220
0
230
1
0
LINE
5
8A
100
AcDbEntity
8
1
62
256
6
ByLayer
370
18
48
1
60
0
100
AcDbLine
10
42.924956
20
0.282052
30
0
11
42.825394
21
0.708797
31
0
39
0
210
0
220
0
230
1
0
LINE
5
8B
100
AcDbEntity
8
1
62
256
6
ByLayer
370
18
48
1
60
0
100
AcDbLine
10
41.329724
20
-1.765225
30
0
11
42.895056
21
-0.148215
31
0
39
0
210
0
220
0
230
1
0
LINE
5
8C
100
AcDbEntity
8
1
62
256
6
ByLayer
370
13
48
1
60
0
100
AcDbLine
10
0.652535
20
3.662816
30
0
11
0.652535
21
-3.662816
31
0
39
0
210
0
220
0
230
1
0
LINE
5
8D
100
AcDbEntity
8
1
62
256
6
ByLayer
370
18
48
1
60
0
100
AcDbLine
10
42.993982
20
0.033367
30
0
11
43
21
0
31
0
39
0
210
0
220
0
230
1
0
LINE
5
8E
100
AcDbEntity
8
1
62
256
6
ByLayer
370
13
48
1
60
0
100
AcDbLine
10
42.825394
20
0.708797
30
0
11
42.205722
21
0.708797
31
0
39
0
210
0
220
0
230
1
0
LINE
5
8F
100
AcDbEntity
8
1
62
256
6
ByLayer
370
18
48
1
60
0
100
AcDbLine
10
0
20
-4
30
0
11
0
21
4
31
0
39
0
210
0
220
0
230
1
0
LINE
5
90
100
AcDbEntity
8
1
62
256
6
ByLayer
370
13
48
1
60
0
100
AcDbLine
10
1.305549
20
3.325632
30
0
11
1.305549
21
-3.325632
31
0
39
0
210
0
220
0
230
1
0
LINE
5
91
100
AcDbEntity
8
1
62
256
6
ByLayer
370
18
48
1
60
0
100
AcDbLine
10
43
20
0
30
0
11
42.993982
21
-0.033367
31
0
39
0
210
0
220
0
230
1
0
LINE
5
92
100
AcDbEntity
8
1
62
256
6
ByLayer
370
18
48
1
60
0
100
AcDbLine
10
43
20
0
30
0
11
41.838604
21
-3.190909
31
0
39
0
210
0
220
0
230
1
0
LINE
5
93
100
AcDbEntity
8
1
62
256
6
ByLayer
370
18
48
1
60
0
100
AcDbLine
10
42.924956
20
-0.282052
30
0
11
42.825394
21
-0.708797
31
0
39
0
210
0
220
0
230
1
0
LINE
5
94
100
AcDbEntity
8
1
62
256
6
ByLayer
370
13
48
1
60
0
100
AcDbLine
10
42.015815
20
0.373468
30
0
11
42.895056
21
-0.148215
31
0
39
0
210
0
220
0
230
1
0
LINE
5
95
100
AcDbEntity
8
SK1
62
256
6
ByLayer
370
18
48
1
60
0
100
AcDbLine
10
0
20
-4
30
0
11
0
21
4
31
0
39
0
210
0
220
0
230
1
0
LINE
5
96
100
AcDbEntity
8
SK1
62
256
6
ByLayer
370
13
48
1
60
0
100
AcDbLine
10
-35.25
20
-2.731824
30
0
11
-35.25
21
-3.694117
31
0
39
0
210
0
220
0
230
1
0
LINE
5
97
100
AcDbEntity
8
SK1
62
256
6
ByLayer
370
18
48
1
60
0
100
AcDbLine
10
-35.133975
20
4
30
0
11
-35.133975
21
-4
31
0
39
0
210
0
220
0
230
1
0
LINE
5
98
100
AcDbEntity
8
SK1
62
256
6
ByLayer
370
18
48
1
60
0
100
AcDbLine
10
-35.15
20
-3.824736
30
0
11
-35.15
21
-2.958722
31
0
39
0
210
0
220
0
230
1
0
LINE
5
99
100
AcDbEntity
8
SK1
62
256
6
ByLayer
370
18
48
1
60
0
100
AcDbLine
10
-36
20
2.5
30
0
11
-36
21
-1.527551
31
0
39
0
210
0
220
0
230
1
0
LINE
5
9A
100
AcDbEntity
8
SK1
62
256
6
ByLayer
370
18
48
1
60
0
100
AcDbLine
10
-36
20
-1.52751
30
0
11
-36
21
-2.489789
31
0
39
0
210
0
220
0
230
1
0
LINE
5
9B
100
AcDbEntity
8
SK1
62
256
6
ByLayer
370
18
48
1
60
0
100
AcDbLine
10
-36
20
-2.5
30
0
11
-36
21
-2.489789
31
0
39
0
210
0
220
0
230
1
0
MTEXT
5
E6
100
AcDbEntity
8
SK6
62
256
6
ByLayer
370
13
48
1
60
0
100
AcDbMText
10
5.629169
20
35.732694
30
0
210
0
220
0
230
1
1
\W0.7542;R840-0670-30-A1A1220
40
3.5
41
0
44
1.084337
50
0
71
8
72
5
7
iso_b_vert
0
DIMENSION
5
F3
100
AcDbEntity
8
SK2
62
256
6
ByLayer
370
13
48
1
60
0
100
AcDbDimension
2
DimnDraft3D1
10
41.86
20
-13.563398
30
0
11
19.610059
21
-13.563398
31
0
70
32
71
5
72
1
41
1
210
0
220
0
230
1
3
Standard
100
AcDbAlignedDimension
13
0
23
-1.5875
33
0
14
41.86
24
-4.9375
34
0
50
0
100
AcDbRotatedDimension
1001
ACAD
1000
DSTYLE
1002
{
1070
   279
1070
     0
1070
   172
1070
     1
1070
   173
1070
     1
1070
   340
1005
E7
1070
   271
1070
     2
1070
   272
1070
     2
1070
    77
1070
     1
1070
    73
1070
     0
1070
   171
1070
     3
1070
   274
1070
     4
1070
   177
1070
    35
1070
   176
1070
    35
1070
   178
1070
    35
1070
    48
1040
-0.005
1070
    41
1041
3.5
1070
   147
1041
1.75
1070
    42
1041
1.5875
1070
    44
1041
2.0
1070
   140
1041
3.5
1070
   343
1005
0
1070
   344
1005
0
1002
}
0
DIMENSION
5
FD
100
AcDbEntity
8
SK2
62
256
6
ByLayer
370
13
48
1
60
0
100
AcDbDimension
2
DimnDraft3D2
10
43
20
-32.692985
30
0
11
3.7013
21
-32.692985
31
0
70
32
71
5
72
1
41
1
210
0
220
0
230
1
3
Standard
100
AcDbAlignedDimension
13
-36
23
-5.5875
33
0
14
43
24
-1.5875
34
0
50
0
100
AcDbRotatedDimension
1001
ACAD
1000
DSTYLE
1002
{
1070
   279
1070
     0
1070
   172
1070
     1
1070
   173
1070
     1
1070
   340
1005
E7
1070
   271
1070
     2
1070
   272
1070
     2
1070
    77
1070
     1
1070
    73
1070
     0
1070
   171
1070
     3
1070
   274
1070
     4
1070
   177
1070
    35
1070
   176
1070
    35
1070
   178
1070
    35
1070
    48
1040
-0.005
1070
    41
1041
3.5
1070
   147
1041
1.75
1070
    42
1041
1.5875
1070
    44
1041
2.0
1070
   140
1041
3.5
1070
   343
1005
0
1070
   344
1005
0
1002
}
0
DIMENSION
5
107
100
AcDbEntity
8
SK2
62
256
6
ByLayer
370
13
48
1
60
0
100
AcDbDimension
2
DimnDraft3D3
10
43
20
14.959119
30
0
11
32.38
21
14.959119
31
0
70
32
71
5
72
1
41
1
210
0
220
0
230
1
3
Standard
100
AcDbAlignedDimension
13
21.76
23
4.9375
33
0
14
43
24
1.5875
34
0
50
0
100
AcDbRotatedDimension
1001
ACAD
1000
DSTYLE
1002
{
1070
   279
1070
     0
1070
   172
1070
     1
1070
   173
1070
     1
1070
   340
1005
E7
1070
   271
1070
     2
1070
   272
1070
     2
1070
    77
1070
     1
1070
    73
1070
     0
1070
   171
1070
     3
1070
   274
1070
     4
1070
   177
1070
    35
1070
   176
1070
    35
1070
   178
1070
    35
1070
    48
1040
-0.005
1070
    41
1041
3.5
1070
   147
1041
1.75
1070
    42
1041
1.5875
1070
    44
1041
2.0
1070
   140
1041
3.5
1070
   343
1005
0
1070
   344
1005
0
1002
}
0
DIMENSION
5
111
100
AcDbEntity
8
SK2
62
256
6
ByLayer
370
13
48
1
60
0
100
AcDbDimension
2
DimnDraft3D4
10
41.86
20
-16.152503
30
0
11
52.981425
21
-16.152503
31
0
70
32
71
5
72
1
41
1
210
0
220
0
230
1
3
Standard
100
AcDbAlignedDimension
13
43
23
-1.5875
33
0
14
41.86
24
-4.9375
34
0
50
0
100
AcDbRotatedDimension
1001
ACAD
1000
DSTYLE
1002
{
1070
   279
1070
     0
1070
   172
1070
     1
1070
   173
1070
     1
1070
   340
1005
E7
1070
   271
1070
     2
1070
   272
1070
     2
1070
    77
1070
     1
1070
    73
1070
     0
1070
   171
1070
     3
1070
   274
1070
     4
1070
   177
1070
    35
1070
   176
1070
    35
1070
   178
1070
    35
1070
    48
1040
-0.005
1070
    41
1041
3.5
1070
   147
1041
1.75
1070
    42
1041
1.5875
1070
    44
1041
2.0
1070
   140
1041
3.5
1070
   343
1005
0
1070
   344
1005
0
1002
}
0
DIMENSION
5
11B
100
AcDbEntity
8
SK2
62
256
6
ByLayer
370
13
48
1
60
0
100
AcDbDimension
2
DimnDraft3D5
10
41.86
20
-22.343428
30
0
11
0.620676
21
-22.343428
31
0
70
32
71
5
72
1
41
1
210
0
220
0
230
1
3
Standard
100
AcDbAlignedDimension
13
-36
23
-5.5875
33
0
14
41.86
24
-4.9375
34
0
50
0
100
AcDbRotatedDimension
1001
ACAD
1000
DSTYLE
1002
{
1070
   279
1070
     0
1070
   172
1070
     1
1070
   173
1070
     1
1070
   340
1005
E7
1070
   271
1070
     2
1070
   272
1070
     2
1070
    77
1070
     1
1070
    73
1070
     0
1070
   171
1070
     3
1070
   274
1070
     4
1070
   177
1070
    35
1070
   176
1070
    35
1070
   178
1070
    35
1070
    48
1040
-0.005
1070
    41
1041
3.5
1070
   147
1041
1.75
1070
    42
1041
1.5875
1070
    44
1041
2.0
1070
   140
1041
3.5
1070
   343
1005
0
1070
   344
1005
0
1002
}
0
DIMENSION
5
126
100
AcDbEntity
8
SK2
62
256
6
ByLayer
370
13
48
1
60
0
100
AcDbDimension
2
DimnDraft3D6
10
-46.625163
20
4
30
0
11
-47.250163
21
22.47418
31
0
70
33
71
5
72
1
41
1
210
0
220
0
230
1
3
Standard
100
AcDbAlignedDimension
13
-37.5875
23
-4
33
0
14
-37.5875
24
4
34
0
1001
ACAD
1000
DSTYLE
1002
{
1070
   279
1070
     0
1070
    74
1070
     0
1070
   173
1070
     1
1070
   340
1005
E7
1070
   271
1070
     3
1070
   272
1070
     2
1070
    77
1070
     1
1070
    73
1070
     0
1070
   171
1070
     3
1070
   274
1070
     4
1070
   177
1070
    35
1070
   176
1070
    35
1070
   178
1070
    35
1070
    48
1040
-0.005
1070
    41
1041
3.5
1070
   147
1041
1.75
1070
    42
1041
1.5875
1070
    44
1041
2.0
1070
   140
1041
3.5
1070
   343
1005
0
1070
   344
1005
0
1002
}
0
DIMENSION
5
131
100
AcDbEntity
8
2
62
256
6
ByLayer
370
13
48
1
60
0
100
AcDbDimension
2
DimnDraft3D7
10
57.083343
20
3.35
30
0
11
52.458343
21
20.417266
31
0
70
33
71
5
72
1
41
1
210
0
220
0
230
1
3
Standard
100
AcDbAlignedDimension
13
43.4475
23
-3.35
33
0
14
43.4475
24
3.35
34
0
1001
ACAD
1000
DSTYLE
1002
{
1070
   279
1070
     0
1070
    74
1070
     0
1070
   173
1070
     1
1070
   340
1005
E7
1070
   271
1070
     3
1070
   272
1070
     2
1070
    77
1070
     1
1070
    73
1070
     0
1070
   171
1070
     3
1070
   274
1070
     4
1070
   177
1070
    35
1070
   176
1070
    35
1070
   178
1070
    35
1070
    48
1040
-0.005
1070
    41
1041
3.5
1070
   147
1041
1.75
1070
    42
1041
1.5875
1070
    44
1041
2.0
1070
   140
1041
3.5
1070
   343
1005
0
1070
   344
1005
0
1002
}
0
ENDSEC
0
SECTION
2
OBJECTS
0
DICTIONARY
5
19c
330
0
100
AcDbDictionary
280
0
281
1
3
ACAD_GROUP
350
19d
3
ACAD_MLINESTYLE
350
19e
0
DICTIONARY
5
19d
330
0
100
AcDbDictionary
280
0
281
1
0
DICTIONARY
5
19e
330
0
100
AcDbDictionary
280
0
281
1
3
Standard
350
18
0
MLINESTYLE
5
18
330
19e
100
AcDbMlineStyle
2
Standard
70
0
3

62
256
51
90
52
90
71
2
49
-0.5
62
256
6
ByLayer
49
0.5
62
256
6
ByLayer
0
RASTERVARIABLES
5
18a
330

100
AcDbRasterVariables
90
0
70
1
71
1
72
1
0
ENDSEC
0
EOF
