0
SECTION
2
HEADER
9
$ACADVER
1
AC1015
9
$DWGCODEPAGE
3
ANSI_1252
9
$HANDSEED
5
19f
9
$ANGBASE
50
0
9
$ANGDIR
70
0
9
$ATTMODE
70
1
9
$AUNITS
70
0
9
$AUPREC
70
0
9
$CECOLOR
62
256
9
$CELTSCALE
40
1
9
$CELTYPE
6
ByLayer
9
$CELWEIGHT
370
18
9
$CLAYER
8
0
9
$CMLJUST
70
0
9
$CMLSCALE
40
1
9
$CMLSTYLE
2
Standard
9
$DIMSTYLE
2
Standard
9
$TEXTSIZE
40
0.2
9
$TEXTSTYLE
7
Standard
9
$LUNITS
70
2
9
$LUPREC
70
4
9
$EXTNAMES
290
1
9
$INSUNITS
70
4
9
$LTSCALE
40
1
9
$LWDISPLAY
290
1
9
$PDMODE
70
0
9
$PDSIZE
40
0
9
$PLINEGEN
70
0
0
ENDSEC
0
SECTION
2
CLASSES
0
CLASS
1
RASTERVARIABLES
2
AcDbRasterVariables
3
ISM
90
0
280
0
281
0
0
ENDSEC
0
SECTION
2
TABLES
0
TABLE
2
VPORT
5
195
100
AcDbSymbolTable
0
VPORT
5
1
100
AcDbSymbolTableRecord
100
AcDbViewportTableRecord
2
*Active
70
0
10
0
20
0
11
1
21
1
12
-1
22
1
13
0
23
0
14
0.5
24
0.5
15
10
25
10
16
0
26
0
36
1
17
0
27
0
37
0
0
ENDTAB
0
TABLE
2
LTYPE
5
196
100
AcDbSymbolTable
0
LTYPE
5
14
100
AcDbSymbolTableRecord
100
AcDbLinetypeTableRecord
70
0
2
ByBlock
3

72
65
73
0
40
0
0
LTYPE
5
15
100
AcDbSymbolTableRecord
100
AcDbLinetypeTableRecord
70
0
2
ByLayer
3

72
65
73
0
40
0
0
LTYPE
5
16
100
AcDbSymbolTableRecord
100
AcDbLinetypeTableRecord
70
0
2
CONTINUOUS
3
Solid line
72
65
73
0
40
0
0
LTYPE
5
6A
100
AcDbSymbolTableRecord
100
AcDbLinetypeTableRecord
70
0
2
CENTER
3
____ _ ____ _ ____ _ ____
72
65
73
4
40
47.5
49
22
74
0
49
-8.5
74
0
49
8.5
74
0
49
-8.5
74
0
0
LTYPE
5
6B
100
AcDbSymbolTableRecord
100
AcDbLinetypeTableRecord
70
0
2
DASHED
3
__ __ __ __ __ __ __ __ __
72
65
73
2
40
25.72
49
12.86
74
0
49
-12.86
74
0
0
ENDTAB
0
TABLE
2
LAYER
5
197
100
AcDbSymbolTable
0
LAYER
5
10
100
AcDbSymbolTableRecord
100
AcDbLayerTableRecord
2
0
70
0
62
7
6
CONTINUOUS
290
1
370
-3
390
0
0
LAYER
5
6D
100
AcDbSymbolTableRecord
100
AcDbLayerTableRecord
2
81
70
0
62
-3
6
CONTINUOUS
290
1
370
-3
390
0
0
LAYER
5
6F
100
AcDbSymbolTableRecord
100
AcDbLayerTableRecord
2
80
70
0
62
-6
6
CONTINUOUS
290
1
370
-3
390
0
0
LAYER
5
74
100
AcDbSymbolTableRecord
100
AcDbLayerTableRecord
2
2
70
0
62
7
6
CONTINUOUS
290
1
370
-3
390
0
0
LAYER
5
78
100
AcDbSymbolTableRecord
100
AcDbLayerTableRecord
2
1
70
0
62
4
6
CONTINUOUS
290
1
370
-3
390
0
0
LAYER
5
86
100
AcDbSymbolTableRecord
100
AcDbLayerTableRecord
2
4
70
0
62
-2
6
CENTER
290
1
370
-3
390
0
0
LAYER
5
181
100
AcDbSymbolTableRecord
100
AcDbLayerTableRecord
2
SK2
70
0
62
7
6
CONTINUOUS
290
1
370
-3
390
0
0
LAYER
5
182
100
AcDbSymbolTableRecord
100
AcDbLayerTableRecord
2
SK1
70
0
62
4
6
CONTINUOUS
290
1
370
-3
390
0
0
LAYER
5
183
100
AcDbSymbolTableRecord
100
AcDbLayerTableRecord
2
SK4
70
0
62
2
6
CENTER
290
1
370
-3
390
0
0
LAYER
5
184
100
AcDbSymbolTableRecord
100
AcDbLayerTableRecord
2
SK6
70
0
62
5
6
CONTINUOUS
290
1
370
-3
390
0
0
ENDTAB
0
TABLE
2
STYLE
5
198
100
AcDbSymbolTable
0
STYLE
5
11
100
AcDbSymbolTableRecord
100
AcDbTextStyleTableRecord
2
Standard
3
txt
70
0
71
0
40
0
41
1
42
0
50
0
0
STYLE
5
DD
100
AcDbSymbolTableRecord
100
AcDbTextStyleTableRecord
2
iso_b_vert
3
simplex.shx
70
0
71
0
40
0
41
1
42
0
50
0
0
STYLE
5
DE
100
AcDbSymbolTableRecord
100
AcDbTextStyleTableRecord
2
DWGDirectTextStyle
3
simplex
70
0
71
0
40
0
41
1
42
0
50
0
0
ENDTAB
0
TABLE
2
DIMSTYLE
5
199
100
AcDbSymbolTable
100
AcDbDimStyleTable
0
DIMSTYLE
105
27
100
AcDbSymbolTableRecord
100
AcDbDimStyleTableRecord
2
Standard
70
0
3
<>
41
0.18
42
0.0625
44
0.18
140
0.18
147
0.09
73
0
74
0
77
1
271
2
275
0
278
52
280
0
340
11
0
ENDTAB
0
TABLE
2
VIEW
5
19a
100
AcDbSymbolTable
0
ENDTAB
0
TABLE
2
UCS
5
19b
100
AcDbSymbolTable
0
ENDTAB
0
TABLE
2
APPID
5
19c
100
AcDbSymbolTable
0
APPID
5
12
100
AcDbSymbolTableRecord
100
AcDbRegAppTableRecord
2
ACAD
70
0
0
ENDTAB
0
TABLE
2
BLOCK_RECORD
5
19d
100
AcDbSymbolTable
0
BLOCK_RECORD
5
1F
100
AcDbSymbolTableRecord
100
AcDbBlockTableRecord
2
*Model_Space
340
0
70
0
0
BLOCK_RECORD
5
1B
100
AcDbSymbolTableRecord
100
AcDbBlockTableRecord
2
*Paper_Space
340
0
70
0
0
BLOCK_RECORD
5
23
100
AcDbSymbolTableRecord
100
AcDbBlockTableRecord
2
*Paper_Space0
340
0
70
0
0
BLOCK_RECORD
5
E0
100
AcDbSymbolTableRecord
100
AcDbBlockTableRecord
2
DimnDraft3D1
340
0
70
0
0
BLOCK_RECORD
5
EA
100
AcDbSymbolTableRecord
100
AcDbBlockTableRecord
2
DimnDraft3D2
340
0
70
0
0
BLOCK_RECORD
5
F4
100
AcDbSymbolTableRecord
100
AcDbBlockTableRecord
2
DimnDraft3D3
340
0
70
0
0
BLOCK_RECORD
5
FE
100
AcDbSymbolTableRecord
100
AcDbBlockTableRecord
2
DimnDraft3D4
340
0
70
0
0
BLOCK_RECORD
5
108
100
AcDbSymbolTableRecord
100
AcDbBlockTableRecord
2
DimnDraft3D5
340
0
70
0
0
BLOCK_RECORD
5
112
100
AcDbSymbolTableRecord
100
AcDbBlockTableRecord
2
DimnDraft3D6
340
0
70
0
0
BLOCK_RECORD
5
11D
100
AcDbSymbolTableRecord
100
AcDbBlockTableRecord
2
DimnDraft3D7
340
0
70
0
0
ENDTAB
0
ENDSEC
0
SECTION
2
BLOCKS
0
BLOCK
5
20
100
AcDbEntity
8
0
100
AcDbBlockBegin
2
*Model_Space
70
0
10
0
20
0
30
0
3
*Model_Space
0
ENDBLK
5
21
100
AcDbEntity
8
0
100
AcDbBlockEnd
0
BLOCK
5
1C
100
AcDbEntity
8
0
100
AcDbBlockBegin
2
*Paper_Space
70
0
10
0
20
0
30
0
3
*Paper_Space
0
ENDBLK
5
1D
100
AcDbEntity
8
0
100
AcDbBlockEnd
0
BLOCK
5
24
100
AcDbEntity
8
0
100
AcDbBlockBegin
2
*Paper_Space0
70
0
10
0
20
0
30
0
3
*Paper_Space0
0
ENDBLK
5
25
100
AcDbEntity
8
0
100
AcDbBlockEnd
0
BLOCK
5
E7
100
AcDbEntity
8
0
100
AcDbBlockBegin
2
DimnDraft3D1
70
0
10
0
20
0
30
0
3
DimnDraft3D1
0
MTEXT
5
E1
100
AcDbEntity
8
SK2
62
256
6
ByLayer
370
13
48
1
60
0
100
AcDbMText
10
15.434664
20
-12.638398
30
0
210
0
220
0
230
1
1
\W0.6977;41,88
40
3.5
41
0
44
1.084337
50
0
71
7
72
5
7
iso_b_vert
0
LINE
5
E2
100
AcDbEntity
8
SK2
62
256
6
ByLayer
370
13
48
1
60
0
100
AcDbLine
10
0
20
-1.5875
30
0
11
0
21
-15.513398
31
0
39
0
210
0
220
0
230
1
0
LINE
5
E3
100
AcDbEntity
8
SK2
62
256
6
ByLayer
370
13
48
1
60
0
100
AcDbLine
10
41.88
20
-4.8875
30
0
11
41.88
21
-15.513398
31
0
39
0
210
0
220
0
230
1
0
LINE
5
E4
100
AcDbEntity
8
SK2
62
256
6
ByLayer
370
13
48
1
60
0
100
AcDbLine
10
0
20
-13.513398
30
0
11
41.88
21
-13.513398
31
0
39
0
210
0
220
0
230
1
0
SOLID
5
E5
100
AcDbEntity
8
SK2
62
256
6
ByLayer
370
13
48
1
60
0
100
AcDbTrace
10
0
20
-13.513398
30
0
11
3.499998
21
-13.052615
31
0
12
3.500002
22
-13.974182
32
0
13
0
23
-13.513398
33
0
39
0
210
0
220
0
230
1
0
SOLID
5
E6
100
AcDbEntity
8
SK2
62
256
6
ByLayer
370
13
48
1
60
0
100
AcDbTrace
10
41.88
20
-13.513398
30
0
11
38.380002
21
-13.974182
31
0
12
38.379998
22
-13.052615
32
0
13
41.88
23
-13.513398
33
0
39
0
210
0
220
0
230
1
0
ENDBLK
5
E8
100
AcDbEntity
8
0
100
AcDbBlockEnd
0
BLOCK
5
F1
100
AcDbEntity
8
0
100
AcDbBlockBegin
2
DimnDraft3D2
70
0
10
0
20
0
30
0
3
DimnDraft3D2
0
MTEXT
5
EB
100
AcDbEntity
8
SK2
62
256
6
ByLayer
370
13
48
1
60
0
100
AcDbMText
10
-0.727384
20
-31.817985
30
0
210
0
220
0
230
1
1
\W0.7317;79,00
40
3.5
41
0
44
1.084337
50
0
71
7
72
5
7
iso_b_vert
0
LINE
5
EC
100
AcDbEntity
8
SK2
62
256
6
ByLayer
370
13
48
1
60
0
100
AcDbLine
10
-36
20
-5.5875
30
0
11
-36
21
-34.692985
31
0
39
0
210
0
220
0
230
1
0
LINE
5
ED
100
AcDbEntity
8
SK2
62
256
6
ByLayer
370
13
48
1
60
0
100
AcDbLine
10
43
20
-1.5875
30
0
11
43
21
-34.692985
31
0
39
0
210
0
220
0
230
1
0
LINE
5
EE
100
AcDbEntity
8
SK2
62
256
6
ByLayer
370
13
48
1
60
0
100
AcDbLine
10
-36
20
-32.692985
30
0
11
43
21
-32.692985
31
0
39
0
210
0
220
0
230
1
0
SOLID
5
EF
100
AcDbEntity
8
SK2
62
256
6
ByLayer
370
13
48
1
60
0
100
AcDbTrace
10
-36
20
-32.692985
30
0
11
-32.500002
21
-32.232202
31
0
12
-32.499998
22
-33.153769
32
0
13
-36
23
-32.692985
33
0
39
0
210
0
220
0
230
1
0
SOLID
5
F0
100
AcDbEntity
8
SK2
62
256
6
ByLayer
370
13
48
1
60
0
100
AcDbTrace
10
43
20
-32.692985
30
0
11
39.500002
21
-33.153769
31
0
12
39.499998
22
-32.232202
32
0
13
43
23
-32.692985
33
0
39
0
210
0
220
0
230
1
0
ENDBLK
5
F2
100
AcDbEntity
8
0
100
AcDbBlockEnd
0
BLOCK
5
FB
100
AcDbEntity
8
0
100
AcDbBlockBegin
2
DimnDraft3D3
70
0
10
0
20
0
30
0
3
DimnDraft3D3
0
MTEXT
5
F5
100
AcDbEntity
8
SK2
62
256
6
ByLayer
370
13
48
1
60
0
100
AcDbMText
10
28.091316
20
15.784119
30
0
210
0
220
0
230
1
1
\W0.7317;20,92
40
3.5
41
0
44
1.084337
50
0
71
7
72
5
7
iso_b_vert
0
LINE
5
F6
100
AcDbEntity
8
SK2
62
256
6
ByLayer
370
13
48
1
60
0
100
AcDbLine
10
22.08
20
4.8875
30
0
11
22.08
21
16.909119
31
0
39
0
210
0
220
0
230
1
0
LINE
5
F7
100
AcDbEntity
8
SK2
62
256
6
ByLayer
370
13
48
1
60
0
100
AcDbLine
10
43
20
1.5875
30
0
11
43
21
16.909119
31
0
39
0
210
0
220
0
230
1
0
LINE
5
F8
100
AcDbEntity
8
SK2
62
256
6
ByLayer
370
13
48
1
60
0
100
AcDbLine
10
22.08
20
14.909119
30
0
11
43
21
14.909119
31
0
39
0
210
0
220
0
230
1
0
SOLID
5
F9
100
AcDbEntity
8
SK2
62
256
6
ByLayer
370
13
48
1
60
0
100
AcDbTrace
10
22.08
20
14.909119
30
0
11
25.579998
21
15.369903
31
0
12
25.580002
22
14.448335
32
0
13
22.08
23
14.909119
33
0
39
0
210
0
220
0
230
1
0
SOLID
5
FA
100
AcDbEntity
8
SK2
62
256
6
ByLayer
370
13
48
1
60
0
100
AcDbTrace
10
43
20
14.909119
30
0
11
39.500002
21
14.448335
31
0
12
39.499998
22
15.369903
32
0
13
43
23
14.909119
33
0
39
0
210
0
220
0
230
1
0
ENDBLK
5
FC
100
AcDbEntity
8
0
100
AcDbBlockEnd
0
BLOCK
5
105
100
AcDbEntity
8
0
100
AcDbBlockBegin
2
DimnDraft3D4
70
0
10
0
20
0
30
0
3
DimnDraft3D4
0
MTEXT
5
FF
100
AcDbEntity
8
SK2
62
256
6
ByLayer
370
13
48
1
60
0
100
AcDbMText
10
50.715636
20
-15.227503
30
0
210
0
220
0
230
1
1
\W0.5583;1,12
40
3.5
41
0
44
1.084337
50
0
71
7
72
5
7
iso_b_vert
0
LINE
5
100
100
AcDbEntity
8
SK2
62
256
6
ByLayer
370
13
48
1
60
0
100
AcDbLine
10
43
20
-1.5875
30
0
11
43
21
-18.102503
31
0
39
0
210
0
220
0
230
1
0
LINE
5
101
100
AcDbEntity
8
SK2
62
256
6
ByLayer
370
13
48
1
60
0
100
AcDbLine
10
41.88
20
-4.8875
30
0
11
41.88
21
-18.102503
31
0
39
0
210
0
220
0
230
1
0
LINE
5
102
100
AcDbEntity
8
SK2
62
256
6
ByLayer
370
13
48
1
60
0
100
AcDbLine
10
33.13
20
-16.102503
30
0
11
56.122215
21
-16.102503
31
0
39
0
210
0
220
0
230
1
0
SOLID
5
103
100
AcDbEntity
8
SK2
62
256
6
ByLayer
370
13
48
1
60
0
100
AcDbTrace
10
43
20
-16.102503
30
0
11
46.499998
21
-15.641719
31
0
12
46.500002
22
-16.563287
32
0
13
43
23
-16.102503
33
0
39
0
210
0
220
0
230
1
0
SOLID
5
104
100
AcDbEntity
8
SK2
62
256
6
ByLayer
370
13
48
1
60
0
100
AcDbTrace
10
41.88
20
-16.102503
30
0
11
38.380002
21
-16.563287
31
0
12
38.379998
22
-15.641719
32
0
13
41.88
23
-16.102503
33
0
39
0
210
0
220
0
230
1
0
ENDBLK
5
106
100
AcDbEntity
8
0
100
AcDbBlockEnd
0
BLOCK
5
10F
100
AcDbEntity
8
0
100
AcDbBlockBegin
2
DimnDraft3D5
70
0
10
0
20
0
30
0
3
DimnDraft3D5
0
MTEXT
5
109
100
AcDbEntity
8
SK2
62
256
6
ByLayer
370
13
48
1
60
0
100
AcDbMText
10
-3.808008
20
-21.468428
30
0
210
0
220
0
230
1
1
\W0.7317;77,88
40
3.5
41
0
44
1.084337
50
0
71
7
72
5
7
iso_b_vert
0
LINE
5
10A
100
AcDbEntity
8
SK2
62
256
6
ByLayer
370
13
48
1
60
0
100
AcDbLine
10
-36
20
-5.5875
30
0
11
-36
21
-24.343428
31
0
39
0
210
0
220
0
230
1
0
LINE
5
10B
100
AcDbEntity
8
SK2
62
256
6
ByLayer
370
13
48
1
60
0
100
AcDbLine
10
41.88
20
-4.8875
30
0
11
41.88
21
-24.343428
31
0
39
0
210
0
220
0
230
1
0
LINE
5
10C
100
AcDbEntity
8
SK2
62
256
6
ByLayer
370
13
48
1
60
0
100
AcDbLine
10
-36
20
-22.343428
30
0
11
41.88
21
-22.343428
31
0
39
0
210
0
220
0
230
1
0
SOLID
5
10D
100
AcDbEntity
8
SK2
62
256
6
ByLayer
370
13
48
1
60
0
100
AcDbTrace
10
-36
20
-22.343428
30
0
11
-32.500002
21
-21.882645
31
0
12
-32.499998
22
-22.804212
32
0
13
-36
23
-22.343428
33
0
39
0
210
0
220
0
230
1
0
SOLID
5
10E
100
AcDbEntity
8
SK2
62
256
6
ByLayer
370
13
48
1
60
0
100
AcDbTrace
10
41.88
20
-22.343428
30
0
11
38.380002
21
-22.804212
31
0
12
38.379998
22
-21.882645
32
0
13
41.88
23
-22.343428
33
0
39
0
210
0
220
0
230
1
0
ENDBLK
5
110
100
AcDbEntity
8
0
100
AcDbBlockEnd
0
BLOCK
5
11A
100
AcDbEntity
8
0
100
AcDbBlockBegin
2
DimnDraft3D6
70
0
10
0
20
0
30
0
3
DimnDraft3D6
0
MTEXT
5
113
100
AcDbEntity
8
SK2
62
256
6
ByLayer
370
13
48
1
60
0
100
AcDbMText
10
-46.375163
20
23.34918
30
0
210
0
220
0
230
1
1
\W0.7317;8,000
40
3.5
41
0
44
1.084337
50
90
71
7
72
5
7
iso_b_vert
0
MTEXT
5
114
100
AcDbEntity
8
SK2
62
256
6
ByLayer
370
13
48
1
60
0
100
AcDbMText
10
-46.375163
20
18.126524
30
0
210
0
220
0
230
1
1
%%c
40
3.5
41
0
44
1.084337
50
90
71
7
72
5
7
iso_b_vert
0
LINE
5
115
100
AcDbEntity
8
SK2
62
256
6
ByLayer
370
13
48
1
60
0
100
AcDbLine
10
-37.5875
20
-4
30
0
11
-46.625163
21
-4
31
0
39
0
210
0
220
0
230
1
0
LINE
5
116
100
AcDbEntity
8
SK2
62
256
6
ByLayer
370
13
48
1
60
0
100
AcDbLine
10
-37.5875
20
4
30
0
11
-46.625163
21
4
31
0
39
0
210
0
220
0
230
1
0
LINE
5
117
100
AcDbEntity
8
SK2
62
256
6
ByLayer
370
13
48
1
60
0
100
AcDbLine
10
-44.625163
20
-4
30
0
11
-44.625163
21
33.121549
31
0
39
0
210
0
220
0
230
1
0
SOLID
5
118
100
AcDbEntity
8
SK2
62
256
6
ByLayer
370
13
48
1
60
0
100
AcDbTrace
10
-44.625163
20
-4
30
0
11
-45.085946
21
-0.500002
31
0
12
-44.164379
22
-0.499998
32
0
13
-44.625163
23
-4
33
0
39
0
210
0
220
0
230
1
0
SOLID
5
119
100
AcDbEntity
8
SK2
62
256
6
ByLayer
370
13
48
1
60
0
100
AcDbTrace
10
-44.625163
20
4
30
0
11
-44.164379
21
0.500002
31
0
12
-45.085946
22
0.499998
32
0
13
-44.625163
23
4
33
0
39
0
210
0
220
0
230
1
0
ENDBLK
5
11B
100
AcDbEntity
8
0
100
AcDbBlockEnd
0
BLOCK
5
125
100
AcDbEntity
8
0
100
AcDbBlockBegin
2
DimnDraft3D7
70
0
10
0
20
0
30
0
3
DimnDraft3D7
0
MTEXT
5
11E
100
AcDbEntity
8
2
62
256
6
ByLayer
370
13
48
1
60
0
100
AcDbMText
10
53.333343
20
21.242266
30
0
210
0
220
0
230
1
1
\W0.7317;6,600
40
3.5
41
0
44
1.084337
50
90
71
7
72
5
7
iso_b_vert
0
MTEXT
5
11F
100
AcDbEntity
8
2
62
256
6
ByLayer
370
13
48
1
60
0
100
AcDbMText
10
53.333343
20
16.01961
30
0
210
0
220
0
230
1
1
%%c
40
3.5
41
0
44
1.084337
50
90
71
7
72
5
7
iso_b_vert
0
LINE
5
120
100
AcDbEntity
8
2
62
256
6
ByLayer
370
13
48
1
60
0
100
AcDbLine
10
43.4675
20
-3.3
30
0
11
57.083343
21
-3.3
31
0
39
0
210
0
220
0
230
1
0
LINE
5
121
100
AcDbEntity
8
2
62
256
6
ByLayer
370
13
48
1
60
0
100
AcDbLine
10
43.4675
20
3.3
30
0
11
57.083343
21
3.3
31
0
39
0
210
0
220
0
230
1
0
LINE
5
122
100
AcDbEntity
8
2
62
256
6
ByLayer
370
13
48
1
60
0
100
AcDbLine
10
55.083343
20
31.014635
30
0
11
55.083343
21
-12.05
31
0
39
0
210
0
220
0
230
1
0
SOLID
5
123
100
AcDbEntity
8
2
62
256
6
ByLayer
370
13
48
1
60
0
100
AcDbTrace
10
55.083343
20
-3.3
30
0
11
55.544126
21
-6.799998
31
0
12
54.622559
22
-6.800002
32
0
13
55.083343
23
-3.3
33
0
39
0
210
0
220
0
230
1
0
SOLID
5
124
100
AcDbEntity
8
2
62
256
6
ByLayer
370
13
48
1
60
0
100
AcDbTrace
10
55.083343
20
3.3
30
0
11
54.622559
21
6.799998
31
0
12
55.544126
22
6.800002
32
0
13
55.083343
23
3.3
33
0
39
0
210
0
220
0
230
1
0
ENDBLK
5
126
100
AcDbEntity
8
0
100
AcDbBlockEnd
0
ENDSEC
0
SECTION
2
ENTITIES
0
ARC
5
97
100
AcDbEntity
8
1
62
256
6
ByLayer
370
18
48
1
60
0
100
AcDbCircle
39
0
10
0
20
3.2
30
0
40
0.800000000000001
210
0
220
0
230
1
100
AcDbArc
50
33.180361
51
90
0
ARC
5
98
100
AcDbEntity
8
1
62
256
6
ByLayer
370
18
48
1
60
0
100
AcDbCircle
39
0
10
0
20
-3.2
30
0
40
0.800000000000001
210
0
220
0
230
1
100
AcDbArc
50
270
51
326.819639
0
ARC
5
99
100
AcDbEntity
8
1
62
256
6
ByLayer
370
18
48
1
60
0
100
AcDbCircle
39
0
10
-1.339123
20
-4.075642
30
0
40
0.800000000000001
210
0
220
0
230
-1
100
AcDbArc
50
33.180361
51
90.034377
0
ARC
5
9A
100
AcDbEntity
8
1
62
256
6
ByLayer
370
18
48
1
60
0
100
AcDbCircle
39
0
10
-1.339123
20
4.075642
30
0
40
0.800000000000001
210
0
220
0
230
-1
100
AcDbArc
50
269.965623
51
326.819639
0
ELLIPSE
5
9B
100
AcDbEntity
8
1
62
256
6
ByLayer
370
18
48
1
60
0
100
AcDbEllipse
10
11.25
20
-3.375885
30
0
11
-0.25
21
3.06151588455594E-17
31
0
210
0
220
0
230
1
40
1
41
-1.57368343807142
42
-0.416763920187061
0
ELLIPSE
5
9C
100
AcDbEntity
8
1
62
256
6
ByLayer
370
18
48
1
60
0
100
AcDbEllipse
10
11.25
20
3.375885
30
0
11
-0.25
21
3.06151588455594E-17
31
0
210
0
220
0
230
1
40
1
41
0.416216368647274
42
1.5776528077137
0
ELLIPSE
5
9D
100
AcDbEntity
8
1
62
256
6
ByLayer
370
18
48
1
60
0
100
AcDbEllipse
10
43.000296
20
0.000721
30
0
11
1.21858640963065
21
3.29765349161055
31
0
210
0
220
0
230
-1
40
0.115174
41
2.85936762779889
42
2.96802726630712
0
ELLIPSE
5
9E
100
AcDbEntity
8
1
62
256
6
ByLayer
370
18
48
1
60
0
100
AcDbEllipse
10
42.86055
20
0.107411
30
0
11
0.0727819104909638
21
0.301917195724638
31
0
210
0
220
0
230
-1
40
0.478434
41
1.70376928761304
42
2.45976119973612
0
ELLIPSE
5
9F
100
AcDbEntity
8
1
62
256
6
ByLayer
370
13
48
1
60
0
100
AcDbEllipse
10
11.250226
20
0.479446
30
0
11
0.0458521064883243
21
0.0888683539320008
31
0
210
0
220
0
230
1
40
0.069932
41
3.03397270476058
42
-1.70225095058928
0
ELLIPSE
5
A0
100
AcDbEntity
8
1
62
256
6
ByLayer
370
13
48
1
60
0
100
AcDbEllipse
10
42.677809
20
1.682433
30
0
11
2.00545534525598
21
-0.988015269432605
31
0
210
0
220
0
230
-1
40
0.484688
41
1.56263552448565
42
1.83650939747591
0
ELLIPSE
5
A1
100
AcDbEntity
8
1
62
256
6
ByLayer
370
18
48
1
60
0
100
AcDbEllipse
10
42.342124
20
-1.682433
30
0
11
0.511707235768347
21
1.38474641313835
31
0
210
0
220
0
230
-1
40
0.115174
41
0.7428634667035
42
1.49683574198098
0
ELLIPSE
5
A2
100
AcDbEntity
8
1
62
256
6
ByLayer
370
18
48
1
60
0
100
AcDbEllipse
10
43.000296
20
-0.000721
30
0
11
1.21858639252652
21
-3.29765344115943
31
0
210
0
220
0
230
-1
40
0.115174
41
-2.96802726497354
42
-2.85936762561939
0
ELLIPSE
5
A3
100
AcDbEntity
8
1
62
256
6
ByLayer
370
18
48
1
60
0
100
AcDbEllipse
10
42.342124
20
1.682433
30
0
11
0.511707235754911
21
-1.38474641310927
31
0
210
0
220
0
230
-1
40
0.115174
41
-1.49683574199592
42
-0.742863466704246
0
ELLIPSE
5
A4
100
AcDbEntity
8
1
62
256
6
ByLayer
370
13
48
1
60
0
100
AcDbEllipse
10
42.487903
20
1.559236
30
0
11
1.935282804754
21
-1.33249724349156
31
0
210
0
220
0
230
-1
40
0.533762
41
1.44484622736988
42
1.68811392442816
0
ELLIPSE
5
A5
100
AcDbEntity
8
1
62
256
6
ByLayer
370
18
48
1
60
0
100
AcDbEllipse
10
43.046939
20
-0.00318
30
0
11
0.137979128870269
21
-0.428995648151227
31
0
210
0
220
0
230
-1
40
0.08774
41
1.68310423176322
42
2.3233757212457
0
ELLIPSE
5
A6
100
AcDbEntity
8
1
62
256
6
ByLayer
370
18
48
1
60
0
100
AcDbEllipse
10
43.046939
20
0.00318
30
0
11
0.137979128871516
21
0.428995648153448
31
0
210
0
220
0
230
-1
40
0.08774
41
-2.32337572126555
42
-1.68310423178116
0
ELLIPSE
5
A7
100
AcDbEntity
8
1
62
256
6
ByLayer
370
13
48
1
60
0
100
AcDbEllipse
10
11.180311
20
0.517776
30
0
11
-0.0506600927491013
21
-0.0862180665675846
31
0
210
0
220
0
230
1
40
0.352307
41
-1.2057427457021
42
0.060871274865143
0
ELLIPSE
5
A8
100
AcDbEntity
8
1
62
256
6
ByLayer
370
13
48
1
60
0
100
AcDbEllipse
10
42.215313
20
0.490251
30
0
11
0.153082081612419
21
0.258003636193773
31
0
210
0
220
0
230
1
40
0.454519
41
0.917105603404795
42
2.31336900500028
0
POINT
5
6C
100
AcDbEntity
8
81
62
256
6
ByLayer
370
18
48
1
60
0
100
AcDbPoint
10
43
20
0
30
0
39
0
210
0
220
0
230
1
50
360
0
POINT
5
6E
100
AcDbEntity
8
80
62
256
6
ByLayer
370
18
48
1
60
0
100
AcDbPoint
10
0
20
0
30
0
39
0
210
0
220
0
230
1
50
360
0
POINT
5
70
100
AcDbEntity
8
SK2
62
256
6
ByLayer
370
18
48
1
60
1
100
AcDbPoint
10
-36
20
-4
30
0
39
0
210
0
220
0
230
1
50
360
0
POINT
5
72
100
AcDbEntity
8
SK2
62
256
6
ByLayer
370
18
48
1
60
1
100
AcDbPoint
10
-36
20
4
30
0
39
0
210
0
220
0
230
1
50
360
0
POINT
5
73
100
AcDbEntity
8
2
62
256
6
ByLayer
370
18
48
1
60
1
100
AcDbPoint
10
41.88
20
-3.3
30
0
39
0
210
0
220
0
230
1
50
360
0
POINT
5
75
100
AcDbEntity
8
2
62
256
6
ByLayer
370
18
48
1
60
1
100
AcDbPoint
10
41.88
20
3.3
30
0
39
0
210
0
220
0
230
1
50
360
0
SPLINE
5
A9
100
AcDbEntity
8
1
62
256
6
ByLayer
370
18
48
1
60
0
100
AcDbSpline
70
4
71
1
72
4
73
2
40
0
40
0
40
1
40
1
41
1
10
11.9462026094557
20
0.0053332341299779
30
0
41
1
10
11.9461904992816
20
0.0053389788662912
30
0
0
SPLINE
5
AA
100
AcDbEntity
8
1
62
256
6
ByLayer
370
18
48
1
60
0
100
AcDbSpline
70
4
71
2
72
6
73
3
40
0
40
0
40
0
40
1
40
1
40
1
41
1
10
41.2759486097953
20
-3.1427151139975
30
0
41
1
10
41.5647408866287
20
-3.14213463383686
30
0
41
1
10
41.8530732196244
20
-3.14335584525912
30
0
0
SPLINE
5
AB
100
AcDbEntity
8
1
62
256
6
ByLayer
370
18
48
1
60
0
100
AcDbSpline
70
4
71
3
72
30
73
26
40
0
40
0
40
0
40
0
40
0.0498326238648145
40
0.120463653257171
40
0.164052770349764
40
0.191146607339175
40
0.227404999796407
40
0.272116943959686
40
0.31309406407227
40
0.34617200338921
40
0.376206478670364
40
0.42527451137746
40
0.48629629422298
40
0.53877593931745
40
0.581208652141821
40
0.616468252918181
40
0.65090972084467
40
0.682604717945012
40
0.728623969459996
40
0.791210995694024
40
0.84001896236883
40
0.875876637383693
40
0.921897839617891
40
0.976498701072547
40
1
40
1
40
1
40
1
41
1
10
31.2118620541133
20
3.13500217886042
30
0
41
1
10
31.0843757158465
20
3.1346114328947
30
0
41
1
10
30.7761707351702
20
3.13400485142537
30
0
41
1
10
30.3562988792951
20
3.13497627761842
30
0
41
1
10
29.9946512781551
20
3.13576794408968
30
0
41
1
10
29.7211668551913
20
3.13564588229039
30
0
41
1
10
29.444593596334
20
3.13473236332709
30
0
41
1
10
29.1325213691976
20
3.13433849345157
30
0
41
1
10
28.8285754625259
20
3.13409196537043
30
0
41
1
10
28.5621940747735
20
3.13335210822507
30
0
41
1
10
28.2751046981627
20
3.13295924056263
30
0
41
1
10
27.9165041140568
20
3.13343638443411
30
0
41
1
10
27.5004635798407
20
3.1342282848054
30
0
41
1
10
27.1014002712997
20
3.13416166708603
30
0
41
1
10
26.768268932611
20
3.1333953258534
30
0
41
1
10
26.4812993862176
20
3.13301535985039
30
0
41
1
10
26.2218092923282
20
3.13304993226558
30
0
41
1
10
25.9347857560074
20
3.13321679984344
30
0
41
1
10
25.5757359396427
20
3.13341133177542
30
0
41
1
10
25.1728831440896
20
3.13260094497133
30
0
41
1
10
24.7960426257321
20
3.13216610773037
30
0
41
1
10
24.4615916501836
20
3.13216429292612
30
0
41
1
10
24.1123258205317
20
3.13236054890569
30
0
41
1
10
23.7946746122122
20
3.13244755605586
30
0
41
1
10
23.5947919783791
20
3.13236593275712
30
0
41
1
10
23.5346478238328
20
3.13231596329197
30
0
0
SPLINE
5
AC
100
AcDbEntity
8
1
62
256
6
ByLayer
370
18
48
1
60
0
100
AcDbSpline
70
4
71
3
72
14
73
10
40
0
40
0
40
0
40
0
40
0.0473639054698765
40
0.234962369685578
40
0.394162071513834
40
0.522508863241995
40
0.674545090627073
40
0.780679367687624
40
1
40
1
40
1
40
1
41
1
10
32.4471505100141
20
-0.931122624447227
30
0
41
1
10
32.446715273835
20
-0.930981764126244
30
0
41
1
10
32.4484086747073
20
-0.931220285076535
30
0
41
1
10
32.463598304307
20
-0.937083084944049
30
0
41
1
10
32.4826655056988
20
-0.942443909386071
30
0
41
1
10
32.5465006365431
20
-0.967754783070717
30
0
41
1
10
32.6757654507154
20
-1.02165897334487
30
0
41
1
10
32.8679313851703
20
-1.10912237542328
30
0
41
1
10
33.0116965491242
20
-1.17911027188583
30
0
41
1
10
33.1160732749999
20
-1.23182953452238
30
0
0
SPLINE
5
AD
100
AcDbEntity
8
1
62
256
6
ByLayer
370
18
48
1
60
0
100
AcDbSpline
70
4
71
3
72
25
73
21
40
0
40
0
40
0
40
0
40
0.0861509090552641
40
0.154367964706922
40
0.200458341223296
40
0.241795992932008
40
0.291648881744538
40
0.346933929447533
40
0.391810522397787
40
0.4273137077496
40
0.477391794464431
40
0.562508993537506
40
0.629575061268198
40
0.698709928852922
40
0.761030617788427
40
0.807453564068603
40
0.83258543273515
40
0.879749673137131
40
0.949071746372881
40
1
40
1
40
1
40
1
41
1
10
21.8209260987986
20
-3.13102941696277
30
0
41
1
10
22.0902944690419
20
-3.13062301876806
30
0
41
1
10
22.5730789323948
20
-3.13033709834232
30
0
41
1
10
23.1994824380114
20
-3.13186950801028
30
0
41
1
10
23.6870688437642
20
-3.13251313116416
30
0
41
1
10
24.1174155109098
20
-3.13236309249879
30
0
41
1
10
24.5764949858248
20
-3.13207275602772
30
0
41
1
10
25.0467002008844
20
-3.13234210067998
30
0
41
1
10
25.4719159919501
20
-3.13327888139116
30
0
41
1
10
25.8808076359492
20
-3.13332337198642
30
0
41
1
10
26.4158207850989
20
-3.13268860922301
30
0
41
1
10
27.0498026765675
20
-3.1343610511133
30
0
41
1
10
27.7434408575471
20
-3.13393404597105
30
0
41
1
10
28.3656883448895
20
-3.13255107537012
30
0
41
1
10
28.9232181199852
20
-3.1344211718424
30
0
41
1
10
29.3428380962736
20
-3.13443872055382
30
0
41
1
10
29.7149317336812
20
-3.13567661982359
30
0
41
1
10
30.1587922040641
20
-3.13578228831523
30
0
41
1
10
30.683542430871
20
-3.13397100365708
30
0
41
1
10
31.0604242669708
20
-3.13469163214242
30
0
41
1
10
31.220038628409
20
-3.13513268181506
30
0
0
SPLINE
5
AE
100
AcDbEntity
8
1
62
256
6
ByLayer
370
18
48
1
60
0
100
AcDbSpline
70
4
71
3
72
8
73
4
40
0
40
0
40
0
40
0
40
1
40
1
40
1
40
1
41
1
10
20.8683891352084
20
0.33343821093365
30
0
41
1
10
20.8697821029313
20
0.33334976079928
30
0
41
1
10
20.8659345738894
20
0.336013298698219
30
0
41
1
10
20.8515889083001
20
0.343447694253484
30
0
0
SPLINE
5
AF
100
AcDbEntity
8
1
62
256
6
ByLayer
370
18
48
1
60
0
100
AcDbSpline
70
4
71
2
72
6
73
3
40
0
40
0
40
0
40
1
40
1
40
1
41
1
10
11.9721403072434
20
3.12769619788688
30
0
41
1
10
11.6116281295015
20
3.12782641747057
30
0
41
1
10
11.2512175126924
20
3.12562888962304
30
0
0
SPLINE
5
B0
100
AcDbEntity
8
1
62
256
6
ByLayer
370
18
48
1
60
0
100
AcDbSpline
70
4
71
2
72
6
73
3
40
0
40
0
40
0
40
1
40
1
40
1
41
1
10
11.2512175126924
20
-3.12562888962307
30
0
41
1
10
11.6109238744617
20
-3.12782327438373
30
0
41
1
10
11.9707315987243
20
-3.12769445988945
30
0
0
SPLINE
5
B1
100
AcDbEntity
8
1
62
256
6
ByLayer
370
18
48
1
60
0
100
AcDbSpline
70
4
71
3
72
18
73
14
40
0
40
0
40
0
40
0
40
0.25
40
0.25
40
0.5
40
0.5
40
0.625
40
0.625
40
0.75
40
0.75
40
0.875
40
0.875
40
1
40
1
40
1
40
1
41
1
10
41.6891093828182
20
1.0039766111118
30
0
41
1
10
41.7830386877673
20
1.02632206744991
30
0
41
1
10
41.8763033346803
20
1.05170486920875
30
0
41
1
10
42.0585489645021
20
1.11243632783675
30
0
41
1
10
42.1482140551306
20
1.147703941179
30
0
41
1
10
42.2753061441676
20
1.21553643192902
30
0
41
1
10
42.3161179657938
20
1.24053462001484
30
0
41
1
10
42.3928295478544
20
1.29823068610443
30
0
41
1
10
42.4283779998222
20
1.33072111715615
30
0
41
1
10
42.4881973353986
20
1.40540665866249
30
0
41
1
10
42.5123666162576
20
1.44806891372429
30
0
41
1
10
42.5407380641151
20
1.54086039299139
30
0
41
1
10
42.5446294416907
20
1.59010597600931
30
0
41
1
10
42.5389860631742
20
1.6388841946
30
0
0
SPLINE
5
B2
100
AcDbEntity
8
1
62
256
6
ByLayer
370
18
48
1
60
0
100
AcDbSpline
70
4
71
3
72
14
73
10
40
0
40
0
40
0
40
0
40
0.25
40
0.25
40
0.5
40
0.5
40
0.75
40
0.75
40
1
40
1
40
1
40
1
41
1
10
14.1536816034052
20
-2.90953423239751
30
0
41
1
10
13.9073934552806
20
-2.9549198231451
30
0
41
1
10
13.6624859447417
20
-2.99342460838574
30
0
41
1
10
13.1744893769757
20
-3.05801983996523
30
0
41
1
10
12.9314204262714
20
-3.08393988321373
30
0
41
1
10
12.4468017135293
20
-3.11910400674714
30
0
41
1
10
12.2052119654791
20
-3.12849048253696
30
0
41
1
10
11.7236294180522
20
-3.12721283080069
30
0
41
1
10
11.4856293358135
20
-3.11661232565373
30
0
41
1
10
11.2512888531777
20
-3.09367232170621
30
0
0
SPLINE
5
B3
100
AcDbEntity
8
1
62
256
6
ByLayer
370
18
48
1
60
0
100
AcDbSpline
70
4
71
3
72
14
73
10
40
0
40
0
40
0
40
0
40
0.25
40
0.25
40
0.5
40
0.5
40
0.75
40
0.75
40
1
40
1
40
1
40
1
41
1
10
11.2512888523531
20
-3.09367232162518
30
0
41
1
10
11.2292633827022
20
-3.09151620947705
30
0
41
1
10
11.2068121312126
20
-3.09227570018243
30
0
41
1
10
11.1607994866119
20
-3.10141475584354
30
0
41
1
10
11.1379340261267
20
-3.10973232156073
30
0
41
1
10
11.0942711368963
20
-3.1354115496938
30
0
41
1
10
11.074581228632
20
-3.15217373795363
30
0
41
1
10
11.0411177782535
20
-3.19252610051859
30
0
41
1
10
11.0279365277505
20
-3.21549022921675
30
0
41
1
10
11.0185540151482
20
-3.23945498537958
30
0
0
SPLINE
5
B4
100
AcDbEntity
8
1
62
256
6
ByLayer
370
18
48
1
60
0
100
AcDbSpline
70
4
71
3
72
22
73
18
40
0
40
0
40
0
40
0
40
0.125
40
0.125
40
0.1875
40
0.1875
40
0.25
40
0.25
40
0.5
40
0.5
40
0.625
40
0.625
40
0.75
40
0.75
40
0.875
40
0.875
40
1
40
1
40
1
40
1
41
1
10
41.8560743612243
20
-3.14290986205867
30
0
41
1
10
41.8087595254665
20
-3.14283438778963
30
0
41
1
10
41.763807750891
20
-3.13562066030315
30
0
41
1
10
41.7001071486296
20
-3.11354149676168
30
0
41
1
10
41.6794964657624
20
-3.10430028822952
30
0
41
1
10
41.6395744110982
20
-3.08189295737287
30
0
41
1
10
41.6202370416617
20
-3.06868645905374
30
0
41
1
10
41.5282862512497
20
-2.99355624084097
30
0
41
1
10
41.4685240694786
20
-2.90426637475693
30
0
41
1
10
41.400906563179
20
-2.72374393743755
30
0
41
1
10
41.3820142630739
20
-2.65507736689986
30
0
41
1
10
41.3531980135586
20
-2.50550344130931
30
0
41
1
10
41.3430901156328
20
-2.4243706401289
30
0
41
1
10
41.3314335130111
20
-2.24947424895794
30
0
41
1
10
41.3298835654138
20
-2.15571249311557
30
0
41
1
10
41.3357106200623
20
-1.95501549472993
30
0
41
1
10
41.343083705682
20
-1.84946573127124
30
0
41
1
10
41.3546817533448
20
-1.74019432749395
30
0
0
SPLINE
5
B5
100
AcDbEntity
8
1
62
256
6
ByLayer
370
18
48
1
60
0
100
AcDbSpline
70
4
71
3
72
18
73
14
40
0
40
0
40
0
40
0
40
0.124999999999999
40
0.124999999999999
40
0.249999999999997
40
0.249999999999997
40
0.500000000000001
40
0.500000000000001
40
0.625000000000003
40
0.625000000000003
40
0.750000000000005
40
0.750000000000005
40
1
40
1
40
1
40
1
41
1
10
39.2521562714254
20
0.841892381955432
30
0
41
1
10
39.2993267920894
20
0.710469003158607
30
0
41
1
10
39.3552475805757
20
0.581298127949907
30
0
41
1
10
39.481808557121
20
0.326745461594612
30
0
41
1
10
39.5527382075534
20
0.200909296803587
30
0
41
1
10
39.7833327927922
20
-0.16859913448846
30
0
41
1
10
39.9553584340166
20
-0.396914299454522
30
0
41
1
10
40.2326973982424
20
-0.720373614936477
30
0
41
1
10
40.3286896343808
20
-0.825189632493988
30
0
41
1
10
40.5255189962033
20
-1.0278677166317
30
0
41
1
10
40.6256890175631
20
-1.12507964279459
30
0
41
1
10
40.930765181811
20
-1.40597971206782
30
0
41
1
10
41.140172337838
20
-1.57908517708171
30
0
41
1
10
41.3546817533448
20
-1.74019432749395
30
0
0
SPLINE
5
B6
100
AcDbEntity
8
1
62
256
6
ByLayer
370
18
48
1
60
0
100
AcDbSpline
70
4
71
3
72
8
73
4
40
0
40
0
40
0
40
0
40
1
40
1
40
1
40
1
41
1
10
11.0519097751776
20
0.503556333489882
30
0
41
1
10
11.0731368303649
20
0.474121409109984
30
0
41
1
10
11.1006930111182
20
0.448590292716233
30
0
41
1
10
11.1338514560277
20
0.430002267328945
30
0
0
SPLINE
5
B7
100
AcDbEntity
8
1
62
256
6
ByLayer
370
18
48
1
60
0
100
AcDbSpline
70
4
71
3
72
22
73
18
40
0
40
0
40
0
40
0
40
0.188451669842122
40
0.188451669842122
40
0.292568496094272
40
0.292568496094272
40
0.396685322346423
40
0.396685322346423
40
0.500802148598574
40
0.500802148598574
40
0.604918974850724
40
0.604918974850724
40
0.813152627355028
40
0.813152627355028
40
0.917269453607179
40
0.917269453607179
40
1
40
1
40
1
40
1
41
1
10
26.7257654402502
20
2.2030052151899
30
0
41
1
10
27.3078881778034
20
1.98022307782895
30
0
41
1
10
27.8876353828623
20
1.72918143832905
30
0
41
1
10
28.7911856409154
20
1.30686073342093
30
0
41
1
10
29.1132380225833
20
1.15039078275683
30
0
41
1
10
29.7553866998437
20
0.83025262111471
30
0
41
1
10
30.0761652389299
20
0.666420325611
30
0
41
1
10
30.71864028238
20
0.334045340067746
30
0
41
1
10
31.0411868654327
20
0.164987697536446
30
0
41
1
10
31.6819371428962
20
-0.170771847653839
30
0
41
1
10
32.0006876305033
20
-0.337790903803466
30
0
41
1
10
32.9544182956923
20
-0.831790399115704
30
0
41
1
10
33.5871352761141
20
-1.15125584352296
30
0
41
1
10
34.5406510156495
20
-1.59863949843816
30
0
41
1
10
34.8593074662396
20
-1.74234126702115
30
0
41
1
10
35.4340784955173
20
-1.98782413510708
30
0
41
1
10
35.6901248847791
20
-2.0923933503787
30
0
41
1
10
35.9451478154725
20
-2.19099705496853
30
0
0
SPLINE
5
B8
100
AcDbEntity
8
1
62
256
6
ByLayer
370
13
48
1
60
0
100
AcDbSpline
70
4
71
3
72
16
73
12
40
0
40
0
40
0
40
0
40
0.0331012263420108
40
0.0331012263420108
40
0.355400817561341
40
0.355400817561341
40
0.67770040878067
40
0.67770040878067
40
0.838850204390335
40
0.838850204390335
40
1
40
1
40
1
40
1
41
1
10
35.9451478152659
20
-2.19099705488864
30
0
41
1
10
36.0110725795745
20
-2.21648662936556
30
0
41
1
10
36.0769289513053
20
-2.24157755883027
30
0
41
1
10
36.7828023093928
20
-2.50635169727025
30
0
41
1
10
37.4167338214882
20
-2.70739932017187
30
0
41
1
10
38.6848353815031
20
-3.01934060188609
30
0
41
1
10
39.3190793350419
20
-3.12995482355481
30
0
41
1
10
40.2804558453338
20
-3.21963756509808
30
0
41
1
10
40.6029279209698
20
-3.23678068073937
30
0
41
1
10
41.2454069431955
20
-3.24444517677111
30
0
41
1
10
41.5663082696722
20
-3.23508806888185
30
0
41
1
10
41.8876656877335
20
-3.21242501284374
30
0
0
SPLINE
5
B9
100
AcDbEntity
8
1
62
256
6
ByLayer
370
18
48
1
60
0
100
AcDbSpline
70
4
71
3
72
12
73
8
40
0
40
0
40
0
40
0
40
0.261917301804754
40
0.261917301804754
40
0.523834603609508
40
0.523834603609508
40
1
40
1
40
1
40
1
41
1
10
19.1859584407141
20
3.13863360622079
30
0
41
1
10
18.9189025065579
20
3.09616293308389
30
0
41
1
10
18.650077856585
20
3.04607885853145
30
0
41
1
10
18.1085295114795
20
2.93359216538013
30
0
41
1
10
17.8352482619427
20
2.8710339970697
30
0
41
1
10
17.0630449179722
20
2.68246844249492
30
0
41
1
10
16.5627714686032
20
2.54653699986696
30
0
41
1
10
16.0579634990029
20
2.4064300678474
30
0
0
SPLINE
5
BA
100
AcDbEntity
8
1
62
256
6
ByLayer
370
18
48
1
60
0
100
AcDbSpline
70
4
71
3
72
66
73
62
40
0
40
0
40
0
40
0
40
0.0156932270301906
40
0.0156932270301906
40
0.0521490334364797
40
0.0521490334364797
40
0.0886048398427689
40
0.0886048398427689
40
0.125060646249058
40
0.125060646249058
40
0.161516452655347
40
0.161516452655347
40
0.179744355858492
40
0.179744355858492
40
0.197972259061636
40
0.197972259061636
40
0.234428065467925
40
0.234428065467925
40
0.270883871874215
40
0.270883871874215
40
0.307339678280504
40
0.307339678280504
40
0.343795484686793
40
0.343795484686793
40
0.380251291093082
40
0.380251291093082
40
0.416707097499371
40
0.416707097499371
40
0.45316290390566
40
0.45316290390566
40
0.489618710311948
40
0.489618710311948
40
0.526074516718236
40
0.526074516718236
40
0.562530323124525
40
0.562530323124525
40
0.598986129530813
40
0.598986129530813
40
0.635441935937102
40
0.635441935937102
40
0.653669839140246
40
0.653669839140246
40
0.671897742343391
40
0.671897742343391
40
0.708353548749681
40
0.708353548749681
40
0.744809355155971
40
0.744809355155971
40
0.781265161562261
40
0.781265161562261
40
0.817720967968551
40
0.817720967968551
40
0.85417677437484
40
0.85417677437484
40
0.89063258078113
40
0.89063258078113
40
0.92708838718742
40
0.92708838718742
40
0.96354419359371
40
0.96354419359371
40
1
40
1
40
1
40
1
41
1
10
35.6634151141599
20
-2.36284303025551
30
0
41
1
10
35.5506922390019
20
-2.40044733196001
30
0
41
1
10
35.4379015303512
20
-2.43679889251368
30
0
41
1
10
35.0627673931925
20
-2.55326214941792
30
0
41
1
10
34.8003190854713
20
-2.62921154762469
30
0
41
1
10
34.276439161021
20
-2.76524776731606
30
0
41
1
10
34.0147015616868
20
-2.82606756682418
30
0
41
1
10
33.4915519140521
20
-2.93132229174739
30
0
41
1
10
33.2297799558463
20
-2.97512990207957
30
0
41
1
10
32.704955749866
20
-3.04931451078386
30
0
41
1
10
32.4426884022087
20
-3.0788962778939
30
0
41
1
10
32.0500349908124
20
-3.11002116522673
30
0
41
1
10
31.9191828809869
20
-3.1181794957005
30
0
41
1
10
31.6575384883913
20
-3.12926856432466
30
0
41
1
10
31.5267601663549
20
-3.13221021852135
30
0
41
1
10
31.1343706138794
20
-3.13650558289623
30
0
41
1
10
30.8725896643292
20
-3.13186417035414
30
0
41
1
10
30.3475932994803
20
-3.10605767571812
30
0
41
1
10
30.0856088758254
20
-3.0851833080618
30
0
41
1
10
29.5625196295734
20
-3.02465001070942
30
0
41
1
10
29.3009198913114
20
-2.98571277229243
30
0
41
1
10
28.7776996345855
20
-2.89292910338068
30
0
41
1
10
28.5158293673824
20
-2.83777258358796
30
0
41
1
10
27.9909589667208
20
-2.71478578228027
30
0
41
1
10
27.7290959007071
20
-2.64650982368752
30
0
41
1
10
27.2061573864159
20
-2.49459561799196
30
0
41
1
10
26.9445816922363
20
-2.4113235472721
30
0
41
1
10
26.4211382102757
20
-2.23206838120595
30
0
41
1
10
26.1589887980544
20
-2.13638240453216
30
0
41
1
10
25.6345200393014
20
-1.93473983519274
30
0
41
1
10
25.3727812466166
20
-1.82837318176365
30
0
41
1
10
24.8500945778805
20
-1.60517530114822
30
0
41
1
10
24.5885299158306
20
-1.48969175817578
30
0
41
1
10
24.0648757728455
20
-1.25150686839237
30
0
41
1
10
23.8025801741669
20
-1.12800822235391
30
0
41
1
10
23.2785986387967
20
-0.876302823933344
30
0
41
1
10
23.0170852786443
20
-0.747474765729947
30
0
41
1
10
22.4943340641911
20
-0.487102524193006
30
0
41
1
10
22.2328853410937
20
-0.355683153260458
30
0
41
1
10
21.8400569814982
20
-0.157478965947149
30
0
41
1
10
21.7090660113466
20
-0.0911172154032158
30
0
41
1
10
21.4468688158736
20
0.0420363063522018
30
0
41
1
10
21.316057931311
20
0.108615673773102
30
0
41
1
10
20.9244283604961
20
0.30709330066162
30
0
41
1
10
20.663982848277
20
0.437932494799725
30
0
41
1
10
20.1448884692414
20
0.696770357262494
30
0
41
1
10
19.88593869882
20
0.824663872331797
30
0
41
1
10
19.3680006479156
20
1.07462833245597
30
0
41
1
10
19.1094167891047
20
1.19746830187788
30
0
41
1
10
18.5918895184541
20
1.43563862667079
30
0
41
1
10
18.3326453632573
20
1.55032653903422
30
0
41
1
10
17.8131485573172
20
1.77305280861231
30
0
41
1
10
17.5530891246989
20
1.88131192674794
30
0
41
1
10
17.0302823962624
20
2.08644824678189
30
0
41
1
10
16.7675494677809
20
2.18351579141205
30
0
41
1
10
16.2446404249487
20
2.36452330264723
30
0
41
1
10
15.9833780681128
20
2.44914168912044
30
0
41
1
10
15.4611380517954
20
2.60530782154859
30
0
41
1
10
15.2004265789558
20
2.67706599819979
30
0
41
1
10
14.6778323704786
20
2.80470712128087
30
0
41
1
10
14.4160154247579
20
2.86090034274949
30
0
41
1
10
14.1537283342817
20
2.90950536022524
30
0
0
SPLINE
5
BB
100
AcDbEntity
8
1
62
256
6
ByLayer
370
18
48
1
60
0
100
AcDbSpline
70
4
71
3
72
8
73
4
40
0
40
0
40
0
40
0
40
1
40
1
40
1
40
1
41
1
10
41.8656089379636
20
-3.27162406139888
30
0
41
1
10
41.8729682104916
20
-3.25189877104808
30
0
41
1
10
41.8803205552194
20
-3.23216549832884
30
0
41
1
10
41.8876656877335
20
-3.21242501284374
30
0
0
SPLINE
5
BC
100
AcDbEntity
8
1
62
256
6
ByLayer
370
18
48
1
60
0
100
AcDbSpline
70
4
71
3
72
12
73
8
40
0
40
0
40
0
40
0
40
0.382263329840714
40
0.382263329840714
40
0.764526659681428
40
0.764526659681428
40
1
40
1
40
1
40
1
41
1
10
19.185587018956
20
-3.13856823427798
30
0
41
1
10
19.4245129830794
20
-3.1766696688467
30
0
41
1
10
19.6629693786069
20
-3.20713980918194
30
0
41
1
10
20.1382587032694
20
-3.25387027186096
30
0
41
1
10
20.3747282998999
20
-3.2701519622523
30
0
41
1
10
20.7566187741375
20
-3.28464350534514
30
0
41
1
10
20.9022183511906
20
-3.28742373293147
30
0
41
1
10
21.0477297841433
20
-3.28747707406046
30
0
0
SPLINE
5
BD
100
AcDbEntity
8
1
62
256
6
ByLayer
370
18
48
1
60
0
100
AcDbSpline
70
4
71
3
72
24
73
20
40
0
40
0
40
0
40
0
40
0.0913216904938845
40
0.0913216904938845
40
0.204906479182149
40
0.204906479182149
40
0.318491267870413
40
0.318491267870413
40
0.432076056558678
40
0.432076056558678
40
0.545660845246942
40
0.545660845246942
40
0.659245633935207
40
0.659245633935207
40
0.772830422623471
40
0.772830422623471
40
0.886415211311736
40
0.886415211311736
40
1
40
1
40
1
40
1
41
1
10
35.6727084614727
20
2.35751531756
30
0
41
1
10
35.8627966835703
20
2.42828205017312
30
0
41
1
10
36.0531688769607
20
2.49581255487843
30
0
41
1
10
36.4807618513598
20
2.64019812166541
30
0
41
1
10
36.7185558331177
20
2.71469966314416
30
0
41
1
10
37.1967574798513
20
2.85130922527591
30
0
41
1
10
37.435263760419
20
2.91350832330303
30
0
41
1
10
37.909686562632
20
3.02442356191912
30
0
41
1
10
38.1466913543916
20
3.07265819870133
30
0
41
1
10
38.6193793025781
20
3.15579055470516
30
0
41
1
10
38.8548339817386
20
3.19071428565565
30
0
41
1
10
39.3262693227377
20
3.24607289344783
30
0
41
1
10
39.5622921964799
20
3.26660556694591
30
0
41
1
10
40.0340365439736
20
3.29361796057768
30
0
41
1
10
40.2698148698001
20
3.29996521768828
30
0
41
1
10
40.7436118064189
20
3.29807482598235
30
0
41
1
10
40.9810830622385
20
3.28991550379865
30
0
41
1
10
41.4573029425047
20
3.25866769401378
30
0
41
1
10
41.6967319969386
20
3.23563944147765
30
0
41
1
10
41.9356920546011
20
3.20555776020751
30
0
0
SPLINE
5
BE
100
AcDbEntity
8
1
62
256
6
ByLayer
370
18
48
1
60
0
100
AcDbSpline
70
4
71
3
72
8
73
4
40
0
40
0
40
0
40
0
40
1
40
1
40
1
40
1
41
1
10
11.0519097751786
20
0.503556333489314
30
0
41
1
10
11.0309325984504
20
0.530483889014903
30
0
41
1
10
11.0180971233475
20
0.562993259263209
30
0
41
1
10
11.0181024147643
20
0.59689417746614
30
0
0
SPLINE
5
BF
100
AcDbEntity
8
1
62
256
6
ByLayer
370
18
48
1
60
0
100
AcDbSpline
70
4
71
3
72
14
73
10
40
0
40
0
40
0
40
0
40
0.182696743719506
40
0.182696743719506
40
0.478795075439825
40
0.478795075439825
40
0.774893407160147
40
0.774893407160147
40
1
40
1
40
1
40
1
41
1
10
15.4089680090584
20
-2.22371086156809
30
0
41
1
10
15.3343245517062
20
-2.27088782770144
30
0
41
1
10
15.2593996240524
20
-2.31745016885475
30
0
41
1
10
15.0619436661829
20
-2.43728891640839
30
0
41
1
10
14.9387503461491
20
-2.50924243048126
30
0
41
1
10
14.6893688288345
20
-2.64754681795603
30
0
41
1
10
14.5636352825994
20
-2.71359981043446
30
0
41
1
10
14.343627298469
20
-2.82232878933468
30
0
41
1
10
14.2486703711195
20
-2.86699739943043
30
0
41
1
10
14.1536962839319
20
-2.90951971006254
30
0
0
SPLINE
5
C0
100
AcDbEntity
8
1
62
256
6
ByLayer
370
18
48
1
60
0
100
AcDbSpline
70
4
71
3
72
10
73
6
40
0
40
0
40
0
40
0
40
0.393529360918906
40
0.393529360918906
40
1
40
1
40
1
40
1
41
1
10
11.0185221101873
20
-3.28144194245724
30
0
41
1
10
11.0185268127352
20
-3.28141432719107
30
0
41
1
10
11.0185313696785
20
-3.27922159866446
30
0
41
1
10
11.0185423957641
20
-3.26810061201076
30
0
41
1
10
11.018548544142
20
-3.25625628564657
30
0
41
1
10
11.0185540151479
20
-3.23945498538035
30
0
0
SPLINE
5
C1
100
AcDbEntity
8
1
62
256
6
ByLayer
370
13
48
1
60
0
100
AcDbSpline
70
4
71
3
72
10
73
6
40
0
40
0
40
0
40
0
40
0.5
40
0.5
40
1
40
1
40
1
40
1
41
1
10
11.0181024147643
20
0.596894177467391
30
0
41
1
10
11.028684175949
20
0.577538504759616
30
0
41
1
10
11.0434991048795
20
0.559762481074273
30
0
41
1
10
11.0827435566779
20
0.527639829322567
30
0
41
1
10
11.1062542179561
20
0.514092384968876
30
0
41
1
10
11.1338514560277
20
0.503668373582855
30
0
0
SPLINE
5
C2
100
AcDbEntity
8
1
62
256
6
ByLayer
370
18
48
1
60
0
100
AcDbSpline
70
4
71
3
72
12
73
8
40
0
40
0
40
0
40
0
40
0.329547996463731
40
0.329547996463731
40
0.664773998231865
40
0.664773998231865
40
1
40
1
40
1
40
1
41
1
10
11.9717362051865
20
3.12786798102081
30
0
41
1
10
12.2065708777193
20
3.12829264855833
30
0
41
1
10
12.444021259842
20
3.11916921771652
30
0
41
1
10
12.9261937231159
20
3.08445457889613
30
0
41
1
10
13.1701900620714
20
3.05853279728009
30
0
41
1
10
13.6602055287185
20
2.99378184975817
30
0
41
1
10
13.9062014079471
20
2.95513949174406
30
0
41
1
10
14.1536816034068
20
2.90953423239719
30
0
0
SPLINE
5
C3
100
AcDbEntity
8
1
62
256
6
ByLayer
370
13
48
1
60
0
100
AcDbSpline
70
4
71
3
72
8
73
4
40
0
40
0
40
0
40
0
40
1
40
1
40
1
40
1
41
1
10
11.2503772141228
20
0.464618185969044
30
0
41
1
10
11.2097985881609
20
0.4767867010803
30
0
41
1
10
11.1701691069484
20
0.489950493347777
30
0
41
1
10
11.1338514560277
20
0.503668373582855
30
0
0
SPLINE
5
C4
100
AcDbEntity
8
1
62
256
6
ByLayer
370
18
48
1
60
0
100
AcDbSpline
70
4
71
3
72
16
73
12
40
0
40
0
40
0
40
0
40
0.252552324473077
40
0.252552324473077
40
0.370018958912643
40
0.370018958912643
40
0.487485593352209
40
0.487485593352209
40
0.722418862231347
40
0.722418862231347
40
1
40
1
40
1
40
1
41
1
10
21.8459284148829
20
-3.1309960754223
30
0
41
1
10
21.5039314238204
20
-3.13007336305736
30
0
41
1
10
21.1614845473047
20
-3.11473676899791
30
0
41
1
10
20.6578464883587
20
-3.07106952515812
30
0
41
1
10
20.4976254239885
20
-3.05405198635498
30
0
41
1
10
20.1763876370226
20
-3.01375459923341
30
0
41
1
10
20.0154204577696
20
-2.99047113036781
30
0
41
1
10
19.5345604180679
20
-2.91199343785667
30
0
41
1
10
19.2155033144644
20
-2.84804890289968
30
0
41
1
10
18.5211962698518
20
-2.6847590719151
30
0
41
1
10
18.146264487356
20
-2.58104775204302
30
0
41
1
10
17.7711469855122
20
-2.46370721191022
30
0
0
SPLINE
5
C5
100
AcDbEntity
8
1
62
256
6
ByLayer
370
13
48
1
60
0
100
AcDbSpline
70
4
71
3
72
16
73
12
40
0
40
0
40
0
40
0
40
0.120036826131611
40
0.120036826131611
40
0.266697355109676
40
0.266697355109676
40
0.41335788408774
40
0.41335788408774
40
0.70667894204387
40
0.70667894204387
40
1
40
1
40
1
40
1
41
1
10
17.771146031047
20
-2.46370691334386
30
0
41
1
10
17.5112957717257
20
-2.38242311396243
30
0
41
1
10
17.2513563931852
20
-2.29459924123032
30
0
41
1
10
16.6726695693916
20
-2.08615540159838
30
0
41
1
10
16.353669392419
20
-1.96243667937574
30
0
41
1
10
15.7128860228759
20
-1.69883354874642
30
0
41
1
10
15.3904594632637
20
-1.55889641503862
30
0
41
1
10
14.4308804499611
20
-1.12545914911422
30
0
41
1
10
13.7966198674146
20
-0.816528966879304
30
0
41
1
10
12.5275967893444
20
-0.181476867074252
30
0
41
1
10
11.8923772297604
20
0.143716121816226
30
0
41
1
10
11.2503772141229
20
0.464618185969016
30
0
0
SPLINE
5
C6
100
AcDbEntity
8
1
62
256
6
ByLayer
370
18
48
1
60
0
100
AcDbSpline
70
4
71
3
72
12
73
8
40
0
40
0
40
0
40
0
40
0.249999999999994
40
0.249999999999994
40
0.499999999999988
40
0.499999999999988
40
1
40
1
40
1
40
1
41
1
10
41.887665687718
20
-3.21242501284485
30
0
41
1
10
41.892538888619
20
-3.19932799227135
30
0
41
1
10
41.8970846769132
20
-3.1859902656935
30
0
41
1
10
41.9042614269676
20
-3.16206500687053
30
0
41
1
10
41.9068726879785
20
-3.15149762977822
30
0
41
1
10
41.910873797765
20
-3.12811511569183
30
0
41
1
10
41.9086902429352
20
-3.12366972231726
30
0
41
1
10
41.9040870353796
20
-3.12648430424741
30
0
0
SPLINE
5
C7
100
AcDbEntity
8
1
62
256
6
ByLayer
370
18
48
1
60
0
100
AcDbSpline
70
4
71
3
72
16
73
12
40
0
40
0
40
0
40
0
40
0.150671858511808
40
0.150671858511808
40
0.323333351572404
40
0.323333351572404
40
0.495994844632999
40
0.495994844632999
40
0.841317830754189
40
0.841317830754189
40
1
40
1
40
1
40
1
41
1
10
19.1857707935069
20
3.13864245246012
30
0
41
1
10
19.0742019534793
20
3.09358550892392
30
0
41
1
10
18.9625164542272
20
3.04732266868331
30
0
41
1
10
18.7224641678326
20
2.94535526752341
30
0
41
1
10
18.5940338662767
20
2.88926894009737
30
0
41
1
10
18.3363928900572
20
2.77387590595356
30
0
41
1
10
18.2068697381436
20
2.714418129243
30
0
41
1
10
17.8197468876042
20
2.53309307176784
30
0
41
1
10
17.5632790031773
20
2.40804313857018
30
0
41
1
10
17.1891583377041
20
2.22375106109382
30
0
41
1
10
17.0713956055829
20
2.16547558234095
30
0
41
1
10
16.9534516147924
20
2.10737211200822
30
0
0
SPLINE
5
C8
100
AcDbEntity
8
1
62
256
6
ByLayer
370
13
48
1
60
0
100
AcDbSpline
70
4
71
3
72
27
73
23
40
0
40
0
40
0
40
0
40
0.138507404036076
40
0.138507404036076
40
0.207761106054115
40
0.207761106054115
40
0.277014808072153
40
0.346268510090191
40
0.346268510090191
40
0.41552221210823
40
0.41552221210823
40
0.484775914126268
40
0.484775914126268
40
0.554029616144306
40
0.554029616144306
40
0.692537020180383
40
0.692537020180383
40
0.83104442421646
40
0.83104442421646
40
0.969551828252536
40
0.969551828252536
40
1
40
1
40
1
40
1
41
1
10
11.2503772141228
20
0.464618185969044
30
0
41
1
10
11.2504447333563
20
0.667881490551139
30
0
41
1
10
11.2505021477332
20
0.865819514399362
30
0
41
1
10
11.2505784963412
20
1.15483071180134
30
0
41
1
10
11.2506023268921
20
1.24996281451874
30
0
41
1
10
11.2506467559766
20
1.43406380300848
30
0
41
1
10
11.2506882024506
20
1.61291165025034
30
0
41
1
10
11.2507255472782
20
1.78143760933537
30
0
41
1
10
11.2507616652676
20
1.94474658950207
30
0
41
1
10
11.2507791610152
20
2.02401934569636
30
0
41
1
10
11.2508134378698
20
2.17609289177523
30
0
41
1
10
11.2508301282423
20
2.2484866327151
30
0
41
1
10
11.2508632941802
20
2.38602849140332
30
0
41
1
10
11.2508798269921
20
2.4513683390818
30
0
41
1
10
11.2509291682263
20
2.63361693240424
30
0
41
1
10
11.2509619822727
20
2.73773752879569
30
0
41
1
10
11.2510297684775
20
2.91173840703533
30
0
41
1
10
11.2510650496013
20
2.98173155502607
30
0
41
1
10
11.2511344197428
20
3.08082910012848
30
0
41
1
10
11.2511688085261
20
3.11102031781917
30
0
41
1
10
11.251208470301
20
3.12397242590257
30
0
41
1
10
11.2512155387691
20
3.12534439313401
30
0
41
1
10
11.2512224691549
20
3.12574894238699
30
0
0
SPLINE
5
C9
100
AcDbEntity
8
1
62
256
6
ByLayer
370
18
48
1
60
0
100
AcDbSpline
70
4
71
3
72
44
73
40
40
0
40
0
40
0
40
0
40
0.0475115773500303
40
0.0475115773500303
40
0.0712673660250455
40
0.0712673660250455
40
0.0950231547000606
40
0.0950231547000606
40
0.190046309400123
40
0.190046309400123
40
0.285069464100185
40
0.285069464100185
40
0.308825252775202
40
0.308825252775202
40
0.332581041450219
40
0.332581041450219
40
0.380092618800251
40
0.380092618800251
40
0.475115773500316
40
0.475115773500316
40
0.498871562175333
40
0.498871562175333
40
0.522627350850349
40
0.522627350850349
40
0.570138928200384
40
0.570138928200384
40
0.665162082900453
40
0.665162082900453
40
0.712673660250487
40
0.712673660250487
40
0.76018523760052
40
0.76018523760052
40
0.950231547000652
40
0.950231547000652
40
0.973987335675669
40
0.973987335675669
40
0.997743124350685
40
0.997743124350685
40
1
40
1
40
1
40
1
41
1
10
41.8656089379637
20
-3.27162406139888
30
0
41
1
10
41.5436421305551
20
-3.29398352359908
30
0
41
1
10
41.2221869141424
20
-3.30286388893856
30
0
41
1
10
40.7395770123675
20
-3.29605245074473
30
0
41
1
10
40.578635800516
20
-3.2904260005169
30
0
41
1
10
40.2564196582939
20
-3.27246348322811
30
0
41
1
10
40.0949192652371
20
-3.26010094662016
30
0
41
1
10
39.2899059867963
20
-3.18191914052335
30
0
41
1
10
38.6526074240006
20
-3.06709924836514
30
0
41
1
10
37.3778034193707
20
-2.74448002908915
30
0
41
1
10
36.740228593531
20
-2.53677706299499
30
0
41
1
10
35.9347550789051
20
-2.22697373190854
30
0
41
1
10
35.7733162830335
20
-2.1625259869638
30
0
41
1
10
35.4518686243678
20
-2.03000765042049
30
0
41
1
10
35.2915437267285
20
-1.96182115320045
30
0
41
1
10
34.8114942766146
20
-1.75196594610267
30
0
41
1
10
34.4927087578493
20
-1.60497788088301
30
0
41
1
10
33.5376443814368
20
-1.14704739752395
30
0
41
1
10
32.9023203841374
20
-0.819727069844731
30
0
41
1
10
32.1019979704161
20
-0.39714707704195
30
0
41
1
10
31.9416249255521
20
-0.311958676285286
30
0
41
1
10
31.6199779425498
20
-0.140764624708027
30
0
41
1
10
31.4583913585714
20
-0.0545744606230301
30
0
41
1
10
30.9753476657841
20
0.203093614771774
30
0
41
1
10
30.6551234234315
20
0.373757004887921
30
0
41
1
10
29.6971304053371
20
0.877381709288073
30
0
41
1
10
29.062313884622
20
1.20248842772023
30
0
41
1
10
28.1057508855054
20
1.65587805833604
30
0
41
1
10
27.7861335972396
20
1.80123349918776
30
0
41
1
10
27.143735697493
20
2.07748986764673
30
0
41
1
10
26.8201165866606
20
2.2087045058519
30
0
41
1
10
25.215258928135
20
2.81230491224608
30
0
41
1
10
23.9550513187333
20
3.13345703703735
30
0
41
1
10
22.504751624315
20
3.25845195093945
30
0
41
1
10
22.3432247065716
20
3.26902466764784
30
0
41
1
10
22.021607359949
20
3.28340385835139
30
0
41
1
10
21.8611945597969
20
3.28724152091525
30
0
41
1
10
21.6858665942888
20
3.28782087643157
30
0
41
1
10
21.6706580967701
20
3.28784124021459
30
0
41
1
10
21.6554525634132
20
3.28783173312891
30
0
0
SPLINE
5
CA
100
AcDbEntity
8
1
62
256
6
ByLayer
370
18
48
1
60
0
100
AcDbSpline
70
4
71
3
72
14
73
10
40
0
40
0
40
0
40
0
40
0.681314982295437
40
0.681314982295437
40
0.766479355082365
40
0.766479355082365
40
0.851643727869294
40
0.851643727869294
40
1
40
1
40
1
40
1
41
1
10
11.203971830205
20
0.391435808135299
30
0
41
1
10
12.4908751635002
20
-0.274815904955318
30
0
41
1
10
13.7485734983709
20
-0.952033285513352
30
0
41
1
10
15.1896839705005
20
-1.61353150256906
30
0
41
1
10
15.350164187581
20
-1.68565253118038
30
0
41
1
10
15.6720240722402
20
-1.82678262745139
30
0
41
1
10
15.8330629476423
20
-1.89563774553324
30
0
41
1
10
16.27276027562
20
-2.07831976850591
30
0
41
1
10
16.5509691510405
20
-2.18780832105594
30
0
41
1
10
16.828518950306
20
-2.29005963966731
30
0
0
SPLINE
5
CB
100
AcDbEntity
8
1
62
256
6
ByLayer
370
13
48
1
60
0
100
AcDbSpline
70
4
71
3
72
20
73
16
40
0
40
0
40
0
40
0
40
0.0196318783323986
40
0.0196318783323986
40
0.324000604857111
40
0.324000604857111
40
0.476184968119468
40
0.476184968119468
40
0.552277149750648
40
0.552277149750648
40
0.628369331381828
40
0.628369331381828
40
0.932738057906542
40
0.932738057906542
40
1
40
1
40
1
40
1
41
1
10
16.8285187168813
20
-2.290059553672
30
0
41
1
10
16.8696256216139
20
-2.30520363010541
30
0
41
1
10
16.9107180691728
20
-2.32018895413262
30
0
41
1
10
17.5886863861979
20
-2.5648479498725
30
0
41
1
10
18.2223379667226
20
-2.75667796298146
30
0
41
1
10
19.1778858006279
20
-2.97559199715255
30
0
41
1
10
19.497254679274
20
-3.0371628848099
30
0
41
1
10
19.9786981827711
20
-3.11128332255319
30
0
41
1
10
20.1398969572579
20
-3.13298003413965
30
0
41
1
10
20.4614778813944
20
-3.1698273311755
30
0
41
1
10
20.6218511417456
20
-3.18498793287969
30
0
41
1
10
21.4219776977145
20
-3.24446000011537
30
0
41
1
10
22.0574008856392
20
-3.24017450356681
30
0
41
1
10
22.8345252648725
20
-3.17248850360002
30
0
41
1
10
22.9752534149145
20
-3.15777381358581
30
0
41
1
10
23.1161345453199
20
-3.14060165154288
30
0
0
SPLINE
5
CC
100
AcDbEntity
8
1
62
256
6
ByLayer
370
18
48
1
60
0
100
AcDbSpline
70
4
71
3
72
8
73
4
40
0
40
0
40
0
40
0
40
1
40
1
40
1
40
1
41
1
10
11.1326907206309
20
0.436007307611789
30
0
41
1
10
11.1010437765347
20
0.452671842681809
30
0
41
1
10
11.0735270754338
20
0.475807077215364
30
0
41
1
10
11.0519097751786
20
0.503556333489286
30
0
0
SPLINE
5
CD
100
AcDbEntity
8
1
62
256
6
ByLayer
370
18
48
1
60
0
100
AcDbSpline
70
4
71
3
72
14
73
10
40
0
40
0
40
0
40
0
40
0.0870117749662113
40
0.0870117749662113
40
0.339952924035396
40
0.339952924035396
40
0.845835222173766
40
0.845835222173766
40
1
40
1
40
1
40
1
41
1
10
41.2726251608802
20
-3.14270854757345
30
0
41
1
10
41.1622735185409
20
-3.14265566929595
30
0
41
1
10
41.0519159802529
20
-3.14109069782322
30
0
41
1
10
40.6206090368623
20
-3.12908575778192
30
0
41
1
10
40.2985798872805
20
-3.10728831686438
30
0
41
1
10
39.3385086106898
20
-3.00518704794754
30
0
41
1
10
38.704630230475
20
-2.88834026223617
30
0
41
1
10
37.8778143438185
20
-2.67948642832619
30
0
41
1
10
37.6846944967742
20
-2.62672294508042
30
0
41
1
10
37.491404866727
20
-2.57015113812062
30
0
0
SPLINE
5
CE
100
AcDbEntity
8
1
62
256
6
ByLayer
370
13
48
1
60
0
100
AcDbSpline
70
4
71
3
72
24
73
20
40
0
40
0
40
0
40
0
40
0.13332459379059
40
0.13332459379059
40
0.229206300004971
40
0.229206300004971
40
0.325088006219351
40
0.325088006219351
40
0.516851418648111
40
0.516851418648111
40
0.612733124862492
40
0.612733124862492
40
0.708614831076872
40
0.708614831076872
40
0.804496537291252
40
0.804496537291252
40
0.900378243505632
40
0.900378243505632
40
1
40
1
40
1
40
1
41
1
10
37.4914048667096
20
-2.57015113811553
30
0
41
1
10
37.0504263868003
20
-2.44108601738009
30
0
41
1
10
36.6085641925697
20
-2.29219871098476
30
0
41
1
10
35.8440183238619
20
-2.00571093187963
30
0
41
1
10
35.5217017646933
20
-1.87634624018807
30
0
41
1
10
34.8819188022108
20
-1.60567698447326
30
0
41
1
10
34.5635635124809
20
-1.46393977956959
30
0
41
1
10
33.6107601671562
20
-1.02395615439829
30
0
41
1
10
32.9782599811052
20
-0.711488012608129
30
0
41
1
10
32.025051283453
20
-0.230648880100944
30
0
41
1
10
31.7064587518399
20
-0.0685484451943807
30
0
41
1
10
31.0661882018299
20
0.256525996434902
30
0
41
1
10
30.7440822421215
20
0.419757467789481
30
0
41
1
10
30.1023966781784
20
0.739933041695764
30
0
41
1
10
29.7819709094537
20
0.897366704162522
30
0
41
1
10
29.140498303255
20
1.20416878639378
30
0
41
1
10
28.8188082292079
20
1.35370237061628
30
0
41
1
10
28.1639889945566
20
1.64571576050383
30
0
41
1
10
27.8310173842717
20
1.78749433665931
30
0
41
1
10
27.4979045383053
20
1.92092425981352
30
0
0
SPLINE
5
CF
100
AcDbEntity
8
1
62
256
6
ByLayer
370
18
48
1
60
0
100
AcDbSpline
70
4
71
3
72
18
73
14
40
0
40
0
40
0
40
0
40
0.250000000000016
40
0.250000000000016
40
0.500000000000031
40
0.500000000000031
40
0.625000000000023
40
0.625000000000023
40
0.750000000000016
40
0.750000000000016
40
0.875000000000008
40
0.875000000000008
40
1
40
1
40
1
40
1
41
1
10
41.5550335564027
20
0.689323687683498
30
0
41
1
10
41.5469205911118
20
0.719193288893081
30
0
41
1
10
41.5422785239041
20
0.749854315280146
30
0
41
1
10
41.5410553177516
20
0.813132152136234
30
0
41
1
10
41.5445333576017
20
0.845474891767708
30
0
41
1
10
41.5586561256248
20
0.892288221150324
30
0
41
1
10
41.5648798757358
20
0.907555327629069
30
0
41
1
10
41.58075733899
20
0.936091430578841
30
0
41
1
10
41.5911056179362
20
0.949267968979058
30
0
41
1
10
41.6149300207212
20
0.971316073612883
30
0
41
1
10
41.6287909340175
20
0.980583482369383
30
0
41
1
10
41.6579106103279
20
0.994945509306405
30
0
41
1
10
41.673222248827
20
1.00019711695882
30
0
41
1
10
41.6891093828181
20
1.00397661111276
30
0
0
SPLINE
5
D0
100
AcDbEntity
8
1
62
256
6
ByLayer
370
18
48
1
60
0
100
AcDbSpline
70
4
71
3
72
12
73
8
40
0
40
0
40
0
40
0
40
0.408839662563709
40
0.408839662563709
40
0.817679325127418
40
0.817679325127418
40
1
40
1
40
1
40
1
41
1
10
14.1537283342818
20
-2.90950536022521
30
0
41
1
10
14.4162306875622
20
-2.86086045190945
30
0
41
1
10
14.6784072714368
20
-2.80458841977665
30
0
41
1
10
15.2020066285096
20
-2.67665827384295
30
0
41
1
10
15.4633697890451
20
-2.60469012346533
30
0
41
1
10
15.8420857223913
20
-2.49136996503512
30
0
41
1
10
15.9589789811856
20
-2.4550926557167
30
0
41
1
10
16.0759164649591
20
-2.41756198163026
30
0
0
SPLINE
5
D1
100
AcDbEntity
8
1
62
256
6
ByLayer
370
18
48
1
60
0
100
AcDbSpline
70
4
71
3
72
32
73
28
40
0
40
0
40
0
40
0
40
0.0247695250634324
40
0.0247695250634324
40
0.0735310488102628
40
0.0735310488102628
40
0.122292572557093
40
0.122292572557093
40
0.219815620050749
40
0.219815620050749
40
0.317338667544406
40
0.317338667544406
40
0.414861715038062
40
0.414861715038062
40
0.512384762531718
40
0.512384762531718
40
0.609907810025375
40
0.609907810025375
40
0.707430857519031
40
0.707430857519031
40
0.804953905012687
40
0.804953905012687
40
0.902476952506344
40
0.902476952506344
40
0.951238476253172
40
0.951238476253172
40
1
40
1
40
1
40
1
41
1
10
31.1982755246977
20
3.1343648689531
30
0
41
1
10
31.2646720566043
20
3.13460965882544
30
0
41
1
10
31.331061888191
20
3.13435932275922
30
0
41
1
10
31.5281522341089
20
3.13218125012551
30
0
41
1
10
31.6588758195462
20
3.12922983586009
30
0
41
1
10
31.9205582856401
20
3.11810306534477
30
0
41
1
10
32.0515032831134
20
3.10992298926254
30
0
41
1
10
32.4446243347355
20
3.07870605391875
30
0
41
1
10
32.7069143291462
20
3.04906405340773
30
0
41
1
10
33.2306130616957
20
2.97498560993716
30
0
41
1
10
33.4920084683615
20
2.93123795519511
30
0
41
1
10
34.0149215321682
20
2.82601578071228
30
0
41
1
10
34.2767880436783
20
2.76517068775627
30
0
41
1
10
34.8013664312335
20
2.62892603167953
30
0
41
1
10
35.0634340420516
20
2.55305843917665
30
0
41
1
10
35.5869900196872
20
2.39050997428677
30
0
41
1
10
35.8484686752896
20
2.30215032417078
30
0
41
1
10
36.3715848920281
20
2.11247784480429
30
0
41
1
10
36.6335185233263
20
2.01190996944368
30
0
41
1
10
37.1583760531926
20
1.80074445726424
30
0
41
1
10
37.4200351906338
20
1.69016515295127
30
0
41
1
10
37.9433196964646
20
1.46021098052569
30
0
41
1
10
38.2048852894471
20
1.34093677309846
30
0
41
1
10
38.5972348106138
20
1.1568828180242
30
0
41
1
10
38.7280480938912
20
1.09471137182564
30
0
41
1
10
38.9899162877626
20
0.969224766715172
30
0
41
1
10
39.1210444307713
20
0.905949235114321
30
0
41
1
10
39.2521562714054
20
0.84189238196555
30
0
0
SPLINE
5
D2
100
AcDbEntity
8
1
62
256
6
ByLayer
370
18
48
1
60
0
100
AcDbSpline
70
4
71
3
72
27
73
23
40
0
40
0
40
0
40
0
40
0.139428288303079
40
0.139428288303079
40
0.278856576606157
40
0.278856576606157
40
0.348570720757697
40
0.348570720757697
40
0.418284864909236
40
0.487999009060775
40
0.487999009060775
40
0.557713153212315
40
0.557713153212315
40
0.697141441515393
40
0.697141441515393
40
0.766855585666932
40
0.766855585666932
40
0.836569729818471
40
0.836569729818471
40
0.97599801812155
40
0.97599801812155
40
1
40
1
40
1
40
1
41
1
10
11.0181024147643
20
0.596894177467448
30
0
41
1
10
11.0181351000398
20
0.806301378903015
30
0
41
1
10
11.0181639226638
20
1.01261281370338
30
0
41
1
10
11.0182149220157
20
1.40567904391099
30
0
41
1
10
11.0182372893765
20
1.59348982773474
30
0
41
1
10
11.0182683480685
20
1.86189605739159
30
0
41
1
10
11.0182782643061
20
1.94897781400255
30
0
41
1
10
11.0182972103094
20
2.11506136565163
30
0
41
1
10
11.018315380167
20
2.27402212886699
30
0
41
1
10
11.0183326656109
20
2.41895035361733
30
0
41
1
10
11.0183497854032
20
2.55677164879572
30
0
41
1
10
11.0183583034679
20
2.62242076891172
30
0
41
1
10
11.0183836522219
20
2.80608931152653
30
0
41
1
10
11.0184001658966
20
2.91001330348655
30
0
41
1
10
11.018425149351
20
3.03893252780603
30
0
41
1
10
11.0184335033414
20
3.07737954098337
30
0
41
1
10
11.0184502872634
20
3.14497160367739
30
0
41
1
10
11.018458699305
20
3.17398147103179
30
0
41
1
10
11.0184834238225
20
3.24518491361033
30
0
41
1
10
11.0184994452686
20
3.27246782659921
30
0
41
1
10
11.0185169275066
20
3.28081359692533
30
0
41
1
10
11.0185194650285
20
3.28143258587429
30
0
41
1
10
11.0185219617729
20
3.28144209535111
30
0
0
SPLINE
5
D3
100
AcDbEntity
8
1
62
256
6
ByLayer
370
18
48
1
60
0
100
AcDbSpline
70
4
71
3
72
8
73
4
40
0
40
0
40
0
40
0
40
1
40
1
40
1
40
1
41
1
10
41.8656089379637
20
3.27162406139885
30
0
41
1
10
41.5941064060808
20
3.29047895718068
30
0
41
1
10
41.3229183697331
20
3.29975239623684
30
0
41
1
10
41.0515673132638
20
3.29946861758103
30
0
0
SPLINE
5
D4
100
AcDbEntity
8
1
62
256
6
ByLayer
370
18
48
1
60
0
100
AcDbSpline
70
4
71
3
72
28
73
24
40
0
40
0
40
0
40
0
40
0.068972584452999
40
0.068972584452999
40
0.146558202415248
40
0.146558202415248
40
0.224143820377498
40
0.224143820377498
40
0.379315056301996
40
0.379315056301996
40
0.41810786528312
40
0.41810786528312
40
0.456900674264245
40
0.456900674264245
40
0.534486292226494
40
0.534486292226494
40
0.689657528150995
40
0.689657528150995
40
0.767243146113247
40
0.767243146113247
40
0.844828764075498
40
0.844828764075498
40
1
40
1
40
1
40
1
41
1
10
23.5219614040907
20
-3.13985557806913
30
0
41
1
10
23.237567407924
20
-3.18479783013961
30
0
41
1
10
22.9522678954142
20
-3.21989257985868
30
0
41
1
10
22.3428893260738
20
-3.27239079630328
30
0
41
1
10
22.0212815360016
20
-3.28670827397795
30
0
41
1
10
21.3811837561755
20
-3.28883192535594
30
0
41
1
10
21.0624284667648
20
-3.27665734205652
30
0
41
1
10
20.1070689612512
20
-3.20123086324534
30
0
41
1
10
19.471294952738
20
-3.09916849512814
30
0
41
1
10
18.6700013951899
20
-2.91037393826332
30
0
41
1
10
18.5094213204339
20
-2.86954605966753
30
0
41
1
10
18.1873592221427
20
-2.78189780938078
30
0
41
1
10
18.0256645142543
20
-2.73500834959896
30
0
41
1
10
17.5427176108437
20
-2.58674578660899
30
0
41
1
10
17.2224929062737
20
-2.47749586149982
30
0
41
1
10
16.2643351531387
20
-2.12257110349015
30
0
41
1
10
15.6293259953145
20
-1.84909626242822
30
0
41
1
10
14.6717746744261
20
-1.40012601042091
30
0
41
1
10
14.3518402278936
20
-1.24387655116732
30
0
41
1
10
13.708712040685
20
-0.920999140635786
30
0
41
1
10
13.385130310824
20
-0.754098498273578
30
0
41
1
10
12.4196013470806
20
-0.248388771490397
30
0
41
1
10
11.7781740889307
20
0.0961109752693119
30
0
41
1
10
11.1326907206314
20
0.436007307611504
30
0
0
SPLINE
5
D5
100
AcDbEntity
8
1
62
256
6
ByLayer
370
18
48
1
60
0
100
AcDbSpline
70
4
71
3
72
8
73
4
40
0
40
0
40
0
40
0
40
1
40
1
40
1
40
1
41
1
10
41.9040870353796
20
-3.12648430424741
30
0
41
1
10
41.8861660869898
20
-3.13744187609302
30
0
41
1
10
41.870150798692
20
-3.14294870708542
30
0
41
1
10
41.856074361229
20
-3.1429098620587
30
0
0
SPLINE
5
D6
100
AcDbEntity
8
1
62
256
6
ByLayer
370
18
48
1
60
0
100
AcDbSpline
70
4
71
3
72
62
73
58
40
0
40
0
40
0
40
0
40
0.0624999999999895
40
0.0624999999999895
40
0.124999999999979
40
0.124999999999979
40
0.249999999999959
40
0.249999999999959
40
0.374999999999939
40
0.374999999999939
40
0.49999999999992
40
0.49999999999992
40
0.56249999999991
40
0.56249999999991
40
0.624999999999901
40
0.624999999999901
40
0.656249999999896
40
0.656249999999896
40
0.660156249999896
40
0.660156249999896
40
0.664062499999896
40
0.664062499999896
40
0.667968749999896
40
0.667968749999896
40
0.669921874999896
40
0.669921874999896
40
0.671874999999895
40
0.671874999999895
40
0.6874999999999
40
0.6874999999999
40
0.718749999999909
40
0.718749999999909
40
0.734374999999914
40
0.734374999999914
40
0.749999999999919
40
0.749999999999919
40
0.765624999999924
40
0.765624999999924
40
0.781249999999929
40
0.781249999999929
40
0.796874999999934
40
0.796874999999934
40
0.812499999999939
40
0.812499999999939
40
0.828124999999944
40
0.828124999999944
40
0.843749999999949
40
0.843749999999949
40
0.874999999999959
40
0.874999999999959
40
0.906249999999969
40
0.906249999999969
40
0.93749999999998
40
0.93749999999998
40
0.96874999999999
40
0.96874999999999
40
1
40
1
40
1
40
1
41
1
10
19.1859584407141
20
-3.13863360622079
30
0
41
1
10
18.9189025065585
20
-3.09616293308397
30
0
41
1
10
18.6500778565862
20
-3.04607885853167
30
0
41
1
10
18.1085295114819
20
-2.93359216538065
30
0
41
1
10
17.8352482619458
20
-2.87103399707038
30
0
41
1
10
17.0131720225563
20
-2.67028990136876
30
0
41
1
10
16.4625851089337
20
-2.51917751925325
30
0
41
1
10
15.3498445256864
20
-2.20929466921561
30
0
41
1
10
14.7876262804052
20
-2.05064969052594
30
0
41
1
10
13.646057648333
20
-1.75349516754863
30
0
41
1
10
13.0666967146112
20
-1.61514089304376
30
0
41
1
10
12.1824161593597
20
-1.44054951404706
30
0
41
1
10
11.8847312260002
20
-1.3877457770804
30
0
41
1
10
11.2876395262525
20
-1.29582174541773
30
0
41
1
10
10.9879230114991
20
-1.25661777085864
30
0
41
1
10
10.5364996592129
20
-1.20908002306336
30
0
41
1
10
10.3857028096672
20
-1.19510930577198
30
0
41
1
10
10.215894722224
20
-1.18160654715223
30
0
41
1
10
10.1970242694141
20
-1.18013691232659
30
0
41
1
10
10.1592775729724
20
-1.1772592581504
30
0
41
1
10
10.1404407382472
20
-1.17542644382129
30
0
41
1
10
10.1025819193311
20
-1.17375585600843
30
0
41
1
10
10.0834785893104
20
-1.1747448202596
30
0
41
1
10
10.0558191100094
20
-1.18049995565227
30
0
41
1
10
10.0466013658927
20
-1.1831907612719
30
0
41
1
10
10.0295157460907
20
-1.19080419431327
30
0
41
1
10
10.0211368615271
20
-1.19489790357125
30
0
41
1
10
9.94522803374679
20
-1.23082959546355
30
0
41
1
10
9.87863652225323
20
-1.26435939677179
30
0
41
1
10
9.68319026557921
20
-1.37009067837079
30
0
41
1
10
9.55895545004063
20
-1.4469384043604
30
0
41
1
10
9.38730960347758
20
-1.57686359245048
30
0
41
1
10
9.3322178922889
20
-1.62301692560624
30
0
41
1
10
9.2310509949757
20
-1.72003647679119
30
0
41
1
10
9.18502263974224
20
-1.77075029952025
30
0
41
1
10
9.10501769050381
20
-1.87776324636124
30
0
41
1
10
9.07141269322963
20
-1.93393626110455
30
0
41
1
10
9.02270243731789
20
-2.0473222745936
30
0
41
1
10
9.0071900832431
20
-2.1060071268015
30
0
41
1
10
8.99687661604506
20
-2.21921359471253
30
0
41
1
10
9.00167760495111
20
-2.27443147537593
30
0
41
1
10
9.02887883338846
20
-2.38006186285722
30
0
41
1
10
9.05070274336794
20
-2.42903181934327
30
0
41
1
10
9.10659505553338
20
-2.52096819434797
30
0
41
1
10
9.1409933268225
20
-2.56415065763977
30
0
41
1
10
9.21718664887129
20
-2.64339575584438
30
0
41
1
10
9.25910992475804
20
-2.67977499352969
30
0
41
1
10
9.39333770178277
20
-2.78146592351513
30
0
41
1
10
9.49474967431166
20
-2.83975709059905
30
0
41
1
10
9.7064581474603
20
-2.94066574316031
30
0
41
1
10
9.81710031434974
20
-2.98354798551185
30
0
41
1
10
10.0445992970937
20
-3.05863727605453
30
0
41
1
10
10.1615054096762
20
-3.09077969137945
30
0
41
1
10
10.3999198733611
20
-3.14655030529792
30
0
41
1
10
10.5214452706335
20
-3.17015581806288
30
0
41
1
10
10.7681551493559
20
-3.21012670628895
30
0
41
1
10
10.8931859241813
20
-3.22643838385423
30
0
41
1
10
11.0185540150885
20
-3.23945498537535
30
0
0
SPLINE
5
D7
100
AcDbEntity
8
1
62
256
6
ByLayer
370
18
48
1
60
0
100
AcDbSpline
70
4
71
3
72
18
73
14
40
0
40
0
40
0
40
0
40
0.250000000000006
40
0.250000000000006
40
0.375000000000005
40
0.375000000000005
40
0.500000000000004
40
0.500000000000004
40
0.750000000000002
40
0.750000000000002
40
0.875000000000001
40
0.875000000000001
40
1
40
1
40
1
40
1
41
1
10
42.5389860631742
20
1.6388841946
30
0
41
1
10
42.4898611579163
20
1.77201017457932
30
0
41
1
10
42.4405352684117
20
1.90505000984945
30
0
41
1
10
42.3658112003977
20
2.10360781606022
30
0
41
1
10
42.3408331069683
20
2.16967603776038
30
0
41
1
10
42.2908011418432
20
2.30168517926475
30
0
41
1
10
42.2657130443805
20
2.36759587351094
30
0
41
1
10
42.1902261515528
20
2.5645600649795
30
0
41
1
10
42.1394886798316
20
2.69490266019193
30
0
41
1
10
42.0632505863561
20
2.88872652817736
30
0
41
1
10
42.0378053762429
20
2.95292673321401
30
0
41
1
10
41.9867969298721
20
3.07984692530383
30
0
41
1
10
41.9612623783951
20
3.14292666085348
30
0
41
1
10
41.9356920546182
20
3.20555776019754
30
0
0
SPLINE
5
D8
100
AcDbEntity
8
1
62
256
6
ByLayer
370
18
48
1
60
0
100
AcDbSpline
70
4
71
3
72
68
73
64
40
0
40
0
40
0
40
0
40
0.03342973421081
40
0.03342973421081
40
0.0668594684216199
40
0.0668594684216199
40
0.10028920263243
40
0.10028920263243
40
0.13371893684324
40
0.13371893684324
40
0.16714867105405
40
0.16714867105405
40
0.20057840526486
40
0.20057840526486
40
0.217293272370264
40
0.217293272370264
40
0.234008139475669
40
0.234008139475669
40
0.267437873686478
40
0.267437873686478
40
0.300867607897288
40
0.300867607897288
40
0.334297342108098
40
0.334297342108098
40
0.367727076318908
40
0.367727076318908
40
0.401156810529718
40
0.401156810529718
40
0.434586544740528
40
0.434586544740528
40
0.468016278951338
40
0.468016278951338
40
0.501446013162148
40
0.501446013162148
40
0.534875747372958
40
0.534875747372958
40
0.568305481583768
40
0.568305481583768
40
0.601735215794578
40
0.601735215794578
40
0.635164950005388
40
0.635164950005388
40
0.668594684216198
40
0.668594684216198
40
0.702024418427008
40
0.702024418427008
40
0.735454152637818
40
0.735454152637818
40
0.768883886848628
40
0.768883886848628
40
0.802313621059438
40
0.802313621059438
40
0.835743355270248
40
0.835743355270248
40
0.869173089481058
40
0.869173089481058
40
0.902602823691868
40
0.902602823691868
40
0.936032557902677
40
0.936032557902677
40
0.969462292113487
40
0.969462292113487
40
1
40
1
40
1
40
1
41
1
10
19.185587018956
20
3.13856823427798
30
0
41
1
10
19.4245129830794
20
3.1766696688467
30
0
41
1
10
19.6629693786069
20
3.20713980918194
30
0
41
1
10
20.1382587032695
20
3.25387027186096
30
0
41
1
10
20.3747282999
20
3.2701519622523
30
0
41
1
10
20.8473656917481
20
3.28808706562174
30
0
41
1
10
21.0837576476689
20
3.28982378127628
30
0
41
1
10
21.5556960225343
20
3.2789799505382
30
0
41
1
10
21.7912317792189
20
3.26627360984372
30
0
41
1
10
22.2638492298418
20
3.22677246261986
30
0
41
1
10
22.5006765162626
20
3.2000162275574
30
0
41
1
10
22.9746577775628
20
3.13185244688199
30
0
41
1
10
23.212285515667
20
3.09061744301042
30
0
41
1
10
23.5706818748138
20
3.01862107680643
30
0
41
1
10
23.6905144636006
20
2.99284909553012
30
0
41
1
10
23.929187363437
20
2.93796579143688
30
0
41
1
10
24.0481864710072
20
2.90883363602296
30
0
41
1
10
24.4046632807313
20
2.81684012799766
30
0
41
1
10
24.6418905898092
20
2.74968321078993
30
0
41
1
10
25.1152233750292
20
2.60373252192952
30
0
41
1
10
25.3508879334418
20
2.52436263326223
30
0
41
1
10
25.8228230474367
20
2.35600738669558
30
0
41
1
10
26.0590320110391
20
2.26703591857228
30
0
41
1
10
26.5309896760239
20
2.07816421186274
30
0
41
1
10
26.7669375341995
20
1.9784721260061
30
0
41
1
10
27.2408472964798
20
1.77173636058518
30
0
41
1
10
27.4784630021701
20
1.66420789509411
30
0
41
1
10
27.9545440901013
20
1.43964627498551
30
0
41
1
10
28.1942463064644
20
1.32367383666619
30
0
41
1
10
28.6709013660776
20
1.0882210633394
30
0
41
1
10
28.9079771453331
20
0.967587958456022
30
0
41
1
10
29.3811319230966
20
0.723342863791515
30
0
41
1
10
29.6175932731515
20
0.600458365254724
30
0
41
1
10
30.0896314966823
20
0.351949691679238
30
0
41
1
10
30.3248936244481
20
0.225717020098443
30
0
41
1
10
30.7967235366804
20
-0.0253153328671374
30
0
41
1
10
31.0330081282096
20
-0.150649000322488
30
0
41
1
10
31.505605344302
20
-0.40234015054304
30
0
41
1
10
31.7422760347498
20
-0.528010973627971
30
0
41
1
10
32.2179752416911
20
-0.775868843294091
30
0
41
1
10
32.457226672984
20
-0.899181802799802
30
0
41
1
10
32.9341397651709
20
-1.14232995635973
30
0
41
1
10
33.1720652053056
20
-1.26017754645292
30
0
41
1
10
33.646427455369
20
-1.48957636581051
30
0
41
1
10
33.8825172793873
20
-1.60168910508645
30
0
41
1
10
34.3544744619699
20
-1.81739543924266
30
0
41
1
10
34.5905760715443
20
-1.9206669406388
30
0
41
1
10
35.0621549627783
20
-2.11949698982875
30
0
41
1
10
35.2974862959141
20
-2.21519593994088
30
0
41
1
10
35.7699875200308
20
-2.39516676477783
30
0
41
1
10
36.0067108810309
20
-2.4801250565431
30
0
41
1
10
36.480761851362
20
-2.64019812166612
30
0
41
1
10
36.7185558331199
20
-2.71469966314484
30
0
41
1
10
37.1967574798536
20
-2.85130922527654
30
0
41
1
10
37.4352637604214
20
-2.91350832330363
30
0
41
1
10
37.9096865626344
20
-3.02442356191963
30
0
41
1
10
38.1466913543941
20
-3.07265819870182
30
0
41
1
10
38.6193793025806
20
-3.15579055470553
30
0
41
1
10
38.8548339817411
20
-3.19071428565601
30
0
41
1
10
39.3262693227403
20
-3.24607289344809
30
0
41
1
10
39.5622921964825
20
-3.26660556694611
30
0
41
1
10
40.0136311009852
20
-3.29244953140375
30
0
41
1
10
40.2290195191345
20
-3.29881342955758
30
0
41
1
10
40.4452550167867
20
-3.29910168467128
30
0
0
SPLINE
5
D9
100
AcDbEntity
8
1
62
256
6
ByLayer
370
18
48
1
60
0
100
AcDbSpline
70
4
71
3
72
36
73
32
40
0
40
0
40
0
40
0
40
0.124999999999999
40
0.124999999999999
40
0.249999999999999
40
0.249999999999999
40
0.374999999999998
40
0.374999999999998
40
0.499999999999997
40
0.499999999999997
40
0.624999999999997
40
0.624999999999997
40
0.687499999999992
40
0.687499999999992
40
0.71874999999999
40
0.71874999999999
40
0.749999999999987
40
0.749999999999987
40
0.81249999999999
40
0.81249999999999
40
0.843749999999992
40
0.843749999999992
40
0.874999999999994
40
0.874999999999994
40
0.906249999999995
40
0.906249999999995
40
0.937499999999997
40
0.937499999999997
40
0.968749999999998
40
0.968749999999998
40
1
40
1
40
1
40
1
41
1
10
39.2521562714257
20
0.841892381955688
30
0
41
1
10
39.3672921698712
20
0.771825864337529
30
0
41
1
10
39.4828148919664
20
0.704686156112018
30
0
41
1
10
39.7149990770087
20
0.579022752211671
30
0
41
1
10
39.8318294625926
20
0.520365411005599
30
0
41
1
10
40.0653205192364
20
0.413951785180558
30
0
41
1
10
40.1824073649072
20
0.36601531614329
30
0
41
1
10
40.4150970703575
20
0.28309313756543
30
0
41
1
10
40.5304229538631
20
0.248166452767776
30
0
41
1
10
40.758813154563
20
0.192815963906867
30
0
41
1
10
40.8718803865791
20
0.172373467792085
30
0
41
1
10
41.0395590820549
20
0.154036025537636
30
0
41
1
10
41.0952299774077
20
0.149969800704866
30
0
41
1
10
41.1777342492762
20
0.147201843881049
30
0
41
1
10
41.2051907464931
20
0.146490844166948
30
0
41
1
10
41.2592110949216
20
0.147856442247701
30
0
41
1
10
41.2857476084568
20
0.150136737597023
30
0
41
1
10
41.3625865588542
20
0.162767177515604
30
0
41
1
10
41.4098060735855
20
0.178677992184845
30
0
41
1
10
41.4721330391115
20
0.21844025039448
30
0
41
1
10
41.4916307341387
20
0.234456185645854
30
0
41
1
10
41.5257373750338
20
0.271476771665448
30
0
41
1
10
41.5405583160156
20
0.292524966533364
30
0
41
1
10
41.5647862448322
20
0.34077626047079
30
0
41
1
10
41.5728261044789
20
0.367974543820907
30
0
41
1
10
41.5832543565142
20
0.425858356349551
30
0
41
1
10
41.5856365822234
20
0.457039605242471
30
0
41
1
10
41.5850041917705
20
0.521045471677979
30
0
41
1
10
41.5820754454999
20
0.553832793199575
30
0
41
1
10
41.5718019014392
20
0.620733304753088
30
0
41
1
10
41.5643226315809
20
0.655123988654793
30
0
41
1
10
41.5550335564027
20
0.689323687683498
30
0
0
SPLINE
5
DA
100
AcDbEntity
8
1
62
256
6
ByLayer
370
13
48
1
60
0
100
AcDbSpline
70
4
71
3
72
10
73
6
40
0
40
0
40
0
40
0
40
0.304785815355318
40
0.304785815355318
40
1
40
1
40
1
40
1
41
1
10
11.2512282021337
20
-3.12586219210866
30
0
41
1
10
11.2512350318351
20
-3.12573012108467
30
0
41
1
10
11.2512417079889
20
-3.12463470695292
30
0
41
1
10
11.2512629168808
20
-3.11786291659911
30
0
41
1
10
11.251276588807
20
-3.10819021789581
30
0
41
1
10
11.2512888523531
20
-3.09367232163086
30
0
0
SPLINE
5
DB
100
AcDbEntity
8
1
62
256
6
ByLayer
370
18
48
1
60
0
100
AcDbSpline
70
4
71
3
72
18
73
14
40
0
40
0
40
0
40
0
40
0.250000000000006
40
0.250000000000006
40
0.375000000000004
40
0.375000000000004
40
0.500000000000003
40
0.500000000000003
40
0.750000000000002
40
0.750000000000002
40
0.875000000000001
40
0.875000000000001
40
1
40
1
40
1
40
1
41
1
10
42.5389860631742
20
-1.6388841946
30
0
41
1
10
42.4898611579163
20
-1.77201017457935
30
0
41
1
10
42.4405352684117
20
-1.90505000984947
30
0
41
1
10
42.3658112003976
20
-2.10360781606025
30
0
41
1
10
42.3408331069683
20
-2.16967603776041
30
0
41
1
10
42.2908011418432
20
-2.30168517926475
30
0
41
1
10
42.2657130443806
20
-2.36759587351097
30
0
41
1
10
42.1902261515529
20
-2.56456006497953
30
0
41
1
10
42.1394886798315
20
-2.69490266019193
30
0
41
1
10
42.063250586356
20
-2.88872652817736
30
0
41
1
10
42.0378053762429
20
-2.95292673321404
30
0
41
1
10
41.9867969298722
20
-3.0798469253038
30
0
41
1
10
41.9612623783951
20
-3.14292666085348
30
0
41
1
10
41.9356920546183
20
-3.20555776019754
30
0
0
LINE
5
76
100
AcDbEntity
8
81
62
256
6
ByLayer
370
18
48
1
60
0
100
AcDbLine
10
43
20
0
30
0
11
48
21
0
31
0
39
0
210
0
220
0
230
1
0
LINE
5
77
100
AcDbEntity
8
1
62
256
6
ByLayer
370
18
48
1
60
0
100
AcDbLine
10
11.018516
20
3.28145
30
0
11
1.339603
21
3.275642
31
0
39
0
210
0
220
0
230
1
0
LINE
5
79
100
AcDbEntity
8
1
62
256
6
ByLayer
370
18
48
1
60
0
100
AcDbLine
10
21.655261
20
3.287832
30
0
11
21.046042
21
3.287466
31
0
39
0
210
0
220
0
230
1
0
LINE
5
7A
100
AcDbEntity
8
1
62
256
6
ByLayer
370
18
48
1
60
0
100
AcDbLine
10
41.056006
20
3.299472
30
0
11
40.452917
21
3.29911
31
0
39
0
210
0
220
0
230
1
0
LINE
5
7B
100
AcDbEntity
8
1
62
256
6
ByLayer
370
18
48
1
60
0
100
AcDbLine
10
40.452917
20
-3.29911
30
0
11
41.056099
21
-3.299472
31
0
39
0
210
0
220
0
230
1
0
LINE
5
7C
100
AcDbEntity
8
1
62
256
6
ByLayer
370
18
48
1
60
0
100
AcDbLine
10
21.046042
20
-3.287466
30
0
11
21.655303
21
-3.287832
31
0
39
0
210
0
220
0
230
1
0
LINE
5
7D
100
AcDbEntity
8
1
62
256
6
ByLayer
370
18
48
1
60
0
100
AcDbLine
10
1.339603
20
-3.275642
30
0
11
11.018516
21
-3.28145
31
0
39
0
210
0
220
0
230
1
0
LINE
5
7E
100
AcDbEntity
8
SK1
62
256
6
ByLayer
370
18
48
1
60
0
100
AcDbLine
10
-35.133975
20
4
30
0
11
-36
21
2.5
31
0
39
0
210
0
220
0
230
1
0
LINE
5
80
100
AcDbEntity
8
SK1
62
256
6
ByLayer
370
18
48
1
60
0
100
AcDbLine
10
-36
20
-2.5
30
0
11
-35.133975
21
-4
31
0
39
0
210
0
220
0
230
1
0
LINE
5
81
100
AcDbEntity
8
SK1
62
256
6
ByLayer
370
18
48
1
60
0
100
AcDbLine
10
0
20
4
30
0
11
-35.133975
21
4
31
0
39
0
210
0
220
0
230
1
0
LINE
5
82
100
AcDbEntity
8
SK1
62
256
6
ByLayer
370
18
48
1
60
0
100
AcDbLine
10
-35.133975
20
-4
30
0
11
0
21
-4
31
0
39
0
210
0
220
0
230
1
0
LINE
5
83
100
AcDbEntity
8
SK4
62
256
6
ByLayer
370
18
48
0.05
60
0
100
AcDbLine
10
48
20
0
30
0
11
-41
21
0
31
0
39
0
210
0
220
0
230
1
0
LINE
5
85
100
AcDbEntity
8
4
62
256
6
ByLayer
370
18
48
0.05
60
0
100
AcDbLine
10
43
20
0
30
0
11
0
21
0
31
0
39
0
210
0
220
0
230
1
0
LINE
5
87
100
AcDbEntity
8
80
62
256
6
ByLayer
370
18
48
1
60
0
100
AcDbLine
10
0
20
0
30
0
11
-5
21
0
31
0
39
0
210
0
220
0
230
1
0
LINE
5
88
100
AcDbEntity
8
1
62
256
6
ByLayer
370
13
48
1
60
0
100
AcDbLine
10
42.025406
20
0.367054
30
0
11
42.895073
21
-0.148949
31
0
39
0
210
0
220
0
230
1
0
LINE
5
89
100
AcDbEntity
8
1
62
256
6
ByLayer
370
18
48
1
60
0
100
AcDbLine
10
43
20
0
30
0
11
42.994072
21
-0.032868
31
0
39
0
210
0
220
0
230
1
0
LINE
5
8A
100
AcDbEntity
8
1
62
256
6
ByLayer
370
13
48
1
60
0
100
AcDbLine
10
42.826891
20
0.702383
30
0
11
42.215313
21
0.702383
31
0
39
0
210
0
220
0
230
1
0
LINE
5
8B
100
AcDbEntity
8
1
62
256
6
ByLayer
370
13
48
1
60
0
100
AcDbLine
10
0.669562
20
3.637821
30
0
11
0.669562
21
-3.637821
31
0
39
0
210
0
220
0
230
1
0
LINE
5
8C
100
AcDbEntity
8
1
62
256
6
ByLayer
370
13
48
1
60
0
100
AcDbLine
10
42.215313
20
0.702383
30
0
11
42.925152
21
0.281212
31
0
39
0
210
0
220
0
230
1
0
LINE
5
8D
100
AcDbEntity
8
1
62
256
6
ByLayer
370
18
48
1
60
0
100
AcDbLine
10
42.925152
20
0.281212
30
0
11
42.826891
21
0.702383
31
0
39
0
210
0
220
0
230
1
0
LINE
5
8E
100
AcDbEntity
8
1
62
256
6
ByLayer
370
18
48
1
60
0
100
AcDbLine
10
0
20
-4
30
0
11
0
21
4
31
0
39
0
210
0
220
0
230
1
0
LINE
5
8F
100
AcDbEntity
8
1
62
256
6
ByLayer
370
18
48
1
60
0
100
AcDbLine
10
42.925152
20
-0.281212
30
0
11
42.826891
21
-0.702383
31
0
39
0
210
0
220
0
230
1
0
LINE
5
90
100
AcDbEntity
8
1
62
256
6
ByLayer
370
18
48
1
60
0
100
AcDbLine
10
42.994072
20
0.032868
30
0
11
43
21
0
31
0
39
0
210
0
220
0
230
1
0
LINE
5
91
100
AcDbEntity
8
1
62
256
6
ByLayer
370
13
48
1
60
0
100
AcDbLine
10
1.339603
20
3.275642
30
0
11
1.339603
21
-3.275642
31
0
39
0
210
0
220
0
230
1
0
LINE
5
92
100
AcDbEntity
8
1
62
256
6
ByLayer
370
18
48
1
60
0
100
AcDbLine
10
41.354682
20
-1.740194
30
0
11
42.895073
21
-0.148949
31
0
39
0
210
0
220
0
230
1
0
LINE
5
93
100
AcDbEntity
8
1
62
256
6
ByLayer
370
18
48
1
60
0
100
AcDbLine
10
43
20
0
30
0
11
41.856074
21
-3.14291
31
0
39
0
210
0
220
0
230
1
0
LINE
5
94
100
AcDbEntity
8
SK1
62
256
6
ByLayer
370
18
48
1
60
0
100
AcDbLine
10
0
20
-4
30
0
11
0
21
4
31
0
39
0
210
0
220
0
230
1
0
LINE
5
95
100
AcDbEntity
8
SK1
62
256
6
ByLayer
370
18
48
1
60
0
100
AcDbLine
10
-36
20
2.5
30
0
11
-36
21
-2.5
31
0
39
0
210
0
220
0
230
1
0
LINE
5
96
100
AcDbEntity
8
SK1
62
256
6
ByLayer
370
18
48
1
60
0
100
AcDbLine
10
-35.133975
20
4
30
0
11
-35.133975
21
-4
31
0
39
0
210
0
220
0
230
1
0
MTEXT
5
DC
100
AcDbEntity
8
SK6
62
256
6
ByLayer
370
13
48
1
60
0
100
AcDbMText
10
5.629169
20
35.682694
30
0
210
0
220
0
230
1
1
\W0.7670;R840-0660-30-A0A1220
40
3.5
41
0
44
1.084337
50
0
71
8
72
5
7
iso_b_vert
0
DIMENSION
5
E9
100
AcDbEntity
8
SK2
62
256
6
ByLayer
370
13
48
1
60
0
100
AcDbDimension
2
DimnDraft3D1
10
41.88
20
-13.513398
30
0
11
19.630059
21
-13.513398
31
0
70
32
71
5
72
1
41
1
210
0
220
0
230
1
3
Standard
100
AcDbAlignedDimension
13
0
23
-1.5875
33
0
14
41.88
24
-4.8875
34
0
50
0
100
AcDbRotatedDimension
1001
ACAD
1000
DSTYLE
1002
{
1070
   279
1070
     0
1070
   172
1070
     1
1070
   173
1070
     1
1070
   340
1005
DD
1070
   271
1070
     2
1070
   272
1070
     2
1070
    77
1070
     1
1070
    73
1070
     0
1070
   171
1070
     3
1070
   274
1070
     4
1070
   177
1070
    35
1070
   176
1070
    35
1070
   178
1070
    35
1070
    48
1040
-0.005
1070
    41
1041
3.5
1070
   147
1041
1.75
1070
    42
1041
1.5875
1070
    44
1041
2.0
1070
   140
1041
3.5
1070
   343
1005
0
1070
   344
1005
0
1002
}
0
DIMENSION
5
F3
100
AcDbEntity
8
SK2
62
256
6
ByLayer
370
13
48
1
60
0
100
AcDbDimension
2
DimnDraft3D2
10
43
20
-32.692985
30
0
11
3.7213
21
-32.692985
31
0
70
32
71
5
72
1
41
1
210
0
220
0
230
1
3
Standard
100
AcDbAlignedDimension
13
-36
23
-5.5875
33
0
14
43
24
-1.5875
34
0
50
0
100
AcDbRotatedDimension
1001
ACAD
1000
DSTYLE
1002
{
1070
   279
1070
     0
1070
   172
1070
     1
1070
   173
1070
     1
1070
   340
1005
DD
1070
   271
1070
     2
1070
   272
1070
     2
1070
    77
1070
     1
1070
    73
1070
     0
1070
   171
1070
     3
1070
   274
1070
     4
1070
   177
1070
    35
1070
   176
1070
    35
1070
   178
1070
    35
1070
    48
1040
-0.005
1070
    41
1041
3.5
1070
   147
1041
1.75
1070
    42
1041
1.5875
1070
    44
1041
2.0
1070
   140
1041
3.5
1070
   343
1005
0
1070
   344
1005
0
1002
}
0
DIMENSION
5
FD
100
AcDbEntity
8
SK2
62
256
6
ByLayer
370
13
48
1
60
0
100
AcDbDimension
2
DimnDraft3D3
10
43
20
14.909119
30
0
11
32.54
21
14.909119
31
0
70
32
71
5
72
1
41
1
210
0
220
0
230
1
3
Standard
100
AcDbAlignedDimension
13
22.08
23
4.8875
33
0
14
43
24
1.5875
34
0
50
0
100
AcDbRotatedDimension
1001
ACAD
1000
DSTYLE
1002
{
1070
   279
1070
     0
1070
   172
1070
     1
1070
   173
1070
     1
1070
   340
1005
DD
1070
   271
1070
     2
1070
   272
1070
     2
1070
    77
1070
     1
1070
    73
1070
     0
1070
   171
1070
     3
1070
   274
1070
     4
1070
   177
1070
    35
1070
   176
1070
    35
1070
   178
1070
    35
1070
    48
1040
-0.005
1070
    41
1041
3.5
1070
   147
1041
1.75
1070
    42
1041
1.5875
1070
    44
1041
2.0
1070
   140
1041
3.5
1070
   343
1005
0
1070
   344
1005
0
1002
}
0
DIMENSION
5
107
100
AcDbEntity
8
SK2
62
256
6
ByLayer
370
13
48
1
60
0
100
AcDbDimension
2
DimnDraft3D4
10
41.88
20
-16.102503
30
0
11
52.981425
21
-16.102503
31
0
70
32
71
5
72
1
41
1
210
0
220
0
230
1
3
Standard
100
AcDbAlignedDimension
13
43
23
-1.5875
33
0
14
41.88
24
-4.8875
34
0
50
0
100
AcDbRotatedDimension
1001
ACAD
1000
DSTYLE
1002
{
1070
   279
1070
     0
1070
   172
1070
     1
1070
   173
1070
     1
1070
   340
1005
DD
1070
   271
1070
     2
1070
   272
1070
     2
1070
    77
1070
     1
1070
    73
1070
     0
1070
   171
1070
     3
1070
   274
1070
     4
1070
   177
1070
    35
1070
   176
1070
    35
1070
   178
1070
    35
1070
    48
1040
-0.005
1070
    41
1041
3.5
1070
   147
1041
1.75
1070
    42
1041
1.5875
1070
    44
1041
2.0
1070
   140
1041
3.5
1070
   343
1005
0
1070
   344
1005
0
1002
}
0
DIMENSION
5
111
100
AcDbEntity
8
SK2
62
256
6
ByLayer
370
13
48
1
60
0
100
AcDbDimension
2
DimnDraft3D5
10
41.88
20
-22.343428
30
0
11
0.640676
21
-22.343428
31
0
70
32
71
5
72
1
41
1
210
0
220
0
230
1
3
Standard
100
AcDbAlignedDimension
13
-36
23
-5.5875
33
0
14
41.88
24
-4.8875
34
0
50
0
100
AcDbRotatedDimension
1001
ACAD
1000
DSTYLE
1002
{
1070
   279
1070
     0
1070
   172
1070
     1
1070
   173
1070
     1
1070
   340
1005
DD
1070
   271
1070
     2
1070
   272
1070
     2
1070
    77
1070
     1
1070
    73
1070
     0
1070
   171
1070
     3
1070
   274
1070
     4
1070
   177
1070
    35
1070
   176
1070
    35
1070
   178
1070
    35
1070
    48
1040
-0.005
1070
    41
1041
3.5
1070
   147
1041
1.75
1070
    42
1041
1.5875
1070
    44
1041
2.0
1070
   140
1041
3.5
1070
   343
1005
0
1070
   344
1005
0
1002
}
0
DIMENSION
5
11C
100
AcDbEntity
8
SK2
62
256
6
ByLayer
370
13
48
1
60
0
100
AcDbDimension
2
DimnDraft3D6
10
-46.625163
20
4
30
0
11
-47.250163
21
22.47418
31
0
70
33
71
5
72
1
41
1
210
0
220
0
230
1
3
Standard
100
AcDbAlignedDimension
13
-37.5875
23
-4
33
0
14
-37.5875
24
4
34
0
1001
ACAD
1000
DSTYLE
1002
{
1070
   279
1070
     0
1070
    74
1070
     0
1070
   173
1070
     1
1070
   340
1005
DD
1070
   271
1070
     3
1070
   272
1070
     2
1070
    77
1070
     1
1070
    73
1070
     0
1070
   171
1070
     3
1070
   274
1070
     4
1070
   177
1070
    35
1070
   176
1070
    35
1070
   178
1070
    35
1070
    48
1040
-0.005
1070
    41
1041
3.5
1070
   147
1041
1.75
1070
    42
1041
1.5875
1070
    44
1041
2.0
1070
   140
1041
3.5
1070
   343
1005
0
1070
   344
1005
0
1002
}
0
DIMENSION
5
127
100
AcDbEntity
8
2
62
256
6
ByLayer
370
13
48
1
60
0
100
AcDbDimension
2
DimnDraft3D7
10
57.083343
20
3.3
30
0
11
52.458343
21
20.367266
31
0
70
33
71
5
72
1
41
1
210
0
220
0
230
1
3
Standard
100
AcDbAlignedDimension
13
43.4675
23
-3.3
33
0
14
43.4675
24
3.3
34
0
1001
ACAD
1000
DSTYLE
1002
{
1070
   279
1070
     0
1070
    74
1070
     0
1070
   173
1070
     1
1070
   340
1005
DD
1070
   271
1070
     3
1070
   272
1070
     2
1070
    77
1070
     1
1070
    73
1070
     0
1070
   171
1070
     3
1070
   274
1070
     4
1070
   177
1070
    35
1070
   176
1070
    35
1070
   178
1070
    35
1070
    48
1040
-0.005
1070
    41
1041
3.5
1070
   147
1041
1.75
1070
    42
1041
1.5875
1070
    44
1041
2.0
1070
   140
1041
3.5
1070
   343
1005
0
1070
   344
1005
0
1002
}
0
ENDSEC
0
SECTION
2
OBJECTS
0
DICTIONARY
5
192
330
0
100
AcDbDictionary
280
0
281
1
3
ACAD_GROUP
350
193
3
ACAD_MLINESTYLE
350
194
0
DICTIONARY
5
193
330
0
100
AcDbDictionary
280
0
281
1
0
DICTIONARY
5
194
330
0
100
AcDbDictionary
280
0
281
1
3
Standard
350
18
0
MLINESTYLE
5
18
330
194
100
AcDbMlineStyle
2
Standard
70
0
3

62
256
51
90
52
90
71
2
49
-0.5
62
256
6
ByLayer
49
0.5
62
256
6
ByLayer
0
RASTERVARIABLES
5
180
330

100
AcDbRasterVariables
90
0
70
1
71
1
72
1
0
ENDSEC
0
EOF
