0
SECTION
2
HEADER
9
$ACADVER
1
AC1015
9
$DWGCODEPAGE
3
ANSI_1252
9
$HANDSEED
5
1b1
9
$ANGBASE
50
0
9
$ANGDIR
70
0
9
$ATTMODE
70
1
9
$AUNITS
70
0
9
$AUPREC
70
0
9
$CECOLOR
62
256
9
$CELTSCALE
40
1
9
$CELTYPE
6
ByLayer
9
$CELWEIGHT
370
18
9
$CLAYER
8
0
9
$CMLJUST
70
0
9
$CMLSCALE
40
1
9
$CMLSTYLE
2
Standard
9
$DIMSTYLE
2
Standard
9
$TEXTSIZE
40
0.2
9
$TEXTSTYLE
7
Standard
9
$LUNITS
70
2
9
$LUPREC
70
4
9
$EXTNAMES
290
1
9
$INSUNITS
70
4
9
$LTSCALE
40
1
9
$LWDISPLAY
290
1
9
$PDMODE
70
0
9
$PDSIZE
40
0
9
$PLINEGEN
70
0
0
ENDSEC
0
SECTION
2
CLASSES
0
CLASS
1
RASTERVARIABLES
2
AcDbRasterVariables
3
ISM
90
0
280
0
281
0
0
ENDSEC
0
SECTION
2
TABLES
0
TABLE
2
VPORT
5
1a7
100
AcDbSymbolTable
0
VPORT
5
1
100
AcDbSymbolTableRecord
100
AcDbViewportTableRecord
2
*Active
70
0
10
0
20
0
11
1
21
1
12
-1
22
1
13
0
23
0
14
0.5
24
0.5
15
10
25
10
16
0
26
0
36
1
17
0
27
0
37
0
0
ENDTAB
0
TABLE
2
LTYPE
5
1a8
100
AcDbSymbolTable
0
LTYPE
5
14
100
AcDbSymbolTableRecord
100
AcDbLinetypeTableRecord
70
0
2
ByBlock
3

72
65
73
0
40
0
0
LTYPE
5
15
100
AcDbSymbolTableRecord
100
AcDbLinetypeTableRecord
70
0
2
ByLayer
3

72
65
73
0
40
0
0
LTYPE
5
16
100
AcDbSymbolTableRecord
100
AcDbLinetypeTableRecord
70
0
2
CONTINUOUS
3
Solid line
72
65
73
0
40
0
0
LTYPE
5
6A
100
AcDbSymbolTableRecord
100
AcDbLinetypeTableRecord
70
0
2
CENTER
3
____ _ ____ _ ____ _ ____
72
65
73
4
40
47.5
49
22
74
0
49
-8.5
74
0
49
8.5
74
0
49
-8.5
74
0
0
LTYPE
5
6B
100
AcDbSymbolTableRecord
100
AcDbLinetypeTableRecord
70
0
2
DASHED
3
__ __ __ __ __ __ __ __ __
72
65
73
2
40
25.72
49
12.86
74
0
49
-12.86
74
0
0
ENDTAB
0
TABLE
2
LAYER
5
1a9
100
AcDbSymbolTable
0
LAYER
5
10
100
AcDbSymbolTableRecord
100
AcDbLayerTableRecord
2
0
70
0
62
7
6
CONTINUOUS
290
1
370
-3
390
0
0
LAYER
5
6D
100
AcDbSymbolTableRecord
100
AcDbLayerTableRecord
2
81
70
0
62
-3
6
CONTINUOUS
290
1
370
-3
390
0
0
LAYER
5
6F
100
AcDbSymbolTableRecord
100
AcDbLayerTableRecord
2
80
70
0
62
-6
6
CONTINUOUS
290
1
370
-3
390
0
0
LAYER
5
74
100
AcDbSymbolTableRecord
100
AcDbLayerTableRecord
2
2
70
0
62
7
6
CONTINUOUS
290
1
370
-3
390
0
0
LAYER
5
78
100
AcDbSymbolTableRecord
100
AcDbLayerTableRecord
2
1
70
0
62
4
6
CONTINUOUS
290
1
370
-3
390
0
0
LAYER
5
88
100
AcDbSymbolTableRecord
100
AcDbLayerTableRecord
2
4
70
0
62
-2
6
CENTER
290
1
370
-3
390
0
0
LAYER
5
193
100
AcDbSymbolTableRecord
100
AcDbLayerTableRecord
2
SK2
70
0
62
7
6
CONTINUOUS
290
1
370
-3
390
0
0
LAYER
5
194
100
AcDbSymbolTableRecord
100
AcDbLayerTableRecord
2
SK1
70
0
62
4
6
CONTINUOUS
290
1
370
-3
390
0
0
LAYER
5
195
100
AcDbSymbolTableRecord
100
AcDbLayerTableRecord
2
SK4
70
0
62
2
6
CENTER
290
1
370
-3
390
0
0
LAYER
5
196
100
AcDbSymbolTableRecord
100
AcDbLayerTableRecord
2
SK6
70
0
62
5
6
CONTINUOUS
290
1
370
-3
390
0
0
ENDTAB
0
TABLE
2
STYLE
5
1aa
100
AcDbSymbolTable
0
STYLE
5
11
100
AcDbSymbolTableRecord
100
AcDbTextStyleTableRecord
2
Standard
3
txt
70
0
71
0
40
0
41
1
42
0
50
0
0
STYLE
5
EF
100
AcDbSymbolTableRecord
100
AcDbTextStyleTableRecord
2
iso_b_vert
3
simplex.shx
70
0
71
0
40
0
41
1
42
0
50
0
0
STYLE
5
F0
100
AcDbSymbolTableRecord
100
AcDbTextStyleTableRecord
2
DWGDirectTextStyle
3
simplex
70
0
71
0
40
0
41
1
42
0
50
0
0
ENDTAB
0
TABLE
2
DIMSTYLE
5
1ab
100
AcDbSymbolTable
100
AcDbDimStyleTable
0
DIMSTYLE
105
27
100
AcDbSymbolTableRecord
100
AcDbDimStyleTableRecord
2
Standard
70
0
3
<>
41
0.18
42
0.0625
44
0.18
140
0.18
147
0.09
73
0
74
0
77
1
271
2
275
0
278
52
280
0
340
11
0
ENDTAB
0
TABLE
2
VIEW
5
1ac
100
AcDbSymbolTable
0
ENDTAB
0
TABLE
2
UCS
5
1ad
100
AcDbSymbolTable
0
ENDTAB
0
TABLE
2
APPID
5
1ae
100
AcDbSymbolTable
0
APPID
5
12
100
AcDbSymbolTableRecord
100
AcDbRegAppTableRecord
2
ACAD
70
0
0
ENDTAB
0
TABLE
2
BLOCK_RECORD
5
1af
100
AcDbSymbolTable
0
BLOCK_RECORD
5
1F
100
AcDbSymbolTableRecord
100
AcDbBlockTableRecord
2
*Model_Space
340
0
70
0
0
BLOCK_RECORD
5
1B
100
AcDbSymbolTableRecord
100
AcDbBlockTableRecord
2
*Paper_Space
340
0
70
0
0
BLOCK_RECORD
5
23
100
AcDbSymbolTableRecord
100
AcDbBlockTableRecord
2
*Paper_Space0
340
0
70
0
0
BLOCK_RECORD
5
F2
100
AcDbSymbolTableRecord
100
AcDbBlockTableRecord
2
DimnDraft3D1
340
0
70
0
0
BLOCK_RECORD
5
FC
100
AcDbSymbolTableRecord
100
AcDbBlockTableRecord
2
DimnDraft3D2
340
0
70
0
0
BLOCK_RECORD
5
106
100
AcDbSymbolTableRecord
100
AcDbBlockTableRecord
2
DimnDraft3D3
340
0
70
0
0
BLOCK_RECORD
5
110
100
AcDbSymbolTableRecord
100
AcDbBlockTableRecord
2
DimnDraft3D4
340
0
70
0
0
BLOCK_RECORD
5
11A
100
AcDbSymbolTableRecord
100
AcDbBlockTableRecord
2
DimnDraft3D5
340
0
70
0
0
BLOCK_RECORD
5
124
100
AcDbSymbolTableRecord
100
AcDbBlockTableRecord
2
DimnDraft3D6
340
0
70
0
0
BLOCK_RECORD
5
12F
100
AcDbSymbolTableRecord
100
AcDbBlockTableRecord
2
DimnDraft3D7
340
0
70
0
0
ENDTAB
0
ENDSEC
0
SECTION
2
BLOCKS
0
BLOCK
5
20
100
AcDbEntity
8
0
100
AcDbBlockBegin
2
*Model_Space
70
0
10
0
20
0
30
0
3
*Model_Space
0
ENDBLK
5
21
100
AcDbEntity
8
0
100
AcDbBlockEnd
0
BLOCK
5
1C
100
AcDbEntity
8
0
100
AcDbBlockBegin
2
*Paper_Space
70
0
10
0
20
0
30
0
3
*Paper_Space
0
ENDBLK
5
1D
100
AcDbEntity
8
0
100
AcDbBlockEnd
0
BLOCK
5
24
100
AcDbEntity
8
0
100
AcDbBlockBegin
2
*Paper_Space0
70
0
10
0
20
0
30
0
3
*Paper_Space0
0
ENDBLK
5
25
100
AcDbEntity
8
0
100
AcDbBlockEnd
0
BLOCK
5
F9
100
AcDbEntity
8
0
100
AcDbBlockBegin
2
DimnDraft3D1
70
0
10
0
20
0
30
0
3
DimnDraft3D1
0
MTEXT
5
F3
100
AcDbEntity
8
SK2
62
256
6
ByLayer
370
13
48
1
60
0
100
AcDbMText
10
28.201375
20
-12.588398
30
0
210
0
220
0
230
1
1
\W0.7317;67,90
40
3.5
41
0
44
1.084337
50
0
71
7
72
5
7
iso_b_vert
0
LINE
5
F4
100
AcDbEntity
8
SK2
62
256
6
ByLayer
370
13
48
1
60
0
100
AcDbLine
10
0
20
-1.5875
30
0
11
0
21
-15.463398
31
0
39
0
210
0
220
0
230
1
0
LINE
5
F5
100
AcDbEntity
8
SK2
62
256
6
ByLayer
370
13
48
1
60
0
100
AcDbLine
10
67.9
20
-4.8375
30
0
11
67.9
21
-15.463398
31
0
39
0
210
0
220
0
230
1
0
LINE
5
F6
100
AcDbEntity
8
SK2
62
256
6
ByLayer
370
13
48
1
60
0
100
AcDbLine
10
0
20
-13.463398
30
0
11
67.9
21
-13.463398
31
0
39
0
210
0
220
0
230
1
0
SOLID
5
F7
100
AcDbEntity
8
SK2
62
256
6
ByLayer
370
13
48
1
60
0
100
AcDbTrace
10
0
20
-13.463398
30
0
11
3.499998
21
-13.002615
31
0
12
3.500002
22
-13.924182
32
0
13
0
23
-13.463398
33
0
39
0
210
0
220
0
230
1
0
SOLID
5
F8
100
AcDbEntity
8
SK2
62
256
6
ByLayer
370
13
48
1
60
0
100
AcDbTrace
10
67.9
20
-13.463398
30
0
11
64.400002
21
-13.924182
31
0
12
64.399998
22
-13.002615
32
0
13
67.9
23
-13.463398
33
0
39
0
210
0
220
0
230
1
0
ENDBLK
5
FA
100
AcDbEntity
8
0
100
AcDbBlockEnd
0
BLOCK
5
103
100
AcDbEntity
8
0
100
AcDbBlockBegin
2
DimnDraft3D2
70
0
10
0
20
0
30
0
3
DimnDraft3D2
0
MTEXT
5
FD
100
AcDbEntity
8
SK2
62
256
6
ByLayer
370
13
48
1
60
0
100
AcDbMText
10
11.422221
20
-31.817985
30
0
210
0
220
0
230
1
1
\W0.6930;105,00
40
3.5
41
0
44
1.084337
50
0
71
7
72
5
7
iso_b_vert
0
LINE
5
FE
100
AcDbEntity
8
SK2
62
256
6
ByLayer
370
13
48
1
60
0
100
AcDbLine
10
-36
20
-5.5875
30
0
11
-36
21
-34.692985
31
0
39
0
210
0
220
0
230
1
0
LINE
5
FF
100
AcDbEntity
8
SK2
62
256
6
ByLayer
370
13
48
1
60
0
100
AcDbLine
10
69
20
-1.5875
30
0
11
69
21
-34.692985
31
0
39
0
210
0
220
0
230
1
0
LINE
5
100
100
AcDbEntity
8
SK2
62
256
6
ByLayer
370
13
48
1
60
0
100
AcDbLine
10
-36
20
-32.692985
30
0
11
69
21
-32.692985
31
0
39
0
210
0
220
0
230
1
0
SOLID
5
101
100
AcDbEntity
8
SK2
62
256
6
ByLayer
370
13
48
1
60
0
100
AcDbTrace
10
-36
20
-32.692985
30
0
11
-32.500002
21
-32.232202
31
0
12
-32.499998
22
-33.153769
32
0
13
-36
23
-32.692985
33
0
39
0
210
0
220
0
230
1
0
SOLID
5
102
100
AcDbEntity
8
SK2
62
256
6
ByLayer
370
13
48
1
60
0
100
AcDbTrace
10
69
20
-32.692985
30
0
11
65.500002
21
-33.153769
31
0
12
65.499998
22
-32.232202
32
0
13
69
23
-32.692985
33
0
39
0
210
0
220
0
230
1
0
ENDBLK
5
104
100
AcDbEntity
8
0
100
AcDbBlockEnd
0
BLOCK
5
10D
100
AcDbEntity
8
0
100
AcDbBlockBegin
2
DimnDraft3D3
70
0
10
0
20
0
30
0
3
DimnDraft3D3
0
MTEXT
5
107
100
AcDbEntity
8
SK2
62
256
6
ByLayer
370
13
48
1
60
0
100
AcDbMText
10
38.438816
20
15.734119
30
0
210
0
220
0
230
1
1
\W0.6713;53,10
40
3.5
41
0
44
1.084337
50
0
71
7
72
5
7
iso_b_vert
0
LINE
5
108
100
AcDbEntity
8
SK2
62
256
6
ByLayer
370
13
48
1
60
0
100
AcDbLine
10
15.9
20
4.8375
30
0
11
15.9
21
16.859119
31
0
39
0
210
0
220
0
230
1
0
LINE
5
109
100
AcDbEntity
8
SK2
62
256
6
ByLayer
370
13
48
1
60
0
100
AcDbLine
10
69
20
1.5875
30
0
11
69
21
16.859119
31
0
39
0
210
0
220
0
230
1
0
LINE
5
10A
100
AcDbEntity
8
SK2
62
256
6
ByLayer
370
13
48
1
60
0
100
AcDbLine
10
15.9
20
14.859119
30
0
11
69
21
14.859119
31
0
39
0
210
0
220
0
230
1
0
SOLID
5
10B
100
AcDbEntity
8
SK2
62
256
6
ByLayer
370
13
48
1
60
0
100
AcDbTrace
10
15.9
20
14.859119
30
0
11
19.399998
21
15.319903
31
0
12
19.400002
22
14.398335
32
0
13
15.9
23
14.859119
33
0
39
0
210
0
220
0
230
1
0
SOLID
5
10C
100
AcDbEntity
8
SK2
62
256
6
ByLayer
370
13
48
1
60
0
100
AcDbTrace
10
69
20
14.859119
30
0
11
65.500002
21
14.398335
31
0
12
65.499998
22
15.319903
32
0
13
69
23
14.859119
33
0
39
0
210
0
220
0
230
1
0
ENDBLK
5
10E
100
AcDbEntity
8
0
100
AcDbBlockEnd
0
BLOCK
5
117
100
AcDbEntity
8
0
100
AcDbBlockBegin
2
DimnDraft3D4
70
0
10
0
20
0
30
0
3
DimnDraft3D4
0
MTEXT
5
111
100
AcDbEntity
8
SK2
62
256
6
ByLayer
370
13
48
1
60
0
100
AcDbMText
10
76.715636
20
-15.177503
30
0
210
0
220
0
230
1
1
\W0.5583;1,10
40
3.5
41
0
44
1.084337
50
0
71
7
72
5
7
iso_b_vert
0
LINE
5
112
100
AcDbEntity
8
SK2
62
256
6
ByLayer
370
13
48
1
60
0
100
AcDbLine
10
69
20
-1.5875
30
0
11
69
21
-18.052503
31
0
39
0
210
0
220
0
230
1
0
LINE
5
113
100
AcDbEntity
8
SK2
62
256
6
ByLayer
370
13
48
1
60
0
100
AcDbLine
10
67.9
20
-4.8375
30
0
11
67.9
21
-18.052503
31
0
39
0
210
0
220
0
230
1
0
LINE
5
114
100
AcDbEntity
8
SK2
62
256
6
ByLayer
370
13
48
1
60
0
100
AcDbLine
10
59.15
20
-16.052503
30
0
11
82.122215
21
-16.052503
31
0
39
0
210
0
220
0
230
1
0
SOLID
5
115
100
AcDbEntity
8
SK2
62
256
6
ByLayer
370
13
48
1
60
0
100
AcDbTrace
10
69
20
-16.052503
30
0
11
72.499998
21
-15.591719
31
0
12
72.500002
22
-16.513287
32
0
13
69
23
-16.052503
33
0
39
0
210
0
220
0
230
1
0
SOLID
5
116
100
AcDbEntity
8
SK2
62
256
6
ByLayer
370
13
48
1
60
0
100
AcDbTrace
10
67.9
20
-16.052503
30
0
11
64.400002
21
-16.513287
31
0
12
64.399998
22
-15.591719
32
0
13
67.9
23
-16.052503
33
0
39
0
210
0
220
0
230
1
0
ENDBLK
5
118
100
AcDbEntity
8
0
100
AcDbBlockEnd
0
BLOCK
5
121
100
AcDbEntity
8
0
100
AcDbBlockBegin
2
DimnDraft3D5
70
0
10
0
20
0
30
0
3
DimnDraft3D5
0
MTEXT
5
11B
100
AcDbEntity
8
SK2
62
256
6
ByLayer
370
13
48
1
60
0
100
AcDbMText
10
8.341597
20
-21.468428
30
0
210
0
220
0
230
1
1
\W0.6930;103,90
40
3.5
41
0
44
1.084337
50
0
71
7
72
5
7
iso_b_vert
0
LINE
5
11C
100
AcDbEntity
8
SK2
62
256
6
ByLayer
370
13
48
1
60
0
100
AcDbLine
10
-36
20
-5.5875
30
0
11
-36
21
-24.343428
31
0
39
0
210
0
220
0
230
1
0
LINE
5
11D
100
AcDbEntity
8
SK2
62
256
6
ByLayer
370
13
48
1
60
0
100
AcDbLine
10
67.9
20
-4.8375
30
0
11
67.9
21
-24.343428
31
0
39
0
210
0
220
0
230
1
0
LINE
5
11E
100
AcDbEntity
8
SK2
62
256
6
ByLayer
370
13
48
1
60
0
100
AcDbLine
10
-36
20
-22.343428
30
0
11
67.9
21
-22.343428
31
0
39
0
210
0
220
0
230
1
0
SOLID
5
11F
100
AcDbEntity
8
SK2
62
256
6
ByLayer
370
13
48
1
60
0
100
AcDbTrace
10
-36
20
-22.343428
30
0
11
-32.500002
21
-21.882645
31
0
12
-32.499998
22
-22.804212
32
0
13
-36
23
-22.343428
33
0
39
0
210
0
220
0
230
1
0
SOLID
5
120
100
AcDbEntity
8
SK2
62
256
6
ByLayer
370
13
48
1
60
0
100
AcDbTrace
10
67.9
20
-22.343428
30
0
11
64.400002
21
-22.804212
31
0
12
64.399998
22
-21.882645
32
0
13
67.9
23
-22.343428
33
0
39
0
210
0
220
0
230
1
0
ENDBLK
5
122
100
AcDbEntity
8
0
100
AcDbBlockEnd
0
BLOCK
5
12C
100
AcDbEntity
8
0
100
AcDbBlockBegin
2
DimnDraft3D6
70
0
10
0
20
0
30
0
3
DimnDraft3D6
0
MTEXT
5
125
100
AcDbEntity
8
SK2
62
256
6
ByLayer
370
13
48
1
60
0
100
AcDbMText
10
-46.375163
20
23.34918
30
0
210
0
220
0
230
1
1
\W0.7317;8,000
40
3.5
41
0
44
1.084337
50
90
71
7
72
5
7
iso_b_vert
0
MTEXT
5
126
100
AcDbEntity
8
SK2
62
256
6
ByLayer
370
13
48
1
60
0
100
AcDbMText
10
-46.375163
20
18.126524
30
0
210
0
220
0
230
1
1
%%c
40
3.5
41
0
44
1.084337
50
90
71
7
72
5
7
iso_b_vert
0
LINE
5
127
100
AcDbEntity
8
SK2
62
256
6
ByLayer
370
13
48
1
60
0
100
AcDbLine
10
-37.5875
20
-4
30
0
11
-46.625163
21
-4
31
0
39
0
210
0
220
0
230
1
0
LINE
5
128
100
AcDbEntity
8
SK2
62
256
6
ByLayer
370
13
48
1
60
0
100
AcDbLine
10
-37.5875
20
4
30
0
11
-46.625163
21
4
31
0
39
0
210
0
220
0
230
1
0
LINE
5
129
100
AcDbEntity
8
SK2
62
256
6
ByLayer
370
13
48
1
60
0
100
AcDbLine
10
-44.625163
20
-4
30
0
11
-44.625163
21
33.121549
31
0
39
0
210
0
220
0
230
1
0
SOLID
5
12A
100
AcDbEntity
8
SK2
62
256
6
ByLayer
370
13
48
1
60
0
100
AcDbTrace
10
-44.625163
20
-4
30
0
11
-45.085946
21
-0.500002
31
0
12
-44.164379
22
-0.499998
32
0
13
-44.625163
23
-4
33
0
39
0
210
0
220
0
230
1
0
SOLID
5
12B
100
AcDbEntity
8
SK2
62
256
6
ByLayer
370
13
48
1
60
0
100
AcDbTrace
10
-44.625163
20
4
30
0
11
-44.164379
21
0.500002
31
0
12
-45.085946
22
0.499998
32
0
13
-44.625163
23
4
33
0
39
0
210
0
220
0
230
1
0
ENDBLK
5
12D
100
AcDbEntity
8
0
100
AcDbBlockEnd
0
BLOCK
5
137
100
AcDbEntity
8
0
100
AcDbBlockBegin
2
DimnDraft3D7
70
0
10
0
20
0
30
0
3
DimnDraft3D7
0
MTEXT
5
130
100
AcDbEntity
8
2
62
256
6
ByLayer
370
13
48
1
60
0
100
AcDbMText
10
79.333343
20
21.192266
30
0
210
0
220
0
230
1
1
\W0.7317;6,500
40
3.5
41
0
44
1.084337
50
90
71
7
72
5
7
iso_b_vert
0
MTEXT
5
131
100
AcDbEntity
8
2
62
256
6
ByLayer
370
13
48
1
60
0
100
AcDbMText
10
79.333343
20
15.96961
30
0
210
0
220
0
230
1
1
%%c
40
3.5
41
0
44
1.084337
50
90
71
7
72
5
7
iso_b_vert
0
LINE
5
132
100
AcDbEntity
8
2
62
256
6
ByLayer
370
13
48
1
60
0
100
AcDbLine
10
69.4875
20
-3.25
30
0
11
83.083343
21
-3.25
31
0
39
0
210
0
220
0
230
1
0
LINE
5
133
100
AcDbEntity
8
2
62
256
6
ByLayer
370
13
48
1
60
0
100
AcDbLine
10
69.4875
20
3.25
30
0
11
83.083343
21
3.25
31
0
39
0
210
0
220
0
230
1
0
LINE
5
134
100
AcDbEntity
8
2
62
256
6
ByLayer
370
13
48
1
60
0
100
AcDbLine
10
81.083343
20
30.964635
30
0
11
81.083343
21
-12
31
0
39
0
210
0
220
0
230
1
0
SOLID
5
135
100
AcDbEntity
8
2
62
256
6
ByLayer
370
13
48
1
60
0
100
AcDbTrace
10
81.083343
20
-3.25
30
0
11
81.544126
21
-6.749998
31
0
12
80.622559
22
-6.750002
32
0
13
81.083343
23
-3.25
33
0
39
0
210
0
220
0
230
1
0
SOLID
5
136
100
AcDbEntity
8
2
62
256
6
ByLayer
370
13
48
1
60
0
100
AcDbTrace
10
81.083343
20
3.25
30
0
11
80.622559
21
6.749998
31
0
12
81.544126
22
6.750002
32
0
13
81.083343
23
3.25
33
0
39
0
210
0
220
0
230
1
0
ENDBLK
5
138
100
AcDbEntity
8
0
100
AcDbBlockEnd
0
ENDSEC
0
SECTION
2
ENTITIES
0
ARC
5
9D
100
AcDbEntity
8
1
62
256
6
ByLayer
370
18
48
1
60
0
100
AcDbCircle
39
0
10
0
20
3.2
30
0
40
0.800000000000003
210
0
220
0
230
1
100
AcDbArc
50
30.41672
51
90
0
ARC
5
9E
100
AcDbEntity
8
1
62
256
6
ByLayer
370
18
48
1
60
0
100
AcDbCircle
39
0
10
0
20
-3.2
30
0
40
0.800000000000003
210
0
220
0
230
1
100
AcDbArc
50
270
51
329.58328
0
ARC
5
9F
100
AcDbEntity
8
1
62
256
6
ByLayer
370
18
48
1
60
0
100
AcDbCircle
39
0
10
-1.379786
20
4.010057
30
0
40
0.799999999999997
210
0
220
0
230
-1
100
AcDbArc
50
269.965623
51
329.58328
0
ARC
5
A0
100
AcDbEntity
8
1
62
256
6
ByLayer
370
18
48
1
60
0
100
AcDbCircle
39
0
10
-1.379786
20
-4.010057
30
0
40
0.799999999999997
210
0
220
0
230
-1
100
AcDbArc
50
30.41672
51
90.034377
0
ELLIPSE
5
A1
100
AcDbEntity
8
1
62
256
6
ByLayer
370
18
48
1
60
0
100
AcDbEllipse
10
12.25
20
3.31259
30
0
11
-0.25
21
3.06151588455594E-17
31
0
210
0
220
0
230
1
40
1
41
0.426981700961163
42
1.58231940602528
0
ELLIPSE
5
A2
100
AcDbEntity
8
1
62
256
6
ByLayer
370
18
48
1
60
0
100
AcDbEllipse
10
12.25
20
-3.31259
30
0
11
-0.25
21
3.06151588455594E-17
31
0
210
0
220
0
230
1
40
1
41
-1.56800274409131
42
-0.427772660394064
0
ELLIPSE
5
A3
100
AcDbEntity
8
1
62
256
6
ByLayer
370
18
48
1
60
0
100
AcDbEllipse
10
69.047135
20
-0.00402
30
0
11
0.137979128822747
21
-0.428995648028261
31
0
210
0
220
0
230
-1
40
0.08774
41
1.68390242294564
42
2.32337572124165
0
ELLIPSE
5
A4
100
AcDbEntity
8
1
62
256
6
ByLayer
370
13
48
1
60
0
100
AcDbEllipse
10
68.680476
20
1.66186
30
0
11
1.98112214861786
21
-0.971733445947433
31
0
210
0
220
0
230
-1
40
0.483879
41
1.56400499505466
42
1.83782983963028
0
ELLIPSE
5
A5
100
AcDbEntity
8
1
62
256
6
ByLayer
370
13
48
1
60
0
100
AcDbEllipse
10
68.22374
20
0.484527
30
0
11
0.153082081612423
21
0.258003636193771
31
0
210
0
220
0
230
1
40
0.454519
41
0.917105603404858
42
2.31336900500025
0
ELLIPSE
5
A6
100
AcDbEntity
8
1
62
256
6
ByLayer
370
13
48
1
60
0
100
AcDbEllipse
10
68.490569
20
1.538663
30
0
11
1.91117785905429
21
-1.31590030294347
31
0
210
0
220
0
230
-1
40
0.533762
41
1.44484622737278
42
1.68552248361424
0
ELLIPSE
5
A7
100
AcDbEntity
8
1
62
256
6
ByLayer
370
18
48
1
60
0
100
AcDbEllipse
10
68.860567
20
0.106677
30
0
11
0.0727819104941243
21
0.301917195707512
31
0
210
0
220
0
230
-1
40
0.478434
41
1.70297109621534
42
2.45976119972557
0
ELLIPSE
5
A8
100
AcDbEntity
8
1
62
256
6
ByLayer
370
18
48
1
60
0
100
AcDbEllipse
10
68.350804
20
-1.66186
30
0
11
0.503954095824529
21
1.36376540686126
31
0
210
0
220
0
230
-1
40
0.115174
41
0.742863466702362
42
1.49454714404151
0
ELLIPSE
5
A9
100
AcDbEntity
8
1
62
256
6
ByLayer
370
18
48
1
60
0
100
AcDbEllipse
10
69.000292
20
-0.00071
30
0
11
1.20012287564169
21
-3.24768875924742
31
0
210
0
220
0
230
-1
40
0.115174
41
-2.96780422314417
42
-2.85885501830141
0
ELLIPSE
5
AA
100
AcDbEntity
8
1
62
256
6
ByLayer
370
18
48
1
60
0
100
AcDbEllipse
10
68.350804
20
1.66186
30
0
11
0.503954095818067
21
-1.36376540684761
31
0
210
0
220
0
230
-1
40
0.115174
41
-1.49454714404993
42
-0.742863466704554
0
ELLIPSE
5
AB
100
AcDbEntity
8
1
62
256
6
ByLayer
370
18
48
1
60
0
100
AcDbEllipse
10
69.047135
20
0.00402
30
0
11
0.13797912883773
21
0.428995648066407
31
0
210
0
220
0
230
-1
40
0.08774
41
-2.32337572125694
42
-1.68390242300956
0
ELLIPSE
5
AC
100
AcDbEntity
8
1
62
256
6
ByLayer
370
18
48
1
60
0
100
AcDbEllipse
10
69.000292
20
0.00071
30
0
11
1.20012288344826
21
3.24768878216687
31
0
210
0
220
0
230
-1
40
0.115174
41
2.85885501930964
42
2.96780422376192
0
POINT
5
6C
100
AcDbEntity
8
81
62
256
6
ByLayer
370
18
48
1
60
0
100
AcDbPoint
10
69
20
0
30
0
39
0
210
0
220
0
230
1
50
360
0
POINT
5
6E
100
AcDbEntity
8
80
62
256
6
ByLayer
370
18
48
1
60
0
100
AcDbPoint
10
0
20
0
30
0
39
0
210
0
220
0
230
1
50
360
0
POINT
5
70
100
AcDbEntity
8
SK2
62
256
6
ByLayer
370
18
48
1
60
1
100
AcDbPoint
10
-36
20
-4
30
0
39
0
210
0
220
0
230
1
50
360
0
POINT
5
72
100
AcDbEntity
8
SK2
62
256
6
ByLayer
370
18
48
1
60
1
100
AcDbPoint
10
-36
20
4
30
0
39
0
210
0
220
0
230
1
50
360
0
POINT
5
73
100
AcDbEntity
8
2
62
256
6
ByLayer
370
18
48
1
60
1
100
AcDbPoint
10
67.9
20
-3.25
30
0
39
0
210
0
220
0
230
1
50
360
0
POINT
5
75
100
AcDbEntity
8
2
62
256
6
ByLayer
370
18
48
1
60
1
100
AcDbPoint
10
67.9
20
3.25
30
0
39
0
210
0
220
0
230
1
50
360
0
SPLINE
5
AD
100
AcDbEntity
8
1
62
256
6
ByLayer
370
18
48
1
60
0
100
AcDbSpline
70
4
71
3
72
10
73
6
40
0
40
0
40
0
40
0
40
0.134591779076254
40
0.543463993786321
40
1
40
1
40
1
40
1
41
1
10
46.8080507174707
20
0.348284097292293
30
0
41
1
10
46.8080110205415
20
0.348330607099342
30
0
41
1
10
46.8036918595242
20
0.350392773277548
30
0
41
1
10
46.7705820720197
20
0.366846619005457
30
0
41
1
10
46.7662003232794
20
0.370009307422549
30
0
41
1
10
46.7679039170968
20
0.369920747230736
30
0
0
SPLINE
5
AE
100
AcDbEntity
8
1
62
256
6
ByLayer
370
18
48
1
60
0
100
AcDbSpline
70
4
71
3
72
30
73
26
40
0
40
0
40
0
40
0
40
0.0709329439338867
40
0.122544170247426
40
0.155096570540723
40
0.185854008962613
40
0.227193851894144
40
0.265124645295304
40
0.293757195016031
40
0.330036421306382
40
0.390651856069675
40
0.441506809053821
40
0.479956907662179
40
0.515943464749854
40
0.564707466179359
40
0.626342412071566
40
0.679064091655976
40
0.735948529727934
40
0.78064177007183
40
0.81866791910262
40
0.844720980082457
40
0.864028899759674
40
0.903040691563682
40
0.962582469326619
40
1
40
1
40
1
40
1
41
1
10
47.8902952560113
20
-3.08315670373466
30
0
41
1
10
48.110068645635
20
-3.08328245167968
30
0
41
1
10
48.4897868120756
20
-3.0835505427701
30
0
41
1
10
48.970721165604
20
-3.08353460016599
30
0
41
1
10
49.3267918531749
20
-3.08414295757683
30
0
41
1
10
49.6511887317734
20
-3.08461267252221
30
0
41
1
10
49.9922871638025
20
-3.08465236717612
30
0
41
1
10
50.3267865246634
20
-3.08452148100187
30
0
41
1
10
50.6456060419188
20
-3.08443399177389
30
0
41
1
10
51.0347375934742
20
-3.08525105901151
30
0
41
1
10
51.4927730517047
20
-3.08612555532991
30
0
41
1
10
51.9575274877159
20
-3.08565071148902
30
0
41
1
10
52.3459334693097
20
-3.0853348266792
30
0
41
1
10
52.7278597238434
20
-3.08664464203923
30
0
41
1
10
53.1816611228291
20
-3.08791661221926
30
0
41
1
10
53.6873430785357
20
-3.08679473577732
30
0
41
1
10
54.218197460813
20
-3.08618402679764
30
0
41
1
10
54.696538594446
20
-3.08793558789861
30
0
41
1
10
55.1292987060078
20
-3.08686348355187
30
0
41
1
10
55.4665422862505
20
-3.08645872621355
30
0
41
1
10
55.7248280886361
20
-3.08645221805247
30
0
41
1
10
55.9860256306841
20
-3.08716277056914
30
0
41
1
10
56.3515741074288
20
-3.09052692140273
30
0
41
1
10
56.7730153697048
20
-3.09038902049585
30
0
41
1
10
57.073515795542
20
-3.09011620082109
30
0
41
1
10
57.189468672708
20
-3.08983506495517
30
0
0
SPLINE
5
AF
100
AcDbEntity
8
1
62
256
6
ByLayer
370
18
48
1
60
0
100
AcDbSpline
70
4
71
2
72
6
73
3
40
0
40
0
40
0
40
1
40
1
40
1
41
1
10
57.3657317959735
20
0.003361046821766
30
0
41
1
10
57.3657224353815
20
0.0033651774501777
30
0
41
1
10
57.3657130748058
20
0.0033694073102311
30
0
0
SPLINE
5
B0
100
AcDbEntity
8
1
62
256
6
ByLayer
370
18
48
1
60
0
100
AcDbSpline
70
4
71
3
72
17
73
13
40
0
40
0
40
0
40
0
40
0.0067404328155122
40
0.176093012798547
40
0.309277019105775
40
0.46727700679985
40
0.608667805424754
40
0.652773466419871
40
0.679948463945419
40
0.719688856382358
40
0.836423952272721
40
1
40
1
40
1
40
1
41
1
10
58.4670516832667
20
-0.923542871360581
30
0
41
1
10
58.4669057571833
20
-0.923525896820507
30
0
41
1
10
58.4637664385769
20
-0.923203812929216
30
0
41
1
10
58.489686151285
20
-0.928471897549287
30
0
41
1
10
58.4398647370321
20
-0.916228742331981
30
0
41
1
10
58.5331271346794
20
-0.946828849550741
30
0
41
1
10
58.6313145087049
20
-0.984496119572725
30
0
41
1
10
58.6658064082258
20
-0.999343363246226
30
0
41
1
10
58.7059138175455
20
-1.01663457232092
30
0
41
1
10
58.7891549468366
20
-1.05322856653055
30
0
41
1
10
58.9532967211765
20
-1.12873415815105
30
0
41
1
10
59.1038400148593
20
-1.20110384094886
30
0
41
1
10
59.1963169852133
20
-1.2466783468229
30
0
0
SPLINE
5
B1
100
AcDbEntity
8
1
62
256
6
ByLayer
370
18
48
1
60
0
100
AcDbSpline
70
4
71
3
72
24
73
20
40
0
40
0
40
0
40
0
40
0.0442657480890128
40
0.110869553809736
40
0.161148625048839
40
0.204108369494414
40
0.283780153632583
40
0.356818120957792
40
0.449279505960049
40
0.529930944380539
40
0.627166414919212
40
0.678091378777127
40
0.714209782686283
40
0.747132356468804
40
0.795745687992562
40
0.847243778420038
40
0.883280779325884
40
0.933648946221544
40
1
40
1
40
1
40
1
41
1
10
37.8567724793534
20
3.07917156596903
30
0
41
1
10
37.7427938819778
20
3.0791889230598
30
0
41
1
10
37.4572148380976
20
3.07917631512368
30
0
41
1
10
37.0402838714773
20
3.07690322120945
30
0
41
1
10
36.6288818233872
20
3.07800449787595
30
0
41
1
10
36.1828377379573
20
3.07925657656921
30
0
41
1
10
35.6773555177347
20
3.07749383871246
30
0
41
1
10
35.0442650304841
20
3.07636095777494
30
0
41
1
10
34.4085509987558
20
3.07833348439715
30
0
41
1
10
33.7104621554356
20
3.07459419180086
30
0
41
1
10
33.1195294266017
20
3.07585618379542
30
0
41
1
10
32.6436605348774
20
3.075982954258
30
0
41
1
10
32.3338625397918
20
3.07473302955935
30
0
41
1
10
32.0300224611752
20
3.07392949007519
30
0
41
1
10
31.6864646867932
20
3.07384102959301
30
0
41
1
10
31.3348717801857
20
3.07405930812047
30
0
41
1
10
30.9787265932163
20
3.0741957371304
30
0
41
1
10
30.5843311896616
20
3.07329278435407
30
0
41
1
10
30.2826309249803
20
3.07289153784293
30
0
41
1
10
30.1114775517164
20
3.07273532418387
30
0
0
SPLINE
5
B2
100
AcDbEntity
8
1
62
256
6
ByLayer
370
18
48
1
60
0
100
AcDbSpline
70
4
71
3
72
29
73
25
40
0
40
0
40
0
40
0
40
0.0706810702315575
40
0.128041371438602
40
0.176015907508716
40
0.219995634515066
40
0.255124464743287
40
0.28362351478518
40
0.323255254539422
40
0.372484499480728
40
0.407298992476403
40
0.438311468309524
40
0.484550777023409
40
0.552614649924095
40
0.607386904867342
40
0.670400658305311
40
0.727273353522588
40
0.760141362399956
40
0.79395099031166
40
0.832323756849012
40
0.867638286253902
40
0.908969578201601
40
0.963720417295389
40
1
40
1
40
1
40
1
41
1
10
28.437370670895
20
-3.07124381438248
30
0
41
1
10
28.6582889743756
20
-3.07114678603554
30
0
41
1
10
29.0588572673821
20
-3.0711690700893
30
0
41
1
10
29.6118265857369
20
-3.07240411200075
30
0
41
1
10
30.0793626656782
20
-3.07268809570809
30
0
41
1
10
30.4788933313151
20
-3.07304315629293
30
0
41
1
10
30.8168701609804
20
-3.07392744036537
30
0
41
1
10
31.1412829174369
20
-3.07419413251176
30
0
41
1
10
31.5099635874207
20
-3.0739325410008
30
0
41
1
10
31.8985001460631
20
-3.07378992498306
30
0
41
1
10
32.2599554201389
20
-3.07442982862742
30
0
41
1
10
32.6120089410903
20
-3.07592003681151
30
0
41
1
10
33.0684976224654
20
-3.07596234427462
30
0
41
1
10
33.5996832203477
20
-3.07463361500197
30
0
41
1
10
34.183475558021
20
-3.07735446118366
30
0
41
1
10
34.732185617843
20
-3.0773443610272
30
0
41
1
10
35.2120682512273
20
-3.07659831737871
30
0
41
1
10
35.600210271944
20
-3.07720206469139
30
0
41
1
10
35.9302218051392
20
-3.07893649625524
30
0
41
1
10
36.2679520785398
20
-3.07888336621784
30
0
41
1
10
36.6288793573441
20
-3.07804561319213
30
0
41
1
10
37.0402847286645
20
-3.07688682487424
30
0
41
1
10
37.4568736029177
20
-3.07917846050066
30
0
41
1
10
37.7421129574591
20
-3.07918798135441
30
0
41
1
10
37.8557517731749
20
-3.07917085015836
30
0
0
SPLINE
5
B3
100
AcDbEntity
8
1
62
256
6
ByLayer
370
18
48
1
60
0
100
AcDbSpline
70
4
71
2
72
6
73
3
40
0
40
0
40
0
40
1
40
1
40
1
41
1
10
67.2927496554465
20
-3.09475025289657
30
0
41
1
10
67.5840474757381
20
-3.09268399245499
30
0
41
1
10
67.8753328677249
20
-3.09594854663055
30
0
0
SPLINE
5
B4
100
AcDbEntity
8
1
62
256
6
ByLayer
370
18
48
1
60
0
100
AcDbSpline
70
4
71
3
72
15
73
11
40
0
40
0
40
0
40
0
40
0.13786160794365
40
0.306114533278708
40
0.478808576195768
40
0.557984900615158
40
0.597306087649084
40
0.652134299234974
40
0.820623386095152
40
1
40
1
40
1
40
1
41
1
10
19.6551296332951
20
-0.919435986814534
30
0
41
1
10
19.6515284329269
20
-0.918480317930943
30
0
41
1
10
19.6484630395652
20
-0.918586179365207
30
0
41
1
10
19.746817274923
20
-0.952251742531558
30
0
41
1
10
19.7881105716145
20
-0.967120509325895
30
0
41
1
10
19.8427874113609
20
-0.989828834460553
30
0
41
1
10
19.8933256294096
20
-1.01164749533911
30
0
41
1
10
20.0027728521051
20
-1.05963247755764
30
0
41
1
10
20.191241888962
20
-1.14606862970032
30
0
41
1
10
20.3588888108645
20
-1.22755804745782
30
0
41
1
10
20.4486143179403
20
-1.27230170165225
30
0
0
SPLINE
5
B5
100
AcDbEntity
8
1
62
256
6
ByLayer
370
18
48
1
60
0
100
AcDbSpline
70
4
71
3
72
25
73
21
40
0
40
0
40
0
40
0
40
0.0369194485892493
40
0.103107167165593
40
0.150101132844704
40
0.183671730156428
40
0.24066910451592
40
0.296637076591029
40
0.360469082058878
40
0.445554611612844
40
0.515363723422696
40
0.565934238748946
40
0.640526773192244
40
0.712774764080419
40
0.772318505653951
40
0.835597671313594
40
0.907050277786305
40
0.968606986350537
40
0.983772893775687
40
1
40
1
40
1
40
1
41
1
10
57.214500815167
20
3.08988839181754
30
0
41
1
10
57.1202122126176
20
3.09011606226758
30
0
41
1
10
56.8568839136648
20
3.09048520596718
30
0
41
1
10
56.4735434218996
20
3.09048795347277
30
0
41
1
10
56.0987120549626
20
3.08840814941814
30
0
41
1
10
55.747493723091
20
3.08613618212843
30
0
41
1
10
55.3731961780261
20
3.0865199250548
30
0
41
1
10
54.9216675223232
20
3.08747331261358
30
0
41
1
10
54.3983796520341
20
3.08723210370559
30
0
41
1
10
53.8397483584938
20
3.08628339178753
30
0
41
1
10
53.3149857157458
20
3.08763028308013
30
0
41
1
10
52.8170214931556
20
3.08729052485026
30
0
41
1
10
52.3128323913897
20
3.08497740375648
30
0
41
1
10
51.7857228872726
20
3.08586873068734
30
0
41
1
10
51.2875031035378
20
3.08606512013264
30
0
41
1
10
50.7913441571581
20
3.08441671903085
30
0
41
1
10
50.2900112887434
20
3.08452059918986
30
0
41
1
10
49.9115688435576
20
3.08467387148158
30
0
41
1
10
49.6741805374875
20
3.08456312290201
30
0
41
1
10
49.5940184760614
20
3.08449526378118
30
0
41
1
10
49.5525830840392
20
3.08445053868576
30
0
0
SPLINE
5
B6
100
AcDbEntity
8
1
62
256
6
ByLayer
370
18
48
1
60
0
100
AcDbSpline
70
4
71
3
72
15
73
11
40
0
40
0
40
0
40
0
40
0.0927026949378449
40
0.247365210547654
40
0.367537374618591
40
0.613221872536053
40
0.675262526910318
40
0.748028665230736
40
0.86788135409318
40
1
40
1
40
1
40
1
41
1
10
39.0384767545762
20
-0.917778428959451
30
0
41
1
10
39.0388493783055
20
-0.917644334100714
30
0
41
1
10
39.0481338514714
20
-0.918513069407936
30
0
41
1
10
39.0148540499387
20
-0.908588409773074
30
0
41
1
10
39.065010513994
20
-0.92333991267634
30
0
41
1
10
39.1757244409743
20
-0.961627800546694
30
0
41
1
10
39.2637689998708
20
-0.998430650601051
30
0
41
1
10
39.3647893229617
20
-1.04242380666409
30
0
41
1
10
39.5368105262539
20
-1.12110768832071
30
0
41
1
10
39.6731863829105
20
-1.18673822121985
30
0
41
1
10
39.7491201729156
20
-1.22403535606415
30
0
0
SPLINE
5
B7
100
AcDbEntity
8
1
62
256
6
ByLayer
370
18
48
1
60
0
100
AcDbSpline
70
4
71
3
72
9
73
5
40
0
40
0
40
0
40
0
40
0.180003851349772
40
1
40
1
40
1
40
1
41
1
10
27.435116818068
20
0.336969466413393
30
0
41
1
10
27.4347178371349
20
0.337232627012924
30
0
41
1
10
27.4286451650671
20
0.340489952910389
30
0
41
1
10
27.4091697953394
20
0.350695662685354
30
0
41
1
10
27.3810848186834
20
0.364907122371591
30
0
0
SPLINE
5
B8
100
AcDbEntity
8
1
62
256
6
ByLayer
370
18
48
1
60
0
100
AcDbSpline
70
4
71
3
72
19
73
15
40
0
40
0
40
0
40
0
40
0.0717534112750771
40
0.183659773784175
40
0.276478811476967
40
0.364301750744707
40
0.465434776539081
40
0.536064689714498
40
0.605454263783972
40
0.686375323227044
40
0.745488216871059
40
0.81823671679472
40
0.916126203552721
40
1
40
1
40
1
40
1
41
1
10
18.4752137033053
20
3.06855451467797
30
0
41
1
10
18.326744977559
20
3.06801448580387
30
0
41
1
10
17.9467106014874
20
3.06689644835137
30
0
41
1
10
17.3779894263652
20
3.06930925183298
30
0
41
1
10
16.7695032169061
20
3.06710520903346
30
0
41
1
10
16.185749732314
20
3.06776870157279
30
0
41
1
10
15.646004491247
20
3.06693617884787
30
0
41
1
10
15.1450997249258
20
3.06533354183765
30
0
41
1
10
14.6860733741748
20
3.06534945923627
30
0
41
1
10
14.2510057209502
20
3.06569405630839
30
0
41
1
10
13.8089490197893
20
3.06593427851007
30
0
41
1
10
13.3316434964863
20
3.06581996150652
30
0
41
1
10
12.8029004084356
20
3.06483739843071
30
0
41
1
10
12.4252966500201
20
3.06330759952121
30
0
41
1
10
12.2510541759661
20
3.06243854487118
30
0
0
SPLINE
5
B9
100
AcDbEntity
8
1
62
256
6
ByLayer
370
18
48
1
60
0
100
AcDbSpline
70
4
71
3
72
22
73
18
40
0
40
0
40
0
40
0
40
0.0522210905682617
40
0.122758517550529
40
0.171413047936515
40
0.23166159377423
40
0.292176087981908
40
0.362482542682848
40
0.445058835769016
40
0.518495383077758
40
0.568085636361145
40
0.62710257381183
40
0.711160110527853
40
0.783746712206276
40
0.847542855265927
40
0.937149172436903
40
1
40
1
40
1
40
1
41
1
10
12.2510506229575
20
-3.06250276964465
30
0
41
1
10
12.3585769172503
20
-3.06302465025624
30
0
41
1
10
12.611342865734
20
-3.0641069239721
30
0
41
1
10
12.9642986692605
20
-3.06514441032263
30
0
41
1
10
13.333760456928
20
-3.065747046371
30
0
41
1
10
13.6826150053913
20
-3.06593961684075
30
0
41
1
10
14.0760445677193
20
-3.06581786771039
30
0
41
1
10
14.5154532454666
20
-3.06548204250177
30
0
41
1
10
14.9814692533227
20
-3.0651935446979
30
0
41
1
10
15.4048263654513
20
-3.06607467750794
30
0
41
1
10
15.7796732997772
20
-3.06722269303535
30
0
41
1
10
16.1763900881495
20
-3.06756925161548
30
0
41
1
10
16.6204645202736
20
-3.06752332532548
30
0
41
1
10
17.0743602562384
20
-3.06805790215972
30
0
41
1
10
17.5394093198533
20
-3.06883577535359
30
0
41
1
10
17.9848042621512
20
-3.06818834127574
30
0
41
1
10
18.2986585779748
20
-3.06863181034973
30
0
41
1
10
18.4280469064607
20
-3.06884960759879
30
0
0
SPLINE
5
BA
100
AcDbEntity
8
1
62
256
6
ByLayer
370
18
48
1
60
0
100
AcDbSpline
70
4
71
3
72
22
73
18
40
0
40
0
40
0
40
0
40
0.125000000000001
40
0.125000000000001
40
0.187500000000001
40
0.187500000000001
40
0.250000000000002
40
0.250000000000002
40
0.5
40
0.5
40
0.625
40
0.625
40
0.75
40
0.75
40
0.875
40
0.875
40
1
40
1
40
1
40
1
41
1
10
67.873521580374
20
-3.09497402141292
30
0
41
1
10
67.8269158296925
20
-3.09495633169868
30
0
41
1
10
67.7826266167576
20
-3.08794085421036
30
0
41
1
10
67.7198531867
20
-3.06636034877744
30
0
41
1
10
67.6995403805861
20
-3.05731911499782
30
0
41
1
10
67.6601914196059
20
-3.03538014455842
30
0
41
1
10
67.6411239676111
20
-3.02243936269474
30
0
41
1
10
67.5504398005878
20
-2.94877418842182
30
0
41
1
10
67.4914792311236
20
-2.86112271597003
30
0
41
1
10
67.4247141013966
20
-2.68382794965407
30
0
41
1
10
67.4060379209982
20
-2.61635771347767
30
0
41
1
10
67.3775069564769
20
-2.46927974800056
30
0
41
1
10
67.3674799923643
20
-2.38949549300784
30
0
41
1
10
67.3558537372346
20
-2.21750917304482
30
0
41
1
10
67.3542532288895
20
-2.12530890175415
30
0
41
1
10
67.3598345474968
20
-1.92796796985701
30
0
41
1
10
67.3670235229892
20
-1.82402968053722
30
0
41
1
10
67.3783798687957
20
-1.71646564492426
30
0
0
SPLINE
5
BB
100
AcDbEntity
8
1
62
256
6
ByLayer
370
18
48
1
60
0
100
AcDbSpline
70
4
71
3
72
8
73
4
40
0
40
0
40
0
40
0
40
1
40
1
40
1
40
1
41
1
10
67.8829251861811
20
3.22195897284027
30
0
41
1
10
67.6110298664364
20
3.24061334325333
30
0
41
1
10
67.3391566971084
20
3.2497729606543
30
0
41
1
10
67.0669207985327
20
3.24946740901495
30
0
0
SPLINE
5
BC
100
AcDbEntity
8
1
62
256
6
ByLayer
370
18
48
1
60
0
100
AcDbSpline
70
4
71
3
72
42
73
38
40
0
40
0
40
0
40
0
40
0.0364675556350758
40
0.0364675556350758
40
0.118508533456685
40
0.118508533456685
40
0.200549511278295
40
0.200549511278295
40
0.2415700001891
40
0.2415700001891
40
0.262080244644503
40
0.262080244644503
40
0.282590489099906
40
0.282590489099906
40
0.446672444743133
40
0.446672444743133
40
0.487692933653941
40
0.487692933653941
40
0.528713422564749
40
0.528713422564749
40
0.610754400386363
40
0.610754400386363
40
0.651774889297171
40
0.651774889297171
40
0.692795378207978
40
0.692795378207978
40
0.774836356029594
40
0.774836356029594
40
0.85687733385121
40
0.85687733385121
40
0.877387578306614
40
0.877387578306614
40
0.897897822762018
40
0.897897822762018
40
0.938918311672827
40
0.938918311672827
40
1
40
1
40
1
40
1
41
1
10
49.4976133663282
20
-3.09836494814709
30
0
41
1
10
49.2390761167112
20
-3.13769780732716
30
0
41
1
10
48.9795611274519
20
-3.1690469276252
30
0
41
1
10
48.1337156992756
20
-3.2435269264231
30
0
41
1
10
47.5540381889696
20
-3.25133722668869
30
0
41
1
10
46.3980595014896
20
-3.18245804508467
30
0
41
1
10
45.8210349215958
20
-3.10592111369545
30
0
41
1
10
44.9507961561498
20
-2.93033722653507
30
0
41
1
10
44.6597832918884
20
-2.86176696957423
30
0
41
1
10
44.2209333187757
20
-2.74436552824164
30
0
41
1
10
44.0742572025999
20
-2.70280167668471
30
0
41
1
10
43.7821883409126
20
-2.61550898722848
30
0
41
1
10
43.6365349265885
20
-2.56970042631727
30
0
41
1
10
42.3280500740353
20
-2.13938073584939
30
0
41
1
10
41.1817006763533
20
-1.62876650099469
30
0
41
1
10
39.7220436620489
20
-0.905355765566981
30
0
41
1
10
39.4284049388193
20
-0.756427630554469
30
0
41
1
10
38.8456320703329
20
-0.456867518835082
30
0
41
1
10
38.5555144631083
20
-0.305589563609658
30
0
41
1
10
37.6869578356594
20
0.148796942017043
30
0
41
1
10
37.1100784091251
20
0.451997584461822
30
0
41
1
10
36.2413788275926
20
0.894335388602741
30
0
41
1
10
35.9511374717771
20
1.03948959705491
30
0
41
1
10
35.3681954220258
20
1.32306500855299
30
0
41
1
10
35.0745113234576
20
1.46202631161432
30
0
41
1
10
34.1987560862817
20
1.8604275581838
30
0
41
1
10
33.6199983887919
20
2.10156703110121
30
0
41
1
10
32.4640078210082
20
2.5233253700444
30
0
41
1
10
31.8862782296026
20
2.70324118704912
30
0
41
1
10
31.1588897668056
20
2.88225834867083
30
0
41
1
10
31.0131452382814
20
2.91575991954355
30
0
41
1
10
30.7209175681952
20
2.97792657809157
30
0
41
1
10
30.5741709054549
20
3.00663915446495
30
0
41
1
10
30.1351799025628
20
3.08486257633786
30
0
41
1
10
29.8440147462175
20
3.12653403498817
30
0
41
1
10
29.1214912788148
20
3.20396920148667
30
0
41
1
10
28.6911371825908
20
3.22676237519016
30
0
41
1
10
28.260682655635
20
3.22607789394806
30
0
0
SPLINE
5
BD
100
AcDbEntity
8
1
62
256
6
ByLayer
370
18
48
1
60
0
100
AcDbSpline
70
4
71
3
72
78
73
74
40
0
40
0
40
0
40
0
40
0.0268222709797711
40
0.0268222709797711
40
0.0633680897632185
40
0.0633680897632185
40
0.0999139085466658
40
0.0999139085466658
40
0.173005546113561
40
0.173005546113561
40
0.246097183680455
40
0.246097183680455
40
0.282643002463903
40
0.282643002463903
40
0.31918882124735
40
0.31918882124735
40
0.392280458814245
40
0.392280458814245
40
0.428826277597692
40
0.428826277597692
40
0.447099186989416
40
0.447099186989416
40
0.448241243826398
40
0.448241243826398
40
0.448526758035644
40
0.448526758035644
40
0.44881227224489
40
0.44881227224489
40
0.449383300663381
40
0.449383300663381
40
0.451667414337347
40
0.451667414337347
40
0.456235641685278
40
0.456235641685278
40
0.46537209638114
40
0.46537209638114
40
0.501917915164589
40
0.501917915164589
40
0.538463733948038
40
0.538463733948038
40
0.611555371514936
40
0.611555371514936
40
0.684647009081833
40
0.684647009081833
40
0.702919918473558
40
0.702919918473558
40
0.707488145821489
40
0.707488145821489
40
0.708630202658472
40
0.708630202658472
40
0.709772259495454
40
0.709772259495454
40
0.7100577737047
40
0.7100577737047
40
0.710343287913946
40
0.710343287913946
40
0.710914316332437
40
0.71205637316942
40
0.721192827865283
40
0.721192827865283
40
0.757738646648736
40
0.757738646648736
40
0.794284465432188
40
0.794284465432188
40
0.830830284215641
40
0.830830284215641
40
0.903921921782546
40
0.903921921782546
40
0.940467740565998
40
0.940467740565998
40
0.977013559349451
40
0.977013559349451
40
1
40
1
40
1
40
1
41
1
10
20.110240767026
20
-1.10642471125743
30
0
41
1
10
20.0162673590985
20
-1.06131568248313
30
0
41
1
10
19.9222167206304
20
-1.01687038368408
30
0
41
1
10
19.6997583116786
20
-0.91369185086316
30
0
41
1
10
19.5712482534743
20
-0.855634729920922
30
0
41
1
10
19.3135262081052
20
-0.743161554713822
30
0
41
1
10
19.1840498066302
20
-0.688640408676292
30
0
41
1
10
18.7959737783646
20
-0.532644191755338
30
0
41
1
10
18.5389022478206
20
-0.439158482545309
30
0
41
1
10
18.0253023390035
20
-0.279773429694075
30
0
41
1
10
17.7687633018236
20
-0.213901317122719
30
0
41
1
10
17.3813524015258
20
-0.140539750594201
30
0
41
1
10
17.251720635924
20
-0.120345109401114
30
0
41
1
10
16.9936602533496
20
-0.0893382093218236
30
0
41
1
10
16.8648986898911
20
-0.0784536519274752
30
0
41
1
10
16.4785215601203
20
-0.0599316365379536
30
0
41
1
10
16.2202572712365
20
-0.0665908883504187
30
0
41
1
10
15.8331842673609
20
-0.104639480493802
30
0
41
1
10
15.7040792142115
20
-0.121972413486702
30
0
41
1
10
15.5104256339494
20
-0.154626621519355
30
0
41
1
10
15.4458767369916
20
-0.16661811524915
30
0
41
1
10
15.3772870110272
20
-0.18050002239886
30
0
41
1
10
15.3732523117908
20
-0.181320795599163
30
0
41
1
10
15.3682089291257
20
-0.182351988136958
30
0
41
1
10
15.366877775964
20
-0.182282495380178
30
0
41
1
10
15.3656194519744
20
-0.183372637488276
30
0
41
1
10
15.3668677520375
20
-0.184231005868838
30
0
41
1
10
15.3691014544489
20
-0.186091829662274
30
0
41
1
10
15.3708076382724
20
-0.187206913202971
30
0
41
1
10
15.3793935301457
20
-0.192716301453032
30
0
41
1
10
15.3867530519217
20
-0.196768166627692
30
0
41
1
10
15.4088078301981
20
-0.208881526379116
30
0
41
1
10
15.423802640411
20
-0.216714596854615
30
0
41
1
10
15.4689283974125
20
-0.240060242258039
30
0
41
1
10
15.4993061719199
20
-0.255363511458398
30
0
41
1
10
15.6515926230932
20
-0.331583960833768
30
0
41
1
10
15.7746371730314
20
-0.391577058776306
30
0
41
1
10
16.0209764078823
20
-0.511791047225444
30
0
41
1
10
16.1444398796292
20
-0.571839913632544
30
0
41
1
10
16.5151683760388
20
-0.752334216547808
30
0
41
1
10
16.7623897497489
20
-0.87388329975019
30
0
41
1
10
17.2570150224123
20
-1.11918648807617
30
0
41
1
10
17.5042812222129
20
-1.24288952570291
30
0
41
1
10
17.8106633130001
20
-1.40373685207211
30
0
41
1
10
17.8719124170801
20
-1.43604581886495
30
0
41
1
10
17.9472626292867
20
-1.47864953246352
30
0
41
1
10
17.9622957278819
20
-1.48725386146648
30
0
41
1
10
17.9806734547265
20
-1.49871124201664
30
0
41
1
10
17.9843260264048
20
-1.50104077184423
30
0
41
1
10
17.991502964209
20
-1.50589768795592
30
0
41
1
10
17.9951887011745
20
-1.50826282633017
30
0
41
1
10
17.9989696443615
20
-1.5121628173558
30
0
41
1
10
18.0002505520692
20
-1.51345633123887
30
0
41
1
10
17.9985042816864
20
-1.5148416644997
30
0
41
1
10
17.9975496398284
20
-1.5154188170136
30
0
41
1
10
17.9948063886799
20
-1.51732094953633
30
0
41
1
10
17.9893197384545
20
-1.52112405717315
30
0
41
1
10
17.9545680935053
20
-1.54518818001551
30
0
41
1
10
17.9216298489217
20
-1.56785601535168
30
0
41
1
10
17.7751764580928
20
-1.66799236071921
30
0
41
1
10
17.6578815424808
20
-1.74610971275848
30
0
41
1
10
17.4228169797246
20
-1.89598786301099
30
0
41
1
10
17.3046679910101
20
-1.96798156244563
30
0
41
1
10
17.0672994587108
20
-2.10340795758177
30
0
41
1
10
16.948808640788
20
-2.16642788671868
30
0
41
1
10
16.5920662027244
20
-2.33946103601727
30
0
41
1
10
16.3524646878719
20
-2.43325224305445
30
0
41
1
10
15.9838878400594
20
-2.53626208188689
30
0
41
1
10
15.8598964274697
20
-2.56418928470825
30
0
41
1
10
15.6128208411743
20
-2.60697642566214
30
0
41
1
10
15.4891795212122
20
-2.62200876281867
30
0
41
1
10
15.2871608819688
20
-2.63715530907086
30
0
41
1
10
15.20895240456
20
-2.64073080993165
30
0
41
1
10
15.1305597806059
20
-2.64221745733684
30
0
0
SPLINE
5
BE
100
AcDbEntity
8
1
62
256
6
ByLayer
370
18
48
1
60
0
100
AcDbSpline
70
4
71
3
72
8
73
4
40
0
40
0
40
0
40
0
40
1
40
1
40
1
40
1
41
1
10
12.0189595333139
20
2.85606707468637
30
0
41
1
10
12.0227639426508
20
2.84550735875754
30
0
41
1
10
12.0270896555851
20
2.83522938411539
30
0
41
1
10
12.0319615349948
20
2.82524672419979
30
0
0
SPLINE
5
BF
100
AcDbEntity
8
1
62
256
6
ByLayer
370
18
48
1
60
0
100
AcDbSpline
70
4
71
3
72
72
73
68
40
0
40
0
40
0
40
0
40
0.0243330315227678
40
0.0243330315227678
40
0.0573025513564262
40
0.0573025513564262
40
0.0902720711900847
40
0.0902720711900847
40
0.123241591023743
40
0.123241591023743
40
0.156211110857402
40
0.156211110857402
40
0.18918063069106
40
0.18918063069106
40
0.222150150524719
40
0.222150150524719
40
0.255119670358377
40
0.255119670358377
40
0.288089190192035
40
0.288089190192035
40
0.321058710025694
40
0.321058710025694
40
0.354028229859352
40
0.354028229859352
40
0.386997749693011
40
0.386997749693011
40
0.419967269526669
40
0.419967269526669
40
0.452936789360328
40
0.452936789360328
40
0.485906309193986
40
0.485906309193986
40
0.518875829027645
40
0.518875829027645
40
0.551845348861303
40
0.551845348861303
40
0.584814868694962
40
0.584814868694962
40
0.61778438852862
40
0.61778438852862
40
0.650753908362279
40
0.650753908362279
40
0.683723428195937
40
0.683723428195937
40
0.716692948029595
40
0.716692948029595
40
0.733177707946424
40
0.733177707946424
40
0.749662467863252
40
0.749662467863252
40
0.78263198769691
40
0.78263198769691
40
0.815601507530566
40
0.815601507530566
40
0.848571027364224
40
0.848571027364224
40
0.881540547197881
40
0.881540547197881
40
0.914510067031538
40
0.914510067031538
40
0.947479586865195
40
0.947479586865195
40
0.980449106698852
40
0.980449106698852
40
0.99693386661568
40
0.99693386661568
40
1
40
1
40
1
40
1
41
1
10
18.4750133351429
20
3.06847586929004
30
0
41
1
10
18.6677589280985
20
3.06784542774221
30
0
41
1
10
18.8605673350391
20
3.06297461107815
30
0
41
1
10
19.3151052219265
20
3.04039591646418
30
0
41
1
10
19.5772294360597
20
3.01829420185768
30
0
41
1
10
20.1008784667708
20
2.95842799836009
30
0
41
1
10
20.3622903983615
20
2.92147420607347
30
0
41
1
10
20.885207019901
20
2.83114625354355
30
0
41
1
10
21.1465951344093
20
2.77770492250983
30
0
41
1
10
21.6692938027815
20
2.65592222015417
30
0
41
1
10
21.9312534381521
20
2.58836382020562
30
0
41
1
10
22.455148376509
20
2.44017121418384
30
0
41
1
10
22.7166173792064
20
2.35853856315967
30
0
41
1
10
23.2388148670041
20
2.18278678217263
30
0
41
1
10
23.4997658215487
20
2.0889827466959
30
0
41
1
10
24.0227754810013
20
1.89224930007862
30
0
41
1
10
24.2851256630311
20
1.78787959889854
30
0
41
1
10
24.8083672728227
20
1.56916167315236
30
0
41
1
10
25.0693969539627
20
1.45518636305127
30
0
41
1
10
25.5920058143324
20
1.22215015055463
30
0
41
1
10
25.8533112327021
20
1.10217803173018
30
0
41
1
10
26.3762779484771
20
0.854996396701893
30
0
41
1
10
26.6382752571606
20
0.727961733120509
30
0
41
1
10
27.1618081122302
20
0.473055193574794
30
0
41
1
10
27.4232288355662
20
0.344400812670045
30
0
41
1
10
27.9456131961344
20
0.0847715594892406
30
0
41
1
10
28.2065573959471
20
-0.0461694197639986
30
0
41
1
10
28.7300593913359
20
-0.30585842463816
30
0
41
1
10
28.9924693487231
20
-0.435567724088372
30
0
41
1
10
29.5153190282137
20
-0.691682913105382
30
0
41
1
10
29.7760498741544
20
-0.818411650783503
30
0
41
1
10
30.2985078889221
20
-1.06554704269877
30
0
41
1
10
30.559874519152
20
-1.18683494914202
30
0
41
1
10
31.0830344472056
20
-1.42356050498245
30
0
41
1
10
31.344809074276
20
-1.5383520777888
30
0
41
1
10
31.8677612865835
20
-1.75746062767644
30
0
41
1
10
32.1291361673191
20
-1.8625366829279
30
0
41
1
10
32.6514429598615
20
-2.0644222172642
30
0
41
1
10
32.9123084015762
20
-2.15983875172202
30
0
41
1
10
33.4360914800666
20
-2.33692915979177
30
0
41
1
10
33.6983600728517
20
-2.41933474556123
30
0
41
1
10
34.2212454909123
20
-2.57313152718666
30
0
41
1
10
34.4819370237844
20
-2.64338116509575
30
0
41
1
10
35.0045450971818
20
-2.76685145679093
30
0
41
1
10
35.2662987022808
20
-2.82101623053706
30
0
41
1
10
35.6593117466328
20
-2.89274096008231
30
0
41
1
10
35.7902542547269
20
-2.91508562272256
30
0
41
1
10
36.0516049321679
20
-2.95520872659958
30
0
41
1
10
36.182113875948
20
-2.97293229503236
30
0
41
1
10
36.5739056053864
20
-3.01933973233591
30
0
41
1
10
36.8352151315616
20
-3.04184190455507
30
0
41
1
10
37.3578236314681
20
-3.07248532784445
30
0
41
1
10
37.6188634634946
20
-3.08118554045282
30
0
41
1
10
38.1425968436543
20
-3.07801435439035
30
0
41
1
10
38.4042102240939
20
-3.06748757068334
30
0
41
1
10
38.9268441157568
20
-3.03171599098411
30
0
41
1
10
39.1875265637356
20
-3.00729890997815
30
0
41
1
10
39.7098180210525
20
-2.93921667234824
30
0
41
1
10
39.9719495358491
20
-2.89634732746927
30
0
41
1
10
40.4959442345937
20
-2.79605299706014
30
0
41
1
10
40.7571222537915
20
-2.73947398152905
30
0
41
1
10
41.2792271353466
20
-2.61071540018798
30
0
41
1
10
41.5405748047074
20
-2.53893635778408
30
0
41
1
10
41.9329622645313
20
-2.4209285574955
30
0
41
1
10
42.0638212364064
20
-2.37992070970429
30
0
41
1
10
42.2190410593037
20
-2.32958966834079
30
0
41
1
10
42.2433848467757
20
-2.32164232164038
30
0
41
1
10
42.2677282556658
20
-2.31364127581165
30
0
0
SPLINE
5
C0
100
AcDbEntity
8
1
62
256
6
ByLayer
370
18
48
1
60
0
100
AcDbSpline
70
4
71
3
72
28
73
24
40
0
40
0
40
0
40
0
40
0.0334495166575094
40
0.0334495166575094
40
0.130104564991758
40
0.130104564991758
40
0.226759613326008
40
0.226759613326008
40
0.323414661660257
40
0.323414661660257
40
0.420069709994505
40
0.420069709994505
40
0.516724758328755
40
0.516724758328755
40
0.613379806663004
40
0.613379806663004
40
0.710034854997253
40
0.710034854997253
40
0.806689903331502
40
0.806689903331502
40
0.903344951665751
40
0.903344951665751
40
1
40
1
40
1
40
1
41
1
10
57.212027175502
20
3.09005279016213
30
0
41
1
10
57.3022993878058
20
3.0898896561163
30
0
41
1
10
57.3926124712672
20
3.08869085691253
30
0
41
1
10
57.7442363486865
20
3.08005479932743
30
0
41
1
10
58.0062067746686
20
3.06520431216754
30
0
41
1
10
58.5294918175908
20
3.01987604734353
30
0
41
1
10
58.7903155450084
20
2.98924489212897
30
0
41
1
10
59.3125849985638
20
2.91387116083973
30
0
41
1
10
59.5736675655509
20
2.86965292076098
30
0
41
1
10
60.0960687160092
20
2.76304808161998
30
0
41
1
10
60.3576888499891
20
2.70077754498499
30
0
41
1
10
60.8808700265963
20
2.5632463551909
30
0
41
1
10
61.1421939967752
20
2.48789169376099
30
0
41
1
10
61.6643502582159
20
2.3236363824104
30
0
41
1
10
61.9250069604843
20
2.23430834699806
30
0
41
1
10
62.4479505564667
20
2.04544090365474
30
0
41
1
10
62.7102495397668
20
1.94567602833573
30
0
41
1
10
63.2330538578523
20
1.73618569963747
30
0
41
1
10
63.493619041298
20
1.62575827229694
30
0
41
1
10
64.0156533475027
20
1.39802323247187
30
0
41
1
10
64.2769041922706
20
1.2806942020278
30
0
41
1
10
64.79993452772
20
1.03839675545527
30
0
41
1
10
65.0615591239629
20
0.912685190870889
30
0
41
1
10
65.322293406436
20
0.786291216754563
30
0
0
SPLINE
5
C1
100
AcDbEntity
8
1
62
256
6
ByLayer
370
18
48
1
60
0
100
AcDbSpline
70
4
71
3
72
24
73
20
40
0
40
0
40
0
40
0
40
0.050053481860512
40
0.050053481860512
40
0.223877110605512
40
0.223877110605512
40
0.397700739350513
40
0.397700739350513
40
0.484612553723013
40
0.484612553723013
40
0.571524368095514
40
0.571524368095514
40
0.658436182468014
40
0.658436182468014
40
0.745347996840514
40
0.745347996840514
40
0.919171625585513
40
0.919171625585513
40
1
40
1
40
1
40
1
41
1
10
13.4529397905464
20
2.33059581281878
30
0
41
1
10
13.6207754588419
20
2.27260024547417
30
0
41
1
10
13.7882137151143
20
2.21214802640802
30
0
41
1
10
14.5353766538145
20
1.93186751659994
30
0
41
1
10
15.1113690002385
20
1.68701768460858
30
0
41
1
10
16.2653056670131
20
1.16003213008145
30
0
41
1
10
16.8427732343624
20
0.876990226554597
30
0
41
1
10
17.717317744894
20
0.436923156119548
30
0
41
1
10
18.0100866943674
20
0.287593391046272
30
0
41
1
10
18.5932529641459
20
-0.0109869646312006
30
0
41
1
10
18.8844408202403
20
-0.16060715220641
30
0
41
1
10
19.4673470717688
20
-0.457916662193043
30
0
41
1
10
19.7593859621861
20
-0.605828507322485
30
0
41
1
10
20.3436214063688
20
-0.896804257976129
30
0
41
1
10
20.6342367267128
20
-1.03903185636733
30
0
41
1
10
21.5034285416207
20
-1.45268827616775
30
0
41
1
10
22.0791283749465
20
-1.71144950812695
30
0
41
1
10
22.924244312266
20
-2.05361701036145
30
0
41
1
10
23.1926923927193
20
-2.15684430908357
30
0
41
1
10
23.4618278000804
20
-2.25392264920796
30
0
0
SPLINE
5
C2
100
AcDbEntity
8
1
62
256
6
ByLayer
370
13
48
1
60
0
100
AcDbSpline
70
4
71
3
72
20
73
16
40
0
40
0
40
0
40
0
40
0.149399218464671
40
0.149399218464671
40
0.289025096017539
40
0.289025096017539
40
0.428650973570407
40
0.428650973570407
40
0.568276851123275
40
0.568276851123275
40
0.707902728676143
40
0.707902728676143
40
0.987154483781885
40
0.987154483781885
40
1
40
1
40
1
40
1
41
1
10
23.4618268594114
20
-2.25392230990443
30
0
41
1
10
23.7714748145201
20
-2.36561372358736
30
0
41
1
10
24.082032594391
20
-2.46916566460564
30
0
41
1
10
24.6860216331635
20
-2.65148076733468
30
0
41
1
10
24.9783757820006
20
-2.73109478981308
30
0
41
1
10
25.5612525640689
20
-2.87106402376696
30
0
41
1
10
25.8523781924237
20
-2.93164220311047
30
0
41
1
10
26.4352558468571
20
-3.03301786736671
30
0
41
1
10
26.7277138987658
20
-3.07386423954677
30
0
41
1
10
27.3110201605775
20
-3.13445708078473
30
0
41
1
10
27.601223531066
20
-3.1542278402103
30
0
41
1
10
28.4693721043656
20
-3.18224043366172
30
0
41
1
10
29.0449072002185
20
-3.15903240932377
30
0
41
1
10
29.6482427897325
20
-3.09219428298295
30
0
41
1
10
29.6747786154351
20
-3.08916871460758
30
0
41
1
10
29.701317912152
20
-3.08605707804472
30
0
0
SPLINE
5
C3
100
AcDbEntity
8
1
62
256
6
ByLayer
370
18
48
1
60
0
100
AcDbSpline
70
4
71
3
72
24
73
20
40
0
40
0
40
0
40
0
40
0.118997365844105
40
0.118997365844105
40
0.304062506282238
40
0.304062506282238
40
0.396595076501304
40
0.396595076501304
40
0.489127646720371
40
0.489127646720371
40
0.581660216939437
40
0.581660216939437
40
0.627926502048968
40
0.627926502048968
40
0.6741927871585
40
0.6741927871585
40
0.859257927596622
40
0.859257927596622
40
1
40
1
40
1
40
1
41
1
10
52.9069036218327
20
2.10709183373783
30
0
41
1
10
53.2784229166689
20
1.9636384137946
30
0
41
1
10
53.6487595713817
20
1.80926496300208
30
0
41
1
10
54.5947170731933
20
1.3914233295109
30
0
41
1
10
55.1707271322067
20
1.11605661871872
30
0
41
1
10
56.0414121437244
20
0.681836236151611
30
0
41
1
10
56.3336977730331
20
0.533538362753717
30
0
41
1
10
56.9166239303838
20
0.235214833738183
30
0
41
1
10
57.2074795913674
20
0.0849969997355515
30
0
41
1
10
57.7892239761385
20
-0.215120935069677
30
0
41
1
10
58.0801007631856
20
-0.365044048983776
30
0
41
1
10
58.5173108490882
20
-0.587993363914848
30
0
41
1
10
58.6633858410232
20
-0.662076296269049
30
0
41
1
10
58.9545783120351
20
-0.808559838204758
30
0
41
1
10
59.0997896662248
20
-0.881021747825173
30
0
41
1
10
59.8244565445561
20
-1.23851479005836
30
0
41
1
10
60.3996090704289
20
-1.50910522961203
30
0
41
1
10
61.4118888378511
20
-1.94560569476417
30
0
41
1
10
61.8490824241684
20
-2.12108266883291
30
0
41
1
10
62.28828641312
20
-2.28003309176907
30
0
0
SPLINE
5
C4
100
AcDbEntity
8
1
62
256
6
ByLayer
370
13
48
1
60
0
100
AcDbSpline
70
4
71
3
72
16
73
12
40
0
40
0
40
0
40
0
40
0.0739311111730885
40
0.0739311111730885
40
0.151103518575331
40
0.151103518575331
40
0.228275925977573
40
0.228275925977573
40
0.38262074078206
40
0.38262074078206
40
1
40
1
40
1
40
1
41
1
10
62.2882864125979
20
-2.28003309158009
30
0
41
1
10
62.426602326066
20
-2.33009040776912
30
0
41
1
10
62.565117625594
20
-2.37850866725404
30
0
41
1
10
62.8487626632921
20
-2.47389810678419
30
0
41
1
10
62.9939169675201
20
-2.52071222119531
30
0
41
1
10
63.2849534312011
20
-2.61029267602342
30
0
41
1
10
63.4310631845897
20
-2.65311663851477
30
0
41
1
10
63.8677093771044
20
-2.77436164208123
30
0
41
1
10
64.1572646748475
20
-2.84579969449413
30
0
41
1
10
65.6004899056278
20
-3.15441064010577
30
0
41
1
10
66.7419192264912
20
-3.24542730178214
30
0
41
1
10
67.9042052402398
20
-3.16478064418209
30
0
0
SPLINE
5
C5
100
AcDbEntity
8
1
62
256
6
ByLayer
370
18
48
1
60
0
100
AcDbSpline
70
4
71
3
72
14
73
10
40
0
40
0
40
0
40
0
40
0.279853472966188
40
0.279853472966188
40
0.718158188576149
40
0.718158188576149
40
0.937310546381125
40
0.937310546381125
40
1
40
1
40
1
40
1
41
1
10
67.2923732113947
20
-3.09475404285604
30
0
41
1
10
66.923387313261
20
-3.09463503914782
30
0
41
1
10
66.555814430329
20
-3.07786333637719
30
0
41
1
10
65.6136996784783
20
-2.99357484690685
30
0
41
1
10
65.0396648738016
20
-2.90260167013983
30
0
41
1
10
64.1737237245798
20
-2.71039814064795
30
0
41
1
10
63.8842049846033
20
-2.63705843852827
30
0
41
1
10
63.5099849528777
20
-2.53126392474084
30
0
41
1
10
63.4265968560485
20
-2.50699022497136
30
0
41
1
10
63.3432539635263
20
-2.48205410127281
30
0
0
SPLINE
5
C6
100
AcDbEntity
8
1
62
256
6
ByLayer
370
13
48
1
60
0
100
AcDbSpline
70
4
71
3
72
25
73
21
40
0
40
0
40
0
40
0
40
0.0191451342009241
40
0.0191451342009241
40
0.0638880894217957
40
0.242859910305278
40
0.242859910305278
40
0.421831731188761
40
0.421831731188761
40
0.511317641630502
40
0.511317641630502
40
0.600803552072244
40
0.600803552072244
40
0.690289462513985
40
0.690289462513985
40
0.779775372955726
40
0.779775372955726
40
0.958747193839205
40
0.958747193839205
40
1
40
1
40
1
40
1
41
1
10
63.3432539635702
20
-2.482054101286
30
0
41
1
10
63.2809201086493
20
-2.46340386405683
30
0
41
1
10
63.2186115403405
20
-2.44438307680363
30
0
41
1
10
63.0110438528446
20
-2.37978457909674
30
0
41
1
10
62.2859087747133
20
-2.1440443828082
30
0
41
1
10
61.5675541086376
20
-1.86355835110803
30
0
41
1
10
60.4177276228969
20
-1.37306479375931
30
0
41
1
10
59.8425923752986
20
-1.10688620499005
30
0
41
1
10
58.9731932566408
20
-0.68737740397043
30
0
41
1
10
58.6815362286616
20
-0.543789620576632
30
0
41
1
10
58.0991524559745
20
-0.25462940983121
30
0
41
1
10
57.8085148176718
20
-0.109096068539941
30
0
41
1
10
57.2272141260064
20
0.181596524517374
30
0
41
1
10
56.9365627284706
20
0.326779572356827
30
0
41
1
10
56.3540505348925
20
0.6143867112647
30
0
41
1
10
56.062077124102
20
0.756882590171074
30
0
41
1
10
55.1920554935655
20
1.17342895689936
30
0
41
1
10
54.6162340553775
20
1.43645728039957
30
0
41
1
10
53.9078934013168
20
1.73368198771158
30
0
41
1
10
53.7751870299992
20
1.78816065357557
30
0
41
1
10
53.6424154745464
20
1.84136421746618
30
0
0
SPLINE
5
C7
100
AcDbEntity
8
1
62
256
6
ByLayer
370
18
48
1
60
0
100
AcDbSpline
70
4
71
3
72
16
73
12
40
0
40
0
40
0
40
0
40
0.139508659404503
40
0.139508659404503
40
0.35647589391416
40
0.35647589391416
40
0.573443128423815
40
0.573443128423815
40
0.790410362933473
40
0.790410362933473
40
1
40
1
40
1
40
1
41
1
10
28.4841550338422
20
-3.07128567243612
30
0
41
1
10
28.2986447250179
20
-3.0710807064973
30
0
41
1
10
28.1129585325671
20
-3.06671766390954
30
0
41
1
10
27.6376852476502
20
-3.04487189579109
30
0
41
1
10
27.3476066808082
20
-3.02146685334222
30
0
41
1
10
26.7646904834893
20
-2.95443445788928
30
0
41
1
10
26.4725445212492
20
-2.91079590082606
30
0
41
1
10
25.8901413038095
20
-2.80465297830793
30
0
41
1
10
25.5992105751231
20
-2.74211598225122
30
0
41
1
10
25.0266564655437
20
-2.60159264039746
30
0
41
1
10
24.7445171818366
20
-2.52398424588432
30
0
41
1
10
24.4628794850353
20
-2.43886467508713
30
0
0
SPLINE
5
C8
100
AcDbEntity
8
1
62
256
6
ByLayer
370
13
48
1
60
0
100
AcDbSpline
70
4
71
3
72
24
73
20
40
0
40
0
40
0
40
0
40
0.0030780563491089
40
0.0030780563491089
40
0.184122733768211
40
0.184122733768211
40
0.365167411187314
40
0.365167411187314
40
0.455689749896864
40
0.455689749896864
40
0.546212088606415
40
0.546212088606415
40
0.636734427315966
40
0.636734427315966
40
0.727256766025516
40
0.727256766025516
40
0.90830144344462
40
0.90830144344462
40
1
40
1
40
1
40
1
41
1
10
24.4628794849962
20
-2.43886467507528
30
0
41
1
10
24.4529657813505
20
-2.43586844904121
30
0
41
1
10
24.4430526991983
20
-2.43286291625279
30
0
41
1
10
23.850113978667
20
-2.25252441776351
30
0
41
1
10
23.2724922037259
20
-2.04450046709493
30
0
41
1
10
22.1190861729745
20
-1.58191702156017
30
0
41
1
10
21.5434400772718
20
-1.32722567443966
30
0
41
1
10
20.6746392108605
20
-0.922092686373929
30
0
41
1
10
20.3841750572561
20
-0.783164991458705
30
0
41
1
10
19.8004186490338
20
-0.49961939436082
30
0
41
1
10
19.5086698899762
20
-0.355785509152696
30
0
41
1
10
18.9262194287962
20
-0.067262449962584
30
0
41
1
10
18.6352244302545
20
0.0776086661189481
30
0
41
1
10
18.0525126067409
20
0.366174411938033
30
0
41
1
10
17.7600396469246
20
0.51019882023914
30
0
41
1
10
16.8862117640667
20
0.933748853516335
30
0
41
1
10
16.3089215031942
20
1.20512384727689
30
0
41
1
10
15.4399475375286
20
1.58387226816484
30
0
41
1
10
15.148025593072
20
1.70633135475546
30
0
41
1
10
14.8557136642187
20
1.82284133975617
30
0
0
SPLINE
5
C9
100
AcDbEntity
8
1
62
256
6
ByLayer
370
18
48
1
60
0
100
AcDbSpline
70
4
71
3
72
12
73
8
40
0
40
0
40
0
40
0
40
0.249999999999993
40
0.249999999999993
40
0.499999999999986
40
0.499999999999986
40
1
40
1
40
1
40
1
41
1
10
67.9042052402157
20
-3.16478064418376
30
0
41
1
10
67.9090653472521
20
-3.15170508803206
30
0
41
1
10
67.9135967592192
20
-3.13839967822065
30
0
41
1
10
67.9207602779406
20
-3.11451980396262
30
0
41
1
10
67.9233731474924
20
-3.10396751718764
30
0
41
1
10
67.9274073625439
20
-3.08053089596103
30
0
41
1
10
67.9252521435329
20
-3.07603297228002
30
0
41
1
10
67.9206597402526
20
-3.07883581996296
30
0
0
SPLINE
5
CA
100
AcDbEntity
8
1
62
256
6
ByLayer
370
18
48
1
60
0
100
AcDbSpline
70
4
71
3
72
76
73
72
40
0
40
0
40
0
40
0
40
0.0111285275670377
40
0.0111285275670377
40
0.044052498454338
40
0.044052498454338
40
0.0769764693416384
40
0.0769764693416384
40
0.109900440228939
40
0.109900440228939
40
0.142824411116239
40
0.142824411116239
40
0.17574838200354
40
0.17574838200354
40
0.20867235289084
40
0.20867235289084
40
0.225134338334489
40
0.225134338334489
40
0.241596323778139
40
0.241596323778139
40
0.274520294665438
40
0.274520294665438
40
0.307444265552737
40
0.307444265552737
40
0.340368236440036
40
0.340368236440036
40
0.373292207327335
40
0.373292207327335
40
0.389754192770983
40
0.389754192770983
40
0.406216178214632
40
0.406216178214632
40
0.43914014910193
40
0.43914014910193
40
0.472064119989227
40
0.472064119989227
40
0.504988090876525
40
0.504988090876525
40
0.537912061763822
40
0.537912061763822
40
0.57083603265112
40
0.57083603265112
40
0.603760003538418
40
0.603760003538418
40
0.636683974425715
40
0.636683974425715
40
0.669607945313013
40
0.669607945313013
40
0.70253191620031
40
0.70253191620031
40
0.735455887087608
40
0.735455887087608
40
0.768379857974905
40
0.768379857974905
40
0.801303828862203
40
0.801303828862203
40
0.817765814305852
40
0.817765814305852
40
0.834227799749502
40
0.834227799749502
40
0.867151770636801
40
0.867151770636801
40
0.9000757415241
40
0.9000757415241
40
0.932999712411399
40
0.932999712411399
40
0.965923683298698
40
0.965923683298698
40
0.998847654185997
40
0.998847654185997
40
1
40
1
40
1
40
1
41
1
10
61.6701475639853
20
-2.31935726472014
30
0
41
1
10
61.5818645838462
20
-2.34872180519176
30
0
41
1
10
61.4935218656548
20
-2.37736326649335
30
0
41
1
10
61.1433846675923
20
-2.48754867933232
30
0
41
1
10
60.8815502451863
20
-2.5630479718352
30
0
41
1
10
60.3592791237999
20
-2.7003789880211
30
0
41
1
10
60.0988784916562
20
-2.76240673047488
30
0
41
1
10
59.5770039581195
20
-2.86903924593071
30
0
41
1
10
59.3156083983319
20
-2.91339294364096
30
0
41
1
10
58.7918860456349
20
-2.98905975356018
30
0
41
1
10
58.5308219037818
20
-3.01972368047942
30
0
41
1
10
58.0085559952834
20
-3.06503770742609
30
0
41
1
10
57.7473609713628
20
-3.07991080329774
30
0
41
1
10
57.2248814021158
20
-3.09287687402335
30
0
41
1
10
56.9637211185759
20
-3.09083911478876
30
0
41
1
10
56.5711127161627
20
-3.07436199200618
30
0
41
1
10
56.4403287314885
20
-3.06673302456153
30
0
41
1
10
56.1789346842824
20
-3.04681062533436
30
0
41
1
10
56.0483660696011
20
-3.03391473307806
30
0
41
1
10
55.6566391991303
20
-2.991339152857
30
0
41
1
10
55.3958968389666
20
-2.95653917505393
30
0
41
1
10
54.8736352265708
20
-2.87112887145673
30
0
41
1
10
54.6116726406949
20
-2.82045346360277
30
0
41
1
10
54.0879926090685
20
-2.7024092551417
30
0
41
1
10
53.8268877219575
20
-2.63688371633279
30
0
41
1
10
53.3048218681701
20
-2.49206932596474
30
0
41
1
10
53.0436396111956
20
-2.41309688232573
30
0
41
1
10
52.6514883524615
20
-2.28324810877621
30
0
41
1
10
52.520690872199
20
-2.23823897039117
30
0
41
1
10
52.2590042860321
20
-2.14577067919222
30
0
41
1
10
52.1281100964961
20
-2.0980371410983
30
0
41
1
10
51.7357874583379
20
-1.95133704587843
30
0
41
1
10
51.4743946292957
20
-1.84893969539499
30
0
41
1
10
50.9519662298684
20
-1.63322310653965
30
0
41
1
10
50.6910184330112
20
-1.52000591102541
30
0
41
1
10
50.1685828961681
20
-1.28698064038684
30
0
41
1
10
49.9062727458781
20
-1.16721336280631
30
0
41
1
10
49.3829664917717
20
-0.921703779046112
30
0
41
1
10
49.1219781159466
20
-0.795663175901325
30
0
41
1
10
48.6002438102772
20
-0.540207684910598
30
0
41
1
10
48.339050369369
20
-0.411532798462133
30
0
41
1
10
47.8158921593096
20
-0.152049829664179
30
0
41
1
10
47.5537152926421
20
-0.0208888712371902
30
0
41
1
10
47.0311458291671
20
0.241039661030925
30
0
41
1
10
46.7698734123914
20
0.370871935612058
30
0
41
1
10
46.2472558930345
20
0.627709120860601
30
0
41
1
10
45.9859712627872
20
0.754777587742097
30
0
41
1
10
45.4631378369986
20
1.00576201278895
30
0
41
1
10
45.2009130409191
20
1.12880360883725
30
0
41
1
10
44.6777210113057
20
1.36710557709122
30
0
41
1
10
44.4164700561185
20
1.48262806181924
30
0
41
1
10
43.8945886127421
20
1.70590345647753
30
0
41
1
10
43.6333414598502
20
1.81329844942758
30
0
41
1
10
43.1095663153179
20
2.01790397759081
30
0
41
1
10
42.8473417661131
20
2.11498666436995
30
0
41
1
10
42.4557072864266
20
2.25130748446662
30
0
41
1
10
42.3252780850718
20
2.295141370777
30
0
41
1
10
42.0641846734085
20
2.37980311091118
30
0
41
1
10
41.9335674016835
20
2.42074029901815
30
0
41
1
10
41.5415840628082
20
2.53864531271361
30
0
41
1
10
41.2800661100931
20
2.61050492072351
30
0
41
1
10
40.7566677971159
20
2.73958963067457
30
0
41
1
10
40.4950619306941
20
2.79622930951069
30
0
41
1
10
39.9720081821829
20
2.89632865410084
30
0
41
1
10
39.7106089309715
20
2.93909610187887
30
0
41
1
10
39.1882583928333
20
3.00722093604227
30
0
41
1
10
38.9270334828383
20
3.03171610991942
30
0
41
1
10
38.4026491246236
20
3.06758130545677
30
0
41
1
10
38.1408045446582
20
3.07805180439604
30
0
41
1
10
37.8704231337832
20
3.07966136367247
30
0
41
1
10
37.8612803819591
20
3.07970325190536
30
0
41
1
10
37.8521382097754
20
3.07973275216614
30
0
0
SPLINE
5
CB
100
AcDbEntity
8
1
62
256
6
ByLayer
370
18
48
1
60
0
100
AcDbSpline
70
4
71
3
72
26
73
22
40
0
40
0
40
0
40
0
40
0.0881460706547229
40
0.0881460706547229
40
0.189463173915309
40
0.189463173915309
40
0.290780277175896
40
0.290780277175896
40
0.392097380436482
40
0.392097380436482
40
0.493414483697068
40
0.493414483697068
40
0.594731586957655
40
0.594731586957655
40
0.696048690218241
40
0.696048690218241
40
0.797365793478828
40
0.797365793478828
40
0.898682896739414
40
0.898682896739414
40
1
40
1
40
1
40
1
41
1
10
22.8687911943284
20
-2.30694867149663
30
0
41
1
10
22.6408397208504
20
-2.38209795457084
30
0
41
1
10
22.4131128409546
20
-2.45218362652753
30
0
41
1
10
21.9241375127425
20
-2.59023207052482
30
0
41
1
10
21.6630564337252
20
-2.65749190400987
30
0
41
1
10
21.1403943101091
20
-2.77903038875701
30
0
41
1
10
20.8782091818444
20
-2.83251498785395
30
0
41
1
10
20.3539636572305
20
-2.92274787642046
30
0
41
1
10
20.0926126015418
20
-2.9595223865341
30
0
41
1
10
19.5702163350773
20
-3.01894215011762
30
0
41
1
10
19.3087975973797
20
-3.04085068837824
30
0
41
1
10
18.7854137054065
20
-3.06656279620705
30
0
41
1
10
18.5230744518983
20
-3.07077452751449
30
0
41
1
10
17.9999817028845
20
-3.06415312156264
30
0
41
1
10
17.7388213861198
20
-3.05311373069378
30
0
41
1
10
17.2172848229526
20
-3.01377499077066
30
0
41
1
10
16.9569517170131
20
-2.98561752808701
30
0
41
1
10
16.436683733361
20
-2.91400760690539
30
0
41
1
10
16.176225206458
20
-2.87079348891322
30
0
41
1
10
15.6542123063366
20
-2.76835432548012
30
0
41
1
10
15.3926249690498
20
-2.70875767827599
30
0
41
1
10
15.1305537048006
20
-2.64221757255498
30
0
0
SPLINE
5
CC
100
AcDbEntity
8
1
62
256
6
ByLayer
370
18
48
1
60
0
100
AcDbSpline
70
4
71
3
72
62
73
58
40
0
40
0
40
0
40
0
40
0.0624999999999979
40
0.0624999999999979
40
0.124999999999996
40
0.124999999999996
40
0.24999999999999
40
0.24999999999999
40
0.374999999999985
40
0.374999999999985
40
0.49999999999998
40
0.49999999999998
40
0.562499999999977
40
0.562499999999977
40
0.624999999999975
40
0.624999999999975
40
0.656249999999974
40
0.656249999999974
40
0.660156249999975
40
0.660156249999975
40
0.664062499999975
40
0.664062499999975
40
0.667968749999976
40
0.667968749999976
40
0.669921874999976
40
0.669921874999976
40
0.671874999999976
40
0.671874999999976
40
0.687499999999978
40
0.687499999999978
40
0.718749999999978
40
0.718749999999978
40
0.734374999999979
40
0.734374999999979
40
0.74999999999998
40
0.74999999999998
40
0.765624999999981
40
0.765624999999981
40
0.773437499999982
40
0.773437499999982
40
0.781249999999983
40
0.781249999999983
40
0.796874999999984
40
0.796874999999984
40
0.812499999999986
40
0.812499999999986
40
0.828124999999987
40
0.828124999999987
40
0.843749999999989
40
0.843749999999989
40
0.874999999999991
40
0.874999999999991
40
0.906249999999993
40
0.906249999999993
40
0.937499999999995
40
0.937499999999995
40
1
40
1
40
1
40
1
41
1
10
20.1104480447206
20
-1.10654588833017
30
0
41
1
10
19.8443344821851
20
-0.975530661049106
30
0
41
1
10
19.5764413105938
20
-0.845336254230261
30
0
41
1
10
19.0367630982475
20
-0.588012646342861
30
0
41
1
10
18.7644302390598
20
-0.460648659349488
30
0
41
1
10
17.9457558004707
20
-0.0883416622871493
30
0
41
1
10
17.39740029864
20
0.146973040678631
30
0
41
1
10
16.2895064762471
20
0.577015638844301
30
0
41
1
10
15.7299094945388
20
0.771567326279921
30
0
41
1
10
14.5944139159464
20
1.10861652605766
30
0
41
1
10
14.0185071868801
20
1.25112002869457
30
0
41
1
10
13.1402425979462
20
1.42230505129126
30
0
41
1
10
12.84465629444
20
1.47237591988517
30
0
41
1
10
12.2516933196336
20
1.55781601429842
30
0
41
1
10
11.9541415627294
20
1.59325431495301
30
0
41
1
10
11.5061254550488
20
1.63562333704684
30
0
41
1
10
11.3564713827838
20
1.64794906805594
30
0
41
1
10
11.1879268828464
20
1.6597799822583
30
0
41
1
10
11.1691966738661
20
1.6610662934232
30
0
41
1
10
11.1317316991624
20
1.66358233238995
30
0
41
1
10
11.1129966553643
20
1.6653312689196
30
0
41
1
10
11.0755488614064
20
1.66454328723367
30
0
41
1
10
11.0563140325605
20
1.66236627964676
30
0
41
1
10
11.0299608837629
20
1.65426051969302
30
0
41
1
10
11.021753551576
20
1.65043503528
30
0
41
1
10
11.0051000304457
20
1.64323854526654
30
0
41
1
10
10.9967861452285
20
1.63961107611209
30
0
41
1
10
10.9220799210861
20
1.60669365470815
30
0
41
1
10
10.8566816161803
20
1.57559740853196
30
0
41
1
10
10.6645558106269
20
1.47565758723297
30
0
41
1
10
10.5407102945013
20
1.39967283093853
30
0
41
1
10
10.3731141255591
20
1.26741790436037
30
0
41
1
10
10.3201814274312
20
1.22021618364707
30
0
41
1
10
10.222094465583
20
1.11741394674223
30
0
41
1
10
10.1765287669021
20
1.06125489765125
30
0
41
1
10
10.0982778851354
20
0.939545309701401
30
0
41
1
10
10.0661644518579
20
0.875048403090801
30
0
41
1
10
10.0309768905294
20
0.771444906565051
30
0
41
1
10
10.0214809317455
20
0.735763658087677
30
0
41
1
10
10.0076509973294
20
0.664207917807545
30
0
41
1
10
10.0032138008405
20
0.628065951262755
30
0
41
1
10
9.99723421883863
20
0.518543005249256
30
0
41
1
10
10.0033583226393
20
0.44331487600175
30
0
41
1
10
10.0325181558888
20
0.297714008781981
30
0
41
1
10
10.0556178340297
20
0.22581430761943
30
0
41
1
10
10.1134055367884
20
0.0879199760701113
30
0
41
1
10
10.147845366135
20
0.0220510364041218
30
0
41
1
10
10.2247412838881
20
-0.105238342117787
30
0
41
1
10
10.2674082653529
20
-0.166874725760977
30
0
41
1
10
10.4035013408123
20
-0.344965096777941
30
0
41
1
10
10.5035462318682
20
-0.45345398759045
30
0
41
1
10
10.7144518425931
20
-0.658358391187107
30
0
41
1
10
10.8255137866553
20
-0.754639388153919
30
0
41
1
10
11.0551092877887
20
-0.938398550392407
30
0
41
1
10
11.1722182865295
20
-1.02469432859971
30
0
41
1
10
11.5283365004424
20
-1.2714597269958
30
0
41
1
10
11.7720350792839
20
-1.42002318822591
30
0
41
1
10
12.0195640273661
20
-1.55803375740808
30
0
0
SPLINE
5
CD
100
AcDbEntity
8
1
62
256
6
ByLayer
370
18
48
1
60
0
100
AcDbSpline
70
4
71
3
72
18
73
14
40
0
40
0
40
0
40
0
40
0.25
40
0.25
40
0.5
40
0.5
40
0.625
40
0.625
40
0.75
40
0.75
40
0.875
40
0.875
40
1
40
1
40
1
40
1
41
1
10
67.7041782915471
20
0.993624629503074
30
0
41
1
10
67.7967102043286
20
1.01555891891766
30
0
41
1
10
67.8882844187182
20
1.04033556666204
30
0
41
1
10
68.0681775052255
20
1.09988184753797
30
0
41
1
10
68.1567770634904
20
1.13453126098702
30
0
41
1
10
68.2813891327933
20
1.20048707014362
30
0
41
1
10
68.3216164842726
20
1.22487626824429
30
0
41
1
10
68.3977794386379
20
1.28165896446765
30
0
41
1
10
68.4327590643615
20
1.31329572894629
30
0
41
1
10
68.4926549216967
20
1.38731920185623
30
0
41
1
10
68.5161223561955
20
1.42819076100111
30
0
41
1
10
68.5452809428277
20
1.51943121250869
30
0
41
1
10
68.5499198506201
20
1.56751373689366
30
0
41
1
10
68.5458068260642
20
1.61584847913062
30
0
0
SPLINE
5
CE
100
AcDbEntity
8
1
62
256
6
ByLayer
370
18
48
1
60
0
100
AcDbSpline
70
4
71
3
72
82
73
78
40
0
40
0
40
0
40
0
40
0.0095848848678736
40
0.0095848848678736
40
0.0250441791679349
40
0.0250441791679349
40
0.0405034734679963
40
0.0405034734679963
40
0.0714220620681184
40
0.0714220620681184
40
0.10234065066824
40
0.10234065066824
40
0.133259239268363
40
0.133259239268363
40
0.164177827868485
40
0.164177827868485
40
0.195096416468607
40
0.195096416468607
40
0.210555710768668
40
0.210555710768668
40
0.226015005068729
40
0.226015005068729
40
0.256933593668851
40
0.256933593668851
40
0.287852182268973
40
0.287852182268973
40
0.318770770869095
40
0.318770770869095
40
0.349689359469217
40
0.349689359469217
40
0.380607948069339
40
0.380607948069339
40
0.411526536669461
40
0.411526536669461
40
0.426985830969522
40
0.426985830969522
40
0.442445125269583
40
0.442445125269583
40
0.473363713869705
40
0.473363713869705
40
0.504282302469827
40
0.504282302469827
40
0.53520089106995
40
0.53520089106995
40
0.566119479670072
40
0.566119479670072
40
0.597038068270194
40
0.597038068270194
40
0.612497362570254
40
0.612497362570254
40
0.627956656870314
40
0.627956656870314
40
0.658875245470434
40
0.658875245470434
40
0.689793834070553
40
0.689793834070553
40
0.75163101127079
40
0.75163101127079
40
0.782549599870909
40
0.782549599870909
40
0.813468188471027
40
0.813468188471027
40
0.828927482771086
40
0.828927482771086
40
0.844386777071145
40
0.844386777071145
40
0.875305365671262
40
0.875305365671262
40
0.906223954271381
40
0.906223954271381
40
0.937142542871499
40
0.937142542871499
40
0.968061131471617
40
0.968061131471617
40
0.998979720071735
40
0.998979720071735
40
1
40
1
40
1
40
1
41
1
10
22.8714696135286
20
2.30595040586081
30
0
41
1
10
22.948661107164
20
2.3340471626646
30
0
41
1
10
23.0258479095085
20
2.36166680010871
30
0
41
1
10
23.2274858547027
20
2.43261837424927
30
0
41
1
10
23.3518202573056
20
2.47530597621323
30
0
41
1
10
23.6011230281903
20
2.5572663646407
30
0
41
1
10
23.7261477547491
20
2.59648333452267
30
0
41
1
10
24.1020227018063
20
2.70929312322028
30
0
41
1
10
24.3544412050943
20
2.77820352050583
30
0
41
1
10
24.8564260933609
20
2.9024172195902
30
0
41
1
10
25.1056240123364
20
2.95790158678923
30
0
41
1
10
25.6046828050549
20
3.05241721741038
30
0
41
1
10
25.85402447779
20
3.09202142017861
30
0
41
1
10
26.3515927959822
20
3.15652544824897
30
0
41
1
10
26.5992671667345
20
3.18150898621852
30
0
41
1
10
27.0964016956666
20
3.21531843600201
30
0
41
1
10
27.345710831333
20
3.22437032068231
30
0
41
1
10
27.7201454265514
20
3.22630660000658
30
0
41
1
10
27.8450430075941
20
3.22500034710475
30
0
41
1
10
28.0949051162982
20
3.21836931032979
30
0
41
1
10
28.2197893839048
20
3.21301393404914
30
0
41
1
10
28.5957378590162
20
3.19097387048103
30
0
41
1
10
28.8481132500747
20
3.16839555447595
30
0
41
1
10
29.3491729494311
20
3.10817722910036
30
0
41
1
10
29.5984738662765
20
3.07037343908689
30
0
41
1
10
30.0951217979295
20
2.97942418161776
30
0
41
1
10
30.3436546593612
20
2.92714266766174
30
0
41
1
10
30.8404951843212
20
2.8090446065346
30
0
41
1
10
31.0887577920109
20
2.74318751043819
30
0
41
1
10
31.5842819917704
20
2.59670045940251
30
0
41
1
10
31.8325706950354
20
2.51714583767642
30
0
41
1
10
32.3311972128991
20
2.3469180740473
30
0
41
1
10
32.5812456976543
20
2.2559299959
30
0
41
1
10
32.9568814939768
20
2.1094131432701
30
0
41
1
10
33.0822426061538
20
2.0587038454554
30
0
41
1
10
33.3334050014569
20
1.95539636245366
30
0
41
1
10
33.4588900974553
20
1.9029236942846
30
0
41
1
10
33.8347825353074
20
1.74266279968862
30
0
41
1
10
34.0846716046119
20
1.63211732975447
30
0
41
1
10
34.5823145754097
20
1.40240287333685
30
0
41
1
10
34.8298071003792
20
1.28271466494849
30
0
41
1
10
35.3262749216867
20
1.04117746490252
30
0
41
1
10
35.5746917489406
20
0.918365851083962
30
0
41
1
10
36.071153056543
20
0.667273517945176
30
0
41
1
10
36.3186672528449
20
0.537925570338984
30
0
41
1
10
36.8163826331056
20
0.279531124726844
30
0
41
1
10
37.0663371290542
20
0.150058568036542
30
0
41
1
10
37.442313235731
20
-0.045800145526357
30
0
41
1
10
37.5678199023261
20
-0.111350058926803
30
0
41
1
10
37.8190966759695
20
-0.243227166645795
30
0
41
1
10
37.9442846321035
20
-0.309406786835268
30
0
41
1
10
38.319657242814
20
-0.505432231848658
30
0
41
1
10
38.5696147300612
20
-0.633280430780189
30
0
41
1
10
39.0679879073364
20
-0.885494532241381
30
0
41
1
10
39.3162082447372
20
-1.01020716311336
30
0
41
1
10
40.0591224064553
20
-1.37775626329625
30
0
41
1
10
40.5565706991674
20
-1.60613158309886
30
0
41
1
10
41.3015507698442
20
-1.93128043982924
30
0
41
1
10
41.5508108472487
20
-2.03480802967403
30
0
41
1
10
42.0519053773804
20
-2.23113040687997
30
0
41
1
10
42.304243580619
20
-2.32457950969834
30
0
41
1
10
42.6797390781352
20
-2.45640551472675
30
0
41
1
10
42.8044272086822
20
-2.49904189746096
30
0
41
1
10
43.053863089729
20
-2.58042566115961
30
0
41
1
10
43.1785615401897
20
-2.61925805282496
30
0
41
1
10
43.55232804085
20
-2.73066534913116
30
0
41
1
10
43.8011101497095
20
-2.79813380317245
30
0
41
1
10
44.2971414684064
20
-2.92017357329999
30
0
41
1
10
44.5441906979886
20
-2.97475505520518
30
0
41
1
10
45.0404174825446
20
-3.06790448529099
30
0
41
1
10
45.2890173594626
20
-3.10704883776973
30
0
41
1
10
45.7864609977678
20
-3.17075848977075
30
0
41
1
10
46.03479808248
20
-3.19538554033613
30
0
41
1
10
46.5349039677407
20
-3.22829817731539
30
0
41
1
10
46.7871419087511
20
-3.23684259612833
30
0
41
1
10
47.0463352623615
20
-3.2374527366766
30
0
41
1
10
47.0546137098956
20
-3.23746358827813
30
0
41
1
10
47.0628907146217
20
-3.23746579363626
30
0
0
SPLINE
5
CF
100
AcDbEntity
8
1
62
256
6
ByLayer
370
18
48
1
60
0
100
AcDbSpline
70
4
71
3
72
28
73
24
40
0
40
0
40
0
40
0
40
0.0482995945518331
40
0.0482995945518331
40
0.107780869892346
40
0.107780869892346
40
0.167262145232859
40
0.167262145232859
40
0.286224695913878
40
0.286224695913878
40
0.405187246594897
40
0.405187246594897
40
0.524149797275917
40
0.524149797275917
40
0.643112347956936
40
0.643112347956936
40
0.762074898637956
40
0.762074898637956
40
0.821556173978468
40
0.821556173978468
40
0.88103744931898
40
0.88103744931898
40
1
40
1
40
1
40
1
41
1
10
61.676974643851
20
2.31803017095106
30
0
41
1
10
61.7779127696363
20
2.35511950938607
30
0
41
1
10
61.8787011850114
20
2.39133803527525
30
0
41
1
10
62.103216577917
20
2.47028712739134
30
0
41
1
10
62.2268334488385
20
2.51258137565637
30
0
41
1
10
62.4744939532891
20
2.59339503398246
30
0
41
1
10
62.5984573074823
20
2.63203007069535
30
0
41
1
10
62.970479629076
20
2.74302690956867
30
0
41
1
10
63.2187098158976
20
2.8104668690533
30
0
41
1
10
63.7148632352844
20
2.93271411383321
30
0
41
1
10
63.9626743381264
20
2.98747157636313
30
0
41
1
10
64.4616776937623
20
3.08101567191179
30
0
41
1
10
64.7123103062795
20
3.12038763537191
30
0
41
1
10
65.2149686725186
20
3.18433291762429
30
0
41
1
10
65.4643177187789
20
3.20865567303772
30
0
41
1
10
65.9633806066433
20
3.24074682116202
30
0
41
1
10
66.2126972451363
20
3.24881825257822
30
0
41
1
10
66.5857778345109
20
3.24924651552172
30
0
41
1
10
66.7099933748722
20
3.24743213677763
30
0
41
1
10
66.9580112596395
20
3.23980115586167
30
0
41
1
10
67.0818094451761
20
3.2339622964287
30
0
41
1
10
67.4540654821984
20
3.2106738919988
30
0
41
1
10
67.7029863017648
20
3.18749610157062
30
0
41
1
10
67.9521736221605
20
3.15659249362241
30
0
0
SPLINE
5
D0
100
AcDbEntity
8
1
62
256
6
ByLayer
370
18
48
1
60
0
100
AcDbSpline
70
4
71
3
72
14
73
10
40
0
40
0
40
0
40
0
40
0.244269507477936
40
0.244269507477936
40
0.640146708532752
40
0.640146708532752
40
0.83808530906016
40
0.83808530906016
40
1
40
1
40
1
40
1
41
1
10
48.1522379123975
20
-3.0804633848727
30
0
41
1
10
47.7960524778121
20
-3.08778949415927
30
0
41
1
10
47.4407459068702
20
-3.07970000010167
30
0
41
1
10
46.5096170142722
20
-3.01879887260645
30
0
41
1
10
45.9330839671823
20
-2.94117995735172
30
0
41
1
10
45.0616264075702
20
-2.76686119756619
30
0
41
1
10
44.7693913610238
20
-2.69900413230414
30
0
41
1
10
44.2399805501725
20
-2.56017479458888
30
0
41
1
10
44.0020691469721
20
-2.49192717271239
30
0
41
1
10
43.7642302872151
20
-2.41828014175684
30
0
0
SPLINE
5
D1
100
AcDbEntity
8
1
62
256
6
ByLayer
370
13
48
1
60
0
100
AcDbSpline
70
4
71
3
72
24
73
20
40
0
40
0
40
0
40
0
40
0.0167428187572349
40
0.0167428187572349
40
0.108739220391231
40
0.108739220391231
40
0.200735622025227
40
0.200735622025227
40
0.384728425293218
40
0.384728425293218
40
0.56872122856121
40
0.56872122856121
40
0.660717630195207
40
0.660717630195207
40
0.752714031829205
40
0.752714031829205
40
0.9367068350972
40
0.9367068350972
40
1
40
1
40
1
40
1
41
1
10
43.7642293320087
20
-2.4182798459762
30
0
41
1
10
43.7113136023144
20
-2.40189443631277
30
0
41
1
10
43.6584014634955
20
-2.38524175669321
30
0
41
1
10
43.3147615520091
20
-2.27537948393373
30
0
41
1
10
43.0239233584417
20
-2.17459240332525
30
0
41
1
10
42.4408067951326
20
-1.958811571524
30
0
41
1
10
42.1489869624689
20
-1.84386452215747
30
0
41
1
10
41.2762388171635
20
-1.48266361784945
30
0
41
1
10
40.6956609926384
20
-1.21991294016328
30
0
41
1
10
39.5286437605574
20
-0.66550918224911
30
0
41
1
10
38.9470648845842
20
-0.37726024714425
30
0
41
1
10
38.0730357290321
20
0.0585068511745703
30
0
41
1
10
37.7807722904799
20
0.20433947150741
30
0
41
1
10
37.1994947403662
20
0.491837893289585
30
0
41
1
10
36.9099737716454
20
0.633979348180162
30
0
41
1
10
36.0429855158017
20
1.05220802582113
30
0
41
1
10
35.466713643207
20
1.31919122110452
30
0
41
1
10
34.6893052595194
20
1.65237184151965
30
0
41
1
10
34.4900034354779
20
1.73525825653704
30
0
41
1
10
34.2902074901467
20
1.81544043177888
30
0
0
SPLINE
5
D2
100
AcDbEntity
8
1
62
256
6
ByLayer
370
18
48
1
60
0
100
AcDbSpline
70
4
71
3
72
8
73
4
40
0
40
0
40
0
40
0
40
1
40
1
40
1
40
1
41
1
10
12.0545826730213
20
2.810295184833
30
0
41
1
10
12.0325588979684
20
2.82371309202949
30
0
41
1
10
12.018951905125
20
2.8397794352581
30
0
41
1
10
12.0189595333139
20
2.8560670746858
30
0
0
SPLINE
5
D3
100
AcDbEntity
8
1
62
256
6
ByLayer
370
18
48
1
60
0
100
AcDbSpline
70
4
71
3
72
8
73
4
40
0
40
0
40
0
40
0
40
1
40
1
40
1
40
1
41
1
10
67.8829251861812
20
-3.22195897283137
30
0
41
1
10
67.8900250514058
20
-3.20290641314841
30
0
41
1
10
67.8971184831818
20
-3.18384674481743
30
0
41
1
10
67.9042052402405
20
-3.16478064418189
30
0
0
SPLINE
5
D4
100
AcDbEntity
8
1
62
256
6
ByLayer
370
18
48
1
60
0
100
AcDbSpline
70
4
71
3
72
18
73
14
40
0
40
0
40
0
40
0
40
0.125
40
0.125
40
0.25
40
0.25
40
0.5
40
0.5
40
0.75
40
0.75
40
0.875
40
0.875
40
1
40
1
40
1
40
1
41
1
10
68.5458068260653
20
1.61584847913107
30
0
41
1
10
68.5215362807204
20
1.68148107978999
30
0
41
1
10
68.4971746685585
20
1.74706686388492
30
0
41
1
10
68.4484025199968
20
1.87821328060048
30
0
41
1
10
68.423951228832
20
1.94377464535705
30
0
41
1
10
68.3504897370119
20
2.13976284021618
30
0
41
1
10
68.3013131321698
20
2.26953949165167
30
0
41
1
10
68.2023642172494
20
2.52649487891088
30
0
41
1
10
68.1528181916295
20
2.65466045838104
30
0
41
1
10
68.0780016617797
20
2.84473922985859
30
0
41
1
10
68.0529605458218
20
2.90765280147801
30
0
41
1
10
68.0026449119317
20
3.03246206104618
30
0
41
1
10
67.9774469158723
20
3.09469146667251
30
0
41
1
10
67.952173622177
20
3.1565924936107
30
0
0
SPLINE
5
D5
100
AcDbEntity
8
1
62
256
6
ByLayer
370
18
48
1
60
0
100
AcDbSpline
70
4
71
3
72
12
73
8
40
0
40
0
40
0
40
0
40
0.249999999999999
40
0.249999999999999
40
0.499999999999997
40
0.499999999999997
40
1
40
1
40
1
40
1
41
1
10
12.2518183652221
20
-1.52660822512897
30
0
41
1
10
12.4836595013393
20
-1.65582645314314
30
0
41
1
10
12.7187005190739
20
-1.77405319540884
30
0
41
1
10
13.1937762596536
20
-1.99268682469787
30
0
41
1
10
13.4344134701967
20
-2.09323194808189
30
0
41
1
10
14.159127965792
20
-2.36962673643893
30
0
41
1
10
14.6431985124347
20
-2.51939379455993
30
0
41
1
10
15.1305786884593
20
-2.64220753193231
30
0
0
SPLINE
5
D6
100
AcDbEntity
8
1
62
256
6
ByLayer
370
18
48
1
60
0
100
AcDbSpline
70
4
71
3
72
24
73
20
40
0
40
0
40
0
40
0
40
0.0055195277415449
40
0.0055195277415449
40
0.0959268434014045
40
0.0959268434014045
40
0.276741474721123
40
0.276741474721123
40
0.457556106040843
40
0.457556106040843
40
0.547963421700702
40
0.547963421700702
40
0.638370737360562
40
0.638370737360562
40
0.819185368680281
40
0.819185368680281
40
0.90959268434014
40
0.90959268434014
40
1
40
1
40
1
40
1
41
1
10
12.0192290782092
20
-3.21643902527529
30
0
41
1
10
12.0192299796808
20
-3.21644313925725
30
0
41
1
10
12.0192308786163
20
-3.21642844226321
30
0
41
1
10
12.0192464569037
20
-3.2158458341637
30
0
41
1
10
12.0192605313905
20
-3.21032029540737
30
0
41
1
10
12.0193014063631
20
-3.17908505776578
30
0
41
1
10
12.01932695502
20
-3.13868711339879
30
0
41
1
10
12.0193759632839
20
-3.01791883279984
30
0
41
1
10
12.0193987811484
20
-2.93929186111004
30
0
41
1
10
12.0194312288035
20
-2.79497969975634
30
0
41
1
10
12.0194417369786
20
-2.74244915725237
30
0
41
1
10
12.0194621320039
20
-2.62832584655106
30
0
41
1
10
12.0194720360719
20
-2.56653579913123
30
0
41
1
10
12.0195000795624
20
-2.37143470080522
30
0
41
1
10
12.0195168195865
20
-2.22737663910658
30
0
41
1
10
12.0195380519119
20
-1.99049224754396
30
0
41
1
10
12.0195444858414
20
-1.90782484435698
30
0
41
1
10
12.019555669139
20
-1.73617368271019
30
0
41
1
10
12.0195603588042
20
-1.64816181615922
30
0
41
1
10
12.0195640273786
20
-1.55803375741502
30
0
0
SPLINE
5
D7
100
AcDbEntity
8
1
62
256
6
ByLayer
370
13
48
1
60
0
100
AcDbSpline
70
4
71
3
72
14
73
10
40
0
40
0
40
0
40
0
40
0.297114541370383
40
0.297114541370383
40
0.514780771647563
40
0.514780771647563
40
0.732447001924743
40
0.732447001924743
40
1
40
1
40
1
40
1
41
1
10
12.2505621520116
20
2.75803159640111
30
0
41
1
10
12.2506269988475
20
2.81733772216731
30
0
41
1
10
12.2506875851901
20
2.86819733907239
30
0
41
1
10
12.2507870226063
20
2.94179900116794
30
0
41
1
10
12.2508273903092
20
2.96837869371143
30
0
41
1
10
12.2509040415405
20
3.01151352338766
30
0
41
1
10
12.2509405252711
20
3.02823178994663
30
0
41
1
10
12.2510187210635
20
3.05488278161181
30
0
41
1
10
12.2510598053073
20
3.06241631181018
30
0
41
1
10
12.2510993536526
20
3.06260054326847
30
0
0
SPLINE
5
D8
100
AcDbEntity
8
1
62
256
6
ByLayer
370
18
48
1
60
0
100
AcDbSpline
70
4
71
3
72
30
73
26
40
0
40
0
40
0
40
0
40
0.198452070539107
40
0.198452070539107
40
0.248065088173884
40
0.248065088173884
40
0.297678105808661
40
0.297678105808661
40
0.396904141078213
40
0.396904141078213
40
0.44651715871299
40
0.44651715871299
40
0.496130176347766
40
0.496130176347766
40
0.595356211617316
40
0.595356211617316
40
0.694582246886866
40
0.694582246886866
40
0.793808282156416
40
0.793808282156416
40
0.893034317425966
40
0.893034317425966
40
0.992260352695516
40
0.992260352695516
40
1
40
1
40
1
40
1
41
1
10
20.1100400556115
20
-1.10632836701467
30
0
41
1
10
20.6121627297365
20
-1.3555478296812
30
0
41
1
10
21.1134516964401
20
-1.58489971739132
30
0
41
1
10
21.7346509855687
20
-1.85577005497987
30
0
41
1
10
21.8587007251891
20
-1.9089701112128
30
0
41
1
10
22.1072551250823
20
-2.01213457814018
30
0
41
1
10
22.2316522208935
20
-2.0622784256833
30
0
41
1
10
22.6049818609537
20
-2.20879329859852
30
0
41
1
10
22.8540840774777
20
-2.30122721245431
30
0
41
1
10
23.2274858547027
20
-2.4326183742493
30
0
41
1
10
23.3518202573056
20
-2.47530597621321
30
0
41
1
10
23.6011230281903
20
-2.5572663646407
30
0
41
1
10
23.7261477547491
20
-2.59648333452267
30
0
41
1
10
24.1020227018063
20
-2.70929312322028
30
0
41
1
10
24.3544412050943
20
-2.77820352050583
30
0
41
1
10
24.8564260933609
20
-2.9024172195902
30
0
41
1
10
25.1056240123364
20
-2.95790158678923
30
0
41
1
10
25.6046828050549
20
-3.05241721741038
30
0
41
1
10
25.85402447779
20
-3.09202142017861
30
0
41
1
10
26.3515927959822
20
-3.15652544824897
30
0
41
1
10
26.5992671667345
20
-3.18150898621852
30
0
41
1
10
27.0964016956666
20
-3.21531843600201
30
0
41
1
10
27.345710831333
20
-3.22437032068231
30
0
41
1
10
27.6148045354068
20
-3.22576186030534
30
0
41
1
10
27.6342772701065
20
-3.22581505077389
30
0
41
1
10
27.6537518993094
20
-3.22582052634843
30
0
0
SPLINE
5
D9
100
AcDbEntity
8
1
62
256
6
ByLayer
370
18
48
1
60
0
100
AcDbSpline
70
4
71
3
72
86
73
82
40
0
40
0
40
0
40
0
40
0.0115805247071746
40
0.0115805247071746
40
0.0270187897967477
40
0.0270187897967477
40
0.0424570548863207
40
0.0424570548863207
40
0.0733335850654668
40
0.0733335850654668
40
0.104210115244613
40
0.104210115244613
40
0.135086645423759
40
0.135086645423759
40
0.165963175602905
40
0.165963175602905
40
0.196839705782051
40
0.196839705782051
40
0.212277970871624
40
0.212277970871624
40
0.227716235961197
40
0.227716235961197
40
0.258592766140343
40
0.258592766140343
40
0.289469296319488
40
0.289469296319488
40
0.320345826498634
40
0.320345826498634
40
0.35122235667778
40
0.35122235667778
40
0.366660621767353
40
0.366660621767353
40
0.382098886856926
40
0.382098886856926
40
0.412975417036072
40
0.412975417036072
40
0.428413682125646
40
0.428413682125646
40
0.443851947215218
40
0.443851947215218
40
0.474728477394364
40
0.474728477394364
40
0.50560500757351
40
0.50560500757351
40
0.536481537752656
40
0.536481537752656
40
0.567358067931802
40
0.567358067931802
40
0.598234598110948
40
0.598234598110948
40
0.613672863200521
40
0.613672863200521
40
0.629111128290094
40
0.629111128290094
40
0.65998765846924
40
0.65998765846924
40
0.690864188648386
40
0.690864188648386
40
0.721740718827532
40
0.721740718827532
40
0.752617249006678
40
0.752617249006678
40
0.783493779185824
40
0.783493779185824
40
0.814370309364969
40
0.814370309364969
40
0.829808574454542
40
0.829808574454542
40
0.845246839544114
40
0.845246839544114
40
0.876123369723259
40
0.876123369723259
40
0.906999899902403
40
0.906999899902403
40
0.937876430081548
40
0.937876430081548
40
0.968752960260692
40
0.968752960260692
40
0.999629490439837
40
0.999629490439837
40
1
40
1
40
1
40
1
41
1
10
42.2722609638034
20
2.31127490573505
30
0
41
1
10
42.3665141108694
20
2.34575727750717
30
0
41
1
10
42.4606852345816
20
2.37950181475483
30
0
41
1
10
42.6797390781353
20
2.45640551472675
30
0
41
1
10
42.8044272086823
20
2.49904189746096
30
0
41
1
10
43.0538630897292
20
2.58042566115964
30
0
41
1
10
43.1785615401898
20
2.61925805282496
30
0
41
1
10
43.55232804085
20
2.73066534913119
30
0
41
1
10
43.8011101497095
20
2.79813380317248
30
0
41
1
10
44.2971414684065
20
2.92017357329999
30
0
41
1
10
44.5441906979886
20
2.97475505520518
30
0
41
1
10
45.0404174825447
20
3.06790448529099
30
0
41
1
10
45.2890173594627
20
3.10704883776975
30
0
41
1
10
45.7864609977679
20
3.17075848977075
30
0
41
1
10
46.0347980824801
20
3.19538554033613
30
0
41
1
10
46.5349039677408
20
3.22829817731539
30
0
41
1
10
46.7871419087512
20
3.23684259612833
30
0
41
1
10
47.1635121296175
20
3.23772857074809
30
0
41
1
10
47.2886415989419
20
3.23604047792301
30
0
41
1
10
47.5381255693037
20
3.22864845557734
30
0
41
1
10
47.6624403597416
20
3.22291747390199
30
0
41
1
10
48.0356189816905
20
3.19995828144906
30
0
41
1
10
48.2844185151947
20
3.17703184071596
30
0
41
1
10
48.7810826465822
20
3.1160917748858
30
0
41
1
10
49.0287214371139
20
3.07789943321336
30
0
41
1
10
49.5235909065714
20
2.98617238721917
30
0
41
1
10
49.7719269111906
20
2.93346682586909
30
0
41
1
10
50.2694874836641
20
2.81403890841111
30
0
41
1
10
50.518676212449
20
2.74727062234689
30
0
41
1
10
50.8927542335892
20
2.63561672549034
30
0
41
1
10
51.0176717842096
20
2.5966614644839
30
0
41
1
10
51.2684970599825
20
2.51596619136726
30
0
41
1
10
51.394462785774
20
2.47404955397229
30
0
41
1
10
51.7712032296521
20
2.34430102313411
30
0
41
1
10
52.0213761785073
20
2.25237376311787
30
0
41
1
10
52.3945589550519
20
2.10545240679249
30
0
41
1
10
52.5185722708025
20
2.05490473887653
30
0
41
1
10
52.7668482196593
20
1.95222320958763
30
0
41
1
10
52.8910409230747
20
1.89999261857079
30
0
41
1
10
53.2635155644359
20
1.74028062440124
30
0
41
1
10
53.5117348759186
20
1.62986200923794
30
0
41
1
10
54.0072336492511
20
1.3998020640812
30
0
41
1
10
54.2543608576693
20
1.27980762699934
30
0
41
1
10
54.7513553718357
20
1.03701870232396
30
0
41
1
10
55.0006354189641
20
0.913235229344849
30
0
41
1
10
55.5000532300866
20
0.659396282628194
30
0
41
1
10
55.7502487049437
20
0.528024948250305
30
0
41
1
10
56.2523493278558
20
0.26654399085453
30
0
41
1
10
56.5027412162704
20
0.13634678235951
30
0
41
1
10
56.8767973111675
20
-0.0593208882424392
30
0
41
1
10
57.00123159526
20
-0.124594424243355
30
0
41
1
10
57.2494751224065
20
-0.255474096913616
30
0
41
1
10
57.373263666782
20
-0.321116028970351
30
0
41
1
10
57.7451321517555
20
-0.515718013168453
30
0
41
1
10
57.9933599850493
20
-0.643076207995676
30
0
41
1
10
58.4894824348308
20
-0.894974323945348
30
0
41
1
10
58.7371309966346
20
-1.01996194356755
30
0
41
1
10
59.2327428286517
20
-1.26575213409811
30
0
41
1
10
59.4817720390049
20
-1.38461134813198
30
0
41
1
10
59.9813078667886
20
-1.6160822381114
30
0
41
1
10
60.2320541341852
20
-1.72889018833999
30
0
41
1
10
60.7334849712515
20
-1.94811325388176
30
0
41
1
10
60.9835289446441
20
-2.05175930634033
30
0
41
1
10
61.4826246333568
20
-2.24734679131325
30
0
41
1
10
61.7315051067552
20
-2.33957767893176
30
0
41
1
10
62.1032165779171
20
-2.47028712739143
30
0
41
1
10
62.2268334488388
20
-2.5125813756564
30
0
41
1
10
62.4744939532893
20
-2.59339503398252
30
0
41
1
10
62.5984573074824
20
-2.63203007069541
30
0
41
1
10
62.9704796290762
20
-2.7430269095687
30
0
41
1
10
63.2187098158977
20
-2.81046686905336
30
0
41
1
10
63.7148632352845
20
-2.93271411383324
30
0
41
1
10
63.9626743381266
20
-2.98747157636316
30
0
41
1
10
64.4616776937625
20
-3.08101567191179
30
0
41
1
10
64.7123103062797
20
-3.12038763537194
30
0
41
1
10
65.2149686725188
20
-3.18433291762429
30
0
41
1
10
65.4643177187791
20
-3.20865567303775
30
0
41
1
10
65.9633806066435
20
-3.24074682116202
30
0
41
1
10
66.2126972451364
20
-3.24881825257822
30
0
41
1
10
66.464402211865
20
-3.24910718722938
30
0
41
1
10
66.4673867023592
20
-3.24910948599646
30
0
41
1
10
66.4703711086792
20
-3.24911065690054
30
0
0
SPLINE
5
DA
100
AcDbEntity
8
1
62
256
6
ByLayer
370
18
48
1
60
0
100
AcDbSpline
70
4
71
3
72
18
73
14
40
0
40
0
40
0
40
0
40
0.25
40
0.25
40
0.5
40
0.5
40
0.625
40
0.625
40
0.75
40
0.75
40
0.875
40
0.875
40
1
40
1
40
1
40
1
41
1
10
67.5740281587201
20
0.675892446580633
30
0
41
1
10
67.5654069998643
20
0.705932530388509
30
0
41
1
10
67.5601785068196
20
0.73678088585757
30
0
41
1
10
67.5577959364227
20
0.800463078396149
30
0
41
1
10
67.5606876311156
20
0.833098526132744
30
0
41
1
10
67.5741258312754
20
0.880397217720741
30
0
41
1
10
67.5801282102032
20
0.896031914695641
30
0
41
1
10
67.5958314679201
20
0.925131291343774
30
0
41
1
10
67.6060470105025
20
0.938399858518778
30
0
41
1
10
67.6298459614022
20
0.960753972249307
30
0
41
1
10
67.6436980341076
20
0.970094899934566
30
0
41
1
10
67.6728116565964
20
0.984544295197736
30
0
41
1
10
67.6882546553579
20
0.989850000467499
30
0
41
1
10
67.7041782915471
20
0.993624629503103
30
0
0
SPLINE
5
DB
100
AcDbEntity
8
1
62
256
6
ByLayer
370
18
48
1
60
0
100
AcDbSpline
70
4
71
3
72
8
73
4
40
0
40
0
40
0
40
0
40
1
40
1
40
1
40
1
41
1
10
67.9206597402526
20
-3.07883581996296
30
0
41
1
10
67.9030762160699
20
-3.08956744282051
30
0
41
1
10
67.8873519508879
20
-3.0949798732768
30
0
41
1
10
67.8735215803787
20
-3.09497402141295
30
0
0
SPLINE
5
DC
100
AcDbEntity
8
1
62
256
6
ByLayer
370
18
48
1
60
0
100
AcDbSpline
70
4
71
3
72
16
73
12
40
0
40
0
40
0
40
0
40
0.249999999999998
40
0.249999999999998
40
0.499999999999996
40
0.499999999999996
40
0.624999999999995
40
0.624999999999995
40
0.749999999999994
40
0.749999999999994
40
1
40
1
40
1
40
1
41
1
10
65.3222934064357
20
0.786291216754393
30
0
41
1
10
65.4185419148615
20
0.531221190790404
30
0
41
1
10
65.5464863169329
20
0.285616039139199
30
0
41
1
10
65.8491267399637
20
-0.191633522067633
30
0
41
1
10
66.0172897219037
20
-0.412879844947639
30
0
41
1
10
66.286998644077
20
-0.725926203036607
30
0
41
1
10
66.3799127336135
20
-0.82708758605969
30
0
41
1
10
66.571167943617
20
-1.02366559245576
30
0
41
1
10
66.6689948074307
20
-1.11852547881054
30
0
41
1
10
66.9660453520762
20
-1.39182100051141
30
0
41
1
10
67.1697579871778
20
-1.56014129535208
30
0
41
1
10
67.3783798687957
20
-1.71646564492426
30
0
0
SPLINE
5
DD
100
AcDbEntity
8
1
62
256
6
ByLayer
370
18
48
1
60
0
100
AcDbSpline
70
4
71
3
72
26
73
22
40
0
40
0
40
0
40
0
40
0.500000000000014
40
0.500000000000014
40
0.625000000000015
40
0.625000000000015
40
0.687500000000016
40
0.687500000000016
40
0.750000000000016
40
0.750000000000016
40
0.812500000000017
40
0.812500000000017
40
0.843750000000014
40
0.843750000000014
40
0.875000000000011
40
0.875000000000011
40
0.906250000000009
40
0.906250000000009
40
0.937500000000006
40
0.937500000000006
40
1
40
1
40
1
40
1
41
1
10
65.3222934064359
20
0.786291216754591
30
0
41
1
10
65.7722668402589
20
0.522812708347004
30
0
41
1
10
66.2229846606629
20
0.309193709854696
30
0
41
1
10
66.7883963132728
20
0.1770942844052
30
0
41
1
10
66.9014210273787
20
0.157610604273771
30
0
41
1
10
67.0671522911943
20
0.140791759776846
30
0
41
1
10
67.1219231708315
20
0.137206696507661
30
0
41
1
10
67.2304183234112
20
0.134329063889822
30
0
41
1
10
67.2845974947534
20
0.134365192075762
30
0
41
1
10
67.3855325343243
20
0.150504258093917
30
0
41
1
10
67.4327169307371
20
0.165231092066989
30
0
41
1
10
67.4946103026507
20
0.205334155938885
30
0
41
1
10
67.5135366473897
20
0.221650641997314
30
0
41
1
10
67.5464390762485
20
0.259307060501129
30
0
41
1
10
67.5607241331526
20
0.28086010707716
30
0
41
1
10
67.5838774285593
20
0.329485451215788
30
0
41
1
10
67.5924701832852
20
0.355909173699985
30
0
41
1
10
67.6038337385853
20
0.41287554613092
30
0
41
1
10
67.6065642696676
20
0.443803996553896
30
0
41
1
10
67.6059261162629
20
0.539363563465912
30
0
41
1
10
67.5935182194819
20
0.607980108054306
30
0
41
1
10
67.5740281587201
20
0.675892446580633
30
0
0
SPLINE
5
DE
100
AcDbEntity
8
1
62
256
6
ByLayer
370
13
48
1
60
0
100
AcDbSpline
70
4
71
3
72
22
73
18
40
0
40
0
40
0
40
0
40
0.0675934329058606
40
0.0675934329058606
40
0.160834089615275
40
0.160834089615275
40
0.254074746324688
40
0.254074746324688
40
0.440556059743516
40
0.440556059743516
40
0.627037373162344
40
0.627037373162344
40
0.813518686581172
40
0.813518686581172
40
0.906759343290586
40
0.906759343290586
40
1
40
1
40
1
40
1
41
1
10
12.2511037753038
20
-3.0625904502227
30
0
41
1
10
12.2511270324048
20
-3.06237541695637
30
0
41
1
10
12.2511497617404
20
-3.05960168221529
30
0
41
1
10
12.2512028317465
20
-3.04682208108693
30
0
41
1
10
12.25123250175
20
-3.03453441976731
30
0
41
1
10
12.2512902618989
20
-3.00026023802854
30
0
41
1
10
12.2513184482988
20
-2.97815213610858
30
0
41
1
10
12.2514001095571
20
-2.89827092161659
30
0
41
1
10
12.2514510869319
20
-2.8270465611113
30
0
41
1
10
12.2515481092887
20
-2.64923987723648
30
0
41
1
10
12.2515944857564
20
-2.54127646623283
30
0
41
1
10
12.2516776397008
20
-2.29822858215053
30
0
41
1
10
12.2517148939734
20
-2.16264723239374
30
0
41
1
10
12.25176190158
20
-1.93805444664602
30
0
41
1
10
12.2517761279646
20
-1.85918622898947
30
0
41
1
10
12.25180049306
20
-1.69625012328791
30
0
41
1
10
12.2518106063977
20
-1.61252584707515
30
0
41
1
10
12.251818364526
20
-1.52660822512661
30
0
0
SPLINE
5
DF
100
AcDbEntity
8
1
62
256
6
ByLayer
370
18
48
1
60
0
100
AcDbSpline
70
4
71
3
72
42
73
38
40
0
40
0
40
0
40
0
40
0.0430663042248868
40
0.0430663042248868
40
0.0861326084497736
40
0.0861326084497736
40
0.172265216899546
40
0.172265216899546
40
0.258397825349318
40
0.258397825349318
40
0.301464129574204
40
0.301464129574204
40
0.344530433799091
40
0.344530433799091
40
0.430663042248865
40
0.430663042248865
40
0.473729346473751
40
0.473729346473751
40
0.495262498586195
40
0.495262498586195
40
0.516795650698638
40
0.516795650698638
40
0.689060867598189
40
0.689060867598189
40
0.732127171823076
40
0.732127171823076
40
0.775193476047964
40
0.775193476047964
40
0.861326084497741
40
0.861326084497741
40
0.947458692947518
40
0.947458692947518
40
0.968991845059962
40
0.968991845059962
40
0.990524997172406
40
0.990524997172406
40
1
40
1
40
1
40
1
41
1
10
67.882925186181
20
-3.22195897284027
30
0
41
1
10
67.5910574278893
20
-3.24198362526869
30
0
41
1
10
67.2993826478299
20
-3.25105595688237
30
0
41
1
10
66.715465986455
20
-3.24744401216424
30
0
41
1
10
66.4226313577003
20
-3.23469624075577
30
0
41
1
10
65.5457888873585
20
-3.16413201318815
30
0
41
1
10
64.9666304148031
20
-3.07449043305294
30
0
41
1
10
63.8097747932521
20
-2.81744757423857
30
0
41
1
10
63.2317267522086
20
-2.65030866246843
30
0
41
1
10
62.3580426047914
20
-2.3483026832956
30
0
41
1
10
62.0647147024607
20
-2.23866329552544
30
0
41
1
10
61.4814478947919
20
-2.00643286745753
30
0
41
1
10
61.1911464069206
20
-1.88379811911727
30
0
41
1
10
60.3223799718835
20
-1.49961271921904
30
0
41
1
10
59.7459920515917
20
-1.22189467877629
30
0
41
1
10
58.8788598286616
20
-0.78491227559158
30
0
41
1
10
58.5893455855148
20
-0.635929781489097
30
0
41
1
10
58.1533559288691
20
-0.409333736660358
30
0
41
1
10
58.007741620156
20
-0.333278200050529
30
0
41
1
10
57.7157893437145
20
-0.180406803649362
30
0
41
1
10
57.5691940376072
20
-0.103454333896394
30
0
41
1
10
56.2539700565201
20
0.58701436006865
30
0
41
1
10
55.108255305991
20
1.18877021502465
30
0
41
1
10
53.6569730004551
20
1.83641275609412
30
0
41
1
10
53.3656809649341
20
1.96059188665677
30
0
41
1
10
52.7798142781863
20
2.19608884422567
30
0
41
1
10
52.4884241087186
20
2.30628665507956
30
0
41
1
10
51.6175599929115
20
2.6120014494677
30
0
41
1
10
51.0405077599495
20
2.78194491765169
30
0
41
1
10
49.8853218139157
20
3.04636716060622
30
0
41
1
10
49.3063437127398
20
3.14014174851547
30
0
41
1
10
48.5758312141319
20
3.20462922884386
30
0
41
1
10
48.4291995351268
20
3.21486584884443
30
0
41
1
10
48.137092580813
20
3.22983046997018
30
0
41
1
10
47.9913803102477
20
3.2345863522942
30
0
41
1
10
47.7819332592076
20
3.23755558325877
30
0
41
1
10
47.7179875353524
20
3.23794173417275
30
0
41
1
10
47.6540902286374
20
3.2378086442871
30
0
0
SPLINE
5
E0
100
AcDbEntity
8
1
62
256
6
ByLayer
370
18
48
1
60
0
100
AcDbSpline
70
4
71
3
72
35
73
31
40
0
40
0
40
0
40
0
40
0.0317475467999188
40
0.0317475467999188
40
0.225398037439937
40
0.225398037439937
40
0.24960434876994
40
0.24960434876994
40
0.273810660099942
40
0.322223282759947
40
0.322223282759947
40
0.419048528079954
40
0.419048528079954
40
0.467461150739958
40
0.467461150739958
40
0.515873773399962
40
0.515873773399962
40
0.61269901871997
40
0.61269901871997
40
0.709524264039977
40
0.709524264039977
40
0.733730575369979
40
0.733730575369979
40
0.757936886699981
40
0.757936886699981
40
0.806349509359985
40
0.806349509359985
40
0.903174754679993
40
0.903174754679993
40
1
40
1
40
1
40
1
41
1
10
30.1305413017649
20
-3.0821518318327
30
0
41
1
10
29.9388063572381
20
-3.11174621943812
30
0
41
1
10
29.7474658279431
20
-3.13683279430495
30
0
41
1
10
28.3937527537435
20
-3.28225758057394
30
0
41
1
10
27.2469371628993
20
-3.23656935049317
30
0
41
1
10
25.9317634465863
20
-2.99691739138439
30
0
41
1
10
25.785020452567
20
-2.9676223022698
30
0
41
1
10
25.4923862497386
20
-2.90426154814418
30
0
41
1
10
25.0545307581726
20
-2.80206343664167
30
0
41
1
10
24.6192822224882
20
-2.67928075972688
30
0
41
1
10
23.7504962306371
20
-2.40858129591214
30
0
41
1
10
23.1735152419743
20
-2.19464899874248
30
0
41
1
10
22.3040556455204
20
-1.83360143382902
30
0
41
1
10
22.0136464627372
20
-1.70644384480571
30
0
41
1
10
21.4302382828153
20
-1.44055672675268
30
0
41
1
10
21.1363177266018
20
-1.30138402876531
30
0
41
1
10
20.2604663945735
20
-0.875009200370982
30
0
41
1
10
19.6818212867939
20
-0.577801520507194
30
0
41
1
10
18.5251938897306
20
0.0232951015539129
30
0
41
1
10
17.9472929630306
20
0.327344259305647
30
0
41
1
10
17.2191887608581
20
0.699531693120463
30
0
41
1
10
17.0732911259911
20
0.773594303269903
30
0
41
1
10
16.7808045005896
20
0.920700016938724
30
0
41
1
10
16.6339805431167
20
0.993842815235837
30
0
41
1
10
16.1951220866485
20
1.20969589091996
30
0
41
1
10
15.9040145040722
20
1.34918520927144
30
0
41
1
10
15.0332184023885
20
1.75148505617437
30
0
41
1
10
14.4564470182854
20
1.99874094833788
30
0
41
1
10
13.299794186963
20
2.43492342140516
30
0
41
1
10
12.719971565141
20
2.62407055571057
30
0
41
1
10
12.1343774892336
20
2.77777539217928
30
0
0
SPLINE
5
E1
100
AcDbEntity
8
1
62
256
6
ByLayer
370
18
48
1
60
0
100
AcDbSpline
70
4
71
3
72
24
73
20
40
0
40
0
40
0
40
0
40
0.0227721718165944
40
0.0227721718165944
40
0.112789722962705
40
0.112789722962705
40
0.202807274108816
40
0.202807274108816
40
0.382842376401034
40
0.382842376401034
40
0.472859927547142
40
0.472859927547142
40
0.562877478693251
40
0.562877478693251
40
0.742912580985469
40
0.742912580985469
40
0.922947683277686
40
0.922947683277686
40
1
40
1
40
1
40
1
41
1
10
32.8887035166396
20
2.32625185195656
30
0
41
1
10
32.9624017697071
20
2.30052931943749
30
0
41
1
10
33.0361094101975
20
2.27430150859124
30
0
41
1
10
33.401260821506
20
2.141952957977
30
0
41
1
10
33.6938743047928
20
2.02842846710939
30
0
41
1
10
34.2764107422984
20
1.78968067815865
30
0
41
1
10
34.5664289611928
20
1.66439524336604
30
0
41
1
10
35.4343809558859
20
1.27383895958974
30
0
41
1
10
36.0107392025963
20
0.994824197767514
30
0
41
1
10
36.8781075775286
20
0.559851896125366
30
0
41
1
10
37.1677831467875
20
0.412307639774383
30
0
41
1
10
37.7494940711656
20
0.114417800921387
30
0
41
1
10
38.042062491174
20
-0.0363469944867063
30
0
41
1
10
38.9167503035552
20
-0.485778034273068
30
0
41
1
10
39.4988129526714
20
-0.781892802359039
30
0
41
1
10
40.6667416164118
20
-1.34851372108227
30
0
41
1
10
41.2476096142245
20
-1.61569850946813
30
0
41
1
10
42.079108462048
20
-1.96325545137154
30
0
41
1
10
42.3290260339773
20
-2.06313001909453
30
0
41
1
10
42.5788302606441
20
-2.15763003655013
30
0
0
SPLINE
5
E2
100
AcDbEntity
8
1
62
256
6
ByLayer
370
13
48
1
60
0
100
AcDbSpline
70
4
71
3
72
20
73
16
40
0
40
0
40
0
40
0
40
0.0190798718757431
40
0.0190798718757431
40
0.151551317858621
40
0.151551317858621
40
0.284022763841498
40
0.284022763841498
40
0.416494209824376
40
0.416494209824376
40
0.681437101790133
40
0.681437101790133
40
0.94637999375589
40
0.94637999375589
40
1
40
1
40
1
40
1
41
1
10
42.578830261319
20
-2.15763003680539
30
0
41
1
10
42.6208636547226
20
-2.17353111447315
30
0
41
1
10
42.6628938389564
20
-2.18928002128985
30
0
41
1
10
42.9966828301762
20
-2.31312386696041
30
0
41
1
10
43.2877146446553
20
-2.41378992498869
30
0
41
1
10
43.869569818558
20
-2.59851588120196
30
0
41
1
10
44.1605322782107
20
-2.68245966931062
30
0
41
1
10
44.7434322933721
20
-2.83215928225647
30
0
41
1
10
45.0359357360041
20
-2.89804315008689
30
0
41
1
10
45.9077706715183
20
-3.06509442460126
30
0
41
1
10
46.484362124423
20
-3.13606866748657
30
0
41
1
10
47.6361911768867
20
-3.19539954012373
30
0
41
1
10
48.2121675967119
20
-3.18378273245941
30
0
41
1
10
48.9095049506611
20
-3.11921306486863
30
0
41
1
10
49.0272030545949
20
-3.10663831838642
30
0
41
1
10
49.1450781052382
20
-3.09236726145787
30
0
0
SPLINE
5
E3
100
AcDbEntity
8
1
62
256
6
ByLayer
370
18
48
1
60
0
100
AcDbSpline
70
4
71
3
72
18
73
14
40
0
40
0
40
0
40
0
40
0.125
40
0.125
40
0.25
40
0.25
40
0.5
40
0.5
40
0.75
40
0.75
40
0.875
40
0.875
40
1
40
1
40
1
40
1
41
1
10
68.5458068260654
20
-1.61584847913102
30
0
41
1
10
68.5215362807205
20
-1.68148107978996
30
0
41
1
10
68.4971746685585
20
-1.7470668638849
30
0
41
1
10
68.4484025199968
20
-1.87821328060042
30
0
41
1
10
68.4239512288321
20
-1.94377464535702
30
0
41
1
10
68.350489737012
20
-2.13976284021615
30
0
41
1
10
68.3013131321699
20
-2.26953949165164
30
0
41
1
10
68.2023642172493
20
-2.52649487891085
30
0
41
1
10
68.1528181916295
20
-2.65466045838102
30
0
41
1
10
68.0780016617797
20
-2.84473922985859
30
0
41
1
10
68.0529605458217
20
-2.90765280147801
30
0
41
1
10
68.0026449119317
20
-3.03246206104618
30
0
41
1
10
67.9774469158723
20
-3.09469146667251
30
0
41
1
10
67.952173622177
20
-3.1565924936107
30
0
0
SPLINE
5
E4
100
AcDbEntity
8
1
62
256
6
ByLayer
370
18
48
1
60
0
100
AcDbSpline
70
4
71
3
72
8
73
4
40
0
40
0
40
0
40
0
40
1
40
1
40
1
40
1
41
1
10
12.1343774892327
20
2.77777539217951
30
0
41
1
10
12.1033282165145
20
2.78592510472268
30
0
41
1
10
12.076196943729
20
2.79712676671318
30
0
41
1
10
12.0545826730213
20
2.810295184833
30
0
0
SPLINE
5
E5
100
AcDbEntity
8
1
62
256
6
ByLayer
370
18
48
1
60
0
100
AcDbSpline
70
2053
71
3
72
62
73
58
40
0
40
0
40
0
40
0
40
0.0312499999999997
40
0.0312499999999997
40
0.0624999999999994
40
0.0624999999999994
40
0.0937499999999991
40
0.0937499999999991
40
0.124999999999999
40
0.124999999999999
40
0.156249999999999
40
0.156249999999999
40
0.187499999999998
40
0.187499999999998
40
0.218749999999998
40
0.218749999999998
40
0.249999999999998
40
0.249999999999998
40
0.281249999999997
40
0.281249999999997
40
0.312499999999997
40
0.312499999999997
40
0.374999999999993
40
0.374999999999993
40
0.437499999999989
40
0.437499999999989
40
0.46874999999999
40
0.46874999999999
40
0.49999999999999
40
0.49999999999999
40
0.53124999999999
40
0.53124999999999
40
0.56249999999999
40
0.56249999999999
40
0.593749999999991
40
0.593749999999991
40
0.624999999999991
40
0.624999999999991
40
0.656249999999991
40
0.656249999999991
40
0.687499999999991
40
0.687499999999991
40
0.718749999999992
40
0.718749999999992
40
0.749999999999992
40
0.749999999999992
40
0.781249999999992
40
0.781249999999992
40
0.812499999999993
40
0.812499999999993
40
0.874999999999997
40
0.874999999999997
40
0.937500000000001
40
0.937500000000001
40
0.96875
40
0.96875
40
1
40
1
40
1
40
1
41
1
10
68.1883791031801
20
-1.80268077224495
30
0
41
1
10
68.2082148917277
20
-1.7737869756568
30
0
41
1
10
68.2276059998019
20
-1.74290852742823
30
0
41
1
10
68.2654304971819
20
-1.67687724019331
30
0
41
1
10
68.2840640159463
20
-1.64130101809536
30
0
41
1
10
68.319098712143
20
-1.5672723057034
30
0
41
1
10
68.3354376375329
20
-1.52904996528795
30
0
41
1
10
68.3654260529809
20
-1.44984838286541
30
0
41
1
10
68.3787878519047
20
-1.40948635029872
30
0
41
1
10
68.4009514738917
20
-1.33048494565142
30
0
41
1
10
68.4100296203577
20
-1.29071989174639
30
0
41
1
10
68.4227400270532
20
-1.21610108612637
30
0
41
1
10
68.4264995518753
20
-1.18095034636099
30
0
41
1
10
68.4288222972651
20
-1.11600303886027
30
0
41
1
10
68.4273798960159
20
-1.08721096533463
30
0
41
1
10
68.4198742010635
20
-1.03616048312648
30
0
41
1
10
68.4138204022081
20
-1.01432264404804
30
0
41
1
10
68.3980622655783
20
-0.978182092753713
30
0
41
1
10
68.388217085062
20
-0.963618222848368
30
0
41
1
10
68.3657945290094
20
-0.941761744857445
30
0
41
1
10
68.3531861574718
20
-0.934312661958984
30
0
41
1
10
68.3115388911127
20
-0.921483646970358
30
0
41
1
10
68.2796624774662
20
-0.925732255276017
30
0
41
1
10
68.209637546942
20
-0.956876032463555
30
0
41
1
10
68.1725849975592
20
-0.983257093425664
30
0
41
1
10
68.1144405414237
20
-1.03874354857314
30
0
41
1
10
68.0945929582153
20
-1.06002101419529
30
0
41
1
10
68.0553009705893
20
-1.10688686068488
30
0
41
1
10
68.0356876450727
20
-1.13262051775905
30
0
41
1
10
67.9965324304582
20
-1.18911889270379
30
0
41
1
10
67.9767716731046
20
-1.22026782567036
30
0
41
1
10
67.9385903837984
20
-1.28648179012941
30
0
41
1
10
67.9201981209512
20
-1.3214134753373
30
0
41
1
10
67.8850073340886
20
-1.39544090038473
30
0
41
1
10
67.8683045100323
20
-1.4344687958739
30
0
41
1
10
67.8386097563804
20
-1.51283555361965
30
0
41
1
10
67.8252642845413
20
-1.55302435798618
30
0
41
1
10
67.8027658740797
20
-1.63337575158837
30
0
41
1
10
67.7939597714547
20
-1.67218307550147
30
0
41
1
10
67.7812173444901
20
-1.74707017821299
30
0
41
1
10
67.7774173416731
20
-1.7828189802122
30
0
41
1
10
67.7750528823962
20
-1.84736268044907
30
0
41
1
10
67.7764572915561
20
-1.87694342236878
30
0
41
1
10
67.7837890298296
20
-1.92811927615577
30
0
41
1
10
67.7897378388172
20
-1.95023749666424
30
0
41
1
10
67.8053960325186
20
-1.98705973096307
30
0
41
1
10
67.8149953809441
20
-2.00165993639664
30
0
41
1
10
67.8373199456688
20
-2.0241311305399
30
0
41
1
10
67.8500412965369
20
-2.03189513463934
30
0
41
1
10
67.8913129257256
20
-2.04521914690864
30
0
41
1
10
67.9237268679135
20
-2.04107413940417
30
0
41
1
10
67.9932581768264
20
-2.01010296126952
30
0
41
1
10
68.0312367629757
20
-1.98285841071981
30
0
41
1
10
68.0891790858279
20
-1.92703777329439
30
0
41
1
10
68.1087310598191
20
-1.90591905335933
30
0
41
1
10
68.1483447053978
20
-1.85829926711369
30
0
41
1
10
68.1685433146325
20
-1.83157456883311
30
0
41
1
10
68.1883791031801
20
-1.80268077224495
30
0
0
SPLINE
5
E6
100
AcDbEntity
8
1
62
256
6
ByLayer
370
18
48
1
60
0
100
AcDbSpline
70
4
71
3
72
14
73
10
40
0
40
0
40
0
40
0
40
0.25
40
0.25
40
0.5
40
0.5
40
0.75
40
0.75
40
1
40
1
40
1
40
1
41
1
10
12.0195640273786
20
-1.55803375741505
30
0
41
1
10
12.0290677765252
20
-1.54013911453643
30
0
41
1
10
12.0424505471682
20
-1.52454811684569
30
0
41
1
10
12.075426558233
20
-1.5019713437116
30
0
41
1
10
12.0954632232825
20
-1.49477848851754
30
0
41
1
10
12.1383241326857
20
-1.49010972543354
30
0
41
1
10
12.161448899366
20
-1.49249020469151
30
0
41
1
10
12.2070973945667
20
-1.50465034570629
30
0
41
1
10
12.22987450784
20
-1.51437766753776
30
0
41
1
10
12.2518183645261
20
-1.52660822474101
30
0
0
SPLINE
5
E7
100
AcDbEntity
8
1
62
256
6
ByLayer
370
18
48
1
60
0
100
AcDbSpline
70
4
71
3
72
12
73
8
40
0
40
0
40
0
40
0
40
0.405018455036935
40
0.405018455036935
40
0.81003691007387
40
0.81003691007387
40
1
40
1
40
1
40
1
41
1
10
12.0189595333139
20
2.85606707468639
30
0
41
1
10
12.0190043487147
20
2.9517565059459
30
0
41
1
10
12.0190454325258
20
3.02964213373519
30
0
41
1
10
12.0191201754926
20
3.14542097998813
30
0
41
1
10
12.0191540687546
20
3.18397877660919
30
0
41
1
10
12.0192007355575
20
3.21185456460424
30
0
41
1
10
12.0192151862122
20
3.21636708351798
30
0
41
1
10
12.0192290382679
20
3.21643883069788
30
0
0
SPLINE
5
E8
100
AcDbEntity
8
SK1
62
256
6
ByLayer
370
18
48
1
60
0
100
AcDbSpline
70
4
71
3
72
14
73
10
40
0
40
0
40
0
40
0
40
0.125000000000002
40
0.125000000000002
40
0.250000000000004
40
0.250000000000004
40
0.500000000000004
40
0.500000000000004
40
1
40
1
40
1
40
1
41
1
10
-35.15
20
0.899702128742462
30
0
41
1
10
-35.15
20
0.910443641221406
30
0
41
1
10
-35.1517533826404
20
0.920350052990102
30
0
41
1
10
-35.156922863818
20
0.937324983563656
30
0
41
1
10
-35.1602579704305
20
0.94443173603932
30
0
41
1
10
-35.171531162593
20
0.963419080784774
30
0
41
1
10
-35.1803065715125
20
0.972377667496716
30
0
41
1
10
-35.2084258319137
20
0.993648141969004
30
0
41
1
10
-35.2287403581634
20
0.999714886415859
30
0
41
1
10
-35.25
20
0.99971782502044
30
0
0
SPLINE
5
E9
100
AcDbEntity
8
SK1
62
256
6
ByLayer
370
18
48
1
60
0
100
AcDbSpline
70
4
71
3
72
14
73
10
40
0
40
0
40
0
40
0
40
0.500000000000002
40
0.500000000000002
40
0.750000000000001
40
0.750000000000001
40
0.875
40
0.875
40
1
40
1
40
1
40
1
41
1
10
-35.25
20
-1.00028216905272
30
0
41
1
10
-35.2287351157906
20
-1.00028510838195
30
0
41
1
10
-35.2083743058672
20
-0.994203399642146
30
0
41
1
10
-35.1802586764876
20
-0.972917037824601
30
0
41
1
10
-35.1713519692842
20
-0.963730157636292
30
0
41
1
10
-35.1602788850835
20
-0.945045426371962
30
0
41
1
10
-35.1569187377632
20
-0.937910495047731
30
0
41
1
10
-35.1517448941354
20
-0.920910079667578
30
0
41
1
10
-35.1499999999998
20
-0.911022034421933
30
0
41
1
10
-35.1499999999998
20
-0.900297865922965
30
0
0
SPLINE
5
EA
100
AcDbEntity
8
SK1
62
256
6
ByLayer
370
18
48
1
60
0
100
AcDbSpline
70
4
71
3
72
8
73
4
40
0
40
0
40
0
40
0
40
1
40
1
40
1
40
1
41
1
10
-35.25
20
0.999717825020156
30
0
41
1
10
-35.503884786539
20
0.999752918132486
30
0
41
1
10
-35.7560115935019
20
0.999788092019088
30
0
41
1
10
-36
20
0.999823591549784
30
0
0
SPLINE
5
EB
100
AcDbEntity
8
SK1
62
256
6
ByLayer
370
18
48
1
60
0
100
AcDbSpline
70
4
71
3
72
8
73
4
40
0
40
0
40
0
40
0
40
1
40
1
40
1
40
1
41
1
10
-35.25
20
-0.999717825020156
30
0
41
1
10
-35.503884786539
20
-0.999752918132486
30
0
41
1
10
-35.7560115935019
20
-0.999788092019116
30
0
41
1
10
-36
20
-0.999823591549784
30
0
0
SPLINE
5
EC
100
AcDbEntity
8
SK1
62
256
6
ByLayer
370
18
48
1
60
0
100
AcDbSpline
70
4
71
3
72
8
73
4
40
0
40
0
40
0
40
0
40
1
40
1
40
1
40
1
41
1
10
-36
20
-1.00017640252281
30
0
41
1
10
-35.7559461785827
20
-1.00021191157114
30
0
41
1
10
-35.5038668423313
20
-1.00024707842044
30
0
41
1
10
-35.25
20
-1.00028216905244
30
0
0
SPLINE
5
ED
100
AcDbEntity
8
SK1
62
256
6
ByLayer
370
18
48
1
60
0
100
AcDbSpline
70
4
71
3
72
14
73
10
40
0
40
0
40
0
40
0
40
0.124999999999998
40
0.124999999999998
40
0.249999999999996
40
0.249999999999996
40
0.499999999999996
40
0.499999999999996
40
1
40
1
40
1
40
1
41
1
10
-35.15
20
-0.899702128742462
30
0
41
1
10
-35.15
20
-0.910443641221406
30
0
41
1
10
-35.1517533826404
20
-0.920350052990102
30
0
41
1
10
-35.156922863818
20
-0.937324983563684
30
0
41
1
10
-35.1602579704305
20
-0.94443173603932
30
0
41
1
10
-35.171531162593
20
-0.963419080784774
30
0
41
1
10
-35.1803065715125
20
-0.972377667496744
30
0
41
1
10
-35.2084258319137
20
-0.993648141969004
30
0
41
1
10
-35.2287403581634
20
-0.999714886415859
30
0
41
1
10
-35.25
20
-0.99971782502044
30
0
0
LINE
5
76
100
AcDbEntity
8
81
62
256
6
ByLayer
370
18
48
1
60
0
100
AcDbLine
10
69
20
0
30
0
11
74
21
0
31
0
39
0
210
0
220
0
230
1
0
LINE
5
77
100
AcDbEntity
8
1
62
256
6
ByLayer
370
18
48
1
60
0
100
AcDbLine
10
12.019223
20
3.21644
30
0
11
1.380266
21
3.210057
31
0
39
0
210
0
220
0
230
1
0
LINE
5
79
100
AcDbEntity
8
1
62
256
6
ByLayer
370
18
48
1
60
0
100
AcDbLine
10
47.671146
20
3.237831
30
0
11
47.056761
21
3.237463
31
0
39
0
210
0
220
0
230
1
0
LINE
5
7A
100
AcDbEntity
8
1
62
256
6
ByLayer
370
18
48
1
60
0
100
AcDbLine
10
67.071982
20
3.249472
30
0
11
66.467703
21
3.249109
31
0
39
0
210
0
220
0
230
1
0
LINE
5
7B
100
AcDbEntity
8
1
62
256
6
ByLayer
370
18
48
1
60
0
100
AcDbLine
10
66.467703
20
-3.249109
30
0
11
67.071976
21
-3.249472
31
0
39
0
210
0
220
0
230
1
0
LINE
5
7C
100
AcDbEntity
8
1
62
256
6
ByLayer
370
18
48
1
60
0
100
AcDbLine
10
47.056761
20
-3.237463
30
0
11
47.67149
21
-3.237832
31
0
39
0
210
0
220
0
230
1
0
LINE
5
7D
100
AcDbEntity
8
1
62
256
6
ByLayer
370
18
48
1
60
0
100
AcDbLine
10
1.380266
20
-3.210057
30
0
11
12.019223
21
-3.21644
31
0
39
0
210
0
220
0
230
1
0
LINE
5
7E
100
AcDbEntity
8
1
62
256
6
ByLayer
370
18
48
1
60
0
100
AcDbLine
10
28.271635
20
3.226192
30
0
11
27.648788
21
3.225818
31
0
39
0
210
0
220
0
230
1
0
LINE
5
7F
100
AcDbEntity
8
1
62
256
6
ByLayer
370
18
48
1
60
0
100
AcDbLine
10
27.648788
20
-3.225818
30
0
11
28.271166
21
-3.226191
31
0
39
0
210
0
220
0
230
1
0
LINE
5
80
100
AcDbEntity
8
SK1
62
256
6
ByLayer
370
18
48
1
60
0
100
AcDbLine
10
-35.133975
20
4
30
0
11
-36
21
2.5
31
0
39
0
210
0
220
0
230
1
0
LINE
5
82
100
AcDbEntity
8
SK1
62
256
6
ByLayer
370
18
48
1
60
0
100
AcDbLine
10
-36
20
-2.5
30
0
11
-35.133975
21
-4
31
0
39
0
210
0
220
0
230
1
0
LINE
5
83
100
AcDbEntity
8
SK1
62
256
6
ByLayer
370
18
48
1
60
0
100
AcDbLine
10
0
20
4
30
0
11
-35.133975
21
4
31
0
39
0
210
0
220
0
230
1
0
LINE
5
84
100
AcDbEntity
8
SK1
62
256
6
ByLayer
370
18
48
1
60
0
100
AcDbLine
10
-35.133975
20
-4
30
0
11
0
21
-4
31
0
39
0
210
0
220
0
230
1
0
LINE
5
85
100
AcDbEntity
8
SK4
62
256
6
ByLayer
370
18
48
0.05
60
0
100
AcDbLine
10
74
20
0
30
0
11
-41
21
0
31
0
39
0
210
0
220
0
230
1
0
LINE
5
87
100
AcDbEntity
8
4
62
256
6
ByLayer
370
18
48
0.05
60
0
100
AcDbLine
10
69
20
0
30
0
11
0
21
0
31
0
39
0
210
0
220
0
230
1
0
LINE
5
89
100
AcDbEntity
8
80
62
256
6
ByLayer
370
18
48
1
60
0
100
AcDbLine
10
0
20
0
30
0
11
-5
21
0
31
0
39
0
210
0
220
0
230
1
0
LINE
5
8A
100
AcDbEntity
8
1
62
256
6
ByLayer
370
18
48
1
60
0
100
AcDbLine
10
68.994162
20
0.032369
30
0
11
69
21
0
31
0
39
0
210
0
220
0
230
1
0
LINE
5
8B
100
AcDbEntity
8
1
62
256
6
ByLayer
370
18
48
1
60
0
100
AcDbLine
10
0
20
-4
30
0
11
0
21
4
31
0
39
0
210
0
220
0
230
1
0
LINE
5
8C
100
AcDbEntity
8
1
62
256
6
ByLayer
370
18
48
1
60
0
100
AcDbLine
10
68.925348
20
-0.280372
30
0
11
68.828226
21
-0.696659
31
0
39
0
210
0
220
0
230
1
0
LINE
5
8D
100
AcDbEntity
8
1
62
256
6
ByLayer
370
18
48
1
60
0
100
AcDbLine
10
67.37838
20
-1.716466
30
0
11
68.89509
21
-0.149683
31
0
39
0
210
0
220
0
230
1
0
LINE
5
8E
100
AcDbEntity
8
1
62
256
6
ByLayer
370
18
48
1
60
0
100
AcDbLine
10
69
20
0
30
0
11
68.994162
21
-0.032369
31
0
39
0
210
0
220
0
230
1
0
LINE
5
8F
100
AcDbEntity
8
1
62
256
6
ByLayer
370
18
48
1
60
0
100
AcDbLine
10
68.925348
20
0.280372
30
0
11
68.828226
21
0.696659
31
0
39
0
210
0
220
0
230
1
0
LINE
5
90
100
AcDbEntity
8
1
62
256
6
ByLayer
370
13
48
1
60
0
100
AcDbLine
10
68.033833
20
0.36133
30
0
11
68.89509
21
-0.149683
31
0
39
0
210
0
220
0
230
1
0
LINE
5
91
100
AcDbEntity
8
1
62
256
6
ByLayer
370
13
48
1
60
0
100
AcDbLine
10
1.380266
20
3.210057
30
0
11
1.380266
21
-3.210057
31
0
39
0
210
0
220
0
230
1
0
LINE
5
92
100
AcDbEntity
8
1
62
256
6
ByLayer
370
13
48
1
60
0
100
AcDbLine
10
68.828226
20
0.696659
30
0
11
68.22374
21
0.696659
31
0
39
0
210
0
220
0
230
1
0
LINE
5
93
100
AcDbEntity
8
1
62
256
6
ByLayer
370
13
48
1
60
0
100
AcDbLine
10
0.689893
20
3.605028
30
0
11
0.689893
21
-3.605028
31
0
39
0
210
0
220
0
230
1
0
LINE
5
94
100
AcDbEntity
8
1
62
256
6
ByLayer
370
18
48
1
60
0
100
AcDbLine
10
69
20
0
30
0
11
67.873522
21
-3.094974
31
0
39
0
210
0
220
0
230
1
0
LINE
5
95
100
AcDbEntity
8
1
62
256
6
ByLayer
370
13
48
1
60
0
100
AcDbLine
10
68.22374
20
0.696659
30
0
11
68.925348
21
0.280372
31
0
39
0
210
0
220
0
230
1
0
LINE
5
96
100
AcDbEntity
8
SK1
62
256
6
ByLayer
370
18
48
1
60
0
100
AcDbLine
10
-35.15
20
-0.900298
30
0
11
-35.15
21
0.899702
31
0
39
0
210
0
220
0
230
1
0
LINE
5
97
100
AcDbEntity
8
SK1
62
256
6
ByLayer
370
18
48
1
60
0
100
AcDbLine
10
0
20
-4
30
0
11
0
21
4
31
0
39
0
210
0
220
0
230
1
0
LINE
5
98
100
AcDbEntity
8
SK1
62
256
6
ByLayer
370
18
48
1
60
0
100
AcDbLine
10
-35.133975
20
4
30
0
11
-35.133975
21
-4
31
0
39
0
210
0
220
0
230
1
0
LINE
5
99
100
AcDbEntity
8
SK1
62
256
6
ByLayer
370
18
48
1
60
0
100
AcDbLine
10
-36
20
-0.999824
30
0
11
-36
21
-1.000176
31
0
39
0
210
0
220
0
230
1
0
LINE
5
9A
100
AcDbEntity
8
SK1
62
256
6
ByLayer
370
18
48
1
60
0
100
AcDbLine
10
-36
20
-2.5
30
0
11
-36
21
-1.000176
31
0
39
0
210
0
220
0
230
1
0
LINE
5
9B
100
AcDbEntity
8
SK1
62
256
6
ByLayer
370
18
48
1
60
0
100
AcDbLine
10
-36
20
2.5
30
0
11
-36
21
0.999824
31
0
39
0
210
0
220
0
230
1
0
LINE
5
9C
100
AcDbEntity
8
SK1
62
256
6
ByLayer
370
13
48
1
60
0
100
AcDbLine
10
-35.25
20
-0.999718
30
0
11
-35.25
21
-1.000282
31
0
39
0
210
0
220
0
230
1
0
MTEXT
5
EE
100
AcDbEntity
8
SK6
62
256
6
ByLayer
370
13
48
1
60
0
100
AcDbMText
10
18.629169
20
35.632694
30
0
210
0
220
0
230
1
1
\W0.7542;R840-0650-70-A1A1220
40
3.5
41
0
44
1.084337
50
0
71
8
72
5
7
iso_b_vert
0
DIMENSION
5
FB
100
AcDbEntity
8
SK2
62
256
6
ByLayer
370
13
48
1
60
0
100
AcDbDimension
2
DimnDraft3D1
10
67.9
20
-13.463398
30
0
11
32.650059
21
-13.463398
31
0
70
32
71
5
72
1
41
1
210
0
220
0
230
1
3
Standard
100
AcDbAlignedDimension
13
0
23
-1.5875
33
0
14
67.9
24
-4.8375
34
0
50
0
100
AcDbRotatedDimension
1001
ACAD
1000
DSTYLE
1002
{
1070
   279
1070
     0
1070
   172
1070
     1
1070
   173
1070
     1
1070
   340
1005
EF
1070
   271
1070
     2
1070
   272
1070
     2
1070
    77
1070
     1
1070
    73
1070
     0
1070
   171
1070
     3
1070
   274
1070
     4
1070
   177
1070
    35
1070
   176
1070
    35
1070
   178
1070
    35
1070
    48
1040
-0.005
1070
    41
1041
3.5
1070
   147
1041
1.75
1070
    42
1041
1.5875
1070
    44
1041
2.0
1070
   140
1041
3.5
1070
   343
1005
0
1070
   344
1005
0
1002
}
0
DIMENSION
5
105
100
AcDbEntity
8
SK2
62
256
6
ByLayer
370
13
48
1
60
0
100
AcDbDimension
2
DimnDraft3D2
10
69
20
-32.692985
30
0
11
16.7413
21
-32.692985
31
0
70
32
71
5
72
1
41
1
210
0
220
0
230
1
3
Standard
100
AcDbAlignedDimension
13
-36
23
-5.5875
33
0
14
69
24
-1.5875
34
0
50
0
100
AcDbRotatedDimension
1001
ACAD
1000
DSTYLE
1002
{
1070
   279
1070
     0
1070
   172
1070
     1
1070
   173
1070
     1
1070
   340
1005
EF
1070
   271
1070
     2
1070
   272
1070
     2
1070
    77
1070
     1
1070
    73
1070
     0
1070
   171
1070
     3
1070
   274
1070
     4
1070
   177
1070
    35
1070
   176
1070
    35
1070
   178
1070
    35
1070
    48
1040
-0.005
1070
    41
1041
3.5
1070
   147
1041
1.75
1070
    42
1041
1.5875
1070
    44
1041
2.0
1070
   140
1041
3.5
1070
   343
1005
0
1070
   344
1005
0
1002
}
0
DIMENSION
5
10F
100
AcDbEntity
8
SK2
62
256
6
ByLayer
370
13
48
1
60
0
100
AcDbDimension
2
DimnDraft3D3
10
69
20
14.859119
30
0
11
42.45
21
14.859119
31
0
70
32
71
5
72
1
41
1
210
0
220
0
230
1
3
Standard
100
AcDbAlignedDimension
13
15.9
23
4.8375
33
0
14
69
24
1.5875
34
0
50
0
100
AcDbRotatedDimension
1001
ACAD
1000
DSTYLE
1002
{
1070
   279
1070
     0
1070
   172
1070
     1
1070
   173
1070
     1
1070
   340
1005
EF
1070
   271
1070
     2
1070
   272
1070
     2
1070
    77
1070
     1
1070
    73
1070
     0
1070
   171
1070
     3
1070
   274
1070
     4
1070
   177
1070
    35
1070
   176
1070
    35
1070
   178
1070
    35
1070
    48
1040
-0.005
1070
    41
1041
3.5
1070
   147
1041
1.75
1070
    42
1041
1.5875
1070
    44
1041
2.0
1070
   140
1041
3.5
1070
   343
1005
0
1070
   344
1005
0
1002
}
0
DIMENSION
5
119
100
AcDbEntity
8
SK2
62
256
6
ByLayer
370
13
48
1
60
0
100
AcDbDimension
2
DimnDraft3D4
10
67.9
20
-16.052503
30
0
11
78.981425
21
-16.052503
31
0
70
32
71
5
72
1
41
1
210
0
220
0
230
1
3
Standard
100
AcDbAlignedDimension
13
69
23
-1.5875
33
0
14
67.9
24
-4.8375
34
0
50
0
100
AcDbRotatedDimension
1001
ACAD
1000
DSTYLE
1002
{
1070
   279
1070
     0
1070
   172
1070
     1
1070
   173
1070
     1
1070
   340
1005
EF
1070
   271
1070
     2
1070
   272
1070
     2
1070
    77
1070
     1
1070
    73
1070
     0
1070
   171
1070
     3
1070
   274
1070
     4
1070
   177
1070
    35
1070
   176
1070
    35
1070
   178
1070
    35
1070
    48
1040
-0.005
1070
    41
1041
3.5
1070
   147
1041
1.75
1070
    42
1041
1.5875
1070
    44
1041
2.0
1070
   140
1041
3.5
1070
   343
1005
0
1070
   344
1005
0
1002
}
0
DIMENSION
5
123
100
AcDbEntity
8
SK2
62
256
6
ByLayer
370
13
48
1
60
0
100
AcDbDimension
2
DimnDraft3D5
10
67.9
20
-22.343428
30
0
11
13.660676
21
-22.343428
31
0
70
32
71
5
72
1
41
1
210
0
220
0
230
1
3
Standard
100
AcDbAlignedDimension
13
-36
23
-5.5875
33
0
14
67.9
24
-4.8375
34
0
50
0
100
AcDbRotatedDimension
1001
ACAD
1000
DSTYLE
1002
{
1070
   279
1070
     0
1070
   172
1070
     1
1070
   173
1070
     1
1070
   340
1005
EF
1070
   271
1070
     2
1070
   272
1070
     2
1070
    77
1070
     1
1070
    73
1070
     0
1070
   171
1070
     3
1070
   274
1070
     4
1070
   177
1070
    35
1070
   176
1070
    35
1070
   178
1070
    35
1070
    48
1040
-0.005
1070
    41
1041
3.5
1070
   147
1041
1.75
1070
    42
1041
1.5875
1070
    44
1041
2.0
1070
   140
1041
3.5
1070
   343
1005
0
1070
   344
1005
0
1002
}
0
DIMENSION
5
12E
100
AcDbEntity
8
SK2
62
256
6
ByLayer
370
13
48
1
60
0
100
AcDbDimension
2
DimnDraft3D6
10
-46.625163
20
4
30
0
11
-47.250163
21
22.47418
31
0
70
33
71
5
72
1
41
1
210
0
220
0
230
1
3
Standard
100
AcDbAlignedDimension
13
-37.5875
23
-4
33
0
14
-37.5875
24
4
34
0
1001
ACAD
1000
DSTYLE
1002
{
1070
   279
1070
     0
1070
    74
1070
     0
1070
   173
1070
     1
1070
   340
1005
EF
1070
   271
1070
     3
1070
   272
1070
     2
1070
    77
1070
     1
1070
    73
1070
     0
1070
   171
1070
     3
1070
   274
1070
     4
1070
   177
1070
    35
1070
   176
1070
    35
1070
   178
1070
    35
1070
    48
1040
-0.005
1070
    41
1041
3.5
1070
   147
1041
1.75
1070
    42
1041
1.5875
1070
    44
1041
2.0
1070
   140
1041
3.5
1070
   343
1005
0
1070
   344
1005
0
1002
}
0
DIMENSION
5
139
100
AcDbEntity
8
2
62
256
6
ByLayer
370
13
48
1
60
0
100
AcDbDimension
2
DimnDraft3D7
10
83.083343
20
3.25
30
0
11
78.458343
21
20.317266
31
0
70
33
71
5
72
1
41
1
210
0
220
0
230
1
3
Standard
100
AcDbAlignedDimension
13
69.4875
23
-3.25
33
0
14
69.4875
24
3.25
34
0
1001
ACAD
1000
DSTYLE
1002
{
1070
   279
1070
     0
1070
    74
1070
     0
1070
   173
1070
     1
1070
   340
1005
EF
1070
   271
1070
     3
1070
   272
1070
     2
1070
    77
1070
     1
1070
    73
1070
     0
1070
   171
1070
     3
1070
   274
1070
     4
1070
   177
1070
    35
1070
   176
1070
    35
1070
   178
1070
    35
1070
    48
1040
-0.005
1070
    41
1041
3.5
1070
   147
1041
1.75
1070
    42
1041
1.5875
1070
    44
1041
2.0
1070
   140
1041
3.5
1070
   343
1005
0
1070
   344
1005
0
1002
}
0
ENDSEC
0
SECTION
2
OBJECTS
0
DICTIONARY
5
1a4
330
0
100
AcDbDictionary
280
0
281
1
3
ACAD_GROUP
350
1a5
3
ACAD_MLINESTYLE
350
1a6
0
DICTIONARY
5
1a5
330
0
100
AcDbDictionary
280
0
281
1
0
DICTIONARY
5
1a6
330
0
100
AcDbDictionary
280
0
281
1
3
Standard
350
18
0
MLINESTYLE
5
18
330
1a6
100
AcDbMlineStyle
2
Standard
70
0
3

62
256
51
90
52
90
71
2
49
-0.5
62
256
6
ByLayer
49
0.5
62
256
6
ByLayer
0
RASTERVARIABLES
5
192
330

100
AcDbRasterVariables
90
0
70
1
71
1
72
1
0
ENDSEC
0
EOF
