0
SECTION
2
HEADER
9
$ACADVER
1
AC1015
9
$DWGCODEPAGE
3
ANSI_1252
9
$HANDSEED
5
1b5
9
$ANGBASE
50
0
9
$ANGDIR
70
0
9
$ATTMODE
70
1
9
$AUNITS
70
0
9
$AUPREC
70
0
9
$CECOLOR
62
256
9
$CELTSCALE
40
1
9
$CELTYPE
6
ByLayer
9
$CELWEIGHT
370
18
9
$CLAYER
8
0
9
$CMLJUST
70
0
9
$CMLSCALE
40
1
9
$CMLSTYLE
2
Standard
9
$DIMSTYLE
2
Standard
9
$TEXTSIZE
40
0.2
9
$TEXTSTYLE
7
Standard
9
$LUNITS
70
2
9
$LUPREC
70
4
9
$EXTNAMES
290
1
9
$INSUNITS
70
4
9
$LTSCALE
40
1
9
$LWDISPLAY
290
1
9
$PDMODE
70
0
9
$PDSIZE
40
0
9
$PLINEGEN
70
0
0
ENDSEC
0
SECTION
2
CLASSES
0
CLASS
1
RASTERVARIABLES
2
AcDbRasterVariables
3
ISM
90
0
280
0
281
0
0
ENDSEC
0
SECTION
2
TABLES
0
TABLE
2
VPORT
5
1ab
100
AcDbSymbolTable
0
VPORT
5
1
100
AcDbSymbolTableRecord
100
AcDbViewportTableRecord
2
*Active
70
0
10
0
20
0
11
1
21
1
12
-1
22
1
13
0
23
0
14
0.5
24
0.5
15
10
25
10
16
0
26
0
36
1
17
0
27
0
37
0
0
ENDTAB
0
TABLE
2
LTYPE
5
1ac
100
AcDbSymbolTable
0
LTYPE
5
14
100
AcDbSymbolTableRecord
100
AcDbLinetypeTableRecord
70
0
2
ByBlock
3

72
65
73
0
40
0
0
LTYPE
5
15
100
AcDbSymbolTableRecord
100
AcDbLinetypeTableRecord
70
0
2
ByLayer
3

72
65
73
0
40
0
0
LTYPE
5
16
100
AcDbSymbolTableRecord
100
AcDbLinetypeTableRecord
70
0
2
CONTINUOUS
3
Solid line
72
65
73
0
40
0
0
LTYPE
5
6A
100
AcDbSymbolTableRecord
100
AcDbLinetypeTableRecord
70
0
2
CENTER
3
____ _ ____ _ ____ _ ____
72
65
73
4
40
47.5
49
22
74
0
49
-8.5
74
0
49
8.5
74
0
49
-8.5
74
0
0
LTYPE
5
6B
100
AcDbSymbolTableRecord
100
AcDbLinetypeTableRecord
70
0
2
DASHED
3
__ __ __ __ __ __ __ __ __
72
65
73
2
40
25.72
49
12.86
74
0
49
-12.86
74
0
0
ENDTAB
0
TABLE
2
LAYER
5
1ad
100
AcDbSymbolTable
0
LAYER
5
10
100
AcDbSymbolTableRecord
100
AcDbLayerTableRecord
2
0
70
0
62
7
6
CONTINUOUS
290
1
370
-3
390
0
0
LAYER
5
6D
100
AcDbSymbolTableRecord
100
AcDbLayerTableRecord
2
81
70
0
62
-3
6
CONTINUOUS
290
1
370
-3
390
0
0
LAYER
5
6F
100
AcDbSymbolTableRecord
100
AcDbLayerTableRecord
2
80
70
0
62
-6
6
CONTINUOUS
290
1
370
-3
390
0
0
LAYER
5
74
100
AcDbSymbolTableRecord
100
AcDbLayerTableRecord
2
2
70
0
62
7
6
CONTINUOUS
290
1
370
-3
390
0
0
LAYER
5
78
100
AcDbSymbolTableRecord
100
AcDbLayerTableRecord
2
1
70
0
62
4
6
CONTINUOUS
290
1
370
-3
390
0
0
LAYER
5
88
100
AcDbSymbolTableRecord
100
AcDbLayerTableRecord
2
4
70
0
62
-2
6
CENTER
290
1
370
-3
390
0
0
LAYER
5
197
100
AcDbSymbolTableRecord
100
AcDbLayerTableRecord
2
SK2
70
0
62
7
6
CONTINUOUS
290
1
370
-3
390
0
0
LAYER
5
198
100
AcDbSymbolTableRecord
100
AcDbLayerTableRecord
2
SK1
70
0
62
4
6
CONTINUOUS
290
1
370
-3
390
0
0
LAYER
5
199
100
AcDbSymbolTableRecord
100
AcDbLayerTableRecord
2
SK4
70
0
62
2
6
CENTER
290
1
370
-3
390
0
0
LAYER
5
19a
100
AcDbSymbolTableRecord
100
AcDbLayerTableRecord
2
SK6
70
0
62
5
6
CONTINUOUS
290
1
370
-3
390
0
0
ENDTAB
0
TABLE
2
STYLE
5
1ae
100
AcDbSymbolTable
0
STYLE
5
11
100
AcDbSymbolTableRecord
100
AcDbTextStyleTableRecord
2
Standard
3
txt
70
0
71
0
40
0
41
1
42
0
50
0
0
STYLE
5
F3
100
AcDbSymbolTableRecord
100
AcDbTextStyleTableRecord
2
iso_b_vert
3
simplex.shx
70
0
71
0
40
0
41
1
42
0
50
0
0
STYLE
5
F4
100
AcDbSymbolTableRecord
100
AcDbTextStyleTableRecord
2
DWGDirectTextStyle
3
simplex
70
0
71
0
40
0
41
1
42
0
50
0
0
ENDTAB
0
TABLE
2
DIMSTYLE
5
1af
100
AcDbSymbolTable
100
AcDbDimStyleTable
0
DIMSTYLE
105
27
100
AcDbSymbolTableRecord
100
AcDbDimStyleTableRecord
2
Standard
70
0
3
<>
41
0.18
42
0.0625
44
0.18
140
0.18
147
0.09
73
0
74
0
77
1
271
2
275
0
278
52
280
0
340
11
0
ENDTAB
0
TABLE
2
VIEW
5
1b0
100
AcDbSymbolTable
0
ENDTAB
0
TABLE
2
UCS
5
1b1
100
AcDbSymbolTable
0
ENDTAB
0
TABLE
2
APPID
5
1b2
100
AcDbSymbolTable
0
APPID
5
12
100
AcDbSymbolTableRecord
100
AcDbRegAppTableRecord
2
ACAD
70
0
0
ENDTAB
0
TABLE
2
BLOCK_RECORD
5
1b3
100
AcDbSymbolTable
0
BLOCK_RECORD
5
1F
100
AcDbSymbolTableRecord
100
AcDbBlockTableRecord
2
*Model_Space
340
0
70
0
0
BLOCK_RECORD
5
1B
100
AcDbSymbolTableRecord
100
AcDbBlockTableRecord
2
*Paper_Space
340
0
70
0
0
BLOCK_RECORD
5
23
100
AcDbSymbolTableRecord
100
AcDbBlockTableRecord
2
*Paper_Space0
340
0
70
0
0
BLOCK_RECORD
5
F6
100
AcDbSymbolTableRecord
100
AcDbBlockTableRecord
2
DimnDraft3D1
340
0
70
0
0
BLOCK_RECORD
5
100
100
AcDbSymbolTableRecord
100
AcDbBlockTableRecord
2
DimnDraft3D2
340
0
70
0
0
BLOCK_RECORD
5
10A
100
AcDbSymbolTableRecord
100
AcDbBlockTableRecord
2
DimnDraft3D3
340
0
70
0
0
BLOCK_RECORD
5
114
100
AcDbSymbolTableRecord
100
AcDbBlockTableRecord
2
DimnDraft3D4
340
0
70
0
0
BLOCK_RECORD
5
11E
100
AcDbSymbolTableRecord
100
AcDbBlockTableRecord
2
DimnDraft3D5
340
0
70
0
0
BLOCK_RECORD
5
128
100
AcDbSymbolTableRecord
100
AcDbBlockTableRecord
2
DimnDraft3D6
340
0
70
0
0
BLOCK_RECORD
5
133
100
AcDbSymbolTableRecord
100
AcDbBlockTableRecord
2
DimnDraft3D7
340
0
70
0
0
ENDTAB
0
ENDSEC
0
SECTION
2
BLOCKS
0
BLOCK
5
20
100
AcDbEntity
8
0
100
AcDbBlockBegin
2
*Model_Space
70
0
10
0
20
0
30
0
3
*Model_Space
0
ENDBLK
5
21
100
AcDbEntity
8
0
100
AcDbBlockEnd
0
BLOCK
5
1C
100
AcDbEntity
8
0
100
AcDbBlockBegin
2
*Paper_Space
70
0
10
0
20
0
30
0
3
*Paper_Space
0
ENDBLK
5
1D
100
AcDbEntity
8
0
100
AcDbBlockEnd
0
BLOCK
5
24
100
AcDbEntity
8
0
100
AcDbBlockBegin
2
*Paper_Space0
70
0
10
0
20
0
30
0
3
*Paper_Space0
0
ENDBLK
5
25
100
AcDbEntity
8
0
100
AcDbBlockEnd
0
BLOCK
5
FD
100
AcDbEntity
8
0
100
AcDbBlockBegin
2
DimnDraft3D1
70
0
10
0
20
0
30
0
3
DimnDraft3D1
0
MTEXT
5
F7
100
AcDbEntity
8
SK2
62
256
6
ByLayer
370
13
48
1
60
0
100
AcDbMText
10
21.221375
20
-12.513398
30
0
210
0
220
0
230
1
1
\W0.7317;53,92
40
3.5
41
0
44
1.084337
50
0
71
7
72
5
7
iso_b_vert
0
LINE
5
F8
100
AcDbEntity
8
SK2
62
256
6
ByLayer
370
13
48
1
60
0
100
AcDbLine
10
0
20
-1.5875
30
0
11
0
21
-15.388398
31
0
39
0
210
0
220
0
230
1
0
LINE
5
F9
100
AcDbEntity
8
SK2
62
256
6
ByLayer
370
13
48
1
60
0
100
AcDbLine
10
53.92
20
-4.7625
30
0
11
53.92
21
-15.388398
31
0
39
0
210
0
220
0
230
1
0
LINE
5
FA
100
AcDbEntity
8
SK2
62
256
6
ByLayer
370
13
48
1
60
0
100
AcDbLine
10
0
20
-13.388398
30
0
11
53.92
21
-13.388398
31
0
39
0
210
0
220
0
230
1
0
SOLID
5
FB
100
AcDbEntity
8
SK2
62
256
6
ByLayer
370
13
48
1
60
0
100
AcDbTrace
10
0
20
-13.388398
30
0
11
3.499998
21
-12.927615
31
0
12
3.500002
22
-13.849182
32
0
13
0
23
-13.388398
33
0
39
0
210
0
220
0
230
1
0
SOLID
5
FC
100
AcDbEntity
8
SK2
62
256
6
ByLayer
370
13
48
1
60
0
100
AcDbTrace
10
53.92
20
-13.388398
30
0
11
50.420002
21
-13.849182
31
0
12
50.419998
22
-12.927615
32
0
13
53.92
23
-13.388398
33
0
39
0
210
0
220
0
230
1
0
ENDBLK
5
FE
100
AcDbEntity
8
0
100
AcDbBlockEnd
0
BLOCK
5
107
100
AcDbEntity
8
0
100
AcDbBlockBegin
2
DimnDraft3D2
70
0
10
0
20
0
30
0
3
DimnDraft3D2
0
MTEXT
5
101
100
AcDbEntity
8
SK2
62
256
6
ByLayer
370
13
48
1
60
0
100
AcDbMText
10
5.750116
20
-31.817985
30
0
210
0
220
0
230
1
1
\W0.6713;91,00
40
3.5
41
0
44
1.084337
50
0
71
7
72
5
7
iso_b_vert
0
LINE
5
102
100
AcDbEntity
8
SK2
62
256
6
ByLayer
370
13
48
1
60
0
100
AcDbLine
10
-36
20
-5.5875
30
0
11
-36
21
-34.692985
31
0
39
0
210
0
220
0
230
1
0
LINE
5
103
100
AcDbEntity
8
SK2
62
256
6
ByLayer
370
13
48
1
60
0
100
AcDbLine
10
55
20
-1.5875
30
0
11
55
21
-34.692985
31
0
39
0
210
0
220
0
230
1
0
LINE
5
104
100
AcDbEntity
8
SK2
62
256
6
ByLayer
370
13
48
1
60
0
100
AcDbLine
10
-36
20
-32.692985
30
0
11
55
21
-32.692985
31
0
39
0
210
0
220
0
230
1
0
SOLID
5
105
100
AcDbEntity
8
SK2
62
256
6
ByLayer
370
13
48
1
60
0
100
AcDbTrace
10
-36
20
-32.692985
30
0
11
-32.500002
21
-32.232202
31
0
12
-32.499998
22
-33.153769
32
0
13
-36
23
-32.692985
33
0
39
0
210
0
220
0
230
1
0
SOLID
5
106
100
AcDbEntity
8
SK2
62
256
6
ByLayer
370
13
48
1
60
0
100
AcDbTrace
10
55
20
-32.692985
30
0
11
51.500002
21
-33.153769
31
0
12
51.499998
22
-32.232202
32
0
13
55
23
-32.692985
33
0
39
0
210
0
220
0
230
1
0
ENDBLK
5
108
100
AcDbEntity
8
0
100
AcDbBlockEnd
0
BLOCK
5
111
100
AcDbEntity
8
0
100
AcDbBlockBegin
2
DimnDraft3D3
70
0
10
0
20
0
30
0
3
DimnDraft3D3
0
MTEXT
5
10B
100
AcDbEntity
8
SK2
62
256
6
ByLayer
370
13
48
1
60
0
100
AcDbMText
10
34.136316
20
15.659119
30
0
210
0
220
0
230
1
1
\W0.7317;32,83
40
3.5
41
0
44
1.084337
50
0
71
7
72
5
7
iso_b_vert
0
LINE
5
10C
100
AcDbEntity
8
SK2
62
256
6
ByLayer
370
13
48
1
60
0
100
AcDbLine
10
22.17
20
4.7625
30
0
11
22.17
21
16.784119
31
0
39
0
210
0
220
0
230
1
0
LINE
5
10D
100
AcDbEntity
8
SK2
62
256
6
ByLayer
370
13
48
1
60
0
100
AcDbLine
10
55
20
1.5875
30
0
11
55
21
16.784119
31
0
39
0
210
0
220
0
230
1
0
LINE
5
10E
100
AcDbEntity
8
SK2
62
256
6
ByLayer
370
13
48
1
60
0
100
AcDbLine
10
22.17
20
14.784119
30
0
11
55
21
14.784119
31
0
39
0
210
0
220
0
230
1
0
SOLID
5
10F
100
AcDbEntity
8
SK2
62
256
6
ByLayer
370
13
48
1
60
0
100
AcDbTrace
10
22.17
20
14.784119
30
0
11
25.669998
21
15.244903
31
0
12
25.670002
22
14.323335
32
0
13
22.17
23
14.784119
33
0
39
0
210
0
220
0
230
1
0
SOLID
5
110
100
AcDbEntity
8
SK2
62
256
6
ByLayer
370
13
48
1
60
0
100
AcDbTrace
10
55
20
14.784119
30
0
11
51.500002
21
14.323335
31
0
12
51.499998
22
15.244903
32
0
13
55
23
14.784119
33
0
39
0
210
0
220
0
230
1
0
ENDBLK
5
112
100
AcDbEntity
8
0
100
AcDbBlockEnd
0
BLOCK
5
11B
100
AcDbEntity
8
0
100
AcDbBlockBegin
2
DimnDraft3D4
70
0
10
0
20
0
30
0
3
DimnDraft3D4
0
MTEXT
5
115
100
AcDbEntity
8
SK2
62
256
6
ByLayer
370
13
48
1
60
0
100
AcDbMText
10
62.278136
20
-15.102503
30
0
210
0
220
0
230
1
1
\W0.6367;1,08
40
3.5
41
0
44
1.084337
50
0
71
7
72
5
7
iso_b_vert
0
LINE
5
116
100
AcDbEntity
8
SK2
62
256
6
ByLayer
370
13
48
1
60
0
100
AcDbLine
10
55
20
-1.5875
30
0
11
55
21
-17.977503
31
0
39
0
210
0
220
0
230
1
0
LINE
5
117
100
AcDbEntity
8
SK2
62
256
6
ByLayer
370
13
48
1
60
0
100
AcDbLine
10
53.92
20
-4.7625
30
0
11
53.92
21
-17.977503
31
0
39
0
210
0
220
0
230
1
0
LINE
5
118
100
AcDbEntity
8
SK2
62
256
6
ByLayer
370
13
48
1
60
0
100
AcDbLine
10
45.17
20
-15.977503
30
0
11
68.559715
21
-15.977503
31
0
39
0
210
0
220
0
230
1
0
SOLID
5
119
100
AcDbEntity
8
SK2
62
256
6
ByLayer
370
13
48
1
60
0
100
AcDbTrace
10
55
20
-15.977503
30
0
11
58.499998
21
-15.516719
31
0
12
58.500002
22
-16.438287
32
0
13
55
23
-15.977503
33
0
39
0
210
0
220
0
230
1
0
SOLID
5
11A
100
AcDbEntity
8
SK2
62
256
6
ByLayer
370
13
48
1
60
0
100
AcDbTrace
10
53.92
20
-15.977503
30
0
11
50.420002
21
-16.438287
31
0
12
50.419998
22
-15.516719
32
0
13
53.92
23
-15.977503
33
0
39
0
210
0
220
0
230
1
0
ENDBLK
5
11C
100
AcDbEntity
8
0
100
AcDbBlockEnd
0
BLOCK
5
125
100
AcDbEntity
8
0
100
AcDbBlockBegin
2
DimnDraft3D5
70
0
10
0
20
0
30
0
3
DimnDraft3D5
0
MTEXT
5
11F
100
AcDbEntity
8
SK2
62
256
6
ByLayer
370
13
48
1
60
0
100
AcDbMText
10
2.231992
20
-21.468428
30
0
210
0
220
0
230
1
1
\W0.7317;89,92
40
3.5
41
0
44
1.084337
50
0
71
7
72
5
7
iso_b_vert
0
LINE
5
120
100
AcDbEntity
8
SK2
62
256
6
ByLayer
370
13
48
1
60
0
100
AcDbLine
10
-36
20
-5.5875
30
0
11
-36
21
-24.343428
31
0
39
0
210
0
220
0
230
1
0
LINE
5
121
100
AcDbEntity
8
SK2
62
256
6
ByLayer
370
13
48
1
60
0
100
AcDbLine
10
53.92
20
-4.7625
30
0
11
53.92
21
-24.343428
31
0
39
0
210
0
220
0
230
1
0
LINE
5
122
100
AcDbEntity
8
SK2
62
256
6
ByLayer
370
13
48
1
60
0
100
AcDbLine
10
-36
20
-22.343428
30
0
11
53.92
21
-22.343428
31
0
39
0
210
0
220
0
230
1
0
SOLID
5
123
100
AcDbEntity
8
SK2
62
256
6
ByLayer
370
13
48
1
60
0
100
AcDbTrace
10
-36
20
-22.343428
30
0
11
-32.500002
21
-21.882645
31
0
12
-32.499998
22
-22.804212
32
0
13
-36
23
-22.343428
33
0
39
0
210
0
220
0
230
1
0
SOLID
5
124
100
AcDbEntity
8
SK2
62
256
6
ByLayer
370
13
48
1
60
0
100
AcDbTrace
10
53.92
20
-22.343428
30
0
11
50.420002
21
-22.804212
31
0
12
50.419998
22
-21.882645
32
0
13
53.92
23
-22.343428
33
0
39
0
210
0
220
0
230
1
0
ENDBLK
5
126
100
AcDbEntity
8
0
100
AcDbBlockEnd
0
BLOCK
5
130
100
AcDbEntity
8
0
100
AcDbBlockBegin
2
DimnDraft3D6
70
0
10
0
20
0
30
0
3
DimnDraft3D6
0
MTEXT
5
129
100
AcDbEntity
8
SK2
62
256
6
ByLayer
370
13
48
1
60
0
100
AcDbMText
10
-46.375163
20
23.34918
30
0
210
0
220
0
230
1
1
\W0.7317;8,000
40
3.5
41
0
44
1.084337
50
90
71
7
72
5
7
iso_b_vert
0
MTEXT
5
12A
100
AcDbEntity
8
SK2
62
256
6
ByLayer
370
13
48
1
60
0
100
AcDbMText
10
-46.375163
20
18.126524
30
0
210
0
220
0
230
1
1
%%c
40
3.5
41
0
44
1.084337
50
90
71
7
72
5
7
iso_b_vert
0
LINE
5
12B
100
AcDbEntity
8
SK2
62
256
6
ByLayer
370
13
48
1
60
0
100
AcDbLine
10
-37.5875
20
-4
30
0
11
-46.625163
21
-4
31
0
39
0
210
0
220
0
230
1
0
LINE
5
12C
100
AcDbEntity
8
SK2
62
256
6
ByLayer
370
13
48
1
60
0
100
AcDbLine
10
-37.5875
20
4
30
0
11
-46.625163
21
4
31
0
39
0
210
0
220
0
230
1
0
LINE
5
12D
100
AcDbEntity
8
SK2
62
256
6
ByLayer
370
13
48
1
60
0
100
AcDbLine
10
-44.625163
20
-4
30
0
11
-44.625163
21
33.121549
31
0
39
0
210
0
220
0
230
1
0
SOLID
5
12E
100
AcDbEntity
8
SK2
62
256
6
ByLayer
370
13
48
1
60
0
100
AcDbTrace
10
-44.625163
20
-4
30
0
11
-45.085946
21
-0.500002
31
0
12
-44.164379
22
-0.499998
32
0
13
-44.625163
23
-4
33
0
39
0
210
0
220
0
230
1
0
SOLID
5
12F
100
AcDbEntity
8
SK2
62
256
6
ByLayer
370
13
48
1
60
0
100
AcDbTrace
10
-44.625163
20
4
30
0
11
-44.164379
21
0.500002
31
0
12
-45.085946
22
0.499998
32
0
13
-44.625163
23
4
33
0
39
0
210
0
220
0
230
1
0
ENDBLK
5
131
100
AcDbEntity
8
0
100
AcDbBlockEnd
0
BLOCK
5
13B
100
AcDbEntity
8
0
100
AcDbBlockBegin
2
DimnDraft3D7
70
0
10
0
20
0
30
0
3
DimnDraft3D7
0
MTEXT
5
134
100
AcDbEntity
8
2
62
256
6
ByLayer
370
13
48
1
60
0
100
AcDbMText
10
65.333343
20
21.117266
30
0
210
0
220
0
230
1
1
\W0.7317;6,350
40
3.5
41
0
44
1.084337
50
90
71
7
72
5
7
iso_b_vert
0
MTEXT
5
135
100
AcDbEntity
8
2
62
256
6
ByLayer
370
13
48
1
60
0
100
AcDbMText
10
65.333343
20
15.89461
30
0
210
0
220
0
230
1
1
%%c
40
3.5
41
0
44
1.084337
50
90
71
7
72
5
7
iso_b_vert
0
LINE
5
136
100
AcDbEntity
8
2
62
256
6
ByLayer
370
13
48
1
60
0
100
AcDbLine
10
55.5075
20
-3.175
30
0
11
69.083343
21
-3.175
31
0
39
0
210
0
220
0
230
1
0
LINE
5
137
100
AcDbEntity
8
2
62
256
6
ByLayer
370
13
48
1
60
0
100
AcDbLine
10
55.5075
20
3.175
30
0
11
69.083343
21
3.175
31
0
39
0
210
0
220
0
230
1
0
LINE
5
138
100
AcDbEntity
8
2
62
256
6
ByLayer
370
13
48
1
60
0
100
AcDbLine
10
67.083343
20
30.889635
30
0
11
67.083343
21
-11.925
31
0
39
0
210
0
220
0
230
1
0
SOLID
5
139
100
AcDbEntity
8
2
62
256
6
ByLayer
370
13
48
1
60
0
100
AcDbTrace
10
67.083343
20
-3.175
30
0
11
67.544126
21
-6.674998
31
0
12
66.622559
22
-6.675002
32
0
13
67.083343
23
-3.175
33
0
39
0
210
0
220
0
230
1
0
SOLID
5
13A
100
AcDbEntity
8
2
62
256
6
ByLayer
370
13
48
1
60
0
100
AcDbTrace
10
67.083343
20
3.175
30
0
11
66.622559
21
6.674998
31
0
12
67.544126
22
6.675002
32
0
13
67.083343
23
3.175
33
0
39
0
210
0
220
0
230
1
0
ENDBLK
5
13C
100
AcDbEntity
8
0
100
AcDbBlockEnd
0
ENDSEC
0
SECTION
2
ENTITIES
0
ARC
5
9F
100
AcDbEntity
8
1
62
256
6
ByLayer
370
18
48
1
60
0
100
AcDbCircle
39
0
10
0
20
3.2
30
0
40
0.8
210
0
220
0
230
1
100
AcDbArc
50
27.688546
51
90
0
ARC
5
A0
100
AcDbEntity
8
1
62
256
6
ByLayer
370
18
48
1
60
0
100
AcDbCircle
39
0
10
0
20
-3.2
30
0
40
0.8
210
0
220
0
230
1
100
AcDbArc
50
270
51
332.311454
0
ARC
5
A1
100
AcDbEntity
8
1
62
256
6
ByLayer
370
18
48
1
60
0
100
AcDbCircle
39
0
10
-1.416778
20
3.943464
30
0
40
0.8
210
0
220
0
230
-1
100
AcDbArc
50
269.965623
51
332.311454
0
ARC
5
A2
100
AcDbEntity
8
1
62
256
6
ByLayer
370
18
48
1
60
0
100
AcDbCircle
39
0
10
-1.416778
20
-3.943464
30
0
40
0.8
210
0
220
0
230
-1
100
AcDbArc
50
27.688546
51
90.034377
0
ELLIPSE
5
A3
100
AcDbEntity
8
1
62
256
6
ByLayer
370
18
48
1
60
0
100
AcDbEllipse
10
4.25
20
-3.244805
30
0
11
0.25
21
0
31
0
210
0
220
0
230
1
40
1
41
1.56701654644734
42
2.72743609206289
0
ELLIPSE
5
A4
100
AcDbEntity
8
1
62
256
6
ByLayer
370
18
48
1
60
0
100
AcDbEllipse
10
4.25
20
3.244805
30
0
11
0.25
21
0
31
0
210
0
220
0
230
1
40
1
41
-2.72718572181475
42
-1.5616635902467
0
ELLIPSE
5
A5
100
AcDbEntity
8
1
62
256
6
ByLayer
370
13
48
1
60
0
100
AcDbEllipse
10
54.237412
20
0.475328
30
0
11
0.153082081612418
21
0.258003636193773
31
0
210
0
220
0
230
1
40
0.454519
41
0.917105603404792
42
2.31336900500028
0
ELLIPSE
5
A6
100
AcDbEntity
8
1
62
256
6
ByLayer
370
18
48
1
60
0
100
AcDbEllipse
10
55.047429
20
-0.005281
30
0
11
0.137979128875599
21
-0.428995648163879
31
0
210
0
220
0
230
-1
40
0.08774
41
1.68510124368627
42
2.32337572126643
0
ELLIPSE
5
A7
100
AcDbEntity
8
1
62
256
6
ByLayer
370
18
48
1
60
0
100
AcDbEllipse
10
55.047429
20
0.005281
30
0
11
0.137979128881606
21
0.42899564817916
31
0
210
0
220
0
230
-1
40
0.08774
41
-2.32337572126908
42
-1.68510124370955
0
ELLIPSE
5
A8
100
AcDbEntity
8
1
62
256
6
ByLayer
370
18
48
1
60
0
100
AcDbEllipse
10
54.363968
20
1.630387
30
0
11
0.492324385910125
21
-1.33229389744933
31
0
210
0
220
0
230
-1
40
0.115174
41
-1.49381570467313
42
-0.742863466704711
0
ELLIPSE
5
A9
100
AcDbEntity
8
1
62
256
6
ByLayer
370
13
48
1
60
0
100
AcDbEllipse
10
4.250244
20
0.284224
30
0
11
0.0446464353087842
21
0.0894801420104961
31
0
210
0
220
0
230
1
40
0.042387
41
3.08568138291896
42
-1.65190863511306
0
ELLIPSE
5
AA
100
AcDbEntity
8
1
62
256
6
ByLayer
370
13
48
1
60
0
100
AcDbEllipse
10
54.495601
20
1.50719
30
0
11
1.87502044046613
21
-1.29100489206241
31
0
210
0
220
0
230
-1
40
0.533762
41
1.44484622739555
42
1.68257631352616
0
ELLIPSE
5
AB
100
AcDbEntity
8
1
62
256
6
ByLayer
370
18
48
1
60
0
100
AcDbEllipse
10
55.000285
20
-0.000693
30
0
11
1.17242760291918
21
-3.17274174294509
31
0
210
0
220
0
230
-1
40
0.115174
41
-2.9674473757858
42
-2.85772963206108
0
ELLIPSE
5
AC
100
AcDbEntity
8
1
62
256
6
ByLayer
370
13
48
1
60
0
100
AcDbEllipse
10
4.182519
20
0.31919
30
0
11
0.0474052464798778
21
0.088049659886805
31
0
210
0
220
0
230
1
40
0.369134
41
1.86876843742951
42
-3.07079053721798
0
ELLIPSE
5
AD
100
AcDbEntity
8
1
62
256
6
ByLayer
370
13
48
1
60
0
100
AcDbEllipse
10
54.685508
20
1.630387
30
0
11
1.94461187396185
21
-0.947327849605238
31
0
210
0
220
0
230
-1
40
0.482618
41
1.5661180298616
42
1.8396571897262
0
ELLIPSE
5
AE
100
AcDbEntity
8
1
62
256
6
ByLayer
370
18
48
1
60
0
100
AcDbEllipse
10
55.000285
20
0.000694
30
0
11
1.17242761923416
21
3.17274179089884
31
0
210
0
220
0
230
-1
40
0.115174
41
2.85772963422905
42
2.96744737711152
0
ELLIPSE
5
AF
100
AcDbEntity
8
1
62
256
6
ByLayer
370
18
48
1
60
0
100
AcDbEllipse
10
54.860592
20
0.105575
30
0
11
0.0727819104896229
21
0.301917195731115
31
0
210
0
220
0
230
-1
40
0.478434
41
1.70177227574173
42
2.45976119974404
0
ELLIPSE
5
B0
100
AcDbEntity
8
1
62
256
6
ByLayer
370
18
48
1
60
0
100
AcDbEllipse
10
54.363968
20
-1.630387
30
0
11
0.49232438593022
21
1.33229389749222
31
0
210
0
220
0
230
-1
40
0.115174
41
0.742863466702354
42
1.49381570464948
0
POINT
5
6C
100
AcDbEntity
8
81
62
256
6
ByLayer
370
18
48
1
60
0
100
AcDbPoint
10
55
20
0
30
0
39
0
210
0
220
0
230
1
50
360
0
POINT
5
6E
100
AcDbEntity
8
80
62
256
6
ByLayer
370
18
48
1
60
0
100
AcDbPoint
10
0
20
0
30
0
39
0
210
0
220
0
230
1
50
360
0
POINT
5
70
100
AcDbEntity
8
SK2
62
256
6
ByLayer
370
18
48
1
60
1
100
AcDbPoint
10
-36
20
-4
30
0
39
0
210
0
220
0
230
1
50
360
0
POINT
5
72
100
AcDbEntity
8
SK2
62
256
6
ByLayer
370
18
48
1
60
1
100
AcDbPoint
10
-36
20
4
30
0
39
0
210
0
220
0
230
1
50
360
0
POINT
5
73
100
AcDbEntity
8
2
62
256
6
ByLayer
370
18
48
1
60
1
100
AcDbPoint
10
53.92
20
-3.175
30
0
39
0
210
0
220
0
230
1
50
360
0
POINT
5
75
100
AcDbEntity
8
2
62
256
6
ByLayer
370
18
48
1
60
1
100
AcDbPoint
10
53.92
20
3.175
30
0
39
0
210
0
220
0
230
1
50
360
0
SPLINE
5
B1
100
AcDbEntity
8
1
62
256
6
ByLayer
370
18
48
1
60
0
100
AcDbSpline
70
4
71
2
72
6
73
3
40
0
40
0
40
0
40
1
40
1
40
1
41
1
10
4.2516070366035
20
-2.99387830490147
30
0
41
1
10
4.46259492357655
20
-2.99609256090733
30
0
41
1
10
4.67379691923753
20
-2.99678735639353
30
0
0
SPLINE
5
B2
100
AcDbEntity
8
1
62
256
6
ByLayer
370
18
48
1
60
0
100
AcDbSpline
70
4
71
3
72
14
73
10
40
0
40
0
40
0
40
0
40
0.134985386379292
40
0.260377230142454
40
0.408515797502841
40
0.494524338719062
40
0.597328110051032
40
0.761783999052258
40
1
40
1
40
1
40
1
41
1
10
44.4623208520879
20
-0.902781574412074
30
0
41
1
10
44.4618401082009
20
-0.902756455414846
30
0
41
1
10
44.4668667602066
20
-0.90432591609374
30
0
41
1
10
44.4997950272293
20
-0.914995557599582
30
0
41
1
10
44.5406547017058
20
-0.926927765695893
30
0
41
1
10
44.6015195636908
20
-0.948514604810981
30
0
41
1
10
44.7017693278375
20
-0.988118311590625
30
0
41
1
10
44.9227972626104
20
-1.08165118123685
30
0
41
1
10
45.1117894841685
20
-1.16792325340194
30
0
41
1
10
45.2362553307914
20
-1.22637408253323
30
0
0
SPLINE
5
B3
100
AcDbEntity
8
1
62
256
6
ByLayer
370
18
48
1
60
0
100
AcDbSpline
70
4
71
3
72
22
73
18
40
0
40
0
40
0
40
0
40
0.103433692348006
40
0.190692037269067
40
0.265073632836784
40
0.327673617007834
40
0.386282583362518
40
0.457582610389344
40
0.540473551468636
40
0.597707467426384
40
0.643029684237948
40
0.678977690406581
40
0.725816688615178
40
0.786872521417941
40
0.864429384974331
40
0.938528710680371
40
1
40
1
40
1
40
1
41
1
10
33.8698933810262
20
-3.01111531467834
30
0
41
1
10
34.1877710523758
20
-3.00969656273176
30
0
41
1
10
34.7756227345614
20
-3.00841716757904
30
0
41
1
10
35.6092372072409
20
-3.00809054765372
30
0
41
1
10
36.2992139991098
20
-3.01336102973681
30
0
41
1
10
36.9109884107188
20
-3.01229334423206
30
0
41
1
10
37.5119233706697
20
-3.01375830176872
30
0
41
1
10
38.1766990814813
20
-3.01312653166585
30
0
41
1
10
38.8369404387072
20
-3.01382492902019
30
0
41
1
10
39.416132101704
20
-3.01445676695008
30
0
41
1
10
39.8487179314328
20
-3.01386842906516
30
0
41
1
10
40.2488470957493
20
-3.01445074735418
30
0
41
1
10
40.698104905495
20
-3.01634176285208
30
0
41
1
10
41.2773914422792
20
-3.01502280206921
30
0
41
1
10
41.9414670691975
20
-3.01499596005104
30
0
41
1
10
42.6066158145831
20
-3.01428941026668
30
0
41
1
10
43.0294237748288
20
-3.01549634574801
30
0
41
1
10
43.2210877293697
20
-3.0162357128371
30
0
0
SPLINE
5
B4
100
AcDbEntity
8
1
62
256
6
ByLayer
370
18
48
1
60
0
100
AcDbSpline
70
4
71
3
72
22
73
18
40
0
40
0
40
0
40
0
40
0.0944482521494457
40
0.179170559282131
40
0.254619911919403
40
0.316722745385003
40
0.370281941525112
40
0.430433528556865
40
0.509318262139381
40
0.610665416444316
40
0.696894307183839
40
0.767473973728832
40
0.802174643629537
40
0.831521137009859
40
0.875760384104164
40
0.946787437593195
40
1
40
1
40
1
40
1
41
1
10
14.4656105217907
20
-2.99925740171861
30
0
41
1
10
14.7550315177367
20
-2.99861466364186
30
0
41
1
10
15.3049024698564
20
-2.99812752929458
30
0
41
1
10
16.0981657912324
20
-2.99862168044882
30
0
41
1
10
16.7765728707867
20
-3.00189286933124
30
0
41
1
10
17.3692008816715
20
-3.00119501416347
30
0
41
1
10
17.9130545005133
20
-3.00315447964834
30
0
41
1
10
18.5097145520193
20
-3.00183632422269
30
0
41
1
10
19.2541029635919
20
-3.00444071789016
30
0
41
1
10
20.0793581945044
20
-3.0023270954126
30
0
41
1
10
20.8788525593614
20
-3.00606500661078
30
0
41
1
10
21.4719462714563
20
-3.00426975869004
30
0
41
1
10
21.8887209946052
20
-3.0042118086663
30
0
41
1
10
22.2220672878593
20
-3.00493692937775
30
0
41
1
10
22.6704613850469
20
-3.00627040766671
30
0
41
1
10
23.1920726703915
20
-3.00446349703594
30
0
41
1
10
23.576272368089
20
-3.0056053802073
30
0
41
1
10
23.7407336955586
20
-3.00620502888819
30
0
0
SPLINE
5
B5
100
AcDbEntity
8
1
62
256
6
ByLayer
370
18
48
1
60
0
100
AcDbSpline
70
4
71
3
72
14
73
10
40
0
40
0
40
0
40
0
40
0.0671486421474031
40
0.271418562554119
40
0.455402076949232
40
0.60694482909285
40
0.677585888105221
40
0.769998631912474
40
1
40
1
40
1
40
1
41
1
10
25.059540670437
20
-0.902664059892231
30
0
41
1
10
25.0598896384469
20
-0.902602216113223
30
0
41
1
10
25.0651772109553
20
-0.9031431493041
30
0
41
1
10
25.0865500382888
20
-0.910433481474001
30
0
41
1
10
25.1560667308528
20
-0.932769391467019
30
0
41
1
10
25.2600792214289
20
-0.970485516690218
30
0
41
1
10
25.3696785952083
20
-1.01619771206984
30
0
41
1
10
25.5466077355692
20
-1.09260171007955
30
0
41
1
10
25.7045102419095
20
-1.16529141721864
30
0
41
1
10
25.8295597454153
20
-1.22465575649213
30
0
0
SPLINE
5
B6
100
AcDbEntity
8
1
62
256
6
ByLayer
370
18
48
1
60
0
100
AcDbSpline
70
4
71
3
72
10
73
6
40
0
40
0
40
0
40
0
40
0.0164229812028759
40
0.295187876826836
40
1
40
1
40
1
40
1
41
1
10
13.3573307666283
20
0.354205969179247
30
0
41
1
10
13.3573798996287
20
0.354199590973508
30
0
41
1
10
13.3579647103733
20
0.354214613526949
30
0
41
1
10
13.3409958939031
20
0.362536666552842
30
0
41
1
10
13.310259557659
20
0.377342467447619
30
0
41
1
10
13.2755723559976
20
0.393674603640505
30
0
0
SPLINE
5
B7
100
AcDbEntity
8
1
62
256
6
ByLayer
370
18
48
1
60
0
100
AcDbSpline
70
4
71
3
72
23
73
19
40
0
40
0
40
0
40
0
40
0.0499803641223657
40
0.121148273531416
40
0.183327026007176
40
0.256328757341615
40
0.339281396510877
40
0.417615466646042
40
0.486847727222852
40
0.549054212094493
40
0.604506626413354
40
0.660355350588374
40
0.724467007724331
40
0.800184205705645
40
0.868445369379594
40
0.910298354056615
40
0.956912635315543
40
1
40
1
40
1
40
1
41
1
10
23.8280719507461
20
3.00627464444656
30
0
41
1
10
23.7009251475422
20
3.00576024424896
30
0
41
1
10
23.392617861326
20
3.00489978142966
30
0
41
1
10
22.9243100661318
20
3.00541317320011
30
0
41
1
10
22.3995139541651
20
3.00690721632489
30
0
41
1
10
21.8430285423203
20
3.00342761981534
30
0
41
1
10
21.2454846362074
20
3.00528034388165
30
0
41
1
10
20.6575148479957
20
3.00470478952624
30
0
41
1
10
20.1224677422037
20
3.00302152074073
30
0
41
1
10
19.645782717534
20
3.00390182100759
30
0
41
1
10
19.2032298695003
20
3.00387844789049
30
0
41
1
10
18.7558275423974
20
3.00213727370181
30
0
41
1
10
18.2567318562269
20
3.00256773439543
30
0
41
1
10
17.7260058810785
20
3.0027043962389
30
0
41
1
10
17.2519227098043
20
3.00136747280814
30
0
41
1
10
16.8525884503679
20
3.00132905633529
30
0
41
1
10
16.5170098552567
20
3.00128584378487
30
0
41
1
10
16.2882393235084
20
3.00103056685285
30
0
41
1
10
16.1783552497705
20
3.00090245977904
30
0
0
SPLINE
5
B8
100
AcDbEntity
8
1
62
256
6
ByLayer
370
18
48
1
60
0
100
AcDbSpline
70
4
71
2
72
6
73
3
40
0
40
0
40
0
40
1
40
1
40
1
41
1
10
53.3573228097326
20
-3.02269598130155
30
0
41
1
10
53.6300348501246
20
-3.02114979865186
30
0
41
1
10
53.902501116296
20
-3.0237678021397
30
0
0
SPLINE
5
B9
100
AcDbEntity
8
1
62
256
6
ByLayer
370
18
48
1
60
0
100
AcDbSpline
70
4
71
3
72
22
73
18
40
0
40
0
40
0
40
0
40
0.0507283183018415
40
0.126011500518054
40
0.193144602039629
40
0.267309423227239
40
0.341265668175718
40
0.39645825115558
40
0.439669736295652
40
0.494569338390839
40
0.563540742785933
40
0.665058512103401
40
0.752380716457638
40
0.824159989908536
40
0.900827122282871
40
0.991923369496323
40
1
40
1
40
1
40
1
41
1
10
43.2268100121354
20
3.01597810758625
30
0
41
1
10
43.0977859341224
20
3.01531769070127
30
0
41
1
10
42.7771665168477
20
3.01401610343919
30
0
41
1
10
42.2838275975017
20
3.01564288698751
30
0
41
1
10
41.733156728303
20
3.01415689462451
30
0
41
1
10
41.1839029218525
20
3.01547978111532
30
0
41
1
10
40.665483505215
20
3.01625798498907
30
0
41
1
10
40.2259060174821
20
3.01436472700456
30
0
41
1
10
39.8349468419779
20
3.01388968318773
30
0
41
1
10
39.4088512756406
20
3.01445692099182
30
0
41
1
10
38.8340750613933
20
3.01381823468512
30
0
41
1
10
38.1766990321552
20
3.013127500904
30
0
41
1
10
37.5119233805702
20
3.01375810722189
30
0
41
1
10
36.9109884081169
20
3.01229339535683
30
0
41
1
10
36.2992139999731
20
3.01336101277036
30
0
41
1
10
35.8574358329783
20
3.00998644441384
30
0
41
1
10
35.6055213910365
20
3.00908664955256
30
0
41
1
10
35.5849896874668
20
3.00901961706205
30
0
0
SPLINE
5
BA
100
AcDbEntity
8
1
62
256
6
ByLayer
370
18
48
1
60
0
100
AcDbSpline
70
4
71
2
72
6
73
3
40
0
40
0
40
0
40
1
40
1
40
1
41
1
10
4.66229573518717
20
2.99672180846216
30
0
41
1
10
4.45684724737768
20
2.99603909404311
30
0
41
1
10
4.25160703654257
20
2.99387830490113
30
0
0
SPLINE
5
BB
100
AcDbEntity
8
1
62
256
6
ByLayer
370
18
48
1
60
0
100
AcDbSpline
70
4
71
3
72
8
73
4
40
0
40
0
40
0
40
0
40
1
40
1
40
1
40
1
41
1
10
32.736449197713
20
0.364520351691709
30
0
41
1
10
32.7207145223928
20
0.372281314451584
30
0
41
1
10
32.6974556665602
20
0.383637042066908
30
0
41
1
10
32.6643448821745
20
0.39956529138243
30
0
0
SPLINE
5
BC
100
AcDbEntity
8
1
62
256
6
ByLayer
370
13
48
1
60
0
100
AcDbSpline
70
4
71
3
72
10
73
6
40
0
40
0
40
0
40
0
40
0.5
40
0.5
40
1
40
1
40
1
40
1
41
1
10
4.13753176200314
20
0.310067535732827
30
0
41
1
10
4.10992764592015
20
0.319321006660175
30
0
41
1
10
4.08625663402392
20
0.331471147404926
30
0
41
1
10
4.04646452426374
20
0.360477964681479
30
0
41
1
10
4.03126379465976
20
0.37661996070608
30
0
41
1
10
4.02019558950974
20
0.394280023672934
30
0
0
SPLINE
5
BD
100
AcDbEntity
8
1
62
256
6
ByLayer
370
18
48
1
60
0
100
AcDbSpline
70
4
71
3
72
30
73
26
40
0
40
0
40
0
40
0
40
0.0662679384319052
40
0.0662679384319052
40
0.13253587686381
40
0.13253587686381
40
0.265071753727621
40
0.265071753727621
40
0.331339692159526
40
0.331339692159526
40
0.397607630591432
40
0.397607630591432
40
0.530143507455242
40
0.530143507455242
40
0.662679384319053
40
0.662679384319053
40
0.728947322750959
40
0.728947322750959
40
0.795215261182864
40
0.795215261182864
40
0.927751138046675
40
0.927751138046675
40
0.99401907647858
40
0.99401907647858
40
1
40
1
40
1
40
1
41
1
10
4.02019558950974
20
0.394280023672934
30
0
41
1
10
4.02021718417723
20
0.494515171318284
30
0
41
1
10
4.0202379732587
20
0.593979435616916
30
0
41
1
10
4.02027818330509
20
0.791359677705714
30
0
41
1
10
4.02029750854928
20
0.888817707907435
30
0
41
1
10
4.02035301531163
20
1.17465754954625
30
0
41
1
10
4.02038699177245
20
1.35776756581831
30
0
41
1
10
4.02043500327085
20
1.62117488968968
30
0
41
1
10
4.02045057896584
20
1.70747004115216
30
0
41
1
10
4.02048039842396
20
1.87298478442031
30
0
41
1
10
4.0204946964829
20
1.95249664272964
30
0
41
1
10
4.02053614190345
20
2.1815117321454
30
0
41
1
10
4.02056186631549
20
2.32158299988808
30
0
41
1
10
4.0206108488114
20
2.57554693157289
30
0
41
1
10
4.02063343590115
20
2.68586783911988
30
0
41
1
10
4.02066485951713
20
2.82608744688548
30
0
41
1
10
4.02067492976457
20
2.86866638291832
30
0
41
1
10
4.02069425975367
20
2.94535113838293
30
0
41
1
10
4.02070356365704
20
2.9795908637322
30
0
41
1
10
4.02072967180985
20
3.06752326177642
30
0
41
1
10
4.0207448084922
20
3.10706591846753
30
0
41
1
10
4.02076346945441
20
3.1383340688501
30
0
41
1
10
4.02076900609347
20
3.14405082810595
30
0
41
1
10
4.02077416827299
20
3.14498989409407
30
0
41
1
10
4.02077458868061
20
3.14502772735648
30
0
41
1
10
4.02077500206113
20
3.1450257797668
30
0
0
SPLINE
5
BE
100
AcDbEntity
8
1
62
256
6
ByLayer
370
18
48
1
60
0
100
AcDbSpline
70
4
71
3
72
66
73
62
40
0
40
0
40
0
40
0
40
0.06247461780862
40
0.06247461780862
40
0.09371192671293
40
0.09371192671293
40
0.12494923561724
40
0.12494923561724
40
0.15618654452155
40
0.15618654452155
40
0.18742385342586
40
0.18742385342586
40
0.21866116233017
40
0.21866116233017
40
0.24989847123448
40
0.24989847123448
40
0.28113578013879
40
0.28113578013879
40
0.3123730890431
40
0.3123730890431
40
0.34361039794741
40
0.34361039794741
40
0.37484770685172
40
0.37484770685172
40
0.40608501575603
40
0.40608501575603
40
0.43732232466034
40
0.43732232466034
40
0.499796942468961
40
0.499796942468961
40
0.531034251373271
40
0.531034251373271
40
0.562271560277581
40
0.562271560277581
40
0.593508869181892
40
0.593508869181892
40
0.624746178086202
40
0.624746178086202
40
0.655983486990512
40
0.655983486990512
40
0.687220795894822
40
0.687220795894822
40
0.718458104799133
40
0.718458104799133
40
0.749695413703443
40
0.749695413703443
40
0.780932722607753
40
0.780932722607753
40
0.812170031512064
40
0.812170031512064
40
0.843407340416374
40
0.843407340416374
40
0.874644649320685
40
0.874644649320685
40
0.937119267129304
40
0.937119267129304
40
0.968356576033612
40
0.968356576033612
40
0.999593884937921
40
0.999593884937921
40
1
40
1
40
1
40
1
41
1
10
12.1387896657781
20
3.0541045070695
30
0
41
1
10
12.5779286077908
20
3.10980215426565
30
0
41
1
10
13.0162829585384
20
3.14071504178261
30
0
41
1
10
13.6690973958461
20
3.15278286265337
30
0
41
1
10
13.8860526220583
20
3.15085347470773
30
0
41
1
10
14.3210280086214
20
3.13542229818179
30
0
41
1
10
14.5386584840588
20
3.12196442848293
30
0
41
1
10
14.9737194617691
20
3.08339692047701
30
0
41
1
10
15.1907671683589
20
3.05803917027234
30
0
41
1
10
15.6266299952242
20
2.99621284120519
30
0
41
1
10
15.8454004239813
20
2.95983870376651
30
0
41
1
10
16.2840227378816
20
2.87578255241809
30
0
41
1
10
16.5043041623518
20
2.82782644673267
30
0
41
1
10
16.942481693702
20
2.72101844943396
30
0
41
1
10
17.1612943718145
20
2.66295579689796
30
0
41
1
10
17.598171466768
20
2.53770696262217
30
0
41
1
10
17.8161967713877
20
2.4704828840699
30
0
41
1
10
18.2508307353591
20
2.32600045734455
30
0
41
1
10
18.4676617619705
20
2.24896451617676
30
0
41
1
10
18.9025272212728
20
2.08847018707337
30
0
41
1
10
19.1201848845399
20
2.00452936634002
30
0
41
1
10
19.5554650216056
20
1.82845614385087
30
0
41
1
10
19.7727133168113
20
1.73564282283266
30
0
41
1
10
20.2092758806066
20
1.54508032884308
30
0
41
1
10
20.4284633839745
20
1.44719619845668
30
0
41
1
10
20.8680908708236
20
1.24516905958134
30
0
41
1
10
21.0879990638294
20
1.14086913597413
30
0
41
1
10
21.7433419738265
20
0.822302113171304
30
0
41
1
10
22.1795856955661
20
0.6076055464776
30
0
41
1
10
22.8300137081311
20
0.276249186720378
30
0
41
1
10
23.0464489026667
20
0.164800050007443
30
0
41
1
10
23.4805165224829
20
-0.0561909260655113
30
0
41
1
10
23.6977958386298
20
-0.166436928526338
30
0
41
1
10
24.1323647435247
20
-0.387400745602434
30
0
41
1
10
24.3492907611292
20
-0.498855634846677
30
0
41
1
10
24.7853450315878
20
-0.7178300900176
30
0
41
1
10
25.0042941623931
20
-0.825706546946378
30
0
41
1
10
25.4435014579311
20
-1.03932523009249
30
0
41
1
10
25.6635518327774
20
-1.14538406770748
30
0
41
1
10
26.1006290202462
20
-1.35226489533005
30
0
41
1
10
26.3189609549599
20
-1.45202536981356
30
0
41
1
10
26.7547811053214
20
-1.64535147593972
30
0
41
1
10
26.9722714861554
20
-1.73891491206297
30
0
41
1
10
27.4058051905613
20
-1.92075406699101
30
0
41
1
10
27.6222327641099
20
-2.00834557473903
30
0
41
1
10
28.0561860087705
20
-2.17426562023917
30
0
41
1
10
28.2733771237691
20
-2.25314767664042
30
0
41
1
10
28.7077062829844
20
-2.40336548796935
30
0
41
1
10
28.9244929942877
20
-2.47510001209824
30
0
41
1
10
29.3602721504674
20
-2.60787286968355
30
0
41
1
10
29.5790434678867
20
-2.66926465571291
30
0
41
1
10
30.0178295424861
20
-2.78260545113599
30
0
41
1
10
30.2379402783494
20
-2.83475702993095
30
0
41
1
10
30.8939080495487
20
-2.97416859937113
30
0
41
1
10
31.3303886953263
20
-3.0432549085038
30
0
41
1
10
31.9806788945082
20
-3.11422638295534
30
0
41
1
10
32.1971331598956
20
-3.13207449416169
30
0
41
1
10
32.631028679324
20
-3.15594237277048
30
0
41
1
10
32.8481556769256
20
-3.16210149586661
30
0
41
1
10
33.0680422071943
20
-3.16245153310174
30
0
41
1
10
33.0708641864185
20
-3.16245502213275
30
0
41
1
10
33.0736861011068
20
-3.16245750795161
30
0
0
SPLINE
5
BF
100
AcDbEntity
8
1
62
256
6
ByLayer
370
18
48
1
60
0
100
AcDbSpline
70
4
71
3
72
26
73
22
40
0
40
0
40
0
40
0
40
0.0670674640714538
40
0.0670674640714538
40
0.118897049400819
40
0.118897049400819
40
0.170726634730183
40
0.170726634730183
40
0.378044976047638
40
0.378044976047638
40
0.481704146706365
40
0.481704146706365
40
0.585363317365092
40
0.585363317365092
40
0.689022488023819
40
0.689022488023819
40
0.792681658682546
40
0.792681658682546
40
0.896340829341274
40
0.896340829341274
40
1
40
1
40
1
40
1
41
1
10
47.666249460484
20
2.25483444546441
30
0
41
1
10
47.8072992323548
20
2.30559187362624
30
0
41
1
10
47.9486297713726
20
2.35459558875846
30
0
41
1
10
48.1995621416442
20
2.43851223454666
30
0
41
1
10
48.3090808987957
20
2.47408870368113
30
0
41
1
10
48.528307798068
20
2.54328639788977
30
0
41
1
10
48.6380643439527
20
2.57697966437908
30
0
41
1
10
49.1856185248562
20
2.73813493832441
30
0
41
1
10
49.6224644016854
20
2.84426614946781
30
0
41
1
10
50.2726927551849
20
2.97348916098798
30
0
41
1
10
50.4892284311094
20
3.01091763208251
30
0
41
1
10
50.9229490443461
20
3.07413216490755
30
0
41
1
10
51.1398890988952
20
3.10010849598351
30
0
41
1
10
51.573434857438
20
3.14088359932998
30
0
41
1
10
51.7897748030666
20
3.15565801651445
30
0
41
1
10
52.2246376587881
20
3.17311572468202
30
0
41
1
10
52.4428053198484
20
3.17597739697697
30
0
41
1
10
52.8801359791883
20
3.16989062231193
30
0
41
1
10
53.0993966536493
20
3.16082650954499
30
0
41
1
10
53.5380376289558
20
3.13054657869299
30
0
41
1
10
53.7576307366259
20
3.10960228914149
30
0
41
1
10
53.9771179931884
20
3.0828955802161
30
0
0
SPLINE
5
C0
100
AcDbEntity
8
1
62
256
6
ByLayer
370
18
48
1
60
0
100
AcDbSpline
70
4
71
3
72
16
73
12
40
0
40
0
40
0
40
0
40
0.280977484908551
40
0.280977484908551
40
0.561954969817102
40
0.561954969817102
40
0.702443712271378
40
0.702443712271378
40
0.842932454725653
40
0.842932454725653
40
1
40
1
40
1
40
1
41
1
10
4.2054554723573
20
0.194988996742751
30
0
41
1
10
4.72739315128635
20
-0.0659138159127792
30
0
41
1
10
5.2451066138417
20
-0.326344132317104
30
0
41
1
10
6.27815233429834
20
-0.834586407180922
30
0
41
1
10
6.79349053246966
20
-1.08238181614507
30
0
41
1
10
7.56977607776443
20
-1.43453487866842
30
0
41
1
10
7.82907638640785
20
-1.54868325579182
30
0
41
1
10
8.34954131633774
20
-1.76899640233211
30
0
41
1
10
8.61150318784235
20
-1.8754350687926
30
0
41
1
10
9.1635594874889
20
-2.08848402776644
30
0
41
1
10
9.45362300822481
20
-2.19384498153733
30
0
41
1
10
9.7429111511762
20
-2.29143639046299
30
0
0
SPLINE
5
C1
100
AcDbEntity
8
1
62
256
6
ByLayer
370
13
48
1
60
0
100
AcDbSpline
70
4
71
3
72
16
73
12
40
0
40
0
40
0
40
0
40
0.11311935621004
40
0.11311935621004
40
0.369627932230813
40
0.369627932230813
40
0.4978822202412
40
0.4978822202412
40
0.626136508251588
40
0.626136508251588
40
1
40
1
40
1
40
1
41
1
10
9.74291050426072
20
-2.2914361722259
30
0
41
1
10
9.97112894544432
20
-2.36842571471169
30
0
41
1
10
10.1988648238834
20
-2.44057981998458
30
0
41
1
10
10.9423481781359
20
-2.65947353512317
30
0
41
1
10
11.4572778729908
20
-2.78482818142737
30
0
41
1
10
12.2328743870761
20
-2.92801836745591
30
0
41
1
10
12.491945544774
20
-2.96827982598702
30
0
41
1
10
13.0119674756403
20
-3.03308434323728
30
0
41
1
10
13.2737637663528
20
-3.05767291660294
30
0
41
1
10
14.2944655802328
20
-3.12120628801031
30
0
41
1
10
15.0450973296768
20
-3.09776214444622
30
0
41
1
10
15.7965289894511
20
-3.00750873727102
30
0
0
SPLINE
5
C2
100
AcDbEntity
8
1
62
256
6
ByLayer
370
18
48
1
60
0
100
AcDbSpline
70
4
71
3
72
22
73
18
40
0
40
0
40
0
40
0
40
0.143880428253982
40
0.143880428253982
40
0.306640812667331
40
0.306640812667331
40
0.388021004874006
40
0.388021004874006
40
0.469401197080681
40
0.469401197080681
40
0.632161581494029
40
0.632161581494029
40
0.957682350320728
40
0.957682350320728
40
0.998372446424069
40
0.998372446424069
40
1
40
1
40
1
40
1
41
1
10
38.592188718479
20
2.18422237992098
30
0
41
1
10
39.0524800849407
20
2.01906623824405
30
0
41
1
10
39.5095740043085
20
1.83718723166373
30
0
41
1
10
40.4808392050273
20
1.42086630600758
30
0
41
1
10
40.9952352591075
20
1.1837706433059
30
0
41
1
10
41.7692858585095
20
0.811611459390605
30
0
41
1
10
42.0277600872392
20
0.684899911270918
30
0
41
1
10
42.5463989551782
20
0.427572949618224
30
0
41
1
10
42.8070050333175
20
0.296728089073809
30
0
41
1
10
43.5896481634214
20
-0.0977987053798302
30
0
41
1
10
44.106505059849
20
-0.359733372740834
30
0
41
1
10
45.6519131663824
20
-1.12377005481284
30
0
41
1
10
46.6746367771955
20
-1.60522817026589
30
0
41
1
10
47.8466273209123
20
-2.05825660406217
30
0
41
1
10
47.9773395955044
20
-2.10744501817609
30
0
41
1
10
48.1128470293084
20
-2.15694865242509
30
0
41
1
10
48.1180582094235
20
-2.15885011691589
30
0
41
1
10
48.1232689035211
20
-2.16074911289698
30
0
0
SPLINE
5
C3
100
AcDbEntity
8
1
62
256
6
ByLayer
370
13
48
1
60
0
100
AcDbSpline
70
4
71
3
72
18
73
14
40
0
40
0
40
0
40
0
40
0.064171049878763
40
0.064171049878763
40
0.197860899896085
40
0.197860899896085
40
0.465240599930722
40
0.465240599930722
40
0.732620299965357
40
0.732620299965357
40
0.866310149982679
40
0.866310149982679
40
1
40
1
40
1
40
1
41
1
10
48.1232698431202
20
-2.16074945532634
30
0
41
1
10
48.2483302102648
20
-2.20632670390469
30
0
41
1
10
48.3731106148814
20
-2.25048200639822
30
0
41
1
10
48.757135184276
20
-2.38208939275574
30
0
41
1
10
49.0156110839154
20
-2.4646145688215
30
0
41
1
10
49.7892790152004
20
-2.69168456414525
30
0
41
1
10
50.3025967218481
20
-2.81586280319553
30
0
41
1
10
51.3309181665812
20
-3.00385358698406
30
0
41
1
10
51.8460177215559
20
-3.06768572647059
30
0
41
1
10
52.6246851714919
20
-3.11470154520035
30
0
41
1
10
52.8858310267402
20
-3.12221800968769
30
0
41
1
10
53.4076330735828
20
-3.12035600215043
30
0
41
1
10
53.6682748301635
20
-3.11102777165777
30
0
41
1
10
53.9290130787513
20
-3.0933280579805
30
0
0
SPLINE
5
C4
100
AcDbEntity
8
1
62
256
6
ByLayer
370
18
48
1
60
0
100
AcDbSpline
70
4
71
3
72
14
73
10
40
0
40
0
40
0
40
0
40
0.230773854800319
40
0.230773854800319
40
0.461547709600638
40
0.461547709600638
40
0.923095419201276
40
0.923095419201276
40
1
40
1
40
1
40
1
41
1
10
12.1391661233825
20
3.05415632780489
30
0
41
1
10
11.8738037834712
20
3.02073004577798
30
0
41
1
10
11.6066886193724
20
2.9798211978522
30
0
41
1
10
11.0686784058631
20
2.88591077741046
30
0
41
1
10
10.7972527383769
20
2.83277607472021
30
0
41
1
10
9.98127920991533
20
2.66035386320905
30
0
41
1
10
9.43485958158391
20
2.52806285107761
30
0
41
1
10
8.79133479424303
20
2.3681506565384
30
0
41
1
10
8.69927754297996
20
2.34518113927643
30
0
41
1
10
8.60706402043667
20
2.32214067487087
30
0
0
SPLINE
5
C5
100
AcDbEntity
8
1
62
256
6
ByLayer
370
18
48
1
60
0
100
AcDbSpline
70
4
71
3
72
18
73
14
40
0
40
0
40
0
40
0
40
0.125
40
0.125
40
0.25
40
0.25
40
0.5
40
0.5
40
0.75
40
0.75
40
0.875
40
0.875
40
1
40
1
40
1
40
1
41
1
10
54.5548207727527
20
-1.5844628605191
30
0
41
1
10
54.5313312479575
20
-1.64808049893591
30
0
41
1
10
54.507753213995
20
-1.71152282525131
30
0
41
1
10
54.4605604496486
20
-1.83833479245382
30
0
41
1
10
54.4369352888178
20
-1.90168377351984
30
0
41
1
10
54.3658497130665
20
-2.09131458026741
30
0
41
1
10
54.3181610820144
20
-2.21714437311661
30
0
41
1
10
54.221910357937
20
-2.46707387301052
30
0
41
1
10
54.1736623915023
20
-2.59179577766889
30
0
41
1
10
54.100504421885
20
-2.77732174720617
30
0
41
1
10
54.0759411745971
20
-2.83881263929643
30
0
41
1
10
54.0265688106181
20
-2.9613074244121
30
0
41
1
10
54.001840205196
20
-3.02242661040429
30
0
41
1
10
53.9771179931884
20
-3.08289558021636
30
0
0
SPLINE
5
C6
100
AcDbEntity
8
1
62
256
6
ByLayer
370
18
48
1
60
0
100
AcDbSpline
70
4
71
3
72
40
73
36
40
0
40
0
40
0
40
0
40
0.0769023726179197
40
0.0769023726179197
40
0.11535355892688
40
0.11535355892688
40
0.15380474523584
40
0.15380474523584
40
0.230707117853759
40
0.230707117853759
40
0.269158304162719
40
0.269158304162719
40
0.307609490471679
40
0.307609490471679
40
0.461414235707517
40
0.461414235707517
40
0.499865422016477
40
0.499865422016477
40
0.538316608325437
40
0.538316608325437
40
0.615218980943358
40
0.615218980943358
40
0.692121353561278
40
0.692121353561278
40
0.730572539870239
40
0.730572539870239
40
0.769023726179199
40
0.769023726179199
40
0.92282847141504
40
0.92282847141504
40
0.961279657724001
40
0.961279657724001
40
0.999730844032962
40
0.999730844032962
40
1
40
1
40
1
40
1
41
1
10
53.9089047938667
20
-3.14745724063178
30
0
41
1
10
53.3879652089039
20
-3.18243056122
30
0
41
1
10
52.8679778908833
20
-3.18343665892542
30
0
41
1
10
52.0850650793133
20
-3.13423430022325
30
0
41
1
10
51.824398843943
20
-3.10938184476174
30
0
41
1
10
51.3053757434249
20
-3.04364965011084
30
0
41
1
10
51.0466102316515
20
-3.00276034073045
30
0
41
1
10
50.2715599457955
20
-2.85689026541812
30
0
41
1
10
49.75625690677
20
-2.72884028051519
30
0
41
1
10
48.9802625519445
20
-2.4953969935801
30
0
41
1
10
48.7211185959979
20
-2.41066305842301
30
0
41
1
10
48.2010026940268
20
-2.22822766739694
30
0
41
1
10
47.939355768431
20
-2.13025191182669
30
0
41
1
10
46.6389046016244
20
-1.61635732406953
30
0
41
1
10
45.615443344264
20
-1.12521328551156
30
0
41
1
10
44.3229426157314
20
-0.474542742787634
30
0
41
1
10
44.0637936801778
20
-0.342572499112293
30
0
41
1
10
43.5435158060894
20
-0.0762201085076981
30
0
41
1
10
43.2818373214751
20
0.0584036205424923
30
0
41
1
10
42.5019799113554
20
0.458043250661632
30
0
41
1
10
41.9860084431981
20
0.719962618241425
30
0
41
1
10
40.9555626788556
20
1.22281875201713
30
0
41
1
10
40.4409185308427
20
1.46344604389327
30
0
41
1
10
39.6654592161745
20
1.8000454173
30
0
41
1
10
39.4062695944545
20
1.90797600775033
30
0
41
1
10
38.8856577451714
20
2.11382138041549
30
0
41
1
10
38.6239044530579
20
2.21188872704718
30
0
41
1
10
37.3244697661134
20
2.66873137735732
30
0
41
1
10
36.3003560524285
20
2.92928767632887
30
0
41
1
10
35.0070750499331
20
3.0952176662251
30
0
41
1
10
34.7477588419036
20
3.12042723015003
30
0
41
1
10
34.2268897320731
20
3.15423183979311
30
0
41
1
10
33.9652021945904
20
3.16277651796321
30
0
41
1
10
33.7035190265215
20
3.1628334276237
30
0
41
1
10
33.7017000394086
20
3.16283341130597
30
0
41
1
10
33.6998810981997
20
3.16283298314639
30
0
0
SPLINE
5
C7
100
AcDbEntity
8
1
62
256
6
ByLayer
370
18
48
1
60
0
100
AcDbSpline
70
4
71
3
72
26
73
22
40
0
40
0
40
0
40
0
40
0.0286226028245892
40
0.0286226028245892
40
0.0933810959696171
40
0.0933810959696171
40
0.222898082259673
40
0.222898082259673
40
0.352415068549729
40
0.352415068549729
40
0.417173561694757
40
0.417173561694757
40
0.481932054839785
40
0.481932054839785
40
0.740966027419895
40
0.740966027419895
40
0.805724520564921
40
0.805724520564921
40
0.870483013709948
40
0.870483013709948
40
1
40
1
40
1
40
1
41
1
10
16.1559571573989
20
-3.01028838721786
30
0
41
1
10
16.040850857183
20
-3.02766489851766
30
0
41
1
10
15.9255398335144
20
-3.04350418178168
30
0
41
1
10
15.548533685607
20
-3.09002625972352
30
0
41
1
10
15.2882498201044
20
-3.11389190796535
30
0
41
1
10
14.5099290807988
20
-3.16048469779292
30
0
41
1
10
13.9944311897391
20
-3.1581797940986
30
0
41
1
10
12.9631410951247
20
-3.08822137454041
30
0
41
1
10
12.4475902114518
20
-3.02051089886541
30
0
41
1
10
11.6691666862411
20
-2.87156039649864
30
0
41
1
10
11.4087365197335
20
-2.81398462377845
30
0
41
1
10
10.8858097456352
20
-2.68355981294815
30
0
41
1
10
10.6255743602833
20
-2.61128464601353
30
0
41
1
10
9.32848811002444
20
-2.21760358432454
30
0
41
1
10
8.30354162405442
20
-1.7994744361703
30
0
41
1
10
7.00568594548986
20
-1.19852957288054
30
0
41
1
10
6.74509979596121
20
-1.07433480668928
30
0
41
1
10
6.22214658347644
20
-0.820024723185924
30
0
41
1
10
5.96132391846282
20
-0.690690366449644
30
0
41
1
10
5.17949663003287
20
-0.298741702206399
30
0
41
1
10
4.65907693707805
20
-0.032295766190515
30
0
41
1
10
4.13644974040915
20
0.233393057756956
30
0
0
SPLINE
5
C8
100
AcDbEntity
8
1
62
256
6
ByLayer
370
18
48
1
60
0
100
AcDbSpline
70
4
71
3
72
66
73
62
40
0
40
0
40
0
40
0
40
0.0654021934368215
40
0.0654021934368215
40
0.0981032901552319
40
0.0981032901552319
40
0.130804386873642
40
0.130804386873642
40
0.163505483592053
40
0.163505483592053
40
0.196206580310463
40
0.196206580310463
40
0.228907677028873
40
0.228907677028873
40
0.261608773747284
40
0.261608773747284
40
0.294309870465694
40
0.294309870465694
40
0.327010967184105
40
0.327010967184105
40
0.359712063902515
40
0.359712063902515
40
0.392413160620925
40
0.392413160620925
40
0.425114257339336
40
0.425114257339336
40
0.457815354057746
40
0.457815354057746
40
0.490516450776156
40
0.490516450776156
40
0.523217547494567
40
0.523217547494567
40
0.555918644212977
40
0.555918644212977
40
0.588619740931388
40
0.588619740931388
40
0.621320837649798
40
0.621320837649798
40
0.654021934368208
40
0.654021934368208
40
0.686723031086619
40
0.686723031086619
40
0.719424127805029
40
0.719424127805029
40
0.75212522452344
40
0.75212522452344
40
0.78482632124185
40
0.78482632124185
40
0.817527417960261
40
0.817527417960261
40
0.850228514678671
40
0.850228514678671
40
0.882929611397081
40
0.882929611397081
40
0.915630708115492
40
0.915630708115492
40
0.948331804833902
40
0.948331804833902
40
0.981032901552313
40
0.981032901552313
40
1
40
1
40
1
40
1
41
1
10
7.07004616556506
20
2.71945102502465
30
0
41
1
10
7.53630851415213
20
2.62525679496534
30
0
41
1
10
7.99958001725349
20
2.50767228079477
30
0
41
1
10
8.69092781557003
20
2.30182458274584
30
0
41
1
10
8.92104211357892
20
2.22834807454035
30
0
41
1
10
9.3814464623064
20
2.0726025053452
30
0
41
1
10
9.61161027124427
20
1.99035719230113
30
0
41
1
10
10.0717767539441
20
1.81773920705336
30
0
41
1
10
10.3017910199451
20
1.72720774944693
30
0
41
1
10
10.7633909459473
20
1.53949407686221
30
0
41
1
10
10.9947764290507
20
1.44206598522445
30
0
41
1
10
11.4585383366613
20
1.24069546152998
30
0
41
1
10
11.6912752866479
20
1.13617482006214
30
0
41
1
10
12.156893357083
20
0.923901350392015
30
0
41
1
10
12.3889345471725
20
0.81620821324546
30
0
41
1
10
12.8516477235175
20
0.598040013262249
30
0
41
1
10
13.0821322839534
20
0.487165478638445
30
0
41
1
10
13.542706247439
20
0.264717074105363
30
0
41
1
10
13.7729179862057
20
0.153396613088148
30
0
41
1
10
14.2330687346083
20
-0.0697124752288119
30
0
41
1
10
14.462878641543
20
-0.181777837598446
30
0
41
1
10
14.9227563733938
20
-0.405240808132163
30
0
41
1
10
15.153258839193
20
-0.515719122972882
30
0
41
1
10
15.6151644253864
20
-0.734670572482401
30
0
41
1
10
15.8465019461854
20
-0.843283328896177
30
0
41
1
10
16.310078332482
20
-1.05849822775107
30
0
41
1
10
16.5435455633155
20
-1.16404797555688
30
0
41
1
10
17.0087432174673
20
-1.36832219561685
30
0
41
1
10
17.2405769170577
20
-1.46741344654134
30
0
41
1
10
17.7027046338925
20
-1.66061439358754
30
0
41
1
10
17.9330580524766
20
-1.75361094023424
30
0
41
1
10
18.3937501777636
20
-1.92974912556406
30
0
41
1
10
18.6239137908513
20
-2.01373779970913
30
0
41
1
10
19.083766193408
20
-2.17474027884486
30
0
41
1
10
19.313312414137
20
-2.251923491962
30
0
41
1
10
19.7737916235453
20
-2.39340689268008
30
0
41
1
10
20.0044522998965
20
-2.45906394806735
30
0
41
1
10
20.4663989507481
20
-2.58153075066971
30
0
41
1
10
20.6974017573426
20
-2.63898827462683
30
0
41
1
10
21.1618107365229
20
-2.74016332523513
30
0
41
1
10
21.3957005706202
20
-2.78419611525465
30
0
41
1
10
21.8608365479123
20
-2.86123698873979
30
0
41
1
10
22.0924495810699
20
-2.89473683074064
30
0
41
1
10
22.5544907148577
20
-2.94931088159362
30
0
41
1
10
22.785186753111
20
-2.96878063815288
30
0
41
1
10
23.2460113728953
20
-2.99590435844291
30
0
41
1
10
23.4760932235437
20
-3.00369876328463
30
0
41
1
10
23.9357447686062
20
-3.00824356145773
30
0
41
1
10
24.1657724763548
20
-3.00360436370704
30
0
41
1
10
24.626633501031
20
-2.98079849639032
30
0
41
1
10
24.8573539632172
20
-2.96337286760485
30
0
41
1
10
25.3191439738396
20
-2.91742193938481
30
0
41
1
10
25.5505290162337
20
-2.88816024886069
30
0
41
1
10
26.0157265503601
20
-2.81568617852142
30
0
41
1
10
26.2496488514755
20
-2.77312264403975
30
0
41
1
10
26.7146049772462
20
-2.67801156434888
30
0
41
1
10
26.9460665263065
20
-2.62516416183397
30
0
41
1
10
27.4084049590107
20
-2.50747511876097
30
0
41
1
10
27.6391554580144
20
-2.44321107511416
30
0
41
1
10
28.0031033710521
20
-2.33453501605345
30
0
41
1
10
28.1364943972072
20
-2.29314573639317
30
0
41
1
10
28.2698615593162
20
-2.2501451290874
30
0
0
SPLINE
5
C9
100
AcDbEntity
8
1
62
256
6
ByLayer
370
18
48
1
60
0
100
AcDbSpline
70
4
71
3
72
28
73
24
40
0
40
0
40
0
40
0
40
0.0710236662062999
40
0.0710236662062999
40
0.155476060187547
40
0.155476060187547
40
0.239928454168793
40
0.239928454168793
40
0.32438084815004
40
0.32438084815004
40
0.408833242131286
40
0.408833242131286
40
0.493285636112532
40
0.493285636112532
40
0.662190424075021
40
0.662190424075021
40
0.746642818056266
40
0.746642818056266
40
0.83109521203751
40
0.83109521203751
40
0.915547606018755
40
0.915547606018755
40
1
40
1
40
1
40
1
41
1
10
43.2209928996166
20
3.01538808589518
30
0
41
1
10
43.41412811379
20
3.01552801386231
30
0
41
1
10
43.6071168619272
20
3.01192877061044
30
0
41
1
10
44.0306842716019
20
2.99213736698698
30
0
41
1
10
44.2612610600322
20
2.97425960747199
30
0
41
1
10
44.7233647822442
20
2.92583906086949
30
0
41
1
10
44.9547274194603
20
2.89511749052616
30
0
41
1
10
45.4196126075717
20
2.82190170343071
30
0
41
1
10
45.6531545460116
20
2.77940302538644
30
0
41
1
10
46.1173744146887
20
2.68423248294053
30
0
41
1
10
46.3485134530953
20
2.6314212477366
30
0
41
1
10
46.8097480051616
20
2.51462743563079
30
0
41
1
10
47.0401110869668
20
2.4507355339326
30
0
41
1
10
47.7304031748218
20
2.24369738984566
30
0
41
1
10
48.1890618472209
20
2.08512347567651
30
0
41
1
10
48.8801006904089
20
1.82409682086643
30
0
41
1
10
49.1107690600212
20
1.73314218007769
30
0
41
1
10
49.572709852598
20
1.5432264866233
30
0
41
1
10
49.8042605019071
20
1.44458825450309
30
0
41
1
10
50.2696193122391
20
1.24135311235551
30
0
41
1
10
50.502982651187
20
1.13670568372129
30
0
41
1
10
50.9668718725899
20
0.923452716291166
30
0
41
1
10
51.1979263673343
20
0.81439863165707
30
0
41
1
10
51.4289442825893
20
0.704640247335107
30
0
0
SPLINE
5
CA
100
AcDbEntity
8
1
62
256
6
ByLayer
370
13
48
1
60
0
100
AcDbSpline
70
4
71
3
72
8
73
4
40
0
40
0
40
0
40
0
40
1
40
1
40
1
40
1
41
1
10
4.25040700728209
20
0.275087371778938
30
0
41
1
10
4.21118433182409
20
0.286447365520843
30
0
41
1
10
4.17289264401231
20
0.298213836355757
30
0
41
1
10
4.13753176200314
20
0.310067535732827
30
0
0
SPLINE
5
CB
100
AcDbEntity
8
1
62
256
6
ByLayer
370
18
48
1
60
0
100
AcDbSpline
70
4
71
3
72
8
73
4
40
0
40
0
40
0
40
0
40
1
40
1
40
1
40
1
41
1
10
4.05852849477924
20
0.295154165072262
30
0
41
1
10
4.03495606845286
20
0.323113231926499
30
0
41
1
10
4.02018772752598
20
0.357787350662164
30
0
41
1
10
4.02019558950971
20
0.394280023671513
30
0
0
SPLINE
5
CC
100
AcDbEntity
8
1
62
256
6
ByLayer
370
18
48
1
60
0
100
AcDbSpline
70
4
71
3
72
18
73
14
40
0
40
0
40
0
40
0
40
0.125000000000004
40
0.125000000000004
40
0.250000000000007
40
0.250000000000007
40
0.500000000000005
40
0.500000000000005
40
0.750000000000002
40
0.750000000000002
40
0.875000000000001
40
0.875000000000001
40
1
40
1
40
1
40
1
41
1
10
54.5548207727527
20
1.58446286051907
30
0
41
1
10
54.5313312479576
20
1.64808049893588
30
0
41
1
10
54.507753213995
20
1.71152282525131
30
0
41
1
10
54.4605604496486
20
1.83833479245379
30
0
41
1
10
54.4369352888178
20
1.90168377351981
30
0
41
1
10
54.3658497130666
20
2.09131458026741
30
0
41
1
10
54.3181610820144
20
2.21714437311658
30
0
41
1
10
54.221910357937
20
2.46707387301052
30
0
41
1
10
54.1736623915024
20
2.59179577766886
30
0
41
1
10
54.100504421885
20
2.77732174720617
30
0
41
1
10
54.075941174597
20
2.83881263929643
30
0
41
1
10
54.026568810618
20
2.9613074244121
30
0
41
1
10
54.0018402051959
20
3.02242661040429
30
0
41
1
10
53.9771179931884
20
3.08289558021636
30
0
0
SPLINE
5
CD
100
AcDbEntity
8
1
62
256
6
ByLayer
370
18
48
1
60
0
100
AcDbSpline
70
4
71
3
72
76
73
72
40
0
40
0
40
0
40
0
40
0.0170267525121774
40
0.0170267525121774
40
0.0460812864339801
40
0.0460812864339801
40
0.0751358203557829
40
0.0751358203557829
40
0.104190354277586
40
0.104190354277586
40
0.133244888199388
40
0.133244888199388
40
0.162299422121191
40
0.162299422121191
40
0.191353956042994
40
0.191353956042994
40
0.220408489964796
40
0.220408489964796
40
0.249463023886599
40
0.249463023886599
40
0.307572091730205
40
0.307572091730205
40
0.336626625652007
40
0.336626625652007
40
0.36568115957381
40
0.36568115957381
40
0.394735693495613
40
0.394735693495613
40
0.423790227417415
40
0.423790227417415
40
0.452844761339218
40
0.452844761339218
40
0.481899295261021
40
0.481899295261021
40
0.510953829182824
40
0.510953829182824
40
0.540008363104626
40
0.540008363104626
40
0.569062897026429
40
0.569062897026429
40
0.598117430948232
40
0.598117430948232
40
0.627171964870034
40
0.627171964870034
40
0.656226498791837
40
0.656226498791837
40
0.68528103271364
40
0.68528103271364
40
0.714335566635442
40
0.714335566635442
40
0.743390100557245
40
0.743390100557245
40
0.772444634479048
40
0.772444634479048
40
0.801499168400852
40
0.801499168400852
40
0.830553702322656
40
0.830553702322656
40
0.85960823624446
40
0.85960823624446
40
0.888662770166265
40
0.888662770166265
40
0.917717304088069
40
0.917717304088069
40
0.946771838009873
40
0.946771838009873
40
0.975826371931677
40
0.975826371931677
40
0.990353638892579
40
0.990353638892579
40
1
40
1
40
1
40
1
41
1
10
47.6844138490877
20
-2.25197831293997
30
0
41
1
10
47.5498531308278
20
-2.29586759268804
30
0
41
1
10
47.4154549801468
20
-2.33806086574487
30
0
41
1
10
47.0519181972438
20
-2.44735176056742
30
0
41
1
10
46.8230491044479
20
-2.51101164432393
30
0
41
1
10
46.3661177966442
20
-2.6271949459196
30
0
41
1
10
46.1378031794802
20
-2.67966533342457
30
0
41
1
10
45.6802695944948
20
-2.77418568620408
30
0
41
1
10
45.451220140445
20
-2.816324134669
30
0
41
1
10
44.9926886374375
20
-2.88965393270107
30
0
41
1
10
44.7633064613845
20
-2.92084915382631
30
0
41
1
10
44.3026092983297
20
-2.97060121751423
30
0
41
1
10
44.0714615531942
20
-2.98936330331557
30
0
41
1
10
43.6072511691369
20
-3.01265722374868
30
0
41
1
10
43.3741465745078
20
-3.0164441956062
30
0
41
1
10
42.9099669511209
20
-3.01380501545734
30
0
41
1
10
42.6782955468797
20
-3.00712510099501
30
0
41
1
10
42.2162234593451
20
-2.98069312628351
30
0
41
1
10
41.9860166718188
20
-2.9603270054144
30
0
41
1
10
41.2958656690179
20
-2.88238536187097
30
0
41
1
10
40.8357351577724
20
-2.80920762842214
30
0
41
1
10
40.1452836035635
20
-2.65809074378797
30
0
41
1
10
39.9146036611675
20
-2.60263709246775
30
0
41
1
10
39.4519744533698
20
-2.48196230572066
30
0
41
1
10
39.220057113499
20
-2.41635660186446
30
0
41
1
10
38.7548902134772
20
-2.27234364429452
30
0
41
1
10
38.5214866346205
20
-2.19500979908682
30
0
41
1
10
38.0568627655235
20
-2.03409781423272
30
0
41
1
10
37.8251922841701
20
-1.94979079186228
30
0
41
1
10
37.3634332258291
20
-1.77211956650572
30
0
41
1
10
37.1333501779325
20
-1.6786488115462
30
0
41
1
10
36.6727812927891
20
-1.48761185014925
30
0
41
1
10
36.4425518985196
20
-1.38939788930568
30
0
41
1
10
35.982311557972
20
-1.18654974246155
30
0
41
1
10
35.7524812876756
20
-1.08125065949125
30
0
41
1
10
35.2915554229802
20
-0.868383253777495
30
0
41
1
10
35.0606102889975
20
-0.760469221726424
30
0
41
1
10
34.5976725729729
20
-0.54045790379746
30
0
41
1
10
34.3658375805374
20
-0.427991637433621
30
0
41
1
10
33.9001174287367
20
-0.201355355764179
30
0
41
1
10
33.6663998389192
20
-0.0878142738173437
30
0
41
1
10
33.2017644894043
20
0.138176231163499
30
0
41
1
10
32.9703897907629
20
0.251065268178081
30
0
41
1
10
32.5089456018387
20
0.475216198323892
30
0
41
1
10
32.2783655873839
20
0.585797718446059
30
0
41
1
10
31.8175527040357
20
0.803904293732217
30
0
41
1
10
31.5873716149983
20
0.911419774335485
30
0
41
1
10
31.1274577975183
20
1.12301169079916
30
0
41
1
10
30.8973193146548
20
1.22638827881715
30
0
41
1
10
30.4360623880011
20
1.42796544753284
30
0
41
1
10
30.2050481656228
20
1.52608163042126
30
0
41
1
10
29.7422024118918
20
1.71618154034897
30
0
41
1
10
29.5102387594389
20
1.80792252959822
30
0
41
1
10
29.0441575790683
20
1.98413996023629
30
0
41
1
10
28.8105106266265
20
2.06853171657446
30
0
41
1
10
28.3463985654251
20
2.22693688412124
30
0
41
1
10
28.1156000205832
20
2.30072862192645
30
0
41
1
10
27.6539361315074
20
2.43899829343547
30
0
41
1
10
27.4233403394604
20
2.50340948250073
30
0
41
1
10
26.9628715964001
20
2.62113261879719
30
0
41
1
10
26.7332381582678
20
2.67387759868657
30
0
41
1
10
26.2733149741026
20
2.76857551149101
30
0
41
1
10
26.0430419511937
20
2.81088302836324
30
0
41
1
10
25.581985447298
20
2.88374145943965
30
0
41
1
10
25.3513084223297
20
2.91366194550434
30
0
41
1
10
24.8887244271941
20
2.96073880522584
30
0
41
1
10
24.6565964466221
20
2.97879416294401
30
0
41
1
10
24.3071444904324
20
2.99682578188362
30
0
41
1
10
24.1903155126619
20
3.00130170720527
30
0
41
1
10
23.9966281323894
20
3.00562732201556
30
0
41
1
10
23.9194941192049
20
3.00648089195482
30
0
41
1
10
23.8424728395887
20
3.00657560843018
30
0
0
SPLINE
5
CE
100
AcDbEntity
8
1
62
256
6
ByLayer
370
18
48
1
60
0
100
AcDbSpline
70
4
71
3
72
10
73
6
40
0
40
0
40
0
40
0
40
0.0970564561220593
40
0.0970564561220593
40
1
40
1
40
1
40
1
41
1
10
8.61622839397992
20
-2.32331577235425
30
0
41
1
10
8.56629834469186
20
-2.33866063425114
30
0
41
1
10
8.51637596820743
20
-2.35377647495918
30
0
41
1
10
8.00204686378132
20
-2.50711778365869
30
0
41
1
10
7.53669521254221
20
-2.625178674231
30
0
41
1
10
7.07004616556461
20
-2.71945102502488
30
0
0
SPLINE
5
CF
100
AcDbEntity
8
1
62
256
6
ByLayer
370
18
48
1
60
0
100
AcDbSpline
70
4
71
3
72
12
73
8
40
0
40
0
40
0
40
0
40
0.25
40
0.25
40
0.5
40
0.5
40
1
40
1
40
1
40
1
41
1
10
4.25164225550202
20
-2.98700407559932
30
0
41
1
10
4.47884318608789
20
-2.99873633120663
30
0
41
1
10
4.70907068212142
20
-2.99964977033409
30
0
41
1
10
5.17425876211195
20
-2.98358094257975
30
0
41
1
10
5.40969327801008
20
-2.96653151424988
30
0
41
1
10
6.11924210359612
20
-2.89336031096928
30
0
41
1
10
6.593177955172
20
-2.81507896697247
30
0
41
1
10
7.07001430663797
20
-2.71947393880194
30
0
0
SPLINE
5
D0
100
AcDbEntity
8
1
62
256
6
ByLayer
370
18
48
1
60
0
100
AcDbSpline
70
4
71
3
72
65
73
61
40
0
40
0
40
0
40
0
40
0.0624999999999948
40
0.0624999999999948
40
0.124999999999989
40
0.124999999999989
40
0.249999999999979
40
0.249999999999979
40
0.374999999999969
40
0.374999999999969
40
0.499999999999958
40
0.499999999999958
40
0.562499999999952
40
0.562499999999952
40
0.624999999999946
40
0.624999999999946
40
0.656249999999944
40
0.656249999999944
40
0.664062499999943
40
0.664062499999943
40
0.667968749999943
40
0.667968749999943
40
0.671874999999942
40
0.671874999999942
40
0.673828124999943
40
0.673828124999943
40
0.675781249999943
40
0.675781249999943
40
0.679687499999944
40
0.687499999999946
40
0.687499999999946
40
0.718749999999953
40
0.718749999999953
40
0.734374999999956
40
0.734374999999956
40
0.749999999999959
40
0.749999999999959
40
0.757812499999961
40
0.757812499999961
40
0.765624999999962
40
0.765624999999962
40
0.781249999999964
40
0.781249999999964
40
0.789062499999966
40
0.789062499999966
40
0.796874999999967
40
0.796874999999967
40
0.804687499999968
40
0.804687499999968
40
0.812499999999969
40
0.812499999999969
40
0.843749999999974
40
0.843749999999974
40
0.874999999999979
40
0.874999999999979
40
0.906249999999984
40
0.906249999999984
40
0.937499999999989
40
0.937499999999989
40
1
40
1
40
1
40
1
41
1
10
12.1391661233825
20
-3.05415632780495
30
0
41
1
10
11.8738037834721
20
-3.02073004577815
30
0
41
1
10
11.6066886193742
20
-2.97982119785249
30
0
41
1
10
11.0686784058667
20
-2.88591077741111
30
0
41
1
10
10.7972527383814
20
-2.83277607472112
30
0
41
1
10
9.98127920992238
20
-2.66035386321067
30
0
41
1
10
9.43485958159275
20
-2.52806285107977
30
0
41
1
10
8.33163317894474
20
-2.25391745902741
30
0
41
1
10
7.77477329571747
20
-2.11216164860684
30
0
41
1
10
6.64597477723876
20
-1.84482268474531
30
0
41
1
10
6.07402756407643
20
-1.7193800549839
30
0
41
1
10
5.2027852813838
20
-1.56000240016459
30
0
41
1
10
4.90978011684359
20
-1.51157691180242
30
0
41
1
10
4.32107020885292
20
-1.42666981453144
30
0
41
1
10
4.02577472680812
20
-1.39022828375076
30
0
41
1
10
3.58134809621339
20
-1.34566949419275
30
0
41
1
10
3.43295881852245
20
-1.33249747500852
30
0
41
1
10
3.24715615058557
20
-1.31822943767472
30
0
41
1
10
3.20998065459204
20
-1.31548573274981
30
0
41
1
10
3.15420917758794
20
-1.31153765238662
30
0
41
1
10
3.13561667661847
20
-1.31024948831276
30
0
41
1
10
3.09842764709248
20
-1.30772913390015
30
0
41
1
10
3.07947062029848
20
-1.30772068930966
30
0
41
1
10
3.05197463030896
20
-1.31151124236283
30
0
41
1
10
3.04297546657796
20
-1.31335180837652
30
0
41
1
10
3.02548612852968
20
-1.31879627692456
30
0
41
1
10
3.01711220963875
20
-1.32281117150489
30
0
41
1
10
2.99182943010277
20
-1.33421997557412
30
0
41
1
10
2.94144899849769
20
-1.35730427117164
30
0
41
1
10
2.89164960390107
20
-1.38122092836042
30
0
41
1
10
2.72708103682558
20
-1.46296700590514
30
0
41
1
10
2.6003021743725
20
-1.53448441716171
30
0
41
1
10
2.42483157425397
20
-1.65391152135012
30
0
41
1
10
2.36871211954377
20
-1.69582241732104
30
0
41
1
10
2.26298912005606
20
-1.78524405945151
30
0
41
1
10
2.21365563580093
20
-1.83263877077502
30
0
41
1
10
2.14910970803891
20
-1.90664427088072
30
0
41
1
10
2.12907950431241
20
-1.93188147160791
30
0
41
1
10
2.09249035406611
20
-1.98364796725943
30
0
41
1
10
2.0759645435918
20
-2.01019577805332
30
0
41
1
10
2.03362417612004
20
-2.08966642959575
30
0
41
1
10
2.01448077742447
20
-2.14312036756425
30
0
41
1
10
2.00117494701638
20
-2.22380832618626
30
0
41
1
10
1.99939554062379
20
-2.25059516516637
30
0
41
1
10
2.0009718376042
20
-2.30245726119512
30
0
41
1
10
2.00428434518722
20
-2.32775449243996
30
0
41
1
10
2.01556560895585
20
-2.37713277308387
30
0
41
1
10
2.02360717649987
20
-2.40136220594897
30
0
41
1
10
2.0436277567392
20
-2.44780965132176
30
0
41
1
10
2.05555500345406
20
-2.4700141001133
30
0
41
1
10
2.12325746431796
20
-2.57664816500082
30
0
41
1
10
2.20353739618125
20
-2.64867809134844
30
0
41
1
10
2.38379542788394
20
-2.76988210546247
30
0
41
1
10
2.48486082464478
20
-2.82015597472812
30
0
41
1
10
2.70012786765088
20
-2.90725268358571
30
0
41
1
10
2.81234372355118
20
-2.94314165192216
30
0
41
1
10
3.04231688553807
20
-3.00436772815121
30
0
41
1
10
3.16017172896883
20
-3.0296443546797
30
0
41
1
10
3.51987471814954
20
-3.09308145096057
30
0
41
1
10
3.76773930508404
20
-3.1190200234777
30
0
41
1
10
4.02078526036243
20
-3.1329680728777
30
0
0
SPLINE
5
D1
100
AcDbEntity
8
1
62
256
6
ByLayer
370
18
48
1
60
0
100
AcDbSpline
70
2053
71
3
72
62
73
58
40
0
40
0
40
0
40
0
40
0.0312500000000014
40
0.0312500000000014
40
0.0625000000000028
40
0.0625000000000028
40
0.0937500000000042
40
0.0937500000000042
40
0.125000000000006
40
0.125000000000006
40
0.156250000000007
40
0.156250000000007
40
0.187500000000008
40
0.187500000000008
40
0.21875000000001
40
0.21875000000001
40
0.250000000000011
40
0.250000000000011
40
0.281250000000012
40
0.281250000000012
40
0.312500000000014
40
0.312500000000014
40
0.375000000000017
40
0.375000000000017
40
0.437500000000019
40
0.437500000000019
40
0.468750000000018
40
0.468750000000018
40
0.500000000000018
40
0.500000000000018
40
0.531250000000017
40
0.531250000000017
40
0.562500000000015
40
0.562500000000015
40
0.593750000000014
40
0.593750000000014
40
0.625000000000013
40
0.625000000000013
40
0.656250000000012
40
0.656250000000012
40
0.687500000000011
40
0.687500000000011
40
0.71875000000001
40
0.71875000000001
40
0.750000000000009
40
0.750000000000009
40
0.781250000000008
40
0.781250000000008
40
0.812500000000007
40
0.812500000000007
40
0.875000000000005
40
0.875000000000005
40
0.937500000000002
40
0.937500000000002
40
0.968750000000001
40
0.968750000000001
40
1
40
1
40
1
40
1
41
1
10
54.1883794227087
20
-1.8026857179578
30
0
41
1
10
54.2082168565969
20
-1.77379389785605
30
0
41
1
10
54.2276099734434
20
-1.74291754725505
30
0
41
1
10
54.265439218314
20
-1.67689048037622
30
0
41
1
10
54.2840753925113
20
-1.64131671861341
30
0
41
1
10
54.3191173969876
20
-1.56728943684479
30
0
41
1
10
54.3354603336982
20
-1.52906724445498
30
0
41
1
10
54.3654573592257
20
-1.44986442978012
30
0
41
1
10
54.378824407357
20
-1.40949886375233
30
0
41
1
10
54.4009974529937
20
-1.33049054190198
30
0
41
1
10
54.4100803109959
20
-1.29072096986235
30
0
41
1
10
54.4227991243254
20
-1.21609059738006
30
0
41
1
10
54.4265620884424
20
-1.18093483326845
30
0
41
1
10
54.4288903556185
20
-1.1159758372971
30
0
41
1
10
54.427449825218
20
-1.08717886829638
30
0
41
1
10
54.4199465871731
20
-1.03611986215222
30
0
41
1
10
54.4138933683384
20
-1.01427863704623
30
0
41
1
10
54.3981354580517
20
-0.978132588547965
30
0
41
1
10
54.388289967428
20
-0.963566710345788
30
0
41
1
10
54.3658664668498
20
-0.94170724973813
30
0
41
1
10
54.3532573381193
20
-0.93425704076256
30
0
41
1
10
54.3116071587346
20
-0.921425302959136
30
0
41
1
10
54.279729515948
20
-0.925672771936945
30
0
41
1
10
54.2096999686312
20
-0.956813051944835
30
0
41
1
10
54.1726468214817
20
-0.98319045481378
30
0
41
1
10
54.1144985977423
20
-1.03867169786343
30
0
41
1
10
54.0946502891927
20
-1.05994657577071
30
0
41
1
10
54.0553560872776
20
-1.10680750281884
30
0
41
1
10
54.0357413342425
20
-1.13253880210314
30
0
41
1
10
53.9965825690642
20
-1.18903304292985
30
0
41
1
10
53.9768196694349
20
-1.22018019199211
30
0
41
1
10
53.9386338526067
20
-1.28639088329834
30
0
41
1
10
53.9202389207422
20
-1.32132156484451
30
0
41
1
10
53.8850419632411
20
-1.39534866805096
30
0
41
1
10
53.8683357794974
20
-1.43437694116392
30
0
41
1
10
53.8386336825723
20
-1.51274664663762
30
0
41
1
10
53.8252842071489
20
-1.55293789482653
30
0
41
1
10
53.802777256392
20
-1.63329687051646
30
0
41
1
10
53.7939668629646
20
-1.67210886577576
30
0
41
1
10
53.7812160114042
20
-1.74700695493613
30
0
41
1
10
53.7774118868471
20
-1.78276237014583
30
0
41
1
10
53.7750402986647
20
-1.84731903724432
30
0
41
1
10
53.7764415980831
20
-1.87690654470606
30
0
41
1
10
53.7837685274791
20
-1.92809459232319
30
0
41
1
10
53.7897156093396
20
-1.95021846837773
30
0
41
1
10
53.8053715491242
20
-1.9870499371398
30
0
41
1
10
53.8149703898185
20
-2.00165383932844
30
0
41
1
10
53.8372950754335
20
-2.02413070920784
30
0
41
1
10
53.8500167879665
20
-2.03189645226433
30
0
41
1
10
53.8912906585159
20
-2.04522366441157
30
0
41
1
10
53.9237071769011
20
-2.04107780481203
30
0
41
1
10
53.9932438914387
20
-2.01010402210952
30
0
41
1
10
54.0312251395356
20
-1.98285790255429
30
0
41
1
10
54.0891711089953
20
-1.92703791621614
30
0
41
1
10
54.1087245884807
20
-1.90591956575884
30
0
41
1
10
54.1483418722698
20
-1.85830078288149
30
0
41
1
10
54.1685419888204
20
-1.83157753805955
30
0
41
1
10
54.1883794227087
20
-1.8026857179578
30
0
0
SPLINE
5
D2
100
AcDbEntity
8
1
62
256
6
ByLayer
370
18
48
1
60
0
100
AcDbSpline
70
4
71
3
72
22
73
18
40
0
40
0
40
0
40
0
40
0.125000000000001
40
0.125000000000001
40
0.187500000000002
40
0.187500000000002
40
0.250000000000003
40
0.250000000000003
40
0.500000000000002
40
0.500000000000002
40
0.625000000000002
40
0.625000000000002
40
0.750000000000001
40
0.750000000000001
40
0.875000000000001
40
0.875000000000001
40
1
40
1
40
1
40
1
41
1
10
53.8997344418199
20
-3.02295477649139
30
0
41
1
10
53.8542676928285
20
-3.02292065060917
30
0
41
1
10
53.8110612508154
20
-3.01605811936932
30
0
41
1
10
53.7498213850724
20
-2.99497993654447
30
0
41
1
10
53.7300046343219
20
-2.98615173007207
30
0
41
1
10
53.6916159588975
20
-2.96473468765006
30
0
41
1
10
53.6730145237422
20
-2.95210451155643
30
0
41
1
10
53.5845439320049
20
-2.88021891096017
30
0
41
1
10
53.5270088018974
20
-2.794711453367
30
0
41
1
10
53.4618274409071
20
-2.62178895584452
30
0
41
1
10
53.443588567163
20
-2.55599075577382
30
0
41
1
10
53.4157075186065
20
-2.4125718339279
30
0
41
1
10
53.4058964657261
20
-2.33477338601563
30
0
41
1
10
53.3944862752415
20
-2.16706785921667
30
0
41
1
10
53.392885972952
20
-2.0771624976814
30
0
41
1
10
53.3982426132149
20
-1.88473394838388
30
0
41
1
10
53.4052072885851
20
-1.78337934912622
30
0
41
1
10
53.4162327922726
20
-1.67849125485537
30
0
0
SPLINE
5
D3
100
AcDbEntity
8
1
62
256
6
ByLayer
370
18
48
1
60
0
100
AcDbSpline
70
4
71
3
72
30
73
26
40
0
40
0
40
0
40
0
40
0.250000000000012
40
0.250000000000012
40
0.375000000000023
40
0.375000000000023
40
0.500000000000034
40
0.500000000000034
40
0.625000000000045
40
0.625000000000045
40
0.68750000000005
40
0.68750000000005
40
0.718750000000048
40
0.718750000000048
40
0.750000000000047
40
0.750000000000047
40
0.812500000000035
40
0.812500000000035
40
0.875000000000023
40
0.875000000000023
40
0.937500000000012
40
0.937500000000012
40
0.968750000000006
40
0.968750000000006
40
1
40
1
40
1
40
1
41
1
10
51.4289442825893
20
0.704640247335135
30
0
41
1
10
51.649097788673
20
0.582702643507588
30
0
41
1
10
51.8694456213501
20
0.47240576945515
30
0
41
1
10
52.2004420568979
20
0.335395566261241
30
0
41
1
10
52.3108532670536
20
0.294461721039227
30
0
41
1
10
52.5318621298778
20
0.223762480955486
30
0
41
1
10
52.6429788601108
20
0.193902956992332
30
0
41
1
10
52.8619036549039
20
0.148070006268227
30
0
41
1
10
52.969859932256
20
0.131982721866706
30
0
41
1
10
53.1292953379785
20
0.119183042501646
30
0
41
1
10
53.1820517639435
20
0.116803387902422
30
0
41
1
10
53.2604327083734
20
0.116249536380337
30
0
41
1
10
53.2865207904274
20
0.11624769964601
30
0
41
1
10
53.3375870390677
20
0.119454153757005
30
0
41
1
10
53.3625991417504
20
0.122490931060838
30
0
41
1
10
53.4350264516953
20
0.137052539991828
30
0
41
1
10
53.4805941352175
20
0.154373296469998
30
0
41
1
10
53.5567027557807
20
0.209898846089516
30
0
41
1
10
53.5880260219117
20
0.248784576512889
30
0
41
1
10
53.6286160438483
20
0.343706403245051
30
0
41
1
10
53.6383255389429
20
0.401454923539745
30
0
41
1
10
53.6353598234251
20
0.494032731397567
30
0
41
1
10
53.6314704420653
20
0.526444867915785
30
0
41
1
10
53.6194149820968
20
0.591359211927056
30
0
41
1
10
53.6113137171036
20
0.62394608967108
30
0
41
1
10
53.6016590685109
20
0.656630136146703
30
0
0
SPLINE
5
D4
100
AcDbEntity
8
1
62
256
6
ByLayer
370
18
48
1
60
0
100
AcDbSpline
70
4
71
3
72
10
73
6
40
0
40
0
40
0
40
0
40
0.955112492500045
40
0.955112492500045
40
1
40
1
40
1
40
1
41
1
10
53.9089047938671
20
3.14745724063178
30
0
41
1
10
53.6483883102911
20
3.16494703553624
30
0
41
1
10
53.3879753555388
20
3.17393859793114
30
0
41
1
10
53.1150546563994
20
3.17447479443084
30
0
41
1
10
53.1028024596108
20
3.17448006971333
30
0
41
1
10
53.0905488976118
20
3.17446655834948
30
0
0
SPLINE
5
D5
100
AcDbEntity
8
1
62
256
6
ByLayer
370
18
48
1
60
0
100
AcDbSpline
70
4
71
3
72
42
73
38
40
0
40
0
40
0
40
0
40
0.016891533065495
40
0.016891533065495
40
0.0898576120069077
40
0.0898576120069077
40
0.126340651477614
40
0.126340651477614
40
0.16282369094832
40
0.16282369094832
40
0.308755848831142
40
0.308755848831142
40
0.345238888301848
40
0.345238888301848
40
0.381721927772553
40
0.381721927772553
40
0.454688006713961
40
0.454688006713961
40
0.52765408565537
40
0.52765408565537
40
0.564137125126075
40
0.564137125126075
40
0.60062016459678
40
0.60062016459678
40
0.746552322479599
40
0.746552322479599
40
0.783035361950304
40
0.783035361950304
40
0.801276881685656
40
0.801276881685656
40
0.819518401421008
40
0.819518401421008
40
0.892484480362417
40
0.892484480362417
40
0.965450559303827
40
0.965450559303827
40
1
40
1
40
1
40
1
41
1
10
35.5861601568073
20
-3.01682417281333
30
0
41
1
10
35.4664182164163
20
-3.03524186753791
30
0
41
1
10
35.346801229923
20
-3.05194012448265
30
0
41
1
10
34.710936108995
20
-3.13155831709514
30
0
41
1
10
34.196080368561
20
-3.16380557187705
30
0
41
1
10
33.4212513285181
20
-3.16231369942881
30
0
41
1
10
33.1624957288038
20
-3.15350857347991
30
0
41
1
10
32.6432355678366
20
-3.1191692660376
30
0
41
1
10
32.3823296301132
20
-3.09357525404877
30
0
41
1
10
31.0759051130627
20
-2.92405930992427
30
0
41
1
10
30.0497597345313
20
-2.65944115897872
30
0
41
1
10
28.7578241867941
20
-2.20445035545177
30
0
41
1
10
28.4989469012411
20
-2.10730287778296
30
0
41
1
10
27.9794394771138
20
-1.90165933096978
30
0
41
1
10
27.7182455347569
20
-1.79289755255101
30
0
41
1
10
26.9345674146173
20
-1.45307750414736
30
0
41
1
10
26.4168284591138
20
-1.21069425736434
30
0
41
1
10
25.3840718272604
20
-0.707264435293808
30
0
41
1
10
24.8690497770277
20
-0.446226300634549
30
0
41
1
10
24.0936443526262
20
-0.0503143793117715
30
0
41
1
10
23.8346769661098
20
0.0823406201554633
30
0
41
1
10
23.314873964555
20
0.347285640898065
30
0
41
1
10
23.0533920722841
20
0.479988317340116
30
0
41
1
10
21.7477214785094
20
1.1350593820361
30
0
41
1
10
20.7214853673055
20
1.62208514213418
30
0
41
1
10
19.4285664940177
20
2.12757681571276
30
0
41
1
10
19.1695128152027
20
2.22357977153303
30
0
41
1
10
18.7795429036376
20
2.35880756129799
30
0
41
1
10
18.6493132889571
20
2.40240993136624
30
0
41
1
10
18.3882748615624
20
2.48650564375492
30
0
41
1
10
18.2572871114707
20
2.52704819900683
30
0
41
1
10
17.6044250708551
20
2.72048511795649
30
0
41
1
10
17.0868423021764
20
2.84638115674963
30
0
41
1
10
16.0538466382363
20
3.03565021457672
30
0
41
1
10
15.5386912150486
20
3.09921416590907
30
0
41
1
10
14.7763804296898
20
3.14438178308643
30
0
41
1
10
14.5309941356953
20
3.15154303479829
30
0
41
1
10
14.2847726904123
20
3.15118001236553
30
0
0
SPLINE
5
D6
100
AcDbEntity
8
1
62
256
6
ByLayer
370
18
48
1
60
0
100
AcDbSpline
70
4
71
3
72
16
73
12
40
0
40
0
40
0
40
0
40
0.120781267838144
40
0.120781267838144
40
0.277317100277059
40
0.277317100277059
40
0.433852932715974
40
0.433852932715974
40
0.746924597593806
40
0.746924597593806
40
1
40
1
40
1
40
1
41
1
10
12.1389751965627
20
3.05417439249493
30
0
41
1
10
12.0387815204448
20
3.01643416891534
30
0
41
1
10
11.9384878293822
20
2.97774472673353
30
0
41
1
10
11.7078902387233
20
2.88665913343266
30
0
41
1
10
11.5774844588344
20
2.8336060390609
30
0
41
1
10
11.3159174240915
20
2.72426116454895
30
0
41
1
10
11.1844613610124
20
2.66783479872143
30
0
41
1
10
10.791846619744
20
2.49553674168627
30
0
41
1
10
10.5318656192518
20
2.37632467379481
30
0
41
1
10
10.0626279812513
20
2.15777961333313
30
0
41
1
10
9.85319184363212
20
2.05902918382819
30
0
41
1
10
9.64310406409356
20
1.96133412625315
30
0
0
SPLINE
5
D7
100
AcDbEntity
8
1
62
256
6
ByLayer
370
18
48
1
60
0
100
AcDbSpline
70
4
71
3
72
16
73
12
40
0
40
0
40
0
40
0
40
0.25
40
0.25
40
0.500000000000001
40
0.500000000000001
40
0.625000000000001
40
0.625000000000001
40
0.75
40
0.75
40
1
40
1
40
1
40
1
41
1
10
53.6016590685109
20
0.656630136146703
30
0
41
1
10
53.5927482669205
20
0.686796024684242
30
0
41
1
10
53.5872034825925
20
0.717779217066948
30
0
41
1
10
53.5840363549785
20
0.781744070207282
30
0
41
1
10
53.5864693792171
20
0.814616216073318
30
0
41
1
10
53.5989896191851
20
0.862384177046664
30
0
41
1
10
53.6044928595303
20
0.878293808841306
30
0
41
1
10
53.6197320838698
20
0.907700645518077
30
0
41
1
10
53.6297266806205
20
0.921120090737674
30
0
41
1
10
53.6652075707365
20
0.955255988784614
30
0
41
1
10
53.6961502925327
20
0.969683482499477
30
0
41
1
10
53.7281812773577
20
0.977240669129486
30
0
0
SPLINE
5
D8
100
AcDbEntity
8
1
62
256
6
ByLayer
370
13
48
1
60
0
100
AcDbSpline
70
4
71
3
72
30
73
26
40
0
40
0
40
0
40
0
40
0.133171574393668
40
0.133171574393668
40
0.199757361590503
40
0.199757361590503
40
0.266343148787337
40
0.266343148787337
40
0.399514723181005
40
0.399514723181005
40
0.466100510377839
40
0.466100510377839
40
0.532686297574674
40
0.532686297574674
40
0.665857871968342
40
0.665857871968342
40
0.732443659165177
40
0.732443659165177
40
0.799029446362011
40
0.799029446362011
40
0.932201020755679
40
0.932201020755679
40
0.998786807952514
40
0.998786807952514
40
1
40
1
40
1
40
1
41
1
10
4.25040700728203
20
0.275087371778938
30
0
41
1
10
4.25049840498727
20
0.469409118212383
30
0
41
1
10
4.25058223639599
20
0.659783056219226
30
0
41
1
10
4.2507001577319
20
0.939492198314468
30
0
41
1
10
4.25073821002911
20
1.03190552121285
30
0
41
1
10
4.25081089665878
20
1.21140411992192
30
0
41
1
10
4.25084571350703
20
1.29891499440097
30
0
41
1
10
4.25094651159111
20
1.55485464423001
30
0
41
1
10
4.25100902332161
20
1.71712253891838
30
0
41
1
10
4.251097900546
20
1.9456413748072
30
0
41
1
10
4.25112641461561
20
2.01857840479585
30
0
41
1
10
4.25118165398754
20
2.15802636580318
30
0
41
1
10
4.25120847734448
20
2.22477154854028
30
0
41
1
10
4.25128565326258
20
2.41262379602085
30
0
41
1
10
4.25133300005922
20
2.5220217249234
30
0
41
1
10
4.25139898824301
20
2.66281559577519
30
0
41
1
10
4.25142012569373
20
2.70583618631696
30
0
41
1
10
4.25146062990288
20
2.78379517910156
30
0
41
1
10
4.25147974621635
20
2.81824019533022
30
0
41
1
10
4.25153319756134
20
2.90762810897189
30
0
41
1
10
4.25156392524326
20
2.94914286383079
30
0
41
1
10
4.2516010787534
20
2.98429971380895
30
0
41
1
10
4.25161197499125
20
2.99147410646077
30
0
41
1
10
4.2516212053406
20
2.9939347575577
30
0
41
1
10
4.25162136986546
20
2.99397720703055
30
0
41
1
10
4.25162153374669
20
2.99401807612085
30
0
0
SPLINE
5
D9
100
AcDbEntity
8
1
62
256
6
ByLayer
370
18
48
1
60
0
100
AcDbSpline
70
4
71
3
72
14
73
10
40
0
40
0
40
0
40
0
40
0.25
40
0.25
40
0.5
40
0.5
40
0.75
40
0.75
40
1
40
1
40
1
40
1
41
1
10
4.02078526035945
20
-3.1329680728775
30
0
41
1
10
4.03042711064808
20
-3.11022027635534
30
0
41
1
10
4.04384553214959
20
-3.08808508416328
30
0
41
1
10
4.07666321234009
20
-3.04956516770483
30
0
41
1
10
4.09653396172874
20
-3.03270795893033
30
0
41
1
10
4.13901530630164
20
-3.00714708417999
30
0
41
1
10
4.16194962936407
20
-2.99814237718692
30
0
41
1
10
4.20721913427991
20
-2.98759877404231
30
0
41
1
10
4.22984948462377
20
-2.98587873531949
30
0
41
1
10
4.25164225484522
20
-2.98700407556538
30
0
0
SPLINE
5
DA
100
AcDbEntity
8
1
62
256
6
ByLayer
370
18
48
1
60
0
100
AcDbSpline
70
4
71
3
72
22
73
18
40
0
40
0
40
0
40
0
40
0.249999999999984
40
0.249999999999984
40
0.499999999999968
40
0.499999999999968
40
0.624999999999976
40
0.624999999999976
40
0.749999999999984
40
0.749999999999984
40
0.812499999999988
40
0.812499999999988
40
0.874999999999992
40
0.874999999999992
40
0.937499999999996
40
0.937499999999996
40
1
40
1
40
1
40
1
41
1
10
53.7281812773578
20
0.977240669129458
30
0
41
1
10
53.818816518655
20
0.998624570919446
30
0
41
1
10
53.9085213879798
20
1.02276540213035
30
0
41
1
10
54.0847760979669
20
1.08071334842364
30
0
41
1
10
54.171844517677
20
1.1144735343033
30
0
41
1
10
54.2946552883013
20
1.17891217428431
30
0
41
1
10
54.3346030898667
20
1.20295388757424
30
0
41
1
10
54.4088894126622
20
1.25774952034973
30
0
41
1
10
54.4432282578011
20
1.28833067075908
30
0
41
1
10
54.4876547216568
20
1.34240652356016
30
0
41
1
10
54.5009138984578
20
1.36143764074015
30
0
41
1
10
54.5236632692681
20
1.40174881838237
30
0
41
1
10
54.5332481825398
20
1.42331886237614
30
0
41
1
10
54.5475452711457
20
1.46784612301309
30
0
41
1
10
54.5522585981521
20
1.49060575036549
30
0
41
1
10
54.5569907209211
20
1.53709946523765
30
0
41
1
10
54.5569540247011
20
1.56102029809304
30
0
41
1
10
54.5548207727527
20
1.58446286051907
30
0
0
SPLINE
5
DB
100
AcDbEntity
8
1
62
256
6
ByLayer
370
18
48
1
60
0
100
AcDbSpline
70
4
71
3
72
14
73
10
40
0
40
0
40
0
40
0
40
0.0204274888743496
40
0.0204274888743496
40
0.388070791127681
40
0.388070791127681
40
0.755714093381012
40
0.755714093381012
40
1
40
1
40
1
40
1
41
1
10
8.09019490178065
20
-2.19794305777643
30
0
41
1
10
8.08334484445783
20
-2.20184833366886
30
0
41
1
10
8.07649154525558
20
-2.20574861966313
30
0
41
1
10
7.94623302541532
20
-2.27974679184803
30
0
41
1
10
7.8217648997807
20
-2.34822759433573
30
0
41
1
10
7.57013256402286
20
-2.48081360857614
30
0
41
1
10
7.44476192436005
20
-2.54397232057968
30
0
41
1
10
7.23632458132158
20
-2.64385314603581
30
0
41
1
10
7.15316965076622
20
-2.68232503908089
30
0
41
1
10
7.07002418083181
20
-2.71946084424096
30
0
0
SPLINE
5
DC
100
AcDbEntity
8
1
62
256
6
ByLayer
370
18
48
1
60
0
100
AcDbSpline
70
4
71
3
72
8
73
4
40
0
40
0
40
0
40
0
40
1
40
1
40
1
40
1
41
1
10
4.13644974040864
20
0.233393057757212
30
0
41
1
10
4.1064197594427
20
0.2486594472158
30
0
41
1
10
4.08000909879303
20
0.2696761919793
30
0
41
1
10
4.05852849478055
20
0.295154165070727
30
0
0
SPLINE
5
DD
100
AcDbEntity
8
1
62
256
6
ByLayer
370
18
48
1
60
0
100
AcDbSpline
70
4
71
3
72
14
73
10
40
0
40
0
40
0
40
0
40
0.0350531061641886
40
0.0350531061641886
40
0.231982178152005
40
0.231982178152005
40
0.428911250139821
40
0.428911250139821
40
1
40
1
40
1
40
1
41
1
10
33.9186809503667
20
-3.01114085364418
30
0
41
1
10
33.8723572688884
20
-3.01111880136395
30
0
41
1
10
33.826001475278
20
-3.01084249335509
30
0
41
1
10
33.5189916750383
20
-3.00732310170611
30
0
41
1
10
33.2582783027706
20
-2.99626657650634
30
0
41
1
10
32.739543676638
20
-2.95848957923079
30
0
41
1
10
32.4809760809844
20
-2.93174920763337
30
0
41
1
10
31.4743712451308
20
-2.79806731129818
30
0
41
1
10
30.7293181621936
20
-2.63508136528287
30
0
41
1
10
29.9785171222148
20
-2.41694977082653
30
0
0
SPLINE
5
DE
100
AcDbEntity
8
1
62
256
6
ByLayer
370
13
48
1
60
0
100
AcDbSpline
70
4
71
3
72
22
73
18
40
0
40
0
40
0
40
0
40
0.0868692637442756
40
0.0868692637442756
40
0.24480932662745
40
0.24480932662745
40
0.323779358069035
40
0.323779358069035
40
0.402749389510619
40
0.402749389510619
40
0.718629515276963
40
0.718629515276963
40
0.797599546718548
40
0.797599546718548
40
0.876569578160133
40
0.876569578160133
40
1
40
1
40
1
40
1
41
1
10
29.9785171221777
20
-2.41694977081579
30
0
41
1
10
29.6937204405418
20
-2.3342072718664
30
0
41
1
10
29.408096705352
20
-2.24353005729739
30
0
41
1
10
28.5994255063821
20
-1.96692588183436
30
0
41
1
10
28.0788750320866
20
-1.76603995104196
30
0
41
1
10
27.2974938456052
20
-1.43948660992632
30
0
41
1
10
27.036279298039
20
-1.32622765951189
30
0
41
1
10
26.5150549913947
20
-1.09382073050307
30
0
41
1
10
26.2554346000843
20
-0.974791503004752
30
0
41
1
10
24.9602025315897
20
-0.369809795474367
30
0
41
1
10
23.9329492889762
20
0.145174221400055
30
0
41
1
10
22.6300014399754
20
0.764842095322763
30
0
41
1
10
22.3689044548595
20
0.887239430042285
30
0
41
1
10
21.8496961602601
20
1.12495363612751
30
0
41
1
10
21.5909845824519
20
1.24078743170813
30
0
41
1
10
20.9291747052956
20
1.52812273988013
30
0
41
1
10
20.5266909933708
20
1.69403978450583
30
0
41
1
10
20.1239169732797
20
1.84822380922631
30
0
0
SPLINE
5
DF
100
AcDbEntity
8
1
62
256
6
ByLayer
370
18
48
1
60
0
100
AcDbSpline
70
4
71
3
72
8
73
4
40
0
40
0
40
0
40
0
40
1
40
1
40
1
40
1
41
1
10
4.02077492279784
20
-3.14502566629929
30
0
41
1
10
4.02077912511584
20
-3.14505744226008
30
0
41
1
10
4.02078260502157
20
-3.14099514379444
30
0
41
1
10
4.02078526035945
20
-3.1329680728775
30
0
0
SPLINE
5
E0
100
AcDbEntity
8
1
62
256
6
ByLayer
370
18
48
1
60
0
100
AcDbSpline
70
4
71
3
72
8
73
4
40
0
40
0
40
0
40
0
40
1
40
1
40
1
40
1
41
1
10
53.945536068719
20
-3.00735298818478
30
0
41
1
10
53.9284559668435
20
-3.0177381544332
30
0
41
1
10
53.9131779444336
20
-3.02296967518072
30
0
41
1
10
53.8997344418244
20
-3.02295477649142
30
0
0
SPLINE
5
E1
100
AcDbEntity
8
1
62
256
6
ByLayer
370
18
48
1
60
0
100
AcDbSpline
70
4
71
3
72
18
73
14
40
0
40
0
40
0
40
0
40
0.249999999999998
40
0.249999999999998
40
0.374999999999997
40
0.374999999999997
40
0.499999999999995
40
0.499999999999995
40
0.624999999999994
40
0.624999999999994
40
0.749999999999993
40
0.749999999999993
40
1
40
1
40
1
40
1
41
1
10
51.4289442825891
20
0.704640247334936
30
0
41
1
10
51.52657458591
20
0.461069288088225
30
0
41
1
10
51.6526214377686
20
0.227543746660444
30
0
41
1
10
51.872955078451
20
-0.111692781966042
30
0
41
1
10
51.9509633491659
20
-0.221631116582472
30
0
41
1
10
52.1124315047232
20
-0.433251195720999
30
0
41
1
10
52.1962525403416
20
-0.535469757183051
30
0
41
1
10
52.3692119494996
20
-0.733720497355591
30
0
41
1
10
52.4583553079236
20
-0.829746876472001
30
0
41
1
10
52.641418314787
20
-1.01624272660428
30
0
41
1
10
52.7355405641596
20
-1.10686763412704
30
0
41
1
10
53.0210168817563
20
-1.36793281917613
30
0
41
1
10
53.216439371679
20
-1.52883704198621
30
0
41
1
10
53.4162327922727
20
-1.67849125485537
30
0
0
SPLINE
5
E2
100
AcDbEntity
8
1
62
256
6
ByLayer
370
18
48
1
60
0
100
AcDbSpline
70
4
71
3
72
16
73
12
40
0
40
0
40
0
40
0
40
0.0450297492487047
40
0.0450297492487047
40
0.231875808249264
40
0.231875808249264
40
0.605567926250384
40
0.605567926250384
40
0.979260044251504
40
0.979260044251504
40
1
40
1
40
1
40
1
41
1
10
53.3523199437375
20
-3.02270416073372
30
0
41
1
10
53.2895186379391
20
-3.02284422569665
30
0
41
1
10
53.2267077931025
20
-3.02251279832373
30
0
41
1
10
52.9031975892581
20
-3.01837793523407
30
0
41
1
10
52.6424036670923
20
-3.00688524909853
30
0
41
1
10
51.8644792254867
20
-2.94895022777305
30
0
41
1
10
51.3496282443755
20
-2.87908811404893
30
0
41
1
10
50.321529905389
20
-2.68179841836769
30
0
41
1
10
49.8082367728424
20
-2.55430436979987
30
0
41
1
10
49.2639331644321
20
-2.39257528313812
30
0
41
1
10
49.2353057646346
20
-2.3839916164159
30
0
41
1
10
49.2066708939066
20
-2.37532891671074
30
0
0
SPLINE
5
E3
100
AcDbEntity
8
1
62
256
6
ByLayer
370
13
48
1
60
0
100
AcDbSpline
70
4
71
3
72
22
73
18
40
0
40
0
40
0
40
0
40
0.070521997535208
40
0.070521997535208
40
0.149849349475202
40
0.149849349475202
40
0.467158757235183
40
0.467158757235183
40
0.625813461115175
40
0.625813461115175
40
0.705140813055171
40
0.705140813055171
40
0.784468164995167
40
0.784468164995167
40
0.943122868875159
40
0.943122868875159
40
1
40
1
40
1
40
1
41
1
10
49.2066708939192
20
-2.37532891671461
30
0
41
1
10
48.977334493614
20
-2.30594943928779
30
0
41
1
10
48.7475188785029
20
-2.23150047615249
30
0
41
1
10
48.2575800524673
20
-2.06321635421114
30
0
41
1
10
47.9964232523715
20
-1.96780823126136
30
0
41
1
10
46.6956879545211
20
-1.467782048082
30
0
41
1
10
45.672903662041
20
-0.994701989874869
30
0
41
1
10
44.1278444943657
20
-0.250436756112066
30
0
41
1
10
43.6111027930354
20
0.0035973045626179
30
0
41
1
10
42.8289563703175
20
0.384474285648451
30
0
41
1
10
42.5687473993096
20
0.510455846296225
30
0
41
1
10
42.0505290102269
20
0.757853466195655
30
0
41
1
10
41.792199543617
20
0.879406234624128
30
0
41
1
10
41.018522105244
20
1.23579045632891
30
0
41
1
10
40.5042325947204
20
1.46178945569963
30
0
41
1
10
39.8040414779062
20
1.74643677199404
30
0
41
1
10
39.619049554097
20
1.81929454043697
30
0
41
1
10
39.4337243614711
20
1.88968895247601
30
0
0
SPLINE
5
E4
100
AcDbEntity
8
1
62
256
6
ByLayer
370
18
48
1
60
0
100
AcDbSpline
70
4
71
3
72
14
73
10
40
0
40
0
40
0
40
0
40
0.237860570025607
40
0.237860570025607
40
0.436748691587961
40
0.436748691587961
40
0.635636813150315
40
0.635636813150315
40
1
40
1
40
1
40
1
41
1
10
14.5041233320984
20
-2.99923341742286
30
0
41
1
10
14.1949028551153
20
-2.9987395199322
30
0
41
1
10
13.8848516765726
20
-2.98697219834085
30
0
41
1
10
13.312811129085
20
-2.94425557727814
30
0
41
1
10
13.0513045942942
20
-2.91674538434825
30
0
41
1
10
12.5316728396217
20
-2.84681825088839
30
0
41
1
10
12.2727550134098
20
-2.80433086690729
30
0
41
1
10
11.5409299895919
20
-2.66375970047778
30
0
41
1
10
11.0692019565847
20
-2.54887124726693
30
0
41
1
10
10.5968707058618
20
-2.41263919205542
30
0
0
SPLINE
5
E5
100
AcDbEntity
8
1
62
256
6
ByLayer
370
13
48
1
60
0
100
AcDbSpline
70
4
71
3
72
16
73
12
40
0
40
0
40
0
40
0
40
0.0205679811197965
40
0.0205679811197965
40
0.265425985839844
40
0.265425985839844
40
0.387854988199869
40
0.387854988199869
40
0.510283990559894
40
0.510283990559894
40
1
40
1
40
1
40
1
41
1
10
10.5968707053439
20
-2.41263919190601
30
0
41
1
10
10.5535566956756
20
-2.40014635653213
30
0
41
1
10
10.5102376133269
20
-2.38747403493017
30
0
41
1
10
9.95112465474082
20
-2.22164981359
30
0
41
1
10
9.43432691861145
20
-2.04354488809381
30
0
41
1
10
8.65302450811953
20
-1.74457817774822
30
0
41
1
10
8.39134922134539
20
-1.63948658318006
30
0
41
1
10
7.8713157308494
20
-1.42248029248651
30
0
41
1
10
7.61219667505355
20
-1.31030120043619
30
0
41
1
10
6.31915430995844
20
-0.734870613110502
30
0
41
1
10
5.29293490468632
20
-0.228105896918464
30
0
41
1
10
4.25040700728203
20
0.275087371778938
30
0
0
SPLINE
5
E6
100
AcDbEntity
8
1
62
256
6
ByLayer
370
18
48
1
60
0
100
AcDbSpline
70
4
71
3
72
8
73
4
40
0
40
0
40
0
40
0
40
1
40
1
40
1
40
1
41
1
10
53.9089047938676
20
-3.14745724061157
30
0
41
1
10
53.9156135218993
20
-3.12942007667789
30
0
41
1
10
53.9223163525485
20
-3.11137682352941
30
0
41
1
10
53.9290130787648
20
-3.0933280579863
30
0
0
SPLINE
5
E7
100
AcDbEntity
8
1
62
256
6
ByLayer
370
18
48
1
60
0
100
AcDbSpline
70
4
71
3
72
12
73
8
40
0
40
0
40
0
40
0
40
0.587654455753462
40
0.587654455753462
40
0.881481683630196
40
0.881481683630196
40
1
40
1
40
1
40
1
41
1
10
7.07001430761906
20
2.71947393860512
30
0
41
1
10
6.59225559005728
20
2.81526389992644
30
0
41
1
10
6.11885653382376
20
2.89331717759671
30
0
41
1
10
5.4129492319511
20
2.96623692679984
30
0
41
1
10
5.17834993994836
20
2.98336694943416
30
0
41
1
10
4.85014161184651
20
2.99480551082328
30
0
41
1
10
4.7562444696336
20
2.99662028537057
30
0
41
1
10
4.66283181951891
20
2.99684354391425
30
0
0
SPLINE
5
E8
100
AcDbEntity
8
1
62
256
6
ByLayer
370
18
48
1
60
0
100
AcDbSpline
70
4
71
3
72
10
73
6
40
0
40
0
40
0
40
0
40
0.856197152105145
40
0.856197152105145
40
1
40
1
40
1
40
1
41
1
10
12.1387896657781
20
-3.0541045070695
30
0
41
1
10
12.5779286077908
20
-3.10980215426562
30
0
41
1
10
13.0162829585384
20
-3.14071504178261
30
0
41
1
10
13.5245883456817
20
-3.15011149199745
30
0
41
1
10
13.5976108112884
20
-3.15079112942652
30
0
41
1
10
13.6706047833411
20
-3.15080545206007
30
0
0
SPLINE
5
E9
100
AcDbEntity
8
1
62
256
6
ByLayer
370
18
48
1
60
0
100
AcDbSpline
70
4
71
3
72
78
73
74
40
0
40
0
40
0
40
0
40
0.009042110261574
40
0.009042110261574
40
0.0360333903760425
40
0.0360333903760425
40
0.0630246704905111
40
0.0630246704905111
40
0.0900159506049796
40
0.0900159506049796
40
0.143998510833915
40
0.143998510833915
40
0.170989790948383
40
0.170989790948383
40
0.197981071062851
40
0.197981071062851
40
0.224972351177319
40
0.224972351177319
40
0.251963631291786
40
0.251963631291786
40
0.278954911406254
40
0.278954911406254
40
0.305946191520722
40
0.305946191520722
40
0.33293747163519
40
0.33293747163519
40
0.359928751749657
40
0.359928751749657
40
0.386920031864125
40
0.386920031864125
40
0.413911311978593
40
0.413911311978593
40
0.440902592093061
40
0.440902592093061
40
0.467893872207528
40
0.467893872207528
40
0.521876432436466
40
0.521876432436466
40
0.548867712550934
40
0.548867712550934
40
0.575858992665403
40
0.575858992665403
40
0.602850272779871
40
0.602850272779871
40
0.62984155289434
40
0.62984155289434
40
0.656832833008808
40
0.656832833008808
40
0.683824113123277
40
0.683824113123277
40
0.710815393237745
40
0.710815393237745
40
0.737806673352214
40
0.737806673352214
40
0.764797953466682
40
0.764797953466682
40
0.791789233581151
40
0.791789233581151
40
0.818780513695619
40
0.818780513695619
40
0.832276153752854
40
0.832276153752854
40
0.845771793810089
40
0.845771793810089
40
0.899754354039033
40
0.899754354039033
40
0.926745634153505
40
0.926745634153505
40
0.953736914267978
40
0.953736914267978
40
0.98072819438245
40
0.98072819438245
40
1
40
1
40
1
40
1
41
1
10
28.2722906701724
20
2.25149007565653
30
0
41
1
10
28.345037951439
20
2.27750999584168
30
0
41
1
10
28.4177913163854
20
2.30309501146559
30
0
41
1
10
28.7077062829844
20
2.40336548796935
30
0
41
1
10
28.9244929942878
20
2.47510001209824
30
0
41
1
10
29.3602721504675
20
2.60787286968355
30
0
41
1
10
29.5790434678867
20
2.66926465571291
30
0
41
1
10
30.0178295424861
20
2.78260545113599
30
0
41
1
10
30.2379402783494
20
2.83475702993098
30
0
41
1
10
30.8939080495488
20
2.9741685993711
30
0
41
1
10
31.3303886953263
20
3.0432549085038
30
0
41
1
10
31.9806788945082
20
3.11422638295534
30
0
41
1
10
32.1971331598957
20
3.13207449416169
30
0
41
1
10
32.631028679324
20
3.15594237277048
30
0
41
1
10
32.8481556769255
20
3.16210149586661
30
0
41
1
10
33.2822846433229
20
3.16279258550682
30
0
41
1
10
33.4989477314676
20
3.15720182526869
30
0
41
1
10
33.9344835381124
20
3.13430408872611
30
0
41
1
10
34.153097855383
20
3.11707037777939
30
0
41
1
10
34.5915107708319
20
3.0707887011757
30
0
41
1
10
34.8115827879062
20
3.04149290919125
30
0
41
1
10
35.2491308205435
20
2.97150722879198
30
0
41
1
10
35.467670331233
20
2.93128469658569
30
0
41
1
10
35.9037310577146
20
2.84043015920474
30
0
41
1
10
36.1212715358326
20
2.78981194892899
30
0
41
1
10
36.5547849916906
20
2.67748597120709
30
0
41
1
10
36.7712595535046
20
2.61622877474051
30
0
41
1
10
37.2051043761921
20
2.48539101856255
30
0
41
1
10
37.4221779651252
20
2.41551375452457
30
0
41
1
10
37.8561414765622
20
2.26611976756084
30
0
41
1
10
38.0727096790806
20
2.18606772813229
30
0
41
1
10
38.508044509583
20
2.01949915526024
30
0
41
1
10
38.7265226399704
20
1.93264554744204
30
0
41
1
10
39.1646023235418
20
1.75092402738099
30
0
41
1
10
39.3845520782583
20
1.6553516278008
30
0
41
1
10
40.0411639189168
20
1.3604625163166
30
0
41
1
10
40.477880138015
20
1.15742275599894
30
0
41
1
10
41.1281542858802
20
0.837260172362221
30
0
41
1
10
41.3446565567552
20
0.728950884118319
30
0
41
1
10
41.778461924863
20
0.511762432404737
30
0
41
1
10
41.9954872105554
20
0.40235073044397
30
0
41
1
10
42.4292946836457
20
0.180901274492186
30
0
41
1
10
42.6457719475887
20
0.0682317655090969
30
0
41
1
10
43.0809243081426
20
-0.154866511209946
30
0
41
1
10
43.2992838055873
20
-0.265914284838203
30
0
41
1
10
43.7370795427985
20
-0.48803120766334
30
0
41
1
10
43.9568702240766
20
-0.599915116429628
30
0
41
1
10
44.394787774233
20
-0.820358514265308
30
0
41
1
10
44.6134832219956
20
-0.927726340187576
30
0
41
1
10
45.0497225937048
20
-1.13830937332614
30
0
41
1
10
45.2672905578603
20
-1.24147376533745
30
0
41
1
10
45.7007883038026
20
-1.44444170767218
30
0
41
1
10
45.917306334526
20
-1.5431421505474
30
0
41
1
10
46.3510690910975
20
-1.73307168176513
30
0
41
1
10
46.5680520802659
20
-1.82477872361494
30
0
41
1
10
47.0017299617834
20
-2.00241292736453
30
0
41
1
10
47.2181401358337
20
-2.08872775142572
30
0
41
1
10
47.6531447473283
20
-2.25162293914903
30
0
41
1
10
47.8714029292222
20
-2.32876943667188
30
0
41
1
10
48.1995621416441
20
-2.43851223454666
30
0
41
1
10
48.3090808987957
20
-2.47408870368113
30
0
41
1
10
48.528307798068
20
-2.54328639788977
30
0
41
1
10
48.6380643439528
20
-2.57697966437911
30
0
41
1
10
49.1856185248562
20
-2.73813493832441
30
0
41
1
10
49.6224644016855
20
-2.84426614946779
30
0
41
1
10
50.2726927551849
20
-2.97348916098801
30
0
41
1
10
50.4892284311095
20
-3.01091763208251
30
0
41
1
10
50.9229490443461
20
-3.07413216490755
30
0
41
1
10
51.1398890988953
20
-3.10010849598353
30
0
41
1
10
51.573434857438
20
-3.14088359932998
30
0
41
1
10
51.7897748030667
20
-3.15565801651445
30
0
41
1
10
52.162452525105
20
-3.17061928263848
30
0
41
1
10
52.3180741492541
20
-3.17386061905762
30
0
41
1
10
52.4739842667861
20
-3.17409709246888
30
0
0
SPLINE
5
EA
100
AcDbEntity
8
1
62
256
6
ByLayer
370
18
48
1
60
0
100
AcDbSpline
70
4
71
3
72
12
73
8
40
0
40
0
40
0
40
0
40
0.25
40
0.25
40
0.5
40
0.5
40
1
40
1
40
1
40
1
41
1
10
53.9290130787504
20
-3.09332805798056
30
0
41
1
10
53.9338507092435
20
-3.08028985756238
30
0
41
1
10
53.9383577135341
20
-3.06704019487754
30
0
41
1
10
53.9455004229351
20
-3.04323530010214
30
0
41
1
10
53.9481169534813
20
-3.03270875397993
30
0
41
1
10
53.9522136162742
20
-3.00916537793691
30
0
41
1
10
53.9501091693841
20
-3.00457241866454
30
0
41
1
10
53.9455360687182
20
-3.00735298818526
30
0
0
SPLINE
5
EB
100
AcDbEntity
8
1
62
256
6
ByLayer
370
18
48
1
60
0
100
AcDbSpline
70
4
71
3
72
8
73
4
40
0
40
0
40
0
40
0
40
1
40
1
40
1
40
1
41
1
10
4.05852849477901
20
0.295154165072461
30
0
41
1
10
4.07964941391418
20
0.268994038639136
30
0
41
1
10
4.10615328517568
20
0.246564538375907
30
0
41
1
10
4.13753176200311
20
0.230122616659884
30
0
0
SPLINE
5
EC
100
AcDbEntity
8
1
62
256
6
ByLayer
370
18
48
1
60
0
100
AcDbSpline
70
4
71
3
72
24
73
20
40
0
40
0
40
0
40
0
40
0.0850463393268654
40
0.0850463393268654
40
0.237869769983881
40
0.237869769983881
40
0.314281485312387
40
0.314281485312387
40
0.390693200640894
40
0.390693200640894
40
0.69634006195492
40
0.69634006195492
40
0.772751777283427
40
0.772751777283427
40
0.849163492611932
40
0.849163492611932
40
0.925575207940437
40
0.925575207940437
40
1
40
1
40
1
40
1
41
1
10
18.8875644133264
20
2.28205425979644
30
0
41
1
10
19.1759353807065
20
2.18414337230328
30
0
41
1
10
19.463374322631
20
2.07905505539338
30
0
41
1
10
20.2663949492072
20
1.76777463197195
30
0
41
1
10
20.7811081461399
20
1.54749940377681
30
0
41
1
10
21.5561549872063
20
1.19483839344215
30
0
41
1
10
21.8150270233612
20
1.07363839840539
30
0
41
1
10
22.334638351837
20
0.82531674073519
30
0
41
1
10
22.596047028193
20
0.697684649361918
30
0
41
1
10
23.9000867101737
20
0.0532638076352896
30
0
41
1
10
24.9273789392723
20
-0.477956870339113
30
0
41
1
10
26.2235253494091
20
-1.09712543974001
30
0
41
1
10
26.4833564583005
20
-1.21871890397884
30
0
41
1
10
27.0051133489803
20
-1.45565805574387
30
0
41
1
10
27.2665776941672
20
-1.5707815332012
30
0
41
1
10
27.7879656232882
20
-1.79148483940918
30
0
41
1
10
28.0484206519329
20
-1.89725062407985
30
0
41
1
10
28.5629382441356
20
-2.09565432254189
30
0
41
1
10
28.8172636629905
20
-2.18865561245906
30
0
41
1
10
29.0715528150211
20
-2.27588027860631
30
0
0
SPLINE
5
ED
100
AcDbEntity
8
1
62
256
6
ByLayer
370
13
48
1
60
0
100
AcDbSpline
70
4
71
3
72
16
73
12
40
0
40
0
40
0
40
0
40
0.0032998535887478
40
0.0032998535887478
40
0.510913775391986
40
0.510913775391986
40
0.637817255842798
40
0.637817255842798
40
0.76472073629361
40
0.76472073629361
40
1
40
1
40
1
40
1
41
1
10
29.0715528154386
20
-2.27588027874947
30
0
41
1
10
29.0783415884922
20
-2.27820892099936
30
0
41
1
10
29.0851303356972
20
-2.28053344605843
30
0
41
1
10
30.1362213568896
20
-2.63979779827562
30
0
41
1
10
31.1620427000782
20
-2.89171954583571
30
0
41
1
10
32.453236741778
20
-3.04897454460178
30
0
41
1
10
32.711956651904
20
-3.07256506972473
30
0
41
1
10
33.231118972488
20
-3.10342192189265
30
0
41
1
10
33.49219254477
20
-3.11070097146626
30
0
41
1
10
34.2365447666516
20
-3.10763160441206
30
0
41
1
10
34.7161873746766
20
-3.07702522462927
30
0
41
1
10
35.1944425882938
20
-3.01943767477664
30
0
0
SPLINE
5
EE
100
AcDbEntity
8
SK1
62
256
6
ByLayer
370
18
48
1
60
0
100
AcDbSpline
70
4
71
3
72
8
73
4
40
0
40
0
40
0
40
0
40
1
40
1
40
1
40
1
41
1
10
-35.25
20
3.45312157039024
30
0
41
1
10
-35.5038880941382
20
3.10343779955158
30
0
41
1
10
-35.7559775883504
20
2.75300757856246
30
0
41
1
10
-36
20
2.39922937845586
30
0
0
SPLINE
5
EF
100
AcDbEntity
8
SK1
62
256
6
ByLayer
370
18
48
1
60
0
100
AcDbSpline
70
4
71
3
72
8
73
4
40
0
40
0
40
0
40
0
40
1
40
1
40
1
40
1
41
1
10
-36
20
1.11629420920943
30
0
41
1
10
-35.7560848054632
20
1.46991696835914
30
0
41
1
10
-35.5039315622472
20
1.82044276104534
30
0
41
1
10
-35.25
20
2.17018640114381
30
0
0
SPLINE
5
F0
100
AcDbEntity
8
SK1
62
256
6
ByLayer
370
18
48
1
60
0
100
AcDbSpline
70
4
71
3
72
14
73
10
40
0
40
0
40
0
40
0
40
0.125
40
0.125
40
0.25
40
0.25
40
0.499999999999999
40
0.499999999999999
40
1
40
1
40
1
40
1
41
1
10
-35.15
20
3.54538059464232
30
0
41
1
10
-35.15
20
3.5503564652584
30
0
41
1
10
-35.1517507934569
20
3.55250559843455
30
0
41
1
10
-35.1569069278761
20
3.55319632678868
30
0
41
1
10
-35.160234831946
20
3.55186233853317
30
0
41
1
10
-35.1714888412645
20
3.54501541554583
30
0
41
1
10
-35.1802429568047
20
3.53699431221767
30
0
41
1
10
-35.2083191353841
20
3.50787129419652
30
0
41
1
10
-35.2286409685639
20
3.48253967555741
30
0
41
1
10
-35.25
20
3.45312157039024
30
0
0
SPLINE
5
F1
100
AcDbEntity
8
SK1
62
256
6
ByLayer
370
18
48
1
60
0
100
AcDbSpline
70
4
71
3
72
14
73
10
40
0
40
0
40
0
40
0
40
0.499999999999999
40
0.499999999999999
40
0.749999999999999
40
0.749999999999999
40
0.875
40
0.875
40
1
40
1
40
1
40
1
41
1
10
-35.25
20
2.17018640114367
30
0
41
1
10
-35.2287404812744
20
2.19946744600486
30
0
41
1
10
-35.208362723075
20
2.23270876926111
30
0
41
1
10
-35.1802905070704
20
2.28909943791166
30
0
41
1
10
-35.1714466180788
20
2.30881648537979
30
0
41
1
10
-35.1602396792677
20
2.33988816136605
30
0
41
1
10
-35.1568594217207
20
2.35051712731649
30
0
41
1
10
-35.1517495297275
20
2.37142417380798
30
0
41
1
10
-35.15
20
2.38189728114119
30
0
41
1
10
-35.15
20
2.39073894232055
30
0
0
LINE
5
76
100
AcDbEntity
8
81
62
256
6
ByLayer
370
18
48
1
60
0
100
AcDbLine
10
55
20
0
30
0
11
60
21
0
31
0
39
0
210
0
220
0
230
1
0
LINE
5
77
100
AcDbEntity
8
1
62
256
6
ByLayer
370
18
48
1
60
0
100
AcDbLine
10
4.020774
20
3.145026
30
0
11
1.417258
21
3.143464
31
0
39
0
210
0
220
0
230
1
0
LINE
5
79
100
AcDbEntity
8
1
62
256
6
ByLayer
370
18
48
1
60
0
100
AcDbLine
10
33.695456
20
3.162831
30
0
11
33.074758
21
3.162459
31
0
39
0
210
0
220
0
230
1
0
LINE
5
7A
100
AcDbEntity
8
1
62
256
6
ByLayer
370
18
48
1
60
0
100
AcDbLine
10
33.074758
20
-3.162459
30
0
11
33.695173
21
-3.162831
31
0
39
0
210
0
220
0
230
1
0
LINE
5
7B
100
AcDbEntity
8
1
62
256
6
ByLayer
370
18
48
1
60
0
100
AcDbLine
10
1.417258
20
-3.143464
30
0
11
4.020774
21
-3.145026
31
0
39
0
210
0
220
0
230
1
0
LINE
5
7C
100
AcDbEntity
8
1
62
256
6
ByLayer
370
18
48
1
60
0
100
AcDbLine
10
14.295262
20
3.151191
30
0
11
13.666537
21
3.150814
31
0
39
0
210
0
220
0
230
1
0
LINE
5
7D
100
AcDbEntity
8
1
62
256
6
ByLayer
370
18
48
1
60
0
100
AcDbLine
10
53.095581
20
3.174471
30
0
11
52.484077
21
3.174104
31
0
39
0
210
0
220
0
230
1
0
LINE
5
7E
100
AcDbEntity
8
1
62
256
6
ByLayer
370
18
48
1
60
0
100
AcDbLine
10
52.484077
20
-3.174104
30
0
11
53.095722
21
-3.174471
31
0
39
0
210
0
220
0
230
1
0
LINE
5
7F
100
AcDbEntity
8
1
62
256
6
ByLayer
370
18
48
1
60
0
100
AcDbLine
10
13.666537
20
-3.150814
30
0
11
14.295444
21
-3.151191
31
0
39
0
210
0
220
0
230
1
0
LINE
5
80
100
AcDbEntity
8
SK1
62
256
6
ByLayer
370
18
48
1
60
0
100
AcDbLine
10
0
20
4
30
0
11
-35.133975
21
4
31
0
39
0
210
0
220
0
230
1
0
LINE
5
82
100
AcDbEntity
8
SK1
62
256
6
ByLayer
370
18
48
1
60
0
100
AcDbLine
10
-35.133975
20
-4
30
0
11
0
21
-4
31
0
39
0
210
0
220
0
230
1
0
LINE
5
83
100
AcDbEntity
8
SK1
62
256
6
ByLayer
370
18
48
1
60
0
100
AcDbLine
10
-35.133975
20
4
30
0
11
-36
21
2.5
31
0
39
0
210
0
220
0
230
1
0
LINE
5
84
100
AcDbEntity
8
SK1
62
256
6
ByLayer
370
18
48
1
60
0
100
AcDbLine
10
-36
20
-2.5
30
0
11
-35.133975
21
-4
31
0
39
0
210
0
220
0
230
1
0
LINE
5
85
100
AcDbEntity
8
SK4
62
256
6
ByLayer
370
18
48
0.05
60
0
100
AcDbLine
10
60
20
0
30
0
11
-41
21
0
31
0
39
0
210
0
220
0
230
1
0
LINE
5
87
100
AcDbEntity
8
4
62
256
6
ByLayer
370
18
48
0.05
60
0
100
AcDbLine
10
55
20
0
30
0
11
0
21
0
31
0
39
0
210
0
220
0
230
1
0
LINE
5
89
100
AcDbEntity
8
80
62
256
6
ByLayer
370
18
48
1
60
0
100
AcDbLine
10
0
20
0
30
0
11
-5
21
0
31
0
39
0
210
0
220
0
230
1
0
LINE
5
8A
100
AcDbEntity
8
1
62
256
6
ByLayer
370
13
48
1
60
0
100
AcDbLine
10
54.047506
20
0.352131
30
0
11
54.895116
21
-0.150784
31
0
39
0
210
0
220
0
230
1
0
LINE
5
8B
100
AcDbEntity
8
1
62
256
6
ByLayer
370
18
48
1
60
0
100
AcDbLine
10
54.994297
20
0.031621
30
0
11
55
21
0
31
0
39
0
210
0
220
0
230
1
0
LINE
5
8C
100
AcDbEntity
8
1
62
256
6
ByLayer
370
18
48
1
60
0
100
AcDbLine
10
54.925642
20
-0.279111
30
0
11
54.830372
21
-0.687461
31
0
39
0
210
0
220
0
230
1
0
LINE
5
8D
100
AcDbEntity
8
1
62
256
6
ByLayer
370
13
48
1
60
0
100
AcDbLine
10
1.417258
20
3.143464
30
0
11
1.417258
21
-3.143464
31
0
39
0
210
0
220
0
230
1
0
LINE
5
8E
100
AcDbEntity
8
1
62
256
6
ByLayer
370
13
48
1
60
0
100
AcDbLine
10
0.708389
20
3.571732
30
0
11
0.708389
21
-3.571732
31
0
39
0
210
0
220
0
230
1
0
LINE
5
8F
100
AcDbEntity
8
1
62
256
6
ByLayer
370
18
48
1
60
0
100
AcDbLine
10
55
20
0
30
0
11
53.899734
21
-3.022955
31
0
39
0
210
0
220
0
230
1
0
LINE
5
90
100
AcDbEntity
8
1
62
256
6
ByLayer
370
13
48
1
60
0
100
AcDbLine
10
4.251628
20
2.994813
30
0
11
4.251642
21
2.987004
31
0
39
0
210
0
220
0
230
1
0
LINE
5
91
100
AcDbEntity
8
1
62
256
6
ByLayer
370
18
48
1
60
0
100
AcDbLine
10
55
20
0
30
0
11
54.994297
21
-0.031621
31
0
39
0
210
0
220
0
230
1
0
LINE
5
92
100
AcDbEntity
8
1
62
256
6
ByLayer
370
18
48
1
60
0
100
AcDbLine
10
53.416233
20
-1.678491
30
0
11
54.895116
21
-0.150784
31
0
39
0
210
0
220
0
230
1
0
LINE
5
93
100
AcDbEntity
8
1
62
256
6
ByLayer
370
18
48
1
60
0
100
AcDbLine
10
54.925642
20
0.279111
30
0
11
54.830372
21
0.687461
31
0
39
0
210
0
220
0
230
1
0
LINE
5
94
100
AcDbEntity
8
1
62
256
6
ByLayer
370
13
48
1
60
0
100
AcDbLine
10
54.830372
20
0.687461
30
0
11
54.237412
21
0.687461
31
0
39
0
210
0
220
0
230
1
0
LINE
5
95
100
AcDbEntity
8
1
62
256
6
ByLayer
370
18
48
1
60
0
100
AcDbLine
10
0
20
-4
30
0
11
0
21
4
31
0
39
0
210
0
220
0
230
1
0
LINE
5
96
100
AcDbEntity
8
1
62
256
6
ByLayer
370
13
48
1
60
0
100
AcDbLine
10
54.237412
20
0.687461
30
0
11
54.925642
21
0.279111
31
0
39
0
210
0
220
0
230
1
0
LINE
5
97
100
AcDbEntity
8
1
62
256
6
ByLayer
370
13
48
1
60
0
100
AcDbLine
10
4.251622
20
-2.994018
30
0
11
4.251642
21
-2.987004
31
0
39
0
210
0
220
0
230
1
0
LINE
5
98
100
AcDbEntity
8
SK1
62
256
6
ByLayer
370
18
48
1
60
0
100
AcDbLine
10
-35.133975
20
4
30
0
11
-35.133975
21
-4
31
0
39
0
210
0
220
0
230
1
0
LINE
5
99
100
AcDbEntity
8
SK1
62
256
6
ByLayer
370
18
48
1
60
0
100
AcDbLine
10
-36
20
2.5
30
0
11
-36
21
2.399229
31
0
39
0
210
0
220
0
230
1
0
LINE
5
9A
100
AcDbEntity
8
SK1
62
256
6
ByLayer
370
18
48
1
60
0
100
AcDbLine
10
0
20
-4
30
0
11
0
21
4
31
0
39
0
210
0
220
0
230
1
0
LINE
5
9B
100
AcDbEntity
8
SK1
62
256
6
ByLayer
370
18
48
1
60
0
100
AcDbLine
10
-36
20
2.399229
30
0
11
-36
21
1.116283
31
0
39
0
210
0
220
0
230
1
0
LINE
5
9C
100
AcDbEntity
8
SK1
62
256
6
ByLayer
370
18
48
1
60
0
100
AcDbLine
10
-35.15
20
2.390739
30
0
11
-35.15
21
3.545381
31
0
39
0
210
0
220
0
230
1
0
LINE
5
9D
100
AcDbEntity
8
SK1
62
256
6
ByLayer
370
18
48
1
60
0
100
AcDbLine
10
-36
20
1.116294
30
0
11
-36
21
-2.5
31
0
39
0
210
0
220
0
230
1
0
LINE
5
9E
100
AcDbEntity
8
SK1
62
256
6
ByLayer
370
13
48
1
60
0
100
AcDbLine
10
-35.25
20
3.453122
30
0
11
-35.25
21
2.170129
31
0
39
0
210
0
220
0
230
1
0
MTEXT
5
F2
100
AcDbEntity
8
SK6
62
256
6
ByLayer
370
13
48
1
60
0
100
AcDbMText
10
11.629169
20
35.557694
30
0
210
0
220
0
230
1
1
\W0.7542;R840-0635-50-A1A1220
40
3.5
41
0
44
1.084337
50
0
71
8
72
5
7
iso_b_vert
0
DIMENSION
5
FF
100
AcDbEntity
8
SK2
62
256
6
ByLayer
370
13
48
1
60
0
100
AcDbDimension
2
DimnDraft3D1
10
53.92
20
-13.388398
30
0
11
25.670059
21
-13.388398
31
0
70
32
71
5
72
1
41
1
210
0
220
0
230
1
3
Standard
100
AcDbAlignedDimension
13
0
23
-1.5875
33
0
14
53.92
24
-4.7625
34
0
50
0
100
AcDbRotatedDimension
1001
ACAD
1000
DSTYLE
1002
{
1070
   279
1070
     0
1070
   172
1070
     1
1070
   173
1070
     1
1070
   340
1005
F3
1070
   271
1070
     2
1070
   272
1070
     2
1070
    77
1070
     1
1070
    73
1070
     0
1070
   171
1070
     3
1070
   274
1070
     4
1070
   177
1070
    35
1070
   176
1070
    35
1070
   178
1070
    35
1070
    48
1040
-0.005
1070
    41
1041
3.5
1070
   147
1041
1.75
1070
    42
1041
1.5875
1070
    44
1041
2.0
1070
   140
1041
3.5
1070
   343
1005
0
1070
   344
1005
0
1002
}
0
DIMENSION
5
109
100
AcDbEntity
8
SK2
62
256
6
ByLayer
370
13
48
1
60
0
100
AcDbDimension
2
DimnDraft3D2
10
55
20
-32.692985
30
0
11
9.7613
21
-32.692985
31
0
70
32
71
5
72
1
41
1
210
0
220
0
230
1
3
Standard
100
AcDbAlignedDimension
13
-36
23
-5.5875
33
0
14
55
24
-1.5875
34
0
50
0
100
AcDbRotatedDimension
1001
ACAD
1000
DSTYLE
1002
{
1070
   279
1070
     0
1070
   172
1070
     1
1070
   173
1070
     1
1070
   340
1005
F3
1070
   271
1070
     2
1070
   272
1070
     2
1070
    77
1070
     1
1070
    73
1070
     0
1070
   171
1070
     3
1070
   274
1070
     4
1070
   177
1070
    35
1070
   176
1070
    35
1070
   178
1070
    35
1070
    48
1040
-0.005
1070
    41
1041
3.5
1070
   147
1041
1.75
1070
    42
1041
1.5875
1070
    44
1041
2.0
1070
   140
1041
3.5
1070
   343
1005
0
1070
   344
1005
0
1002
}
0
DIMENSION
5
113
100
AcDbEntity
8
SK2
62
256
6
ByLayer
370
13
48
1
60
0
100
AcDbDimension
2
DimnDraft3D3
10
55
20
14.784119
30
0
11
38.585
21
14.784119
31
0
70
32
71
5
72
1
41
1
210
0
220
0
230
1
3
Standard
100
AcDbAlignedDimension
13
22.17
23
4.7625
33
0
14
55
24
1.5875
34
0
50
0
100
AcDbRotatedDimension
1001
ACAD
1000
DSTYLE
1002
{
1070
   279
1070
     0
1070
   172
1070
     1
1070
   173
1070
     1
1070
   340
1005
F3
1070
   271
1070
     2
1070
   272
1070
     2
1070
    77
1070
     1
1070
    73
1070
     0
1070
   171
1070
     3
1070
   274
1070
     4
1070
   177
1070
    35
1070
   176
1070
    35
1070
   178
1070
    35
1070
    48
1040
-0.005
1070
    41
1041
3.5
1070
   147
1041
1.75
1070
    42
1041
1.5875
1070
    44
1041
2.0
1070
   140
1041
3.5
1070
   343
1005
0
1070
   344
1005
0
1002
}
0
DIMENSION
5
11D
100
AcDbEntity
8
SK2
62
256
6
ByLayer
370
13
48
1
60
0
100
AcDbDimension
2
DimnDraft3D4
10
53.92
20
-15.977503
30
0
11
64.981425
21
-15.977503
31
0
70
32
71
5
72
1
41
1
210
0
220
0
230
1
3
Standard
100
AcDbAlignedDimension
13
55
23
-1.5875
33
0
14
53.92
24
-4.7625
34
0
50
0
100
AcDbRotatedDimension
1001
ACAD
1000
DSTYLE
1002
{
1070
   279
1070
     0
1070
   172
1070
     1
1070
   173
1070
     1
1070
   340
1005
F3
1070
   271
1070
     2
1070
   272
1070
     2
1070
    77
1070
     1
1070
    73
1070
     0
1070
   171
1070
     3
1070
   274
1070
     4
1070
   177
1070
    35
1070
   176
1070
    35
1070
   178
1070
    35
1070
    48
1040
-0.005
1070
    41
1041
3.5
1070
   147
1041
1.75
1070
    42
1041
1.5875
1070
    44
1041
2.0
1070
   140
1041
3.5
1070
   343
1005
0
1070
   344
1005
0
1002
}
0
DIMENSION
5
127
100
AcDbEntity
8
SK2
62
256
6
ByLayer
370
13
48
1
60
0
100
AcDbDimension
2
DimnDraft3D5
10
53.92
20
-22.343428
30
0
11
6.680676
21
-22.343428
31
0
70
32
71
5
72
1
41
1
210
0
220
0
230
1
3
Standard
100
AcDbAlignedDimension
13
-36
23
-5.5875
33
0
14
53.92
24
-4.7625
34
0
50
0
100
AcDbRotatedDimension
1001
ACAD
1000
DSTYLE
1002
{
1070
   279
1070
     0
1070
   172
1070
     1
1070
   173
1070
     1
1070
   340
1005
F3
1070
   271
1070
     2
1070
   272
1070
     2
1070
    77
1070
     1
1070
    73
1070
     0
1070
   171
1070
     3
1070
   274
1070
     4
1070
   177
1070
    35
1070
   176
1070
    35
1070
   178
1070
    35
1070
    48
1040
-0.005
1070
    41
1041
3.5
1070
   147
1041
1.75
1070
    42
1041
1.5875
1070
    44
1041
2.0
1070
   140
1041
3.5
1070
   343
1005
0
1070
   344
1005
0
1002
}
0
DIMENSION
5
132
100
AcDbEntity
8
SK2
62
256
6
ByLayer
370
13
48
1
60
0
100
AcDbDimension
2
DimnDraft3D6
10
-46.625163
20
4
30
0
11
-47.250163
21
22.47418
31
0
70
33
71
5
72
1
41
1
210
0
220
0
230
1
3
Standard
100
AcDbAlignedDimension
13
-37.5875
23
-4
33
0
14
-37.5875
24
4
34
0
1001
ACAD
1000
DSTYLE
1002
{
1070
   279
1070
     0
1070
    74
1070
     0
1070
   173
1070
     1
1070
   340
1005
F3
1070
   271
1070
     3
1070
   272
1070
     2
1070
    77
1070
     1
1070
    73
1070
     0
1070
   171
1070
     3
1070
   274
1070
     4
1070
   177
1070
    35
1070
   176
1070
    35
1070
   178
1070
    35
1070
    48
1040
-0.005
1070
    41
1041
3.5
1070
   147
1041
1.75
1070
    42
1041
1.5875
1070
    44
1041
2.0
1070
   140
1041
3.5
1070
   343
1005
0
1070
   344
1005
0
1002
}
0
DIMENSION
5
13D
100
AcDbEntity
8
2
62
256
6
ByLayer
370
13
48
1
60
0
100
AcDbDimension
2
DimnDraft3D7
10
69.083343
20
3.175
30
0
11
64.458343
21
20.242266
31
0
70
33
71
5
72
1
41
1
210
0
220
0
230
1
3
Standard
100
AcDbAlignedDimension
13
55.5075
23
-3.175
33
0
14
55.5075
24
3.175
34
0
1001
ACAD
1000
DSTYLE
1002
{
1070
   279
1070
     0
1070
    74
1070
     0
1070
   173
1070
     1
1070
   340
1005
F3
1070
   271
1070
     3
1070
   272
1070
     2
1070
    77
1070
     1
1070
    73
1070
     0
1070
   171
1070
     3
1070
   274
1070
     4
1070
   177
1070
    35
1070
   176
1070
    35
1070
   178
1070
    35
1070
    48
1040
-0.005
1070
    41
1041
3.5
1070
   147
1041
1.75
1070
    42
1041
1.5875
1070
    44
1041
2.0
1070
   140
1041
3.5
1070
   343
1005
0
1070
   344
1005
0
1002
}
0
ENDSEC
0
SECTION
2
OBJECTS
0
DICTIONARY
5
1a8
330
0
100
AcDbDictionary
280
0
281
1
3
ACAD_GROUP
350
1a9
3
ACAD_MLINESTYLE
350
1aa
0
DICTIONARY
5
1a9
330
0
100
AcDbDictionary
280
0
281
1
0
DICTIONARY
5
1aa
330
0
100
AcDbDictionary
280
0
281
1
3
Standard
350
18
0
MLINESTYLE
5
18
330
1aa
100
AcDbMlineStyle
2
Standard
70
0
3

62
256
51
90
52
90
71
2
49
-0.5
62
256
6
ByLayer
49
0.5
62
256
6
ByLayer
0
RASTERVARIABLES
5
196
330

100
AcDbRasterVariables
90
0
70
1
71
1
72
1
0
ENDSEC
0
EOF
