0
SECTION
2
HEADER
9
$ACADVER
1
AC1015
9
$DWGCODEPAGE
3
ANSI_1252
9
$HANDSEED
5
1b4
9
$ANGBASE
50
0
9
$ANGDIR
70
0
9
$ATTMODE
70
1
9
$AUNITS
70
0
9
$AUPREC
70
0
9
$CECOLOR
62
256
9
$CELTSCALE
40
1
9
$CELTYPE
6
ByLayer
9
$CELWEIGHT
370
18
9
$CLAYER
8
0
9
$CMLJUST
70
0
9
$CMLSCALE
40
1
9
$CMLSTYLE
2
Standard
9
$DIMSTYLE
2
Standard
9
$TEXTSIZE
40
0.2
9
$TEXTSTYLE
7
Standard
9
$LUNITS
70
2
9
$LUPREC
70
4
9
$EXTNAMES
290
1
9
$INSUNITS
70
4
9
$LTSCALE
40
1
9
$LWDISPLAY
290
1
9
$PDMODE
70
0
9
$PDSIZE
40
0
9
$PLINEGEN
70
0
0
ENDSEC
0
SECTION
2
CLASSES
0
CLASS
1
RASTERVARIABLES
2
AcDbRasterVariables
3
ISM
90
0
280
0
281
0
0
ENDSEC
0
SECTION
2
TABLES
0
TABLE
2
VPORT
5
1aa
100
AcDbSymbolTable
0
VPORT
5
1
100
AcDbSymbolTableRecord
100
AcDbViewportTableRecord
2
*Active
70
0
10
0
20
0
11
1
21
1
12
-1
22
1
13
0
23
0
14
0.5
24
0.5
15
10
25
10
16
0
26
0
36
1
17
0
27
0
37
0
0
ENDTAB
0
TABLE
2
LTYPE
5
1ab
100
AcDbSymbolTable
0
LTYPE
5
14
100
AcDbSymbolTableRecord
100
AcDbLinetypeTableRecord
70
0
2
ByBlock
3

72
65
73
0
40
0
0
LTYPE
5
15
100
AcDbSymbolTableRecord
100
AcDbLinetypeTableRecord
70
0
2
ByLayer
3

72
65
73
0
40
0
0
LTYPE
5
16
100
AcDbSymbolTableRecord
100
AcDbLinetypeTableRecord
70
0
2
CONTINUOUS
3
Solid line
72
65
73
0
40
0
0
LTYPE
5
6A
100
AcDbSymbolTableRecord
100
AcDbLinetypeTableRecord
70
0
2
CENTER
3
____ _ ____ _ ____ _ ____
72
65
73
4
40
47.5
49
22
74
0
49
-8.5
74
0
49
8.5
74
0
49
-8.5
74
0
0
LTYPE
5
6B
100
AcDbSymbolTableRecord
100
AcDbLinetypeTableRecord
70
0
2
DASHED
3
__ __ __ __ __ __ __ __ __
72
65
73
2
40
25.72
49
12.86
74
0
49
-12.86
74
0
0
ENDTAB
0
TABLE
2
LAYER
5
1ac
100
AcDbSymbolTable
0
LAYER
5
10
100
AcDbSymbolTableRecord
100
AcDbLayerTableRecord
2
0
70
0
62
7
6
CONTINUOUS
290
1
370
-3
390
0
0
LAYER
5
6D
100
AcDbSymbolTableRecord
100
AcDbLayerTableRecord
2
81
70
0
62
-3
6
CONTINUOUS
290
1
370
-3
390
0
0
LAYER
5
6F
100
AcDbSymbolTableRecord
100
AcDbLayerTableRecord
2
80
70
0
62
-6
6
CONTINUOUS
290
1
370
-3
390
0
0
LAYER
5
74
100
AcDbSymbolTableRecord
100
AcDbLayerTableRecord
2
2
70
0
62
7
6
CONTINUOUS
290
1
370
-3
390
0
0
LAYER
5
78
100
AcDbSymbolTableRecord
100
AcDbLayerTableRecord
2
1
70
0
62
4
6
CONTINUOUS
290
1
370
-3
390
0
0
LAYER
5
88
100
AcDbSymbolTableRecord
100
AcDbLayerTableRecord
2
4
70
0
62
-2
6
CENTER
290
1
370
-3
390
0
0
LAYER
5
196
100
AcDbSymbolTableRecord
100
AcDbLayerTableRecord
2
SK2
70
0
62
7
6
CONTINUOUS
290
1
370
-3
390
0
0
LAYER
5
197
100
AcDbSymbolTableRecord
100
AcDbLayerTableRecord
2
SK1
70
0
62
4
6
CONTINUOUS
290
1
370
-3
390
0
0
LAYER
5
198
100
AcDbSymbolTableRecord
100
AcDbLayerTableRecord
2
SK4
70
0
62
2
6
CENTER
290
1
370
-3
390
0
0
LAYER
5
199
100
AcDbSymbolTableRecord
100
AcDbLayerTableRecord
2
SK6
70
0
62
5
6
CONTINUOUS
290
1
370
-3
390
0
0
ENDTAB
0
TABLE
2
STYLE
5
1ad
100
AcDbSymbolTable
0
STYLE
5
11
100
AcDbSymbolTableRecord
100
AcDbTextStyleTableRecord
2
Standard
3
txt
70
0
71
0
40
0
41
1
42
0
50
0
0
STYLE
5
F2
100
AcDbSymbolTableRecord
100
AcDbTextStyleTableRecord
2
iso_b_vert
3
simplex.shx
70
0
71
0
40
0
41
1
42
0
50
0
0
STYLE
5
F3
100
AcDbSymbolTableRecord
100
AcDbTextStyleTableRecord
2
DWGDirectTextStyle
3
simplex
70
0
71
0
40
0
41
1
42
0
50
0
0
ENDTAB
0
TABLE
2
DIMSTYLE
5
1ae
100
AcDbSymbolTable
100
AcDbDimStyleTable
0
DIMSTYLE
105
27
100
AcDbSymbolTableRecord
100
AcDbDimStyleTableRecord
2
Standard
70
0
3
<>
41
0.18
42
0.0625
44
0.18
140
0.18
147
0.09
73
0
74
0
77
1
271
2
275
0
278
52
280
0
340
11
0
ENDTAB
0
TABLE
2
VIEW
5
1af
100
AcDbSymbolTable
0
ENDTAB
0
TABLE
2
UCS
5
1b0
100
AcDbSymbolTable
0
ENDTAB
0
TABLE
2
APPID
5
1b1
100
AcDbSymbolTable
0
APPID
5
12
100
AcDbSymbolTableRecord
100
AcDbRegAppTableRecord
2
ACAD
70
0
0
ENDTAB
0
TABLE
2
BLOCK_RECORD
5
1b2
100
AcDbSymbolTable
0
BLOCK_RECORD
5
1F
100
AcDbSymbolTableRecord
100
AcDbBlockTableRecord
2
*Model_Space
340
0
70
0
0
BLOCK_RECORD
5
1B
100
AcDbSymbolTableRecord
100
AcDbBlockTableRecord
2
*Paper_Space
340
0
70
0
0
BLOCK_RECORD
5
23
100
AcDbSymbolTableRecord
100
AcDbBlockTableRecord
2
*Paper_Space0
340
0
70
0
0
BLOCK_RECORD
5
F5
100
AcDbSymbolTableRecord
100
AcDbBlockTableRecord
2
DimnDraft3D1
340
0
70
0
0
BLOCK_RECORD
5
FF
100
AcDbSymbolTableRecord
100
AcDbBlockTableRecord
2
DimnDraft3D2
340
0
70
0
0
BLOCK_RECORD
5
109
100
AcDbSymbolTableRecord
100
AcDbBlockTableRecord
2
DimnDraft3D3
340
0
70
0
0
BLOCK_RECORD
5
113
100
AcDbSymbolTableRecord
100
AcDbBlockTableRecord
2
DimnDraft3D4
340
0
70
0
0
BLOCK_RECORD
5
11D
100
AcDbSymbolTableRecord
100
AcDbBlockTableRecord
2
DimnDraft3D5
340
0
70
0
0
BLOCK_RECORD
5
127
100
AcDbSymbolTableRecord
100
AcDbBlockTableRecord
2
DimnDraft3D6
340
0
70
0
0
BLOCK_RECORD
5
132
100
AcDbSymbolTableRecord
100
AcDbBlockTableRecord
2
DimnDraft3D7
340
0
70
0
0
ENDTAB
0
ENDSEC
0
SECTION
2
BLOCKS
0
BLOCK
5
20
100
AcDbEntity
8
0
100
AcDbBlockBegin
2
*Model_Space
70
0
10
0
20
0
30
0
3
*Model_Space
0
ENDBLK
5
21
100
AcDbEntity
8
0
100
AcDbBlockEnd
0
BLOCK
5
1C
100
AcDbEntity
8
0
100
AcDbBlockBegin
2
*Paper_Space
70
0
10
0
20
0
30
0
3
*Paper_Space
0
ENDBLK
5
1D
100
AcDbEntity
8
0
100
AcDbBlockEnd
0
BLOCK
5
24
100
AcDbEntity
8
0
100
AcDbBlockBegin
2
*Paper_Space0
70
0
10
0
20
0
30
0
3
*Paper_Space0
0
ENDBLK
5
25
100
AcDbEntity
8
0
100
AcDbBlockEnd
0
BLOCK
5
FC
100
AcDbEntity
8
0
100
AcDbBlockBegin
2
DimnDraft3D1
70
0
10
0
20
0
30
0
3
DimnDraft3D1
0
MTEXT
5
F6
100
AcDbEntity
8
SK2
62
256
6
ByLayer
370
13
48
1
60
0
100
AcDbMText
10
21.251375
20
-12.438398
30
0
210
0
220
0
230
1
1
\W0.7317;53,95
40
3.5
41
0
44
1.084337
50
0
71
7
72
5
7
iso_b_vert
0
LINE
5
F7
100
AcDbEntity
8
SK2
62
256
6
ByLayer
370
13
48
1
60
0
100
AcDbLine
10
0
20
-1.5875
30
0
11
0
21
-15.313398
31
0
39
0
210
0
220
0
230
1
0
LINE
5
F8
100
AcDbEntity
8
SK2
62
256
6
ByLayer
370
13
48
1
60
0
100
AcDbLine
10
53.95
20
-4.6875
30
0
11
53.95
21
-15.313398
31
0
39
0
210
0
220
0
230
1
0
LINE
5
F9
100
AcDbEntity
8
SK2
62
256
6
ByLayer
370
13
48
1
60
0
100
AcDbLine
10
0
20
-13.313398
30
0
11
53.95
21
-13.313398
31
0
39
0
210
0
220
0
230
1
0
SOLID
5
FA
100
AcDbEntity
8
SK2
62
256
6
ByLayer
370
13
48
1
60
0
100
AcDbTrace
10
0
20
-13.313398
30
0
11
3.499998
21
-12.852615
31
0
12
3.500002
22
-13.774182
32
0
13
0
23
-13.313398
33
0
39
0
210
0
220
0
230
1
0
SOLID
5
FB
100
AcDbEntity
8
SK2
62
256
6
ByLayer
370
13
48
1
60
0
100
AcDbTrace
10
53.95
20
-13.313398
30
0
11
50.450002
21
-13.774182
31
0
12
50.449998
22
-12.852615
32
0
13
53.95
23
-13.313398
33
0
39
0
210
0
220
0
230
1
0
ENDBLK
5
FD
100
AcDbEntity
8
0
100
AcDbBlockEnd
0
BLOCK
5
106
100
AcDbEntity
8
0
100
AcDbBlockBegin
2
DimnDraft3D2
70
0
10
0
20
0
30
0
3
DimnDraft3D2
0
MTEXT
5
100
100
AcDbEntity
8
SK2
62
256
6
ByLayer
370
13
48
1
60
0
100
AcDbMText
10
5.780116
20
-31.817985
30
0
210
0
220
0
230
1
1
\W0.6713;91,00
40
3.5
41
0
44
1.084337
50
0
71
7
72
5
7
iso_b_vert
0
LINE
5
101
100
AcDbEntity
8
SK2
62
256
6
ByLayer
370
13
48
1
60
0
100
AcDbLine
10
-36
20
-5.5875
30
0
11
-36
21
-34.692985
31
0
39
0
210
0
220
0
230
1
0
LINE
5
102
100
AcDbEntity
8
SK2
62
256
6
ByLayer
370
13
48
1
60
0
100
AcDbLine
10
55
20
-1.5875
30
0
11
55
21
-34.692985
31
0
39
0
210
0
220
0
230
1
0
LINE
5
103
100
AcDbEntity
8
SK2
62
256
6
ByLayer
370
13
48
1
60
0
100
AcDbLine
10
-36
20
-32.692985
30
0
11
55
21
-32.692985
31
0
39
0
210
0
220
0
230
1
0
SOLID
5
104
100
AcDbEntity
8
SK2
62
256
6
ByLayer
370
13
48
1
60
0
100
AcDbTrace
10
-36
20
-32.692985
30
0
11
-32.500002
21
-32.232202
31
0
12
-32.499998
22
-33.153769
32
0
13
-36
23
-32.692985
33
0
39
0
210
0
220
0
230
1
0
SOLID
5
105
100
AcDbEntity
8
SK2
62
256
6
ByLayer
370
13
48
1
60
0
100
AcDbTrace
10
55
20
-32.692985
30
0
11
51.500002
21
-33.153769
31
0
12
51.499998
22
-32.232202
32
0
13
55
23
-32.692985
33
0
39
0
210
0
220
0
230
1
0
ENDBLK
5
107
100
AcDbEntity
8
0
100
AcDbBlockEnd
0
BLOCK
5
110
100
AcDbEntity
8
0
100
AcDbBlockBegin
2
DimnDraft3D3
70
0
10
0
20
0
30
0
3
DimnDraft3D3
0
MTEXT
5
10A
100
AcDbEntity
8
SK2
62
256
6
ByLayer
370
13
48
1
60
0
100
AcDbMText
10
34.526316
20
15.584119
30
0
210
0
220
0
230
1
1
\W0.7317;32,05
40
3.5
41
0
44
1.084337
50
0
71
7
72
5
7
iso_b_vert
0
LINE
5
10B
100
AcDbEntity
8
SK2
62
256
6
ByLayer
370
13
48
1
60
0
100
AcDbLine
10
22.95
20
4.6875
30
0
11
22.95
21
16.709119
31
0
39
0
210
0
220
0
230
1
0
LINE
5
10C
100
AcDbEntity
8
SK2
62
256
6
ByLayer
370
13
48
1
60
0
100
AcDbLine
10
55
20
1.5875
30
0
11
55
21
16.709119
31
0
39
0
210
0
220
0
230
1
0
LINE
5
10D
100
AcDbEntity
8
SK2
62
256
6
ByLayer
370
13
48
1
60
0
100
AcDbLine
10
22.95
20
14.709119
30
0
11
55
21
14.709119
31
0
39
0
210
0
220
0
230
1
0
SOLID
5
10E
100
AcDbEntity
8
SK2
62
256
6
ByLayer
370
13
48
1
60
0
100
AcDbTrace
10
22.95
20
14.709119
30
0
11
26.449998
21
15.169903
31
0
12
26.450002
22
14.248335
32
0
13
22.95
23
14.709119
33
0
39
0
210
0
220
0
230
1
0
SOLID
5
10F
100
AcDbEntity
8
SK2
62
256
6
ByLayer
370
13
48
1
60
0
100
AcDbTrace
10
55
20
14.709119
30
0
11
51.500002
21
14.248335
31
0
12
51.499998
22
15.169903
32
0
13
55
23
14.709119
33
0
39
0
210
0
220
0
230
1
0
ENDBLK
5
111
100
AcDbEntity
8
0
100
AcDbBlockEnd
0
BLOCK
5
11A
100
AcDbEntity
8
0
100
AcDbBlockBegin
2
DimnDraft3D4
70
0
10
0
20
0
30
0
3
DimnDraft3D4
0
MTEXT
5
114
100
AcDbEntity
8
SK2
62
256
6
ByLayer
370
13
48
1
60
0
100
AcDbMText
10
62.278136
20
-15.027503
30
0
210
0
220
0
230
1
1
\W0.6367;1,05
40
3.5
41
0
44
1.084337
50
0
71
7
72
5
7
iso_b_vert
0
LINE
5
115
100
AcDbEntity
8
SK2
62
256
6
ByLayer
370
13
48
1
60
0
100
AcDbLine
10
55
20
-1.5875
30
0
11
55
21
-17.902503
31
0
39
0
210
0
220
0
230
1
0
LINE
5
116
100
AcDbEntity
8
SK2
62
256
6
ByLayer
370
13
48
1
60
0
100
AcDbLine
10
53.95
20
-4.6875
30
0
11
53.95
21
-17.902503
31
0
39
0
210
0
220
0
230
1
0
LINE
5
117
100
AcDbEntity
8
SK2
62
256
6
ByLayer
370
13
48
1
60
0
100
AcDbLine
10
45.2
20
-15.902503
30
0
11
68.559715
21
-15.902503
31
0
39
0
210
0
220
0
230
1
0
SOLID
5
118
100
AcDbEntity
8
SK2
62
256
6
ByLayer
370
13
48
1
60
0
100
AcDbTrace
10
55
20
-15.902503
30
0
11
58.499998
21
-15.441719
31
0
12
58.500002
22
-16.363287
32
0
13
55
23
-15.902503
33
0
39
0
210
0
220
0
230
1
0
SOLID
5
119
100
AcDbEntity
8
SK2
62
256
6
ByLayer
370
13
48
1
60
0
100
AcDbTrace
10
53.95
20
-15.902503
30
0
11
50.450002
21
-16.363287
31
0
12
50.449998
22
-15.441719
32
0
13
53.95
23
-15.902503
33
0
39
0
210
0
220
0
230
1
0
ENDBLK
5
11B
100
AcDbEntity
8
0
100
AcDbBlockEnd
0
BLOCK
5
124
100
AcDbEntity
8
0
100
AcDbBlockBegin
2
DimnDraft3D5
70
0
10
0
20
0
30
0
3
DimnDraft3D5
0
MTEXT
5
11E
100
AcDbEntity
8
SK2
62
256
6
ByLayer
370
13
48
1
60
0
100
AcDbMText
10
2.261992
20
-21.468428
30
0
210
0
220
0
230
1
1
\W0.7317;89,95
40
3.5
41
0
44
1.084337
50
0
71
7
72
5
7
iso_b_vert
0
LINE
5
11F
100
AcDbEntity
8
SK2
62
256
6
ByLayer
370
13
48
1
60
0
100
AcDbLine
10
-36
20
-5.5875
30
0
11
-36
21
-24.343428
31
0
39
0
210
0
220
0
230
1
0
LINE
5
120
100
AcDbEntity
8
SK2
62
256
6
ByLayer
370
13
48
1
60
0
100
AcDbLine
10
53.95
20
-4.6875
30
0
11
53.95
21
-24.343428
31
0
39
0
210
0
220
0
230
1
0
LINE
5
121
100
AcDbEntity
8
SK2
62
256
6
ByLayer
370
13
48
1
60
0
100
AcDbLine
10
-36
20
-22.343428
30
0
11
53.95
21
-22.343428
31
0
39
0
210
0
220
0
230
1
0
SOLID
5
122
100
AcDbEntity
8
SK2
62
256
6
ByLayer
370
13
48
1
60
0
100
AcDbTrace
10
-36
20
-22.343428
30
0
11
-32.500002
21
-21.882645
31
0
12
-32.499998
22
-22.804212
32
0
13
-36
23
-22.343428
33
0
39
0
210
0
220
0
230
1
0
SOLID
5
123
100
AcDbEntity
8
SK2
62
256
6
ByLayer
370
13
48
1
60
0
100
AcDbTrace
10
53.95
20
-22.343428
30
0
11
50.450002
21
-22.804212
31
0
12
50.449998
22
-21.882645
32
0
13
53.95
23
-22.343428
33
0
39
0
210
0
220
0
230
1
0
ENDBLK
5
125
100
AcDbEntity
8
0
100
AcDbBlockEnd
0
BLOCK
5
12F
100
AcDbEntity
8
0
100
AcDbBlockBegin
2
DimnDraft3D6
70
0
10
0
20
0
30
0
3
DimnDraft3D6
0
MTEXT
5
128
100
AcDbEntity
8
SK2
62
256
6
ByLayer
370
13
48
1
60
0
100
AcDbMText
10
-46.375163
20
23.34918
30
0
210
0
220
0
230
1
1
\W0.7317;8,000
40
3.5
41
0
44
1.084337
50
90
71
7
72
5
7
iso_b_vert
0
MTEXT
5
129
100
AcDbEntity
8
SK2
62
256
6
ByLayer
370
13
48
1
60
0
100
AcDbMText
10
-46.375163
20
18.126524
30
0
210
0
220
0
230
1
1
%%c
40
3.5
41
0
44
1.084337
50
90
71
7
72
5
7
iso_b_vert
0
LINE
5
12A
100
AcDbEntity
8
SK2
62
256
6
ByLayer
370
13
48
1
60
0
100
AcDbLine
10
-37.5875
20
-4
30
0
11
-46.625163
21
-4
31
0
39
0
210
0
220
0
230
1
0
LINE
5
12B
100
AcDbEntity
8
SK2
62
256
6
ByLayer
370
13
48
1
60
0
100
AcDbLine
10
-37.5875
20
4
30
0
11
-46.625163
21
4
31
0
39
0
210
0
220
0
230
1
0
LINE
5
12C
100
AcDbEntity
8
SK2
62
256
6
ByLayer
370
13
48
1
60
0
100
AcDbLine
10
-44.625163
20
-4
30
0
11
-44.625163
21
33.121549
31
0
39
0
210
0
220
0
230
1
0
SOLID
5
12D
100
AcDbEntity
8
SK2
62
256
6
ByLayer
370
13
48
1
60
0
100
AcDbTrace
10
-44.625163
20
-4
30
0
11
-45.085946
21
-0.500002
31
0
12
-44.164379
22
-0.499998
32
0
13
-44.625163
23
-4
33
0
39
0
210
0
220
0
230
1
0
SOLID
5
12E
100
AcDbEntity
8
SK2
62
256
6
ByLayer
370
13
48
1
60
0
100
AcDbTrace
10
-44.625163
20
4
30
0
11
-44.164379
21
0.500002
31
0
12
-45.085946
22
0.499998
32
0
13
-44.625163
23
4
33
0
39
0
210
0
220
0
230
1
0
ENDBLK
5
130
100
AcDbEntity
8
0
100
AcDbBlockEnd
0
BLOCK
5
13A
100
AcDbEntity
8
0
100
AcDbBlockBegin
2
DimnDraft3D7
70
0
10
0
20
0
30
0
3
DimnDraft3D7
0
MTEXT
5
133
100
AcDbEntity
8
2
62
256
6
ByLayer
370
13
48
1
60
0
100
AcDbMText
10
65.333343
20
21.042266
30
0
210
0
220
0
230
1
1
\W0.7317;6,200
40
3.5
41
0
44
1.084337
50
90
71
7
72
5
7
iso_b_vert
0
MTEXT
5
134
100
AcDbEntity
8
2
62
256
6
ByLayer
370
13
48
1
60
0
100
AcDbMText
10
65.333343
20
15.81961
30
0
210
0
220
0
230
1
1
%%c
40
3.5
41
0
44
1.084337
50
90
71
7
72
5
7
iso_b_vert
0
LINE
5
135
100
AcDbEntity
8
2
62
256
6
ByLayer
370
13
48
1
60
0
100
AcDbLine
10
55.5375
20
-3.1
30
0
11
69.083343
21
-3.1
31
0
39
0
210
0
220
0
230
1
0
LINE
5
136
100
AcDbEntity
8
2
62
256
6
ByLayer
370
13
48
1
60
0
100
AcDbLine
10
55.5375
20
3.1
30
0
11
69.083343
21
3.1
31
0
39
0
210
0
220
0
230
1
0
LINE
5
137
100
AcDbEntity
8
2
62
256
6
ByLayer
370
13
48
1
60
0
100
AcDbLine
10
67.083343
20
30.814635
30
0
11
67.083343
21
-11.85
31
0
39
0
210
0
220
0
230
1
0
SOLID
5
138
100
AcDbEntity
8
2
62
256
6
ByLayer
370
13
48
1
60
0
100
AcDbTrace
10
67.083343
20
-3.1
30
0
11
67.544126
21
-6.599998
31
0
12
66.622559
22
-6.600002
32
0
13
67.083343
23
-3.1
33
0
39
0
210
0
220
0
230
1
0
SOLID
5
139
100
AcDbEntity
8
2
62
256
6
ByLayer
370
13
48
1
60
0
100
AcDbTrace
10
67.083343
20
3.1
30
0
11
66.622559
21
6.599998
31
0
12
67.544126
22
6.600002
32
0
13
67.083343
23
3.1
33
0
39
0
210
0
220
0
230
1
0
ENDBLK
5
13B
100
AcDbEntity
8
0
100
AcDbBlockEnd
0
ENDSEC
0
SECTION
2
ENTITIES
0
ARC
5
9F
100
AcDbEntity
8
1
62
256
6
ByLayer
370
18
48
1
60
0
100
AcDbCircle
39
0
10
0
20
3.2
30
0
40
0.800000000000002
210
0
220
0
230
1
100
AcDbArc
50
24.69543
51
90
0
ARC
5
A0
100
AcDbEntity
8
1
62
256
6
ByLayer
370
18
48
1
60
0
100
AcDbCircle
39
0
10
0
20
-3.2
30
0
40
0.800000000000002
210
0
220
0
230
1
100
AcDbArc
50
270
51
335.30457
0
ARC
5
A1
100
AcDbEntity
8
1
62
256
6
ByLayer
370
18
48
1
60
0
100
AcDbCircle
39
0
10
-1.453666
20
3.868471
30
0
40
0.800000000000002
210
0
220
0
230
-1
100
AcDbArc
50
269.965623
51
335.30457
0
ARC
5
A2
100
AcDbEntity
8
1
62
256
6
ByLayer
370
18
48
1
60
0
100
AcDbCircle
39
0
10
-1.453666
20
-3.868471
30
0
40
0.800000000000002
210
0
220
0
230
-1
100
AcDbArc
50
24.69543
51
90.034377
0
ELLIPSE
5
A3
100
AcDbEntity
8
1
62
256
6
ByLayer
370
13
48
1
60
0
100
AcDbEllipse
10
54.691841
20
1.598142
30
0
11
1.90808843055671
21
-0.922943977138492
31
0
210
0
220
0
230
-1
40
0.481297
41
1.5683048261611
42
1.8425173082468
0
ELLIPSE
5
A4
100
AcDbEntity
8
1
62
256
6
ByLayer
370
18
48
1
60
0
100
AcDbEllipse
10
54.377312
20
1.598142
30
0
11
0.480694676020917
21
-1.30082238809106
31
0
210
0
220
0
230
-1
40
0.115174
41
-1.49452383775955
42
-0.742863466702899
0
ELLIPSE
5
A5
100
AcDbEntity
8
1
62
256
6
ByLayer
370
18
48
1
60
0
100
AcDbEllipse
10
54.860618
20
0.104473
30
0
11
0.07278191049288
21
0.301917195714648
31
0
210
0
220
0
230
-1
40
0.478434
41
1.70057160587932
42
2.45976119972876
0
ELLIPSE
5
A6
100
AcDbEntity
8
1
62
256
6
ByLayer
370
13
48
1
60
0
100
AcDbEllipse
10
4.183784
20
0.324924
30
0
11
0.04664523045432
21
0.0884546351293327
31
0
210
0
220
0
230
1
40
0.361512
41
1.86540499818735
42
-3.06732201439032
0
ELLIPSE
5
A7
100
AcDbEntity
8
1
62
256
6
ByLayer
370
18
48
1
60
0
100
AcDbEllipse
10
55.047723
20
0.006543
30
0
11
0.13797912883472
21
0.428995648058619
31
0
210
0
220
0
230
-1
40
0.08774
41
-2.32337572125517
42
-1.6863019133517
0
ELLIPSE
5
A8
100
AcDbEntity
8
1
62
256
6
ByLayer
370
18
48
1
60
0
100
AcDbEllipse
10
54.377312
20
-1.598142
30
0
11
0.480694676005861
21
1.30082238805911
31
0
210
0
220
0
230
-1
40
0.115174
41
0.742863466705624
42
1.49452383777828
0
ELLIPSE
5
A9
100
AcDbEntity
8
1
62
256
6
ByLayer
370
13
48
1
60
0
100
AcDbEllipse
10
54.252387
20
0.465357
30
0
11
0.153082081612423
21
0.258003636193771
31
0
210
0
220
0
230
1
40
0.454519
41
0.917105603404735
42
2.31336900500022
0
ELLIPSE
5
AA
100
AcDbEntity
8
1
62
256
6
ByLayer
370
18
48
1
60
0
100
AcDbEllipse
10
55.047723
20
-0.006543
30
0
11
0.1379791288567
21
-0.428995648115858
31
0
210
0
220
0
230
-1
40
0.08774
41
1.68630191342256
42
2.32337572124611
0
ELLIPSE
5
AB
100
AcDbEntity
8
1
62
256
6
ByLayer
370
13
48
1
60
0
100
AcDbEllipse
10
4.250255
20
0.291361
30
0
11
0.0437942193282564
21
0.0899003134223045
31
0
210
0
220
0
230
1
40
0.043659
41
3.08210481945283
42
-1.65631486895723
0
ELLIPSE
5
AC
100
AcDbEntity
8
1
62
256
6
ByLayer
370
13
48
1
60
0
100
AcDbEllipse
10
54.501934
20
1.474944
30
0
11
1.83886302112029
21
-1.26610948063169
31
0
210
0
220
0
230
-1
40
0.533762
41
1.44484622738556
42
1.68012123722989
0
ELLIPSE
5
AD
100
AcDbEntity
8
1
62
256
6
ByLayer
370
18
48
1
60
0
100
AcDbEllipse
10
55.000278
20
0.000677
30
0
11
1.1447323524203
21
3.09779479100955
31
0
210
0
220
0
230
-1
40
0.115174
41
2.85712219616069
42
2.96712913862303
0
ELLIPSE
5
AE
100
AcDbEntity
8
1
62
256
6
ByLayer
370
18
48
1
60
0
100
AcDbEllipse
10
55.000278
20
-0.000677
30
0
11
1.14473234869677
21
-3.09779477998518
31
0
210
0
220
0
230
-1
40
0.115174
41
-2.96712913831209
42
-2.85712219565015
0
POINT
5
6C
100
AcDbEntity
8
81
62
256
6
ByLayer
370
18
48
1
60
0
100
AcDbPoint
10
55
20
0
30
0
39
0
210
0
220
0
230
1
50
360
0
POINT
5
6E
100
AcDbEntity
8
80
62
256
6
ByLayer
370
18
48
1
60
0
100
AcDbPoint
10
0
20
0
30
0
39
0
210
0
220
0
230
1
50
360
0
POINT
5
70
100
AcDbEntity
8
SK2
62
256
6
ByLayer
370
18
48
1
60
1
100
AcDbPoint
10
-36
20
-4
30
0
39
0
210
0
220
0
230
1
50
360
0
POINT
5
72
100
AcDbEntity
8
SK2
62
256
6
ByLayer
370
18
48
1
60
1
100
AcDbPoint
10
-36
20
4
30
0
39
0
210
0
220
0
230
1
50
360
0
POINT
5
73
100
AcDbEntity
8
2
62
256
6
ByLayer
370
18
48
1
60
1
100
AcDbPoint
10
53.95
20
-3.1
30
0
39
0
210
0
220
0
230
1
50
360
0
POINT
5
75
100
AcDbEntity
8
2
62
256
6
ByLayer
370
18
48
1
60
1
100
AcDbPoint
10
53.95
20
3.1
30
0
39
0
210
0
220
0
230
1
50
360
0
SPLINE
5
AF
100
AcDbEntity
8
1
62
256
6
ByLayer
370
18
48
1
60
0
100
AcDbSpline
70
4
71
2
72
6
73
3
40
0
40
0
40
0
40
1
40
1
40
1
41
1
10
4.25177182788835
20
-2.92194663724371
30
0
41
1
10
4.45502041689829
20
-2.92427373569151
30
0
41
1
10
4.65846279633567
20
-2.92500933022768
30
0
0
SPLINE
5
B0
100
AcDbEntity
8
1
62
256
6
ByLayer
370
18
48
1
60
0
100
AcDbSpline
70
4
71
3
72
15
73
11
40
0
40
0
40
0
40
0
40
0.0527144724565172
40
0.175936641798898
40
0.295213972829771
40
0.435879052420873
40
0.5181890347785
40
0.618253999874748
40
0.774992904519733
40
1
40
1
40
1
40
1
41
1
10
44.4638631519538
20
-0.884204811818051
30
0
41
1
10
44.4638745337139
20
-0.884133044434549
30
0
41
1
10
44.4663997157887
20
-0.88432821051174
30
0
41
1
10
44.4795452123254
20
-0.887963926198722
30
0
41
1
10
44.5223507770546
20
-0.900989637780327
30
0
41
1
10
44.5763400148049
20
-0.917011758246446
30
0
41
1
10
44.6524350613647
20
-0.942785126675233
30
0
41
1
10
44.7691839461384
20
-0.98759509994963
30
0
41
1
10
45.0059332196206
20
-1.08563492522222
30
0
41
1
10
45.2047140304755
20
-1.17391893006598
30
0
41
1
10
45.3330783076119
20
-1.23266095419888
30
0
0
SPLINE
5
B1
100
AcDbEntity
8
1
62
256
6
ByLayer
370
18
48
1
60
0
100
AcDbSpline
70
4
71
3
72
22
73
18
40
0
40
0
40
0
40
0
40
0.0845545149534106
40
0.16610803091893
40
0.245536813721559
40
0.316935979742971
40
0.378936339159455
40
0.438096716384756
40
0.511567967064077
40
0.617379766457931
40
0.71073018208568
40
0.787167800873024
40
0.815810094159377
40
0.843239297718471
40
0.888605447812235
40
0.954780404799871
40
1
40
1
40
1
40
1
41
1
10
14.4933767885035
20
-2.92724551503989
30
0
41
1
10
14.7517818579016
20
-2.92681425146193
30
0
41
1
10
15.2602337516986
20
-2.92653016839478
30
0
41
1
10
16.022579401314
20
-2.92671532750111
30
0
41
1
10
16.7305462466065
20
-2.93031509710767
30
0
41
1
10
17.3841439688425
20
-2.92832921763483
30
0
41
1
10
17.9802887127412
20
-2.93011875344246
30
0
41
1
10
18.5780182763367
20
-2.93011395350632
30
0
41
1
10
19.3148788751204
20
-2.9327101602247
30
0
41
1
10
20.1564881101122
20
-2.93050293813869
30
0
41
1
10
21.0075244333487
20
-2.93421091259199
30
0
41
1
10
21.6202592744243
20
-2.93228899251039
30
0
41
1
10
22.0292841481967
20
-2.93279724998791
30
0
41
1
10
22.3422712971733
20
-2.93412788561705
30
0
41
1
10
22.7714671830358
20
-2.93451051446519
30
0
41
1
10
23.2555120160544
20
-2.93318880352524
30
0
41
1
10
23.5993474280182
20
-2.93404246650619
30
0
41
1
10
23.7389068796474
20
-2.93449793067813
30
0
0
SPLINE
5
B2
100
AcDbEntity
8
1
62
256
6
ByLayer
370
18
48
1
60
0
100
AcDbSpline
70
4
71
2
72
6
73
3
40
0
40
0
40
0
40
1
40
1
40
1
41
1
10
53.385232234816
20
-2.95069144078298
30
0
41
1
10
53.6570572266222
20
-2.94919136119302
30
0
41
1
10
53.928652071711
20
-2.95174935562278
30
0
0
SPLINE
5
B3
100
AcDbEntity
8
1
62
256
6
ByLayer
370
18
48
1
60
0
100
AcDbSpline
70
4
71
3
72
21
73
17
40
0
40
0
40
0
40
0
40
0.103151725453048
40
0.190614203300769
40
0.265406267750076
40
0.328380366421908
40
0.38738160117005
40
0.459221032566084
40
0.542767464081924
40
0.614178522249335
40
0.66600280763724
40
0.71957884928099
40
0.794647010694685
40
0.869705852113325
40
0.943763305872658
40
1
40
1
40
1
40
1
41
1
10
33.8980585279322
20
-2.93914255559741
30
0
41
1
10
34.2136502043641
20
-2.93777281554992
30
0
41
1
10
34.7985756988996
20
-2.93653729013462
30
0
41
1
10
35.6287477858299
20
-2.93627544805327
30
0
41
1
10
36.3187735172171
20
-2.94141329365078
30
0
41
1
10
36.9310928794019
20
-2.94038597070644
30
0
41
1
10
37.53303552408
20
-2.94184155443483
30
0
41
1
10
38.1993723348003
20
-2.94120195635477
30
0
41
1
10
38.904021297426
20
-2.94207135897963
30
0
41
1
10
39.546571554272
20
-2.94244171118106
30
0
41
1
10
40.0960134382409
20
-2.94176862812759
30
0
41
1
10
40.6567883250382
20
-2.94401428822309
30
0
41
1
10
41.2899535241119
20
-2.94289567777508
30
0
41
1
10
41.9859760886867
20
-2.94313509863164
30
0
41
1
10
42.6237848830471
20
-2.94211871133851
30
0
41
1
10
43.0277882911557
20
-2.94334094829719
30
0
41
1
10
43.2020903337433
20
-2.94404400509185
30
0
0
SPLINE
5
B4
100
AcDbEntity
8
1
62
256
6
ByLayer
370
18
48
1
60
0
100
AcDbSpline
70
4
71
3
72
10
73
6
40
0
40
0
40
0
40
0
40
0.0807869092126982
40
0.348002074447106
40
1
40
1
40
1
40
1
41
1
10
32.6932986228391
20
0.364184784188779
30
0
41
1
10
32.6934664983575
20
0.364180492127446
30
0
41
1
10
32.6923495495124
20
0.364941449411305
30
0
41
1
10
32.6605814210295
20
0.37950231428394
30
0
41
1
10
32.608804732001
20
0.403991394387305
30
0
41
1
10
32.5554227599496
20
0.429094439326889
30
0
0
SPLINE
5
B5
100
AcDbEntity
8
1
62
256
6
ByLayer
370
18
48
1
60
0
100
AcDbSpline
70
4
71
3
72
21
73
17
40
0
40
0
40
0
40
0
40
0.0563638891037981
40
0.137760244355753
40
0.21584890758365
40
0.299444044391272
40
0.37066016936741
40
0.421802217898709
40
0.481102799979302
40
0.558713373917846
40
0.660736110858101
40
0.748462842907279
40
0.820512209261365
40
0.89741303897103
40
0.988745379300728
40
1
40
1
40
1
40
1
41
1
10
43.204939754828
20
2.94392062305457
30
0
41
1
10
43.0619822036828
20
2.94325013145343
30
0
41
1
10
42.7123931990358
20
2.94196535407542
30
0
41
1
10
42.1625366816295
20
2.94361106940593
30
0
41
1
10
41.5454919252097
20
2.94214976348783
30
0
41
1
10
40.9524398031116
20
2.9441503957739
30
0
41
1
10
40.4284342572677
20
2.94289025066195
30
0
41
1
10
39.9661449437412
20
2.94184690192904
30
0
41
1
10
39.4876133564765
20
2.94250865848514
30
0
41
1
10
38.8796122534115
20
2.94200216598196
30
0
41
1
10
38.1993727271432
20
2.94121189046416
30
0
41
1
10
37.533035445415
20
2.94183956264229
30
0
41
1
10
36.9310929000498
20
2.94038649350844
30
0
41
1
10
36.3187735103696
20
2.94141312027151
30
0
41
1
10
35.8684677415348
20
2.93806035133906
30
0
41
1
10
35.6082985586956
20
2.93717913391902
30
0
41
1
10
35.5797285792118
20
2.93709386050421
30
0
0
SPLINE
5
B6
100
AcDbEntity
8
1
62
256
6
ByLayer
370
18
48
1
60
0
100
AcDbSpline
70
4
71
3
72
14
73
10
40
0
40
0
40
0
40
0
40
0.106531280328618
40
0.304327082063409
40
0.482803612417975
40
0.62537901465355
40
0.689296421611618
40
0.776329124490617
40
1
40
1
40
1
40
1
41
1
10
25.0596010881969
20
-0.883999612387896
30
0
41
1
10
25.0598560545438
20
-0.883953696072894
30
0
41
1
10
25.0718010841553
20
-0.885357309118632
30
0
41
1
10
25.1106944493024
20
-0.896767260985399
30
0
41
1
10
25.204505054112
20
-0.926696457749301
30
0
41
1
10
25.3209213767955
20
-0.968112493615877
30
0
41
1
10
25.4339370068082
20
-1.01385438158962
30
0
41
1
10
25.617493461326
20
-1.09073908239839
30
0
41
1
10
25.7796555454309
20
-1.16340372873665
30
0
41
1
10
25.9080224113636
20
-1.22289851486008
30
0
0
SPLINE
5
B7
100
AcDbEntity
8
1
62
256
6
ByLayer
370
18
48
1
60
0
100
AcDbSpline
70
4
71
2
72
6
73
3
40
0
40
0
40
0
40
1
40
1
40
1
41
1
10
4.64713967172253
20
2.92493824999181
30
0
41
1
10
4.44936155194523
20
2.92421604355809
30
0
41
1
10
4.25177182788838
20
2.92194663724411
30
0
0
SPLINE
5
B8
100
AcDbEntity
8
1
62
256
6
ByLayer
370
18
48
1
60
0
100
AcDbSpline
70
4
71
3
72
9
73
5
40
0
40
0
40
0
40
0
40
0.197104345709173
40
1
40
1
40
1
40
1
41
1
10
13.2845082582363
20
0.368147476526673
30
0
41
1
10
13.284243385272
20
0.368462063210444
30
0
41
1
10
13.2757503037365
20
0.373074592253147
30
0
41
1
10
13.2300144938196
20
0.39449409361643
30
0
41
1
10
13.1697122575856
20
0.421865366615606
30
0
0
SPLINE
5
B9
100
AcDbEntity
8
1
62
256
6
ByLayer
370
18
48
1
60
0
100
AcDbSpline
70
4
71
3
72
19
73
15
40
0
40
0
40
0
40
0
40
0.0601210241478107
40
0.136525111567516
40
0.211832847913291
40
0.299958149605887
40
0.391531397218362
40
0.472375230315512
40
0.545391698082266
40
0.639951004682845
40
0.740991839161392
40
0.834532571364465
40
0.928989178433316
40
1
40
1
40
1
40
1
41
1
10
23.8167621763895
20
2.93435704446247
30
0
41
1
10
23.6639043983486
20
2.93359221734758
30
0
41
1
10
23.316482543742
20
2.93232949167651
30
0
41
1
10
22.7742638932294
20
2.93433533568606
30
0
41
1
10
22.1636752380313
20
2.93354901688679
30
0
41
1
10
21.5114531689969
20
2.93211118653093
30
0
41
1
10
20.8457604589844
20
2.93394343595386
30
0
41
1
10
20.2185019134991
20
2.93089652070444
30
0
41
1
10
19.5836203595969
20
2.9325949684243
30
0
41
1
10
18.8972665795548
20
2.9303335865178
30
0
41
1
10
18.1584512804733
20
2.93091607151913
30
0
41
1
10
17.4197797966517
20
2.92962064996269
30
0
41
1
10
16.7583276831586
20
2.92950614580934
30
0
41
1
10
16.3354687597616
20
2.92909250154884
30
0
41
1
10
16.1539814982523
20
2.92889735317004
30
0
0
SPLINE
5
BA
100
AcDbEntity
8
1
62
256
6
ByLayer
370
18
48
1
60
0
100
AcDbSpline
70
4
71
3
72
8
73
4
40
0
40
0
40
0
40
0
40
1
40
1
40
1
40
1
41
1
10
4.0627889886421
20
0.296546582840847
30
0
41
1
10
4.08372548026503
20
0.271907356819838
30
0
41
1
10
4.10945242399222
20
0.250936742070905
30
0
41
1
10
4.13964014705402
20
0.235462151310458
30
0
0
SPLINE
5
BB
100
AcDbEntity
8
1
62
256
6
ByLayer
370
18
48
1
60
0
100
AcDbSpline
70
4
71
3
72
16
73
12
40
0
40
0
40
0
40
0
40
0.249999999999996
40
0.249999999999996
40
0.374999999999993
40
0.374999999999993
40
0.499999999999991
40
0.499999999999991
40
0.749999999999996
40
0.749999999999996
40
1
40
1
40
1
40
1
41
1
10
51.5362828134823
20
0.625768762498382
30
0
41
1
10
51.6348203113736
20
0.393615150148321
30
0
41
1
10
51.7586921804317
20
0.171871136413245
30
0
41
1
10
51.9722355786409
20
-0.149348650769667
30
0
41
1
10
52.0480203892442
20
-0.254165927083761
30
0
41
1
10
52.2040836448895
20
-0.455407731683579
30
0
41
1
10
52.2848371444061
20
-0.552552039690852
30
0
41
1
10
52.5341208117014
20
-0.835014405537549
30
0
41
1
10
52.7100580708852
20
-1.01186300654456
30
0
41
1
10
53.0753183145622
20
-1.34421147561562
30
0
41
1
10
53.2625387812963
20
-1.49791040692901
30
0
41
1
10
53.453690222318
20
-1.64092602417526
30
0
0
SPLINE
5
BC
100
AcDbEntity
8
1
62
256
6
ByLayer
370
18
48
1
60
0
100
AcDbSpline
70
4
71
3
72
18
73
14
40
0
40
0
40
0
40
0
40
0.125000000000004
40
0.125000000000004
40
0.250000000000009
40
0.250000000000009
40
0.500000000000009
40
0.500000000000009
40
0.750000000000009
40
0.750000000000009
40
0.875000000000005
40
0.875000000000005
40
1
40
1
40
1
40
1
41
1
10
54.5633250213926
20
-1.55422366271588
30
0
41
1
10
54.5404115033068
20
-1.61631375633473
30
0
41
1
10
54.5173608966388
20
-1.67834344696243
30
0
41
1
10
54.4711692141298
20
-1.80236296633751
30
0
41
1
10
54.4480519097128
20
-1.86432437764742
30
0
41
1
10
54.378573192488
20
-2.04958358096346
30
0
41
1
10
54.3320694568316
20
-2.17227366384398
30
0
41
1
10
54.2384660944687
20
-2.41501947093661
30
0
41
1
10
54.1915690331489
20
-2.53597071100236
30
0
41
1
10
54.1207502862044
20
-2.71530581308147
30
0
41
1
10
54.0970427928544
20
-2.7746365919439
30
0
41
1
10
54.0494396797841
20
-2.89246646687323
30
0
41
1
10
54.0256012795572
20
-2.95121852305542
30
0
41
1
10
54.0016836433232
20
-3.00962028691123
30
0
0
SPLINE
5
BD
100
AcDbEntity
8
1
62
256
6
ByLayer
370
18
48
1
60
0
100
AcDbSpline
70
4
71
3
72
18
73
14
40
0
40
0
40
0
40
0
40
0.25
40
0.25
40
0.5
40
0.5
40
0.625
40
0.625
40
0.75
40
0.75
40
0.875
40
0.875
40
1
40
1
40
1
40
1
41
1
10
53.7518177898
20
0.96118830191088
30
0
41
1
10
53.8403743101382
20
0.982030238769084
30
0
41
1
10
53.9279991935047
20
1.00553395408636
30
0
41
1
10
54.1001096571076
20
1.06180523893732
30
0
41
1
10
54.1851602368899
20
1.09448423979643
30
0
41
1
10
54.3063307497735
20
1.15747103298827
30
0
41
1
10
54.345401616337
20
1.18072833333466
30
0
41
1
10
54.4190234651126
20
1.23443335497626
30
0
41
1
10
54.4528674669227
20
1.26430450466168
30
0
41
1
10
54.5109525282192
20
1.33400944244806
30
0
41
1
10
54.5346450343002
20
1.37381836394883
30
0
41
1
10
54.563269969708
20
1.46148808707059
30
0
41
1
10
54.567622981328
20
1.50806395006023
30
0
41
1
10
54.5633250213926
20
1.55422366271588
30
0
0
SPLINE
5
BE
100
AcDbEntity
8
1
62
256
6
ByLayer
370
18
48
1
60
0
100
AcDbSpline
70
4
71
3
72
14
73
10
40
0
40
0
40
0
40
0
40
0.229674067413482
40
0.229674067413482
40
0.459348134826964
40
0.459348134826964
40
0.918696269653928
40
0.918696269653928
40
1
40
1
40
1
40
1
41
1
10
12.1463266243026
20
2.9799307979018
30
0
41
1
10
11.8783744712611
20
2.94671774987515
30
0
41
1
10
11.6086482128493
20
2.9061046715023
30
0
41
1
10
11.0654142919508
20
2.81302608411522
30
0
41
1
10
10.7913868640053
20
2.76043103705064
30
0
41
1
10
9.96782623728274
20
2.59006517222557
30
0
41
1
10
9.41635809309804
20
2.45967726897337
30
0
41
1
10
8.76136349938378
20
2.30117263727533
30
0
41
1
10
8.66270572278233
20
2.27720550615325
30
0
41
1
10
8.56387699691265
20
2.25317714120635
30
0
0
SPLINE
5
BF
100
AcDbEntity
8
1
62
256
6
ByLayer
370
18
48
1
60
0
100
AcDbSpline
70
4
71
3
72
62
73
58
40
0
40
0
40
0
40
0
40
0.0624999999999882
40
0.0624999999999882
40
0.124999999999976
40
0.124999999999976
40
0.249999999999954
40
0.249999999999954
40
0.374999999999932
40
0.374999999999932
40
0.49999999999991
40
0.49999999999991
40
0.562499999999898
40
0.562499999999898
40
0.624999999999886
40
0.624999999999886
40
0.65624999999988
40
0.65624999999988
40
0.66406249999988
40
0.66406249999988
40
0.667968749999879
40
0.667968749999879
40
0.66992187499988
40
0.66992187499988
40
0.671874999999881
40
0.671874999999881
40
0.687499999999886
40
0.687499999999886
40
0.718749999999895
40
0.718749999999895
40
0.7343749999999
40
0.7343749999999
40
0.749999999999905
40
0.749999999999905
40
0.757812499999908
40
0.757812499999908
40
0.765624999999911
40
0.765624999999911
40
0.781249999999916
40
0.781249999999916
40
0.796874999999922
40
0.796874999999922
40
0.804687499999925
40
0.804687499999925
40
0.812499999999928
40
0.812499999999928
40
0.828124999999934
40
0.828124999999934
40
0.843749999999941
40
0.843749999999941
40
0.874999999999952
40
0.874999999999952
40
0.906249999999964
40
0.906249999999964
40
0.937499999999976
40
0.937499999999976
40
1
40
1
40
1
40
1
41
1
10
12.1463266243025
20
-2.97993079790177
30
0
41
1
10
11.8783744712594
20
-2.94671774987495
30
0
41
1
10
11.608648212846
20
-2.90610467150182
30
0
41
1
10
11.0654142919442
20
-2.81302608411406
30
0
41
1
10
10.791386863997
20
-2.76043103704904
30
0
41
1
10
9.96782623726955
20
-2.59006517222267
30
0
41
1
10
9.41635809308153
20
-2.45967726896947
30
0
41
1
10
8.30336629807519
20
-2.19034015345204
30
0
41
1
10
7.74179255359684
20
-2.05148824960602
30
0
41
1
10
6.60420847904498
20
-1.79060177672937
30
0
41
1
10
6.02819151683678
20
-1.66870298815331
30
0
41
1
10
5.15149210621172
20
-1.5146970109333
30
0
41
1
10
4.856879740137
20
-1.46808580684069
30
0
41
1
10
4.26455642494258
20
-1.38665453425935
30
0
41
1
10
3.9675498866701
20
-1.35191824837932
30
0
41
1
10
3.52070899263393
20
-1.30982492540139
30
0
41
1
10
3.3715403232444
20
-1.29745938995799
30
0
41
1
10
3.18479594892813
20
-1.28417625023906
30
0
41
1
10
3.14743289561983
20
-1.2816282818377
30
0
41
1
10
3.091366921428
20
-1.27797096335127
30
0
41
1
10
3.07265679310774
20
-1.27787365117339
30
0
41
1
10
3.04497597962433
20
-1.28159325601638
30
0
41
1
10
3.03570754665407
20
-1.28346255926519
30
0
41
1
10
3.018217797582
20
-1.28886053769875
30
0
41
1
10
3.01010808293856
20
-1.29273183060184
30
0
41
1
10
2.93617193180711
20
-1.32578345507579
30
0
41
1
10
2.87116760437797
20
-1.35659426171918
30
0
41
1
10
2.68044353657109
20
-1.45335715608965
30
0
41
1
10
2.55902426648967
20
-1.52333634437431
30
0
41
1
10
2.39075171730727
20
-1.6407437095954
30
0
41
1
10
2.33700129682484
20
-1.68197781148623
30
0
41
1
10
2.23604375963112
20
-1.77013908721759
30
0
41
1
10
2.18883531819719
20
-1.81724173563464
30
0
41
1
10
2.12815122345501
20
-1.8904168099524
30
0
41
1
10
2.10949112833953
20
-1.91533364811468
30
0
41
1
10
2.07581756276994
20
-1.96635124442301
30
0
41
1
10
2.06081017788102
20
-1.99251949194274
30
0
41
1
10
2.02320498157525
20
-2.07064086396832
30
0
41
1
10
2.00748132138546
20
-2.12291335896228
30
0
41
1
10
1.99670217980503
20
-2.22749568522667
30
0
41
1
10
2.00196253159635
20
-2.27760164271211
30
0
41
1
10
2.02324556684192
20
-2.34855697806492
30
0
41
1
10
2.03264966888384
20
-2.3716866245648
30
0
41
1
10
2.05499829850231
20
-2.4157392704837
30
0
41
1
10
2.06795542771383
20
-2.43678415118259
30
0
41
1
10
2.11132781889606
20
-2.49738626222376
30
0
41
1
10
2.14625938016837
20
-2.53448103630262
30
0
41
1
10
2.22482374948172
20
-2.60320891016181
30
0
41
1
10
2.26770460804602
20
-2.63421828279329
30
0
41
1
10
2.40399893448824
20
-2.71983573695934
30
0
41
1
10
2.50492158302376
20
-2.76715444420103
30
0
41
1
10
2.71893804301325
20
-2.84902881317561
30
0
41
1
10
2.83020780538573
20
-2.88276301140263
30
0
41
1
10
3.05778256177493
20
-2.94020003156177
30
0
41
1
10
3.17421070199978
20
-2.96386047009239
30
0
41
1
10
3.52917406578399
20
-3.02307922615597
30
0
41
1
10
3.77327673742559
20
-3.04703615661936
30
0
41
1
10
4.02219789024693
20
-3.05963952528197
30
0
0
SPLINE
5
C0
100
AcDbEntity
8
1
62
256
6
ByLayer
370
18
48
1
60
0
100
AcDbSpline
70
4
71
3
72
31
73
27
40
0
40
0
40
0
40
0
40
0.0660746942270477
40
0.0660746942270477
40
0.132149388454095
40
0.132149388454095
40
0.264298776908191
40
0.264298776908191
40
0.330373471135238
40
0.330373471135238
40
0.396448165362286
40
0.396448165362286
40
0.528597553816381
40
0.528597553816381
40
0.594672248043429
40
0.594672248043429
40
0.660746942270477
40
0.726821636497525
40
0.726821636497525
40
0.792896330724572
40
0.792896330724572
40
0.925045719178668
40
0.925045719178668
40
0.991120413405716
40
0.991120413405716
40
1
40
1
40
1
40
1
41
1
10
4.02151290832185
20
0.398644583504222
30
0
41
1
10
4.02153791121765
20
0.495799955009318
30
0
41
1
10
4.02156210829108
20
0.592182182210252
30
0
41
1
10
4.02160912024399
20
0.783394898291959
30
0
41
1
10
4.02163185911394
20
0.877928774955024
30
0
41
1
10
4.02169736219321
20
1.1549067078345
30
0
41
1
10
4.02173777203706
20
1.33215662901188
30
0
41
1
10
4.02179501924905
20
1.58691035470574
30
0
41
1
10
4.0218136291175
20
1.67038361454681
30
0
41
1
10
4.0218494045123
20
1.83111175150202
30
0
41
1
10
4.02186655036127
20
1.90827026284796
30
0
41
1
10
4.02191615205385
20
2.13038380319563
30
0
41
1
10
4.02194680061513
20
2.26606101096868
30
0
41
1
10
4.02199011239134
20
2.45045376832172
30
0
41
1
10
4.02200405501495
20
2.50850362069497
30
0
41
1
10
4.02203056598944
20
2.6157386104602
30
0
41
1
10
4.02205585520119
20
2.7147654229756
30
0
41
1
10
4.02207886790214
20
2.79761128884204
30
0
41
1
10
4.02210074472592
20
2.87226454829752
30
0
41
1
10
4.02211115807376
20
2.90561925029968
30
0
41
1
10
4.02214026389129
20
2.99199783056335
30
0
41
1
10
4.02215667293683
20
3.03099234260054
30
0
41
1
10
4.02217629190102
20
3.06246773624326
30
0
41
1
10
4.02218198860007
20
3.06842598474944
30
0
41
1
10
4.0221873701351
20
3.0699125147585
30
0
41
1
10
4.02218799023996
20
3.07000343929775
30
0
41
1
10
4.02218859248171
20
3.07000947867002
30
0
0
SPLINE
5
C1
100
AcDbEntity
8
1
62
256
6
ByLayer
370
18
48
1
60
0
100
AcDbSpline
70
4
71
3
72
12
73
8
40
0
40
0
40
0
40
0
40
0.585718481627736
40
0.585718481627736
40
0.878577722441604
40
0.878577722441604
40
1
40
1
40
1
40
1
41
1
10
7.01528270730171
20
2.65989375393769
30
0
41
1
10
6.54721145285379
20
2.75072003135924
30
0
41
1
10
6.08309792756569
20
2.82502859467172
30
0
41
1
10
5.39088396118583
20
2.89493508546536
30
0
41
1
10
5.16075807975827
20
2.91149499641341
30
0
41
1
10
4.83633746352828
20
2.92290535361221
30
0
41
1
10
4.74169376753551
20
2.92477941037333
30
0
41
1
10
4.64753939490254
20
2.92505700553039
30
0
0
SPLINE
5
C2
100
AcDbEntity
8
1
62
256
6
ByLayer
370
18
48
1
60
0
100
AcDbSpline
70
4
71
3
72
68
73
64
40
0
40
0
40
0
40
0
40
0.0327492987464789
40
0.0327492987464789
40
0.0654985974929578
40
0.0654985974929578
40
0.0982478962394367
40
0.0982478962394367
40
0.130997194985916
40
0.130997194985916
40
0.163746493732394
40
0.163746493732394
40
0.196495792478873
40
0.196495792478873
40
0.229245091225352
40
0.229245091225352
40
0.261994389971831
40
0.261994389971831
40
0.29474368871831
40
0.29474368871831
40
0.327492987464789
40
0.327492987464789
40
0.360242286211268
40
0.360242286211268
40
0.392991584957747
40
0.392991584957747
40
0.425740883704226
40
0.425740883704226
40
0.458490182450705
40
0.458490182450705
40
0.491239481197184
40
0.491239481197184
40
0.507614130570423
40
0.507614130570423
40
0.523988779943663
40
0.523988779943663
40
0.556738078690143
40
0.556738078690143
40
0.589487377436623
40
0.589487377436623
40
0.622236676183102
40
0.622236676183102
40
0.654985974929582
40
0.654985974929582
40
0.687735273676062
40
0.687735273676062
40
0.720484572422542
40
0.720484572422542
40
0.753233871169021
40
0.753233871169021
40
0.785983169915501
40
0.785983169915501
40
0.85148176740846
40
0.85148176740846
40
0.88423106615494
40
0.88423106615494
40
0.916980364901419
40
0.916980364901419
40
0.949729663647898
40
0.949729663647898
40
0.982478962394377
40
0.982478962394377
40
1
40
1
40
1
40
1
41
1
10
7.01531879269288
20
2.65987105894533
30
0
41
1
10
7.24931484577317
20
2.61411036666155
30
0
41
1
10
7.48262365040443
20
2.56295852301963
30
0
41
1
10
7.9478284925963
20
2.44935341207639
30
0
41
1
10
8.17977171229816
20
2.38726923293595
30
0
41
1
10
8.64247741789217
20
2.25344411977281
30
0
41
1
10
8.87349922923721
20
2.18195102732065
30
0
41
1
10
9.33567071416286
20
2.02996168835463
30
0
41
1
10
9.56671052534409
20
1.94955435189834
30
0
41
1
10
10.0285939909522
20
1.78075582989254
30
0
41
1
10
10.2594705768838
20
1.69226211758667
30
0
41
1
10
10.7227017979953
20
1.5087535857765
30
0
41
1
10
10.9548705992815
20
1.41346729677545
30
0
41
1
10
11.4201450520586
20
1.2164220217602
30
0
41
1
10
11.6533855586118
20
1.11425305528817
30
0
41
1
10
12.121170831635
20
0.906293602796467
30
0
41
1
10
12.3542632590653
20
0.800756739802353
30
0
41
1
10
12.8190157182074
20
0.586881361767098
30
0
41
1
10
13.050490202977
20
0.47812750056309
30
0
41
1
10
13.5130734103483
20
0.260195963908416
30
0
41
1
10
13.7442253268305
20
0.151102490092228
30
0
41
1
10
14.2061757779938
20
-0.0675474727043195
30
0
41
1
10
14.4368262967089
20
-0.177435142055884
30
0
41
1
10
14.8983921235991
20
-0.396301748062285
30
0
41
1
10
15.1296896749662
20
-0.504441566249341
30
0
41
1
10
15.5930322668191
20
-0.718804966422766
30
0
41
1
10
15.8250133786119
20
-0.825169879859345
30
0
41
1
10
16.2897971738844
20
-1.03582093555272
30
0
41
1
10
16.5237125729512
20
-1.13890557880862
30
0
41
1
10
16.9914284333384
20
-1.33919526981003
30
0
41
1
10
17.2244582459728
20
-1.43631237140235
30
0
41
1
10
17.5727649988261
20
-1.57843011945556
30
0
41
1
10
17.6886589242787
20
-1.62513587252195
30
0
41
1
10
17.9203402478127
20
-1.71585961395172
30
0
41
1
10
18.0361127950202
20
-1.75994716025363
30
0
41
1
10
18.3832182800691
20
-1.8891873351341
30
0
41
1
10
18.6143599076318
20
-1.97130694251206
30
0
41
1
10
19.0760081590491
20
-2.12876099104133
30
0
41
1
10
19.3064528615129
20
-2.20422086734743
30
0
41
1
10
19.7685329864502
20
-2.34217328812349
30
0
41
1
10
19.9998962965896
20
-2.40608882295408
30
0
41
1
10
20.4630564152507
20
-2.52526364053173
30
0
41
1
10
20.6946020168374
20
-2.58111953537102
30
0
41
1
10
21.1599716745805
20
-2.67934474916686
30
0
41
1
10
21.3940954367149
20
-2.72205226114323
30
0
41
1
10
21.8620088100059
20
-2.7969022541304
30
0
41
1
10
22.0948670731746
20
-2.82928531873139
30
0
41
1
10
22.5595306669038
20
-2.88163783512164
30
0
41
1
10
22.7913924136849
20
-2.90023923628883
30
0
41
1
10
23.2543044967632
20
-2.92577218394027
30
0
41
1
10
23.4852591748861
20
-2.932834865839
30
0
41
1
10
24.1774225267099
20
-2.9374772564606
30
0
41
1
10
24.6396392672357
20
-2.91258737011782
30
0
41
1
10
25.3335459457942
20
-2.84290779652608
30
0
41
1
10
25.5654073476084
20
-2.81346466397451
30
0
41
1
10
26.0309398416829
20
-2.74152308385607
30
0
41
1
10
26.2646189668948
20
-2.69945064327481
30
0
41
1
10
26.7325194761513
20
-2.60445065951239
30
0
41
1
10
26.9654959223579
20
-2.55182300281263
30
0
41
1
10
27.4304312315577
20
-2.43492410089078
30
0
41
1
10
27.6623083830775
20
-2.37111549890662
30
0
41
1
10
28.0173898088207
20
-2.26648314632914
30
0
41
1
10
28.1409579230515
20
-2.22878468481153
30
0
41
1
10
28.2644675299481
20
-2.18977968420336
30
0
0
SPLINE
5
C3
100
AcDbEntity
8
1
62
256
6
ByLayer
370
18
48
1
60
0
100
AcDbSpline
70
4
71
3
72
30
73
26
40
0
40
0
40
0
40
0
40
0.0820329305686071
40
0.0820329305686071
40
0.165484482335097
40
0.165484482335097
40
0.248936034101588
40
0.248936034101588
40
0.332387585868078
40
0.332387585868078
40
0.415839137634568
40
0.415839137634568
40
0.499290689401058
40
0.499290689401058
40
0.582742241167549
40
0.582742241167549
40
0.666193792934039
40
0.666193792934039
40
0.749645344700529
40
0.749645344700529
40
0.833096896467019
40
0.833096896467019
40
0.91654844823351
40
0.91654844823351
40
1
40
1
40
1
40
1
41
1
10
43.2045093959608
20
2.94328251238264
30
0
41
1
10
43.4314107648618
20
2.94313316091285
30
0
41
1
10
43.6580854505425
20
2.93809463043041
30
0
41
1
10
44.115985172577
20
2.91306205675585
30
0
41
1
10
44.3470811864447
20
2.8935289820713
30
0
41
1
10
44.8096354808183
20
2.84214182483049
30
0
41
1
10
45.0411150651227
20
2.81016190781688
30
0
41
1
10
45.505863550165
20
2.73509993341159
30
0
41
1
10
45.738934394392
20
2.69193867241063
30
0
41
1
10
46.2062409079475
20
2.59479650349132
30
0
41
1
10
46.4399069277608
20
2.54068477877124
30
0
41
1
10
46.9051757096928
20
2.42226482264746
30
0
41
1
10
47.1371468889844
20
2.35758552254953
30
0
41
1
10
47.5999295862833
20
2.2184297421058
30
0
41
1
10
47.8305678641734
20
2.1437940210601
30
0
41
1
10
48.2917933059887
20
1.98651059505261
30
0
41
1
10
48.522434893831
20
1.90389391653258
30
0
41
1
10
48.9836724539036
20
1.73091622169815
30
0
41
1
10
49.2141650561213
20
1.64047938015068
30
0
41
1
10
49.6755753178393
20
1.45272342890078
30
0
41
1
10
49.9068544142259
20
1.35593859594169
30
0
41
1
10
50.3705788875469
20
1.15629899583178
30
0
41
1
10
50.6029549036698
20
1.0535143553912
30
0
41
1
10
51.0688182240704
20
0.842331532618061
30
0
41
1
10
51.3030188771721
20
0.734369789446532
30
0
41
1
10
51.5362828134824
20
0.625768762498581
30
0
0
SPLINE
5
C4
100
AcDbEntity
8
1
62
256
6
ByLayer
370
18
48
1
60
0
100
AcDbSpline
70
4
71
3
72
14
73
10
40
0
40
0
40
0
40
0
40
0.231261932001832
40
0.231261932001832
40
0.602453661928538
40
0.602453661928538
40
0.973645391855244
40
0.973645391855244
40
1
40
1
40
1
40
1
41
1
10
53.3815389394601
20
-2.95068016696362
30
0
41
1
10
53.0571821587099
20
-2.95139759482154
30
0
41
1
10
52.732789808795
20
-2.93985060039913
30
0
41
1
10
51.8863287622814
20
-2.87808181127664
30
0
41
1
10
51.3688216321192
20
-2.80920555464181
30
0
41
1
10
50.3360405488538
20
-2.61489093798934
30
0
41
1
10
49.8207150224493
20
-2.4893973965014
30
0
41
1
10
49.2666566817909
20
-2.3280985692669
30
0
41
1
10
49.2299170278776
20
-2.31727828788084
30
0
41
1
10
49.1931668855396
20
-2.30633209868554
30
0
0
SPLINE
5
C5
100
AcDbEntity
8
1
62
256
6
ByLayer
370
13
48
1
60
0
100
AcDbSpline
70
4
71
3
72
22
73
18
40
0
40
0
40
0
40
0
40
0.069294142923064
40
0.069294142923064
40
0.150056544886346
40
0.150056544886346
40
0.473106152739471
40
0.473106152739471
40
0.553868554702751
40
0.553868554702751
40
0.634630956666031
40
0.634630956666031
40
0.796155760592587
40
0.796155760592587
40
0.957680564519142
40
0.957680564519142
40
1
40
1
40
1
40
1
41
1
10
49.1931668855593
20
-2.30633209869137
30
0
41
1
10
48.9711131626512
20
-2.24019243479259
30
0
41
1
10
48.7486765194968
20
-2.16945602248847
30
0
41
1
10
48.2656255205416
20
-2.00697285713301
30
0
41
1
10
48.0043439011733
20
-1.91351200949657
30
0
41
1
10
46.7057103338901
20
-1.42497649347632
30
0
41
1
10
45.6818609274757
20
-0.962203834271321
30
0
41
1
10
44.3906900968573
20
-0.354731176106952
30
0
41
1
10
44.1318900385054
20
-0.231794532462885
30
0
41
1
10
43.6125270443335
20
0.0156744964506856
30
0
41
1
10
43.3512030658146
20
0.140492086806233
30
0
41
1
10
42.5711849816288
20
0.511113609039256
30
0
41
1
10
42.0549985453538
20
0.753175379178231
30
0
41
1
10
41.0246758240797
20
1.21601017274602
30
0
41
1
10
40.5102818716942
20
1.43624975502024
30
0
41
1
10
39.8589548678051
20
1.69401271479802
30
0
41
1
10
39.723595471132
20
1.74638855866922
30
0
41
1
10
39.5880373117421
20
1.79751195215883
30
0
0
SPLINE
5
C6
100
AcDbEntity
8
1
62
256
6
ByLayer
370
18
48
1
60
0
100
AcDbSpline
70
4
71
3
72
14
73
10
40
0
40
0
40
0
40
0
40
0.241944950957852
40
0.241944950957852
40
0.43945802092447
40
0.43945802092447
40
0.636971090891089
40
0.636971090891089
40
1
40
1
40
1
40
1
41
1
10
14.5314012376163
20
-2.92721156196231
30
0
41
1
10
14.2149869608483
20
-2.92669349586797
30
0
41
1
10
13.8978536190503
20
-2.91465867122116
30
0
41
1
10
13.319284854825
20
-2.8715101397471
30
0
41
1
10
13.0576320370148
20
-2.84422769465263
30
0
41
1
10
12.537063303375
20
-2.77498800126654
30
0
41
1
10
12.2777533482149
20
-2.73302030331755
30
0
41
1
10
11.5435245878721
20
-2.59415098795799
30
0
41
1
10
11.0700111638373
20
-2.48072375688417
30
0
41
1
10
10.596276093228
20
-2.34652397443517
30
0
0
SPLINE
5
C7
100
AcDbEntity
8
1
62
256
6
ByLayer
370
13
48
1
60
0
100
AcDbSpline
70
4
71
3
72
16
73
12
40
0
40
0
40
0
40
0
40
0.0198479965453355
40
0.0198479965453355
40
0.264885997409001
40
0.264885997409001
40
0.387404997840834
40
0.387404997840834
40
0.509923998272667
40
0.509923998272667
40
1
40
1
40
1
40
1
41
1
10
10.5962751344188
20
-2.34652370282345
30
0
41
1
10
10.5545206239433
20
-2.33469547279262
30
0
41
1
10
10.5127643916006
20
-2.32270587174992
30
0
41
1
10
9.95545370303279
20
-2.16056711488443
30
0
41
1
10
9.43937051587784
20
-1.98627781858264
30
0
41
1
10
8.66006448528631
20
-1.69444158509589
30
0
41
1
10
8.39876400612039
20
-1.59178347530937
30
0
41
1
10
7.87727956263205
20
-1.37891172093731
30
0
41
1
10
7.61746280181157
20
-1.26892822515964
30
0
41
1
10
6.32113762730603
20
-0.705081969471905
30
0
41
1
10
5.29314130285508
20
-0.209170781020418
30
0
41
1
10
4.25042455576789
20
0.281777459104688
30
0
0
SPLINE
5
C8
100
AcDbEntity
8
1
62
256
6
ByLayer
370
18
48
1
60
0
100
AcDbSpline
70
4
71
3
72
10
73
6
40
0
40
0
40
0
40
0
40
0.953290819784421
40
0.953290819784421
40
1
40
1
40
1
40
1
41
1
10
53.9348538055239
20
3.07297789599261
30
0
41
1
10
53.6744167137117
20
3.09008660707201
30
0
41
1
10
53.4140831677444
20
3.09890356071429
30
0
41
1
10
53.1407375509683
20
3.09947341044028
30
0
41
1
10
53.1279686148226
20
3.09948012200343
30
0
41
1
10
53.1151985472392
20
3.09946693144673
30
0
0
SPLINE
5
C9
100
AcDbEntity
8
1
62
256
6
ByLayer
370
18
48
1
60
0
100
AcDbSpline
70
4
71
3
72
44
73
40
40
0
40
0
40
0
40
0
40
0.0169769048290253
40
0.0169769048290253
40
0.05348661870734
40
0.05348661870734
40
0.0899963325856546
40
0.0899963325856546
40
0.163015760342282
40
0.163015760342282
40
0.23603518809891
40
0.23603518809891
40
0.272544901977225
40
0.272544901977225
40
0.309054615855539
40
0.309054615855539
40
0.455093471368799
40
0.455093471368799
40
0.491603185247114
40
0.491603185247114
40
0.52811289912543
40
0.52811289912543
40
0.60113232688206
40
0.60113232688206
40
0.674151754638691
40
0.674151754638691
40
0.710661468517007
40
0.710661468517007
40
0.747171182395322
40
0.747171182395322
40
0.893210037908586
40
0.893210037908586
40
0.929719751786901
40
0.929719751786901
40
0.94797460872606
40
0.94797460872606
40
0.966229465665218
40
0.966229465665218
40
1
40
1
40
1
40
1
41
1
10
35.6122674639647
20
-2.94497811415471
30
0
41
1
10
35.4919272071902
20
-2.96307503809908
30
0
41
1
10
35.3714455944848
20
-2.97951474652942
30
0
41
1
10
34.9912932635695
20
-3.02596637129051
30
0
41
1
10
34.7306053059239
20
-3.04986142068719
30
0
41
1
10
34.2081617661235
20
-3.0811978764541
30
0
41
1
10
33.9481548406923
20
-3.08857158046834
30
0
41
1
10
33.1705173394924
20
-3.0861807329245
30
0
41
1
10
32.6550328683575
20
-3.05194059448544
30
0
41
1
10
31.6241906727149
20
-2.92088320118256
30
0
41
1
10
31.1085774888205
20
-2.82417278522894
30
0
41
1
10
30.3303266059164
20
-2.63501045635382
30
0
41
1
10
30.0700629609308
20
-2.5646013353566
30
0
41
1
10
29.5471785149657
20
-2.40975960121412
30
0
41
1
10
29.2869746465233
20
-2.32600583730056
30
0
41
1
10
27.9899682787479
20
-1.87912347870977
30
0
41
1
10
26.9651542440633
20
-1.43149734579012
30
0
41
1
10
25.6685348601153
20
-0.814414020689526
30
0
41
1
10
25.408377661162
20
-0.688246410214447
30
0
41
1
10
24.8857216229027
20
-0.431620465068363
30
0
41
1
10
24.6250060115052
20
-0.302093748613658
30
0
41
1
10
23.8463019839804
20
0.0860826411122275
30
0
41
1
10
23.330396656004
20
0.344673717142825
30
0
41
1
10
22.2992120917231
20
0.849668807040729
30
0
41
1
10
21.7836421169791
20
1.09548572264987
30
0
41
1
10
21.0059095804258
20
1.44538867991733
30
0
41
1
10
20.7459003568989
20
1.55881730273589
30
0
41
1
10
20.2235153995718
20
1.77761971701889
30
0
41
1
10
19.9623137029434
20
1.88253676472232
30
0
41
1
10
18.6634196948957
20
2.37769465220259
30
0
41
1
10
17.6383775235777
20
2.68374954862162
30
0
41
1
10
16.342358263275
20
2.91624803468804
30
0
41
1
10
16.0824735714286
20
2.95531939587357
30
0
41
1
10
15.6909376370462
20
3.00209759697893
30
0
41
1
10
15.560003360705
20
3.01572295234823
30
0
41
1
10
15.2990272827816
20
3.03881622481916
30
0
41
1
10
15.1688130905366
20
3.0483087776002
30
0
41
1
10
14.7983524672078
20
3.06953889807227
30
0
41
1
10
14.5586756342916
20
3.07631746173268
30
0
41
1
10
14.3194568624155
20
3.07617718953207
30
0
0
SPLINE
5
CA
100
AcDbEntity
8
1
62
256
6
ByLayer
370
18
48
1
60
0
100
AcDbSpline
70
4
71
3
72
24
73
20
40
0
40
0
40
0
40
0
40
0.0287552686185337
40
0.0287552686185337
40
0.191211648541163
40
0.191211648541163
40
0.272439838502477
40
0.272439838502477
40
0.353668028463791
40
0.353668028463791
40
0.678580788309046
40
0.678580788309046
40
0.75980897827036
40
0.75980897827036
40
0.841037168231671
40
0.841037168231671
40
0.922265358192983
40
0.922265358192983
40
1
40
1
40
1
40
1
41
1
10
19.4814824699828
20
2.03077170976803
30
0
41
1
10
19.572859328246
20
1.99755591051988
30
0
41
1
10
19.6641884737124
20
1.9636926993679
30
0
41
1
10
20.2712987566084
20
1.73441272115292
30
0
41
1
10
20.7860491144756
20
1.51967290604537
30
0
41
1
10
21.5611901803199
20
1.17566716213335
30
0
41
1
10
21.8200986320035
20
1.05740944641505
30
0
41
1
10
22.3397545466968
20
0.81506326403013
30
0
41
1
10
22.6011677625098
20
0.6904975170184
30
0
41
1
10
23.9051880418427
20
0.061448911671306
30
0
41
1
10
24.9330808442678
20
-0.457794611557944
30
0
41
1
10
26.2294819729037
20
-1.06339138259651
30
0
41
1
10
26.4893719446267
20
-1.18228015196462
30
0
41
1
10
27.0111482717009
20
-1.41400707531022
30
0
41
1
10
27.2725676679295
20
-1.5266907202431
30
0
41
1
10
27.7939750028961
20
-1.74269763630292
30
0
41
1
10
28.054451471387
20
-1.84622223974711
30
0
41
1
10
28.5645246702267
20
-2.03885667686765
30
0
41
1
10
28.814389245568
20
-2.12843130158313
30
0
41
1
10
29.0642438038831
20
-2.21259993877553
30
0
0
SPLINE
5
CB
100
AcDbEntity
8
1
62
256
6
ByLayer
370
13
48
1
60
0
100
AcDbSpline
70
4
71
3
72
16
73
12
40
0
40
0
40
0
40
0
40
0.0054009547995528
40
0.0054009547995528
40
0.507723645463007
40
0.507723645463007
40
0.758884990794734
40
0.758884990794734
40
0.8844656634606
40
0.8844656634606
40
1
40
1
40
1
40
1
41
1
10
29.0642447517653
20
-2.21260025808908
30
0
41
1
10
29.0754733925562
20
-2.2163828556364
30
0
41
1
10
29.0867020131149
20
-2.22015453488575
30
0
41
1
10
30.1422571305418
20
-2.57368300859002
30
0
41
1
10
31.1680274159747
20
-2.82106710734945
30
0
41
1
10
32.7155734137547
20
-3.00741537752433
30
0
41
1
10
33.2331069121363
20
-3.03886392516338
30
0
41
1
10
34.0161915831346
20
-3.03708219942831
30
0
41
1
10
34.2767563667971
20
-3.02836252626213
30
0
41
1
10
34.7747589290443
20
-2.9963449501945
30
0
41
1
10
35.0126491447008
20
-2.9742847202387
30
0
41
1
10
35.2501430228737
20
-2.94576640688968
30
0
0
SPLINE
5
CC
100
AcDbEntity
8
1
62
256
6
ByLayer
370
18
48
1
60
0
100
AcDbSpline
70
4
71
3
72
22
73
18
40
0
40
0
40
0
40
0
40
0.125000000000006
40
0.125000000000006
40
0.187500000000006
40
0.187500000000006
40
0.250000000000007
40
0.250000000000007
40
0.500000000000004
40
0.500000000000004
40
0.625000000000003
40
0.625000000000003
40
0.750000000000002
40
0.750000000000002
40
0.875000000000001
40
0.875000000000001
40
1
40
1
40
1
40
1
41
1
10
53.9259404340967
20
-2.95095440445672
30
0
41
1
10
53.8816001302358
20
-2.9509203492749
30
0
41
1
10
53.8394618577078
20
-2.94423358707306
30
0
41
1
10
53.7797318623091
20
-2.92369759303753
30
0
41
1
10
53.7604029620964
20
-2.91509666613248
30
0
41
1
10
53.7229576837434
20
-2.89423157920552
30
0
41
1
10
53.704811940646
20
-2.88192683716108
30
0
41
1
10
53.6185011672208
20
-2.81189197711484
30
0
41
1
10
53.5623516325074
20
-2.72858519618271
30
0
41
1
10
53.4986991089471
20
-2.56011997113345
30
0
41
1
10
53.4808773463698
20
-2.49601667380227
30
0
41
1
10
53.4536067692383
20
-2.35627350047201
30
0
41
1
10
53.4439949873231
20
-2.28046799052726
30
0
41
1
10
53.4327714235499
20
-2.11705845986069
30
0
41
1
10
53.4311585210542
20
-2.029456091871
30
0
41
1
10
53.4362670987144
20
-1.84195969303758
30
0
41
1
10
53.4429995553402
20
-1.74315933964746
30
0
41
1
10
53.4536902223179
20
-1.64092602417529
30
0
0
SPLINE
5
CD
100
AcDbEntity
8
1
62
256
6
ByLayer
370
18
48
1
60
0
100
AcDbSpline
70
4
71
3
72
18
73
14
40
0
40
0
40
0
40
0
40
0.124999999999998
40
0.124999999999998
40
0.249999999999996
40
0.249999999999996
40
0.5
40
0.5
40
0.750000000000005
40
0.750000000000005
40
0.875000000000002
40
0.875000000000002
40
1
40
1
40
1
40
1
41
1
10
54.5633250213926
20
1.55422366271591
30
0
41
1
10
54.5404115033068
20
1.61631375633476
30
0
41
1
10
54.5173608966388
20
1.67834344696246
30
0
41
1
10
54.4711692141298
20
1.80236296633751
30
0
41
1
10
54.4480519097128
20
1.86432437764742
30
0
41
1
10
54.3785731924879
20
2.04958358096346
30
0
41
1
10
54.3320694568317
20
2.17227366384401
30
0
41
1
10
54.2384660944688
20
2.41501947093661
30
0
41
1
10
54.1915690331489
20
2.53597071100236
30
0
41
1
10
54.1207502862044
20
2.71530581308147
30
0
41
1
10
54.0970427928544
20
2.7746365919439
30
0
41
1
10
54.049439679784
20
2.89246646687323
30
0
41
1
10
54.0256012795572
20
2.95121852305539
30
0
41
1
10
54.0016836433232
20
3.00962028691123
30
0
0
SPLINE
5
CE
100
AcDbEntity
8
1
62
256
6
ByLayer
370
18
48
1
60
0
100
AcDbSpline
70
4
71
3
72
38
73
34
40
0
40
0
40
0
40
0
40
0.0769319530936827
40
0.0769319530936827
40
0.115397929640524
40
0.115397929640524
40
0.153863906187365
40
0.153863906187365
40
0.230795859281046
40
0.230795859281046
40
0.269261835827887
40
0.269261835827887
40
0.307727812374727
40
0.307727812374727
40
0.461591718562091
40
0.461591718562091
40
0.500057695108932
40
0.500057695108932
40
0.538523671655773
40
0.538523671655773
40
0.615455624749455
40
0.615455624749455
40
0.692387577843137
40
0.692387577843137
40
0.730853554389977
40
0.730853554389977
40
0.769319530936817
40
0.769319530936817
40
0.923183437124176
40
0.923183437124176
40
0.961649413671014
40
0.961649413671014
40
1
40
1
40
1
40
1
41
1
10
53.9348538055236
20
-3.07297789599264
30
0
41
1
10
53.4132374411414
20
-3.107244073711
30
0
41
1
10
52.8925523052111
20
-3.10825922764911
30
0
41
1
10
52.1087001048909
20
-3.0601481764964
30
0
41
1
10
51.8476866554208
20
-3.03583687086882
30
0
41
1
10
51.3279119486389
20
-2.97151499719809
30
0
41
1
10
51.0687492389047
20
-2.93149444913317
30
0
41
1
10
50.2924727925795
20
-2.78870256724102
30
0
41
1
10
49.7763124649363
20
-2.66333241988582
30
0
41
1
10
48.9991479499481
20
-2.43481698902445
30
0
41
1
10
48.7396334289642
20
-2.35187640189287
30
0
41
1
10
48.2188405189809
20
-2.17333868512804
30
0
41
1
10
47.9568918445266
20
-2.07747742533235
30
0
41
1
10
46.6547125705599
20
-1.5746098619218
30
0
41
1
10
45.6296715016216
20
-1.09395933461059
30
0
41
1
10
44.3361319590832
20
-0.457972643482833
30
0
41
1
10
44.0768249193407
20
-0.329012232069175
30
0
41
1
10
43.5563497616594
20
-0.068830847840502
30
0
41
1
10
43.2944025818383
20
0.0627496847260431
30
0
41
1
10
42.5128346499047
20
0.45372926863962
30
0
41
1
10
41.9958579622012
20
0.709822816902459
30
0
41
1
10
40.9639622262781
20
1.20121673666219
30
0
41
1
10
40.4487903111935
20
1.43603852186993
30
0
41
1
10
39.673070711795
20
1.76415352740685
30
0
41
1
10
39.4138931852956
20
1.86930667238116
30
0
41
1
10
38.8935328326898
20
2.0697337608394
30
0
41
1
10
38.6315711166554
20
2.16534116203468
30
0
41
1
10
37.3281346757968
20
2.6113918440968
30
0
41
1
10
36.3021040440478
20
2.86441156287117
30
0
41
1
10
35.0090989835208
20
3.02412262920487
30
0
41
1
10
34.7499721610605
20
3.04825445034589
30
0
41
1
10
34.2305782254867
20
3.08026360034737
30
0
41
1
10
33.969551188725
20
3.0881877927452
30
0
41
1
10
33.7094373716075
20
3.08782061671224
30
0
0
SPLINE
5
CF
100
AcDbEntity
8
1
62
256
6
ByLayer
370
18
48
1
60
0
100
AcDbSpline
70
4
71
3
72
24
73
20
40
0
40
0
40
0
40
0
40
0.100025544607555
40
0.100025544607555
40
0.228593323949333
40
0.228593323949333
40
0.485728882632886
40
0.485728882632886
40
0.550012772303775
40
0.550012772303775
40
0.614296661974664
40
0.614296661974664
40
0.742864441316442
40
0.742864441316442
40
0.871432220658221
40
0.871432220658221
40
0.93571611032911
40
0.93571611032911
40
1
40
1
40
1
40
1
41
1
10
16.2589358355615
20
-2.92677198085681
30
0
41
1
10
15.8559912149483
20
-2.98857571565091
30
0
41
1
10
15.4516408042135
20
-3.0319217072057
30
0
41
1
10
14.520663889487
20
-3.08567980735674
30
0
41
1
10
14.0020426419008
20
-3.08264850702864
30
0
41
1
10
12.4507272788398
20
-2.97769006662566
30
0
41
1
10
11.4233179039989
20
-2.77925902175968
30
0
41
1
10
10.1151148238485
20
-2.3905205583803
30
0
41
1
10
9.85398926198582
20
-2.30626163877037
30
0
41
1
10
9.33408346177305
20
-2.12684523073722
30
0
41
1
10
9.07495646403663
20
-2.03158099805404
30
0
41
1
10
8.29893443196332
20
-1.73105233548441
30
0
41
1
10
7.78344417147139
20
-1.51094366308499
30
0
41
1
10
6.74952490537811
20
-1.04294988055818
30
0
41
1
10
6.2312665828328
20
-0.794739069424907
30
0
41
1
10
5.44678142085948
20
-0.410648555530059
30
0
41
1
10
5.18478661494819
20
-0.280991204846288
30
0
41
1
10
4.66176350981996
20
-0.0213673775809013
30
0
41
1
10
4.40032030679959
20
0.108798047512266
30
0
41
1
10
4.13861031500403
20
0.238642033524343
30
0
0
SPLINE
5
D0
100
AcDbEntity
8
1
62
256
6
ByLayer
370
13
48
1
60
0
100
AcDbSpline
70
4
71
3
72
8
73
4
40
0
40
0
40
0
40
0
40
1
40
1
40
1
40
1
41
1
10
4.25042455576769
20
0.281777459104802
30
0
41
1
10
4.21197428655606
20
0.292641172109086
30
0
41
1
10
4.17444547687228
20
0.303928252813336
30
0
41
1
10
4.13964014705402
20
0.315376312824725
30
0
0
SPLINE
5
D1
100
AcDbEntity
8
1
62
256
6
ByLayer
370
13
48
1
60
0
100
AcDbSpline
70
4
71
3
72
30
73
26
40
0
40
0
40
0
40
0
40
0.125
40
0.125
40
0.1875
40
0.1875
40
0.25
40
0.25
40
0.375
40
0.375
40
0.4375
40
0.4375
40
0.5
40
0.5
40
0.625
40
0.625
40
0.6875
40
0.6875
40
0.75
40
0.75
40
0.875
40
0.875
40
0.9375
40
0.9375
40
1
40
1
40
1
40
1
41
1
10
4.25042455576775
20
0.281777459104802
30
0
41
1
10
4.25052591821134
20
0.470068658442926
30
0
41
1
10
4.25061981776409
20
0.654479352349824
30
0
41
1
10
4.25075269218851
20
0.925344777435356
30
0
41
1
10
4.25079572542032
20
1.01484810056104
30
0
41
1
10
4.25087811091308
20
1.18870579071668
30
0
41
1
10
4.25091766300977
20
1.27346079895733
30
0
41
1
10
4.25103226478026
20
1.52132616734397
30
0
41
1
10
4.25110340851427
20
1.67833249714596
30
0
41
1
10
4.25120429382903
20
1.89981758850732
30
0
41
1
10
4.25123658593003
20
1.97051299515439
30
0
41
1
10
4.25129891258456
20
2.10568925291568
30
0
41
1
10
4.2513290612352
20
2.17040886466376
30
0
41
1
10
4.25141544701273
20
2.35278887543106
30
0
41
1
10
4.25146781964324
20
2.4590521601335
30
0
41
1
10
4.25153973480076
20
2.59597073540127
30
0
41
1
10
4.25156257868656
20
2.63783847749778
30
0
41
1
10
4.25160596169974
20
2.71379598250547
30
0
41
1
10
4.2516264563487
20
2.74778213928022
30
0
41
1
10
4.25168300861083
20
2.83580444372194
30
0
41
1
10
4.25171455195851
20
2.87665705721477
30
0
41
1
10
4.25175146280651
20
2.91171771122288
30
0
41
1
10
4.25176201107544
20
2.91900501695335
30
0
41
1
10
4.25177911966102
20
2.92449517277285
30
0
41
1
10
4.25178558038476
20
2.92264156152373
30
0
41
1
10
4.25178973050754
20
2.91632994744262
30
0
0
SPLINE
5
D2
100
AcDbEntity
8
1
62
256
6
ByLayer
370
18
48
1
60
0
100
AcDbSpline
70
4
71
3
72
16
73
12
40
0
40
0
40
0
40
0
40
0.119955190946807
40
0.119955190946807
40
0.276269349938148
40
0.276269349938148
40
0.432583508929488
40
0.432583508929488
40
0.74521182691217
40
0.74521182691217
40
1
40
1
40
1
40
1
41
1
10
12.1461483978311
20
2.97994728849741
30
0
41
1
10
12.0458257138217
20
2.94277309674772
30
0
41
1
10
11.9454018992843
20
2.90471951145779
30
0
41
1
10
11.7137967599042
20
2.814994770883
30
0
41
1
10
11.5825124051606
20
2.76270219802979
30
0
41
1
10
11.3192045925935
20
2.65512590779551
30
0
41
1
10
11.1869267365557
20
2.59972835371852
30
0
41
1
10
10.7918729047622
20
2.43085487080111
30
0
41
1
10
10.5301485853896
20
2.31432092862266
30
0
41
1
10
10.0560042003708
20
2.1003538775019
30
0
41
1
10
9.84341524675327
20
2.00338853758808
30
0
41
1
10
9.63022859801168
20
1.90760077635076
30
0
0
SPLINE
5
D3
100
AcDbEntity
8
1
62
256
6
ByLayer
370
18
48
1
60
0
100
AcDbSpline
70
4
71
3
72
16
73
12
40
0
40
0
40
0
40
0
40
0.25
40
0.25
40
0.5
40
0.5
40
0.625
40
0.625
40
0.75
40
0.75
40
1
40
1
40
1
40
1
41
1
10
53.6295347904206
20
0.637431359120285
30
0
41
1
10
53.6203017688792
20
0.667760421134915
30
0
41
1
10
53.6143987021649
20
0.698918118163533
30
0
41
1
10
53.6103087311609
20
0.763242743746218
30
0
41
1
10
53.612160413183
20
0.796404391776093
30
0
41
1
10
53.6236597592058
20
0.844728292624353
30
0
41
1
10
53.6286170655412
20
0.860880482264918
30
0
41
1
10
53.6434539589607
20
0.890705498416565
30
0
41
1
10
53.653209574987
20
0.904240181305255
30
0
41
1
10
53.6886344927617
20
0.939100887486063
30
0
41
1
10
53.7196229223865
20
0.953611181770384
30
0
41
1
10
53.7518177898
20
0.961188301910539
30
0
0
SPLINE
5
D4
100
AcDbEntity
8
1
62
256
6
ByLayer
370
18
48
1
60
0
100
AcDbSpline
70
4
71
3
72
76
73
72
40
0
40
0
40
0
40
0
40
0.0125420763128817
40
0.0125420763128817
40
0.0417075796257393
40
0.0417075796257393
40
0.070873082938597
40
0.070873082938597
40
0.100038586251455
40
0.100038586251455
40
0.129204089564312
40
0.129204089564312
40
0.15836959287717
40
0.15836959287717
40
0.172952344533599
40
0.172952344533599
40
0.187535096190028
40
0.187535096190028
40
0.216700599502885
40
0.216700599502885
40
0.245866102815743
40
0.245866102815743
40
0.304197109441458
40
0.304197109441458
40
0.333362612754317
40
0.333362612754317
40
0.362528116067175
40
0.362528116067175
40
0.391693619380033
40
0.391693619380033
40
0.420859122692892
40
0.420859122692892
40
0.45002462600575
40
0.45002462600575
40
0.479190129318608
40
0.479190129318608
40
0.508355632631467
40
0.508355632631467
40
0.537521135944325
40
0.537521135944325
40
0.566686639257183
40
0.566686639257183
40
0.595852142570042
40
0.595852142570042
40
0.6250176458829
40
0.6250176458829
40
0.654183149195758
40
0.654183149195758
40
0.683348652508617
40
0.683348652508617
40
0.712514155821475
40
0.712514155821475
40
0.741679659134334
40
0.741679659134334
40
0.770845162447192
40
0.770845162447192
40
0.80001066576005
40
0.80001066576005
40
0.829176169072909
40
0.829176169072909
40
0.858341672385768
40
0.858341672385768
40
0.887507175698626
40
0.887507175698626
40
0.916672679011483
40
0.916672679011483
40
0.945838182324341
40
0.945838182324341
40
0.975003685637199
40
0.975003685637199
40
1
40
1
40
1
40
1
41
1
10
47.6673163985216
20
-2.19532437934083
30
0
41
1
10
47.5682283539598
20
-2.2269731031611
30
0
41
1
10
47.4692059321121
20
-2.25772710362611
30
0
41
1
10
47.1399407585628
20
-2.35676932302744
30
0
41
1
10
46.9099222277034
20
-2.42093707979924
30
0
41
1
10
46.4503523208544
20
-2.53814199502193
30
0
41
1
10
46.2209347201158
20
-2.59145715500483
30
0
41
1
10
45.7610142582498
20
-2.68761172680402
30
0
41
1
10
45.5306672511144
20
-2.73065263885704
30
0
41
1
10
45.0693083113352
20
-2.80600166290472
30
0
41
1
10
44.8384803420378
20
-2.83839448469379
30
0
41
1
10
44.3751521045088
20
-2.8908904713181
30
0
41
1
10
44.1426031863092
20
-2.91109908656841
30
0
41
1
10
43.7922288190054
20
-2.93097798488529
30
0
41
1
10
43.6752370379599
20
-2.93581568000184
30
0
41
1
10
43.4422118896837
20
-2.94188031341085
30
0
41
1
10
43.3260168844089
20
-2.94315945078589
30
0
41
1
10
42.9776274184909
20
-2.94351466000728
30
0
41
1
10
42.7456521806103
20
-2.93856761744922
30
0
41
1
10
42.2826778235219
20
-2.91608041476101
30
0
41
1
10
42.0517403979302
20
-2.89806935774487
30
0
41
1
10
41.3600670502351
20
-2.82617205147761
30
0
41
1
10
40.8986501758939
20
-2.75742218920541
30
0
41
1
10
40.2057612683463
20
-2.61413318666806
30
0
41
1
10
39.9744815134418
20
-2.56097337404671
30
0
41
1
10
39.5102817936312
20
-2.44526679160856
30
0
41
1
10
39.2775062839931
20
-2.38230896290264
30
0
41
1
10
38.8103921150959
20
-2.24395907345237
30
0
41
1
10
38.5767241474124
20
-2.16910264703782
30
0
41
1
10
38.1110916887076
20
-2.01351706390349
30
0
41
1
10
37.8788268012981
20
-1.9319812086604
30
0
41
1
10
37.4156339555554
20
-1.76017612912318
30
0
41
1
10
37.1849023465374
20
-1.66941067360614
30
0
41
1
10
36.7230986493026
20
-1.48354979267728
30
0
41
1
10
36.4921769981741
20
-1.38802368112943
30
0
41
1
10
36.0304057534929
20
-1.190752127114
30
0
41
1
10
35.7997254158078
20
-1.08836256183426
30
0
41
1
10
35.3374693729549
20
-0.880337018192506
30
0
41
1
10
35.10579962232
20
-0.774988006629599
30
0
41
1
10
34.6413257042312
20
-0.5602035615521
30
0
41
1
10
34.4085800377379
20
-0.450660449563287
30
0
41
1
10
33.9415116648149
20
-0.228651391692182
30
0
41
1
10
33.7072064898796
20
-0.11743519043992
30
0
41
1
10
33.241174976338
20
0.103797072086366
30
0
41
1
10
33.0089335535912
20
0.214093825045211
30
0
41
1
10
32.5459973822037
20
0.433914281933852
30
0
41
1
10
32.3148519367629
20
0.542654737451386
30
0
41
1
10
31.8526429795726
20
0.756708489891082
30
0
41
1
10
31.6216789901425
20
0.862161759628435
30
0
41
1
10
31.1601809085612
20
1.06980767974139
30
0
41
1
10
30.9294852200048
20
1.17172455854589
30
0
41
1
10
30.4669105587491
20
1.37006100080453
30
0
41
1
10
30.2352282465772
20
1.46659747759955
30
0
41
1
10
29.7709530836928
20
1.65348469567249
30
0
41
1
10
29.5384436161067
20
1.74397195555548
30
0
41
1
10
29.0712826101355
20
1.91773061817784
30
0
41
1
10
28.8367375618873
20
2.00106577726339
30
0
41
1
10
28.3708316105932
20
2.15745563890599
30
0
41
1
10
28.1391731399261
20
2.23040596057072
30
0
41
1
10
27.6760089489023
20
2.36725827370697
30
0
41
1
10
27.4446315778603
20
2.43109926941617
30
0
41
1
10
26.9826099781864
20
2.54775774881856
30
0
41
1
10
26.7521464144893
20
2.60011508770029
30
0
41
1
10
26.2910009862383
20
2.69441144435945
30
0
41
1
10
26.0601215965952
20
2.7364553164029
30
0
41
1
10
25.5978706757759
20
2.80893616224435
30
0
41
1
10
25.3665424391534
20
2.83902432687842
30
0
41
1
10
24.903071644182
20
2.88662965222292
30
0
41
1
10
24.67059036491
20
2.90489167991495
30
0
41
1
10
24.2373025206001
20
2.92796085959503
30
0
41
1
10
24.0364313432419
20
2.93386548976457
30
0
41
1
10
23.836516298525
20
2.93458135939022
30
0
0
SPLINE
5
D5
100
AcDbEntity
8
1
62
256
6
ByLayer
370
18
48
1
60
0
100
AcDbSpline
70
4
71
3
72
12
73
8
40
0
40
0
40
0
40
0
40
0.115815318506567
40
0.115815318506567
40
0.557907659253284
40
0.557907659253284
40
1
40
1
40
1
40
1
41
1
10
8.601403353016
20
-2.26426994800238
30
0
41
1
10
8.54023187793823
20
-2.2826371773503
30
0
41
1
10
8.47907776088843
20
-2.30067585719371
30
0
41
1
10
8.18453023163278
20
-2.3859898549799
30
0
41
1
10
7.95096754497041
20
-2.44855510723121
30
0
41
1
10
7.48345516914532
20
-2.56278692817907
30
0
41
1
10
7.24949225760835
20
-2.61407567168143
30
0
41
1
10
7.01531879269314
20
-2.65987105894521
30
0
0
SPLINE
5
D6
100
AcDbEntity
8
1
62
256
6
ByLayer
370
18
48
1
60
0
100
AcDbSpline
70
2053
71
3
72
62
73
58
40
0
40
0
40
0
40
0
40
0.0312499999999987
40
0.0312499999999987
40
0.0624999999999973
40
0.0624999999999973
40
0.093749999999996
40
0.093749999999996
40
0.124999999999995
40
0.124999999999995
40
0.156249999999993
40
0.156249999999993
40
0.187499999999992
40
0.187499999999992
40
0.218749999999991
40
0.218749999999991
40
0.249999999999989
40
0.249999999999989
40
0.281249999999988
40
0.281249999999988
40
0.312499999999987
40
0.312499999999987
40
0.374999999999984
40
0.374999999999984
40
0.437499999999981
40
0.437499999999981
40
0.468749999999982
40
0.468749999999982
40
0.499999999999983
40
0.499999999999983
40
0.531249999999984
40
0.531249999999984
40
0.562499999999985
40
0.562499999999985
40
0.593749999999986
40
0.593749999999986
40
0.624999999999987
40
0.624999999999987
40
0.656249999999988
40
0.656249999999988
40
0.687499999999989
40
0.687499999999989
40
0.71874999999999
40
0.71874999999999
40
0.749999999999991
40
0.749999999999991
40
0.781249999999992
40
0.781249999999992
40
0.812499999999993
40
0.812499999999993
40
0.874999999999996
40
0.874999999999996
40
0.937499999999998
40
0.937499999999998
40
0.968749999999999
40
0.968749999999999
40
1
40
1
40
1
40
1
41
1
10
54.1883794227087
20
-1.80268571795786
30
0
41
1
10
54.2082168565969
20
-1.77379389785611
30
0
41
1
10
54.2276099734433
20
-1.7429175472551
30
0
41
1
10
54.265439218314
20
-1.67689048037624
30
0
41
1
10
54.2840753925114
20
-1.64131671861347
30
0
41
1
10
54.3191173969877
20
-1.56728943684484
30
0
41
1
10
54.3354603336982
20
-1.52906724445501
30
0
41
1
10
54.3654573592257
20
-1.44986442978012
30
0
41
1
10
54.3788244073571
20
-1.40949886375233
30
0
41
1
10
54.4009974529937
20
-1.33049054190201
30
0
41
1
10
54.4100803109959
20
-1.29072096986238
30
0
41
1
10
54.4227991243254
20
-1.21609059738006
30
0
41
1
10
54.4265620884424
20
-1.18093483326845
30
0
41
1
10
54.4288903556185
20
-1.1159758372971
30
0
41
1
10
54.4274498252182
20
-1.08717886829638
30
0
41
1
10
54.4199465871731
20
-1.03611986215222
30
0
41
1
10
54.4138933683384
20
-1.01427863704623
30
0
41
1
10
54.3981354580517
20
-0.978132588547965
30
0
41
1
10
54.3882899674281
20
-0.963566710345788
30
0
41
1
10
54.3658664668499
20
-0.94170724973813
30
0
41
1
10
54.3532573381192
20
-0.93425704076256
30
0
41
1
10
54.3116071587345
20
-0.921425302959136
30
0
41
1
10
54.279729515948
20
-0.925672771936917
30
0
41
1
10
54.2096999686311
20
-0.956813051944835
30
0
41
1
10
54.1726468214817
20
-0.98319045481378
30
0
41
1
10
54.1144985977423
20
-1.03867169786343
30
0
41
1
10
54.0946502891926
20
-1.05994657577071
30
0
41
1
10
54.0553560872776
20
-1.10680750281884
30
0
41
1
10
54.0357413342426
20
-1.13253880210317
30
0
41
1
10
53.9965825690643
20
-1.18903304292985
30
0
41
1
10
53.9768196694349
20
-1.22018019199211
30
0
41
1
10
53.9386338526067
20
-1.28639088329834
30
0
41
1
10
53.9202389207422
20
-1.32132156484451
30
0
41
1
10
53.8850419632411
20
-1.39534866805099
30
0
41
1
10
53.8683357794974
20
-1.43437694116395
30
0
41
1
10
53.8386336825724
20
-1.51274664663765
30
0
41
1
10
53.8252842071488
20
-1.55293789482653
30
0
41
1
10
53.802777256392
20
-1.63329687051649
30
0
41
1
10
53.7939668629646
20
-1.67210886577576
30
0
41
1
10
53.7812160114042
20
-1.74700695493615
30
0
41
1
10
53.7774118868471
20
-1.78276237014586
30
0
41
1
10
53.7750402986647
20
-1.84731903724435
30
0
41
1
10
53.7764415980831
20
-1.87690654470609
30
0
41
1
10
53.7837685274791
20
-1.92809459232322
30
0
41
1
10
53.7897156093395
20
-1.95021846837773
30
0
41
1
10
53.8053715491241
20
-1.98704993713983
30
0
41
1
10
53.8149703898186
20
-2.00165383932847
30
0
41
1
10
53.8372950754335
20
-2.02413070920787
30
0
41
1
10
53.8500167879665
20
-2.03189645226436
30
0
41
1
10
53.8912906585159
20
-2.04522366441159
30
0
41
1
10
53.9237071769011
20
-2.04107780481206
30
0
41
1
10
53.9932438914387
20
-2.01010402210955
30
0
41
1
10
54.0312251395357
20
-1.98285790255434
30
0
41
1
10
54.0891711089953
20
-1.92703791621619
30
0
41
1
10
54.1087245884807
20
-1.90591956575889
30
0
41
1
10
54.1483418722698
20
-1.85830078288151
30
0
41
1
10
54.1685419888205
20
-1.83157753805961
30
0
41
1
10
54.1883794227087
20
-1.80268571795786
30
0
0
SPLINE
5
D7
100
AcDbEntity
8
1
62
256
6
ByLayer
370
13
48
1
60
0
100
AcDbSpline
70
4
71
3
72
10
73
6
40
0
40
0
40
0
40
0
40
0.5
40
0.5
40
1
40
1
40
1
40
1
41
1
10
4.13964014705402
20
0.315376312824725
30
0
41
1
10
4.11206926027162
20
0.324444842504477
30
0
41
1
10
4.08833807841336
20
0.336416202504552
30
0
41
1
10
4.04826985621662
20
0.365096651478581
30
0
41
1
10
4.03285840761691
20
0.381100459511004
30
0
41
1
10
4.02151290832188
20
0.398644583504222
30
0
0
SPLINE
5
D8
100
AcDbEntity
8
1
62
256
6
ByLayer
370
18
48
1
60
0
100
AcDbSpline
70
4
71
3
72
12
73
8
40
0
40
0
40
0
40
0
40
0.0389882332963913
40
0.0389882332963913
40
0.43857868631155
40
0.43857868631155
40
1
40
1
40
1
40
1
41
1
10
33.9350289813781
20
-2.93916113083839
30
0
41
1
10
33.884175688805
20
-2.93908766123738
30
0
41
1
10
33.8333053887566
20
-2.93871647837133
30
0
41
1
10
33.2609539058174
20
-2.93118527182318
30
0
41
1
10
32.7437192469831
20
-2.89285490587966
30
0
41
1
10
31.5035593415063
20
-2.73008496045435
30
0
41
1
10
30.7817500257965
20
-2.5766993428565
30
0
41
1
10
30.0546340907632
20
-2.37263687618892
30
0
0
SPLINE
5
D9
100
AcDbEntity
8
1
62
256
6
ByLayer
370
13
48
1
60
0
100
AcDbSpline
70
4
71
3
72
22
73
18
40
0
40
0
40
0
40
0
40
0.0937388267918593
40
0.0937388267918593
40
0.251280904905489
40
0.251280904905489
40
0.330051943962304
40
0.330051943962304
40
0.408822983019119
40
0.408822983019119
40
0.723907139246377
40
0.723907139246377
40
0.802678178303191
40
0.802678178303191
40
0.881449217360006
40
0.881449217360006
40
1
40
1
40
1
40
1
41
1
10
30.0546340906123
20
-2.37263687614654
30
0
41
1
10
29.7467035150256
20
-2.28621726987592
30
0
41
1
10
29.4378212040093
20
-2.19070883514956
30
0
41
1
10
28.6056367224467
20
-1.91187150744301
30
0
41
1
10
28.0850702525277
20
-1.71524524366146
30
0
41
1
10
27.3036383620343
20
-1.39577203942528
30
0
41
1
10
27.042458659278
20
-1.28497561027595
30
0
41
1
10
26.5211899586829
20
-1.05779898707149
30
0
41
1
10
26.2614994630728
20
-0.94148430716379
30
0
41
1
10
24.9659417436855
20
-0.350146192118331
30
0
41
1
10
23.9380686589705
20
0.152844533804512
30
0
41
1
10
22.635097073484
20
0.757128277469462
30
0
41
1
10
22.3739812668263
20
0.876466044841152
30
0
41
1
10
21.8547040644549
20
1.10821592990379
30
0
41
1
10
21.5959425354741
20
1.22111026701771
30
0
41
1
10
20.948993725918
20
1.49472242872875
30
0
41
1
10
20.5613511389613
20
1.65061594780465
30
0
41
1
10
20.1735496052289
20
1.79589987563526
30
0
0
SPLINE
5
DA
100
AcDbEntity
8
1
62
256
6
ByLayer
370
18
48
1
60
0
100
AcDbSpline
70
4
71
3
72
14
73
10
40
0
40
0
40
0
40
0
40
0.25
40
0.25
40
0.5
40
0.5
40
0.75
40
0.75
40
1
40
1
40
1
40
1
41
1
10
4.02219789025187
20
-3.0596395252818
30
0
41
1
10
4.03200517613507
20
-3.03738066658113
30
0
41
1
10
4.04548971277376
20
-3.01572734741094
30
0
41
1
10
4.07819963679506
20
-2.97805786689958
30
0
41
1
10
4.09792828706952
20
-2.96153635127123
30
0
41
1
10
4.14005309974226
20
-2.93641884433524
30
0
41
1
10
4.16279666475577
20
-2.9275192526159
30
0
41
1
10
4.20768597460753
20
-2.91704391139908
30
0
41
1
10
4.2301566119958
20
-2.91528369054785
30
0
41
1
10
4.25178973050748
20
-2.9163299474404
30
0
0
SPLINE
5
DB
100
AcDbEntity
8
1
62
256
6
ByLayer
370
18
48
1
60
0
100
AcDbSpline
70
4
71
3
72
8
73
4
40
0
40
0
40
0
40
0
40
1
40
1
40
1
40
1
41
1
10
4.13861031500372
20
0.238642033524485
30
0
41
1
10
4.10966882265885
20
0.253000976037185
30
0
41
1
10
4.08406373375934
20
0.272616986795384
30
0
41
1
10
4.06278898864218
20
0.296546582840733
30
0
0
SPLINE
5
DC
100
AcDbEntity
8
1
62
256
6
ByLayer
370
18
48
1
60
0
100
AcDbSpline
70
4
71
3
72
8
73
4
40
0
40
0
40
0
40
0
40
1
40
1
40
1
40
1
41
1
10
53.9703869725632
20
-2.93588523628822
30
0
41
1
10
53.9538201317854
20
-2.94591638374104
30
0
41
1
10
53.9389942309553
20
-2.95096914531686
30
0
41
1
10
53.9259404341012
20
-2.95095440445675
30
0
0
SPLINE
5
DD
100
AcDbEntity
8
1
62
256
6
ByLayer
370
18
48
1
60
0
100
AcDbSpline
70
4
71
3
72
10
73
6
40
0
40
0
40
0
40
0
40
0.850013184153479
40
0.850013184153479
40
1
40
1
40
1
40
1
41
1
10
12.1459751915293
20
-2.97988310671974
30
0
41
1
10
12.5853166944109
20
-3.03471696778638
30
0
41
1
10
13.0239642156202
20
-3.06532745213156
30
0
41
1
10
13.5364459419667
20
-3.07505253932123
30
0
41
1
10
13.61323501013
20
-3.07578622836993
30
0
41
1
10
13.6899975066001
20
-3.07580194877005
30
0
0
SPLINE
5
DE
100
AcDbEntity
8
1
62
256
6
ByLayer
370
18
48
1
60
0
100
AcDbSpline
70
4
71
3
72
80
73
76
40
0
40
0
40
0
40
0
40
0.0097645934688619
40
0.0097645934688619
40
0.0367384003231461
40
0.0367384003231461
40
0.0637122071774303
40
0.0637122071774303
40
0.0906860140317146
40
0.0906860140317146
40
0.144633627740281
40
0.144633627740281
40
0.171607434594565
40
0.171607434594565
40
0.198581241448849
40
0.198581241448849
40
0.225555048303132
40
0.225555048303132
40
0.252528855157416
40
0.252528855157416
40
0.266015758584557
40
0.266015758584557
40
0.279502662011699
40
0.279502662011699
40
0.306476468865983
40
0.306476468865983
40
0.333450275720266
40
0.333450275720266
40
0.36042408257455
40
0.36042408257455
40
0.387397889428833
40
0.387397889428833
40
0.414371696283116
40
0.414371696283116
40
0.4413455031374
40
0.4413455031374
40
0.468319309991683
40
0.468319309991683
40
0.52226692370025
40
0.52226692370025
40
0.549240730554535
40
0.549240730554535
40
0.576214537408819
40
0.576214537408819
40
0.603188344263103
40
0.603188344263103
40
0.630162151117387
40
0.630162151117387
40
0.657135957971671
40
0.657135957971671
40
0.684109764825956
40
0.684109764825956
40
0.71108357168024
40
0.71108357168024
40
0.738057378534524
40
0.738057378534524
40
0.765031185388808
40
0.765031185388808
40
0.792004992243092
40
0.792004992243092
40
0.818978799097377
40
0.818978799097377
40
0.845952605951661
40
0.845952605951661
40
0.872926412805945
40
0.872926412805945
40
0.899900219660229
40
0.899900219660229
40
0.926874026514513
40
0.926874026514513
40
0.953847833368798
40
0.953847833368798
40
0.980821640223082
40
0.980821640223082
40
1
40
1
40
1
40
1
41
1
10
28.2725963260764
20
2.19117672272935
30
0
41
1
10
28.3512198435149
20
2.21872119944697
30
0
41
1
10
28.4298453328296
20
2.24577201190076
30
0
41
1
10
28.725631094377
20
2.34574557610327
30
0
41
1
10
28.9424284114125
20
2.41582845252265
30
0
41
1
10
29.3782101155129
20
2.54539330234613
30
0
41
1
10
29.5968978129858
20
2.60533047215458
30
0
41
1
10
30.0353904755245
20
2.71601258881384
30
0
41
1
10
30.2555057131611
20
2.7670728508088
30
0
41
1
10
30.9126287130542
20
2.90340910542872
30
0
41
1
10
31.3496652628855
20
2.97096482391086
30
0
41
1
10
32.0004609605305
20
3.0403897147215
30
0
41
1
10
32.2171869256877
20
3.05778794227726
30
0
41
1
10
32.6513228422692
20
3.0810935907146
30
0
41
1
10
32.8684886392731
20
3.08711043935674
30
0
41
1
10
33.3025273031077
20
3.08777929669324
30
0
41
1
10
33.5191365493706
20
3.08230753475635
30
0
41
1
10
33.9544812923764
20
3.05998699941549
30
0
41
1
10
34.172878688937
20
3.04319152778234
30
0
41
1
10
34.5012127123803
20
3.00936051333264
30
0
41
1
10
34.6107837023019
20
2.99663943906958
30
0
41
1
10
34.8301010610154
20
2.96818420265873
30
0
41
1
10
34.9399530802149
20
2.95239260618663
30
0
41
1
10
35.269033564044
20
2.9010711461564
30
0
41
1
10
35.4881164014209
20
2.86175604979187
30
0
41
1
10
35.9250344381063
20
2.77286806399164
30
0
41
1
10
36.1428856414807
20
2.72329939567368
30
0
41
1
10
36.5769269176881
20
2.61331925195492
30
0
41
1
10
36.7937629522825
20
2.55354560796141
30
0
41
1
10
37.2279324902843
20
2.4257157354921
30
0
41
1
10
37.4450538651599
20
2.3574394631716
30
0
41
1
10
37.8788722990668
20
2.21140168025829
30
0
41
1
10
38.0953522765075
20
2.13324380744214
30
0
41
1
10
38.530357541889
20
1.97088549419942
30
0
41
1
10
38.748516398697
20
1.88621262037285
30
0
41
1
10
39.1856873685136
20
1.70904818028103
30
0
41
1
10
39.4044068234798
20
1.6159862080884
30
0
41
1
10
40.0635029351853
20
1.32736914196579
30
0
41
1
10
40.501339649464
20
1.12852314066316
30
0
41
1
10
41.1526938759189
20
0.815006607790252
30
0
41
1
10
41.3696445263355
20
0.709378570199107
30
0
41
1
10
41.8038561252626
20
0.49722165659773
30
0
41
1
10
42.0209375452437
20
0.390337114309972
30
0
41
1
10
42.454544929343
20
0.17390856805622
30
0
41
1
10
42.6709056741869
20
0.0640112811477707
30
0
41
1
10
43.1055942822958
20
-0.153286869601061
30
0
41
1
10
43.3235354191133
20
-0.261471683573632
30
0
41
1
10
43.7601544886223
20
-0.477878341839727
30
0
41
1
10
43.9785172546461
20
-0.586773712102655
30
0
41
1
10
44.4172444213156
20
-0.802004293567279
30
0
41
1
10
44.6373433093614
20
-0.907371775256365
30
0
41
1
10
45.0750724829718
20
-1.11364260524007
30
0
41
1
10
45.2931719307302
20
-1.21480184602453
30
0
41
1
10
45.7276037229844
20
-1.41351349410328
30
0
41
1
10
45.9446623420736
20
-1.50968330035769
30
0
41
1
10
46.3789163752544
20
-1.69509291798426
30
0
41
1
10
46.5959619856294
20
-1.78461527708481
30
0
41
1
10
47.0293736646676
20
-1.95807678536295
30
0
41
1
10
47.2456327535914
20
-2.04212115954536
30
0
41
1
10
47.6800105887746
20
-2.200553676933
30
0
41
1
10
47.8977343916858
20
-2.27560356642982
30
0
41
1
10
48.3337937572995
20
-2.4179674251429
30
0
41
1
10
48.5517930892021
20
-2.48568584110424
30
0
41
1
10
48.9898368693986
20
-2.61119838107101
30
0
41
1
10
49.2103132911488
20
-2.66880472834276
30
0
41
1
10
49.6485252045029
20
-2.77344210441726
30
0
41
1
10
49.8667851922133
20
-2.82066100417745
30
0
41
1
10
50.3014953917738
20
-2.90482642817773
30
0
41
1
10
50.5186905927609
20
-2.94116648904915
30
0
41
1
10
50.9530341737292
20
-3.00263801089324
30
0
41
1
10
51.1700612968552
20
-3.02786635751136
30
0
41
1
10
51.603299468191
20
-3.06739762822801
30
0
41
1
10
51.819464326513
20
-3.08160512918983
30
0
41
1
10
52.1908180001464
20
-3.09588131699803
30
0
41
1
10
52.3453727135637
20
-3.09893695682101
30
0
41
1
10
52.5000847051689
20
-3.09910174284045
30
0
0
SPLINE
5
DF
100
AcDbEntity
8
1
62
256
6
ByLayer
370
18
48
1
60
0
100
AcDbSpline
70
4
71
3
72
14
73
10
40
0
40
0
40
0
40
0
40
0.25
40
0.25
40
0.5
40
0.5
40
0.75
40
0.75
40
1
40
1
40
1
40
1
41
1
10
4.25178973050754
20
2.91632994744046
30
0
41
1
10
4.23017537010617
20
2.91528459775887
30
0
41
1
10
4.20815126507915
20
2.9169727015348
30
0
41
1
10
4.16304690039101
20
2.92742407604848
30
0
41
1
10
4.1406875741996
20
2.93608970166721
30
0
41
1
10
4.09796566438143
20
2.96146566057439
30
0
41
1
10
4.07865985909339
20
2.97757165292054
30
0
41
1
10
4.04538577562317
20
3.0158037220956
30
0
41
1
10
4.03206751529584
20
3.03723918007597
30
0
41
1
10
4.02219789024593
20
3.05963952529527
30
0
0
SPLINE
5
E0
100
AcDbEntity
8
1
62
256
6
ByLayer
370
18
48
1
60
0
100
AcDbSpline
70
4
71
3
72
32
73
28
40
0
40
0
40
0
40
0
40
0.250000000000019
40
0.250000000000019
40
0.375000000000029
40
0.375000000000029
40
0.500000000000038
40
0.500000000000038
40
0.625000000000048
40
0.625000000000048
40
0.687500000000053
40
0.687500000000053
40
0.718750000000051
40
0.718750000000051
40
0.750000000000049
40
0.750000000000049
40
0.812500000000036
40
0.812500000000036
40
0.84375000000003
40
0.84375000000003
40
0.875000000000024
40
0.875000000000024
40
0.906250000000018
40
0.906250000000018
40
0.937500000000012
40
0.937500000000012
40
1
40
1
40
1
40
1
41
1
10
51.5362828134824
20
0.625768762498581
30
0
41
1
10
51.7506629441081
20
0.51402096188886
30
0
41
1
10
51.9648896137852
20
0.412917030498278
30
0
41
1
10
52.2858326555711
20
0.288793997089954
30
0
41
1
10
52.3927490396721
20
0.251902300745371
30
0
41
1
10
52.6064291308882
20
0.18870840255363
30
0
41
1
10
52.7136033049652
20
0.162314862873103
30
0
41
1
10
52.9258076001862
20
0.122395574488394
30
0
41
1
10
53.0302944731207
20
0.108923836866637
30
0
41
1
10
53.1843693676518
20
0.0993819604437078
30
0
41
1
10
53.2352846500212
20
0.0979807507011969
30
0
41
1
10
53.3109554731886
20
0.0986989900250137
30
0
41
1
10
53.3361553751367
20
0.099176332751199
30
0
41
1
10
53.3853745566669
20
0.103423253781273
30
0
41
1
10
53.4093809190733
20
0.106987992158423
30
0
41
1
10
53.4790814008762
20
0.123203518160381
30
0
41
1
10
53.5217692064436
20
0.14154675468717
30
0
41
1
10
53.5757528607217
20
0.184034713069451
30
0
41
1
10
53.5923218147085
20
0.200919990052427
30
0
41
1
10
53.6207510866477
20
0.239167613398195
30
0
41
1
10
53.6327087202502
20
0.260490641795087
30
0
41
1
10
53.651651661128
20
0.307981719301296
30
0
41
1
10
53.6585429645941
20
0.334218208875257
30
0
41
1
10
53.6664578605291
20
0.389230798209127
30
0
41
1
10
53.6676126988433
20
0.418289928925873
30
0
41
1
10
53.6626441124102
20
0.510139831859476
30
0
41
1
10
53.649035012186
20
0.573376116471024
30
0
41
1
10
53.6295347904206
20
0.637431359120285
30
0
0
SPLINE
5
E1
100
AcDbEntity
8
1
62
256
6
ByLayer
370
18
48
1
60
0
100
AcDbSpline
70
4
71
3
72
66
73
62
40
0
40
0
40
0
40
0
40
0.0624629109396199
40
0.0624629109396199
40
0.0936943664094298
40
0.0936943664094298
40
0.12492582187924
40
0.12492582187924
40
0.15615727734905
40
0.15615727734905
40
0.18738873281886
40
0.18738873281886
40
0.218620188288669
40
0.218620188288669
40
0.24985164375848
40
0.24985164375848
40
0.281083099228289
40
0.281083099228289
40
0.312314554698099
40
0.312314554698099
40
0.343546010167909
40
0.343546010167909
40
0.374777465637719
40
0.374777465637719
40
0.406008921107529
40
0.406008921107529
40
0.437240376577339
40
0.437240376577339
40
0.499703287516959
40
0.499703287516959
40
0.530934742986769
40
0.530934742986769
40
0.56216619845658
40
0.56216619845658
40
0.59339765392639
40
0.59339765392639
40
0.6246291093962
40
0.6246291093962
40
0.655860564866011
40
0.655860564866011
40
0.687092020335821
40
0.687092020335821
40
0.718323475805632
40
0.718323475805632
40
0.749554931275442
40
0.749554931275442
40
0.780786386745252
40
0.780786386745252
40
0.812017842215063
40
0.812017842215063
40
0.843249297684873
40
0.843249297684873
40
0.874480753154683
40
0.874480753154683
40
0.936943664094306
40
0.936943664094306
40
0.968175119564117
40
0.968175119564117
40
0.999406575033928
40
0.999406575033928
40
1
40
1
40
1
40
1
41
1
10
12.1459751915293
20
2.97988310671977
30
0
41
1
10
12.5853166944109
20
3.03471696778638
30
0
41
1
10
13.0239642156202
20
3.06532745213156
30
0
41
1
10
13.6773885516685
20
3.07772713062397
30
0
41
1
10
13.8945829403909
20
3.07603944916059
30
0
41
1
10
14.3300132551727
20
3.06133976581941
30
0
41
1
10
14.5478735196303
20
3.04837263170037
30
0
41
1
10
14.9834051560005
20
3.01103255440876
30
0
41
1
10
15.2007037244796
20
2.98641162164907
30
0
41
1
10
15.637061592851
20
2.92632134880248
30
0
41
1
10
15.8560511561372
20
2.89093234038938
30
0
41
1
10
16.2950809557663
20
2.80908946364292
30
0
41
1
10
16.5154680414704
20
2.7623642946777
30
0
41
1
10
16.9537375304551
20
2.65834309324182
30
0
41
1
10
17.1726478825212
20
2.60179116723063
30
0
41
1
10
17.6097563457919
20
2.47970749577126
30
0
41
1
10
17.8279296755158
20
2.41415267482071
30
0
41
1
10
18.2629175651799
20
2.27314024933006
30
0
41
1
10
18.4800105663773
20
2.19798880925316
30
0
41
1
10
18.915362494665
20
2.04134315392645
30
0
41
1
10
19.1332703912752
20
1.95938916805431
30
0
41
1
10
19.5690705355929
20
1.78739341404261
30
0
41
1
10
19.7866077403752
20
1.69668444468371
30
0
41
1
10
20.2237989096998
20
1.5105835569866
30
0
41
1
10
20.4432734297431
20
1.41495881260468
30
0
41
1
10
20.8834573064871
20
1.21753882667628
30
0
41
1
10
21.1030235638161
20
1.11579089037087
30
0
41
1
10
21.7582831074311
20
0.804990613364055
30
0
41
1
10
22.1945889640716
20
0.595556353176022
30
0
41
1
10
22.8451494028202
20
0.271797786614769
30
0
41
1
10
23.0617419418485
20
0.163063194670741
30
0
41
1
10
23.4960207956668
20
-0.0527104747872045
30
0
41
1
10
23.7133963471266
20
-0.160384682177607
30
0
41
1
10
24.1481442801137
20
-0.376294419776144
30
0
41
1
10
24.3651860178224
20
-0.485219111017187
30
0
41
1
10
24.8015112919139
20
-0.698996389446251
30
0
41
1
10
25.0205489538141
20
-0.804353378703269
30
0
41
1
10
25.4598822969228
20
-1.01303294011024
30
0
41
1
10
25.6799869676295
20
-1.11678183176758
30
0
41
1
10
26.1173887826754
20
-1.31885263041264
30
0
41
1
10
26.3358949791415
20
-1.4162421707253
30
0
41
1
10
26.7719737478089
20
-1.60512428937744
30
0
41
1
10
26.9895656784733
20
-1.69657964780509
30
0
41
1
10
27.423277120175
20
-1.87438776439873
30
0
41
1
10
27.6399034672752
20
-1.95984243260429
30
0
41
1
10
28.0740498709429
20
-2.12188376478426
30
0
41
1
10
28.2912916603218
20
-2.19894181831236
30
0
41
1
10
28.725631094377
20
-2.34574557610327
30
0
41
1
10
28.9424284114125
20
-2.41582845252262
30
0
41
1
10
29.3782101155128
20
-2.5453933023461
30
0
41
1
10
29.5968978129858
20
-2.60533047215455
30
0
41
1
10
30.0353904755244
20
-2.71601258881381
30
0
41
1
10
30.255505713161
20
-2.76707285080877
30
0
41
1
10
30.9126287130542
20
-2.90340910542875
30
0
41
1
10
31.3496652628856
20
-2.97096482391083
30
0
41
1
10
32.0004609605305
20
-3.0403897147215
30
0
41
1
10
32.2171869256878
20
-3.05778794227726
30
0
41
1
10
32.6513228422693
20
-3.0810935907146
30
0
41
1
10
32.8684886392732
20
-3.08711043935674
30
0
41
1
10
33.089631528282
20
-3.08745122246216
30
0
41
1
10
33.0937549373189
20
-3.08745548067157
30
0
41
1
10
33.0978782084074
20
-3.08745764346054
30
0
0
SPLINE
5
E2
100
AcDbEntity
8
1
62
256
6
ByLayer
370
18
48
1
60
0
100
AcDbSpline
70
4
71
3
72
26
73
22
40
0
40
0
40
0
40
0
40
0.071973732749133
40
0.071973732749133
40
0.175087762443673
40
0.175087762443673
40
0.278201792138214
40
0.278201792138214
40
0.381315821832755
40
0.381315821832755
40
0.484429851527296
40
0.484429851527296
40
0.587543881221837
40
0.587543881221837
40
0.690657910916377
40
0.690657910916377
40
0.793771940610918
40
0.793771940610918
40
0.896885970305459
40
0.896885970305459
40
1
40
1
40
1
40
1
41
1
10
47.65973398791
20
2.19197528669795
30
0
41
1
10
47.8115430716419
20
2.24553083609897
30
0
41
1
10
47.9635790598231
20
2.29710041243499
30
0
41
1
10
48.3337937572997
20
2.41796742514293
30
0
41
1
10
48.5517930892022
20
2.48568584110424
30
0
41
1
10
48.9898368693986
20
2.61119838107101
30
0
41
1
10
49.2103132911488
20
2.66880472834279
30
0
41
1
10
49.648525204503
20
2.77344210441728
30
0
41
1
10
49.8667851922135
20
2.82066100417748
30
0
41
1
10
50.3014953917739
20
2.90482642817779
30
0
41
1
10
50.5186905927611
20
2.94116648904918
30
0
41
1
10
50.9530341737295
20
3.00263801089326
30
0
41
1
10
51.1700612968555
20
3.02786635751138
30
0
41
1
10
51.6032994681912
20
3.06739762822801
30
0
41
1
10
51.8194643265132
20
3.08160512918985
30
0
41
1
10
52.2535424207123
20
3.0982926721878
30
0
41
1
10
52.4710563982431
20
3.10094571757409
30
0
41
1
10
52.9065734292178
20
3.09479202357551
30
0
41
1
10
53.1242267718645
20
3.08586336243727
30
0
41
1
10
53.5615958484705
20
3.05632103921673
30
0
41
1
10
53.781812027949
20
3.03580857080567
30
0
41
1
10
54.0016836433043
20
3.00962028693115
30
0
0
SPLINE
5
E3
100
AcDbEntity
8
1
62
256
6
ByLayer
370
18
48
1
60
0
100
AcDbSpline
70
4
71
3
72
16
73
12
40
0
40
0
40
0
40
0
40
0.29214108523562
40
0.29214108523562
40
0.58428217047124
40
0.58428217047124
40
0.730352713089052
40
0.730352713089052
40
0.876423255706863
40
0.876423255706863
40
1
40
1
40
1
40
1
41
1
10
4.20630453236745
20
0.201733624599768
30
0
41
1
10
4.72829501672885
20
-0.0530614616966147
30
0
41
1
10
5.24648360686879
20
-0.307735079480807
30
0
41
1
10
6.28112063435998
20
-0.805234261901802
30
0
41
1
10
6.79758054614615
20
-1.04803541031049
30
0
41
1
10
7.57589410056931
20
-1.39328987743258
30
0
41
1
10
7.83591249779008
20
-1.50526564178693
30
0
41
1
10
8.35788036336004
20
-1.72148374879981
30
0
41
1
10
8.61941443874204
20
-1.82547533817845
30
0
41
1
10
9.0992578335173
20
-2.00675603120578
30
0
41
1
10
9.31851258608327
20
-2.08594090573379
30
0
41
1
10
9.53734930892949
20
-2.1609328290424
30
0
0
SPLINE
5
E4
100
AcDbEntity
8
1
62
256
6
ByLayer
370
13
48
1
60
0
100
AcDbSpline
70
4
71
3
72
16
73
12
40
0
40
0
40
0
40
0
40
0.142944547711282
40
0.142944547711282
40
0.39068356818632
40
0.39068356818632
40
0.514553078423839
40
0.514553078423839
40
0.638422588661358
40
0.638422588661358
40
1
40
1
40
1
40
1
41
1
10
9.53734908194718
20
-2.16093275125908
30
0
41
1
10
9.8358524740718
20
-2.26322520032488
30
0
41
1
10
10.1335780707814
20
-2.3577161525929
30
0
41
1
10
10.9467986441033
20
-2.59257669373554
30
0
41
1
10
11.4619522140364
20
-2.7158047780045
30
0
41
1
10
12.2384646354365
20
-2.85690393890766
30
0
41
1
10
12.4979377233911
20
-2.89665211406262
30
0
41
1
10
13.0189300289054
20
-2.96077602215379
30
0
41
1
10
13.2808495283683
20
-2.98513584895301
30
0
41
1
10
14.3006455813059
20
-3.04854413478313
30
0
41
1
10
15.0518202399401
20
-3.02676759178172
30
0
41
1
10
15.8043761025764
20
-2.93944030167467
30
0
0
SPLINE
5
E5
100
AcDbEntity
8
1
62
256
6
ByLayer
370
18
48
1
60
0
100
AcDbSpline
70
4
71
3
72
24
73
20
40
0
40
0
40
0
40
0
40
0.0214687520278765
40
0.0214687520278765
40
0.106366492390663
40
0.106366492390663
40
0.276161973116236
40
0.276161973116236
40
0.445957453841809
40
0.445957453841809
40
0.530855194204595
40
0.530855194204595
40
0.615752934567382
40
0.615752934567382
40
0.785548415292955
40
0.785548415292955
40
0.955343896018528
40
0.955343896018528
40
1
40
1
40
1
40
1
41
1
10
38.9962900562374
20
1.99663951091162
30
0
41
1
10
39.0621148506436
20
1.97223946374817
30
0
41
1
10
39.1278706031892
20
1.94752382421052
30
0
41
1
10
39.4531275581246
20
1.82361301488243
30
0
41
1
10
39.7117830657295
20
1.71985307510968
30
0
41
1
10
40.4861322818409
20
1.39632970460778
30
0
41
1
10
41.0005973600105
20
1.16502078621536
30
0
41
1
10
42.0312540552534
20
0.681257538073339
30
0
41
1
10
42.5476966228895
20
0.429301493803109
30
0
41
1
10
43.3284786714497
20
0.0449106601190863
30
0
41
1
10
43.5900158557898
20
-0.0843096323219186
30
0
41
1
10
44.1096467513248
20
-0.339748346249735
30
0
41
1
10
44.3685594665298
20
-0.466323934881245
30
0
41
1
10
45.1435275936039
20
-0.840817571309088
30
0
41
1
10
45.6578109944691
20
-1.08350911745066
30
0
41
1
10
46.6878517959449
20
-1.54262986354834
30
0
41
1
10
47.2039138467224
20
-1.75849409292314
30
0
41
1
10
47.8606284813539
20
-2.0070316157223
30
0
41
1
10
47.9978208018336
20
-2.05751048135471
30
0
41
1
10
48.1350131784965
20
-2.10644706181725
30
0
0
SPLINE
5
E6
100
AcDbEntity
8
1
62
256
6
ByLayer
370
13
48
1
60
0
100
AcDbSpline
70
4
71
3
72
16
73
12
40
0
40
0
40
0
40
0
40
0.0634200141832226
40
0.0634200141832226
40
0.197217155014191
40
0.197217155014191
40
0.464811436676128
40
0.464811436676128
40
0.732405718338064
40
0.732405718338064
40
1
40
1
40
1
40
1
41
1
10
48.1350131779624
20
-2.10644706162677
30
0
41
1
10
48.2586434379196
20
-2.15054602916169
30
0
41
1
10
48.3822737435012
20
-2.19339256431448
30
0
41
1
10
48.7657211575918
20
-2.32212966182485
30
0
41
1
10
49.0249693831566
20
-2.40324114511017
30
0
41
1
10
49.8012558390834
20
-2.6265197948253
30
0
41
1
10
50.3167187275319
20
-2.74877354922626
30
0
41
1
10
51.3499786502028
20
-2.93389476366761
30
0
41
1
10
51.8679097283546
20
-2.99676961857634
30
0
41
1
10
52.9122326184463
20
-3.05830595603709
30
0
41
1
10
53.4325577084185
20
-3.05647781541541
30
0
41
1
10
53.9537994944726
20
-3.0218878586748
30
0
0
SPLINE
5
E7
100
AcDbEntity
8
1
62
256
6
ByLayer
370
18
48
1
60
0
100
AcDbSpline
70
4
71
3
72
14
73
10
40
0
40
0
40
0
40
0
40
0.04233213009736
40
0.04233213009736
40
0.400417152993552
40
0.400417152993552
40
0.758502175889742
40
0.758502175889742
40
1
40
1
40
1
40
1
41
1
10
8.07003063125165
20
-2.13939739384236
30
0
41
1
10
8.05534882235983
20
-2.14745892702379
30
0
41
1
10
8.04065510414969
20
-2.15549850639852
30
0
41
1
10
7.90154896754314
20
-2.23132518798909
30
0
41
1
10
7.77626853738374
20
-2.29751398612325
30
0
41
1
10
7.52340995633011
20
-2.42569190969235
30
0
41
1
10
7.39642527495766
20
-2.487356319909
30
0
41
1
10
7.18513987656684
20
-2.58515736317346
30
0
41
1
10
7.10017470564057
20
-2.62317324233297
30
0
41
1
10
7.0152951466099
20
-2.65988128524987
30
0
0
SPLINE
5
E8
100
AcDbEntity
8
1
62
256
6
ByLayer
370
18
48
1
60
0
100
AcDbSpline
70
4
71
3
72
12
73
8
40
0
40
0
40
0
40
0
40
0.250000000000002
40
0.250000000000002
40
0.500000000000003
40
0.500000000000003
40
1
40
1
40
1
40
1
41
1
10
4.25178973105548
20
-2.91632994746689
30
0
41
1
10
4.47473212938453
20
-2.92711225887493
30
0
41
1
10
4.70055738983524
20
-2.92761195466915
30
0
41
1
10
5.15671742232797
20
-2.91170526204078
30
0
41
1
10
5.38742652280519
20
-2.89523989703486
30
0
41
1
10
6.08322693337007
20
-2.82510362908408
30
0
41
1
10
6.54795390873741
20
-2.75057596247348
30
0
41
1
10
7.01528270730196
20
-2.65989375393758
30
0
0
SPLINE
5
E9
100
AcDbEntity
8
1
62
256
6
ByLayer
370
18
48
1
60
0
100
AcDbSpline
70
4
71
3
72
8
73
4
40
0
40
0
40
0
40
0
40
1
40
1
40
1
40
1
41
1
10
4.06278898864298
20
0.296546582839824
30
0
41
1
10
4.0375499242291
20
0.324935201018548
30
0
41
1
10
4.02150315341507
20
0.360739308580207
30
0
41
1
10
4.02151290832185
20
0.398644583502744
30
0
0
SPLINE
5
EA
100
AcDbEntity
8
1
62
256
6
ByLayer
370
18
48
1
60
0
100
AcDbSpline
70
4
71
3
72
8
73
4
40
0
40
0
40
0
40
0
40
1
40
1
40
1
40
1
41
1
10
4.02218871749537
20
-3.07000951075139
30
0
41
1
10
4.02219253909479
20
-3.06997299723747
30
0
41
1
10
4.0221956342163
20
-3.0664909306482
30
0
41
1
10
4.02219789025187
20
-3.0596395252818
30
0
0
SPLINE
5
EB
100
AcDbEntity
8
1
62
256
6
ByLayer
370
18
48
1
60
0
100
AcDbSpline
70
4
71
3
72
8
73
4
40
0
40
0
40
0
40
0
40
1
40
1
40
1
40
1
41
1
10
53.9348538055243
20
-3.07297789597567
30
0
41
1
10
53.9411744342141
20
-3.05595287586954
30
0
41
1
10
53.9474897215007
20
-3.03892270217054
30
0
41
1
10
53.9537994944871
20
-3.02188785868046
30
0
0
SPLINE
5
EC
100
AcDbEntity
8
1
62
256
6
ByLayer
370
18
48
1
60
0
100
AcDbSpline
70
4
71
3
72
12
73
8
40
0
40
0
40
0
40
0
40
0.249999999999999
40
0.249999999999999
40
0.499999999999998
40
0.499999999999998
40
1
40
1
40
1
40
1
41
1
10
53.9537994944766
20
-3.02188785867455
30
0
41
1
10
53.9586155997667
20
-3.00888555256537
30
0
41
1
10
53.9630992169803
20
-2.99568931265438
30
0
41
1
10
53.9702217217536
20
-2.97195605778063
30
0
41
1
10
53.9728405961109
20
-2.96145747177962
30
0
41
1
10
53.9769965438321
20
-2.93781163314418
30
0
41
1
10
53.9749410172641
20
-2.93312778273901
30
0
41
1
10
53.9703869725632
20
-2.93588523628822
30
0
0
SPLINE
5
ED
100
AcDbEntity
8
SK1
62
256
6
ByLayer
370
18
48
1
60
0
100
AcDbSpline
70
4
71
3
72
8
73
4
40
0
40
0
40
0
40
0
40
1
40
1
40
1
40
1
41
1
10
-36
20
1.11629420921116
30
0
41
1
10
-35.7560848054632
20
1.46991696836111
30
0
41
1
10
-35.5039315622472
20
1.8204427610475
30
0
41
1
10
-35.25
20
2.1701864011462
30
0
0
SPLINE
5
EE
100
AcDbEntity
8
SK1
62
256
6
ByLayer
370
18
48
1
60
0
100
AcDbSpline
70
4
71
3
72
8
73
4
40
0
40
0
40
0
40
0
40
1
40
1
40
1
40
1
41
1
10
-35.25
20
3.45312157039146
30
0
41
1
10
-35.5038880941382
20
3.10343779955258
30
0
41
1
10
-35.7559775883504
20
2.75300757856323
30
0
41
1
10
-36
20
2.3992293784564
30
0
0
SPLINE
5
EF
100
AcDbEntity
8
SK1
62
256
6
ByLayer
370
18
48
1
60
0
100
AcDbSpline
70
4
71
3
72
14
73
10
40
0
40
0
40
0
40
0
40
0.124999999999999
40
0.124999999999999
40
0.249999999999999
40
0.249999999999999
40
0.499999999999998
40
0.499999999999998
40
1
40
1
40
1
40
1
41
1
10
-35.15
20
3.54538059464372
30
0
41
1
10
-35.15
20
3.55035646525977
30
0
41
1
10
-35.1517507934569
20
3.55250559843591
30
0
41
1
10
-35.1569069278761
20
3.55319632679001
30
0
41
1
10
-35.160234831946
20
3.55186233853451
30
0
41
1
10
-35.1714888412645
20
3.54501541554717
30
0
41
1
10
-35.1802429568047
20
3.53699431221898
30
0
41
1
10
-35.2083191353841
20
3.50787129419777
30
0
41
1
10
-35.2286409685639
20
3.48253967555865
30
0
41
1
10
-35.25
20
3.45312157039146
30
0
0
SPLINE
5
F0
100
AcDbEntity
8
SK1
62
256
6
ByLayer
370
18
48
1
60
0
100
AcDbSpline
70
4
71
3
72
14
73
10
40
0
40
0
40
0
40
0
40
0.499999999999998
40
0.499999999999998
40
0.749999999999999
40
0.749999999999999
40
0.874999999999999
40
0.874999999999999
40
1
40
1
40
1
40
1
41
1
10
-35.25
20
2.17018640114608
30
0
41
1
10
-35.2287404812744
20
2.19946744600728
30
0
41
1
10
-35.208362723075
20
2.23270876926353
30
0
41
1
10
-35.1802905070704
20
2.2890994379141
30
0
41
1
10
-35.1714466180788
20
2.30881648538224
30
0
41
1
10
-35.1602396792677
20
2.33988816136852
30
0
41
1
10
-35.1568594217207
20
2.35051712731894
30
0
41
1
10
-35.1517495297275
20
2.37142417381042
30
0
41
1
10
-35.15
20
2.38189728114364
30
0
41
1
10
-35.15
20
2.390738942323
30
0
0
LINE
5
76
100
AcDbEntity
8
81
62
256
6
ByLayer
370
18
48
1
60
0
100
AcDbLine
10
55
20
0
30
0
11
60
21
0
31
0
39
0
210
0
220
0
230
1
0
LINE
5
77
100
AcDbEntity
8
1
62
256
6
ByLayer
370
18
48
1
60
0
100
AcDbLine
10
4.022185
20
3.070012
30
0
11
1.454146
21
3.068472
31
0
39
0
210
0
220
0
230
1
0
LINE
5
79
100
AcDbEntity
8
1
62
256
6
ByLayer
370
18
48
1
60
0
100
AcDbLine
10
14.319508
20
3.076191
30
0
11
13.685899
21
3.075811
31
0
39
0
210
0
220
0
230
1
0
LINE
5
7A
100
AcDbEntity
8
1
62
256
6
ByLayer
370
18
48
1
60
0
100
AcDbLine
10
33.719649
20
3.087831
30
0
11
33.094472
21
3.087456
31
0
39
0
210
0
220
0
230
1
0
LINE
5
7B
100
AcDbEntity
8
1
62
256
6
ByLayer
370
18
48
1
60
0
100
AcDbLine
10
53.119559
20
3.099471
30
0
11
52.506532
21
3.099103
31
0
39
0
210
0
220
0
230
1
0
LINE
5
7C
100
AcDbEntity
8
1
62
256
6
ByLayer
370
18
48
1
60
0
100
AcDbLine
10
52.506532
20
-3.099103
30
0
11
53.119705
21
-3.099471
31
0
39
0
210
0
220
0
230
1
0
LINE
5
7D
100
AcDbEntity
8
1
62
256
6
ByLayer
370
18
48
1
60
0
100
AcDbLine
10
33.094472
20
-3.087456
30
0
11
33.719187
21
-3.087831
31
0
39
0
210
0
220
0
230
1
0
LINE
5
7E
100
AcDbEntity
8
1
62
256
6
ByLayer
370
18
48
1
60
0
100
AcDbLine
10
13.685899
20
-3.075811
30
0
11
14.319039
21
-3.07619
31
0
39
0
210
0
220
0
230
1
0
LINE
5
7F
100
AcDbEntity
8
1
62
256
6
ByLayer
370
18
48
1
60
0
100
AcDbLine
10
1.454146
20
-3.068472
30
0
11
4.022185
21
-3.070012
31
0
39
0
210
0
220
0
230
1
0
LINE
5
80
100
AcDbEntity
8
SK1
62
256
6
ByLayer
370
18
48
1
60
0
100
AcDbLine
10
-35.133975
20
4
30
0
11
-36
21
2.5
31
0
39
0
210
0
220
0
230
1
0
LINE
5
82
100
AcDbEntity
8
SK1
62
256
6
ByLayer
370
18
48
1
60
0
100
AcDbLine
10
-36
20
-2.5
30
0
11
-35.133975
21
-4
31
0
39
0
210
0
220
0
230
1
0
LINE
5
83
100
AcDbEntity
8
SK1
62
256
6
ByLayer
370
18
48
1
60
0
100
AcDbLine
10
0
20
4
30
0
11
-35.133975
21
4
31
0
39
0
210
0
220
0
230
1
0
LINE
5
84
100
AcDbEntity
8
SK1
62
256
6
ByLayer
370
18
48
1
60
0
100
AcDbLine
10
-35.133975
20
-4
30
0
11
0
21
-4
31
0
39
0
210
0
220
0
230
1
0
LINE
5
85
100
AcDbEntity
8
SK4
62
256
6
ByLayer
370
18
48
0.05
60
0
100
AcDbLine
10
60
20
0
30
0
11
-41
21
0
31
0
39
0
210
0
220
0
230
1
0
LINE
5
87
100
AcDbEntity
8
4
62
256
6
ByLayer
370
18
48
0.05
60
0
100
AcDbLine
10
55
20
0
30
0
11
0
21
0
31
0
39
0
210
0
220
0
230
1
0
LINE
5
89
100
AcDbEntity
8
80
62
256
6
ByLayer
370
18
48
1
60
0
100
AcDbLine
10
0
20
0
30
0
11
-5
21
0
31
0
39
0
210
0
220
0
230
1
0
LINE
5
8A
100
AcDbEntity
8
1
62
256
6
ByLayer
370
18
48
1
60
0
100
AcDbLine
10
52.086528
20
0.367082
30
0
11
52.079741
21
0.370069
31
0
39
0
210
0
220
0
230
1
0
LINE
5
8B
100
AcDbEntity
8
1
62
256
6
ByLayer
370
13
48
1
60
0
100
AcDbLine
10
1.454146
20
3.068472
30
0
11
1.454146
21
-3.068472
31
0
39
0
210
0
220
0
230
1
0
LINE
5
8C
100
AcDbEntity
8
1
62
256
6
ByLayer
370
18
48
1
60
0
100
AcDbLine
10
55
20
0
30
0
11
54.994432
21
-0.030873
31
0
39
0
210
0
220
0
230
1
0
LINE
5
8D
100
AcDbEntity
8
1
62
256
6
ByLayer
370
13
48
1
60
0
100
AcDbLine
10
54.252387
20
0.677489
30
0
11
54.925937
21
0.277849
31
0
39
0
210
0
220
0
230
1
0
LINE
5
8E
100
AcDbEntity
8
1
62
256
6
ByLayer
370
18
48
1
60
0
100
AcDbLine
10
0
20
-4
30
0
11
0
21
4
31
0
39
0
210
0
220
0
230
1
0
LINE
5
8F
100
AcDbEntity
8
1
62
256
6
ByLayer
370
18
48
1
60
0
100
AcDbLine
10
53.45369
20
-1.640926
30
0
11
54.895142
21
-0.151887
31
0
39
0
210
0
220
0
230
1
0
LINE
5
90
100
AcDbEntity
8
1
62
256
6
ByLayer
370
13
48
1
60
0
100
AcDbLine
10
0.726833
20
3.534236
30
0
11
0.726833
21
-3.534236
31
0
39
0
210
0
220
0
230
1
0
LINE
5
91
100
AcDbEntity
8
1
62
256
6
ByLayer
370
18
48
1
60
0
100
AcDbLine
10
54.925937
20
-0.277849
30
0
11
54.832699
21
-0.677489
31
0
39
0
210
0
220
0
230
1
0
LINE
5
92
100
AcDbEntity
8
1
62
256
6
ByLayer
370
13
48
1
60
0
100
AcDbLine
10
4.251772
20
-2.922088
30
0
11
4.25179
21
-2.91633
31
0
39
0
210
0
220
0
230
1
0
LINE
5
93
100
AcDbEntity
8
1
62
256
6
ByLayer
370
18
48
1
60
0
100
AcDbLine
10
54.925937
20
0.277849
30
0
11
54.832699
21
0.677489
31
0
39
0
210
0
220
0
230
1
0
LINE
5
94
100
AcDbEntity
8
1
62
256
6
ByLayer
370
18
48
1
60
0
100
AcDbLine
10
54.994432
20
0.030873
30
0
11
55
21
0
31
0
39
0
210
0
220
0
230
1
0
LINE
5
95
100
AcDbEntity
8
1
62
256
6
ByLayer
370
18
48
1
60
0
100
AcDbLine
10
55
20
0
30
0
11
53.92594
21
-2.950954
31
0
39
0
210
0
220
0
230
1
0
LINE
5
96
100
AcDbEntity
8
1
62
256
6
ByLayer
370
13
48
1
60
0
100
AcDbLine
10
54.832699
20
0.677489
30
0
11
54.252387
21
0.677489
31
0
39
0
210
0
220
0
230
1
0
LINE
5
97
100
AcDbEntity
8
1
62
256
6
ByLayer
370
13
48
1
60
0
100
AcDbLine
10
54.06248
20
0.342159
30
0
11
54.895142
21
-0.151887
31
0
39
0
210
0
220
0
230
1
0
LINE
5
98
100
AcDbEntity
8
SK1
62
256
6
ByLayer
370
18
48
1
60
0
100
AcDbLine
10
0
20
-4
30
0
11
0
21
4
31
0
39
0
210
0
220
0
230
1
0
LINE
5
99
100
AcDbEntity
8
SK1
62
256
6
ByLayer
370
18
48
1
60
0
100
AcDbLine
10
-36
20
2.399229
30
0
11
-36
21
1.116283
31
0
39
0
210
0
220
0
230
1
0
LINE
5
9A
100
AcDbEntity
8
SK1
62
256
6
ByLayer
370
18
48
1
60
0
100
AcDbLine
10
-35.133975
20
4
30
0
11
-35.133975
21
-4
31
0
39
0
210
0
220
0
230
1
0
LINE
5
9B
100
AcDbEntity
8
SK1
62
256
6
ByLayer
370
18
48
1
60
0
100
AcDbLine
10
-36
20
1.116294
30
0
11
-36
21
-2.5
31
0
39
0
210
0
220
0
230
1
0
LINE
5
9C
100
AcDbEntity
8
SK1
62
256
6
ByLayer
370
18
48
1
60
0
100
AcDbLine
10
-35.15
20
2.390739
30
0
11
-35.15
21
3.545381
31
0
39
0
210
0
220
0
230
1
0
LINE
5
9D
100
AcDbEntity
8
SK1
62
256
6
ByLayer
370
13
48
1
60
0
100
AcDbLine
10
-35.25
20
3.453122
30
0
11
-35.25
21
2.170129
31
0
39
0
210
0
220
0
230
1
0
LINE
5
9E
100
AcDbEntity
8
SK1
62
256
6
ByLayer
370
18
48
1
60
0
100
AcDbLine
10
-36
20
2.5
30
0
11
-36
21
2.399229
31
0
39
0
210
0
220
0
230
1
0
MTEXT
5
F1
100
AcDbEntity
8
SK6
62
256
6
ByLayer
370
13
48
1
60
0
100
AcDbMText
10
11.629169
20
35.482694
30
0
210
0
220
0
230
1
1
\W0.7542;R840-0620-50-A1A1220
40
3.5
41
0
44
1.084337
50
0
71
8
72
5
7
iso_b_vert
0
DIMENSION
5
FE
100
AcDbEntity
8
SK2
62
256
6
ByLayer
370
13
48
1
60
0
100
AcDbDimension
2
DimnDraft3D1
10
53.95
20
-13.313398
30
0
11
25.700059
21
-13.313398
31
0
70
32
71
5
72
1
41
1
210
0
220
0
230
1
3
Standard
100
AcDbAlignedDimension
13
0
23
-1.5875
33
0
14
53.95
24
-4.6875
34
0
50
0
100
AcDbRotatedDimension
1001
ACAD
1000
DSTYLE
1002
{
1070
   279
1070
     0
1070
   172
1070
     1
1070
   173
1070
     1
1070
   340
1005
F2
1070
   271
1070
     2
1070
   272
1070
     2
1070
    77
1070
     1
1070
    73
1070
     0
1070
   171
1070
     3
1070
   274
1070
     4
1070
   177
1070
    35
1070
   176
1070
    35
1070
   178
1070
    35
1070
    48
1040
-0.005
1070
    41
1041
3.5
1070
   147
1041
1.75
1070
    42
1041
1.5875
1070
    44
1041
2.0
1070
   140
1041
3.5
1070
   343
1005
0
1070
   344
1005
0
1002
}
0
DIMENSION
5
108
100
AcDbEntity
8
SK2
62
256
6
ByLayer
370
13
48
1
60
0
100
AcDbDimension
2
DimnDraft3D2
10
55
20
-32.692985
30
0
11
9.7913
21
-32.692985
31
0
70
32
71
5
72
1
41
1
210
0
220
0
230
1
3
Standard
100
AcDbAlignedDimension
13
-36
23
-5.5875
33
0
14
55
24
-1.5875
34
0
50
0
100
AcDbRotatedDimension
1001
ACAD
1000
DSTYLE
1002
{
1070
   279
1070
     0
1070
   172
1070
     1
1070
   173
1070
     1
1070
   340
1005
F2
1070
   271
1070
     2
1070
   272
1070
     2
1070
    77
1070
     1
1070
    73
1070
     0
1070
   171
1070
     3
1070
   274
1070
     4
1070
   177
1070
    35
1070
   176
1070
    35
1070
   178
1070
    35
1070
    48
1040
-0.005
1070
    41
1041
3.5
1070
   147
1041
1.75
1070
    42
1041
1.5875
1070
    44
1041
2.0
1070
   140
1041
3.5
1070
   343
1005
0
1070
   344
1005
0
1002
}
0
DIMENSION
5
112
100
AcDbEntity
8
SK2
62
256
6
ByLayer
370
13
48
1
60
0
100
AcDbDimension
2
DimnDraft3D3
10
55
20
14.709119
30
0
11
38.975
21
14.709119
31
0
70
32
71
5
72
1
41
1
210
0
220
0
230
1
3
Standard
100
AcDbAlignedDimension
13
22.95
23
4.6875
33
0
14
55
24
1.5875
34
0
50
0
100
AcDbRotatedDimension
1001
ACAD
1000
DSTYLE
1002
{
1070
   279
1070
     0
1070
   172
1070
     1
1070
   173
1070
     1
1070
   340
1005
F2
1070
   271
1070
     2
1070
   272
1070
     2
1070
    77
1070
     1
1070
    73
1070
     0
1070
   171
1070
     3
1070
   274
1070
     4
1070
   177
1070
    35
1070
   176
1070
    35
1070
   178
1070
    35
1070
    48
1040
-0.005
1070
    41
1041
3.5
1070
   147
1041
1.75
1070
    42
1041
1.5875
1070
    44
1041
2.0
1070
   140
1041
3.5
1070
   343
1005
0
1070
   344
1005
0
1002
}
0
DIMENSION
5
11C
100
AcDbEntity
8
SK2
62
256
6
ByLayer
370
13
48
1
60
0
100
AcDbDimension
2
DimnDraft3D4
10
53.95
20
-15.902503
30
0
11
64.981425
21
-15.902503
31
0
70
32
71
5
72
1
41
1
210
0
220
0
230
1
3
Standard
100
AcDbAlignedDimension
13
55
23
-1.5875
33
0
14
53.95
24
-4.6875
34
0
50
0
100
AcDbRotatedDimension
1001
ACAD
1000
DSTYLE
1002
{
1070
   279
1070
     0
1070
   172
1070
     1
1070
   173
1070
     1
1070
   340
1005
F2
1070
   271
1070
     2
1070
   272
1070
     2
1070
    77
1070
     1
1070
    73
1070
     0
1070
   171
1070
     3
1070
   274
1070
     4
1070
   177
1070
    35
1070
   176
1070
    35
1070
   178
1070
    35
1070
    48
1040
-0.005
1070
    41
1041
3.5
1070
   147
1041
1.75
1070
    42
1041
1.5875
1070
    44
1041
2.0
1070
   140
1041
3.5
1070
   343
1005
0
1070
   344
1005
0
1002
}
0
DIMENSION
5
126
100
AcDbEntity
8
SK2
62
256
6
ByLayer
370
13
48
1
60
0
100
AcDbDimension
2
DimnDraft3D5
10
53.95
20
-22.343428
30
0
11
6.710676
21
-22.343428
31
0
70
32
71
5
72
1
41
1
210
0
220
0
230
1
3
Standard
100
AcDbAlignedDimension
13
-36
23
-5.5875
33
0
14
53.95
24
-4.6875
34
0
50
0
100
AcDbRotatedDimension
1001
ACAD
1000
DSTYLE
1002
{
1070
   279
1070
     0
1070
   172
1070
     1
1070
   173
1070
     1
1070
   340
1005
F2
1070
   271
1070
     2
1070
   272
1070
     2
1070
    77
1070
     1
1070
    73
1070
     0
1070
   171
1070
     3
1070
   274
1070
     4
1070
   177
1070
    35
1070
   176
1070
    35
1070
   178
1070
    35
1070
    48
1040
-0.005
1070
    41
1041
3.5
1070
   147
1041
1.75
1070
    42
1041
1.5875
1070
    44
1041
2.0
1070
   140
1041
3.5
1070
   343
1005
0
1070
   344
1005
0
1002
}
0
DIMENSION
5
131
100
AcDbEntity
8
SK2
62
256
6
ByLayer
370
13
48
1
60
0
100
AcDbDimension
2
DimnDraft3D6
10
-46.625163
20
4
30
0
11
-47.250163
21
22.47418
31
0
70
33
71
5
72
1
41
1
210
0
220
0
230
1
3
Standard
100
AcDbAlignedDimension
13
-37.5875
23
-4
33
0
14
-37.5875
24
4
34
0
1001
ACAD
1000
DSTYLE
1002
{
1070
   279
1070
     0
1070
    74
1070
     0
1070
   173
1070
     1
1070
   340
1005
F2
1070
   271
1070
     3
1070
   272
1070
     2
1070
    77
1070
     1
1070
    73
1070
     0
1070
   171
1070
     3
1070
   274
1070
     4
1070
   177
1070
    35
1070
   176
1070
    35
1070
   178
1070
    35
1070
    48
1040
-0.005
1070
    41
1041
3.5
1070
   147
1041
1.75
1070
    42
1041
1.5875
1070
    44
1041
2.0
1070
   140
1041
3.5
1070
   343
1005
0
1070
   344
1005
0
1002
}
0
DIMENSION
5
13C
100
AcDbEntity
8
2
62
256
6
ByLayer
370
13
48
1
60
0
100
AcDbDimension
2
DimnDraft3D7
10
69.083343
20
3.1
30
0
11
64.458343
21
20.167266
31
0
70
33
71
5
72
1
41
1
210
0
220
0
230
1
3
Standard
100
AcDbAlignedDimension
13
55.5375
23
-3.1
33
0
14
55.5375
24
3.1
34
0
1001
ACAD
1000
DSTYLE
1002
{
1070
   279
1070
     0
1070
    74
1070
     0
1070
   173
1070
     1
1070
   340
1005
F2
1070
   271
1070
     3
1070
   272
1070
     2
1070
    77
1070
     1
1070
    73
1070
     0
1070
   171
1070
     3
1070
   274
1070
     4
1070
   177
1070
    35
1070
   176
1070
    35
1070
   178
1070
    35
1070
    48
1040
-0.005
1070
    41
1041
3.5
1070
   147
1041
1.75
1070
    42
1041
1.5875
1070
    44
1041
2.0
1070
   140
1041
3.5
1070
   343
1005
0
1070
   344
1005
0
1002
}
0
ENDSEC
0
SECTION
2
OBJECTS
0
DICTIONARY
5
1a7
330
0
100
AcDbDictionary
280
0
281
1
3
ACAD_GROUP
350
1a8
3
ACAD_MLINESTYLE
350
1a9
0
DICTIONARY
5
1a8
330
0
100
AcDbDictionary
280
0
281
1
0
DICTIONARY
5
1a9
330
0
100
AcDbDictionary
280
0
281
1
3
Standard
350
18
0
MLINESTYLE
5
18
330
1a9
100
AcDbMlineStyle
2
Standard
70
0
3

62
256
51
90
52
90
71
2
49
-0.5
62
256
6
ByLayer
49
0.5
62
256
6
ByLayer
0
RASTERVARIABLES
5
195
330

100
AcDbRasterVariables
90
0
70
1
71
1
72
1
0
ENDSEC
0
EOF
