0
SECTION
2
HEADER
9
$ACADVER
1
AC1015
9
$DWGCODEPAGE
3
ANSI_1252
9
$HANDSEED
5
1ab
9
$ANGBASE
50
0
9
$ANGDIR
70
0
9
$ATTMODE
70
1
9
$AUNITS
70
0
9
$AUPREC
70
0
9
$CECOLOR
62
256
9
$CELTSCALE
40
1
9
$CELTYPE
6
ByLayer
9
$CELWEIGHT
370
18
9
$CLAYER
8
0
9
$CMLJUST
70
0
9
$CMLSCALE
40
1
9
$CMLSTYLE
2
Standard
9
$DIMSTYLE
2
Standard
9
$TEXTSIZE
40
0.2
9
$TEXTSTYLE
7
Standard
9
$LUNITS
70
2
9
$LUPREC
70
4
9
$EXTNAMES
290
1
9
$INSUNITS
70
4
9
$LTSCALE
40
1
9
$LWDISPLAY
290
1
9
$PDMODE
70
0
9
$PDSIZE
40
0
9
$PLINEGEN
70
0
0
ENDSEC
0
SECTION
2
CLASSES
0
CLASS
1
RASTERVARIABLES
2
AcDbRasterVariables
3
ISM
90
0
280
0
281
0
0
ENDSEC
0
SECTION
2
TABLES
0
TABLE
2
VPORT
5
1a1
100
AcDbSymbolTable
0
VPORT
5
1
100
AcDbSymbolTableRecord
100
AcDbViewportTableRecord
2
*Active
70
0
10
0
20
0
11
1
21
1
12
-1
22
1
13
0
23
0
14
0.5
24
0.5
15
10
25
10
16
0
26
0
36
1
17
0
27
0
37
0
0
ENDTAB
0
TABLE
2
LTYPE
5
1a2
100
AcDbSymbolTable
0
LTYPE
5
14
100
AcDbSymbolTableRecord
100
AcDbLinetypeTableRecord
70
0
2
ByBlock
3

72
65
73
0
40
0
0
LTYPE
5
15
100
AcDbSymbolTableRecord
100
AcDbLinetypeTableRecord
70
0
2
ByLayer
3

72
65
73
0
40
0
0
LTYPE
5
16
100
AcDbSymbolTableRecord
100
AcDbLinetypeTableRecord
70
0
2
CONTINUOUS
3
Solid line
72
65
73
0
40
0
0
LTYPE
5
6A
100
AcDbSymbolTableRecord
100
AcDbLinetypeTableRecord
70
0
2
CENTER
3
____ _ ____ _ ____ _ ____
72
65
73
4
40
47.5
49
22
74
0
49
-8.5
74
0
49
8.5
74
0
49
-8.5
74
0
0
LTYPE
5
6B
100
AcDbSymbolTableRecord
100
AcDbLinetypeTableRecord
70
0
2
DASHED
3
__ __ __ __ __ __ __ __ __
72
65
73
2
40
25.72
49
12.86
74
0
49
-12.86
74
0
0
ENDTAB
0
TABLE
2
LAYER
5
1a3
100
AcDbSymbolTable
0
LAYER
5
10
100
AcDbSymbolTableRecord
100
AcDbLayerTableRecord
2
0
70
0
62
7
6
CONTINUOUS
290
1
370
-3
390
0
0
LAYER
5
6D
100
AcDbSymbolTableRecord
100
AcDbLayerTableRecord
2
81
70
0
62
-3
6
CONTINUOUS
290
1
370
-3
390
0
0
LAYER
5
6F
100
AcDbSymbolTableRecord
100
AcDbLayerTableRecord
2
80
70
0
62
-6
6
CONTINUOUS
290
1
370
-3
390
0
0
LAYER
5
74
100
AcDbSymbolTableRecord
100
AcDbLayerTableRecord
2
2
70
0
62
7
6
CONTINUOUS
290
1
370
-3
390
0
0
LAYER
5
78
100
AcDbSymbolTableRecord
100
AcDbLayerTableRecord
2
1
70
0
62
4
6
CONTINUOUS
290
1
370
-3
390
0
0
LAYER
5
88
100
AcDbSymbolTableRecord
100
AcDbLayerTableRecord
2
4
70
0
62
-2
6
CENTER
290
1
370
-3
390
0
0
LAYER
5
18d
100
AcDbSymbolTableRecord
100
AcDbLayerTableRecord
2
SK2
70
0
62
7
6
CONTINUOUS
290
1
370
-3
390
0
0
LAYER
5
18e
100
AcDbSymbolTableRecord
100
AcDbLayerTableRecord
2
SK1
70
0
62
4
6
CONTINUOUS
290
1
370
-3
390
0
0
LAYER
5
18f
100
AcDbSymbolTableRecord
100
AcDbLayerTableRecord
2
SK4
70
0
62
2
6
CENTER
290
1
370
-3
390
0
0
LAYER
5
190
100
AcDbSymbolTableRecord
100
AcDbLayerTableRecord
2
SK6
70
0
62
5
6
CONTINUOUS
290
1
370
-3
390
0
0
ENDTAB
0
TABLE
2
STYLE
5
1a4
100
AcDbSymbolTable
0
STYLE
5
11
100
AcDbSymbolTableRecord
100
AcDbTextStyleTableRecord
2
Standard
3
txt
70
0
71
0
40
0
41
1
42
0
50
0
0
STYLE
5
E9
100
AcDbSymbolTableRecord
100
AcDbTextStyleTableRecord
2
iso_b_vert
3
simplex.shx
70
0
71
0
40
0
41
1
42
0
50
0
0
STYLE
5
EA
100
AcDbSymbolTableRecord
100
AcDbTextStyleTableRecord
2
DWGDirectTextStyle
3
simplex
70
0
71
0
40
0
41
1
42
0
50
0
0
ENDTAB
0
TABLE
2
DIMSTYLE
5
1a5
100
AcDbSymbolTable
100
AcDbDimStyleTable
0
DIMSTYLE
105
27
100
AcDbSymbolTableRecord
100
AcDbDimStyleTableRecord
2
Standard
70
0
3
<>
41
0.18
42
0.0625
44
0.18
140
0.18
147
0.09
73
0
74
0
77
1
271
2
275
0
278
52
280
0
340
11
0
ENDTAB
0
TABLE
2
VIEW
5
1a6
100
AcDbSymbolTable
0
ENDTAB
0
TABLE
2
UCS
5
1a7
100
AcDbSymbolTable
0
ENDTAB
0
TABLE
2
APPID
5
1a8
100
AcDbSymbolTable
0
APPID
5
12
100
AcDbSymbolTableRecord
100
AcDbRegAppTableRecord
2
ACAD
70
0
0
ENDTAB
0
TABLE
2
BLOCK_RECORD
5
1a9
100
AcDbSymbolTable
0
BLOCK_RECORD
5
1F
100
AcDbSymbolTableRecord
100
AcDbBlockTableRecord
2
*Model_Space
340
0
70
0
0
BLOCK_RECORD
5
1B
100
AcDbSymbolTableRecord
100
AcDbBlockTableRecord
2
*Paper_Space
340
0
70
0
0
BLOCK_RECORD
5
23
100
AcDbSymbolTableRecord
100
AcDbBlockTableRecord
2
*Paper_Space0
340
0
70
0
0
BLOCK_RECORD
5
EC
100
AcDbSymbolTableRecord
100
AcDbBlockTableRecord
2
DimnDraft3D1
340
0
70
0
0
BLOCK_RECORD
5
F6
100
AcDbSymbolTableRecord
100
AcDbBlockTableRecord
2
DimnDraft3D2
340
0
70
0
0
BLOCK_RECORD
5
100
100
AcDbSymbolTableRecord
100
AcDbBlockTableRecord
2
DimnDraft3D3
340
0
70
0
0
BLOCK_RECORD
5
10A
100
AcDbSymbolTableRecord
100
AcDbBlockTableRecord
2
DimnDraft3D4
340
0
70
0
0
BLOCK_RECORD
5
114
100
AcDbSymbolTableRecord
100
AcDbBlockTableRecord
2
DimnDraft3D5
340
0
70
0
0
BLOCK_RECORD
5
11E
100
AcDbSymbolTableRecord
100
AcDbBlockTableRecord
2
DimnDraft3D6
340
0
70
0
0
BLOCK_RECORD
5
129
100
AcDbSymbolTableRecord
100
AcDbBlockTableRecord
2
DimnDraft3D7
340
0
70
0
0
ENDTAB
0
ENDSEC
0
SECTION
2
BLOCKS
0
BLOCK
5
20
100
AcDbEntity
8
0
100
AcDbBlockBegin
2
*Model_Space
70
0
10
0
20
0
30
0
3
*Model_Space
0
ENDBLK
5
21
100
AcDbEntity
8
0
100
AcDbBlockEnd
0
BLOCK
5
1C
100
AcDbEntity
8
0
100
AcDbBlockBegin
2
*Paper_Space
70
0
10
0
20
0
30
0
3
*Paper_Space
0
ENDBLK
5
1D
100
AcDbEntity
8
0
100
AcDbBlockEnd
0
BLOCK
5
24
100
AcDbEntity
8
0
100
AcDbBlockBegin
2
*Paper_Space0
70
0
10
0
20
0
30
0
3
*Paper_Space0
0
ENDBLK
5
25
100
AcDbEntity
8
0
100
AcDbBlockEnd
0
BLOCK
5
F3
100
AcDbEntity
8
0
100
AcDbBlockBegin
2
DimnDraft3D1
70
0
10
0
20
0
30
0
3
DimnDraft3D1
0
MTEXT
5
ED
100
AcDbEntity
8
SK2
62
256
6
ByLayer
370
13
48
1
60
0
100
AcDbMText
10
21.251375
20
-12.438398
30
0
210
0
220
0
230
1
1
\W0.7317;53,95
40
3.5
41
0
44
1.084337
50
0
71
7
72
5
7
iso_b_vert
0
LINE
5
EE
100
AcDbEntity
8
SK2
62
256
6
ByLayer
370
13
48
1
60
0
100
AcDbLine
10
0
20
-1.5875
30
0
11
0
21
-15.313398
31
0
39
0
210
0
220
0
230
1
0
LINE
5
EF
100
AcDbEntity
8
SK2
62
256
6
ByLayer
370
13
48
1
60
0
100
AcDbLine
10
53.95
20
-4.6875
30
0
11
53.95
21
-15.313398
31
0
39
0
210
0
220
0
230
1
0
LINE
5
F0
100
AcDbEntity
8
SK2
62
256
6
ByLayer
370
13
48
1
60
0
100
AcDbLine
10
0
20
-13.313398
30
0
11
53.95
21
-13.313398
31
0
39
0
210
0
220
0
230
1
0
SOLID
5
F1
100
AcDbEntity
8
SK2
62
256
6
ByLayer
370
13
48
1
60
0
100
AcDbTrace
10
0
20
-13.313398
30
0
11
3.499998
21
-12.852615
31
0
12
3.500002
22
-13.774182
32
0
13
0
23
-13.313398
33
0
39
0
210
0
220
0
230
1
0
SOLID
5
F2
100
AcDbEntity
8
SK2
62
256
6
ByLayer
370
13
48
1
60
0
100
AcDbTrace
10
53.95
20
-13.313398
30
0
11
50.450002
21
-13.774182
31
0
12
50.449998
22
-12.852615
32
0
13
53.95
23
-13.313398
33
0
39
0
210
0
220
0
230
1
0
ENDBLK
5
F4
100
AcDbEntity
8
0
100
AcDbBlockEnd
0
BLOCK
5
FD
100
AcDbEntity
8
0
100
AcDbBlockBegin
2
DimnDraft3D2
70
0
10
0
20
0
30
0
3
DimnDraft3D2
0
MTEXT
5
F7
100
AcDbEntity
8
SK2
62
256
6
ByLayer
370
13
48
1
60
0
100
AcDbMText
10
5.780116
20
-31.817985
30
0
210
0
220
0
230
1
1
\W0.6713;91,00
40
3.5
41
0
44
1.084337
50
0
71
7
72
5
7
iso_b_vert
0
LINE
5
F8
100
AcDbEntity
8
SK2
62
256
6
ByLayer
370
13
48
1
60
0
100
AcDbLine
10
-36
20
-5.5875
30
0
11
-36
21
-34.692985
31
0
39
0
210
0
220
0
230
1
0
LINE
5
F9
100
AcDbEntity
8
SK2
62
256
6
ByLayer
370
13
48
1
60
0
100
AcDbLine
10
55
20
-1.5875
30
0
11
55
21
-34.692985
31
0
39
0
210
0
220
0
230
1
0
LINE
5
FA
100
AcDbEntity
8
SK2
62
256
6
ByLayer
370
13
48
1
60
0
100
AcDbLine
10
-36
20
-32.692985
30
0
11
55
21
-32.692985
31
0
39
0
210
0
220
0
230
1
0
SOLID
5
FB
100
AcDbEntity
8
SK2
62
256
6
ByLayer
370
13
48
1
60
0
100
AcDbTrace
10
-36
20
-32.692985
30
0
11
-32.500002
21
-32.232202
31
0
12
-32.499998
22
-33.153769
32
0
13
-36
23
-32.692985
33
0
39
0
210
0
220
0
230
1
0
SOLID
5
FC
100
AcDbEntity
8
SK2
62
256
6
ByLayer
370
13
48
1
60
0
100
AcDbTrace
10
55
20
-32.692985
30
0
11
51.500002
21
-33.153769
31
0
12
51.499998
22
-32.232202
32
0
13
55
23
-32.692985
33
0
39
0
210
0
220
0
230
1
0
ENDBLK
5
FE
100
AcDbEntity
8
0
100
AcDbBlockEnd
0
BLOCK
5
107
100
AcDbEntity
8
0
100
AcDbBlockBegin
2
DimnDraft3D3
70
0
10
0
20
0
30
0
3
DimnDraft3D3
0
MTEXT
5
101
100
AcDbEntity
8
SK2
62
256
6
ByLayer
370
13
48
1
60
0
100
AcDbMText
10
34.526316
20
15.584119
30
0
210
0
220
0
230
1
1
\W0.7317;32,05
40
3.5
41
0
44
1.084337
50
0
71
7
72
5
7
iso_b_vert
0
LINE
5
102
100
AcDbEntity
8
SK2
62
256
6
ByLayer
370
13
48
1
60
0
100
AcDbLine
10
22.95
20
4.6875
30
0
11
22.95
21
16.709119
31
0
39
0
210
0
220
0
230
1
0
LINE
5
103
100
AcDbEntity
8
SK2
62
256
6
ByLayer
370
13
48
1
60
0
100
AcDbLine
10
55
20
1.5875
30
0
11
55
21
16.709119
31
0
39
0
210
0
220
0
230
1
0
LINE
5
104
100
AcDbEntity
8
SK2
62
256
6
ByLayer
370
13
48
1
60
0
100
AcDbLine
10
22.95
20
14.709119
30
0
11
55
21
14.709119
31
0
39
0
210
0
220
0
230
1
0
SOLID
5
105
100
AcDbEntity
8
SK2
62
256
6
ByLayer
370
13
48
1
60
0
100
AcDbTrace
10
22.95
20
14.709119
30
0
11
26.449998
21
15.169903
31
0
12
26.450002
22
14.248335
32
0
13
22.95
23
14.709119
33
0
39
0
210
0
220
0
230
1
0
SOLID
5
106
100
AcDbEntity
8
SK2
62
256
6
ByLayer
370
13
48
1
60
0
100
AcDbTrace
10
55
20
14.709119
30
0
11
51.500002
21
14.248335
31
0
12
51.499998
22
15.169903
32
0
13
55
23
14.709119
33
0
39
0
210
0
220
0
230
1
0
ENDBLK
5
108
100
AcDbEntity
8
0
100
AcDbBlockEnd
0
BLOCK
5
111
100
AcDbEntity
8
0
100
AcDbBlockBegin
2
DimnDraft3D4
70
0
10
0
20
0
30
0
3
DimnDraft3D4
0
MTEXT
5
10B
100
AcDbEntity
8
SK2
62
256
6
ByLayer
370
13
48
1
60
0
100
AcDbMText
10
62.278136
20
-15.027503
30
0
210
0
220
0
230
1
1
\W0.6367;1,05
40
3.5
41
0
44
1.084337
50
0
71
7
72
5
7
iso_b_vert
0
LINE
5
10C
100
AcDbEntity
8
SK2
62
256
6
ByLayer
370
13
48
1
60
0
100
AcDbLine
10
55
20
-1.5875
30
0
11
55
21
-17.902503
31
0
39
0
210
0
220
0
230
1
0
LINE
5
10D
100
AcDbEntity
8
SK2
62
256
6
ByLayer
370
13
48
1
60
0
100
AcDbLine
10
53.95
20
-4.6875
30
0
11
53.95
21
-17.902503
31
0
39
0
210
0
220
0
230
1
0
LINE
5
10E
100
AcDbEntity
8
SK2
62
256
6
ByLayer
370
13
48
1
60
0
100
AcDbLine
10
45.2
20
-15.902503
30
0
11
68.559715
21
-15.902503
31
0
39
0
210
0
220
0
230
1
0
SOLID
5
10F
100
AcDbEntity
8
SK2
62
256
6
ByLayer
370
13
48
1
60
0
100
AcDbTrace
10
55
20
-15.902503
30
0
11
58.499998
21
-15.441719
31
0
12
58.500002
22
-16.363287
32
0
13
55
23
-15.902503
33
0
39
0
210
0
220
0
230
1
0
SOLID
5
110
100
AcDbEntity
8
SK2
62
256
6
ByLayer
370
13
48
1
60
0
100
AcDbTrace
10
53.95
20
-15.902503
30
0
11
50.450002
21
-16.363287
31
0
12
50.449998
22
-15.441719
32
0
13
53.95
23
-15.902503
33
0
39
0
210
0
220
0
230
1
0
ENDBLK
5
112
100
AcDbEntity
8
0
100
AcDbBlockEnd
0
BLOCK
5
11B
100
AcDbEntity
8
0
100
AcDbBlockBegin
2
DimnDraft3D5
70
0
10
0
20
0
30
0
3
DimnDraft3D5
0
MTEXT
5
115
100
AcDbEntity
8
SK2
62
256
6
ByLayer
370
13
48
1
60
0
100
AcDbMText
10
2.261992
20
-21.468428
30
0
210
0
220
0
230
1
1
\W0.7317;89,95
40
3.5
41
0
44
1.084337
50
0
71
7
72
5
7
iso_b_vert
0
LINE
5
116
100
AcDbEntity
8
SK2
62
256
6
ByLayer
370
13
48
1
60
0
100
AcDbLine
10
-36
20
-5.5875
30
0
11
-36
21
-24.343428
31
0
39
0
210
0
220
0
230
1
0
LINE
5
117
100
AcDbEntity
8
SK2
62
256
6
ByLayer
370
13
48
1
60
0
100
AcDbLine
10
53.95
20
-4.6875
30
0
11
53.95
21
-24.343428
31
0
39
0
210
0
220
0
230
1
0
LINE
5
118
100
AcDbEntity
8
SK2
62
256
6
ByLayer
370
13
48
1
60
0
100
AcDbLine
10
-36
20
-22.343428
30
0
11
53.95
21
-22.343428
31
0
39
0
210
0
220
0
230
1
0
SOLID
5
119
100
AcDbEntity
8
SK2
62
256
6
ByLayer
370
13
48
1
60
0
100
AcDbTrace
10
-36
20
-22.343428
30
0
11
-32.500002
21
-21.882645
31
0
12
-32.499998
22
-22.804212
32
0
13
-36
23
-22.343428
33
0
39
0
210
0
220
0
230
1
0
SOLID
5
11A
100
AcDbEntity
8
SK2
62
256
6
ByLayer
370
13
48
1
60
0
100
AcDbTrace
10
53.95
20
-22.343428
30
0
11
50.450002
21
-22.804212
31
0
12
50.449998
22
-21.882645
32
0
13
53.95
23
-22.343428
33
0
39
0
210
0
220
0
230
1
0
ENDBLK
5
11C
100
AcDbEntity
8
0
100
AcDbBlockEnd
0
BLOCK
5
126
100
AcDbEntity
8
0
100
AcDbBlockBegin
2
DimnDraft3D6
70
0
10
0
20
0
30
0
3
DimnDraft3D6
0
MTEXT
5
11F
100
AcDbEntity
8
SK2
62
256
6
ByLayer
370
13
48
1
60
0
100
AcDbMText
10
-46.375163
20
23.34918
30
0
210
0
220
0
230
1
1
\W0.7317;8,000
40
3.5
41
0
44
1.084337
50
90
71
7
72
5
7
iso_b_vert
0
MTEXT
5
120
100
AcDbEntity
8
SK2
62
256
6
ByLayer
370
13
48
1
60
0
100
AcDbMText
10
-46.375163
20
18.126524
30
0
210
0
220
0
230
1
1
%%c
40
3.5
41
0
44
1.084337
50
90
71
7
72
5
7
iso_b_vert
0
LINE
5
121
100
AcDbEntity
8
SK2
62
256
6
ByLayer
370
13
48
1
60
0
100
AcDbLine
10
-37.5875
20
-4
30
0
11
-46.625163
21
-4
31
0
39
0
210
0
220
0
230
1
0
LINE
5
122
100
AcDbEntity
8
SK2
62
256
6
ByLayer
370
13
48
1
60
0
100
AcDbLine
10
-37.5875
20
4
30
0
11
-46.625163
21
4
31
0
39
0
210
0
220
0
230
1
0
LINE
5
123
100
AcDbEntity
8
SK2
62
256
6
ByLayer
370
13
48
1
60
0
100
AcDbLine
10
-44.625163
20
-4
30
0
11
-44.625163
21
33.121549
31
0
39
0
210
0
220
0
230
1
0
SOLID
5
124
100
AcDbEntity
8
SK2
62
256
6
ByLayer
370
13
48
1
60
0
100
AcDbTrace
10
-44.625163
20
-4
30
0
11
-45.085946
21
-0.500002
31
0
12
-44.164379
22
-0.499998
32
0
13
-44.625163
23
-4
33
0
39
0
210
0
220
0
230
1
0
SOLID
5
125
100
AcDbEntity
8
SK2
62
256
6
ByLayer
370
13
48
1
60
0
100
AcDbTrace
10
-44.625163
20
4
30
0
11
-44.164379
21
0.500002
31
0
12
-45.085946
22
0.499998
32
0
13
-44.625163
23
4
33
0
39
0
210
0
220
0
230
1
0
ENDBLK
5
127
100
AcDbEntity
8
0
100
AcDbBlockEnd
0
BLOCK
5
131
100
AcDbEntity
8
0
100
AcDbBlockBegin
2
DimnDraft3D7
70
0
10
0
20
0
30
0
3
DimnDraft3D7
0
MTEXT
5
12A
100
AcDbEntity
8
2
62
256
6
ByLayer
370
13
48
1
60
0
100
AcDbMText
10
65.333343
20
21.042266
30
0
210
0
220
0
230
1
1
\W0.7317;6,200
40
3.5
41
0
44
1.084337
50
90
71
7
72
5
7
iso_b_vert
0
MTEXT
5
12B
100
AcDbEntity
8
2
62
256
6
ByLayer
370
13
48
1
60
0
100
AcDbMText
10
65.333343
20
15.81961
30
0
210
0
220
0
230
1
1
%%c
40
3.5
41
0
44
1.084337
50
90
71
7
72
5
7
iso_b_vert
0
LINE
5
12C
100
AcDbEntity
8
2
62
256
6
ByLayer
370
13
48
1
60
0
100
AcDbLine
10
55.5375
20
-3.1
30
0
11
69.083343
21
-3.1
31
0
39
0
210
0
220
0
230
1
0
LINE
5
12D
100
AcDbEntity
8
2
62
256
6
ByLayer
370
13
48
1
60
0
100
AcDbLine
10
55.5375
20
3.1
30
0
11
69.083343
21
3.1
31
0
39
0
210
0
220
0
230
1
0
LINE
5
12E
100
AcDbEntity
8
2
62
256
6
ByLayer
370
13
48
1
60
0
100
AcDbLine
10
67.083343
20
30.814635
30
0
11
67.083343
21
-11.85
31
0
39
0
210
0
220
0
230
1
0
SOLID
5
12F
100
AcDbEntity
8
2
62
256
6
ByLayer
370
13
48
1
60
0
100
AcDbTrace
10
67.083343
20
-3.1
30
0
11
67.544126
21
-6.599998
31
0
12
66.622559
22
-6.600002
32
0
13
67.083343
23
-3.1
33
0
39
0
210
0
220
0
230
1
0
SOLID
5
130
100
AcDbEntity
8
2
62
256
6
ByLayer
370
13
48
1
60
0
100
AcDbTrace
10
67.083343
20
3.1
30
0
11
66.622559
21
6.599998
31
0
12
67.544126
22
6.600002
32
0
13
67.083343
23
3.1
33
0
39
0
210
0
220
0
230
1
0
ENDBLK
5
132
100
AcDbEntity
8
0
100
AcDbBlockEnd
0
ENDSEC
0
SECTION
2
ENTITIES
0
ARC
5
9B
100
AcDbEntity
8
1
62
256
6
ByLayer
370
18
48
1
60
0
100
AcDbCircle
39
0
10
0
20
3.2
30
0
40
0.800000000000002
210
0
220
0
230
1
100
AcDbArc
50
24.69543
51
90
0
ARC
5
9C
100
AcDbEntity
8
1
62
256
6
ByLayer
370
18
48
1
60
0
100
AcDbCircle
39
0
10
0
20
-3.2
30
0
40
0.800000000000002
210
0
220
0
230
1
100
AcDbArc
50
270
51
335.30457
0
ARC
5
9D
100
AcDbEntity
8
1
62
256
6
ByLayer
370
18
48
1
60
0
100
AcDbCircle
39
0
10
-1.453666
20
3.868471
30
0
40
0.800000000000002
210
0
220
0
230
-1
100
AcDbArc
50
269.965623
51
335.30457
0
ARC
5
9E
100
AcDbEntity
8
1
62
256
6
ByLayer
370
18
48
1
60
0
100
AcDbCircle
39
0
10
-1.453666
20
-3.868471
30
0
40
0.800000000000002
210
0
220
0
230
-1
100
AcDbArc
50
24.69543
51
90.034377
0
ELLIPSE
5
9F
100
AcDbEntity
8
1
62
256
6
ByLayer
370
13
48
1
60
0
100
AcDbEllipse
10
54.501934
20
1.474944
30
0
11
1.83886302163442
21
-1.26610948099386
31
0
210
0
220
0
230
-1
40
0.533762
41
1.44484622741551
42
1.68012123814296
0
ELLIPSE
5
A0
100
AcDbEntity
8
1
62
256
6
ByLayer
370
18
48
1
60
0
100
AcDbEllipse
10
55.000278
20
0.000677
30
0
11
1.14473237954983
21
3.09779487080087
31
0
210
0
220
0
230
-1
40
0.115174
41
2.85712219978365
42
2.96712914088498
0
ELLIPSE
5
A1
100
AcDbEntity
8
1
62
256
6
ByLayer
370
18
48
1
60
0
100
AcDbEllipse
10
54.377312
20
-1.598142
30
0
11
0.480694676007784
21
1.3008223880632
31
0
210
0
220
0
230
-1
40
0.115174
41
0.742863466705877
42
1.49452382850903
0
ELLIPSE
5
A2
100
AcDbEntity
8
1
62
256
6
ByLayer
370
18
48
1
60
0
100
AcDbEllipse
10
54.377312
20
1.598142
30
0
11
0.480694676013392
21
-1.30082238807528
31
0
210
0
220
0
230
-1
40
0.115174
41
-1.49452382850278
42
-0.74286346670607
0
ELLIPSE
5
A3
100
AcDbEntity
8
1
62
256
6
ByLayer
370
13
48
1
60
0
100
AcDbEllipse
10
4.183784
20
0.324924
30
0
11
0.04664523045432
21
0.0884546351293327
31
0
210
0
220
0
230
1
40
0.361512
41
1.86540499818735
42
-3.06732201439032
0
ELLIPSE
5
A4
100
AcDbEntity
8
1
62
256
6
ByLayer
370
18
48
1
60
0
100
AcDbEllipse
10
55.047723
20
-0.006543
30
0
11
0.137979128859524
21
-0.428995648122414
31
0
210
0
220
0
230
-1
40
0.08774
41
1.68630191344078
42
2.32337572126731
0
ELLIPSE
5
A5
100
AcDbEntity
8
1
62
256
6
ByLayer
370
13
48
1
60
0
100
AcDbEllipse
10
4.250255
20
0.291361
30
0
11
0.0437942193282564
21
0.0899003134223045
31
0
210
0
220
0
230
1
40
0.043659
41
3.08210481945283
42
-1.65631486895723
0
ELLIPSE
5
A6
100
AcDbEntity
8
1
62
256
6
ByLayer
370
13
48
1
60
0
100
AcDbEllipse
10
54.691841
20
1.598142
30
0
11
1.90808843006955
21
-0.922943977002167
31
0
210
0
220
0
230
-1
40
0.481297
41
1.56830482607248
42
1.84251730745398
0
ELLIPSE
5
A7
100
AcDbEntity
8
1
62
256
6
ByLayer
370
18
48
1
60
0
100
AcDbEllipse
10
54.860618
20
0.104473
30
0
11
0.0727819104901212
21
0.301917195728589
31
0
210
0
220
0
230
-1
40
0.478434
41
1.7005716059244
42
2.45976119974154
0
ELLIPSE
5
A8
100
AcDbEntity
8
1
62
256
6
ByLayer
370
13
48
1
60
0
100
AcDbEllipse
10
54.252387
20
0.465357
30
0
11
0.153082081612419
21
0.258003636193773
31
0
210
0
220
0
230
1
40
0.454519
41
0.917105603404884
42
2.31336900500019
0
ELLIPSE
5
A9
100
AcDbEntity
8
1
62
256
6
ByLayer
370
18
48
1
60
0
100
AcDbEllipse
10
55.000278
20
-0.000677
30
0
11
1.1447323524797
21
-3.09779479118609
31
0
210
0
220
0
230
-1
40
0.115174
41
-2.96712913862805
42
-2.85712219609017
0
ELLIPSE
5
AA
100
AcDbEntity
8
1
62
256
6
ByLayer
370
18
48
1
60
0
100
AcDbEllipse
10
55.047723
20
0.006543
30
0
11
0.137979128885354
21
0.428995648189496
31
0
210
0
220
0
230
-1
40
0.08774
41
-2.32337572125821
42
-1.68630191352578
0
POINT
5
6C
100
AcDbEntity
8
81
62
256
6
ByLayer
370
18
48
1
60
0
100
AcDbPoint
10
55
20
0
30
0
39
0
210
0
220
0
230
1
50
360
0
POINT
5
6E
100
AcDbEntity
8
80
62
256
6
ByLayer
370
18
48
1
60
0
100
AcDbPoint
10
0
20
0
30
0
39
0
210
0
220
0
230
1
50
360
0
POINT
5
70
100
AcDbEntity
8
SK2
62
256
6
ByLayer
370
18
48
1
60
1
100
AcDbPoint
10
-36
20
-4
30
0
39
0
210
0
220
0
230
1
50
360
0
POINT
5
72
100
AcDbEntity
8
SK2
62
256
6
ByLayer
370
18
48
1
60
1
100
AcDbPoint
10
-36
20
4
30
0
39
0
210
0
220
0
230
1
50
360
0
POINT
5
73
100
AcDbEntity
8
2
62
256
6
ByLayer
370
18
48
1
60
1
100
AcDbPoint
10
53.95
20
-3.1
30
0
39
0
210
0
220
0
230
1
50
360
0
POINT
5
75
100
AcDbEntity
8
2
62
256
6
ByLayer
370
18
48
1
60
1
100
AcDbPoint
10
53.95
20
3.1
30
0
39
0
210
0
220
0
230
1
50
360
0
SPLINE
5
AB
100
AcDbEntity
8
1
62
256
6
ByLayer
370
18
48
1
60
0
100
AcDbSpline
70
4
71
2
72
6
73
3
40
0
40
0
40
0
40
1
40
1
40
1
41
1
10
4.25177182788835
20
-2.92194663724715
30
0
41
1
10
4.45502041709355
20
-2.92427373569566
30
0
41
1
10
4.65846279672627
20
-2.92500933023089
30
0
0
SPLINE
5
AC
100
AcDbEntity
8
1
62
256
6
ByLayer
370
18
48
1
60
0
100
AcDbSpline
70
4
71
3
72
15
73
11
40
0
40
0
40
0
40
0
40
0.0526057840675611
40
0.175842046148577
40
0.295130705393153
40
0.435811432641342
40
0.518131016454267
40
0.618207505270193
40
0.774964760536502
40
1
40
1
40
1
40
1
41
1
10
44.4635523351541
20
-0.884157195833069
30
0
41
1
10
44.4636466262727
20
-0.884098233034194
30
0
41
1
10
44.4666636979245
20
-0.884368855558051
30
0
41
1
10
44.4794531583877
20
-0.88794962565504
30
0
41
1
10
44.5223785580381
20
-0.900993678761239
30
0
41
1
10
44.5763349799326
20
-0.917010966893315
30
0
41
1
10
44.6524339059411
20
-0.942784450344988
30
0
41
1
10
44.7691799720419
20
-0.987593647989968
30
0
41
1
10
45.0059306639204
20
-1.08563371837968
30
0
41
1
10
45.2047123231231
20
-1.1739181526942
30
0
41
1
10
45.3330780273726
20
-1.23266082453745
30
0
0
SPLINE
5
AD
100
AcDbEntity
8
1
62
256
6
ByLayer
370
18
48
1
60
0
100
AcDbSpline
70
4
71
3
72
21
73
17
40
0
40
0
40
0
40
0
40
0.103151725574567
40
0.190614203524752
40
0.265406268061717
40
0.328380366807227
40
0.387381601624249
40
0.459221033104047
40
0.542767464717235
40
0.614178522967945
40
0.666002808416388
40
0.719578850134919
40
0.794647011670984
40
0.869705853177968
40
0.943763307002932
40
1
40
1
40
1
40
1
41
1
10
33.8980585279283
20
-2.93914255559741
30
0
41
1
10
34.213650204361
20
-2.93777281554935
30
0
41
1
10
34.798575698897
20
-2.93653729013346
30
0
41
1
10
35.6287477858323
20
-2.93627544805201
30
0
41
1
10
36.3187735172171
20
-2.9414132936509
30
0
41
1
10
36.9310928794015
20
-2.94038597070642
30
0
41
1
10
37.5330355240783
20
-2.94184155443492
30
0
41
1
10
38.1993723347957
20
-2.94120195635486
30
0
41
1
10
38.9040212974185
20
-2.94207135897957
30
0
41
1
10
39.5465715542621
20
-2.94244171118109
30
0
41
1
10
40.0960134382673
20
-2.9417686281275
30
0
41
1
10
40.6567883252092
20
-2.94401428822405
30
0
41
1
10
41.2899535244289
20
-2.94289567777281
30
0
41
1
10
41.9859760890491
20
-2.94313509863556
30
0
41
1
10
42.6237848796339
20
-2.9421187113399
30
0
41
1
10
43.0277882839735
20
-2.9433409482871
30
0
41
1
10
43.2020903228575
20
-2.9440440050642
30
0
0
SPLINE
5
AE
100
AcDbEntity
8
1
62
256
6
ByLayer
370
18
48
1
60
0
100
AcDbSpline
70
4
71
3
72
22
73
18
40
0
40
0
40
0
40
0
40
0.0845545150861303
40
0.166108031179224
40
0.245536814106042
40
0.316935980239074
40
0.378936339752345
40
0.438096717072833
40
0.511567967882613
40
0.617379767463933
40
0.710730183225526
40
0.787167802110244
40
0.815810095437545
40
0.843239299041039
40
0.888605449219958
40
0.954780406339314
40
1
40
1
40
1
40
1
41
1
10
14.4933767884996
20
-2.92724551503986
30
0
41
1
10
14.7517818578975
20
-2.92681425146165
30
0
41
1
10
15.2602337516932
20
-2.92653016839415
30
0
41
1
10
16.0225794013095
20
-2.92671532749978
30
0
41
1
10
16.7305462465994
20
-2.93031509710789
30
0
41
1
10
17.384143968832
20
-2.92832921763522
30
0
41
1
10
17.9802887127371
20
-2.93011875344254
30
0
41
1
10
18.5780182763881
20
-2.93011395350621
30
0
41
1
10
19.3148788752945
20
-2.93271016022553
30
0
41
1
10
20.156488110363
20
-2.93050293813866
30
0
41
1
10
21.0075244335598
20
-2.93421091259162
30
0
41
1
10
21.6202592745163
20
-2.93228899251039
30
0
41
1
10
22.0292841482122
20
-2.932797249988
30
0
41
1
10
22.3422712972246
20
-2.93412788561696
30
0
41
1
10
22.7714671832218
20
-2.93451051446667
30
0
41
1
10
23.2555120113997
20
-2.93318880352916
30
0
41
1
10
23.5993474184797
20
-2.93404246649544
30
0
41
1
10
23.7389068651397
20
-2.93449793064721
30
0
0
SPLINE
5
AF
100
AcDbEntity
8
1
62
256
6
ByLayer
370
18
48
1
60
0
100
AcDbSpline
70
4
71
2
72
6
73
3
40
0
40
0
40
0
40
1
40
1
40
1
41
1
10
53.3852322348154
20
-2.95069144078298
30
0
41
1
10
53.6570572266206
20
-2.94919136119307
30
0
41
1
10
53.9286520717081
20
-2.95174935562278
30
0
0
SPLINE
5
B0
100
AcDbEntity
8
1
62
256
6
ByLayer
370
18
48
1
60
0
100
AcDbSpline
70
4
71
3
72
21
73
17
40
0
40
0
40
0
40
0
40
0.0563638876508338
40
0.137760242889427
40
0.215848906099862
40
0.299444042937169
40
0.370660167941605
40
0.421802216477928
40
0.481102798557916
40
0.558713372495567
40
0.660736109434518
40
0.748462841482646
40
0.820512207835982
40
0.897413037545032
40
0.988745377874183
40
1
40
1
40
1
40
1
41
1
10
43.2049397440315
20
2.94392062302245
30
0
41
1
10
43.0619821965659
20
2.94325013144186
30
0
41
1
10
42.7123931956309
20
2.94196535407886
30
0
41
1
10
42.1625366819962
20
2.94361106941059
30
0
41
1
10
41.5454919255711
20
2.94214976348587
30
0
41
1
10
40.9524398033658
20
2.94415039577419
30
0
41
1
10
40.4284342573574
20
2.94289025066226
30
0
41
1
10
39.9661449437441
20
2.94184690192901
30
0
41
1
10
39.4876133564667
20
2.94250865848517
30
0
41
1
10
38.879612253404
20
2.94200216598193
30
0
41
1
10
38.1993727271386
20
2.94121189046425
30
0
41
1
10
37.5330354454133
20
2.94183956264234
30
0
41
1
10
36.9310929000494
20
2.94038649350841
30
0
41
1
10
36.3187735103697
20
2.94141312027162
30
0
41
1
10
35.8684677379574
20
2.93806035131166
30
0
41
1
10
35.6082985514611
20
2.93717913389352
30
0
41
1
10
35.5797285683488
20
2.93709386047075
30
0
0
SPLINE
5
B1
100
AcDbEntity
8
1
62
256
6
ByLayer
370
18
48
1
60
0
100
AcDbSpline
70
4
71
3
72
10
73
6
40
0
40
0
40
0
40
0
40
0.0806910347130308
40
0.347934488389851
40
1
40
1
40
1
40
1
41
1
10
32.6932974564892
20
0.364185519675118
30
0
41
1
10
32.6934639524257
20
0.364181728152943
30
0
41
1
10
32.6923442775866
20
0.364943794460942
30
0
41
1
10
32.6605832725185
20
0.379501551353172
30
0
41
1
10
32.6088059414529
20
0.403990889138697
30
0
41
1
10
32.5554230597682
20
0.42909429044181
30
0
0
SPLINE
5
B2
100
AcDbEntity
8
1
62
256
6
ByLayer
370
18
48
1
60
0
100
AcDbSpline
70
4
71
3
72
14
73
10
40
0
40
0
40
0
40
0
40
0.106491477778737
40
0.304294280014168
40
0.482779925700603
40
0.625362970554558
40
0.689283585498546
40
0.776319652862664
40
1
40
1
40
1
40
1
41
1
10
25.0596010312928
20
-0.883999495552729
30
0
41
1
10
25.0598589290948
20
-0.883954029455595
30
0
41
1
10
25.0718033952164
20
-0.885358165249812
30
0
41
1
10
25.1106925280035
20
-0.896766585597902
30
0
41
1
10
25.2045006203845
20
-0.926695030344405
30
0
41
1
10
25.3209183335174
20
-0.968111288927048
30
0
41
1
10
25.4339346593035
20
-1.01385340958274
30
0
41
1
10
25.6174917299881
20
-1.09073831747756
30
0
41
1
10
25.7796545624142
20
-1.16340328389617
30
0
41
1
10
25.9080223629315
20
-1.22289849563327
30
0
0
SPLINE
5
B3
100
AcDbEntity
8
1
62
256
6
ByLayer
370
18
48
1
60
0
100
AcDbSpline
70
4
71
2
72
6
73
3
40
0
40
0
40
0
40
1
40
1
40
1
41
1
10
4.64713967185702
20
2.92493824999352
30
0
41
1
10
4.44936155201248
20
2.92421604356096
30
0
41
1
10
4.25177182788838
20
2.92194663724754
30
0
0
SPLINE
5
B4
100
AcDbEntity
8
1
62
256
6
ByLayer
370
18
48
1
60
0
100
AcDbSpline
70
4
71
3
72
9
73
5
40
0
40
0
40
0
40
0
40
0.197116496332801
40
1
40
1
40
1
40
1
41
1
10
13.2844934577991
20
0.368149193591563
30
0
41
1
10
13.2842319550589
20
0.368463568156869
30
0
41
1
10
13.2757644722122
20
0.373075205564504
30
0
41
1
10
13.2300139563305
20
0.39449437354574
30
0
41
1
10
13.1697126619223
20
0.421865169265772
30
0
0
SPLINE
5
B5
100
AcDbEntity
8
1
62
256
6
ByLayer
370
18
48
1
60
0
100
AcDbSpline
70
4
71
3
72
19
73
15
40
0
40
0
40
0
40
0
40
0.0601210226029923
40
0.136525110011751
40
0.211832846337607
40
0.299958148047516
40
0.391531395692161
40
0.472375228804822
40
0.545391696571665
40
0.639951003161953
40
0.740991837628143
40
0.834532569833482
40
0.928989176915181
40
1
40
1
40
1
40
1
41
1
10
23.8167621648524
20
2.93435704442703
30
0
41
1
10
23.6639043907331
20
2.93359221733769
30
0
41
1
10
23.3164825400789
20
2.93232949168524
30
0
41
1
10
22.7742638935961
20
2.9343353356885
30
0
41
1
10
22.1636752384326
20
2.93354901688909
30
0
41
1
10
21.5114531693269
20
2.93211118652945
30
0
41
1
10
20.8457604591526
20
2.93394343595483
30
0
41
1
10
20.2185019135491
20
2.93089652070435
30
0
41
1
10
19.5836203596373
20
2.93259496842418
30
0
41
1
10
18.8972665796572
20
2.93033358651837
30
0
41
1
10
18.1584512806322
20
2.93091607151885
30
0
41
1
10
17.4197797968082
20
2.92962064996345
30
0
41
1
10
16.7583276794037
20
2.92950614580855
30
0
41
1
10
16.3354687520942
20
2.92909250154111
30
0
41
1
10
16.1539814867053
20
2.92889735315745
30
0
0
SPLINE
5
B6
100
AcDbEntity
8
1
62
256
6
ByLayer
370
18
48
1
60
0
100
AcDbSpline
70
4
71
3
72
14
73
10
40
0
40
0
40
0
40
0
40
0.229674064860281
40
0.229674064860281
40
0.459348129720562
40
0.459348129720562
40
0.918696259441123
40
0.918696259441123
40
1
40
1
40
1
40
1
41
1
10
12.1463266109351
20
2.97993079614969
30
0
41
1
10
11.878374460878
20
2.9467177482374
30
0
41
1
10
11.6086482054919
20
2.90610467017422
30
0
41
1
10
11.0654142907299
20
2.81302608369148
30
0
41
1
10
10.7913868659062
20
2.76043103722523
30
0
41
1
10
9.96782624855263
20
2.59006517444897
30
0
41
1
10
9.41635811068005
20
2.45967727291216
30
0
41
1
10
8.76136351110875
20
2.30117263987776
30
0
41
1
10
8.66270572214549
20
2.27720550574711
30
0
41
1
10
8.56387698387087
20
2.25317713777932
30
0
0
SPLINE
5
B7
100
AcDbEntity
8
1
62
256
6
ByLayer
370
18
48
1
60
0
100
AcDbSpline
70
4
71
3
72
66
73
62
40
0
40
0
40
0
40
0
40
0.0624629109245493
40
0.0624629109245493
40
0.0936943663868239
40
0.0936943663868239
40
0.124925821849099
40
0.124925821849099
40
0.156157277311373
40
0.156157277311373
40
0.187388732773648
40
0.187388732773648
40
0.218620188235922
40
0.218620188235922
40
0.249851643698197
40
0.249851643698197
40
0.281083099160472
40
0.281083099160472
40
0.312314554622746
40
0.312314554622746
40
0.343546010085021
40
0.343546010085021
40
0.374777465547296
40
0.374777465547296
40
0.40600892100957
40
0.40600892100957
40
0.437240376471845
40
0.437240376471845
40
0.499703287396394
40
0.499703287396394
40
0.530934742858669
40
0.530934742858669
40
0.562166198320944
40
0.562166198320944
40
0.593397653783219
40
0.593397653783219
40
0.624629109245495
40
0.624629109245495
40
0.65586056470777
40
0.65586056470777
40
0.687092020170045
40
0.687092020170045
40
0.71832347563232
40
0.71832347563232
40
0.749554931094595
40
0.749554931094595
40
0.78078638655687
40
0.78078638655687
40
0.812017842019145
40
0.812017842019145
40
0.84324929748142
40
0.84324929748142
40
0.874480752943695
40
0.874480752943695
40
0.936943663868245
40
0.936943663868245
40
0.96817511933052
40
0.96817511933052
40
0.999406574792794
40
0.999406574792794
40
1
40
1
40
1
40
1
41
1
10
12.1459751901072
20
2.97988310662308
30
0
41
1
10
12.5853166924872
20
3.03471696765467
30
0
41
1
10
13.0239642140011
20
3.06532745211271
30
0
41
1
10
13.6773885515318
20
3.07772713063309
30
0
41
1
10
13.8945829409336
20
3.07603944915582
30
0
41
1
10
14.3300132574666
20
3.06133976568478
30
0
41
1
10
14.5478735229883
20
3.04837263145026
30
0
41
1
10
14.9834051618543
20
3.01103255376006
30
0
41
1
10
15.2007037317635
20
2.98641162071027
30
0
41
1
10
15.6370616034596
20
2.92632134710163
30
0
41
1
10
15.8560511685999
20
2.89093233819986
30
0
41
1
10
16.2950809723341
20
2.8090894601865
30
0
41
1
10
16.5154680584824
20
2.76236429072509
30
0
41
1
10
16.9537375429239
20
2.6583430898954
30
0
41
1
10
17.1726478933491
20
2.60179116417902
30
0
41
1
10
17.6097563544141
20
2.4797074930421
30
0
41
1
10
17.8279296835909
20
2.4141526721416
30
0
41
1
10
18.2629175732457
20
2.27314024636991
30
0
41
1
10
18.4800105750458
20
2.19798880602369
30
0
41
1
10
18.9153625056536
20
2.04134314963596
30
0
41
1
10
19.1332704039826
20
1.95938916299079
30
0
41
1
10
19.5690705528583
20
1.78739340678933
30
0
41
1
10
19.7866077605013
20
1.69668443600534
30
0
41
1
10
20.2237989368288
20
1.51058354502183
30
0
41
1
10
20.4432734609335
20
1.4149587986517
30
0
41
1
10
20.8834573469803
20
1.21753880793148
30
0
41
1
10
21.1030235920813
20
1.11579087677336
30
0
41
1
10
21.7582831226359
20
0.804990605652705
30
0
41
1
10
22.1945889737313
20
0.595556348159164
30
0
41
1
10
22.8451494084471
20
0.271797783463228
30
0
41
1
10
23.0617419469163
20
0.163063191845168
30
0
41
1
10
23.496020801057
20
-0.0527104777576426
30
0
41
1
10
23.7133963534062
20
-0.160384685585342
30
0
41
1
10
24.1481442896551
20
-0.376294424821793
30
0
41
1
10
24.3651860297695
20
-0.485219117268656
30
0
41
1
10
24.8015113102025
20
-0.698996398598695
30
0
41
1
10
25.0205489759983
20
-0.804353389633491
30
0
41
1
10
25.4598823284223
20
-1.01303295524252
30
0
41
1
10
25.6799869937486
20
-1.11678184431562
30
0
41
1
10
26.1173887994988
20
-1.31885263825816
30
0
41
1
10
26.335894992111
20
-1.41624217668721
30
0
41
1
10
26.7719737544724
20
-1.6051242924284
30
0
41
1
10
26.9895656827006
20
-1.69657964980269
30
0
41
1
10
27.4232771209699
20
-1.87438776494582
30
0
41
1
10
27.6399034670974
20
-1.95984243275913
30
0
41
1
10
28.0740498702334
20
-2.12188376473426
30
0
41
1
10
28.2912916600546
20
-2.19894181843381
30
0
41
1
10
28.7256310964351
20
-2.34574557697957
30
0
41
1
10
28.9424284153776
20
-2.41582845398949
30
0
41
1
10
29.3782101247314
20
-2.54539330514473
30
0
41
1
10
29.5968978255376
20
-2.60533047571656
30
0
41
1
10
30.0353904962146
20
-2.71601259393137
30
0
41
1
10
30.2555057359746
20
-2.76707285598889
30
0
41
1
10
30.9126287214829
20
-2.9034091066444
30
0
41
1
10
31.3496652646032
20
-2.97096482409378
30
0
41
1
10
32.0004609561402
20
-3.04038971434443
30
0
41
1
10
32.2171869199402
20
-3.05778794189658
30
0
41
1
10
32.6513228351528
20
-3.08109359046452
30
0
41
1
10
32.8684886321383
20
-3.08711043924239
30
0
41
1
10
33.0896315234951
20
-3.08745122245728
30
0
41
1
10
33.0937549342212
20
-3.08745548066955
30
0
41
1
10
33.0978782069992
20
-3.08745764345966
30
0
0
SPLINE
5
B8
100
AcDbEntity
8
1
62
256
6
ByLayer
370
18
48
1
60
0
100
AcDbSpline
70
4
71
3
72
26
73
22
40
0
40
0
40
0
40
0
40
0.071973730322802
40
0.071973730322802
40
0.175087760286935
40
0.175087760286935
40
0.278201790251068
40
0.278201790251068
40
0.381315820215201
40
0.381315820215201
40
0.484429850179335
40
0.484429850179335
40
0.587543880143467
40
0.587543880143467
40
0.690657910107601
40
0.690657910107601
40
0.793771940071734
40
0.793771940071734
40
0.896885970035867
40
0.896885970035867
40
1
40
1
40
1
40
1
41
1
10
47.6597339869466
20
2.19197528652739
30
0
41
1
10
47.8115430665129
20
2.24553083446196
30
0
41
1
10
47.9635790508312
20
2.29710040955138
30
0
41
1
10
48.3337937476005
20
2.41796742227811
30
0
41
1
10
48.5517930830313
20
2.48568583944967
30
0
41
1
10
48.9898368716201
20
2.61119838186894
30
0
41
1
10
49.2103132903322
20
2.66880472818892
30
0
41
1
10
49.6485251950965
20
2.77344210235231
30
0
41
1
10
49.8667851792414
20
2.82066100150598
30
0
41
1
10
50.3014953730221
20
2.90482642488962
30
0
41
1
10
50.5186905717989
20
2.94116648577585
30
0
41
1
10
50.9530341498082
20
3.00263800794406
30
0
41
1
10
51.1700612721562
20
3.02786635489113
30
0
41
1
10
51.6032994433591
20
3.06739762641166
30
0
41
1
10
51.8194643022496
20
3.08160512787711
30
0
41
1
10
52.2535423989982
20
3.09829267176747
30
0
41
1
10
52.4710563785061
20
3.10094571755377
30
0
41
1
10
52.9065734148695
20
3.09479202406433
30
0
41
1
10
53.124226760949
20
3.08586336303458
30
0
41
1
10
53.5615958457997
20
3.05632103947562
30
0
41
1
10
53.781812029303
20
3.03580857060027
30
0
41
1
10
54.0016836433564
20
3.00962028687269
30
0
0
SPLINE
5
B9
100
AcDbEntity
8
1
62
256
6
ByLayer
370
18
48
1
60
0
100
AcDbSpline
70
4
71
3
72
76
73
72
40
0
40
0
40
0
40
0
40
0.012542075974459
40
0.012542075974459
40
0.0417075792924998
40
0.0417075792924998
40
0.0708730826105405
40
0.0708730826105405
40
0.100038585928581
40
0.100038585928581
40
0.129204089246622
40
0.129204089246622
40
0.158369592564663
40
0.158369592564663
40
0.172952344223683
40
0.172952344223683
40
0.187535095882704
40
0.187535095882704
40
0.216700599200746
40
0.216700599200746
40
0.245866102518788
40
0.245866102518788
40
0.304197109154872
40
0.304197109154872
40
0.333362612472915
40
0.333362612472915
40
0.362528115790958
40
0.362528115790958
40
0.391693619109
40
0.391693619109
40
0.420859122427043
40
0.420859122427043
40
0.450024625745086
40
0.450024625745086
40
0.479190129063129
40
0.479190129063129
40
0.508355632381172
40
0.508355632381172
40
0.537521135699214
40
0.537521135699214
40
0.566686639017257
40
0.566686639017257
40
0.5958521423353
40
0.5958521423353
40
0.625017645653343
40
0.625017645653343
40
0.654183148971386
40
0.654183148971386
40
0.683348652289429
40
0.683348652289429
40
0.712514155607471
40
0.712514155607471
40
0.741679658925514
40
0.741679658925514
40
0.770845162243557
40
0.770845162243557
40
0.8000106655616
40
0.8000106655616
40
0.829176168879643
40
0.829176168879643
40
0.858341672197685
40
0.858341672197685
40
0.887507175515728
40
0.887507175515728
40
0.91667267883377
40
0.91667267883377
40
0.945838182151812
40
0.945838182151812
40
0.975003685469855
40
0.975003685469855
40
1
40
1
40
1
40
1
41
1
10
47.6673163927157
20
-2.19532437738167
30
0
41
1
10
47.5682283508386
20
-2.22697310038714
30
0
41
1
10
47.4692059316693
20
-2.25772710008332
30
0
41
1
10
47.1399407607572
20
-2.3567693189672
30
0
41
1
10
46.9099222298489
20
-2.42093707593594
30
0
41
1
10
46.4503523228873
20
-2.53814199155536
30
0
41
1
10
46.2209347221039
20
-2.59145715175708
30
0
41
1
10
45.7610142601425
20
-2.68761172399192
30
0
41
1
10
45.5306672529669
20
-2.73065263627751
30
0
41
1
10
45.0693083131366
20
-2.80600166082078
30
0
41
1
10
44.8384803438402
20
-2.83839448287932
30
0
41
1
10
44.3751521062904
20
-2.89089047002096
30
0
41
1
10
44.1426031880624
20
-2.9110990855188
30
0
41
1
10
43.7922288206926
20
-2.93097798421005
30
0
41
1
10
43.6752370396166
20
-2.93581567945222
30
0
41
1
10
43.4422118912759
20
-2.94188031311191
30
0
41
1
10
43.3260168859711
20
-2.94315945061035
30
0
41
1
10
42.9776274199921
20
-2.94351466020351
30
0
41
1
10
42.7456521820791
20
-2.93856761789388
30
0
41
1
10
42.2826778249195
20
-2.91608041569947
30
0
41
1
10
42.0517403992776
20
-2.89806935893668
30
0
41
1
10
41.3600670514987
20
-2.82617205337414
30
0
41
1
10
40.8986501771083
20
-2.75742219154736
30
0
41
1
10
40.2057612694311
20
-2.61413318968977
30
0
41
1
10
39.9744815144996
20
-2.56097337727073
30
0
41
1
10
39.5102817946252
20
-2.44526679523503
30
0
41
1
10
39.2775062849561
20
-2.38230896672294
30
0
41
1
10
38.8103921159803
20
-2.24395907767078
30
0
41
1
10
38.5767241482616
20
-2.16910265142465
30
0
41
1
10
38.1110916894897
20
-2.01351706861129
30
0
41
1
10
37.8788268020479
20
-1.93198121351719
30
0
41
1
10
37.4156339562291
20
-1.76017613427632
30
0
41
1
10
37.1849023471729
20
-1.6694106788967
30
0
41
1
10
36.7230986498718
20
-1.48354979820334
30
0
41
1
10
36.4921769987107
20
-1.38802368676193
30
0
41
1
10
36.0304057539584
20
-1.19075213294795
30
0
41
1
10
35.7997254162293
20
-1.08836256777403
30
0
41
1
10
35.3374693733201
20
-0.880337024256875
30
0
41
1
10
35.1057996226634
20
-0.774988012733417
30
0
41
1
10
34.6413257045099
20
-0.560203567751614
30
0
41
1
10
34.4085800379788
20
-0.45066045581018
30
0
41
1
10
33.9415116649903
20
-0.228651397984777
30
0
41
1
10
33.7072064900196
20
-0.117435196723648
30
0
41
1
10
33.2411749764022
20
0.103797065820089
30
0
41
1
10
33.0089335536149
20
0.214093818792833
30
0
41
1
10
32.5459973821596
20
0.433914275762845
30
0
41
1
10
32.3148519366851
20
0.542654731331595
30
0
41
1
10
31.8526429794254
20
0.756708483888843
30
0
41
1
10
31.6216789899605
20
0.862161753695148
30
0
41
1
10
31.1601809083109
20
1.06980767397175
30
0
41
1
10
30.9294852197222
20
1.17172455287371
30
0
41
1
10
30.466910558416
20
1.37006099536944
30
0
41
1
10
30.2352282462176
20
1.46659747228898
30
0
41
1
10
29.7709530832641
20
1.65348469060268
30
0
41
1
10
29.5384436156435
20
1.74397195061863
30
0
41
1
10
29.07128260962
20
1.91773061355025
30
0
41
1
10
28.8367375613395
20
2.00106577281002
30
0
41
1
10
28.3708316099715
20
2.1574556347924
30
0
41
1
10
28.1391731392563
20
2.23040595661803
30
0
41
1
10
27.6760089481596
20
2.3672582701256
30
0
41
1
10
27.4446315770891
20
2.43109926603427
30
0
41
1
10
26.9826099773515
20
2.54775774583158
30
0
41
1
10
26.7521464136115
20
2.60011508490186
30
0
41
1
10
26.2910009852948
20
2.69441144197847
30
0
41
1
10
26.0601215956201
20
2.73645531423239
30
0
41
1
10
25.5978706747408
20
2.80893616050136
30
0
41
1
10
25.3665424380832
20
2.83902432534515
30
0
41
1
10
24.903071643049
20
2.88662965113073
30
0
41
1
10
24.6705903637466
20
2.90489167904647
30
0
41
1
10
24.2373025180853
20
2.92796085921174
30
0
41
1
10
24.0364313393816
20
2.93386548957531
30
0
41
1
10
23.8365162933386
20
2.93458135932744
30
0
0
SPLINE
5
BA
100
AcDbEntity
8
1
62
256
6
ByLayer
370
18
48
1
60
0
100
AcDbSpline
70
4
71
3
72
12
73
8
40
0
40
0
40
0
40
0
40
0.11581533563387
40
0.11581533563387
40
0.557907667816938
40
0.557907667816938
40
1
40
1
40
1
40
1
41
1
10
8.60140338013298
20
-2.26426993555773
30
0
41
1
10
8.54023189480944
20
-2.2826371681293
30
0
41
1
10
8.47907776752118
20
-2.30067585108733
30
0
41
1
10
8.18453022799855
20
-2.38598985204612
30
0
41
1
10
7.95096754129906
20
-2.44855510446109
30
0
41
1
10
7.48345516540021
20
-2.56278692573812
30
0
41
1
10
7.24949225382238
20
-2.61407566939718
30
0
41
1
10
7.01531878887599
20
-2.65987105684712
30
0
0
SPLINE
5
BB
100
AcDbEntity
8
1
62
256
6
ByLayer
370
18
48
1
60
0
100
AcDbSpline
70
4
71
3
72
16
73
12
40
0
40
0
40
0
40
0
40
0.250000000000004
40
0.250000000000004
40
0.375000000000006
40
0.375000000000006
40
0.500000000000009
40
0.500000000000009
40
0.750000000000004
40
0.750000000000004
40
1
40
1
40
1
40
1
41
1
10
51.5362828163777
20
0.625768755681918
30
0
41
1
10
51.6348203145538
20
0.393615144067866
30
0
41
1
10
51.7586921836595
20
0.171871131027558
30
0
41
1
10
51.9722355817254
20
-0.149348655139562
30
0
41
1
10
52.0480203922323
20
-0.254165931106314
30
0
41
1
10
52.2040836476459
20
-0.455407735062892
30
0
41
1
10
52.2848371470234
20
-0.552552042765967
30
0
41
1
10
52.5341208138449
20
-0.835014407740317
30
0
41
1
10
52.7100580726086
20
-1.01186300819177
30
0
41
1
10
53.0753183154675
20
-1.34421147635649
30
0
41
1
10
53.2625387817616
20
-1.4979104072755
30
0
41
1
10
53.4536902223181
20
-1.64092602417387
30
0
0
SPLINE
5
BC
100
AcDbEntity
8
1
62
256
6
ByLayer
370
18
48
1
60
0
100
AcDbSpline
70
4
71
3
72
30
73
26
40
0
40
0
40
0
40
0
40
0.250000000000022
40
0.250000000000022
40
0.375000000000028
40
0.375000000000028
40
0.500000000000035
40
0.500000000000035
40
0.625000000000041
40
0.625000000000041
40
0.68750000000004
40
0.68750000000004
40
0.718750000000039
40
0.718750000000039
40
0.750000000000038
40
0.750000000000038
40
0.812500000000029
40
0.812500000000029
40
0.875000000000019
40
0.875000000000019
40
0.906250000000014
40
0.906250000000014
40
0.93750000000001
40
0.93750000000001
40
1
40
1
40
1
40
1
41
1
10
51.5362828163778
20
0.625768755682088
30
0
41
1
10
51.7505473024834
20
0.514081224175868
30
0
41
1
10
51.9646584978342
20
0.413025663344143
30
0
41
1
10
52.2854288236955
20
0.288940570616433
30
0
41
1
10
52.392287714249
20
0.252056041915125
30
0
41
1
10
52.6058530322374
20
0.18886155181886
30
0
41
1
10
52.7129666964613
20
0.162461387307275
30
0
41
1
10
52.9250704938471
20
0.1225076418919
30
0
41
1
10
53.0295091910897
20
0.109010360881314
30
0
41
1
10
53.1835153194846
20
0.0994161421700142
30
0
41
1
10
53.2344083128292
20
0.0979949458204601
30
0
41
1
10
53.3100466497389
20
0.098679405800624
30
0
41
1
10
53.3352467195898
20
0.0991351349127285
30
0
41
1
10
53.384445467289
20
0.103307260352466
30
0
41
1
10
53.4085528908151
20
0.106853434576834
30
0
41
1
10
53.4777933582308
20
0.122791335866197
30
0
41
1
10
53.5201050372663
20
0.140553149570024
30
0
41
1
10
53.59319776994
20
0.197458095926947
30
0
41
1
10
53.6226258958686
20
0.235640218513339
30
0
41
1
10
53.6514401359185
20
0.307243187215619
30
0
41
1
10
53.6582637711747
20
0.332939987232322
30
0
41
1
10
53.6663687402977
20
0.387978772435503
30
0
41
1
10
53.6675996818515
20
0.417690841794155
30
0
41
1
10
53.6627934877175
20
0.509026407339007
30
0
41
1
10
53.648938519978
20
0.573693059619671
30
0
41
1
10
53.6295347887568
20
0.637431360417253
30
0
0
SPLINE
5
BD
100
AcDbEntity
8
1
62
256
6
ByLayer
370
18
48
1
60
0
100
AcDbSpline
70
4
71
3
72
8
73
4
40
0
40
0
40
0
40
0
40
1
40
1
40
1
40
1
41
1
10
53.9348538055243
20
-3.07297789597567
30
0
41
1
10
53.9411744342141
20
-3.05595287586954
30
0
41
1
10
53.9474897215007
20
-3.03892270217054
30
0
41
1
10
53.9537994944871
20
-3.02188785868046
30
0
0
SPLINE
5
BE
100
AcDbEntity
8
1
62
256
6
ByLayer
370
18
48
1
60
0
100
AcDbSpline
70
4
71
3
72
12
73
8
40
0
40
0
40
0
40
0
40
0.585718478618381
40
0.585718478618381
40
0.878577717927575
40
0.878577717927575
40
1
40
1
40
1
40
1
41
1
10
7.01528269372079
20
2.65989375672589
30
0
41
1
10
6.54721144159663
20
2.75072003334728
30
0
41
1
10
6.08309791859588
20
2.8250285959378
30
0
41
1
10
5.39088395564812
20
2.8949350859516
30
0
41
1
10
5.1607580754079
20
2.91149499668808
30
0
41
1
10
4.83633745671239
20
2.92290535383702
30
0
41
1
10
4.74169375718742
20
2.92477941057155
30
0
41
1
10
4.64753938106241
20
2.92505700557569
30
0
0
SPLINE
5
BF
100
AcDbEntity
8
1
62
256
6
ByLayer
370
13
48
1
60
0
100
AcDbSpline
70
4
71
3
72
8
73
4
40
0
40
0
40
0
40
0
40
1
40
1
40
1
40
1
41
1
10
4.25042455576769
20
0.281777459104802
30
0
41
1
10
4.21197428655606
20
0.292641172109086
30
0
41
1
10
4.17444547687228
20
0.303928252813336
30
0
41
1
10
4.13964014705402
20
0.315376312824725
30
0
0
SPLINE
5
C0
100
AcDbEntity
8
1
62
256
6
ByLayer
370
18
48
1
60
0
100
AcDbSpline
70
4
71
3
72
16
73
12
40
0
40
0
40
0
40
0
40
0.29214108523562
40
0.29214108523562
40
0.58428217047124
40
0.58428217047124
40
0.730352713089052
40
0.730352713089052
40
0.876423255706863
40
0.876423255706863
40
1
40
1
40
1
40
1
41
1
10
4.20630453236745
20
0.201733624599768
30
0
41
1
10
4.72829501672885
20
-0.0530614616966147
30
0
41
1
10
5.24648360686879
20
-0.307735079480807
30
0
41
1
10
6.28112063435998
20
-0.805234261901802
30
0
41
1
10
6.79758054614615
20
-1.04803541031049
30
0
41
1
10
7.57589410056931
20
-1.39328987743258
30
0
41
1
10
7.83591249779008
20
-1.50526564178693
30
0
41
1
10
8.35788036336004
20
-1.72148374879981
30
0
41
1
10
8.61941443874204
20
-1.82547533817845
30
0
41
1
10
9.0992578335173
20
-2.00675603120578
30
0
41
1
10
9.31851258608327
20
-2.08594090573379
30
0
41
1
10
9.53734930892949
20
-2.1609328290424
30
0
0
SPLINE
5
C1
100
AcDbEntity
8
1
62
256
6
ByLayer
370
13
48
1
60
0
100
AcDbSpline
70
4
71
3
72
16
73
12
40
0
40
0
40
0
40
0
40
0.142944545611455
40
0.142944545611455
40
0.390683566057871
40
0.390683566057871
40
0.514553076281079
40
0.514553076281079
40
0.638422586504287
40
0.638422586504287
40
1
40
1
40
1
40
1
41
1
10
9.53734909499855
20
-2.16093275573161
30
0
41
1
10
9.83585248275008
20
-2.26322520307917
30
0
41
1
10
10.1335780751179
20
-2.35771615384527
30
0
41
1
10
10.9467986441033
20
-2.59257669373554
30
0
41
1
10
11.4619522140364
20
-2.7158047780045
30
0
41
1
10
12.2384646354365
20
-2.85690393890766
30
0
41
1
10
12.4979377233911
20
-2.89665211406262
30
0
41
1
10
13.0189300289054
20
-2.96077602215379
30
0
41
1
10
13.2808495283683
20
-2.98513584895301
30
0
41
1
10
14.3006455859251
20
-3.04854413507033
30
0
41
1
10
15.0518202490763
20
-3.02676759151689
30
0
41
1
10
15.8043761163059
20
-2.93944030008149
30
0
0
SPLINE
5
C2
100
AcDbEntity
8
1
62
256
6
ByLayer
370
18
48
1
60
0
100
AcDbSpline
70
4
71
3
72
24
73
20
40
0
40
0
40
0
40
0
40
0.0214687506077971
40
0.0214687506077971
40
0.106366490969984
40
0.106366490969984
40
0.276161971694357
40
0.276161971694357
40
0.445957452418729
40
0.445957452418729
40
0.530855192780916
40
0.530855192780916
40
0.615752933143102
40
0.615752933143102
40
0.785548413867475
40
0.785548413867475
40
0.955343894591848
40
0.955343894591848
40
1
40
1
40
1
40
1
41
1
10
38.9962900692982
20
1.99663950607021
30
0
41
1
10
39.0621148593417
20
1.97223946047879
30
0
41
1
10
39.1278706075312
20
1.94752382255638
30
0
41
1
10
39.4531275581246
20
1.82361301488243
30
0
41
1
10
39.7117830657295
20
1.71985307510968
30
0
41
1
10
40.4861322818409
20
1.39632970460778
30
0
41
1
10
41.0005973600105
20
1.16502078621536
30
0
41
1
10
42.0312540552534
20
0.681257538073339
30
0
41
1
10
42.5476966228895
20
0.429301493803109
30
0
41
1
10
43.3284786714497
20
0.0449106601190863
30
0
41
1
10
43.5900158557898
20
-0.0843096323219186
30
0
41
1
10
44.1096467513248
20
-0.339748346249735
30
0
41
1
10
44.3685594665298
20
-0.466323934881245
30
0
41
1
10
45.1435275936039
20
-0.840817571309088
30
0
41
1
10
45.6578109944691
20
-1.08350911745066
30
0
41
1
10
46.6878517959449
20
-1.54262986354834
30
0
41
1
10
47.2039138467224
20
-1.75849409292314
30
0
41
1
10
47.8606284857238
20
-2.0070316173761
30
0
41
1
10
47.9978208106017
20
-2.0575104845808
30
0
41
1
10
48.1350131916484
20
-2.10644706650857
30
0
0
SPLINE
5
C3
100
AcDbEntity
8
1
62
256
6
ByLayer
370
13
48
1
60
0
100
AcDbSpline
70
4
71
3
72
16
73
12
40
0
40
0
40
0
40
0
40
0.063420012029297
40
0.063420012029297
40
0.197217153167969
40
0.197217153167969
40
0.464811435445313
40
0.464811435445313
40
0.732405717722656
40
0.732405717722656
40
1
40
1
40
1
40
1
41
1
10
48.1350131914119
20
-2.10644706642415
30
0
41
1
10
48.2586434468859
20
-2.15054603226912
30
0
41
1
10
48.3822737479726
20
-2.19339256581569
30
0
41
1
10
48.7657211575918
20
-2.32212966182485
30
0
41
1
10
49.0249693831566
20
-2.40324114511017
30
0
41
1
10
49.8012558390834
20
-2.6265197948253
30
0
41
1
10
50.3167187275319
20
-2.74877354922626
30
0
41
1
10
51.3499786502028
20
-2.93389476366761
30
0
41
1
10
51.8679097283546
20
-2.99676961857634
30
0
41
1
10
52.9122326184463
20
-3.05830595603709
30
0
41
1
10
53.4325577084185
20
-3.05647781541541
30
0
41
1
10
53.9537994944726
20
-3.0218878586748
30
0
0
SPLINE
5
C4
100
AcDbEntity
8
1
62
256
6
ByLayer
370
18
48
1
60
0
100
AcDbSpline
70
4
71
3
72
18
73
14
40
0
40
0
40
0
40
0
40
0.125000000000004
40
0.125000000000004
40
0.250000000000009
40
0.250000000000009
40
0.500000000000009
40
0.500000000000009
40
0.750000000000009
40
0.750000000000009
40
0.875000000000004
40
0.875000000000004
40
1
40
1
40
1
40
1
41
1
10
54.5633250257287
20
1.55422365065678
30
0
41
1
10
54.5404115077716
20
1.61631374458568
30
0
41
1
10
54.5173609008853
20
1.67834343548054
30
0
41
1
10
54.4711692181236
20
1.80236295554369
30
0
41
1
10
54.4480519138232
20
1.86432436650819
30
0
41
1
10
54.3785731966331
20
2.04958357027368
30
0
41
1
10
54.332069460736
20
2.17227365307804
30
0
41
1
10
54.2384660979191
20
2.41501946269304
30
0
41
1
10
54.1915690360949
20
2.53597070320171
30
0
41
1
10
54.1207502883221
20
2.71530580765642
30
0
41
1
10
54.0970427946321
20
2.77463658746129
30
0
41
1
10
54.0494396807238
20
2.89246646438457
30
0
41
1
10
54.02560128011
20
2.95121852186332
30
0
41
1
10
54.0016836433755
20
3.00962028685277
30
0
0
SPLINE
5
C5
100
AcDbEntity
8
1
62
256
6
ByLayer
370
18
48
1
60
0
100
AcDbSpline
70
4
71
3
72
12
73
8
40
0
40
0
40
0
40
0
40
0.25
40
0.25
40
0.5
40
0.5
40
1
40
1
40
1
40
1
41
1
10
4.25178973105545
20
-2.91632994744162
30
0
41
1
10
4.47473212830437
20
-2.92711225881493
30
0
41
1
10
4.70055738764759
20
-2.92761195467267
30
0
41
1
10
5.15671741788626
20
-2.91170526231832
30
0
41
1
10
5.38742651719238
20
-2.89523989752544
30
0
41
1
10
6.08322692437349
20
-2.82510363035502
30
0
41
1
10
6.54795389747156
20
-2.75057596446376
30
0
41
1
10
7.01528269372102
20
-2.65989375672578
30
0
0
SPLINE
5
C6
100
AcDbEntity
8
1
62
256
6
ByLayer
370
18
48
1
60
0
100
AcDbSpline
70
4
71
3
72
8
73
4
40
0
40
0
40
0
40
0
40
1
40
1
40
1
40
1
41
1
10
4.06278898864298
20
0.296546582839795
30
0
41
1
10
4.03754992422648
20
0.324935201021475
30
0
41
1
10
4.02150315341507
20
0.360739308576228
30
0
41
1
10
4.02151290832185
20
0.398644583502687
30
0
0
SPLINE
5
C7
100
AcDbEntity
8
1
62
256
6
ByLayer
370
18
48
1
60
0
100
AcDbSpline
70
4
71
3
72
8
73
4
40
0
40
0
40
0
40
0
40
1
40
1
40
1
40
1
41
1
10
4.06278898864213
20
0.296546582840847
30
0
41
1
10
4.08372548026506
20
0.271907356819867
30
0
41
1
10
4.10945242399222
20
0.250936742070905
30
0
41
1
10
4.13964014705402
20
0.235462151310458
30
0
0
SPLINE
5
C8
100
AcDbEntity
8
1
62
256
6
ByLayer
370
18
48
1
60
0
100
AcDbSpline
70
4
71
3
72
8
73
4
40
0
40
0
40
0
40
0
40
1
40
1
40
1
40
1
41
1
10
4.02218871749596
20
-3.07000951074599
30
0
41
1
10
4.0221925390951
20
-3.06997299688857
30
0
41
1
10
4.02219563421644
20
-3.06649093029398
30
0
41
1
10
4.02219789025187
20
-3.05963952524959
30
0
0
SPLINE
5
C9
100
AcDbEntity
8
1
62
256
6
ByLayer
370
18
48
1
60
0
100
AcDbSpline
70
4
71
3
72
18
73
14
40
0
40
0
40
0
40
0
40
0.125000000000005
40
0.125000000000005
40
0.250000000000009
40
0.250000000000009
40
0.50000000000001
40
0.50000000000001
40
0.75000000000001
40
0.75000000000001
40
0.875000000000005
40
0.875000000000005
40
1
40
1
40
1
40
1
41
1
10
54.5633250257287
20
-1.55422365065678
30
0
41
1
10
54.5404115077716
20
-1.61631374458568
30
0
41
1
10
54.5173609008852
20
-1.67834343548054
30
0
41
1
10
54.4711692181236
20
-1.80236295554369
30
0
41
1
10
54.4480519138231
20
-1.86432436650819
30
0
41
1
10
54.378573196633
20
-2.04958357027371
30
0
41
1
10
54.332069460736
20
-2.17227365307807
30
0
41
1
10
54.2384660979192
20
-2.41501946269304
30
0
41
1
10
54.1915690360949
20
-2.53597070320171
30
0
41
1
10
54.1207502883221
20
-2.71530580765642
30
0
41
1
10
54.0970427946321
20
-2.77463658746129
30
0
41
1
10
54.0494396807238
20
-2.89246646438454
30
0
41
1
10
54.02560128011
20
-2.95121852186332
30
0
41
1
10
54.0016836433755
20
-3.00962028685277
30
0
0
SPLINE
5
CA
100
AcDbEntity
8
1
62
256
6
ByLayer
370
18
48
1
60
0
100
AcDbSpline
70
4
71
3
72
10
73
6
40
0
40
0
40
0
40
0
40
0.953290819784421
40
0.953290819784421
40
1
40
1
40
1
40
1
41
1
10
53.9348538055239
20
3.07297789599261
30
0
41
1
10
53.6744167137117
20
3.09008660707201
30
0
41
1
10
53.4140831677444
20
3.09890356071429
30
0
41
1
10
53.1407375509683
20
3.09947341044028
30
0
41
1
10
53.1279686148226
20
3.0994801220034
30
0
41
1
10
53.1151985472392
20
3.0994669314467
30
0
0
SPLINE
5
CB
100
AcDbEntity
8
1
62
256
6
ByLayer
370
18
48
1
60
0
100
AcDbSpline
70
4
71
3
72
44
73
40
40
0
40
0
40
0
40
0
40
0.0169769048614649
40
0.0169769048614649
40
0.0534866187400073
40
0.0534866187400073
40
0.0899963326185496
40
0.0899963326185496
40
0.163015760375633
40
0.163015760375633
40
0.236035188132716
40
0.236035188132716
40
0.272544902011258
40
0.272544902011258
40
0.3090546158898
40
0.3090546158898
40
0.455093471403971
40
0.455093471403971
40
0.491603185282514
40
0.491603185282514
40
0.528112899161057
40
0.528112899161057
40
0.601132326918143
40
0.601132326918143
40
0.674151754675229
40
0.674151754675229
40
0.710661468553772
40
0.710661468553772
40
0.747171182432316
40
0.747171182432316
40
0.89321003794649
40
0.89321003794649
40
0.929719751825033
40
0.929719751825033
40
0.947974608764305
40
0.947974608764305
40
0.966229465703577
40
0.966229465703577
40
1
40
1
40
1
40
1
41
1
10
35.6122674646523
20
-2.94497811405128
30
0
41
1
10
35.4919272076492
20
-2.96307503803644
30
0
41
1
10
35.3714455947147
20
-2.97951474650134
30
0
41
1
10
34.9912932635695
20
-3.02596637129051
30
0
41
1
10
34.7306053059239
20
-3.04986142068719
30
0
41
1
10
34.2081617661235
20
-3.0811978764541
30
0
41
1
10
33.9481548406923
20
-3.08857158046834
30
0
41
1
10
33.1705173394924
20
-3.0861807329245
30
0
41
1
10
32.6550328683575
20
-3.05194059448544
30
0
41
1
10
31.6241906727149
20
-2.92088320118256
30
0
41
1
10
31.1085774888205
20
-2.82417278522894
30
0
41
1
10
30.3303266059164
20
-2.63501045635382
30
0
41
1
10
30.0700629609308
20
-2.5646013353566
30
0
41
1
10
29.5471785149657
20
-2.40975960121412
30
0
41
1
10
29.2869746465233
20
-2.32600583730056
30
0
41
1
10
27.9899682787479
20
-1.87912347870977
30
0
41
1
10
26.9651542440633
20
-1.43149734579012
30
0
41
1
10
25.6685348601153
20
-0.814414020689526
30
0
41
1
10
25.408377661162
20
-0.688246410214447
30
0
41
1
10
24.8857216229027
20
-0.431620465068363
30
0
41
1
10
24.6250060115052
20
-0.302093748613658
30
0
41
1
10
23.8463019839804
20
0.0860826411122275
30
0
41
1
10
23.330396656004
20
0.344673717142825
30
0
41
1
10
22.2992120917231
20
0.849668807040729
30
0
41
1
10
21.7836421169791
20
1.09548572264987
30
0
41
1
10
21.0059095804258
20
1.44538867991733
30
0
41
1
10
20.7459003568989
20
1.55881730273589
30
0
41
1
10
20.2235153995718
20
1.77761971701889
30
0
41
1
10
19.9623137029434
20
1.88253676472232
30
0
41
1
10
18.6634196948957
20
2.37769465220259
30
0
41
1
10
17.6383775235777
20
2.68374954862162
30
0
41
1
10
16.342358263275
20
2.91624803468804
30
0
41
1
10
16.0824735714286
20
2.95531939587357
30
0
41
1
10
15.6909376370462
20
3.00209759697893
30
0
41
1
10
15.560003360705
20
3.01572295234823
30
0
41
1
10
15.2990272827816
20
3.03881622481916
30
0
41
1
10
15.1688130905366
20
3.0483087776002
30
0
41
1
10
14.7983524674824
20
3.06953889805652
30
0
41
1
10
14.5586756348391
20
3.0763174617172
30
0
41
1
10
14.3194568632351
20
3.07617718953253
30
0
0
SPLINE
5
CC
100
AcDbEntity
8
1
62
256
6
ByLayer
370
18
48
1
60
0
100
AcDbSpline
70
4
71
3
72
18
73
14
40
0
40
0
40
0
40
0
40
0.25
40
0.25
40
0.5
40
0.5
40
0.625
40
0.625
40
0.75
40
0.75
40
0.875
40
0.875
40
1
40
1
40
1
40
1
41
1
10
53.7518177911216
20
0.961188301039158
30
0
41
1
10
53.8403742972712
20
0.982030234123187
30
0
41
1
10
53.9279991637998
20
1.00553394639596
30
0
41
1
10
54.1001095886794
20
1.06180521678718
30
0
41
1
10
54.1851601157646
20
1.09448418495776
30
0
41
1
10
54.306330678442
20
1.15747098706001
30
0
41
1
10
54.345401511537
20
1.18072825838809
30
0
41
1
10
54.41902343263
20
1.23443331992993
30
0
41
1
10
54.4528674448288
20
1.26430448314164
30
0
41
1
10
54.510952484393
20
1.33400938414587
30
0
41
1
10
54.5346450194617
20
1.37381835633215
30
0
41
1
10
54.5632699462455
20
1.46148799922051
30
0
41
1
10
54.5676229934733
20
1.50806389256357
30
0
41
1
10
54.5633250257286
20
1.55422365065675
30
0
0
SPLINE
5
CD
100
AcDbEntity
8
1
62
256
6
ByLayer
370
18
48
1
60
0
100
AcDbSpline
70
4
71
3
72
10
73
6
40
0
40
0
40
0
40
0
40
0.85001318492374
40
0.85001318492374
40
1
40
1
40
1
40
1
41
1
10
12.1459751901072
20
-2.97988310662308
30
0
41
1
10
12.5853166924871
20
-3.03471696765465
30
0
41
1
10
13.0239642140011
20
-3.06532745211271
30
0
41
1
10
13.5364459410457
20
-3.07505253931552
30
0
41
1
10
13.6132350089431
20
-3.07578622836459
30
0
41
1
10
13.6899975051707
20
-3.07580194876954
30
0
0
SPLINE
5
CE
100
AcDbEntity
8
1
62
256
6
ByLayer
370
18
48
1
60
0
100
AcDbSpline
70
4
71
3
72
80
73
76
40
0
40
0
40
0
40
0
40
0.0097645934539725
40
0.0097645934539725
40
0.0367384002877803
40
0.0367384002877803
40
0.063712207121588
40
0.063712207121588
40
0.0906860139553957
40
0.0906860139553957
40
0.144633627623012
40
0.144633627623012
40
0.17160743445682
40
0.17160743445682
40
0.198581241290628
40
0.198581241290628
40
0.225555048124436
40
0.225555048124436
40
0.252528854958243
40
0.252528854958243
40
0.266015758375147
40
0.266015758375147
40
0.27950266179205
40
0.27950266179205
40
0.306476468625856
40
0.306476468625856
40
0.333450275459662
40
0.333450275459662
40
0.360424082293469
40
0.360424082293469
40
0.387397889127275
40
0.387397889127275
40
0.414371695961081
40
0.414371695961081
40
0.441345502794888
40
0.441345502794888
40
0.468319309628694
40
0.468319309628694
40
0.522266923296308
40
0.522266923296308
40
0.549240730130115
40
0.549240730130115
40
0.576214536963922
40
0.576214536963922
40
0.603188343797729
40
0.603188343797729
40
0.630162150631536
40
0.630162150631536
40
0.657135957465343
40
0.657135957465343
40
0.68410976429915
40
0.68410976429915
40
0.711083571132958
40
0.711083571132958
40
0.738057377966765
40
0.738057377966765
40
0.765031184800572
40
0.765031184800572
40
0.792004991634379
40
0.792004991634379
40
0.818978798468186
40
0.818978798468186
40
0.845952605301993
40
0.845952605301993
40
0.8729264121358
40
0.8729264121358
40
0.899900218969607
40
0.899900218969607
40
0.926874025803414
40
0.926874025803414
40
0.953847832637221
40
0.953847832637221
40
0.980821639471028
40
0.980821639471028
40
1
40
1
40
1
40
1
41
1
10
28.2725963261725
20
2.19117672296582
30
0
41
1
10
28.3512198437835
20
2.21872119974103
30
0
41
1
10
28.4298453333646
20
2.24577201228337
30
0
41
1
10
28.7256310964352
20
2.34574557697957
30
0
41
1
10
28.9424284153777
20
2.41582845398952
30
0
41
1
10
29.3782101247315
20
2.54539330514476
30
0
41
1
10
29.5968978255378
20
2.60533047571661
30
0
41
1
10
30.0353904962149
20
2.71601259393145
30
0
41
1
10
30.2555057359749
20
2.76707285598894
30
0
41
1
10
30.912628721483
20
2.9034091066444
30
0
41
1
10
31.3496652646033
20
2.97096482409378
30
0
41
1
10
32.0004609561402
20
3.04038971434443
30
0
41
1
10
32.2171869199402
20
3.05778794189658
30
0
41
1
10
32.6513228351527
20
3.08109359046452
30
0
41
1
10
32.8684886321383
20
3.08711043924239
30
0
41
1
10
33.3025272972907
20
3.08777929678868
30
0
41
1
10
33.519136544896
20
3.0823075349235
30
0
41
1
10
33.9544812919086
20
3.05998699944357
30
0
41
1
10
34.1728786911385
20
3.04319152760519
30
0
41
1
10
34.5012127196179
20
3.00936051247635
30
0
41
1
10
34.6107837113909
20
2.99663943792484
30
0
41
1
10
34.8301010741654
20
2.96818420077346
30
0
41
1
10
34.9399530947478
20
2.9523926039347
30
0
41
1
10
35.2690335715595
20
2.90107114469291
30
0
41
1
10
35.4881164049412
20
2.86175604897514
30
0
41
1
10
35.9250344348845
20
2.77286806452528
30
0
41
1
10
36.1428856355233
20
2.72329939692065
30
0
41
1
10
36.5769269074959
20
2.61331925452046
30
0
41
1
10
36.7937629405818
20
2.55354561108376
30
0
41
1
10
37.2279324768401
20
2.42571573945423
30
0
41
1
10
37.4450538514643
20
2.35743946741081
30
0
41
1
10
37.8788722861282
20
2.2114016846229
30
0
41
1
10
38.0953522645607
20
2.13324381160135
30
0
41
1
10
38.5303575331453
20
1.97088549736134
30
0
41
1
10
38.748516392177
20
1.88621262276516
30
0
41
1
10
39.1856873677182
20
1.70904818042538
30
0
41
1
10
39.4044068261939
20
1.61598620670449
30
0
41
1
10
40.0635029504772
20
1.32736913495762
30
0
41
1
10
40.5013396406279
20
1.12852314449506
30
0
41
1
10
41.1526938607935
20
0.815006614901051
30
0
41
1
10
41.3696445097005
20
0.709378578029288
30
0
41
1
10
41.8038561068873
20
0.497221665369921
30
0
41
1
10
42.0209375266123
20
0.390337123272417
30
0
41
1
10
42.4545449114464
20
0.173908576814654
30
0
41
1
10
42.6709056572421
20
0.0640112893958644
30
0
41
1
10
43.1055942684716
20
-0.153286862979343
30
0
41
1
10
43.3235354074667
20
-0.261471678045751
30
0
41
1
10
43.7601544825945
20
-0.477878339104734
30
0
41
1
10
43.9785172520732
20
-0.586773711109402
30
0
41
1
10
44.4172444269495
20
-0.802004296560852
30
0
41
1
10
44.6373433068541
20
-0.907371774278573
30
0
41
1
10
45.0750724730968
20
-1.11364260084847
30
0
41
1
10
45.2931719178492
20
-1.21480184026333
30
0
41
1
10
45.7276037053527
20
-1.41351348636527
30
0
41
1
10
45.9446623226921
20
-1.50968329209979
30
0
41
1
10
46.3789163537398
20
-1.69509290919802
30
0
41
1
10
46.5959619637023
20
-1.78461526833019
30
0
41
1
10
47.0293736432425
20
-1.9580767771555
30
0
41
1
10
47.2456327330236
20
-2.042121151972
30
0
41
1
10
47.6800105712295
20
-2.20055367095802
30
0
41
1
10
47.8977343763083
20
-2.275603561417
30
0
41
1
10
48.3337937476004
20
-2.41796742227808
30
0
41
1
10
48.5517930830312
20
-2.48568583944967
30
0
41
1
10
48.9898368716202
20
-2.61119838186894
30
0
41
1
10
49.2103132903323
20
-2.66880472818892
30
0
41
1
10
49.6485251950964
20
-2.77344210235228
30
0
41
1
10
49.8667851792414
20
-2.82066100150595
30
0
41
1
10
50.301495373022
20
-2.90482642488959
30
0
41
1
10
50.5186905717987
20
-2.94116648577582
30
0
41
1
10
50.953034149808
20
-3.00263800794403
30
0
41
1
10
51.170061272156
20
-3.0278663548911
30
0
41
1
10
51.6032994433589
20
-3.06739762641166
30
0
41
1
10
51.8194643022493
20
-3.08160512787708
30
0
41
1
10
52.1908179842322
20
-3.09588131668588
30
0
41
1
10
52.3453727050985
20
-3.09893695680989
30
0
41
1
10
52.5000847045224
20
-3.09910174283968
30
0
0
SPLINE
5
CF
100
AcDbEntity
8
1
62
256
6
ByLayer
370
18
48
1
60
0
100
AcDbSpline
70
4
71
3
72
68
73
64
40
0
40
0
40
0
40
0
40
0.0327492987514557
40
0.0327492987514557
40
0.0654985975029113
40
0.0654985975029113
40
0.098247896254367
40
0.098247896254367
40
0.130997195005823
40
0.130997195005823
40
0.163746493757278
40
0.163746493757278
40
0.196495792508734
40
0.196495792508734
40
0.22924509126019
40
0.22924509126019
40
0.261994390011645
40
0.261994390011645
40
0.294743688763101
40
0.294743688763101
40
0.327492987514557
40
0.327492987514557
40
0.360242286266012
40
0.360242286266012
40
0.392991585017468
40
0.392991585017468
40
0.425740883768924
40
0.425740883768924
40
0.458490182520379
40
0.458490182520379
40
0.491239481271835
40
0.491239481271835
40
0.507614130647563
40
0.507614130647563
40
0.523988780023291
40
0.523988780023291
40
0.556738078774746
40
0.556738078774746
40
0.5894873775262
40
0.5894873775262
40
0.622236676277655
40
0.622236676277655
40
0.65498597502911
40
0.65498597502911
40
0.687735273780565
40
0.687735273780565
40
0.72048457253202
40
0.72048457253202
40
0.753233871283475
40
0.753233871283475
40
0.78598317003493
40
0.78598317003493
40
0.851481767537838
40
0.851481767537838
40
0.884231066289293
40
0.884231066289293
40
0.916980365040747
40
0.916980365040747
40
0.949729663792201
40
0.949729663792201
40
0.982478962543656
40
0.982478962543656
40
1
40
1
40
1
40
1
41
1
10
7.01531878887567
20
2.65987105684724
30
0
41
1
10
7.24931484198629
20
2.61411036437764
30
0
41
1
10
7.48262364665803
20
2.56295852057954
30
0
41
1
10
7.94782848892106
20
2.44935340930937
30
0
41
1
10
8.17977170865828
20
2.38726923000692
30
0
41
1
10
8.64247741431194
20
2.25344411651434
30
0
41
1
10
8.87349922569001
20
2.18195102391269
30
0
41
1
10
9.33567071068052
20
2.02996168465762
30
0
41
1
10
9.56671052189444
20
1.94955434805965
30
0
41
1
10
10.0285939875682
20
1.78075582578305
30
0
41
1
10
10.2594705735301
20
1.69226211334626
30
0
41
1
10
10.7227017947104
20
1.50875358131128
30
0
41
1
10
10.9548705960307
20
1.41346729220399
30
0
41
1
10
11.4201450488771
20
1.21642201698785
30
0
41
1
10
11.6533855554621
20
1.11425305041277
30
0
41
1
10
12.1211708285531
20
0.906293597771111
30
0
41
1
10
12.3542632560162
20
0.800756734711484
30
0
41
1
10
12.8190157152259
20
0.586881356568824
30
0
41
1
10
13.05049020003
20
0.478127495321388
30
0
41
1
10
13.5130734074611
20
0.260195958583836
30
0
41
1
10
13.7442253239737
20
0.151102484739141
30
0
41
1
10
14.206175775204
20
-0.0675474780809964
30
0
41
1
10
14.436826293958
20
-0.177435147423324
30
0
41
1
10
14.8983921209111
20
-0.39630175342171
30
0
41
1
10
15.1296896723071
20
-0.504441571598136
30
0
41
1
10
15.5930322642283
20
-0.718804971707584
30
0
41
1
10
15.8250133760624
20
-0.825169885086808
30
0
41
1
10
16.2897971714085
20
-1.03582094066499
30
0
41
1
10
16.5237125705046
20
-1.13890558387376
30
0
41
1
10
16.9914284309478
20
-1.33919527472736
30
0
41
1
10
17.2244582436143
20
-1.4363123762231
30
0
41
1
10
17.5727649965222
20
-1.57843012411027
30
0
41
1
10
17.6886589219936
20
-1.62513587712135
30
0
41
1
10
17.9203402455598
20
-1.71585961844732
30
0
41
1
10
18.0361127927802
20
-1.75994716469842
30
0
41
1
10
18.3832182778703
20
-1.88918733941028
30
0
41
1
10
18.6143599054648
20
-1.97130694665722
30
0
41
1
10
19.0760081569554
20
-2.12876099489247
30
0
41
1
10
19.3064528594603
20
-2.20422087104754
30
0
41
1
10
19.7685329844545
20
-2.3421732915302
30
0
41
1
10
19.9998962946257
20
-2.40608882619569
30
0
41
1
10
20.4630564133612
20
-2.52526364341958
30
0
41
1
10
20.6946020149902
20
-2.58111953806974
30
0
41
1
10
21.1599716728051
20
-2.67934475150145
30
0
41
1
10
21.3940954349733
20
-2.72205226328916
30
0
41
1
10
21.8620088083228
20
-2.79690225587174
30
0
41
1
10
22.0948670715217
20
-2.82928532025886
30
0
41
1
10
22.5595306653299
20
-2.88163783623074
30
0
41
1
10
22.7913924121378
20
-2.90023923719483
30
0
41
1
10
23.2543044952755
20
-2.92577218441824
30
0
41
1
10
23.4852591734281
20
-2.93283486609491
30
0
41
1
10
24.1774225253671
20
-2.93747725606028
30
0
41
1
10
24.6396392659573
20
-2.91258736928538
30
0
41
1
10
25.3335459446286
20
-2.84290779503439
30
0
41
1
10
25.5654073464848
20
-2.81346466227342
30
0
41
1
10
26.0309398406333
20
-2.74152308172467
30
0
41
1
10
26.2646189658928
20
-2.69945064092849
30
0
41
1
10
26.7325194752102
20
-2.60445065674438
30
0
41
1
10
26.9654959214584
20
-2.55182299985484
30
0
41
1
10
27.4304312307193
20
-2.4349240975385
30
0
41
1
10
27.6623083822654
20
-2.3711154953557
30
0
41
1
10
28.0173898069881
20
-2.26648314281127
30
0
41
1
10
28.1409579201709
20
-2.22878468153956
30
0
41
1
10
28.2644675260193
20
-2.18977968120294
30
0
0
SPLINE
5
D0
100
AcDbEntity
8
1
62
256
6
ByLayer
370
18
48
1
60
0
100
AcDbSpline
70
4
71
3
72
30
73
26
40
0
40
0
40
0
40
0
40
0.0820329300678289
40
0.0820329300678289
40
0.165484481879845
40
0.165484481879845
40
0.24893603369186
40
0.24893603369186
40
0.332387585503876
40
0.332387585503876
40
0.415839137315891
40
0.415839137315891
40
0.499290689127906
40
0.499290689127906
40
0.582742240939922
40
0.582742240939922
40
0.666193792751937
40
0.666193792751937
40
0.749645344563953
40
0.749645344563953
40
0.833096896375969
40
0.833096896375969
40
0.916548448187984
40
0.916548448187984
40
1
40
1
40
1
40
1
41
1
10
43.2045094020418
20
2.94328251233381
30
0
41
1
10
43.4314107694679
20
2.94313316055741
30
0
41
1
10
43.6580854537178
20
2.93809462981591
30
0
41
1
10
44.1159851743387
20
2.91306205573378
30
0
41
1
10
44.3470811882379
20
2.89352898080296
30
0
41
1
10
44.8096354826413
20
2.84214182304677
30
0
41
1
10
45.0411150669467
20
2.81016190576085
30
0
41
1
10
45.5058635520489
20
2.73509993085156
30
0
41
1
10
45.7389343963217
20
2.69193866961234
30
0
41
1
10
46.2062409099835
20
2.59479650024542
30
0
41
1
10
46.4399069298294
20
2.5406847753045
30
0
41
1
10
46.9051757118592
20
2.42226481878208
30
0
41
1
10
47.1371468911935
20
2.3575855184873
30
0
41
1
10
47.5999295885545
20
2.21842973763702
30
0
41
1
10
47.8305678664523
20
2.14379401636083
30
0
41
1
10
48.2917933083185
20
1.98651058995424
30
0
41
1
10
48.5224348961977
20
1.90389391126001
30
0
41
1
10
48.9836724563432
20
1.73091621609541
30
0
41
1
10
49.2141650585908
20
1.6404793743807
30
0
41
1
10
49.6755753203789
20
1.45272342282553
30
0
41
1
10
49.9068544168226
20
1.35593858976273
30
0
41
1
10
50.3705788902444
20
1.15629898944789
30
0
41
1
10
50.6029549064166
20
1.05351434891889
30
0
41
1
10
51.0688182269079
20
0.84233152596093
30
0
41
1
10
51.3030188800404
20
0.734369782704505
30
0
41
1
10
51.5362828163779
20
0.62576875568206
30
0
0
SPLINE
5
D1
100
AcDbEntity
8
1
62
256
6
ByLayer
370
18
48
1
60
0
100
AcDbSpline
70
4
71
3
72
38
73
34
40
0
40
0
40
0
40
0
40
0.0769319530937254
40
0.0769319530937254
40
0.115397929640588
40
0.115397929640588
40
0.153863906187451
40
0.153863906187451
40
0.230795859281176
40
0.230795859281176
40
0.269261835828039
40
0.269261835828039
40
0.307727812374902
40
0.307727812374902
40
0.461591718562347
40
0.461591718562347
40
0.500057695109208
40
0.500057695109208
40
0.538523671656069
40
0.538523671656069
40
0.61545562474979
40
0.61545562474979
40
0.692387577843511
40
0.692387577843511
40
0.730853554390371
40
0.730853554390371
40
0.769319530937231
40
0.769319530937231
40
0.923183437124669
40
0.923183437124669
40
0.961649413671528
40
0.961649413671528
40
1
40
1
40
1
40
1
41
1
10
53.9348538055236
20
-3.07297789599264
30
0
41
1
10
53.4132374411415
20
-3.107244073711
30
0
41
1
10
52.8925523052112
20
-3.10825922764911
30
0
41
1
10
52.1087001048909
20
-3.06014817649637
30
0
41
1
10
51.8476866554209
20
-3.03583687086882
30
0
41
1
10
51.3279119486392
20
-2.97151499719814
30
0
41
1
10
51.0687492389051
20
-2.93149444913325
30
0
41
1
10
50.29247279258
20
-2.78870256724113
30
0
41
1
10
49.7763124649368
20
-2.66333241988596
30
0
41
1
10
48.9991479499483
20
-2.43481698902454
30
0
41
1
10
48.7396334289643
20
-2.35187640189295
30
0
41
1
10
48.2188405189809
20
-2.17333868512804
30
0
41
1
10
47.9568918445266
20
-2.07747742533232
30
0
41
1
10
46.6547125705605
20
-1.57460986192208
30
0
41
1
10
45.6296715016223
20
-1.09395933461096
30
0
41
1
10
44.3361319590836
20
-0.457972643483032
30
0
41
1
10
44.0768249193409
20
-0.329012232069289
30
0
41
1
10
43.5563497616594
20
-0.0688308478405304
30
0
41
1
10
43.2944025818382
20
0.0627496847260716
30
0
41
1
10
42.5128346499051
20
0.453729268639421
30
0
41
1
10
41.9958579622018
20
0.709822816902175
30
0
41
1
10
40.9639622262787
20
1.20121673666188
30
0
41
1
10
40.4487903111941
20
1.43603852186968
30
0
41
1
10
39.6730707117954
20
1.76415352740668
30
0
41
1
10
39.4138931852959
20
1.86930667238104
30
0
41
1
10
38.8935328326897
20
2.06973376083937
30
0
41
1
10
38.6315711166552
20
2.16534116203474
30
0
41
1
10
37.3281346757974
20
2.61139184409654
30
0
41
1
10
36.3021040440486
20
2.86441156287103
30
0
41
1
10
35.0090989835212
20
3.02412262920484
30
0
41
1
10
34.7499721610608
20
3.04825445034587
30
0
41
1
10
34.2305782254903
20
3.08026360034708
30
0
41
1
10
33.9695511887321
20
3.08818779274492
30
0
41
1
10
33.7094373716185
20
3.08782061671224
30
0
0
SPLINE
5
D2
100
AcDbEntity
8
1
62
256
6
ByLayer
370
18
48
1
60
0
100
AcDbSpline
70
4
71
3
72
24
73
20
40
0
40
0
40
0
40
0
40
0.10002554469584
40
0.10002554469584
40
0.228593324025006
40
0.228593324025006
40
0.485728882683339
40
0.485728882683339
40
0.550012772347922
40
0.550012772347922
40
0.614296662012506
40
0.614296662012506
40
0.742864441341671
40
0.742864441341671
40
0.871432220670835
40
0.871432220670835
40
0.935716110335417
40
0.935716110335417
40
1
40
1
40
1
40
1
41
1
10
16.2589358367474
20
-2.92677198067491
30
0
41
1
10
15.8559912157415
20
-2.98857571556584
30
0
41
1
10
15.4516408046126
20
-3.03192170718265
30
0
41
1
10
14.5206638894872
20
-3.08567980735674
30
0
41
1
10
14.0020426419012
20
-3.08264850702864
30
0
41
1
10
12.4507272788406
20
-2.97769006662574
30
0
41
1
10
11.4233179039994
20
-2.77925902175986
30
0
41
1
10
10.1151148238482
20
-2.39052055838022
30
0
41
1
10
9.8539892619859
20
-2.30626163877039
30
0
41
1
10
9.33408346177339
20
-2.12684523073733
30
0
41
1
10
9.07495646403706
20
-2.03158099805418
30
0
41
1
10
8.29893443196391
20
-1.73105233548463
30
0
41
1
10
7.78344417147198
20
-1.51094366308524
30
0
41
1
10
6.74952490537851
20
-1.04294988055838
30
0
41
1
10
6.23126658283306
20
-0.79473906942502
30
0
41
1
10
5.44678142085925
20
-0.410648555529946
30
0
41
1
10
5.18478661494814
20
-0.280991204846231
30
0
41
1
10
4.66176350981993
20
-0.0213673775809013
30
0
41
1
10
4.40032030679956
20
0.108798047512266
30
0
41
1
10
4.13861031500403
20
0.238642033524315
30
0
0
SPLINE
5
D3
100
AcDbEntity
8
1
62
256
6
ByLayer
370
18
48
1
60
0
100
AcDbSpline
70
4
71
3
72
8
73
4
40
0
40
0
40
0
40
0
40
1
40
1
40
1
40
1
41
1
10
4.13861031500372
20
0.238642033524485
30
0
41
1
10
4.10966882265885
20
0.253000976037185
30
0
41
1
10
4.08406373375934
20
0.272616986795384
30
0
41
1
10
4.06278898864218
20
0.296546582840733
30
0
0
SPLINE
5
D4
100
AcDbEntity
8
1
62
256
6
ByLayer
370
18
48
1
60
0
100
AcDbSpline
70
4
71
3
72
14
73
10
40
0
40
0
40
0
40
0
40
0.25
40
0.25
40
0.5
40
0.5
40
0.75
40
0.75
40
1
40
1
40
1
40
1
41
1
10
4.25178973050754
20
2.91632994741516
30
0
41
1
10
4.23017537010622
20
2.91528459773187
30
0
41
1
10
4.20815126507921
20
2.91697270150627
30
0
41
1
10
4.16304690039104
20
2.92742407601733
30
0
41
1
10
4.14068757419966
20
2.93608970163501
30
0
41
1
10
4.09796566438135
20
2.96146566054091
30
0
41
1
10
4.07865985909336
20
2.97757165288687
30
0
41
1
10
4.04538577562323
20
3.01580372206206
30
0
41
1
10
4.03206751529586
20
3.03723918004297
30
0
41
1
10
4.02219789024602
20
3.05963952526292
30
0
0
SPLINE
5
D5
100
AcDbEntity
8
1
62
256
6
ByLayer
370
18
48
1
60
0
100
AcDbSpline
70
4
71
3
72
14
73
10
40
0
40
0
40
0
40
0
40
0.25
40
0.25
40
0.5
40
0.5
40
0.75
40
0.75
40
1
40
1
40
1
40
1
41
1
10
4.0221978902519
20
-3.05963952524959
30
0
41
1
10
4.03200517613507
20
-3.03738066654822
30
0
41
1
10
4.0454897127737
20
-3.01572734737758
30
0
41
1
10
4.07819963679495
20
-2.97805786686593
30
0
41
1
10
4.09792828706935
20
-2.96153635123778
30
0
41
1
10
4.1400530997422
20
-2.93641884430303
30
0
41
1
10
4.16279666475583
20
-2.92751925258472
30
0
41
1
10
4.20768597460761
20
-2.91704391137051
30
0
41
1
10
4.23015661199585
20
-2.91528369052088
30
0
41
1
10
4.25178973050748
20
-2.91632994741511
30
0
0
SPLINE
5
D6
100
AcDbEntity
8
1
62
256
6
ByLayer
370
18
48
1
60
0
100
AcDbSpline
70
4
71
3
72
62
73
58
40
0
40
0
40
0
40
0
40
0.0625000000000028
40
0.0625000000000028
40
0.125000000000005
40
0.125000000000005
40
0.250000000000011
40
0.250000000000011
40
0.375000000000016
40
0.375000000000016
40
0.500000000000022
40
0.500000000000022
40
0.562500000000024
40
0.562500000000024
40
0.625000000000026
40
0.625000000000026
40
0.656250000000027
40
0.656250000000027
40
0.664062500000028
40
0.664062500000028
40
0.667968750000029
40
0.667968750000029
40
0.669921875000028
40
0.669921875000028
40
0.671875000000028
40
0.671875000000028
40
0.687500000000028
40
0.687500000000028
40
0.718750000000026
40
0.718750000000026
40
0.734375000000025
40
0.734375000000025
40
0.750000000000023
40
0.750000000000023
40
0.757812500000023
40
0.757812500000023
40
0.765625000000022
40
0.765625000000022
40
0.78125000000002
40
0.78125000000002
40
0.796875000000018
40
0.796875000000018
40
0.804687500000017
40
0.804687500000017
40
0.812500000000016
40
0.812500000000016
40
0.828125000000014
40
0.828125000000014
40
0.843750000000013
40
0.843750000000013
40
0.87500000000001
40
0.87500000000001
40
0.906250000000008
40
0.906250000000008
40
0.937500000000006
40
0.937500000000006
40
1
40
1
40
1
40
1
41
1
10
12.1463266109351
20
-2.97993079614969
30
0
41
1
10
11.8783744608761
20
-2.94671774823715
30
0
41
1
10
11.608648205488
20
-2.90610467017362
30
0
41
1
10
11.065414290722
20
-2.81302608369006
30
0
41
1
10
10.7913868658963
20
-2.76043103722327
30
0
41
1
10
9.96782624853665
20
-2.59006517444541
30
0
41
1
10
9.41635811065996
20
-2.45967727290738
30
0
41
1
10
8.30336632858433
20
-2.19034016065669
30
0
41
1
10
7.7417925907279
20
-2.05148825835471
30
0
41
1
10
6.60420852984663
20
-1.79060178756402
30
0
41
1
10
6.02819157468605
20
-1.66870299952413
30
0
41
1
10
5.15149217497176
20
-1.51469702193324
30
0
41
1
10
4.85687981273819
20
-1.46808581754206
30
0
41
1
10
4.26455650455875
20
-1.38665454383863
30
0
41
1
10
3.96754996981861
20
-1.351918257195
30
0
41
1
10
3.52070908111955
20
-1.30982493275607
30
0
41
1
10
3.37154041351556
20
-1.29745939677309
30
0
41
1
10
3.18479604143945
20
-1.28417625631232
30
0
41
1
10
3.14743298857962
20
-1.28162828775922
30
0
41
1
10
3.09136701506111
20
-1.27797096904007
30
0
41
1
10
3.07265688640192
20
-1.27787364673384
30
0
41
1
10
3.04497607229459
20
-1.28159323904327
30
0
41
1
10
3.03570763797131
20
-1.28346253748705
30
0
41
1
10
3.01821788267961
20
-1.288860504421
30
0
41
1
10
3.01010816596042
20
-1.29273179337773
30
0
41
1
10
2.93617201446509
20
-1.32578341635715
30
0
41
1
10
2.87116768672098
20
-1.35659422150368
30
0
41
1
10
2.68044361578038
20
-1.45335711192297
30
0
41
1
10
2.55902434530066
20
-1.52333629628072
30
0
41
1
10
2.39075179703877
20
-1.64074365012638
30
0
41
1
10
2.33700137711253
20
-1.68197774729236
30
0
41
1
10
2.23604384066232
20
-1.7701390100575
30
0
41
1
10
2.1888353880029
20
-1.81724166116749
30
0
41
1
10
2.12815128176487
20
-1.89041673447287
30
0
41
1
10
2.10949118344828
20
-1.91533357137899
30
0
41
1
10
2.07581761199253
20
-1.96635116272273
30
0
41
1
10
2.06081021999682
20
-1.99251941372279
30
0
41
1
10
2.02320500556061
20
-2.07064079517068
30
0
41
1
10
2.00748133842706
20
-2.12291329031507
30
0
41
1
10
1.99670217837439
20
-2.22749560308233
30
0
41
1
10
2.00196252175084
20
-2.27760158276149
30
0
41
1
10
2.02324554552987
20
-2.34855691992684
30
0
41
1
10
2.03264964412057
20
-2.37168656827612
30
0
41
1
10
2.0549982704224
20
-2.41573922192774
30
0
41
1
10
2.06795539820172
20
-2.43678410540403
30
0
41
1
10
2.11132778464594
20
-2.49738622256223
30
0
41
1
10
2.14625933503123
20
-2.53448099173397
30
0
41
1
10
2.22482370849318
20
-2.60320887889372
30
0
41
1
10
2.26770456884276
20
-2.63421825561247
30
0
41
1
10
2.40399889789205
20
-2.71983571843512
30
0
41
1
10
2.50492154449273
20
-2.76715442676195
30
0
41
1
10
2.71893799202633
20
-2.8490287960357
30
0
41
1
10
2.83020778165079
20
-2.88276300472521
30
0
41
1
10
3.05778255328315
20
-2.94020002985025
30
0
41
1
10
3.1742106989405
20
-2.9638604694884
30
0
41
1
10
3.52917407324176
20
-3.02307922730677
30
0
41
1
10
3.77327674426328
20
-3.04703615691398
30
0
41
1
10
4.02219789024707
20
-3.05963952524979
30
0
0
SPLINE
5
D7
100
AcDbEntity
8
1
62
256
6
ByLayer
370
18
48
1
60
0
100
AcDbSpline
70
4
71
3
72
16
73
12
40
0
40
0
40
0
40
0
40
0.119969530177676
40
0.119969530177676
40
0.276304374909019
40
0.276304374909019
40
0.432639219640363
40
0.432639219640363
40
0.74530890910305
40
0.74530890910305
40
1
40
1
40
1
40
1
41
1
10
12.1461483905007
20
2.97994728621134
30
0
41
1
10
12.0458277876778
20
2.94277386563832
30
0
41
1
10
11.9454060585961
20
2.9047210878835
30
0
41
1
10
11.7138040610206
20
2.81499764457206
30
0
41
1
10
11.5825207614965
20
2.76270554815278
30
0
41
1
10
11.3192150779776
20
2.65513025532266
30
0
41
1
10
11.1869382789853
20
2.59973321572193
30
0
41
1
10
10.7918875120723
20
2.43086125861083
30
0
41
1
10
10.5301652227878
20
2.31432836762323
30
0
41
1
10
10.0561338529563
20
2.10041244168701
30
0
41
1
10
9.8436555505906
20
2.00349810399274
30
0
41
1
10
9.6305806818838
20
1.90775897569296
30
0
0
SPLINE
5
D8
100
AcDbEntity
8
1
62
256
6
ByLayer
370
18
48
1
60
0
100
AcDbSpline
70
4
71
3
72
14
73
10
40
0
40
0
40
0
40
0
40
0.231261930687383
40
0.231261930687383
40
0.602453660632963
40
0.602453660632963
40
0.973645390578542
40
0.973645390578542
40
1
40
1
40
1
40
1
41
1
10
53.3815389338799
20
-2.95068016697596
30
0
41
1
10
53.0571821549893
20
-2.9513975946891
30
0
41
1
10
52.7327898069316
20
-2.93985060026316
30
0
41
1
10
51.8863287622814
20
-2.87808181127664
30
0
41
1
10
51.3688216321192
20
-2.80920555464181
30
0
41
1
10
50.3360405488538
20
-2.61489093798934
30
0
41
1
10
49.8207150224493
20
-2.4893973965014
30
0
41
1
10
49.2666566800134
20
-2.32809856874945
30
0
41
1
10
49.2299170243218
20
-2.31727828683361
30
0
41
1
10
49.1931668802044
20
-2.3063320970964
30
0
0
SPLINE
5
D9
100
AcDbEntity
8
1
62
256
6
ByLayer
370
13
48
1
60
0
100
AcDbSpline
70
4
71
3
72
22
73
18
40
0
40
0
40
0
40
0
40
0.069294142366606
40
0.069294142366606
40
0.150056544331411
40
0.150056544331411
40
0.473106152190631
40
0.473106152190631
40
0.553868554155434
40
0.553868554155434
40
0.634630956120237
40
0.634630956120237
40
0.796155760049839
40
0.796155760049839
40
0.957680563979442
40
0.957680563979442
40
1
40
1
40
1
40
1
41
1
10
49.1931668801971
20
-2.30633209709424
30
0
41
1
10
48.9711131590703
20
-2.24019243365385
30
0
41
1
10
48.7486765177013
20
-2.16945602188454
30
0
41
1
10
48.2656255205416
20
-2.00697285713301
30
0
41
1
10
48.0043439011733
20
-1.91351200949657
30
0
41
1
10
46.7057103338901
20
-1.42497649347632
30
0
41
1
10
45.6818609274757
20
-0.962203834271321
30
0
41
1
10
44.3906900968573
20
-0.354731176106952
30
0
41
1
10
44.1318900385054
20
-0.231794532462885
30
0
41
1
10
43.6125270443335
20
0.0156744964506856
30
0
41
1
10
43.3512030658146
20
0.140492086806233
30
0
41
1
10
42.5711849816288
20
0.511113609039256
30
0
41
1
10
42.0549985453538
20
0.753175379178231
30
0
41
1
10
41.0246758240797
20
1.21601017274602
30
0
41
1
10
40.5102818716942
20
1.43624975502024
30
0
41
1
10
39.8589548660832
20
1.69401271547949
30
0
41
1
10
39.7235954676846
20
1.74638856000314
30
0
41
1
10
39.5880373065634
20
1.79751195411188
30
0
0
SPLINE
5
DA
100
AcDbEntity
8
1
62
256
6
ByLayer
370
18
48
1
60
0
100
AcDbSpline
70
4
71
3
72
14
73
10
40
0
40
0
40
0
40
0
40
0.241944950418084
40
0.241944950418084
40
0.439458020387779
40
0.439458020387779
40
0.636971090357475
40
0.636971090357475
40
1
40
1
40
1
40
1
41
1
10
14.5314012354838
20
-2.92721156195881
30
0
41
1
10
14.2149869594234
20
-2.92669349581388
30
0
41
1
10
13.8978536183347
20
-2.91465867116776
30
0
41
1
10
13.319284854825
20
-2.8715101397471
30
0
41
1
10
13.0576320370148
20
-2.84422769465263
30
0
41
1
10
12.537063303375
20
-2.77498800126654
30
0
41
1
10
12.2777533482149
20
-2.73302030331755
30
0
41
1
10
11.5435245871806
20
-2.59415098782719
30
0
41
1
10
11.07001116246
20
-2.48072375655426
30
0
41
1
10
10.5962760911611
20
-2.34652397384966
30
0
0
SPLINE
5
DB
100
AcDbEntity
8
1
62
256
6
ByLayer
370
13
48
1
60
0
100
AcDbSpline
70
4
71
3
72
16
73
12
40
0
40
0
40
0
40
0
40
0.019847995201017
40
0.019847995201017
40
0.264885996400762
40
0.264885996400762
40
0.387404997000635
40
0.387404997000635
40
0.509923997600508
40
0.509923997600508
40
1
40
1
40
1
40
1
41
1
10
10.5962751257628
20
-2.34652370037134
30
0
41
1
10
10.5545206181724
20
-2.33469547113558
30
0
41
1
10
10.5127643887149
20
-2.32270587091037
30
0
41
1
10
9.95545370303279
20
-2.16056711488443
30
0
41
1
10
9.43937051587784
20
-1.98627781858264
30
0
41
1
10
8.66006448528631
20
-1.69444158509589
30
0
41
1
10
8.39876400612039
20
-1.59178347530937
30
0
41
1
10
7.87727956263205
20
-1.37891172093731
30
0
41
1
10
7.61746280181157
20
-1.26892822515964
30
0
41
1
10
6.32113762730603
20
-0.705081969471905
30
0
41
1
10
5.29314130285508
20
-0.209170781020418
30
0
41
1
10
4.25042455576789
20
0.281777459104688
30
0
0
SPLINE
5
DC
100
AcDbEntity
8
1
62
256
6
ByLayer
370
13
48
1
60
0
100
AcDbSpline
70
4
71
3
72
30
73
26
40
0
40
0
40
0
40
0
40
0.125
40
0.125
40
0.1875
40
0.1875
40
0.25
40
0.25
40
0.375
40
0.375
40
0.4375
40
0.4375
40
0.5
40
0.5
40
0.625
40
0.625
40
0.6875
40
0.6875
40
0.75
40
0.75
40
0.875
40
0.875
40
0.9375
40
0.9375
40
1
40
1
40
1
40
1
41
1
10
4.25042455576775
20
0.281777459104802
30
0
41
1
10
4.25052591821134
20
0.470068658458643
30
0
41
1
10
4.25061981776406
20
0.654479352380605
30
0
41
1
10
4.25075269218846
20
0.925344777487794
30
0
41
1
10
4.25079572542032
20
1.01484810062019
30
0
41
1
10
4.25087811091308
20
1.18870579078816
30
0
41
1
10
4.2509176630098
20
1.27346079903464
30
0
41
1
10
4.25103226478029
20
1.52132616743771
30
0
41
1
10
4.25110340851438
20
1.67833249725086
30
0
41
1
10
4.25120429382915
20
1.89981758862129
30
0
41
1
10
4.25123658593009
20
1.97051299527089
30
0
41
1
10
4.25129891258462
20
2.10568925303619
30
0
41
1
10
4.25132906123525
20
2.17040886478566
30
0
41
1
10
4.25141544701279
20
2.35278887555268
30
0
41
1
10
4.25146781964332
20
2.45905216025281
30
0
41
1
10
4.25153973480082
20
2.59597073551308
30
0
41
1
10
4.25156257868662
20
2.63783847760638
30
0
41
1
10
4.2516059616998
20
2.71379598260611
30
0
41
1
10
4.25162645634873
20
2.74778213937498
30
0
41
1
10
4.25168300861088
20
2.835804443797
30
0
41
1
10
4.2517145519586
20
2.87665705727443
30
0
41
1
10
4.2517514628066
20
2.91171771125454
30
0
41
1
10
4.25176201107547
20
2.91900501697484
30
0
41
1
10
4.25177911966108
20
2.92449517277197
30
0
41
1
10
4.25178558038479
20
2.92264156151089
30
0
41
1
10
4.25178973050757
20
2.91632994741732
30
0
0
SPLINE
5
DD
100
AcDbEntity
8
1
62
256
6
ByLayer
370
18
48
1
60
0
100
AcDbSpline
70
4
71
3
72
22
73
18
40
0
40
0
40
0
40
0
40
0.125000000000004
40
0.125000000000004
40
0.187500000000006
40
0.187500000000006
40
0.250000000000008
40
0.250000000000008
40
0.500000000000004
40
0.500000000000004
40
0.625000000000003
40
0.625000000000003
40
0.750000000000002
40
0.750000000000002
40
0.875000000000001
40
0.875000000000001
40
1
40
1
40
1
40
1
41
1
10
53.9259404340966
20
-2.95095440445672
30
0
41
1
10
53.8816001302356
20
-2.95092034927487
30
0
41
1
10
53.8394618577079
20
-2.94423358707306
30
0
41
1
10
53.7797318623091
20
-2.92369759303747
30
0
41
1
10
53.7604029620962
20
-2.91509666613246
30
0
41
1
10
53.7229576837434
20
-2.89423157920547
30
0
41
1
10
53.7048119406459
20
-2.88192683716096
30
0
41
1
10
53.6185011672205
20
-2.81189197711467
30
0
41
1
10
53.5623516325073
20
-2.72858519618242
30
0
41
1
10
53.498699108947
20
-2.56011997113296
30
0
41
1
10
53.4808773463695
20
-2.49601667380171
30
0
41
1
10
53.4536067692381
20
-2.3562735004713
30
0
41
1
10
53.4439949873231
20
-2.28046799052646
30
0
41
1
10
53.4327714235499
20
-2.11705845985972
30
0
41
1
10
53.4311585210542
20
-2.02945609186995
30
0
41
1
10
53.4362670987146
20
-1.84195969303633
30
0
41
1
10
53.4429995553404
20
-1.74315933964613
30
0
41
1
10
53.4536902223181
20
-1.64092602417384
30
0
0
SPLINE
5
DE
100
AcDbEntity
8
1
62
256
6
ByLayer
370
18
48
1
60
0
100
AcDbSpline
70
4
71
3
72
12
73
8
40
0
40
0
40
0
40
0
40
0.249999999999999
40
0.249999999999999
40
0.499999999999998
40
0.499999999999998
40
1
40
1
40
1
40
1
41
1
10
53.9537994944766
20
-3.02188785867455
30
0
41
1
10
53.9586155997667
20
-3.00888555256537
30
0
41
1
10
53.9630992169803
20
-2.99568931265438
30
0
41
1
10
53.9702217217536
20
-2.97195605778063
30
0
41
1
10
53.9728405961109
20
-2.96145747177962
30
0
41
1
10
53.9769965438321
20
-2.93781163314418
30
0
41
1
10
53.9749410172641
20
-2.93312778273901
30
0
41
1
10
53.9703869725632
20
-2.93588523628822
30
0
0
SPLINE
5
DF
100
AcDbEntity
8
1
62
256
6
ByLayer
370
18
48
1
60
0
100
AcDbSpline
70
4
71
3
72
24
73
20
40
0
40
0
40
0
40
0
40
0.0287552684537991
40
0.0287552684537991
40
0.191211648377634
40
0.191211648377634
40
0.272439838339551
40
0.272439838339551
40
0.353668028301468
40
0.353668028301468
40
0.678580788149135
40
0.678580788149135
40
0.759808978111052
40
0.759808978111052
40
0.841037168072966
40
0.841037168072966
40
0.922265358034881
40
0.922265358034881
40
1
40
1
40
1
40
1
41
1
10
19.4814824715553
20
2.03077170919642
30
0
41
1
10
19.5728593292937
20
1.99755591013138
30
0
41
1
10
19.6641884742361
20
1.96369269917011
30
0
41
1
10
20.2712987566084
20
1.73441272115292
30
0
41
1
10
20.7860491144756
20
1.51967290604537
30
0
41
1
10
21.5611901803199
20
1.17566716213335
30
0
41
1
10
21.8200986320035
20
1.05740944641505
30
0
41
1
10
22.3397545466968
20
0.81506326403013
30
0
41
1
10
22.6011677625098
20
0.6904975170184
30
0
41
1
10
23.9051880418427
20
0.061448911671306
30
0
41
1
10
24.9330808442678
20
-0.457794611557944
30
0
41
1
10
26.2294819729037
20
-1.06339138259651
30
0
41
1
10
26.4893719446267
20
-1.18228015196462
30
0
41
1
10
27.0111482717009
20
-1.41400707531022
30
0
41
1
10
27.2725676679295
20
-1.5266907202431
30
0
41
1
10
27.7939750028961
20
-1.74269763630292
30
0
41
1
10
28.054451471387
20
-1.84622223974711
30
0
41
1
10
28.5645246707322
20
-2.03885667705856
30
0
41
1
10
28.8143892465808
20
-2.12843130194614
30
0
41
1
10
29.064243805402
20
-2.21259993928723
30
0
0
SPLINE
5
E0
100
AcDbEntity
8
1
62
256
6
ByLayer
370
13
48
1
60
0
100
AcDbSpline
70
4
71
3
72
16
73
12
40
0
40
0
40
0
40
0
40
0.0054009546108944
40
0.0054009546108944
40
0.507723645268686
40
0.507723645268686
40
0.758884990597581
40
0.758884990597581
40
0.884465663262032
40
0.884465663262032
40
1
40
1
40
1
40
1
41
1
10
29.0642447529415
20
-2.21260025848534
30
0
41
1
10
29.0754733933404
20
-2.21638285589978
30
0
41
1
10
29.086702013507
20
-2.22015453501706
30
0
41
1
10
30.1422571305418
20
-2.57368300859002
30
0
41
1
10
31.1680274159747
20
-2.82106710734945
30
0
41
1
10
32.7155734137547
20
-3.00741537752433
30
0
41
1
10
33.2331069121363
20
-3.03886392516338
30
0
41
1
10
34.0161915831346
20
-3.03708219942831
30
0
41
1
10
34.2767563667971
20
-3.02836252626213
30
0
41
1
10
34.7747589294572
20
-2.99634495016798
30
0
41
1
10
35.0126491455238
20
-2.97428472016239
30
0
41
1
10
35.2501430241063
20
-2.94576640674171
30
0
0
SPLINE
5
E1
100
AcDbEntity
8
1
62
256
6
ByLayer
370
18
48
1
60
0
100
AcDbSpline
70
4
71
3
72
14
73
10
40
0
40
0
40
0
40
0
40
0.0423134259835984
40
0.0423134259835984
40
0.400397927938396
40
0.400397927938396
40
0.758482429893192
40
0.758482429893192
40
1
40
1
40
1
40
1
41
1
10
8.07004640309523
20
-2.13938873742328
30
0
41
1
10
8.05537092192171
20
-2.1474468157586
30
0
41
1
10
8.04068354547744
20
-2.15548295734143
30
0
41
1
10
7.90158275167784
20
-2.23130716038963
30
0
41
1
10
7.77630158295892
20
-2.29749677798085
30
0
41
1
10
7.523442038702
20
-2.42567610372947
30
0
41
1
10
7.3964538370434
20
-2.48734270769015
30
0
41
1
10
7.18515719051183
20
-2.58514961289339
30
0
41
1
10
7.10018333165579
20
-2.62316950738585
30
0
41
1
10
7.01529513691196
20
-2.65988128569524
30
0
0
SPLINE
5
E2
100
AcDbEntity
8
1
62
256
6
ByLayer
370
18
48
1
60
0
100
AcDbSpline
70
4
71
3
72
12
73
8
40
0
40
0
40
0
40
0
40
0.0389882331446092
40
0.0389882331446092
40
0.438578686162028
40
0.438578686162028
40
1
40
1
40
1
40
1
41
1
10
33.9350289807832
20
-2.93916113083753
30
0
41
1
10
33.8841756884083
20
-2.93908766123451
30
0
41
1
10
33.8333053885582
20
-2.93871647836872
30
0
41
1
10
33.2609539058174
20
-2.93118527182318
30
0
41
1
10
32.7437192469831
20
-2.89285490587966
30
0
41
1
10
31.5035593413174
20
-2.73008496042956
30
0
41
1
10
30.7817500254202
20
-2.57669934277652
30
0
41
1
10
30.0546340901946
20
-2.37263687602936
30
0
0
SPLINE
5
E3
100
AcDbEntity
8
1
62
256
6
ByLayer
370
13
48
1
60
0
100
AcDbSpline
70
4
71
3
72
22
73
18
40
0
40
0
40
0
40
0
40
0.0937388267410873
40
0.0937388267410873
40
0.251280904853881
40
0.251280904853881
40
0.330051943910278
40
0.330051943910278
40
0.408822982966676
40
0.408822982966676
40
0.723907139192262
40
0.723907139192262
40
0.802678178248658
40
0.802678178248658
40
0.881449217305055
40
0.881449217305055
40
1
40
1
40
1
40
1
41
1
10
30.0546340901168
20
-2.37263687600751
30
0
41
1
10
29.7467035146942
20
-2.28621726977349
30
0
41
1
10
29.4378212038428
20
-2.19070883509377
30
0
41
1
10
28.6056367224467
20
-1.91187150744301
30
0
41
1
10
28.0850702525277
20
-1.71524524366146
30
0
41
1
10
27.3036383620343
20
-1.39577203942528
30
0
41
1
10
27.042458659278
20
-1.28497561027595
30
0
41
1
10
26.5211899586829
20
-1.05779898707149
30
0
41
1
10
26.2614994630728
20
-0.94148430716379
30
0
41
1
10
24.9659417436855
20
-0.350146192118331
30
0
41
1
10
23.9380686589705
20
0.152844533804512
30
0
41
1
10
22.635097073484
20
0.757128277469462
30
0
41
1
10
22.3739812668263
20
0.876466044841152
30
0
41
1
10
21.8547040644549
20
1.10821592990379
30
0
41
1
10
21.5959425354741
20
1.22111026701771
30
0
41
1
10
20.9489937257358
20
1.49472242880583
30
0
41
1
10
20.5613511385978
20
1.65061594795085
30
0
41
1
10
20.1735496046835
20
1.79589987583958
30
0
0
SPLINE
5
E4
100
AcDbEntity
8
1
62
256
6
ByLayer
370
13
48
1
60
0
100
AcDbSpline
70
4
71
3
72
10
73
6
40
0
40
0
40
0
40
0
40
0.5
40
0.5
40
1
40
1
40
1
40
1
41
1
10
4.13964014705402
20
0.315376312824725
30
0
41
1
10
4.11206926026904
20
0.324444842505329
30
0
41
1
10
4.08833807840864
20
0.336416202506939
30
0
41
1
10
4.04826985620997
20
0.365096651484322
30
0
41
1
10
4.03285840760998
20
0.381100459518706
30
0
41
1
10
4.02151290831546
20
0.398644583514169
30
0
0
SPLINE
5
E5
100
AcDbEntity
8
1
62
256
6
ByLayer
370
18
48
1
60
0
100
AcDbSpline
70
4
71
3
72
8
73
4
40
0
40
0
40
0
40
0
40
1
40
1
40
1
40
1
41
1
10
53.9703869725632
20
-2.93588523628822
30
0
41
1
10
53.9538201317854
20
-2.94591638374104
30
0
41
1
10
53.9389942309553
20
-2.95096914531686
30
0
41
1
10
53.9259404341012
20
-2.95095440445675
30
0
0
SPLINE
5
E6
100
AcDbEntity
8
1
62
256
6
ByLayer
370
18
48
1
60
0
100
AcDbSpline
70
4
71
3
72
16
73
12
40
0
40
0
40
0
40
0
40
0.249999999999993
40
0.249999999999993
40
0.499999999999987
40
0.499999999999987
40
0.624999999999972
40
0.624999999999972
40
0.749999999999956
40
0.749999999999956
40
1
40
1
40
1
40
1
41
1
10
53.6295347887568
20
0.637431360417253
30
0
41
1
10
53.6203017847012
20
0.667760372041386
30
0
41
1
10
53.6143987287636
20
0.698918015987346
30
0
41
1
10
53.6103087316393
20
0.763242528217972
30
0
41
1
10
53.6121604461401
20
0.79640411165667
30
0
41
1
10
53.6236596413909
20
0.844727948881484
30
0
41
1
10
53.6286169443724
20
0.860880164433269
30
0
41
1
10
53.6434538053914
20
0.890705263066025
30
0
41
1
10
53.6532094276381
20
0.904240004253552
30
0
41
1
10
53.6886343524055
20
0.939100812482224
30
0
41
1
10
53.7196228579442
20
0.953611165579105
30
0
41
1
10
53.7518177911217
20
0.961188301038817
30
0
0
SPLINE
5
E7
100
AcDbEntity
8
1
62
256
6
ByLayer
370
18
48
1
60
0
100
AcDbSpline
70
4
71
3
72
31
73
27
40
0
40
0
40
0
40
0
40
0.0660746925142295
40
0.0660746925142295
40
0.132149385028459
40
0.132149385028459
40
0.264298770056918
40
0.264298770056918
40
0.330373462571147
40
0.330373462571147
40
0.396448155085377
40
0.396448155085377
40
0.528597540113835
40
0.528597540113835
40
0.594672232628065
40
0.594672232628065
40
0.660746925142294
40
0.726821617656524
40
0.726821617656524
40
0.792896310170753
40
0.792896310170753
40
0.925045695199212
40
0.925045695199212
40
0.991120387713441
40
0.991120387713441
40
1
40
1
40
1
40
1
41
1
10
4.02151290832185
20
0.398644583514226
30
0
41
1
10
4.02153791121765
20
0.495799955027223
30
0
41
1
10
4.02156210829111
20
0.592182182235916
30
0
41
1
10
4.02160912024402
20
0.783394898332887
30
0
41
1
10
4.021631859114
20
0.877928775002999
30
0
41
1
10
4.02169736219327
20
1.15490670790291
30
0
41
1
10
4.02173777203708
20
1.33215662909274
30
0
41
1
10
4.02179501924911
20
1.58691035480336
30
0
41
1
10
4.02181362911753
20
1.67038361464986
30
0
41
1
10
4.02184940451232
20
1.83111175161253
30
0
41
1
10
4.02186655036132
20
1.90827026296174
30
0
41
1
10
4.02191615205385
20
2.1303838033177
30
0
41
1
10
4.02194680061518
20
2.26606101109437
30
0
41
1
10
4.02199011239136
20
2.45045376844919
30
0
41
1
10
4.02200405501497
20
2.50850362082073
30
0
41
1
10
4.02203056598944
20
2.61573861058207
30
0
41
1
10
4.02205585520122
20
2.71476542309242
30
0
41
1
10
4.0220788679022
20
2.79761128895115
30
0
41
1
10
4.02210074472598
20
2.8722645483974
30
0
41
1
10
4.02211115807381
20
2.90561925039452
30
0
41
1
10
4.02214026389134
20
2.99199783063668
30
0
41
1
10
4.02215667293686
20
3.03099234265733
30
0
41
1
10
4.02217629190102
20
3.06246773627049
30
0
41
1
10
4.02218198860012
20
3.06842598476601
30
0
41
1
10
4.02218737013703
20
3.06991251527597
30
0
41
1
10
4.02218799024368
20
3.07000343983043
30
0
41
1
10
4.02218859248708
20
3.07000947872311
30
0
0
LINE
5
76
100
AcDbEntity
8
81
62
256
6
ByLayer
370
18
48
1
60
0
100
AcDbLine
10
55
20
0
30
0
11
60
21
0
31
0
39
0
210
0
220
0
230
1
0
LINE
5
77
100
AcDbEntity
8
1
62
256
6
ByLayer
370
18
48
1
60
0
100
AcDbLine
10
4.022185
20
3.070012
30
0
11
1.454146
21
3.068472
31
0
39
0
210
0
220
0
230
1
0
LINE
5
79
100
AcDbEntity
8
1
62
256
6
ByLayer
370
18
48
1
60
0
100
AcDbLine
10
14.319508
20
3.076191
30
0
11
13.685899
21
3.075811
31
0
39
0
210
0
220
0
230
1
0
LINE
5
7A
100
AcDbEntity
8
1
62
256
6
ByLayer
370
18
48
1
60
0
100
AcDbLine
10
33.719649
20
3.087831
30
0
11
33.094472
21
3.087456
31
0
39
0
210
0
220
0
230
1
0
LINE
5
7B
100
AcDbEntity
8
1
62
256
6
ByLayer
370
18
48
1
60
0
100
AcDbLine
10
53.119559
20
3.099471
30
0
11
52.506532
21
3.099103
31
0
39
0
210
0
220
0
230
1
0
LINE
5
7C
100
AcDbEntity
8
1
62
256
6
ByLayer
370
18
48
1
60
0
100
AcDbLine
10
52.506532
20
-3.099103
30
0
11
53.119705
21
-3.099471
31
0
39
0
210
0
220
0
230
1
0
LINE
5
7D
100
AcDbEntity
8
1
62
256
6
ByLayer
370
18
48
1
60
0
100
AcDbLine
10
33.094472
20
-3.087456
30
0
11
33.719187
21
-3.087831
31
0
39
0
210
0
220
0
230
1
0
LINE
5
7E
100
AcDbEntity
8
1
62
256
6
ByLayer
370
18
48
1
60
0
100
AcDbLine
10
13.685899
20
-3.075811
30
0
11
14.319039
21
-3.07619
31
0
39
0
210
0
220
0
230
1
0
LINE
5
7F
100
AcDbEntity
8
1
62
256
6
ByLayer
370
18
48
1
60
0
100
AcDbLine
10
1.454146
20
-3.068472
30
0
11
4.022185
21
-3.070012
31
0
39
0
210
0
220
0
230
1
0
LINE
5
80
100
AcDbEntity
8
SK1
62
256
6
ByLayer
370
18
48
1
60
0
100
AcDbLine
10
0
20
4
30
0
11
-35.133975
21
4
31
0
39
0
210
0
220
0
230
1
0
LINE
5
82
100
AcDbEntity
8
SK1
62
256
6
ByLayer
370
18
48
1
60
0
100
AcDbLine
10
-35.133975
20
-4
30
0
11
0
21
-4
31
0
39
0
210
0
220
0
230
1
0
LINE
5
83
100
AcDbEntity
8
SK1
62
256
6
ByLayer
370
18
48
1
60
0
100
AcDbLine
10
-35.133975
20
4
30
0
11
-36
21
2.5
31
0
39
0
210
0
220
0
230
1
0
LINE
5
84
100
AcDbEntity
8
SK1
62
256
6
ByLayer
370
18
48
1
60
0
100
AcDbLine
10
-36
20
-2.5
30
0
11
-35.133975
21
-4
31
0
39
0
210
0
220
0
230
1
0
LINE
5
85
100
AcDbEntity
8
SK4
62
256
6
ByLayer
370
18
48
0.05
60
0
100
AcDbLine
10
60
20
0
30
0
11
-41
21
0
31
0
39
0
210
0
220
0
230
1
0
LINE
5
87
100
AcDbEntity
8
4
62
256
6
ByLayer
370
18
48
0.05
60
0
100
AcDbLine
10
55
20
0
30
0
11
0
21
0
31
0
39
0
210
0
220
0
230
1
0
LINE
5
89
100
AcDbEntity
8
80
62
256
6
ByLayer
370
18
48
1
60
0
100
AcDbLine
10
0
20
0
30
0
11
-5
21
0
31
0
39
0
210
0
220
0
230
1
0
LINE
5
8A
100
AcDbEntity
8
1
62
256
6
ByLayer
370
18
48
1
60
0
100
AcDbLine
10
52.086528
20
0.367082
30
0
11
52.079742
21
0.370069
31
0
39
0
210
0
220
0
230
1
0
LINE
5
8B
100
AcDbEntity
8
1
62
256
6
ByLayer
370
13
48
1
60
0
100
AcDbLine
10
54.06248
20
0.342159
30
0
11
54.895142
21
-0.151887
31
0
39
0
210
0
220
0
230
1
0
LINE
5
8C
100
AcDbEntity
8
1
62
256
6
ByLayer
370
18
48
1
60
0
100
AcDbLine
10
54.925937
20
0.277849
30
0
11
54.832699
21
0.677489
31
0
39
0
210
0
220
0
230
1
0
LINE
5
8D
100
AcDbEntity
8
1
62
256
6
ByLayer
370
18
48
1
60
0
100
AcDbLine
10
53.45369
20
-1.640926
30
0
11
54.895142
21
-0.151887
31
0
39
0
210
0
220
0
230
1
0
LINE
5
8E
100
AcDbEntity
8
1
62
256
6
ByLayer
370
18
48
1
60
0
100
AcDbLine
10
0
20
-4
30
0
11
0
21
4
31
0
39
0
210
0
220
0
230
1
0
LINE
5
8F
100
AcDbEntity
8
1
62
256
6
ByLayer
370
13
48
1
60
0
100
AcDbLine
10
0.726833
20
3.534236
30
0
11
0.726833
21
-3.534236
31
0
39
0
210
0
220
0
230
1
0
LINE
5
90
100
AcDbEntity
8
1
62
256
6
ByLayer
370
13
48
1
60
0
100
AcDbLine
10
54.832699
20
0.677489
30
0
11
54.252387
21
0.677489
31
0
39
0
210
0
220
0
230
1
0
LINE
5
91
100
AcDbEntity
8
1
62
256
6
ByLayer
370
18
48
1
60
0
100
AcDbLine
10
55
20
0
30
0
11
54.994432
21
-0.030873
31
0
39
0
210
0
220
0
230
1
0
LINE
5
92
100
AcDbEntity
8
1
62
256
6
ByLayer
370
18
48
1
60
0
100
AcDbLine
10
54.994432
20
0.030873
30
0
11
55
21
0
31
0
39
0
210
0
220
0
230
1
0
LINE
5
93
100
AcDbEntity
8
1
62
256
6
ByLayer
370
18
48
1
60
0
100
AcDbLine
10
54.925937
20
-0.277849
30
0
11
54.832699
21
-0.677489
31
0
39
0
210
0
220
0
230
1
0
LINE
5
94
100
AcDbEntity
8
1
62
256
6
ByLayer
370
13
48
1
60
0
100
AcDbLine
10
1.454146
20
3.068472
30
0
11
1.454146
21
-3.068472
31
0
39
0
210
0
220
0
230
1
0
LINE
5
95
100
AcDbEntity
8
1
62
256
6
ByLayer
370
18
48
1
60
0
100
AcDbLine
10
55
20
0
30
0
11
53.92594
21
-2.950954
31
0
39
0
210
0
220
0
230
1
0
LINE
5
96
100
AcDbEntity
8
1
62
256
6
ByLayer
370
13
48
1
60
0
100
AcDbLine
10
54.252387
20
0.677489
30
0
11
54.925937
21
0.277849
31
0
39
0
210
0
220
0
230
1
0
LINE
5
97
100
AcDbEntity
8
1
62
256
6
ByLayer
370
13
48
1
60
0
100
AcDbLine
10
4.251772
20
-2.922088
30
0
11
4.25179
21
-2.91633
31
0
39
0
210
0
220
0
230
1
0
LINE
5
98
100
AcDbEntity
8
SK1
62
256
6
ByLayer
370
18
48
1
60
0
100
AcDbLine
10
0
20
-4
30
0
11
0
21
4
31
0
39
0
210
0
220
0
230
1
0
LINE
5
99
100
AcDbEntity
8
SK1
62
256
6
ByLayer
370
18
48
1
60
0
100
AcDbLine
10
-35.133975
20
4
30
0
11
-35.133975
21
-4
31
0
39
0
210
0
220
0
230
1
0
LINE
5
9A
100
AcDbEntity
8
SK1
62
256
6
ByLayer
370
18
48
1
60
0
100
AcDbLine
10
-36
20
2.5
30
0
11
-36
21
-2.5
31
0
39
0
210
0
220
0
230
1
0
MTEXT
5
E8
100
AcDbEntity
8
SK6
62
256
6
ByLayer
370
13
48
1
60
0
100
AcDbMText
10
11.629169
20
35.482694
30
0
210
0
220
0
230
1
1
\W0.7670;R840-0620-50-A0A1220
40
3.5
41
0
44
1.084337
50
0
71
8
72
5
7
iso_b_vert
0
DIMENSION
5
F5
100
AcDbEntity
8
SK2
62
256
6
ByLayer
370
13
48
1
60
0
100
AcDbDimension
2
DimnDraft3D1
10
53.95
20
-13.313398
30
0
11
25.700059
21
-13.313398
31
0
70
32
71
5
72
1
41
1
210
0
220
0
230
1
3
Standard
100
AcDbAlignedDimension
13
0
23
-1.5875
33
0
14
53.95
24
-4.6875
34
0
50
0
100
AcDbRotatedDimension
1001
ACAD
1000
DSTYLE
1002
{
1070
   279
1070
     0
1070
   172
1070
     1
1070
   173
1070
     1
1070
   340
1005
E9
1070
   271
1070
     2
1070
   272
1070
     2
1070
    77
1070
     1
1070
    73
1070
     0
1070
   171
1070
     3
1070
   274
1070
     4
1070
   177
1070
    35
1070
   176
1070
    35
1070
   178
1070
    35
1070
    48
1040
-0.005
1070
    41
1041
3.5
1070
   147
1041
1.75
1070
    42
1041
1.5875
1070
    44
1041
2.0
1070
   140
1041
3.5
1070
   343
1005
0
1070
   344
1005
0
1002
}
0
DIMENSION
5
FF
100
AcDbEntity
8
SK2
62
256
6
ByLayer
370
13
48
1
60
0
100
AcDbDimension
2
DimnDraft3D2
10
55
20
-32.692985
30
0
11
9.7913
21
-32.692985
31
0
70
32
71
5
72
1
41
1
210
0
220
0
230
1
3
Standard
100
AcDbAlignedDimension
13
-36
23
-5.5875
33
0
14
55
24
-1.5875
34
0
50
0
100
AcDbRotatedDimension
1001
ACAD
1000
DSTYLE
1002
{
1070
   279
1070
     0
1070
   172
1070
     1
1070
   173
1070
     1
1070
   340
1005
E9
1070
   271
1070
     2
1070
   272
1070
     2
1070
    77
1070
     1
1070
    73
1070
     0
1070
   171
1070
     3
1070
   274
1070
     4
1070
   177
1070
    35
1070
   176
1070
    35
1070
   178
1070
    35
1070
    48
1040
-0.005
1070
    41
1041
3.5
1070
   147
1041
1.75
1070
    42
1041
1.5875
1070
    44
1041
2.0
1070
   140
1041
3.5
1070
   343
1005
0
1070
   344
1005
0
1002
}
0
DIMENSION
5
109
100
AcDbEntity
8
SK2
62
256
6
ByLayer
370
13
48
1
60
0
100
AcDbDimension
2
DimnDraft3D3
10
55
20
14.709119
30
0
11
38.975
21
14.709119
31
0
70
32
71
5
72
1
41
1
210
0
220
0
230
1
3
Standard
100
AcDbAlignedDimension
13
22.95
23
4.6875
33
0
14
55
24
1.5875
34
0
50
0
100
AcDbRotatedDimension
1001
ACAD
1000
DSTYLE
1002
{
1070
   279
1070
     0
1070
   172
1070
     1
1070
   173
1070
     1
1070
   340
1005
E9
1070
   271
1070
     2
1070
   272
1070
     2
1070
    77
1070
     1
1070
    73
1070
     0
1070
   171
1070
     3
1070
   274
1070
     4
1070
   177
1070
    35
1070
   176
1070
    35
1070
   178
1070
    35
1070
    48
1040
-0.005
1070
    41
1041
3.5
1070
   147
1041
1.75
1070
    42
1041
1.5875
1070
    44
1041
2.0
1070
   140
1041
3.5
1070
   343
1005
0
1070
   344
1005
0
1002
}
0
DIMENSION
5
113
100
AcDbEntity
8
SK2
62
256
6
ByLayer
370
13
48
1
60
0
100
AcDbDimension
2
DimnDraft3D4
10
53.95
20
-15.902503
30
0
11
64.981425
21
-15.902503
31
0
70
32
71
5
72
1
41
1
210
0
220
0
230
1
3
Standard
100
AcDbAlignedDimension
13
55
23
-1.5875
33
0
14
53.95
24
-4.6875
34
0
50
0
100
AcDbRotatedDimension
1001
ACAD
1000
DSTYLE
1002
{
1070
   279
1070
     0
1070
   172
1070
     1
1070
   173
1070
     1
1070
   340
1005
E9
1070
   271
1070
     2
1070
   272
1070
     2
1070
    77
1070
     1
1070
    73
1070
     0
1070
   171
1070
     3
1070
   274
1070
     4
1070
   177
1070
    35
1070
   176
1070
    35
1070
   178
1070
    35
1070
    48
1040
-0.005
1070
    41
1041
3.5
1070
   147
1041
1.75
1070
    42
1041
1.5875
1070
    44
1041
2.0
1070
   140
1041
3.5
1070
   343
1005
0
1070
   344
1005
0
1002
}
0
DIMENSION
5
11D
100
AcDbEntity
8
SK2
62
256
6
ByLayer
370
13
48
1
60
0
100
AcDbDimension
2
DimnDraft3D5
10
53.95
20
-22.343428
30
0
11
6.710676
21
-22.343428
31
0
70
32
71
5
72
1
41
1
210
0
220
0
230
1
3
Standard
100
AcDbAlignedDimension
13
-36
23
-5.5875
33
0
14
53.95
24
-4.6875
34
0
50
0
100
AcDbRotatedDimension
1001
ACAD
1000
DSTYLE
1002
{
1070
   279
1070
     0
1070
   172
1070
     1
1070
   173
1070
     1
1070
   340
1005
E9
1070
   271
1070
     2
1070
   272
1070
     2
1070
    77
1070
     1
1070
    73
1070
     0
1070
   171
1070
     3
1070
   274
1070
     4
1070
   177
1070
    35
1070
   176
1070
    35
1070
   178
1070
    35
1070
    48
1040
-0.005
1070
    41
1041
3.5
1070
   147
1041
1.75
1070
    42
1041
1.5875
1070
    44
1041
2.0
1070
   140
1041
3.5
1070
   343
1005
0
1070
   344
1005
0
1002
}
0
DIMENSION
5
128
100
AcDbEntity
8
SK2
62
256
6
ByLayer
370
13
48
1
60
0
100
AcDbDimension
2
DimnDraft3D6
10
-46.625163
20
4
30
0
11
-47.250163
21
22.47418
31
0
70
33
71
5
72
1
41
1
210
0
220
0
230
1
3
Standard
100
AcDbAlignedDimension
13
-37.5875
23
-4
33
0
14
-37.5875
24
4
34
0
1001
ACAD
1000
DSTYLE
1002
{
1070
   279
1070
     0
1070
    74
1070
     0
1070
   173
1070
     1
1070
   340
1005
E9
1070
   271
1070
     3
1070
   272
1070
     2
1070
    77
1070
     1
1070
    73
1070
     0
1070
   171
1070
     3
1070
   274
1070
     4
1070
   177
1070
    35
1070
   176
1070
    35
1070
   178
1070
    35
1070
    48
1040
-0.005
1070
    41
1041
3.5
1070
   147
1041
1.75
1070
    42
1041
1.5875
1070
    44
1041
2.0
1070
   140
1041
3.5
1070
   343
1005
0
1070
   344
1005
0
1002
}
0
DIMENSION
5
133
100
AcDbEntity
8
2
62
256
6
ByLayer
370
13
48
1
60
0
100
AcDbDimension
2
DimnDraft3D7
10
69.083343
20
3.1
30
0
11
64.458343
21
20.167266
31
0
70
33
71
5
72
1
41
1
210
0
220
0
230
1
3
Standard
100
AcDbAlignedDimension
13
55.5375
23
-3.1
33
0
14
55.5375
24
3.1
34
0
1001
ACAD
1000
DSTYLE
1002
{
1070
   279
1070
     0
1070
    74
1070
     0
1070
   173
1070
     1
1070
   340
1005
E9
1070
   271
1070
     3
1070
   272
1070
     2
1070
    77
1070
     1
1070
    73
1070
     0
1070
   171
1070
     3
1070
   274
1070
     4
1070
   177
1070
    35
1070
   176
1070
    35
1070
   178
1070
    35
1070
    48
1040
-0.005
1070
    41
1041
3.5
1070
   147
1041
1.75
1070
    42
1041
1.5875
1070
    44
1041
2.0
1070
   140
1041
3.5
1070
   343
1005
0
1070
   344
1005
0
1002
}
0
ENDSEC
0
SECTION
2
OBJECTS
0
DICTIONARY
5
19e
330
0
100
AcDbDictionary
280
0
281
1
3
ACAD_GROUP
350
19f
3
ACAD_MLINESTYLE
350
1a0
0
DICTIONARY
5
19f
330
0
100
AcDbDictionary
280
0
281
1
0
DICTIONARY
5
1a0
330
0
100
AcDbDictionary
280
0
281
1
3
Standard
350
18
0
MLINESTYLE
5
18
330
1a0
100
AcDbMlineStyle
2
Standard
70
0
3

62
256
51
90
52
90
71
2
49
-0.5
62
256
6
ByLayer
49
0.5
62
256
6
ByLayer
0
RASTERVARIABLES
5
18c
330

100
AcDbRasterVariables
90
0
70
1
71
1
72
1
0
ENDSEC
0
EOF
