0
SECTION
2
HEADER
9
$ACADVER
1
AC1015
9
$DWGCODEPAGE
3
ANSI_1252
9
$HANDSEED
5
1a4
9
$ANGBASE
50
0
9
$ANGDIR
70
0
9
$ATTMODE
70
1
9
$AUNITS
70
0
9
$AUPREC
70
0
9
$CECOLOR
62
256
9
$CELTSCALE
40
1
9
$CELTYPE
6
ByLayer
9
$CELWEIGHT
370
18
9
$CLAYER
8
0
9
$CMLJUST
70
0
9
$CMLSCALE
40
1
9
$CMLSTYLE
2
Standard
9
$DIMSTYLE
2
Standard
9
$TEXTSIZE
40
0.2
9
$TEXTSTYLE
7
Standard
9
$LUNITS
70
2
9
$LUPREC
70
4
9
$EXTNAMES
290
1
9
$INSUNITS
70
4
9
$LTSCALE
40
1
9
$LWDISPLAY
290
1
9
$PDMODE
70
0
9
$PDSIZE
40
0
9
$PLINEGEN
70
0
0
ENDSEC
0
SECTION
2
CLASSES
0
CLASS
1
RASTERVARIABLES
2
AcDbRasterVariables
3
ISM
90
0
280
0
281
0
0
ENDSEC
0
SECTION
2
TABLES
0
TABLE
2
VPORT
5
19a
100
AcDbSymbolTable
0
VPORT
5
1
100
AcDbSymbolTableRecord
100
AcDbViewportTableRecord
2
*Active
70
0
10
0
20
0
11
1
21
1
12
-1
22
1
13
0
23
0
14
0.5
24
0.5
15
10
25
10
16
0
26
0
36
1
17
0
27
0
37
0
0
ENDTAB
0
TABLE
2
LTYPE
5
19b
100
AcDbSymbolTable
0
LTYPE
5
14
100
AcDbSymbolTableRecord
100
AcDbLinetypeTableRecord
70
0
2
ByBlock
3

72
65
73
0
40
0
0
LTYPE
5
15
100
AcDbSymbolTableRecord
100
AcDbLinetypeTableRecord
70
0
2
ByLayer
3

72
65
73
0
40
0
0
LTYPE
5
16
100
AcDbSymbolTableRecord
100
AcDbLinetypeTableRecord
70
0
2
CONTINUOUS
3
Solid line
72
65
73
0
40
0
0
LTYPE
5
6A
100
AcDbSymbolTableRecord
100
AcDbLinetypeTableRecord
70
0
2
CENTER
3
____ _ ____ _ ____ _ ____
72
65
73
4
40
47.5
49
22
74
0
49
-8.5
74
0
49
8.5
74
0
49
-8.5
74
0
0
LTYPE
5
6B
100
AcDbSymbolTableRecord
100
AcDbLinetypeTableRecord
70
0
2
DASHED
3
__ __ __ __ __ __ __ __ __
72
65
73
2
40
25.72
49
12.86
74
0
49
-12.86
74
0
0
ENDTAB
0
TABLE
2
LAYER
5
19c
100
AcDbSymbolTable
0
LAYER
5
10
100
AcDbSymbolTableRecord
100
AcDbLayerTableRecord
2
0
70
0
62
7
6
CONTINUOUS
290
1
370
-3
390
0
0
LAYER
5
6D
100
AcDbSymbolTableRecord
100
AcDbLayerTableRecord
2
81
70
0
62
-3
6
CONTINUOUS
290
1
370
-3
390
0
0
LAYER
5
6F
100
AcDbSymbolTableRecord
100
AcDbLayerTableRecord
2
80
70
0
62
-6
6
CONTINUOUS
290
1
370
-3
390
0
0
LAYER
5
74
100
AcDbSymbolTableRecord
100
AcDbLayerTableRecord
2
2
70
0
62
7
6
CONTINUOUS
290
1
370
-3
390
0
0
LAYER
5
78
100
AcDbSymbolTableRecord
100
AcDbLayerTableRecord
2
1
70
0
62
4
6
CONTINUOUS
290
1
370
-3
390
0
0
LAYER
5
8A
100
AcDbSymbolTableRecord
100
AcDbLayerTableRecord
2
4
70
0
62
-2
6
CENTER
290
1
370
-3
390
0
0
LAYER
5
186
100
AcDbSymbolTableRecord
100
AcDbLayerTableRecord
2
SK2
70
0
62
7
6
CONTINUOUS
290
1
370
-3
390
0
0
LAYER
5
187
100
AcDbSymbolTableRecord
100
AcDbLayerTableRecord
2
SK1
70
0
62
4
6
CONTINUOUS
290
1
370
-3
390
0
0
LAYER
5
188
100
AcDbSymbolTableRecord
100
AcDbLayerTableRecord
2
SK4
70
0
62
2
6
CENTER
290
1
370
-3
390
0
0
LAYER
5
189
100
AcDbSymbolTableRecord
100
AcDbLayerTableRecord
2
SK6
70
0
62
5
6
CONTINUOUS
290
1
370
-3
390
0
0
ENDTAB
0
TABLE
2
STYLE
5
19d
100
AcDbSymbolTable
0
STYLE
5
11
100
AcDbSymbolTableRecord
100
AcDbTextStyleTableRecord
2
Standard
3
txt
70
0
71
0
40
0
41
1
42
0
50
0
0
STYLE
5
E2
100
AcDbSymbolTableRecord
100
AcDbTextStyleTableRecord
2
iso_b_vert
3
simplex.shx
70
0
71
0
40
0
41
1
42
0
50
0
0
STYLE
5
E3
100
AcDbSymbolTableRecord
100
AcDbTextStyleTableRecord
2
DWGDirectTextStyle
3
simplex
70
0
71
0
40
0
41
1
42
0
50
0
0
ENDTAB
0
TABLE
2
DIMSTYLE
5
19e
100
AcDbSymbolTable
100
AcDbDimStyleTable
0
DIMSTYLE
105
27
100
AcDbSymbolTableRecord
100
AcDbDimStyleTableRecord
2
Standard
70
0
3
<>
41
0.18
42
0.0625
44
0.18
140
0.18
147
0.09
73
0
74
0
77
1
271
2
275
0
278
52
280
0
340
11
0
ENDTAB
0
TABLE
2
VIEW
5
19f
100
AcDbSymbolTable
0
ENDTAB
0
TABLE
2
UCS
5
1a0
100
AcDbSymbolTable
0
ENDTAB
0
TABLE
2
APPID
5
1a1
100
AcDbSymbolTable
0
APPID
5
12
100
AcDbSymbolTableRecord
100
AcDbRegAppTableRecord
2
ACAD
70
0
0
ENDTAB
0
TABLE
2
BLOCK_RECORD
5
1a2
100
AcDbSymbolTable
0
BLOCK_RECORD
5
1F
100
AcDbSymbolTableRecord
100
AcDbBlockTableRecord
2
*Model_Space
340
0
70
0
0
BLOCK_RECORD
5
1B
100
AcDbSymbolTableRecord
100
AcDbBlockTableRecord
2
*Paper_Space
340
0
70
0
0
BLOCK_RECORD
5
23
100
AcDbSymbolTableRecord
100
AcDbBlockTableRecord
2
*Paper_Space0
340
0
70
0
0
BLOCK_RECORD
5
E5
100
AcDbSymbolTableRecord
100
AcDbBlockTableRecord
2
DimnDraft3D1
340
0
70
0
0
BLOCK_RECORD
5
EF
100
AcDbSymbolTableRecord
100
AcDbBlockTableRecord
2
DimnDraft3D2
340
0
70
0
0
BLOCK_RECORD
5
F9
100
AcDbSymbolTableRecord
100
AcDbBlockTableRecord
2
DimnDraft3D3
340
0
70
0
0
BLOCK_RECORD
5
103
100
AcDbSymbolTableRecord
100
AcDbBlockTableRecord
2
DimnDraft3D4
340
0
70
0
0
BLOCK_RECORD
5
10D
100
AcDbSymbolTableRecord
100
AcDbBlockTableRecord
2
DimnDraft3D5
340
0
70
0
0
BLOCK_RECORD
5
117
100
AcDbSymbolTableRecord
100
AcDbBlockTableRecord
2
DimnDraft3D6
340
0
70
0
0
BLOCK_RECORD
5
122
100
AcDbSymbolTableRecord
100
AcDbBlockTableRecord
2
DimnDraft3D7
340
0
70
0
0
ENDTAB
0
ENDSEC
0
SECTION
2
BLOCKS
0
BLOCK
5
20
100
AcDbEntity
8
0
100
AcDbBlockBegin
2
*Model_Space
70
0
10
0
20
0
30
0
3
*Model_Space
0
ENDBLK
5
21
100
AcDbEntity
8
0
100
AcDbBlockEnd
0
BLOCK
5
1C
100
AcDbEntity
8
0
100
AcDbBlockBegin
2
*Paper_Space
70
0
10
0
20
0
30
0
3
*Paper_Space
0
ENDBLK
5
1D
100
AcDbEntity
8
0
100
AcDbBlockEnd
0
BLOCK
5
24
100
AcDbEntity
8
0
100
AcDbBlockBegin
2
*Paper_Space0
70
0
10
0
20
0
30
0
3
*Paper_Space0
0
ENDBLK
5
25
100
AcDbEntity
8
0
100
AcDbBlockEnd
0
BLOCK
5
EC
100
AcDbEntity
8
0
100
AcDbBlockBegin
2
DimnDraft3D1
70
0
10
0
20
0
30
0
3
DimnDraft3D1
0
MTEXT
5
E6
100
AcDbEntity
8
SK2
62
256
6
ByLayer
370
13
48
1
60
0
100
AcDbMText
10
16.412954
20
-12.338398
30
0
210
0
220
0
230
1
1
\W0.7845;44,98
40
3.5
41
0
44
1.084337
50
0
71
7
72
5
7
iso_b_vert
0
LINE
5
E7
100
AcDbEntity
8
SK2
62
256
6
ByLayer
370
13
48
1
60
0
100
AcDbLine
10
0
20
-1.5875
30
0
11
0
21
-15.213398
31
0
39
0
210
0
220
0
230
1
0
LINE
5
E8
100
AcDbEntity
8
SK2
62
256
6
ByLayer
370
13
48
1
60
0
100
AcDbLine
10
44.98
20
-4.5875
30
0
11
44.98
21
-15.213398
31
0
39
0
210
0
220
0
230
1
0
LINE
5
E9
100
AcDbEntity
8
SK2
62
256
6
ByLayer
370
13
48
1
60
0
100
AcDbLine
10
0
20
-13.213398
30
0
11
44.98
21
-13.213398
31
0
39
0
210
0
220
0
230
1
0
SOLID
5
EA
100
AcDbEntity
8
SK2
62
256
6
ByLayer
370
13
48
1
60
0
100
AcDbTrace
10
0
20
-13.213398
30
0
11
3.499998
21
-12.752615
31
0
12
3.500002
22
-13.674182
32
0
13
0
23
-13.213398
33
0
39
0
210
0
220
0
230
1
0
SOLID
5
EB
100
AcDbEntity
8
SK2
62
256
6
ByLayer
370
13
48
1
60
0
100
AcDbTrace
10
44.98
20
-13.213398
30
0
11
41.480002
21
-13.674182
31
0
12
41.479998
22
-12.752615
32
0
13
44.98
23
-13.213398
33
0
39
0
210
0
220
0
230
1
0
ENDBLK
5
ED
100
AcDbEntity
8
0
100
AcDbBlockEnd
0
BLOCK
5
F6
100
AcDbEntity
8
0
100
AcDbBlockBegin
2
DimnDraft3D2
70
0
10
0
20
0
30
0
3
DimnDraft3D2
0
MTEXT
5
F0
100
AcDbEntity
8
SK2
62
256
6
ByLayer
370
13
48
1
60
0
100
AcDbMText
10
0.872616
20
-30.817985
30
0
210
0
220
0
230
1
1
\W0.7317;82,00
40
3.5
41
0
44
1.084337
50
0
71
7
72
5
7
iso_b_vert
0
LINE
5
F1
100
AcDbEntity
8
SK2
62
256
6
ByLayer
370
13
48
1
60
0
100
AcDbLine
10
-36
20
-4.5875
30
0
11
-36
21
-33.692985
31
0
39
0
210
0
220
0
230
1
0
LINE
5
F2
100
AcDbEntity
8
SK2
62
256
6
ByLayer
370
13
48
1
60
0
100
AcDbLine
10
46
20
-1.5875
30
0
11
46
21
-33.692985
31
0
39
0
210
0
220
0
230
1
0
LINE
5
F3
100
AcDbEntity
8
SK2
62
256
6
ByLayer
370
13
48
1
60
0
100
AcDbLine
10
-36
20
-31.692985
30
0
11
46
21
-31.692985
31
0
39
0
210
0
220
0
230
1
0
SOLID
5
F4
100
AcDbEntity
8
SK2
62
256
6
ByLayer
370
13
48
1
60
0
100
AcDbTrace
10
-36
20
-31.692985
30
0
11
-32.500002
21
-31.232202
31
0
12
-32.499998
22
-32.153769
32
0
13
-36
23
-31.692985
33
0
39
0
210
0
220
0
230
1
0
SOLID
5
F5
100
AcDbEntity
8
SK2
62
256
6
ByLayer
370
13
48
1
60
0
100
AcDbTrace
10
46
20
-31.692985
30
0
11
42.500002
21
-32.153769
31
0
12
42.499998
22
-31.232202
32
0
13
46
23
-31.692985
33
0
39
0
210
0
220
0
230
1
0
ENDBLK
5
F7
100
AcDbEntity
8
0
100
AcDbBlockEnd
0
BLOCK
5
100
100
AcDbEntity
8
0
100
AcDbBlockBegin
2
DimnDraft3D3
70
0
10
0
20
0
30
0
3
DimnDraft3D3
0
MTEXT
5
FA
100
AcDbEntity
8
SK2
62
256
6
ByLayer
370
13
48
1
60
0
100
AcDbMText
10
26.478816
20
15.484119
30
0
210
0
220
0
230
1
1
\W0.6713;31,02
40
3.5
41
0
44
1.084337
50
0
71
7
72
5
7
iso_b_vert
0
LINE
5
FB
100
AcDbEntity
8
SK2
62
256
6
ByLayer
370
13
48
1
60
0
100
AcDbLine
10
14.98
20
4.5875
30
0
11
14.98
21
16.609119
31
0
39
0
210
0
220
0
230
1
0
LINE
5
FC
100
AcDbEntity
8
SK2
62
256
6
ByLayer
370
13
48
1
60
0
100
AcDbLine
10
46
20
1.5875
30
0
11
46
21
16.609119
31
0
39
0
210
0
220
0
230
1
0
LINE
5
FD
100
AcDbEntity
8
SK2
62
256
6
ByLayer
370
13
48
1
60
0
100
AcDbLine
10
14.98
20
14.609119
30
0
11
46
21
14.609119
31
0
39
0
210
0
220
0
230
1
0
SOLID
5
FE
100
AcDbEntity
8
SK2
62
256
6
ByLayer
370
13
48
1
60
0
100
AcDbTrace
10
14.98
20
14.609119
30
0
11
18.479998
21
15.069903
31
0
12
18.480002
22
14.148335
32
0
13
14.98
23
14.609119
33
0
39
0
210
0
220
0
230
1
0
SOLID
5
FF
100
AcDbEntity
8
SK2
62
256
6
ByLayer
370
13
48
1
60
0
100
AcDbTrace
10
46
20
14.609119
30
0
11
42.500002
21
14.148335
31
0
12
42.499998
22
15.069903
32
0
13
46
23
14.609119
33
0
39
0
210
0
220
0
230
1
0
ENDBLK
5
101
100
AcDbEntity
8
0
100
AcDbBlockEnd
0
BLOCK
5
10A
100
AcDbEntity
8
0
100
AcDbBlockBegin
2
DimnDraft3D4
70
0
10
0
20
0
30
0
3
DimnDraft3D4
0
MTEXT
5
104
100
AcDbEntity
8
SK2
62
256
6
ByLayer
370
13
48
1
60
0
100
AcDbMText
10
53.278136
20
-14.927503
30
0
210
0
220
0
230
1
1
\W0.6367;1,02
40
3.5
41
0
44
1.084337
50
0
71
7
72
5
7
iso_b_vert
0
LINE
5
105
100
AcDbEntity
8
SK2
62
256
6
ByLayer
370
13
48
1
60
0
100
AcDbLine
10
46
20
-1.5875
30
0
11
46
21
-17.802503
31
0
39
0
210
0
220
0
230
1
0
LINE
5
106
100
AcDbEntity
8
SK2
62
256
6
ByLayer
370
13
48
1
60
0
100
AcDbLine
10
44.98
20
-4.5875
30
0
11
44.98
21
-17.802503
31
0
39
0
210
0
220
0
230
1
0
LINE
5
107
100
AcDbEntity
8
SK2
62
256
6
ByLayer
370
13
48
1
60
0
100
AcDbLine
10
36.23
20
-15.802503
30
0
11
59.559715
21
-15.802503
31
0
39
0
210
0
220
0
230
1
0
SOLID
5
108
100
AcDbEntity
8
SK2
62
256
6
ByLayer
370
13
48
1
60
0
100
AcDbTrace
10
46
20
-15.802503
30
0
11
49.499998
21
-15.341719
31
0
12
49.500002
22
-16.263287
32
0
13
46
23
-15.802503
33
0
39
0
210
0
220
0
230
1
0
SOLID
5
109
100
AcDbEntity
8
SK2
62
256
6
ByLayer
370
13
48
1
60
0
100
AcDbTrace
10
44.98
20
-15.802503
30
0
11
41.480002
21
-16.263287
31
0
12
41.479998
22
-15.341719
32
0
13
44.98
23
-15.802503
33
0
39
0
210
0
220
0
230
1
0
ENDBLK
5
10B
100
AcDbEntity
8
0
100
AcDbBlockEnd
0
BLOCK
5
114
100
AcDbEntity
8
0
100
AcDbBlockBegin
2
DimnDraft3D5
70
0
10
0
20
0
30
0
3
DimnDraft3D5
0
MTEXT
5
10E
100
AcDbEntity
8
SK2
62
256
6
ByLayer
370
13
48
1
60
0
100
AcDbMText
10
-2.208008
20
-20.468428
30
0
210
0
220
0
230
1
1
\W0.7317;80,98
40
3.5
41
0
44
1.084337
50
0
71
7
72
5
7
iso_b_vert
0
LINE
5
10F
100
AcDbEntity
8
SK2
62
256
6
ByLayer
370
13
48
1
60
0
100
AcDbLine
10
-36
20
-4.5875
30
0
11
-36
21
-23.343428
31
0
39
0
210
0
220
0
230
1
0
LINE
5
110
100
AcDbEntity
8
SK2
62
256
6
ByLayer
370
13
48
1
60
0
100
AcDbLine
10
44.98
20
-4.5875
30
0
11
44.98
21
-23.343428
31
0
39
0
210
0
220
0
230
1
0
LINE
5
111
100
AcDbEntity
8
SK2
62
256
6
ByLayer
370
13
48
1
60
0
100
AcDbLine
10
-36
20
-21.343428
30
0
11
44.98
21
-21.343428
31
0
39
0
210
0
220
0
230
1
0
SOLID
5
112
100
AcDbEntity
8
SK2
62
256
6
ByLayer
370
13
48
1
60
0
100
AcDbTrace
10
-36
20
-21.343428
30
0
11
-32.500002
21
-20.882645
31
0
12
-32.499998
22
-21.804212
32
0
13
-36
23
-21.343428
33
0
39
0
210
0
220
0
230
1
0
SOLID
5
113
100
AcDbEntity
8
SK2
62
256
6
ByLayer
370
13
48
1
60
0
100
AcDbTrace
10
44.98
20
-21.343428
30
0
11
41.480002
21
-21.804212
31
0
12
41.479998
22
-20.882645
32
0
13
44.98
23
-21.343428
33
0
39
0
210
0
220
0
230
1
0
ENDBLK
5
115
100
AcDbEntity
8
0
100
AcDbBlockEnd
0
BLOCK
5
11F
100
AcDbEntity
8
0
100
AcDbBlockBegin
2
DimnDraft3D6
70
0
10
0
20
0
30
0
3
DimnDraft3D6
0
MTEXT
5
118
100
AcDbEntity
8
SK2
62
256
6
ByLayer
370
13
48
1
60
0
100
AcDbMText
10
-46.375163
20
22.34918
30
0
210
0
220
0
230
1
1
\W0.7317;6,000
40
3.5
41
0
44
1.084337
50
90
71
7
72
5
7
iso_b_vert
0
MTEXT
5
119
100
AcDbEntity
8
SK2
62
256
6
ByLayer
370
13
48
1
60
0
100
AcDbMText
10
-46.375163
20
17.126524
30
0
210
0
220
0
230
1
1
%%c
40
3.5
41
0
44
1.084337
50
90
71
7
72
5
7
iso_b_vert
0
LINE
5
11A
100
AcDbEntity
8
SK2
62
256
6
ByLayer
370
13
48
1
60
0
100
AcDbLine
10
-37.5875
20
-3
30
0
11
-46.625163
21
-3
31
0
39
0
210
0
220
0
230
1
0
LINE
5
11B
100
AcDbEntity
8
SK2
62
256
6
ByLayer
370
13
48
1
60
0
100
AcDbLine
10
-37.5875
20
3
30
0
11
-46.625163
21
3
31
0
39
0
210
0
220
0
230
1
0
LINE
5
11C
100
AcDbEntity
8
SK2
62
256
6
ByLayer
370
13
48
1
60
0
100
AcDbLine
10
-44.625163
20
32.121549
30
0
11
-44.625163
21
-11.75
31
0
39
0
210
0
220
0
230
1
0
SOLID
5
11D
100
AcDbEntity
8
SK2
62
256
6
ByLayer
370
13
48
1
60
0
100
AcDbTrace
10
-44.625163
20
-3
30
0
11
-44.164379
21
-6.499998
31
0
12
-45.085946
22
-6.500002
32
0
13
-44.625163
23
-3
33
0
39
0
210
0
220
0
230
1
0
SOLID
5
11E
100
AcDbEntity
8
SK2
62
256
6
ByLayer
370
13
48
1
60
0
100
AcDbTrace
10
-44.625163
20
3
30
0
11
-45.085946
21
6.499998
31
0
12
-44.164379
22
6.500002
32
0
13
-44.625163
23
3
33
0
39
0
210
0
220
0
230
1
0
ENDBLK
5
120
100
AcDbEntity
8
0
100
AcDbBlockEnd
0
BLOCK
5
12A
100
AcDbEntity
8
0
100
AcDbBlockBegin
2
DimnDraft3D7
70
0
10
0
20
0
30
0
3
DimnDraft3D7
0
MTEXT
5
123
100
AcDbEntity
8
2
62
256
6
ByLayer
370
13
48
1
60
0
100
AcDbMText
10
56.333343
20
20.942266
30
0
210
0
220
0
230
1
1
\W0.7317;6,000
40
3.5
41
0
44
1.084337
50
90
71
7
72
5
7
iso_b_vert
0
MTEXT
5
124
100
AcDbEntity
8
2
62
256
6
ByLayer
370
13
48
1
60
0
100
AcDbMText
10
56.333343
20
15.71961
30
0
210
0
220
0
230
1
1
%%c
40
3.5
41
0
44
1.084337
50
90
71
7
72
5
7
iso_b_vert
0
LINE
5
125
100
AcDbEntity
8
2
62
256
6
ByLayer
370
13
48
1
60
0
100
AcDbLine
10
46.5675
20
-3
30
0
11
60.083343
21
-3
31
0
39
0
210
0
220
0
230
1
0
LINE
5
126
100
AcDbEntity
8
2
62
256
6
ByLayer
370
13
48
1
60
0
100
AcDbLine
10
46.5675
20
3
30
0
11
60.083343
21
3
31
0
39
0
210
0
220
0
230
1
0
LINE
5
127
100
AcDbEntity
8
2
62
256
6
ByLayer
370
13
48
1
60
0
100
AcDbLine
10
58.083343
20
30.714635
30
0
11
58.083343
21
-11.75
31
0
39
0
210
0
220
0
230
1
0
SOLID
5
128
100
AcDbEntity
8
2
62
256
6
ByLayer
370
13
48
1
60
0
100
AcDbTrace
10
58.083343
20
-3
30
0
11
58.544126
21
-6.499998
31
0
12
57.622559
22
-6.500002
32
0
13
58.083343
23
-3
33
0
39
0
210
0
220
0
230
1
0
SOLID
5
129
100
AcDbEntity
8
2
62
256
6
ByLayer
370
13
48
1
60
0
100
AcDbTrace
10
58.083343
20
3
30
0
11
57.622559
21
6.499998
31
0
12
58.544126
22
6.500002
32
0
13
58.083343
23
3
33
0
39
0
210
0
220
0
230
1
0
ENDBLK
5
12B
100
AcDbEntity
8
0
100
AcDbBlockEnd
0
ENDSEC
0
SECTION
2
ENTITIES
0
ELLIPSE
5
9B
100
AcDbEntity
8
1
62
256
6
ByLayer
370
18
48
1
60
0
100
AcDbEllipse
10
4.25
20
3.081111
30
0
11
-0.25
21
3.06151588455594E-17
31
0
210
0
220
0
230
1
40
1
41
0.456722557151469
42
1.57990371394215
0
ELLIPSE
5
9C
100
AcDbEntity
8
1
62
256
6
ByLayer
370
18
48
1
60
0
100
AcDbEllipse
10
4.25
20
-3.081111
30
0
11
-0.25
21
3.06151588455594E-17
31
0
210
0
220
0
230
1
40
1
41
-1.56752113403435
42
-0.457446391814566
0
ELLIPSE
5
9D
100
AcDbEntity
8
1
62
256
6
ByLayer
370
18
48
1
60
0
100
AcDbEllipse
10
46.000269
20
-0.000655
30
0
11
1.10780535924319
21
-2.99786554185876
31
0
210
0
220
0
230
-1
40
0.115174
41
-2.97029565011108
42
-2.85671560691718
0
ELLIPSE
5
9E
100
AcDbEntity
8
1
62
256
6
ByLayer
370
18
48
1
60
0
100
AcDbEllipse
10
45.408992
20
1.495617
30
0
11
0.465188396118118
21
-1.25886037550506
31
0
210
0
220
0
230
-1
40
0.115174
41
-1.51764853334888
42
-0.742863466703448
0
ELLIPSE
5
9F
100
AcDbEntity
8
1
62
256
6
ByLayer
370
18
48
1
60
0
100
AcDbEllipse
10
45.860652
20
0.103002
30
0
11
0.0727819104927533
21
0.301917195715015
31
0
210
0
220
0
230
-1
40
0.478434
41
1.69896781832479
42
2.45976119973127
0
ELLIPSE
5
A0
100
AcDbEntity
8
1
62
256
6
ByLayer
370
18
48
1
60
0
100
AcDbEllipse
10
45.408992
20
-1.495617
30
0
11
0.465188396157156
21
1.25886037558914
31
0
210
0
220
0
230
-1
40
0.115174
41
0.74286346670376
42
1.51764853330176
0
ELLIPSE
5
A1
100
AcDbEntity
8
1
62
256
6
ByLayer
370
13
48
1
60
0
100
AcDbEllipse
10
45.61071
20
1.37242
30
0
11
1.79065312965345
21
-1.23291559945975
31
0
210
0
220
0
230
-1
40
0.533762
41
1.44484622740721
42
1.72217915952597
0
ELLIPSE
5
A2
100
AcDbEntity
8
1
62
256
6
ByLayer
370
13
48
1
60
0
100
AcDbEllipse
10
4.25024
20
1.666661
30
0
11
0.0450935470016491
21
0.0892556553883846
31
0
210
0
220
0
230
1
40
0.298975
41
-2.35391172732841
42
-2.10208539396464
0
ELLIPSE
5
A3
100
AcDbEntity
8
1
62
256
6
ByLayer
370
18
48
1
60
0
100
AcDbEllipse
10
46.000269
20
0.000655
30
0
11
1.10780534730668
21
2.99786550666197
31
0
210
0
220
0
230
-1
40
0.115174
41
2.8567156052282
42
2.97029564910041
0
ELLIPSE
5
A4
100
AcDbEntity
8
1
62
256
6
ByLayer
370
18
48
1
60
0
100
AcDbEllipse
10
46.048116
20
-0.008226
30
0
11
0.137979128909754
21
-0.428995648252831
31
0
210
0
220
0
230
-1
40
0.08774
41
1.6879057011737
42
2.3233757212566
0
ELLIPSE
5
A5
100
AcDbEntity
8
1
62
256
6
ByLayer
370
13
48
1
60
0
100
AcDbEllipse
10
45.372684
20
0.392531
30
0
11
0.153082081612423
21
0.25800363619377
31
0
210
0
220
0
230
1
40
0.454519
41
0.917105603404854
42
2.31336900500025
0
ELLIPSE
5
A6
100
AcDbEntity
8
1
62
256
6
ByLayer
370
18
48
1
60
0
100
AcDbEllipse
10
46.048116
20
0.008226
30
0
11
0.137979128865544
21
0.428995648137643
31
0
210
0
220
0
230
-1
40
0.08774
41
-2.32337572126993
42
-1.68790570102757
0
ELLIPSE
5
A7
100
AcDbEntity
8
1
62
256
6
ByLayer
370
13
48
1
60
0
100
AcDbEllipse
10
45.800617
20
1.495617
30
0
11
1.85936877586522
21
-0.890468372389538
31
0
210
0
220
0
230
-1
40
0.479432
41
1.57134185299448
42
1.86438621645505
0
POINT
5
6C
100
AcDbEntity
8
81
62
256
6
ByLayer
370
18
48
1
60
0
100
AcDbPoint
10
46
20
0
30
0
39
0
210
0
220
0
230
1
50
360
0
POINT
5
6E
100
AcDbEntity
8
80
62
256
6
ByLayer
370
18
48
1
60
0
100
AcDbPoint
10
0
20
0
30
0
39
0
210
0
220
0
230
1
50
360
0
POINT
5
70
100
AcDbEntity
8
SK2
62
256
6
ByLayer
370
18
48
1
60
1
100
AcDbPoint
10
-36
20
-3
30
0
39
0
210
0
220
0
230
1
50
360
0
POINT
5
72
100
AcDbEntity
8
SK2
62
256
6
ByLayer
370
18
48
1
60
1
100
AcDbPoint
10
-36
20
3
30
0
39
0
210
0
220
0
230
1
50
360
0
POINT
5
73
100
AcDbEntity
8
2
62
256
6
ByLayer
370
18
48
1
60
1
100
AcDbPoint
10
44.98
20
-3
30
0
39
0
210
0
220
0
230
1
50
360
0
POINT
5
75
100
AcDbEntity
8
2
62
256
6
ByLayer
370
18
48
1
60
1
100
AcDbPoint
10
44.98
20
3
30
0
39
0
210
0
220
0
230
1
50
360
0
SPLINE
5
A8
100
AcDbEntity
8
1
62
256
6
ByLayer
370
18
48
1
60
0
100
AcDbSpline
70
4
71
1
72
4
73
2
40
0
40
0
40
1
40
1
41
1
10
4.03751573481841
20
1.74213820791988
30
0
41
1
10
4.03831223820958
20
1.74053632041361
30
0
0
SPLINE
5
A9
100
AcDbEntity
8
1
62
256
6
ByLayer
370
18
48
1
60
0
100
AcDbSpline
70
4
71
3
72
22
73
18
40
0
40
0
40
0
40
0
40
0.0971655044438986
40
0.181007993392471
40
0.255411321575253
40
0.320654439629512
40
0.380707366544273
40
0.449474445685557
40
0.527862073936468
40
0.610834398746224
40
0.690232695103212
40
0.720870245702928
40
0.748027293260756
40
0.790702621273824
40
0.852172875944457
40
0.932281028096257
40
1
40
1
40
1
40
1
41
1
10
14.5728321426573
20
-2.83676043382076
30
0
41
1
10
14.8130963023919
20
-2.83559654218121
30
0
41
1
10
15.2621010475057
20
-2.83455423735333
30
0
41
1
10
15.9145431601967
20
-2.83485559309526
30
0
41
1
10
16.4632936511637
20
-2.83934434899123
30
0
41
1
10
16.9685337742838
20
-2.83831812166585
30
0
41
1
10
17.4583404716833
20
-2.83841065433401
30
0
41
1
10
17.9816931705963
20
-2.84111869247494
30
0
41
1
10
18.5630302386722
20
-2.83786076600066
30
0
41
1
10
19.1712043430238
20
-2.84264476662293
30
0
41
1
10
19.6587957950696
20
-2.84017405957107
30
0
41
1
10
20.005343243593
20
-2.84037366936178
30
0
41
1
10
20.2590113704623
20
-2.84142205526365
30
0
41
1
10
20.5907713254128
20
-2.84260055383615
30
0
41
1
10
21.05613848698
20
-2.84095992409826
30
0
41
1
10
21.5848523434902
20
-2.84377247277007
30
0
41
1
10
21.9582848244434
20
-2.84309148243628
30
0
41
1
10
22.129357896444
20
-2.84267082019747
30
0
0
SPLINE
5
AA
100
AcDbEntity
8
1
62
256
6
ByLayer
370
18
48
1
60
0
100
AcDbSpline
70
4
71
2
72
6
73
3
40
0
40
0
40
0
40
1
40
1
40
1
41
1
10
44.5177169589397
20
-2.85482853624436
30
0
41
1
10
44.7393575516939
20
-2.85308047007422
30
0
41
1
10
44.9608023326598
20
-2.85561259640696
30
0
0
SPLINE
5
AB
100
AcDbEntity
8
1
62
256
6
ByLayer
370
18
48
1
60
0
100
AcDbSpline
70
4
71
3
72
19
73
15
40
0
40
0
40
0
40
0
40
0.0999566004583775
40
0.205506076254613
40
0.28125421093126
40
0.334776815902638
40
0.455235793206338
40
0.568041051235835
40
0.677648532653931
40
0.799615895918739
40
0.843959264063801
40
0.901180083578596
40
0.980634702115062
40
1
40
1
40
1
40
1
41
1
10
37.1056943692774
20
2.85135279682123
30
0
41
1
10
36.8966748826527
20
2.85152273696301
30
0
41
1
10
36.46684045602
20
2.85183270831732
30
0
41
1
10
35.8788328202094
20
2.84849676879159
30
0
41
1
10
35.3869171065112
20
2.85086319644148
30
0
41
1
10
34.8661945234317
20
2.8488092426087
30
0
41
1
10
34.2655273908081
20
2.85059436214641
30
0
41
1
10
33.5482661536557
20
2.84744421400219
30
0
41
1
10
32.8276818903063
20
2.84931062842949
30
0
41
1
10
32.2503715755942
20
2.84719039196332
30
0
41
1
10
31.7826589371104
20
2.84786890555606
30
0
41
1
10
31.4038986123748
20
2.84754766748844
30
0
41
1
10
31.077458782358
20
2.84689015065908
30
0
41
1
10
30.8706845774431
20
2.84673554656112
30
0
41
1
10
30.8301631377461
20
2.8467124526687
30
0
0
SPLINE
5
AC
100
AcDbEntity
8
1
62
256
6
ByLayer
370
18
48
1
60
0
100
AcDbSpline
70
4
71
3
72
10
73
6
40
0
40
0
40
0
40
0
40
0.064947386842205
40
0.4002009854485
40
1
40
1
40
1
40
1
41
1
10
37.4826252174792
20
-0.679859980966341
30
0
41
1
10
37.4826782565997
20
-0.67995439641976
30
0
41
1
10
37.4843989672601
20
-0.681237937775336
30
0
41
1
10
37.5124441864763
20
-0.69640461446653
30
0
41
1
10
37.5551484138121
20
-0.722579215170242
30
0
41
1
10
37.593166581734
20
-0.745838901642344
30
0
0
SPLINE
5
AD
100
AcDbEntity
8
1
62
256
6
ByLayer
370
18
48
1
60
0
100
AcDbSpline
70
4
71
3
72
24
73
20
40
0
40
0
40
0
40
0
40
0.0781458720229813
40
0.154519050374745
40
0.230459206293689
40
0.295721229677819
40
0.346067081876306
40
0.38564793012399
40
0.44263659596483
40
0.509444043035832
40
0.570272539978366
40
0.619519010514098
40
0.660375526609515
40
0.683992368988021
40
0.713754163004326
40
0.76355538772616
40
0.833398137672291
40
0.922913059425437
40
1
40
1
40
1
40
1
41
1
10
29.5388280296693
20
-2.84592633692822
30
0
41
1
10
29.7309918497891
20
-2.84525933538495
30
0
41
1
10
30.1131900705952
20
-2.84450765908639
30
0
41
1
10
30.698218418985
20
-2.84272296121469
30
0
41
1
10
31.24080876753
20
-2.84699359301496
30
0
41
1
10
31.7177966391932
20
-2.84810599612865
30
0
41
1
10
32.1092690842719
20
-2.84713867652275
30
0
41
1
10
32.4793183976667
20
-2.84748664160682
30
0
41
1
10
32.8913788789272
20
-2.84906807470463
30
0
41
1
10
33.3570803361467
20
-2.84795408799519
30
0
41
1
10
33.803244784546
20
-2.84871855869702
30
0
41
1
10
34.1839622519011
20
-2.84999586450817
30
0
41
1
10
34.4708212572206
20
-2.84940059699162
30
0
41
1
10
34.7084424583233
20
-2.84909670553336
30
0
41
1
10
34.9686271056584
20
-2.84921212856472
30
0
41
1
10
35.3454894895565
20
-2.85133957966721
30
0
41
1
10
35.8730565000115
20
-2.84866456175067
30
0
41
1
10
36.4695296921835
20
-2.85190383696926
30
0
41
1
10
36.8896708543625
20
-2.85156385776656
30
0
41
1
10
37.0840556909372
20
-2.85138657383098
30
0
0
SPLINE
5
AE
100
AcDbEntity
8
1
62
256
6
ByLayer
370
18
48
1
60
0
100
AcDbSpline
70
4
71
3
72
20
73
16
40
0
40
0
40
0
40
0
40
0.0821216711085771
40
0.179128384891886
40
0.253565595597978
40
0.3225240003706
40
0.375224629372121
40
0.445599293589103
40
0.522142240643384
40
0.596295871834619
40
0.666770327515921
40
0.765201106880065
40
0.853055771550518
40
0.954408837814777
40
1
40
1
40
1
40
1
41
1
10
22.1300938510242
20
2.84267012498046
30
0
41
1
10
21.9587754529474
20
2.84309159193478
30
0
41
1
10
21.5850963183703
20
2.84377796769505
30
0
41
1
10
21.0561435322882
20
2.84094218488593
30
0
41
1
10
20.554714957997
20
2.84277533495472
30
0
41
1
10
20.1455868726947
20
2.8407288288401
30
0
41
1
10
19.7451276238067
20
2.83994645324046
30
0
41
1
10
19.3286574050942
20
2.84221290357363
30
0
41
1
10
18.8674859273976
20
2.83951688619598
30
0
41
1
10
18.4061461452479
20
2.83893660567213
30
0
41
1
10
17.8989486746463
20
2.84094373384883
30
0
41
1
10
17.3642232806611
20
2.83786984639545
30
0
41
1
10
16.7618120264667
20
2.83917551471942
30
0
41
1
10
16.2797321196545
20
2.83783264340471
30
0
41
1
10
15.9746938873871
20
2.83642913514191
30
0
41
1
10
15.8799466431463
20
2.8360176402808
30
0
0
SPLINE
5
AF
100
AcDbEntity
8
1
62
256
6
ByLayer
370
18
48
1
60
0
100
AcDbSpline
70
4
71
3
72
11
73
7
40
0
40
0
40
0
40
0
40
0.165823162463523
40
0.435440487522028
40
0.741326481540089
40
1
40
1
40
1
40
1
41
1
10
7.18844358917559
20
2.83369070605372
30
0
41
1
10
7.02643722443986
20
2.83357894420541
30
0
41
1
10
6.60072940540476
20
2.83327995754718
30
0
41
1
10
5.87401755826983
20
2.83105925386513
30
0
41
1
10
5.05593963922115
20
2.83257589330759
30
0
41
1
10
4.50362881577601
20
2.83141789575174
30
0
41
1
10
4.25073477233448
20
2.83078655884896
30
0
0
SPLINE
5
B0
100
AcDbEntity
8
1
62
256
6
ByLayer
370
18
48
1
60
0
100
AcDbSpline
70
4
71
3
72
10
73
6
40
0
40
0
40
0
40
0
40
0.0480219898842626
40
0.420482289079173
40
1
40
1
40
1
40
1
41
1
10
22.5057056915213
20
-0.673293800909647
30
0
41
1
10
22.5056915055598
20
-0.673303378195214
30
0
41
1
10
22.5068987899045
20
-0.674057402686145
30
0
41
1
10
22.5395806610966
20
-0.690903101862887
30
0
41
1
10
22.5838142003614
20
-0.718570736998885
30
0
41
1
10
22.6209322579207
20
-0.741892460949032
30
0
0
SPLINE
5
B1
100
AcDbEntity
8
1
62
256
6
ByLayer
370
18
48
1
60
0
100
AcDbSpline
70
4
71
3
72
11
73
7
40
0
40
0
40
0
40
0
40
0.125805550192654
40
0.393486462620385
40
0.713313125484438
40
1
40
1
40
1
40
1
41
1
10
4.25070708179612
20
-2.83107840327361
30
0
41
1
10
4.37259529290856
20
-2.83148773658465
30
0
41
1
10
4.75383019107568
20
-2.83256490024334
30
0
41
1
10
5.44490674301528
20
-2.83313142526831
30
0
41
1
10
6.29194315259087
20
-2.83234896974045
30
0
41
1
10
6.87952390636048
20
-2.8331408998356
30
0
41
1
10
7.15725355723518
20
-2.83362890029571
30
0
0
SPLINE
5
B2
100
AcDbEntity
8
1
62
256
6
ByLayer
370
18
48
1
60
0
100
AcDbSpline
70
4
71
3
72
14
73
10
40
0
40
0
40
0
40
0
40
0.25
40
0.25
40
0.5
40
0.5
40
0.75
40
0.75
40
1
40
1
40
1
40
1
41
1
10
44.6901130964512
20
0.613498733737998
30
0
41
1
10
44.685780522239
20
0.641563823042674
30
0
41
1
10
44.6852489331568
20
0.670229748100923
30
0
41
1
10
44.6923767553395
20
0.729185965306556
30
0
41
1
10
44.699965892525
20
0.758719816801062
30
0
41
1
10
44.7261734100115
20
0.815097698842692
30
0
41
1
10
44.7452088250589
20
0.841522067290327
30
0
41
1
10
44.7944436722546
20
0.880015468116255
30
0
41
1
10
44.8235808172765
20
0.892640521381509
30
0
41
1
10
44.8538817334202
20
0.900013323000593
30
0
0
SPLINE
5
B3
100
AcDbEntity
8
1
62
256
6
ByLayer
370
13
48
1
60
0
100
AcDbSpline
70
4
71
3
72
16
73
12
40
0
40
0
40
0
40
0
40
0.0748406158360951
40
0.0748406158360951
40
0.229033846530079
40
0.229033846530079
40
0.383227077224064
40
0.383227077224064
40
0.691613538612032
40
0.691613538612032
40
1
40
1
40
1
40
1
41
1
10
4.25073003272195
20
-2.83111138771506
30
0
41
1
10
4.2507368591275
20
-2.831277723254
30
0
41
1
10
4.2507439748322
20
-2.83032004192293
30
0
41
1
10
4.25076668375678
20
-2.8239530281862
30
0
41
1
10
4.25078332671762
20
-2.81479044486048
30
0
41
1
10
4.25081868427469
20
-2.78681096541442
30
0
41
1
10
4.25083734286153
20
-2.76808152574964
30
0
41
1
10
4.25089561130756
20
-2.69784528955654
30
0
41
1
10
4.25093797088707
20
-2.63153349023958
30
0
41
1
10
4.25101991170081
20
-2.46610291978314
30
0
41
1
10
4.25105975737685
20
-2.36693332093534
30
0
41
1
10
4.25109383671986
20
-2.25101980952437
30
0
0
SPLINE
5
B4
100
AcDbEntity
8
1
62
256
6
ByLayer
370
18
48
1
60
0
100
AcDbSpline
70
4
71
3
72
22
73
18
40
0
40
0
40
0
40
0
40
0.188412342593741
40
0.188412342593741
40
0.376824685187483
40
0.376824685187483
40
0.471030856484353
40
0.471030856484353
40
0.565237027781224
40
0.565237027781224
40
0.753649370374967
40
0.753649370374967
40
0.847855541671839
40
0.847855541671839
40
0.942061712968711
40
0.942061712968711
40
1
40
1
40
1
40
1
41
1
10
4.19786180553649
20
1.59518568647476
30
0
41
1
10
4.62588312994779
20
1.37472106391479
30
0
41
1
10
5.04956295013142
20
1.13736048469735
30
0
41
1
10
5.89585536868478
20
0.641379898449799
30
0
41
1
10
6.3184646923724
20
0.382739380963954
30
0
41
1
10
6.9584167628347
20
-0.0104055982751277
30
0
41
1
10
7.17348684357336
20
-0.142897736265013
30
0
41
1
10
7.60075726675328
20
-0.404601023836449
30
0
41
1
10
7.81332216798901
20
-0.534037578787519
30
0
41
1
10
8.44941216240827
20
-0.915619972975492
30
0
41
1
10
8.87129459276289
20
-1.16110170064289
30
0
41
1
10
9.507418494604
20
-1.50587683110689
30
0
41
1
10
9.7199505306713
20
-1.61697213194356
30
0
41
1
10
10.1470095241353
20
-1.82990539419379
30
0
41
1
10
10.3619864918206
20
-1.93187930827116
30
0
41
1
10
10.7064703195943
20
-2.08528984609515
30
0
41
1
10
10.8372749559234
20
-2.14125579752411
30
0
41
1
10
10.9678308788862
20
-2.1946582629389
30
0
0
SPLINE
5
B5
100
AcDbEntity
8
1
62
256
6
ByLayer
370
13
48
1
60
0
100
AcDbSpline
70
4
71
3
72
18
73
14
40
0
40
0
40
0
40
0
40
0.188356649885453
40
0.188356649885453
40
0.46035509348084
40
0.46035509348084
40
0.528354704379687
40
0.528354704379687
40
0.596354315278533
40
0.596354315278533
40
0.732353537076226
40
0.732353537076226
40
1
40
1
40
1
40
1
41
1
10
10.9678314354665
20
-2.194658490602
30
0
41
1
10
11.2618365015141
20
-2.31491801585415
30
0
41
1
10
11.554580276619
20
-2.42217741837649
30
0
41
1
10
12.2706066174309
20
-2.64951007194736
30
0
41
1
10
12.693772874949
20
-2.75427713602397
30
0
41
1
10
13.2284645798355
20
-2.84350104040047
30
0
41
1
10
13.3358649633739
20
-2.8592765463851
30
0
41
1
10
13.5498314735712
20
-2.88635326507213
30
0
41
1
10
13.6565205382507
20
-2.89768202518033
30
0
41
1
10
13.97589612614
20
-2.92505234303692
30
0
41
1
10
14.1879386131203
20
-2.9345329571984
30
0
41
1
10
14.8163672216753
20
-2.93689458005016
30
0
41
1
10
15.2315060298214
20
-2.90468370746797
30
0
41
1
10
15.6493064869703
20
-2.83944463483704
30
0
0
SPLINE
5
B6
100
AcDbEntity
8
1
62
256
6
ByLayer
370
18
48
1
60
0
100
AcDbSpline
70
4
71
3
72
26
73
22
40
0
40
0
40
0
40
0
40
0.0625293499681448
40
0.0625293499681448
40
0.10427282356789
40
0.10427282356789
40
0.146016297167634
40
0.146016297167634
40
0.229503244367119
40
0.229503244367119
40
0.396477138766089
40
0.396477138766089
40
0.479964085965576
40
0.479964085965576
40
0.563451033165063
40
0.563451033165063
40
0.73042492756404
40
0.73042492756404
40
0.897398821963018
40
0.897398821963018
40
1
40
1
40
1
40
1
41
1
10
33.0425999258993
20
2.12153172701665
30
0
41
1
10
33.20160531292
20
2.05336631818449
30
0
41
1
10
33.3610039430974
20
1.98145167538985
30
0
41
1
10
33.6277577618074
20
1.85550057095711
30
0
41
1
10
33.7350189471374
20
1.80348425929665
30
0
41
1
10
33.9487423706797
20
1.69732645486641
30
0
41
1
10
34.0553302733166
20
1.64307388902756
30
0
41
1
10
34.3743641631237
20
1.47696318425321
30
0
41
1
10
34.5860907760331
20
1.36176422457655
30
0
41
1
10
35.2201213672496
20
1.00556852164669
30
0
41
1
10
35.6418764539368
20
0.754876338269014
30
0
41
1
10
36.2779882436341
20
0.366406763439869
30
0
41
1
10
36.4907977562552
20
0.235172693472407
30
0
41
1
10
36.9188810001995
20
-0.0294635100174503
30
0
41
1
10
37.1325039233573
20
-0.16166146395247
30
0
41
1
10
37.7696519349807
20
-0.553811316316768
30
0
41
1
10
38.1910089462501
20
-0.810273074383332
30
0
41
1
10
39.0355541171982
20
-1.29965901179736
30
0
41
1
10
39.4594963134857
20
-1.53213181368048
30
0
41
1
10
40.1508083273956
20
-1.87751618664456
30
0
41
1
10
40.4120334286898
20
-2.00005958977781
30
0
41
1
10
40.6723292980254
20
-2.11277435733194
30
0
0
SPLINE
5
B7
100
AcDbEntity
8
1
62
256
6
ByLayer
370
13
48
1
60
0
100
AcDbSpline
70
4
71
3
72
14
73
10
40
0
40
0
40
0
40
0
40
0.40924990983261
40
0.40924990983261
40
0.556937432374457
40
0.556937432374457
40
0.704624954916303
40
0.704624954916303
40
1
40
1
40
1
40
1
41
1
10
40.6723283795973
20
-2.11277395962901
30
0
41
1
10
41.2592475576643
20
-2.36692502207782
30
0
41
1
10
41.8414423352211
20
-2.57110540829478
30
0
41
1
10
42.6423044058071
20
-2.76665013252176
30
0
41
1
10
42.8560315974557
20
-2.810697220533
30
0
41
1
10
43.2837261893159
20
-2.88155827087806
30
0
41
1
10
43.4967196577106
20
-2.90824858639044
30
0
41
1
10
44.1347935261558
20
-2.9619561174564
30
0
41
1
10
44.559025148092
20
-2.96248358641654
30
0
41
1
10
44.9853968337204
20
-2.92782833553076
30
0
0
SPLINE
5
B8
100
AcDbEntity
8
1
62
256
6
ByLayer
370
18
48
1
60
0
100
AcDbSpline
70
4
71
3
72
8
73
4
40
0
40
0
40
0
40
0
40
1
40
1
40
1
40
1
41
1
10
44.9675330549073
20
-2.97508412256448
30
0
41
1
10
44.9734925627109
20
-2.95934079814961
30
0
41
1
10
44.979447235337
20
-2.94358865323784
30
0
41
1
10
44.985396833721
20
-2.92782833553062
30
0
0
SPLINE
5
B9
100
AcDbEntity
8
1
62
256
6
ByLayer
370
18
48
1
60
0
100
AcDbSpline
70
4
71
3
72
12
73
8
40
0
40
0
40
0
40
0
40
0.250000000000002
40
0.250000000000002
40
0.500000000000003
40
0.500000000000003
40
1
40
1
40
1
40
1
41
1
10
4.25109383981834
20
-2.25101980953662
30
0
41
1
10
4.44937784423408
20
-2.33601381249232
30
0
41
1
10
4.6494141214379
20
-2.41079612887745
30
0
41
1
10
5.05276757853517
20
-2.54148788796053
30
0
41
1
10
5.25662099515966
20
-2.59750635512845
30
0
41
1
10
5.86746774311857
20
-2.73735601622991
30
0
41
1
10
6.27508622469671
20
-2.79401362908979
30
0
41
1
10
6.68853196050799
20
-2.81949187093215
30
0
0
SPLINE
5
BA
100
AcDbEntity
8
1
62
256
6
ByLayer
370
18
48
1
60
0
100
AcDbSpline
70
4
71
3
72
21
73
17
40
0
40
0
40
0
40
0
40
0.10940433082433
40
0.10940433082433
40
0.21880866164866
40
0.21880866164866
40
0.437617323297321
40
0.437617323297321
40
0.547021654121652
40
0.547021654121652
40
0.656425984945982
40
0.765830315770313
40
0.765830315770313
40
0.875234646594643
40
0.875234646594643
40
1
40
1
40
1
40
1
41
1
10
4.02331617095084
20
1.78166448259759
30
0
41
1
10
4.02332777985293
20
1.86238738492534
30
0
41
1
10
4.02333775913644
20
1.93990958700505
30
0
41
1
10
4.02335507592528
20
2.08852101389252
30
0
41
1
10
4.02336236138348
20
2.15919569150006
30
0
41
1
10
4.02338096815393
20
2.35833533728262
30
0
41
1
10
4.02338917948867
20
2.47503388528983
30
0
41
1
10
4.02339920161242
20
2.62575656474462
30
0
41
1
10
4.02340216516791
20
2.67206622129802
30
0
41
1
10
4.02340781657568
20
2.75445120318929
30
0
41
1
10
4.02341322579048
20
2.82710000935765
30
0
41
1
10
4.02341925834597
20
2.88067741247502
30
0
41
1
10
4.02342607148429
20
2.92462701506514
30
0
41
1
10
4.02342988545004
20
2.94183318354786
30
0
41
1
10
4.02343922957647
20
2.96771601057429
30
0
41
1
10
4.02344489136624
20
2.97483164427459
30
0
41
1
10
4.02345134504037
20
2.975393462439
30
0
0
SPLINE
5
BB
100
AcDbEntity
8
1
62
256
6
ByLayer
370
18
48
1
60
0
100
AcDbSpline
70
4
71
3
72
20
73
16
40
0
40
0
40
0
40
0
40
0.26065375789748
40
0.26065375789748
40
0.390980636846219
40
0.390980636846219
40
0.521307515794959
40
0.521307515794959
40
0.651634394743699
40
0.651634394743699
40
0.781961273692439
40
0.781961273692439
40
0.912288152641179
40
0.912288152641179
40
1
40
1
40
1
40
1
41
1
10
9.70191181975929
20
-1.87563234135771
30
0
41
1
10
10.0705757087529
20
-2.05674948184554
30
0
41
1
10
10.4382991407352
20
-2.21555992559988
30
0
41
1
10
10.9849505184093
20
-2.42614041906199
30
0
41
1
10
11.1667793790423
20
-2.49111624575127
30
0
41
1
10
11.5317639013299
20
-2.60893931640388
30
0
41
1
10
11.7145177016188
20
-2.66219168015678
30
0
41
1
10
12.0800849829736
20
-2.75754412505049
30
0
41
1
10
12.2625888875553
20
-2.79974712993589
30
0
41
1
10
12.6306195440104
20
-2.87085539261398
30
0
41
1
10
12.8161058476108
20
-2.9001083015485
30
0
41
1
10
13.1852873142148
20
-2.94552004649765
30
0
41
1
10
13.3689180222723
20
-2.96179857203632
30
0
41
1
10
13.6767311217326
20
-2.97766792185834
30
0
41
1
10
13.8008476139932
20
-2.98100639940941
30
0
41
1
10
13.9251306434502
20
-2.98132575660873
30
0
0
SPLINE
5
BC
100
AcDbEntity
8
1
62
256
6
ByLayer
370
18
48
1
60
0
100
AcDbSpline
70
4
71
3
72
72
73
68
40
0
40
0
40
0
40
0
40
0.0182006240064586
40
0.0182006240064586
40
0.0480380155387004
40
0.0480380155387004
40
0.0778754070709424
40
0.0778754070709424
40
0.107712798603184
40
0.107712798603184
40
0.137550190135426
40
0.137550190135426
40
0.167387581667668
40
0.167387581667668
40
0.19722497319991
40
0.19722497319991
40
0.227062364732151
40
0.227062364732151
40
0.256899756264393
40
0.256899756264393
40
0.286737147796635
40
0.286737147796635
40
0.346411930861119
40
0.346411930861119
40
0.376249322393361
40
0.376249322393361
40
0.406086713925604
40
0.406086713925604
40
0.435924105457846
40
0.435924105457846
40
0.465761496990089
40
0.465761496990089
40
0.495598888522332
40
0.495598888522332
40
0.525436280054575
40
0.525436280054575
40
0.555273671586817
40
0.555273671586817
40
0.58511106311906
40
0.58511106311906
40
0.614948454651302
40
0.614948454651302
40
0.644785846183545
40
0.644785846183545
40
0.674623237715788
40
0.674623237715788
40
0.70446062924803
40
0.70446062924803
40
0.734298020780273
40
0.734298020780273
40
0.764135412312515
40
0.764135412312515
40
0.793972803844758
40
0.793972803844758
40
0.823810195377001
40
0.823810195377001
40
0.853647586909243
40
0.853647586909243
40
0.883484978441486
40
0.883484978441486
40
0.913322369973729
40
0.913322369973729
40
0.943159761505971
40
0.943159761505971
40
0.972997153038214
40
0.972997153038214
40
1
40
1
40
1
40
1
41
1
10
25.3819132143487
20
2.20551600080594
30
0
41
1
10
25.4942601417617
20
2.25299687359566
30
0
41
1
10
25.6065040517769
20
2.29875157707909
30
0
41
1
10
25.9024017287308
20
2.41496420153084
30
0
41
1
10
26.0869930855442
20
2.48171051542008
30
0
41
1
10
26.456419507305
20
2.60315268477825
30
0
41
1
10
26.640849595137
20
2.65802270716136
30
0
41
1
10
27.0086179185784
20
2.756337244284
30
0
41
1
10
27.1920497849986
20
2.7996192066594
30
0
41
1
10
27.5609963059651
20
2.87276341133614
30
0
41
1
10
27.7462020021958
20
2.90297840102318
30
0
41
1
10
28.1148040120109
20
2.95039872210967
30
0
41
1
10
28.2980685469726
20
2.96767834417469
30
0
41
1
10
28.6661368128092
20
2.98853892298524
30
0
41
1
10
28.8506524623438
20
2.99229005605423
30
0
41
1
10
29.2200584711748
20
2.98645693810911
30
0
41
1
10
29.404164140804
20
2.97677003937838
30
0
41
1
10
29.7717649347352
20
2.94402127327169
30
0
41
1
10
29.9560543067525
20
2.92117704045353
30
0
41
1
10
30.3247455485561
20
2.8625632288545
30
0
41
1
10
30.5093505275988
20
2.82669827661758
30
0
41
1
10
31.0616094850463
20
2.69923147279488
30
0
41
1
10
31.4304003400578
20
2.59112810360793
30
0
41
1
10
31.9824092137818
20
2.39309649664713
30
0
41
1
10
32.166689659985
20
2.32101870480457
30
0
41
1
10
32.5355503524466
20
2.1685368445454
30
0
41
1
10
32.7198855121894
20
2.08765386389916
30
0
41
1
10
33.0878785504867
20
1.91602784869107
30
0
41
1
10
33.2711869302212
20
1.82478186928375
30
0
41
1
10
33.6401010390364
20
1.63596710584514
30
0
41
1
10
33.8250610933057
20
1.53809082254051
30
0
41
1
10
34.1935306194212
20
1.33573528044246
30
0
41
1
10
34.3769305185925
20
1.23053530920902
30
0
41
1
10
34.7445253009579
20
1.01556492417893
30
0
41
1
10
34.9293163397168
20
0.906255966173489
30
0
41
1
10
35.2986287394357
20
0.683607077298603
30
0
41
1
10
35.4821583511707
20
0.570692782592857
30
0
41
1
10
35.8472692489621
20
0.342183452361212
30
0
41
1
10
36.029768699979
20
0.228082676876028
30
0
41
1
10
36.394597491594
20
7.52864188769E-05
30
0
41
1
10
36.576844621624
20
-0.113965073513469
30
0
41
1
10
36.9404643954662
20
-0.342983431280231
30
0
41
1
10
37.1222017599504
20
-0.457369448636598
30
0
41
1
10
37.4878049963468
20
-0.682236457246944
30
0
41
1
10
37.6712471470028
20
-0.793401801841441
30
0
41
1
10
38.0389774493434
20
-1.01388026076157
30
0
41
1
10
38.2231241537313
20
-1.12377005968162
30
0
41
1
10
38.5914885003531
20
-1.33489050828598
30
0
41
1
10
38.7757628830901
20
-1.43705099426066
30
0
41
1
10
39.143957310968
20
-1.63538036077344
30
0
41
1
10
39.3274825607296
20
-1.73204352486218
30
0
41
1
10
39.6959626113036
20
-1.91680012994965
30
0
41
1
10
39.8807040026816
20
-2.00425175250177
30
0
41
1
10
40.2491779804238
20
-2.16997812147986
30
0
41
1
10
40.4330056263013
20
-2.2484240492883
30
0
41
1
10
40.8002275876847
20
-2.39579854906376
30
0
41
1
10
40.9848167316565
20
-2.46386338998926
30
0
41
1
10
41.3541056551806
20
-2.58851602112949
30
0
41
1
10
41.5383846707434
20
-2.64507288783887
30
0
41
1
10
41.9056372425684
20
-2.74691191113754
30
0
41
1
10
42.0891273315406
20
-2.79176200657494
30
0
41
1
10
42.4578144907564
20
-2.86830866861527
30
0
41
1
10
42.6428752125902
20
-2.90030409814207
30
0
41
1
10
43.0111241656576
20
-2.95133058822782
30
0
41
1
10
43.1942725030724
20
-2.97038728985404
30
0
41
1
10
43.5447477994377
20
-2.99361572394395
30
0
41
1
10
43.7115468073186
20
-2.99919557889746
30
0
41
1
10
43.8784559351063
20
-2.99930718220421
30
0
0
SPLINE
5
BD
100
AcDbEntity
8
1
62
256
6
ByLayer
370
18
48
1
60
0
100
AcDbSpline
70
4
71
3
72
22
73
18
40
0
40
0
40
0
40
0
40
0.0004905872170684
40
0.0004905872170684
40
0.164036920453719
40
0.164036920453719
40
0.491129586927022
40
0.491129586927022
40
0.572902753545347
40
0.572902753545347
40
0.654675920163672
40
0.654675920163672
40
0.736449086781996
40
0.736449086781996
40
0.818222253400321
40
0.818222253400321
40
1
40
1
40
1
40
1
41
1
10
18.2165702082084
20
2.05453406728097
30
0
41
1
10
18.2178390817329
20
2.05397515961053
30
0
41
1
10
18.2191079631459
20
2.05341602948803
30
0
41
1
10
18.6433846346995
20
1.86638618072053
30
0
41
1
10
19.0678045730043
20
1.65511058244502
30
0
41
1
10
20.3535432215018
20
0.961019951375249
30
0
41
1
10
21.1915497644509
20
0.441060890654938
30
0
41
1
10
22.2551762346867
20
-0.215549005222613
30
0
41
1
10
22.4693545515239
20
-0.347520906807432
30
0
41
1
10
22.8975436723703
20
-0.608205470284361
30
0
41
1
10
23.1109032785235
20
-0.736693325601095
30
0
41
1
10
23.5371483039585
20
-0.988463867749829
30
0
41
1
10
23.750115294212
20
-1.1116311611674
30
0
41
1
10
24.176785619086
20
-1.35085543583256
30
0
41
1
10
24.3907271012429
20
-1.46718710253199
30
0
41
1
10
25.0808537444713
20
-1.8271935823887
30
0
41
1
10
25.5511734214069
20
-2.04872634186057
30
0
41
1
10
26.0214049841831
20
-2.2375548489664
30
0
0
SPLINE
5
BE
100
AcDbEntity
8
1
62
256
6
ByLayer
370
13
48
1
60
0
100
AcDbSpline
70
4
71
3
72
18
73
14
40
0
40
0
40
0
40
0
40
0.245373182111505
40
0.245373182111505
40
0.383452204691354
40
0.383452204691354
40
0.521531227271202
40
0.521531227271202
40
0.797689272430899
40
0.797689272430899
40
0.935768295010747
40
0.935768295010747
40
1
40
1
40
1
40
1
41
1
10
26.0214049840676
20
-2.23755484892001
30
0
41
1
10
26.3973127238875
20
-2.38850621616277
30
0
41
1
10
26.7731641538163
20
-2.51855773152542
30
0
41
1
10
27.3648935350948
20
-2.68439704921212
30
0
41
1
10
27.5796972929342
20
-2.73662496429816
30
0
41
1
10
28.006430027558
20
-2.82350508106393
30
0
41
1
10
28.2187073439663
20
-2.85837827148777
30
0
41
1
10
28.854003239175
20
-2.93725106069817
30
0
41
1
10
29.2755943096055
20
-2.95528867463455
30
0
41
1
10
29.9109133771249
20
-2.93016605822916
30
0
41
1
10
30.1232477870223
20
-2.91309495581609
30
0
41
1
10
30.4358432868449
20
-2.87507878397025
30
0
41
1
10
30.5353847613489
20
-2.86105592561057
30
0
41
1
10
30.6349046617376
20
-2.84517510075949
30
0
0
SPLINE
5
BF
100
AcDbEntity
8
1
62
256
6
ByLayer
370
18
48
1
60
0
100
AcDbSpline
70
4
71
3
72
14
73
10
40
0
40
0
40
0
40
0
40
0.25
40
0.25
40
0.5
40
0.5
40
0.75
40
0.75
40
1
40
1
40
1
40
1
41
1
10
44.9853968337045
20
-2.92782833553207
30
0
41
1
10
44.9904292733679
20
-2.91449754531428
30
0
41
1
10
44.995152555555
20
-2.90077511770951
30
0
41
1
10
45.002478733402
20
-2.87630813813496
30
0
41
1
10
45.0050282926626
20
-2.86566996448775
30
0
41
1
10
45.0074081021349
20
-2.85055084805205
30
0
41
1
10
45.0073473747019
20
-2.84579488232129
30
0
41
1
10
45.0055430221784
20
-2.84078670391585
30
0
41
1
10
45.0037979124971
20
-2.84045506946032
30
0
41
1
10
45.0014763403327
20
-2.84180557660341
30
0
0
SPLINE
5
C0
100
AcDbEntity
8
1
62
256
6
ByLayer
370
18
48
1
60
0
100
AcDbSpline
70
4
71
3
72
74
73
70
40
0
40
0
40
0
40
0
40
0.0032589153355963
40
0.0032589153355963
40
0.0340035811914304
40
0.0340035811914304
40
0.0647482470472645
40
0.0647482470472645
40
0.0954929129030987
40
0.0954929129030987
40
0.126237578758933
40
0.126237578758933
40
0.156982244614767
40
0.156982244614767
40
0.187726910470601
40
0.187726910470601
40
0.218471576326435
40
0.218471576326435
40
0.249216242182269
40
0.249216242182269
40
0.279960908038103
40
0.279960908038103
40
0.310705573893937
40
0.310705573893937
40
0.341450239749772
40
0.341450239749772
40
0.372194905605606
40
0.372194905605606
40
0.40293957146144
40
0.40293957146144
40
0.433684237317274
40
0.433684237317274
40
0.464428903173108
40
0.464428903173108
40
0.495173569028942
40
0.495173569028942
40
0.525918234884776
40
0.525918234884776
40
0.55666290074061
40
0.55666290074061
40
0.587407566596444
40
0.587407566596444
40
0.618152232452278
40
0.618152232452278
40
0.648896898308113
40
0.648896898308113
40
0.679641564163947
40
0.679641564163947
40
0.710386230019781
40
0.710386230019781
40
0.741130895875615
40
0.741130895875615
40
0.771875561731449
40
0.771875561731449
40
0.802620227587283
40
0.802620227587283
40
0.833364893443117
40
0.833364893443117
40
0.864109559298951
40
0.864109559298951
40
0.894854225154785
40
0.894854225154785
40
0.92559889101062
40
0.92559889101062
40
0.956343556866454
40
0.956343556866454
40
0.987088222722288
40
0.987088222722288
40
1
40
1
40
1
40
1
41
1
10
7.18960235668649
20
2.83388414097109
30
0
41
1
10
7.20938078420832
20
2.83381436203243
30
0
41
1
10
7.22915663524776
20
2.83367119083323
30
0
41
1
10
7.43547204849949
20
2.83142013694788
30
0
41
1
10
7.62179764515733
20
2.82315579527511
30
0
41
1
10
7.99458765114565
20
2.79373305142096
30
0
41
1
10
8.18155554911306
20
2.77229035736192
30
0
41
1
10
8.55551351496757
20
2.71674804809626
30
0
41
1
10
8.74214488602942
20
2.68308899423963
30
0
41
1
10
9.11485379576078
20
2.60377872281415
30
0
41
1
10
9.30096552833027
20
2.55724236557674
30
0
41
1
10
9.6744893905578
20
2.45286738645621
30
0
41
1
10
9.86187258574995
20
2.39484959366044
30
0
41
1
10
10.235319674615
20
2.26935602258979
30
0
41
1
10
10.4213933176202
20
2.20088587237203
30
0
41
1
10
10.7942862590043
20
2.05369576870237
30
0
41
1
10
10.9809736113519
20
1.97535108478201
30
0
41
1
10
11.3547198220141
20
1.810209831869
30
0
41
1
10
11.5415433194702
20
1.72340339279157
30
0
41
1
10
11.9142824228891
20
1.54126342738135
30
0
41
1
10
12.1007600926635
20
1.44674885666584
30
0
41
1
10
12.4737407850885
20
1.25172819079796
30
0
41
1
10
12.6601600115134
20
1.15139608313814
30
0
41
1
10
13.0336982588231
20
0.94414430923004
30
0
41
1
10
13.2202741689501
20
0.838388475850792
30
0
41
1
10
13.5932304666601
20
0.624155613551579
30
0
41
1
10
13.7795545511131
20
0.515529386188234
30
0
41
1
10
14.152102463608
20
0.29541396748462
30
0
41
1
10
14.3389644745375
20
0.183992491723387
30
0
41
1
10
14.7126819458467
20
-0.038101943785108
30
0
41
1
10
14.8992333408612
20
-0.149027617860128
30
0
41
1
10
15.2718487294869
20
-0.370550993389884
30
0
41
1
10
15.4578999141565
20
-0.481043561328363
30
0
41
1
10
15.8313772337481
20
-0.698234843978014
30
0
41
1
10
16.0186853716058
20
-0.805553454147685
30
0
41
1
10
16.3919387740259
20
-1.01645097394106
30
0
41
1
10
16.5779791311762
20
-1.12052246996333
30
0
41
1
10
16.9508088417595
20
-1.32089839352571
30
0
41
1
10
17.1375082306091
20
-1.41790299676811
30
0
41
1
10
17.5113601597057
20
-1.6064662082054
30
0
41
1
10
17.6980366889955
20
-1.69830746080183
30
0
41
1
10
18.0706870941125
20
-1.87186562043723
30
0
41
1
10
18.2571342383817
20
-1.95317988096582
30
0
41
1
10
18.6301986120967
20
-2.10794883217704
30
0
41
1
10
18.8169422576306
20
-2.18152078609771
30
0
41
1
10
19.190173665423
20
-2.31946263580761
30
0
41
1
10
19.3765253310705
20
-2.38171485089706
30
0
41
1
10
19.749186533098
20
-2.49459979564117
30
0
41
1
10
19.9354412823441
20
-2.54579065687437
30
0
41
1
10
20.3079613657507
20
-2.63817547072927
30
0
41
1
10
20.4947989694793
20
-2.67854239030774
30
0
41
1
10
20.86793038122
20
-2.74461164535168
30
0
41
1
10
21.0542219078891
20
-2.77132255033936
30
0
41
1
10
21.4264413299593
20
-2.81352701119221
30
0
41
1
10
21.6123400271135
20
-2.82869043963825
30
0
41
1
10
21.985606830606
20
-2.84372140091688
30
0
41
1
10
22.1726412279146
20
-2.84441487401222
30
0
41
1
10
22.5453776275598
20
-2.83397493287603
30
0
41
1
10
22.7312269188744
20
-2.82336997010586
30
0
41
1
10
23.1037410174984
20
-2.78688165249449
30
0
41
1
10
23.2903264432604
20
-2.76168217319926
30
0
41
1
10
23.6641119718113
20
-2.69922154062991
30
0
41
1
10
23.8503845766307
20
-2.66265829868328
30
0
41
1
10
24.2227202062006
20
-2.57659177194407
30
0
41
1
10
24.4090682163481
20
-2.52722207912188
30
0
41
1
10
24.7820207095293
20
-2.41667105103116
30
0
41
1
10
24.9688764057927
20
-2.35603037848952
30
0
41
1
10
25.2335795522953
20
-2.26262644587263
30
0
41
1
10
25.3118420542994
20
-2.23407250773397
30
0
41
1
10
25.3900904691294
20
-2.20461405371751
30
0
0
SPLINE
5
C1
100
AcDbEntity
8
1
62
256
6
ByLayer
370
18
48
1
60
0
100
AcDbSpline
70
4
71
3
72
26
73
22
40
0
40
0
40
0
40
0
40
0.061234856172016
40
0.061234856172016
40
0.165542094375125
40
0.165542094375125
40
0.269849332578235
40
0.269849332578235
40
0.374156570781344
40
0.374156570781344
40
0.478463808984453
40
0.478463808984453
40
0.582771047187563
40
0.582771047187563
40
0.687078285390672
40
0.687078285390672
40
0.791385523593781
40
0.791385523593781
40
0.895692761796891
40
0.895692761796891
40
1
40
1
40
1
40
1
41
1
10
37.1024023208782
20
2.85178079055243
30
0
41
1
10
37.2119485810209
20
2.85150966136175
30
0
41
1
10
37.3214992416616
20
2.84890938960297
30
0
41
1
10
37.6170461851362
20
2.83583725967836
30
0
41
1
10
37.8031608599953
20
2.82108412089155
30
0
41
1
10
38.1756922316875
20
2.77935372093748
30
0
41
1
10
38.3619822117103
20
2.75239593802874
30
0
41
1
10
38.7347715751715
20
2.68643547597537
30
0
41
1
10
38.9213205053687
20
2.64739777715016
30
0
41
1
10
39.2938853999938
20
2.55680332343249
30
0
41
1
10
39.4799817334173
20
2.50521246434496
30
0
41
1
10
39.8520616203459
20
2.39062680578891
30
0
41
1
10
40.0379570319369
20
2.32748459667641
30
0
41
1
10
40.4113762092612
20
2.19100812830905
30
0
41
1
10
40.5977702378519
20
2.11779699949389
30
0
41
1
10
40.970027691433
20
1.96202020226678
30
0
41
1
10
41.1557456030728
20
1.87931748960958
30
0
41
1
10
41.5280196309743
20
1.70602535406107
30
0
41
1
10
41.7149462750766
20
1.61533214902676
30
0
41
1
10
42.0879251903791
20
1.42676903234505
30
0
41
1
10
42.27386932871
20
1.32890650393332
30
0
41
1
10
42.4597380800102
20
1.22815733580572
30
0
0
SPLINE
5
C2
100
AcDbEntity
8
1
62
256
6
ByLayer
370
13
48
1
60
0
100
AcDbSpline
70
4
71
3
72
10
73
6
40
0
40
0
40
0
40
0
40
0.5
40
0.5
40
1
40
1
40
1
40
1
41
1
10
4.02331617094967
20
1.78166448259469
30
0
41
1
10
4.03310040795174
20
1.75957962679661
30
0
41
1
10
4.04609181316692
20
1.73842719607688
30
0
41
1
10
4.07803237028145
20
1.70035095956598
30
0
41
1
10
4.09662351479639
20
1.68366401174129
30
0
41
1
10
4.1182653537075
20
1.66967844750698
30
0
0
SPLINE
5
C3
100
AcDbEntity
8
1
62
256
6
ByLayer
370
18
48
1
60
0
100
AcDbSpline
70
4
71
3
72
20
73
16
40
0
40
0
40
0
40
0
40
0.250000000000017
40
0.250000000000017
40
0.500000000000035
40
0.500000000000035
40
0.625000000000026
40
0.625000000000026
40
0.750000000000018
40
0.750000000000018
40
0.812500000000013
40
0.812500000000013
40
0.875000000000009
40
0.875000000000009
40
1
40
1
40
1
40
1
41
1
10
44.8538817334202
20
0.900013323000735
30
0
41
1
10
44.9366931004988
20
0.920162937566147
30
0
41
1
10
45.0186482990835
20
0.943091518476933
30
0
41
1
10
45.1795936679843
20
0.998933161485269
30
0
41
1
10
45.257941987958
20
1.03133191347945
30
0
41
1
10
45.3680010379392
20
1.09434663987111
30
0
41
1
10
45.4036945985324
20
1.11805687215346
30
0
41
1
10
45.4688149833088
20
1.17218025682945
30
0
41
1
10
45.4988188902902
20
1.20323043107339
30
0
41
1
10
45.5346213242088
20
1.2554152201964
30
0
41
1
10
45.5450407339669
20
1.27371543228486
30
0
41
1
10
45.5623761610794
20
1.31243446218068
30
0
41
1
10
45.5693202263162
20
1.33313196853581
30
0
41
1
10
45.5834875597202
20
1.39576543395029
30
0
41
1
10
45.5843954954997
20
1.43958001627087
30
0
41
1
10
45.5784875065897
20
1.48224485832472
30
0
0
SPLINE
5
C4
100
AcDbEntity
8
1
62
256
6
ByLayer
370
18
48
1
60
0
100
AcDbSpline
70
4
71
3
72
46
73
42
40
0
40
0
40
0
40
0
40
0.081876690758726
40
0.081876690758726
40
0.122815036138089
40
0.122815036138089
40
0.163753381517452
40
0.163753381517452
40
0.245630072276178
40
0.245630072276178
40
0.286568417655541
40
0.286568417655541
40
0.307037590345223
40
0.307037590345223
40
0.327506763034906
40
0.327506763034906
40
0.40938345379363
40
0.40938345379363
40
0.491260144552354
40
0.491260144552354
40
0.532198489931716
40
0.532198489931716
40
0.573136835311078
40
0.573136835311078
40
0.655013526069802
40
0.655013526069802
40
0.675482698759483
40
0.675482698759483
40
0.695951871449163
40
0.695951871449163
40
0.736890216828524
40
0.736890216828524
40
0.818766907587244
40
0.818766907587244
40
0.859705252966604
40
0.859705252966604
40
0.900643598345965
40
0.900643598345965
40
0.982520289104685
40
0.982520289104685
40
1
40
1
40
1
40
1
41
1
10
44.9675330549074
20
-2.97508412256445
30
0
41
1
10
44.5404663435572
20
-3.00952503276625
30
0
41
1
10
44.1149082072994
20
-3.00764738788297
30
0
41
1
10
43.4735732686469
20
-2.95094789709808
30
0
41
1
10
43.2586689566181
20
-2.92289136255849
30
0
41
1
10
42.8317853505415
20
-2.84971157257064
30
0
41
1
10
42.619361601542
20
-2.80461213998601
30
0
41
1
10
41.9835249630662
20
-2.64519187587683
30
0
41
1
10
41.5615349643494
20
-2.50677355575954
30
0
41
1
10
40.9250927404013
20
-2.25612884601961
30
0
41
1
10
40.7123747483611
20
-2.16540076370518
30
0
41
1
10
40.3916200792584
20
-2.01917408186816
30
0
41
1
10
40.284219525799
20
-1.96864294934875
30
0
41
1
10
40.0701868759173
20
-1.86504760553467
30
0
41
1
10
39.9634613585556
20
-1.81194606139226
30
0
41
1
10
39.4309339263967
20
-1.5404546930663
30
0
41
1
10
39.0082604551993
20
-1.30439070888073
30
0
41
1
10
38.162311137577
20
-0.805435832863196
30
0
41
1
10
37.7385639536297
20
-0.543217771455573
30
0
41
1
10
37.0951017596114
20
-0.140768083565149
30
0
41
1
10
36.8812666930859
20
-0.0063229832425407
30
0
41
1
10
36.4558679455576
20
0.260695865266087
30
0
41
1
10
36.2439553273536
20
0.393362740740656
30
0
41
1
10
35.6091579552912
20
0.78660036826426
30
0
41
1
10
35.1865077595769
20
1.04131016068226
30
0
41
1
10
34.6546442612645
20
1.34366071814765
30
0
41
1
10
34.5480540969113
20
1.40326693797155
30
0
41
1
10
34.3342678278622
20
1.52048679894773
30
0
41
1
10
34.2268626513557
20
1.5782210936064
30
0
41
1
10
33.9054700889307
20
1.74716202611867
30
0
41
1
10
33.6923673407103
20
1.8541582841514
30
0
41
1
10
33.0554956801577
20
2.15732039494415
30
0
41
1
10
32.6330002824921
20
2.33429075936661
30
0
41
1
10
31.9975001148152
20
2.55708993566387
30
0
41
1
10
31.7852011260488
20
2.62405846678254
30
0
41
1
10
31.3585591499207
20
2.74228636844933
30
0
41
1
10
31.1434197973442
20
2.79372932640573
30
0
41
1
10
30.5024170656128
20
2.92150671086611
30
0
41
1
10
30.0790143246179
20
2.97141502163342
30
0
41
1
10
29.5654199625032
20
2.98919372424712
30
0
41
1
10
29.4750597599075
20
2.9907115686292
30
0
41
1
10
29.3846562028474
20
2.99061397723273
30
0
0
SPLINE
5
C5
100
AcDbEntity
8
1
62
256
6
ByLayer
370
18
48
1
60
0
100
AcDbSpline
70
4
71
3
72
34
73
30
40
0
40
0
40
0
40
0
40
0.0258675837679488
40
0.0258675837679488
40
0.134104518904842
40
0.134104518904842
40
0.242341454041736
40
0.242341454041736
40
0.269400687825959
40
0.269400687825959
40
0.296459921610182
40
0.296459921610182
40
0.350578389178629
40
0.350578389178629
40
0.458815324315524
40
0.458815324315524
40
0.512933791883972
40
0.512933791883972
40
0.567052259452419
40
0.567052259452419
40
0.675289194589314
40
0.675289194589314
40
0.729407662157761
40
0.729407662157761
40
0.783526129726208
40
0.783526129726208
40
0.891763064863104
40
0.891763064863104
40
1
40
1
40
1
40
1
41
1
10
15.9213985626679
20
-2.83629774398588
30
0
41
1
10
15.8188604806487
20
-2.85609050984971
30
0
41
1
10
15.7163304125272
20
-2.87391779039848
30
0
41
1
10
15.1867212535383
20
-2.95558883898502
30
0
41
1
10
14.7634413965957
20
-2.98603771172534
30
0
41
1
10
13.9160744920642
20
-2.97620647041404
30
0
41
1
10
13.4923329179614
20
-2.93591918272904
30
0
41
1
10
12.9568510942036
20
-2.84130457977759
30
0
41
1
10
12.8492805650624
20
-2.82011444789674
30
0
41
1
10
12.6349567139113
20
-2.77361253329968
30
0
41
1
10
12.5280927582407
20
-2.7482973071256
30
0
41
1
10
12.208126029959
20
-2.66641418948171
30
0
41
1
10
11.9956633400464
20
-2.60390508733252
30
0
41
1
10
11.3593480929936
20
-2.39416451979935
30
0
41
1
10
10.9366905585539
20
-2.22458578930536
30
0
41
1
10
10.2983148559439
20
-1.93214783852568
30
0
41
1
10
10.0848961445389
20
-1.82819442525081
30
0
41
1
10
9.65547531823603
20
-1.60865154782641
30
0
41
1
10
9.44134281052769
20
-1.49401276628853
30
0
41
1
10
8.80227582334101
20
-1.13955441150472
30
0
41
1
10
8.37949516191932
20
-0.888258236865369
30
0
41
1
10
7.74342981512814
20
-0.499435547505101
30
0
41
1
10
7.53110778420893
20
-0.367825416684695
30
0
41
1
10
7.10478362902384
20
-0.102286367307443
30
0
41
1
10
6.8902313011713
20
0.0319895591812553
30
0
41
1
10
6.24628101790969
20
0.433579389316208
30
0
41
1
10
5.82156180655701
20
0.69689099760717
30
0
41
1
10
4.97171599051623
20
1.19998355806805
30
0
41
1
10
4.54656972192174
20
1.43978508030401
30
0
41
1
10
4.11750317092364
20
1.66206252363639
30
0
0
SPLINE
5
C6
100
AcDbEntity
8
1
62
256
6
ByLayer
370
18
48
1
60
0
100
AcDbSpline
70
4
71
3
72
8
73
4
40
0
40
0
40
0
40
0
40
1
40
1
40
1
40
1
41
1
10
4.11750317092552
20
1.66206252363543
30
0
41
1
10
4.09969354600634
20
1.67128877975944
30
0
41
1
10
4.08364074758816
20
1.68211910841774
30
0
41
1
10
4.06928789061692
20
1.69445711360629
30
0
0
SPLINE
5
C7
100
AcDbEntity
8
1
62
256
6
ByLayer
370
13
48
1
60
0
100
AcDbSpline
70
4
71
3
72
23
73
19
40
0
40
0
40
0
40
0
40
0.186092046337013
40
0.186092046337013
40
0.279138069505519
40
0.279138069505519
40
0.372184092674026
40
0.465230115842532
40
0.465230115842532
40
0.558276139011039
40
0.558276139011039
40
0.651322162179545
40
0.651322162179545
40
0.744368185348052
40
0.744368185348052
40
0.930460231685065
40
0.930460231685065
40
1
40
1
40
1
40
1
41
1
10
4.25040048833935
20
1.60981685834585
30
0
41
1
10
4.25044853772755
20
1.76800641799721
30
0
41
1
10
4.25048355326777
20
1.91319910368463
30
0
41
1
10
4.25052468759367
20
2.11174924100462
30
0
41
1
10
4.25053649577154
20
2.17479387496891
30
0
41
1
10
4.25055720471931
20
2.29198930259094
30
0
41
1
10
4.25057515060388
20
2.40095211403883
30
0
41
1
10
4.25059025759256
20
2.49374467025697
30
0
41
1
10
4.25060514110118
20
2.57835126904172
30
0
41
1
10
4.25061250196742
20
2.61669072437539
30
0
41
1
10
4.25062795340762
20
2.68415929967799
30
0
41
1
10
4.25063602364361
20
2.7132362221212
30
0
41
1
10
4.25065375968833
20
2.76209899791806
30
0
41
1
10
4.25066345022012
20
2.78186217294629
30
0
41
1
10
4.25069541720589
20
2.82632048647937
30
0
41
1
10
4.25072081853875
20
2.83681248672815
30
0
41
1
10
4.25076282144065
20
2.82503592493754
30
0
41
1
10
4.25077500413229
20
2.8191087363206
30
0
41
1
10
4.25078781036854
20
2.8104783789135
30
0
0
SPLINE
5
C8
100
AcDbEntity
8
1
62
256
6
ByLayer
370
18
48
1
60
0
100
AcDbSpline
70
4
71
3
72
18
73
14
40
0
40
0
40
0
40
0
40
0.25
40
0.25
40
0.5
40
0.5
40
0.625
40
0.625
40
0.75
40
0.75
40
0.875
40
0.875
40
1
40
1
40
1
40
1
41
1
10
45.5784875065918
20
1.48224485832523
30
0
41
1
10
45.5336855993771
20
1.60250295842778
30
0
41
1
10
45.4888047982714
20
1.72266841193408
30
0
41
1
10
45.3988396391572
20
1.96276027820485
30
0
41
1
10
45.3536936678715
20
2.08274917181734
30
0
41
1
10
45.2855960853531
20
2.26177102421721
30
0
41
1
10
45.2628651956395
20
2.32133774025627
30
0
41
1
10
45.2174070413394
20
2.44048343713885
30
0
41
1
10
45.1946640222324
20
2.50000911609237
30
0
41
1
10
45.1490821869487
20
2.6187363660768
30
0
41
1
10
45.1262414732382
20
2.67793151722785
30
0
41
1
10
45.0802752807294
20
2.7953583806534
30
0
41
1
10
45.0572403957026
20
2.85389659665728
30
0
41
1
10
45.0341487649006
20
2.91224282604452
30
0
0
SPLINE
5
C9
100
AcDbEntity
8
1
62
256
6
ByLayer
370
18
48
1
60
0
100
AcDbSpline
70
4
71
3
72
67
73
63
40
0
40
0
40
0
40
0
40
0.0105177115571216
40
0.0105177115571216
40
0.0678527425592525
40
0.0678527425592525
40
0.182522804563514
40
0.182522804563514
40
0.183418664422923
40
0.183418664422923
40
0.183866594352627
40
0.183866594352627
40
0.184314524282331
40
0.184314524282331
40
0.186106244001148
40
0.186106244001148
40
0.189689683438781
40
0.189689683438781
40
0.196856562314048
40
0.196856562314048
40
0.211190320064581
40
0.211190320064581
40
0.239857835565648
40
0.239857835565648
40
0.297192866567781
40
0.297192866567781
40
0.411862928572048
40
0.411862928572048
40
0.526532990576316
40
0.526532990576316
40
0.583868021578449
40
0.583868021578449
40
0.612535537079516
40
0.612535537079516
40
0.61611897651715
40
0.61611897651715
40
0.619702415954783
40
0.619702415954783
40
0.620150345884487
40
0.620150345884487
40
0.620598275814191
40
0.620598275814191
40
0.621494135673599
40
0.623285855392416
40
0.626869294830049
40
0.64120305258058
40
0.64120305258058
40
0.698538083582706
40
0.698538083582706
40
0.755873114584831
40
0.755873114584831
40
0.813208145586957
40
0.813208145586957
40
0.870543176589083
40
0.870543176589083
40
0.927878207591209
40
0.927878207591209
40
0.956545723092272
40
0.956545723092272
40
0.985213238593335
40
0.985213238593335
40
1
40
1
40
1
40
1
41
1
10
7.18350254144627
20
-0.59152940761328
30
0
41
1
10
7.16670348287292
20
-0.588044784219051
30
0
41
1
10
7.14989630331505
20
-0.584714925786557
30
0
41
1
10
7.04143331377279
20
-0.564248605724089
30
0
41
1
10
6.94995120957003
20
-0.551664318500627
30
0
41
1
10
6.67480047384956
20
-0.528035930566602
30
0
41
1
10
6.4901747750958
20
-0.531270549962898
30
0
41
1
10
6.3035360437548
20
-0.553187972089859
30
0
41
1
10
6.30208918799573
20
-0.553358996474202
30
0
41
1
10
6.29991885427674
20
-0.553617213150119
30
0
41
1
10
6.29876866981056
20
-0.553577932687801
30
0
41
1
10
6.29872646855384
20
-0.554245575282579
30
0
41
1
10
6.29932686226215
20
-0.554615019517428
30
0
41
1
10
6.30182411729149
20
-0.556298371840995
30
0
41
1
10
6.30436416120591
20
-0.557537562726083
30
0
41
1
10
6.31184664395963
20
-0.56125038529396
30
0
41
1
10
6.31706192945597
20
-0.563649078402221
30
0
41
1
10
6.33282353261939
20
-0.570807232953939
30
0
41
1
10
6.34355926765195
20
-0.575504870439005
30
0
41
1
10
6.37591480245931
20
-0.589536166963711
30
0
41
1
10
6.39774515620937
20
-0.598799014082374
30
0
41
1
10
6.46346472181509
20
-0.626533309027081
30
0
41
1
10
6.50762357351741
20
-0.644932594684093
30
0
41
1
10
6.64040120425474
20
-0.700134483942605
30
0
41
1
10
6.72938789009768
20
-0.736927790005552
30
0
41
1
10
6.99681831710512
20
-0.847687214275311
30
0
41
1
10
7.1755877922632
20
-0.922221865216414
30
0
41
1
10
7.53299081845984
20
-1.07378376957763
30
0
41
1
10
7.71199288502061
20
-1.15034897319904
30
0
41
1
10
7.97918633237293
20
-1.26826316080459
30
0
41
1
10
8.06812220646657
20
-1.30797396495191
30
0
41
1
10
8.20046942702825
20
-1.36948453204747
30
0
41
1
10
8.24467870159697
20
-1.38994267788206
30
0
41
1
10
8.29282240642183
20
-1.41534475421534
30
0
41
1
10
8.29814264232905
20
-1.41821335928162
30
0
41
1
10
8.30860248543064
20
-1.42419309537354
30
0
41
1
10
8.31406839573924
20
-1.42698205848947
30
0
41
1
10
8.31890125250294
20
-1.43153073854538
30
0
41
1
10
8.31948617539689
20
-1.43204785966196
30
0
41
1
10
8.31993009266489
20
-1.43349962593251
30
0
41
1
10
8.31892391333798
20
-1.43414704276421
30
0
41
1
10
8.31703613000101
20
-1.43601596843931
30
0
41
1
10
8.31326086426887
20
-1.43975485774436
30
0
41
1
10
8.30445391309439
20
-1.4484862198818
30
0
41
1
10
8.27678852187302
20
-1.47597137654262
30
0
41
1
10
8.25167723924147
20
-1.50108638259187
30
0
41
1
10
8.15137698246878
20
-1.60185166953067
30
0
41
1
10
8.07146863581298
20
-1.6836034586286
30
0
41
1
10
7.91290236413579
20
-1.84613796992284
30
0
41
1
10
7.83404336999476
20
-1.92713438857308
30
0
41
1
10
7.675487823889
20
-2.08686883482164
30
0
41
1
10
7.59538958647596
20
-2.16599837250479
30
0
41
1
10
7.434116031516
20
-2.3177564694912
30
0
41
1
10
7.3533267875325
20
-2.39002875233655
30
0
41
1
10
7.18909226250571
20
-2.52478644732432
30
0
41
1
10
7.10564084726445
20
-2.58726033104782
30
0
41
1
10
6.97651929782208
20
-2.67154288205242
30
0
41
1
10
6.93280651931531
20
-2.69804722513612
30
0
41
1
10
6.84536208275097
20
-2.74678738396722
30
0
41
1
10
6.8014383713662
20
-2.7691546541501
30
0
41
1
10
6.73441584020367
20
-2.8000533951051
30
0
41
1
10
6.7115299071439
20
-2.81003797285263
30
0
41
1
10
6.68855703198233
20
-2.81950314436884
30
0
0
SPLINE
5
CA
100
AcDbEntity
8
1
62
256
6
ByLayer
370
18
48
1
60
0
100
AcDbSpline
70
4
71
3
72
18
73
14
40
0
40
0
40
0
40
0
40
0.25
40
0.25
40
0.5
40
0.5
40
0.625
40
0.625
40
0.75
40
0.75
40
0.875
40
0.875
40
1
40
1
40
1
40
1
41
1
10
45.5784875065919
20
-1.48224485832523
30
0
41
1
10
45.5336855993772
20
-1.60250295842778
30
0
41
1
10
45.4888047982714
20
-1.72266841193402
30
0
41
1
10
45.3988396391572
20
-1.96276027820477
30
0
41
1
10
45.3536936678715
20
-2.08274917181728
30
0
41
1
10
45.2855960853531
20
-2.26177102421713
30
0
41
1
10
45.2628651956396
20
-2.32133774025618
30
0
41
1
10
45.2174070413394
20
-2.44048343713877
30
0
41
1
10
45.1946640222325
20
-2.50000911609229
30
0
41
1
10
45.1490821869487
20
-2.61873636607669
30
0
41
1
10
45.1262414732383
20
-2.67793151722776
30
0
41
1
10
45.0802752807295
20
-2.79535838065325
30
0
41
1
10
45.0572403957026
20
-2.85389659665717
30
0
41
1
10
45.0341487649007
20
-2.9122428260444
30
0
0
SPLINE
5
CB
100
AcDbEntity
8
1
62
256
6
ByLayer
370
18
48
1
60
0
100
AcDbSpline
70
4
71
3
72
24
73
20
40
0
40
0
40
0
40
0
40
0.125000000000001
40
0.125000000000001
40
0.187500000000001
40
0.187500000000001
40
0.250000000000002
40
0.250000000000002
40
0.312500000000002
40
0.312500000000002
40
0.375000000000003
40
0.375000000000003
40
0.500000000000004
40
0.500000000000004
40
0.625000000000005
40
0.625000000000005
40
0.750000000000006
40
0.750000000000006
40
1
40
1
40
1
40
1
41
1
10
42.4597380800092
20
1.22815733580541
30
0
41
1
10
42.4808794947413
20
1.09187507516518
30
0
41
1
10
42.5159547466796
20
0.953567567977188
30
0
41
1
10
42.5875678018112
20
0.743344681464663
30
0
41
1
10
42.6146069626938
20
0.672975485787248
30
0
41
1
10
42.673319404118
20
0.53462744781416
30
0
41
1
10
42.7051325732984
20
0.466220089817909
30
0
41
1
10
42.7731976943086
20
0.330790442151226
30
0
41
1
10
42.8094511500684
20
0.263768621763916
30
0
41
1
10
42.8860592990303
20
0.131004722424507
30
0
41
1
10
42.9265331775563
20
0.0651071549329743
30
0
41
1
10
43.0517062199322
20
-0.127798840306468
30
0
41
1
10
43.140648109078
20
-0.251058785262842
30
0
41
1
10
43.3274147918946
20
-0.488936944961608
30
0
41
1
10
43.4252582114207
20
-0.603537039547859
30
0
41
1
10
43.6286406578083
20
-0.825250560115336
30
0
41
1
10
43.7338913428336
20
-0.931975014321921
30
0
41
1
10
44.05410468215
20
-1.23672901030722
30
0
41
1
10
44.2753211992687
20
-1.4216888043693
30
0
41
1
10
44.5029640643942
20
-1.59153149979397
30
0
0
SPLINE
5
CC
100
AcDbEntity
8
1
62
256
6
ByLayer
370
18
48
1
60
0
100
AcDbSpline
70
4
71
3
72
64
73
60
40
0
40
0
40
0
40
0
40
0.0625000000000007
40
0.0625000000000007
40
0.125000000000001
40
0.125000000000001
40
0.250000000000002
40
0.250000000000002
40
0.375000000000002
40
0.375000000000002
40
0.437500000000002
40
0.437500000000002
40
0.500000000000002
40
0.500000000000002
40
0.562500000000002
40
0.562500000000002
40
0.593750000000002
40
0.593750000000002
40
0.609375000000003
40
0.609375000000003
40
0.613281250000002
40
0.613281250000002
40
0.617187500000001
40
0.617187500000001
40
0.619140625000001
40
0.619140625000001
40
0.621093750000001
40
0.621093750000001
40
0.625
40
0.625
40
0.65625
40
0.65625
40
0.671874999999999
40
0.671874999999999
40
0.687499999999999
40
0.687499999999999
40
0.703124999999999
40
0.703124999999999
40
0.718749999999999
40
0.718749999999999
40
0.734374999999998
40
0.734374999999998
40
0.749999999999998
40
0.749999999999998
40
0.765624999999998
40
0.765624999999998
40
0.781249999999997
40
0.781249999999997
40
0.796874999999997
40
0.796874999999997
40
0.812499999999997
40
0.812499999999997
40
0.843749999999997
40
0.843749999999997
40
0.874999999999998
40
0.874999999999998
40
0.937499999999999
40
0.937499999999999
40
1
40
1
40
1
40
1
41
1
10
9.701929229717
20
-1.87564614336259
30
0
41
1
10
9.48784830077153
20
-1.77123800414097
30
0
41
1
10
9.27242668536005
20
-1.66316768077169
30
0
41
1
10
8.83795088118987
20
-1.44210857423408
30
0
41
1
10
8.61876507292578
20
-1.32905362906027
30
0
41
1
10
7.96056228606713
20
-0.990522685080492
30
0
41
1
10
7.51865303610197
20
-0.764543130769169
30
0
41
1
10
6.61770967118716
20
-0.3393928647275
30
0
41
1
10
6.15855800475552
20
-0.140491469826884
30
0
41
1
10
5.45033905275221
20
0.119125056288851
30
0
41
1
10
5.21054057233073
20
0.199409496064305
30
0
41
1
10
4.72623916944264
20
0.344200450244898
30
0
41
1
10
4.48244169232993
20
0.408538949214659
30
0
41
1
10
3.99123895659795
20
0.520135551991075
30
0
41
1
10
3.74383657498299
20
0.567408033749217
30
0
41
1
10
3.36985542536706
20
0.625009375857417
30
0
41
1
10
3.24471581046842
20
0.641992785040316
30
0
41
1
10
3.05626525603742
20
0.664068134789346
30
0
41
1
10
2.99333373523561
20
0.670858300188428
30
0
41
1
10
2.91461604897492
20
0.678619400939567
30
0
41
1
10
2.89886859060133
20
0.68013543738715
30
0
41
1
10
2.86736590373218
20
0.683094978969507
30
0
41
1
10
2.85168301094862
20
0.683440813976461
30
0
41
1
10
2.82840155564097
20
0.679935466438764
30
0
41
1
10
2.82054598648509
20
0.678104015785152
30
0
41
1
10
2.80580106366955
20
0.672771219905201
30
0
41
1
10
2.79907044246835
20
0.668980867591955
30
0
41
1
10
2.77857193864224
20
0.658141319402006
30
0
41
1
10
2.76496587442503
20
0.650804742730173
30
0
41
1
10
2.6430724044082
20
0.583735702253165
30
0
41
1
10
2.53863413767738
20
0.516822320451467
30
0
41
1
10
2.39425467557859
20
0.40235961905239
30
0
41
1
10
2.34807303254954
20
0.361768282774733
30
0
41
1
10
2.26070857528256
20
0.274281970336403
30
0
41
1
10
2.21930754958885
20
0.227028736414894
30
0
41
1
10
2.14558682949465
20
0.127304327842211
30
0
41
1
10
2.11297957070062
20
0.0746328903937581
30
0
41
1
10
2.05838592031768
20
-0.0377421834238021
30
0
41
1
10
2.03700973207251
20
-0.0965737803652473
30
0
41
1
10
2.0082465490751
20
-0.216251593386119
30
0
41
1
10
2.00060821559225
20
-0.278245225877583
30
0
41
1
10
1.99946379726279
20
-0.402419998322444
30
0
41
1
10
2.00578664332517
20
-0.463468435985021
30
0
41
1
10
2.03001848152073
20
-0.583763547571095
30
0
41
1
10
2.04799425192886
20
-0.642784044430357
30
0
41
1
10
2.09186319056926
20
-0.755276166698764
30
0
41
1
10
2.11787910344464
20
-0.809369316609548
30
0
41
1
10
2.1762360911998
20
-0.914156284527195
30
0
41
1
10
2.20873523229705
20
-0.965009817392826
30
0
41
1
10
2.27745000885449
20
-1.0620528340111
30
0
41
1
10
2.31379320841597
20
-1.10850185780973
30
0
41
1
10
2.42742565182272
20
-1.24293979909896
30
0
41
1
10
2.50924814490187
20
-1.3260872877517
30
0
41
1
10
2.68098644497303
20
-1.48332673414583
30
0
41
1
10
2.77077653969323
20
-1.55715031489586
30
0
41
1
10
3.04463639470788
20
-1.76492785369732
30
0
41
1
10
3.2346692816854
20
-1.88694706099423
30
0
41
1
10
3.62319454979035
20
-2.1090773634462
30
0
41
1
10
3.82209454448267
20
-2.20906276803927
30
0
41
1
10
4.02363088255294
20
-2.29960883382108
30
0
0
SPLINE
5
CD
100
AcDbEntity
8
1
62
256
6
ByLayer
370
18
48
1
60
0
100
AcDbSpline
70
4
71
3
72
14
73
10
40
0
40
0
40
0
40
0
40
0.2691615097797
40
0.2691615097797
40
0.476850987964216
40
0.476850987964216
40
0.684540466148732
40
0.684540466148732
40
1
40
1
40
1
40
1
41
1
10
44.552201049548
20
-2.85485665838632
30
0
41
1
10
44.2768113097776
20
-2.85503610295615
30
0
41
1
10
44.0018026364695
20
-2.84084471077827
30
0
41
1
10
43.5137709529478
20
-2.79064171854372
30
0
41
1
10
43.300922209982
20
-2.76033986110241
30
0
41
1
10
42.8735724902027
20
-2.68301093391972
30
0
41
1
10
42.6603595183779
20
-2.63619430419689
30
0
41
1
10
42.1261015131373
20
-2.49957951441496
30
0
41
1
10
41.8056360383682
20
-2.39992547135083
30
0
41
1
10
41.4851904853867
20
-2.2847975013965
30
0
0
SPLINE
5
CE
100
AcDbEntity
8
1
62
256
6
ByLayer
370
13
48
1
60
0
100
AcDbSpline
70
4
71
3
72
22
73
18
40
0
40
0
40
0
40
0
40
0.201944601420556
40
0.201944601420556
40
0.364731040289296
40
0.364731040289296
40
0.527517479158037
40
0.527517479158037
40
0.608910698592407
40
0.608910698592407
40
0.690303918026778
40
0.690303918026778
40
0.853090356895514
40
0.853090356895514
40
0.934483576329885
40
0.934483576329885
40
1
40
1
40
1
40
1
41
1
10
41.4851895442896
20
-2.284797163284
30
0
41
1
10
40.9617468923036
20
-2.09673742828164
30
0
41
1
10
40.4383573926492
20
-1.86738908840525
30
0
41
1
10
39.4799936095087
20
-1.39277238895204
30
0
41
1
10
39.0568799960942
20
-1.16426559194144
30
0
41
1
10
38.2128875639897
20
-0.685571319986906
30
0
41
1
10
37.7916836264681
20
-0.435894417629044
30
0
41
1
10
37.1549127599127
20
-0.0559298988997057
30
0
41
1
10
36.9413134406889
20
0.0719513715260121
30
0
41
1
10
36.5139842556773
20
0.326810653230155
30
0
41
1
10
36.3014450134072
20
0.452901091944483
30
0
41
1
10
35.6659819211357
20
0.825471637096143
30
0
41
1
10
35.2444960989567
20
1.06487639180656
30
0
41
1
10
34.6107487370697
20
1.40320386666985
30
0
41
1
10
34.3991320017088
20
1.51233460812074
30
0
41
1
10
34.0154729419111
20
1.70100848682893
30
0
41
1
10
33.8432511319274
20
1.78236579118814
30
0
41
1
10
33.6713507591197
20
1.86014106241365
30
0
0
SPLINE
5
CF
100
AcDbEntity
8
1
62
256
6
ByLayer
370
18
48
1
60
0
100
AcDbSpline
70
4
71
3
72
18
73
14
40
0
40
0
40
0
40
0
40
0.0538229328539415
40
0.0538229328539415
40
0.273505975997784
40
0.273505975997784
40
0.383347497569708
40
0.383347497569708
40
0.493189019141633
40
0.493189019141633
40
0.932555105429332
40
0.932555105429332
40
1
40
1
40
1
40
1
41
1
10
14.5970018206412
20
-2.83676851612196
30
0
41
1
10
14.5451987868913
20
-2.83662340557908
30
0
41
1
10
14.493380834306
20
-2.8359734148201
30
0
41
1
10
14.2299495489155
20
-2.83009860247202
30
0
41
1
10
14.0180340637221
20
-2.81699625563439
30
0
41
1
10
13.6989092895757
20
-2.78472484583557
30
0
41
1
10
13.5923191371228
20
-2.7718471569811
30
0
41
1
10
13.3785805551892
20
-2.74184612554393
30
0
41
1
10
13.2713409193318
20
-2.7246989038901
30
0
41
1
10
12.7373870190499
20
-2.62908793021083
30
0
41
1
10
12.3144739555708
20
-2.5208411966035
30
0
41
1
10
11.8268099030615
20
-2.36356989644108
30
0
41
1
10
11.7619212858594
20
-2.34198013822044
30
0
41
1
10
11.6970260320853
20
-2.31974308399182
30
0
0
SPLINE
5
D0
100
AcDbEntity
8
1
62
256
6
ByLayer
370
13
48
1
60
0
100
AcDbSpline
70
4
71
3
72
22
73
18
40
0
40
0
40
0
40
0
40
0.144786747132223
40
0.144786747132223
40
0.230308072419001
40
0.230308072419001
40
0.315829397705778
40
0.315829397705778
40
0.486872048279332
40
0.486872048279332
40
0.57239337356611
40
0.57239337356611
40
0.657914698852887
40
0.657914698852887
40
0.828957349426443
40
0.828957349426443
40
1
40
1
40
1
40
1
41
1
10
11.6970260320525
20
-2.31974308398063
30
0
41
1
10
11.3391646954258
20
-2.19711806156107
30
0
41
1
10
10.9811015465601
20
-2.05480934455528
30
0
41
1
10
10.4072460648448
20
-1.80067138259179
30
0
41
1
10
10.1925456328114
20
-1.69982368956116
30
0
41
1
10
9.7659806556527
20
-1.48986765576291
30
0
41
1
10
9.55365609155282
20
-1.38060089238436
30
0
41
1
10
8.91805794691723
20
-1.04234668267389
30
0
41
1
10
8.49634256402751
20
-0.80271402639147
30
0
41
1
10
7.86070531755556
20
-0.431811413971701
30
0
41
1
10
7.64830267430978
20
-0.306287552398516
30
0
41
1
10
7.22147767940547
20
-0.0530488801781246
30
0
41
1
10
7.00673149731443
20
0.0748613541871634
30
0
41
1
10
6.36758947756482
20
0.453658446723551
30
0
41
1
10
5.94539509571123
20
0.701865715880984
30
0
41
1
10
5.10029249405693
20
1.17582615275558
30
0
41
1
10
4.67734684427637
20
1.40150650761137
30
0
41
1
10
4.25040048833901
20
1.60981685834599
30
0
0
SPLINE
5
D1
100
AcDbEntity
8
1
62
256
6
ByLayer
370
18
48
1
60
0
100
AcDbSpline
70
4
71
3
72
12
73
8
40
0
40
0
40
0
40
0
40
0.250000000000013
40
0.250000000000013
40
0.500000000000027
40
0.500000000000027
40
1
40
1
40
1
40
1
41
1
10
4.02363088307683
20
-2.29960883405644
30
0
41
1
10
4.03443731590031
20
-2.2810164991019
30
0
41
1
10
4.04912031215707
20
-2.26524575732836
30
0
41
1
10
4.08322677258198
20
-2.24230764218041
30
0
41
1
10
4.10291623574781
20
-2.23486150886282
30
0
41
1
10
4.16459497902525
20
-2.22450533131894
30
0
41
1
10
4.20885685395251
20
-2.23291501829664
30
0
41
1
10
4.25109383672765
20
-2.25101980821179
30
0
0
SPLINE
5
D2
100
AcDbEntity
8
1
62
256
6
ByLayer
370
18
48
1
60
0
100
AcDbSpline
70
4
71
3
72
8
73
4
40
0
40
0
40
0
40
0
40
1
40
1
40
1
40
1
41
1
10
4.06928789061436
20
1.69445711360336
30
0
41
1
10
4.08357830090892
20
1.67722457201737
30
0
41
1
10
4.09979855111033
20
1.66184195027302
30
0
41
1
10
4.1182653537075
20
1.64861463888153
30
0
0
SPLINE
5
D3
100
AcDbEntity
8
1
62
256
6
ByLayer
370
18
48
1
60
0
100
AcDbSpline
70
4
71
3
72
18
73
14
40
0
40
0
40
0
40
0
40
0.125314075156769
40
0.125314075156769
40
0.271095062630641
40
0.271095062630641
40
0.416876050104513
40
0.416876050104513
40
0.708438025052256
40
0.708438025052256
40
0.854219012526128
40
0.854219012526128
40
1
40
1
40
1
40
1
41
1
10
4.02345134485273
20
-2.97539344610988
30
0
41
1
10
4.02345620943419
20
-2.97581702411279
30
0
41
1
10
4.0234615239406
20
-2.97251691443188
30
0
41
1
10
4.02347409492788
20
-2.9574341644155
30
0
41
1
10
4.023481514163
20
-2.94431600724741
30
0
41
1
10
4.0234976684221
20
-2.90776121173676
30
0
41
1
10
4.02350636318073
20
-2.8843740545058
30
0
41
1
10
4.02353357126006
20
-2.80033861658947
30
0
41
1
10
4.023553415067
20
-2.72562774245367
30
0
41
1
10
4.02358351525493
20
-2.5853025695227
30
0
41
1
10
4.02359363801486
20
-2.53347382311966
30
0
41
1
10
4.02361300820084
20
-2.42231602875017
30
0
41
1
10
4.02362229333315
20
-2.36285964877732
30
0
41
1
10
4.02363088307609
20
-2.29960883405644
30
0
0
SPLINE
5
D4
100
AcDbEntity
8
1
62
256
6
ByLayer
370
18
48
1
60
0
100
AcDbSpline
70
4
71
3
72
70
73
66
40
0
40
0
40
0
40
0
40
0.0065321696304873
40
0.0065321696304873
40
0.0372060553085998
40
0.0372060553085998
40
0.0678799409867124
40
0.0678799409867124
40
0.0985538266648249
40
0.0985538266648249
40
0.129227712342938
40
0.129227712342938
40
0.190575483699164
40
0.190575483699164
40
0.221249369377278
40
0.221249369377278
40
0.251923255055391
40
0.251923255055391
40
0.282597140733504
40
0.282597140733504
40
0.313271026411618
40
0.313271026411618
40
0.343944912089731
40
0.343944912089731
40
0.374618797767845
40
0.374618797767845
40
0.405292683445958
40
0.405292683445958
40
0.435966569124071
40
0.435966569124071
40
0.466640454802185
40
0.466640454802185
40
0.497314340480298
40
0.497314340480298
40
0.558662111836523
40
0.558662111836523
40
0.589335997514635
40
0.589335997514635
40
0.620009883192747
40
0.620009883192747
40
0.650683768870858
40
0.650683768870858
40
0.68135765454897
40
0.68135765454897
40
0.712031540227082
40
0.712031540227082
40
0.742705425905194
40
0.742705425905194
40
0.773379311583305
40
0.773379311583305
40
0.804053197261417
40
0.804053197261417
40
0.834727082939529
40
0.834727082939529
40
0.86540096861764
40
0.86540096861764
40
0.896074854295752
40
0.896074854295752
40
0.926748739973864
40
0.926748739973864
40
0.957422625651975
40
0.957422625651975
40
0.988096511330087
40
0.988096511330087
40
1
40
1
40
1
40
1
41
1
10
40.3433432051054
20
-2.21518783475034
30
0
41
1
10
40.3036240488786
20
-2.23016148374464
30
0
41
1
10
40.2639237616575
20
-2.24490030281052
30
0
41
1
10
40.0379775499224
20
-2.32746973064647
30
0
41
1
10
39.8523304301428
20
-2.39053757316
30
0
41
1
10
39.4803401448156
20
-2.50510852717494
30
0
41
1
10
39.2940952490761
20
-2.55675572320428
30
0
41
1
10
38.9208085426539
20
-2.64751883783063
30
0
41
1
10
38.7344722151059
20
-2.68648807396724
30
0
41
1
10
38.3623154451108
20
-2.75233734653568
30
0
41
1
10
38.1761640366952
20
-2.77929139136759
30
0
41
1
10
37.6172441567629
20
-2.84192915289626
30
0
41
1
10
37.244254935448
20
-2.85923070343475
30
0
41
1
10
36.6858673255067
20
-2.84370727816256
30
0
41
1
10
36.4997350135527
20
-2.83130657777596
30
0
41
1
10
36.1274839243782
20
-2.7928645090212
30
0
41
1
10
35.9408267646302
20
-2.76819418868979
30
0
41
1
10
35.5680239854319
20
-2.70696377352081
30
0
41
1
10
35.3818291924128
20
-2.6703993126464
30
0
41
1
10
35.0098565800742
20
-2.58298123799452
30
0
41
1
10
34.8240541909336
20
-2.53287387792045
30
0
41
1
10
34.4512353072165
20
-2.42327583682157
30
0
41
1
10
34.264403054719
20
-2.36311536227717
30
0
41
1
10
33.8920685868472
20
-2.23097715293613
30
0
41
1
10
33.7064612226426
20
-2.15862601738607
30
0
41
1
10
33.3344983571086
20
-2.00668696046736
30
0
41
1
10
33.148248086941
20
-1.92657469914923
30
0
41
1
10
32.7749022626369
20
-1.75666718207089
30
0
41
1
10
32.5889237783411
20
-1.66666820040899
30
0
41
1
10
32.2171102185262
20
-1.4805794699208
30
0
41
1
10
32.0311190771228
20
-1.38476962728038
30
0
41
1
10
31.6587230271102
20
-1.18681384142667
30
0
41
1
10
31.4720891780792
20
-1.08425731137945
30
0
41
1
10
30.9133508569535
20
-0.768854452496669
30
0
41
1
10
30.5412421070958
20
-0.552959431360421
30
0
41
1
10
29.9826601682081
20
-0.220260044195612
30
0
41
1
10
29.7959614148291
20
-0.108370114921513
30
0
41
1
10
29.4232005132401
20
0.114111191484341
30
0
41
1
10
29.2369840206165
20
0.224979253011298
30
0
41
1
10
28.8648528982822
20
0.445837989024227
30
0
41
1
10
28.6789474769912
20
0.555813619043448
30
0
41
1
10
28.3058401385809
20
0.77257376378941
30
0
41
1
10
28.1190984737999
20
0.879292238162577
30
0
41
1
10
27.7466883777657
20
1.08774501425503
30
0
41
1
10
27.5610098363732
20
1.18981446320879
30
0
41
1
10
27.1888510672008
20
1.38797460734241
30
0
41
1
10
27.0023060952588
20
1.48439861066871
30
0
41
1
10
26.62896983734
20
1.66974175575817
30
0
41
1
10
26.4429999490866
20
1.7585779333281
30
0
41
1
10
26.0711574289527
20
1.9274883288208
30
0
41
1
10
25.8851050115085
20
2.00801702064197
30
0
41
1
10
25.5124761162321
20
2.15946413412394
30
0
41
1
10
25.3256413173272
20
2.23044101584759
30
0
41
1
10
24.9532499183707
20
2.36121797541267
30
0
41
1
10
24.7671901475069
20
2.42135154153198
30
0
41
1
10
24.3948702283702
20
2.53112322630312
30
0
41
1
10
24.208625091212
20
2.58015482897719
30
0
41
1
10
23.8360222459934
20
2.66564907669436
30
0
41
1
10
23.6493606541789
20
2.70197154587342
30
0
41
1
10
23.2766018021346
20
2.76366797545131
30
0
41
1
10
23.0903310391752
20
2.78851939824469
30
0
41
1
10
22.7180061214722
20
2.82431674092277
30
0
41
1
10
22.5319781838865
20
2.83463372830485
30
0
41
1
10
22.2727952411819
20
2.84148462559986
30
0
41
1
10
22.2003477348416
20
2.84250346604401
30
0
41
1
10
22.1279295331636
20
2.84257553306787
30
0
0
SPLINE
5
D5
100
AcDbEntity
8
1
62
256
6
ByLayer
370
18
48
1
60
0
100
AcDbSpline
70
4
71
3
72
20
73
16
40
0
40
0
40
0
40
0
40
0.0984313333927255
40
0.0984313333927255
40
0.248692777827271
40
0.248692777827271
40
0.398954222261817
40
0.398954222261817
40
0.549215666696363
40
0.549215666696363
40
0.699477111130909
40
0.699477111130909
40
0.849738555565455
40
0.849738555565455
40
1
40
1
40
1
40
1
41
1
10
10.4094358658781
20
-2.20367656271199
30
0
41
1
10
10.2872909279787
20
-2.24948562073871
30
0
41
1
10
10.1650742789994
20
-2.29302957464665
30
0
41
1
10
9.85615130979201
20
-2.39666386322426
30
0
41
1
10
9.66963408212905
20
-2.45431292026404
30
0
41
1
10
9.29688518594531
20
-2.55829159535318
30
0
41
1
10
9.1109024684545
20
-2.60471435522231
30
0
41
1
10
8.73786179828238
20
-2.68390347992855
30
0
41
1
10
8.55063908495438
20
-2.71756815139537
30
0
41
1
10
8.17763501536368
20
-2.77277423764994
30
0
41
1
10
7.99173278105124
20
-2.79400990396047
30
0
41
1
10
7.62020957028682
20
-2.82322898570061
30
0
41
1
10
7.43438406554603
20
-2.83144835585389
30
0
41
1
10
7.0620475734386
20
-2.83547806336369
30
0
41
1
10
6.87552543943906
20
-2.83106122791227
30
0
41
1
10
6.6885768144229
20
-2.81949499356733
30
0
0
SPLINE
5
D6
100
AcDbEntity
8
1
62
256
6
ByLayer
370
18
48
1
60
0
100
AcDbSpline
70
4
71
3
72
14
73
10
40
0
40
0
40
0
40
0
40
0.447729100319443
40
0.447729100319443
40
0.704599535083338
40
0.704599535083338
40
0.961469969847234
40
0.961469969847234
40
1
40
1
40
1
40
1
41
1
10
29.5649488872611
20
-2.8459348865411
30
0
41
1
10
29.1964984703442
20
-2.84504949011858
30
0
41
1
10
28.8290210256136
20
-2.818700013891
30
0
41
1
10
28.2484632778591
20
-2.73761065848566
30
0
41
1
10
28.0363130231961
20
-2.69982158984189
30
0
41
1
10
27.6098892909496
20
-2.60785819486864
30
0
41
1
10
27.395413453271
20
-2.5535159504413
30
0
41
1
10
27.1506878878511
20
-2.48289622456429
30
0
41
1
10
27.1187860067926
20
-2.47352350985705
30
0
41
1
10
27.0869009638044
20
-2.46399108975265
30
0
0
SPLINE
5
D7
100
AcDbEntity
8
1
62
256
6
ByLayer
370
13
48
1
60
0
100
AcDbSpline
70
4
71
3
72
18
73
14
40
0
40
0
40
0
40
0
40
0.29221539774193
40
0.29221539774193
40
0.444015522227814
40
0.444015522227814
40
0.519915584470755
40
0.519915584470755
40
0.595815646713697
40
0.595815646713697
40
0.899415895685464
40
0.899415895685464
40
1
40
1
40
1
40
1
41
1
10
27.0869009638595
20
-2.46399108976911
30
0
41
1
10
26.268506386244
20
-2.2193221104074
30
0
41
1
10
25.4612046752153
20
-1.8694397284595
30
0
41
1
10
24.2097232656597
20
-1.22551357343363
30
0
41
1
10
23.7840533288756
20
-0.989470695586192
30
0
41
1
10
23.145317830094
20
-0.621333152192562
30
0
41
1
10
22.9321699846308
20
-0.496366179408653
30
0
41
1
10
22.5044090197763
20
-0.243502974691353
30
0
41
1
10
22.2905876405392
20
-0.115859725442135
30
0
41
1
10
21.2281485203494
20
0.51831949579767
30
0
41
1
10
20.3901347563768
20
1.01640422028711
30
0
41
1
10
19.2502022529171
20
1.6003815236771
30
0
41
1
10
18.9685138949681
20
1.73677371089772
30
0
41
1
10
18.6877254329775
20
1.86298780316059
30
0
0
SPLINE
5
D8
100
AcDbEntity
8
1
62
256
6
ByLayer
370
18
48
1
60
0
100
AcDbSpline
70
4
71
3
72
20
73
16
40
0
40
0
40
0
40
0
40
0.124999999999999
40
0.124999999999999
40
0.249999999999999
40
0.249999999999999
40
0.499999999999998
40
0.499999999999998
40
0.624999999999998
40
0.624999999999998
40
0.749999999999999
40
0.749999999999999
40
0.874999999999999
40
0.874999999999999
40
1
40
1
40
1
40
1
41
1
10
44.9608656012995
20
-2.85499829619678
30
0
41
1
10
44.9180024251428
20
-2.85500188995149
30
0
41
1
10
44.8772606551039
20
-2.84860031662345
30
0
41
1
10
44.8002488261386
20
-2.8222957208169
30
0
41
1
10
44.7637429611926
20
-2.80218231757286
30
0
41
1
10
44.6634929310931
20
-2.72124616308392
30
0
41
1
10
44.6091337635648
20
-2.64095657766231
30
0
41
1
10
44.5474496498751
20
-2.4786104240446
30
0
41
1
10
44.5301527480257
20
-2.41681451689891
30
0
41
1
10
44.5036243174379
20
-2.28194457278235
30
0
41
1
10
44.4942522365051
20
-2.2087876727098
30
0
41
1
10
44.4832326079219
20
-2.05111783516054
30
0
41
1
10
44.4815840748531
20
-1.966606346373
30
0
41
1
10
44.4863191606124
20
-1.78577509326343
30
0
41
1
10
44.4927282718716
20
-1.69027825749538
30
0
41
1
10
44.5029640643942
20
-1.59153149979397
30
0
0
SPLINE
5
D9
100
AcDbEntity
8
1
62
256
6
ByLayer
370
18
48
1
60
0
100
AcDbSpline
70
4
71
3
72
72
73
68
40
0
40
0
40
0
40
0
40
0.0212914345213726
40
0.0212914345213726
40
0.051151044938043
40
0.051151044938043
40
0.0810106553547135
40
0.0810106553547135
40
0.110870265771384
40
0.110870265771384
40
0.140729876188054
40
0.140729876188054
40
0.170589486604725
40
0.170589486604725
40
0.200449097021395
40
0.200449097021395
40
0.230308707438066
40
0.230308707438066
40
0.260168317854736
40
0.260168317854736
40
0.290027928271407
40
0.290027928271407
40
0.319887538688077
40
0.319887538688077
40
0.349747149104748
40
0.349747149104748
40
0.379606759521418
40
0.379606759521418
40
0.409466369938089
40
0.409466369938089
40
0.439325980354759
40
0.439325980354759
40
0.46918559077143
40
0.46918559077143
40
0.4990452011881
40
0.4990452011881
40
0.558764422021441
40
0.558764422021441
40
0.588624032438112
40
0.588624032438112
40
0.618483642854783
40
0.618483642854783
40
0.648343253271454
40
0.648343253271454
40
0.678202863688125
40
0.678202863688125
40
0.708062474104795
40
0.708062474104795
40
0.737922084521466
40
0.737922084521466
40
0.767781694938137
40
0.767781694938137
40
0.797641305354808
40
0.797641305354808
40
0.827500915771479
40
0.827500915771479
40
0.85736052618815
40
0.85736052618815
40
0.887220136604821
40
0.887220136604821
40
0.917079747021492
40
0.917079747021492
40
0.946939357438162
40
0.946939357438162
40
0.976798967854833
40
0.976798967854833
40
1
40
1
40
1
40
1
41
1
10
10.41179507931
20
2.19859079780653
30
0
41
1
10
10.5424549799749
20
2.25350197463183
30
0
41
1
10
10.6728032309903
20
2.30589535520207
30
0
41
1
10
10.9849505184093
20
2.42614041906199
30
0
41
1
10
11.1667793790423
20
2.4911162457513
30
0
41
1
10
11.5317639013299
20
2.60893931640388
30
0
41
1
10
11.7145177016187
20
2.66219168015678
30
0
41
1
10
12.0800849829737
20
2.75754412505049
30
0
41
1
10
12.2625888875553
20
2.79974712993589
30
0
41
1
10
12.6306195440104
20
2.87085539261398
30
0
41
1
10
12.8161058476108
20
2.9001083015485
30
0
41
1
10
13.1852873142148
20
2.94552004649765
30
0
41
1
10
13.3689180222723
20
2.96179857203632
30
0
41
1
10
13.7368922920872
20
2.98076953988479
30
0
41
1
10
13.9215208418755
20
2.98353154322103
30
0
41
1
10
14.2912472935036
20
2.97578092794052
30
0
41
1
10
14.4759514281058
20
2.96520610214947
30
0
41
1
10
14.8436863624864
20
2.93055075626404
30
0
41
1
10
15.0279278432599
20
2.90671922903093
30
0
41
1
10
15.3969032452814
20
2.84632865457738
30
0
41
1
10
15.5817420910965
20
2.80971714996161
30
0
41
1
10
15.9505402776213
20
2.72316854496131
30
0
41
1
10
16.1344753691421
20
2.67366358013885
30
0
41
1
10
16.5032389339582
20
2.56378886638478
30
0
41
1
10
16.6876969590274
20
2.5031959427813
30
0
41
1
10
17.0562732463544
20
2.37011914377283
30
0
41
1
10
17.2404785896417
20
2.29719499236305
30
0
41
1
10
17.6095600136211
20
2.14326941301218
30
0
41
1
10
17.7940857797664
20
2.0618241252343
30
0
41
1
10
18.1625920095571
20
1.88943297261875
30
0
41
1
10
18.3461360015322
20
1.79788765354803
30
0
41
1
10
18.7149222789818
20
1.6078865743076
30
0
41
1
10
18.9001186285396
20
1.50959760142158
30
0
41
1
10
19.2690838164372
20
1.30680142275926
30
0
41
1
10
19.452978489849
20
1.20185589996262
30
0
41
1
10
20.0043150772651
20
0.878244797480647
30
0
41
1
10
20.3757897528024
20
0.655606549653783
30
0
41
1
10
20.9271626795309
20
0.311382652966188
30
0
41
1
10
21.1109941802443
20
0.195990013712674
30
0
41
1
10
21.4799621158124
20
-0.0341107182093481
30
0
41
1
10
21.6651211623916
20
-0.149480061628196
30
0
41
1
10
22.0338260259085
20
-0.380134364707857
30
0
41
1
10
22.2172769721697
20
-0.495501233697411
30
0
41
1
10
22.5857063849614
20
-0.721070988281411
30
0
41
1
10
22.7701880201928
20
-0.832077246644104
30
0
41
1
10
23.1391824781487
20
-1.05129093267845
30
0
41
1
10
23.3233316957046
20
-1.16015688898966
30
0
41
1
10
23.6917211870939
20
-1.3697097762012
30
0
41
1
10
23.8761287877972
20
-1.47085513358729
30
0
41
1
10
24.2447226954872
20
-1.66688085621044
30
0
41
1
10
24.4286520114211
20
-1.76207930035682
30
0
41
1
10
24.7972368182702
20
-1.9447109971216
30
0
41
1
10
24.981932218701
20
-2.03086812636218
30
0
41
1
10
25.3506764983865
20
-2.1937845496762
30
0
41
1
10
25.5348255604921
20
-2.27060013745071
30
0
41
1
10
25.9024017287309
20
-2.41496420153089
30
0
41
1
10
26.0869930855443
20
-2.48171051542013
30
0
41
1
10
26.456419507305
20
-2.60315268477828
30
0
41
1
10
26.6408495951372
20
-2.65802270716139
30
0
41
1
10
27.0086179185786
20
-2.75633724428403
30
0
41
1
10
27.1920497849987
20
-2.79961920665946
30
0
41
1
10
27.5609963059652
20
-2.87276341133614
30
0
41
1
10
27.7462020021959
20
-2.9029784010232
30
0
41
1
10
28.114804012011
20
-2.9503987221097
30
0
41
1
10
28.2980685469728
20
-2.96767834417472
30
0
41
1
10
28.6250979090338
20
-2.98621300856672
30
0
41
1
10
28.7683838465999
20
-2.99028494325449
30
0
41
1
10
28.9118225000253
20
-2.99032981559432
30
0
0
SPLINE
5
DA
100
AcDbEntity
8
1
62
256
6
ByLayer
370
18
48
1
60
0
100
AcDbSpline
70
4
71
3
72
24
73
20
40
0
40
0
40
0
40
0
40
0.0584868542850826
40
0.0584868542850826
40
0.176175997499447
40
0.176175997499447
40
0.293865140713812
40
0.293865140713812
40
0.411554283928176
40
0.411554283928176
40
0.529243427142542
40
0.529243427142542
40
0.646932570356906
40
0.646932570356906
40
0.764621713571271
40
0.764621713571271
40
0.882310856785635
40
0.882310856785635
40
1
40
1
40
1
40
1
41
1
10
40.3426902207827
20
2.20876849960993
30
0
41
1
10
40.4340682913659
20
2.24769674615232
30
0
41
1
10
40.5253692040507
20
2.28549164736168
30
0
41
1
10
40.800227587685
20
2.39579854906387
30
0
41
1
10
40.9848167316568
20
2.46386338998934
30
0
41
1
10
41.3541056551808
20
2.58851602112958
30
0
41
1
10
41.5383846707437
20
2.64507288783892
30
0
41
1
10
41.9056372425687
20
2.74691191113763
30
0
41
1
10
42.0891273315409
20
2.791762006575
30
0
41
1
10
42.4578144907566
20
2.8683086686153
30
0
41
1
10
42.6428752125904
20
2.90030409814213
30
0
41
1
10
43.0111241656579
20
2.95133058822785
30
0
41
1
10
43.1942725030727
20
2.97038728985407
30
0
41
1
10
43.5622255207619
20
2.99477409402604
30
0
41
1
10
43.746568587637
20
3.00030692534858
30
0
41
1
10
44.1154748968856
20
2.99801616779874
30
0
41
1
10
44.2993354739081
20
2.99005123225609
30
0
41
1
10
44.6665992773443
20
2.96086511565596
30
0
41
1
10
44.8504503518356
20
2.93978515078123
30
0
41
1
10
45.0341487648819
20
2.91224282606282
30
0
0
SPLINE
5
DB
100
AcDbEntity
8
1
62
256
6
ByLayer
370
18
48
1
60
0
100
AcDbSpline
70
4
71
3
72
32
73
28
40
0
40
0
40
0
40
0
40
0.250000000000006
40
0.250000000000006
40
0.375000000000009
40
0.375000000000009
40
0.500000000000013
40
0.500000000000013
40
0.625000000000016
40
0.625000000000016
40
0.687500000000017
40
0.687500000000017
40
0.750000000000019
40
0.750000000000019
40
0.81250000000002
40
0.81250000000002
40
0.843750000000017
40
0.843750000000017
40
0.875000000000014
40
0.875000000000014
40
0.90625000000001
40
0.90625000000001
40
0.937500000000007
40
0.937500000000007
40
0.968750000000003
40
0.968750000000003
40
1
40
1
40
1
40
1
41
1
10
42.4597380800097
20
1.22815733580535
30
0
41
1
10
42.6587539648056
20
1.05177728346115
30
0
41
1
10
42.8630998396337
20
0.890433204343708
30
0
41
1
10
43.1799678418517
20
0.677612289124141
30
0
41
1
10
43.2875825546844
20
0.611409001756954
30
0
41
1
10
43.5028024082782
20
0.49230667527678
30
0
41
1
10
43.6108187314368
20
0.439047448943711
30
0
41
1
10
43.8277761997224
20
0.346847336747146
30
0
41
1
10
43.936524638311
20
0.308033413908504
30
0
41
1
10
44.0979590820746
20
0.263013238290625
30
0
41
1
10
44.1515727798101
20
0.25017460731803
30
0
41
1
10
44.2578821535471
20
0.229280225704031
30
0
41
1
10
44.3109306364022
20
0.220291835944437
30
0
41
1
10
44.4132847457086
20
0.216062599624564
30
0
41
1
10
44.4623649050932
20
0.219874350873511
30
0
41
1
10
44.5300371318099
20
0.238113563284827
30
0
41
1
10
44.5516568481783
20
0.246295038766192
30
0
41
1
10
44.5921983736586
20
0.268705061671653
30
0
41
1
10
44.6106407949674
20
0.282987724959241
30
0
41
1
10
44.6423774917854
20
0.317279519360284
30
0
41
1
10
44.656000208042
20
0.337671239337226
30
0
41
1
10
44.6775021375234
20
0.383169579138723
30
0
41
1
10
44.685400016043
20
0.408116284187116
30
0
41
1
10
44.6957520792387
20
0.462202595453931
30
0
41
1
10
44.6981297638119
20
0.491266232689497
30
0
41
1
10
44.6977291161081
20
0.550908457306008
30
0
41
1
10
44.6949816501469
20
0.581961733431683
30
0
41
1
10
44.6901130964512
20
0.613498733737998
30
0
0
SPLINE
5
DC
100
AcDbEntity
8
1
62
256
6
ByLayer
370
18
48
1
60
0
100
AcDbSpline
70
4
71
3
72
8
73
4
40
0
40
0
40
0
40
0
40
1
40
1
40
1
40
1
41
1
10
45.0014763403348
20
-2.84180557660218
30
0
41
1
10
44.986411407862
20
-2.85056916328401
30
0
41
1
10
44.9728654246609
20
-2.85499265276164
30
0
41
1
10
44.9608656013038
20
-2.85499829619681
30
0
0
SPLINE
5
DD
100
AcDbEntity
8
1
62
256
6
ByLayer
370
18
48
1
60
0
100
AcDbSpline
70
4
71
3
72
8
73
4
40
0
40
0
40
0
40
0
40
1
40
1
40
1
40
1
41
1
10
4.06928789061661
20
1.69445711360657
30
0
41
1
10
4.04149298979914
20
1.71835017066064
30
0
41
1
10
4.02331152227174
20
1.74933973926991
30
0
41
1
10
4.02331617095086
20
1.78166448259594
30
0
0
SPLINE
5
DE
100
AcDbEntity
8
1
62
256
6
ByLayer
370
13
48
1
60
0
100
AcDbSpline
70
4
71
3
72
10
73
6
40
0
40
0
40
0
40
0
40
0.5
40
0.5
40
1
40
1
40
1
40
1
41
1
10
4.1182653537075
20
1.66967844750695
30
0
41
1
10
4.13831984942743
20
1.65671866903213
30
0
41
1
10
4.16006544871601
20
1.64499767141436
30
0
41
1
10
4.20450064926973
20
1.62497457997836
30
0
41
1
10
4.22721264803391
20
1.6165969129373
30
0
41
1
10
4.25040048833938
20
1.60981685834585
30
0
0
SPLINE
5
DF
100
AcDbEntity
8
1
62
256
6
ByLayer
370
18
48
1
60
0
100
AcDbSpline
70
4
71
3
72
8
73
4
40
0
40
0
40
0
40
0
40
1
40
1
40
1
40
1
41
1
10
44.9675330549073
20
2.97508412256445
30
0
41
1
10
44.7623793355558
20
2.99162879963242
30
0
41
1
10
44.5574089595769
20
2.99980573420956
30
0
41
1
10
44.3522311720335
20
2.99961857282526
30
0
0
SPLINE
5
E0
100
AcDbEntity
8
1
62
256
6
ByLayer
370
18
48
1
60
0
100
AcDbSpline
70
4
71
3
72
44
73
40
40
0
40
0
40
0
40
0
40
0.0725500932779112
40
0.0725500932779112
40
0.150268284298954
40
0.150268284298954
40
0.189127379809474
40
0.189127379809474
40
0.227986475319994
40
0.227986475319994
40
0.305704666341033
40
0.305704666341033
40
0.325134214096293
40
0.325134214096293
40
0.344563761851552
40
0.344563761851552
40
0.38342285736207
40
0.38342285736207
40
0.461141048383107
40
0.461141048383107
40
0.500000143893625
40
0.500000143893625
40
0.538859239404143
40
0.538859239404143
40
0.694295621446216
40
0.694295621446216
40
0.733154716956733
40
0.733154716956733
40
0.772013812467252
40
0.772013812467252
40
0.849732003488286
40
0.849732003488286
40
0.888591098998804
40
0.888591098998804
40
0.908020646754062
40
0.908020646754062
40
0.927450194509322
40
0.927450194509322
40
1
40
1
40
1
40
1
41
1
10
30.8436174930611
20
-2.85302402408232
30
0
41
1
10
30.4462565369593
20
-2.92791345871075
30
0
41
1
10
30.0514700448689
20
-2.97234513320606
30
0
41
1
10
29.2328253381255
20
-3.00073190236506
30
0
41
1
10
28.8086498222575
20
-2.98008876656937
30
0
41
1
10
28.1650511011444
20
-2.89475179886071
30
0
41
1
10
27.9512466472151
20
-2.85749249081508
30
0
41
1
10
27.5256412879131
20
-2.7666031321277
30
0
41
1
10
27.3136171094052
20
-2.71291076330408
30
0
41
1
10
26.6783353181987
20
-2.52839365807458
30
0
41
1
10
26.2555910558041
20
-2.37438635852405
30
0
41
1
10
25.7232339150809
20
-2.14710023986146
30
0
41
1
10
25.6165552217694
20
-2.09991205920119
30
0
41
1
10
25.4026186205843
20
-2.00221775281958
30
0
41
1
10
25.2951442025599
20
-1.95160790399311
30
0
41
1
10
24.9735975316235
20
-1.79587093228216
30
0
41
1
10
24.7604541177914
20
-1.68683790637621
30
0
41
1
10
24.1230365138154
20
-1.34660166872561
30
0
41
1
10
23.7004837536348
20
-1.10269435601353
30
0
41
1
10
23.0644199023126
20
-0.719984019387908
30
0
41
1
10
22.8519300138534
20
-0.589751335071327
30
0
41
1
10
22.4250508198901
20
-0.325391418376739
30
0
41
1
10
22.2099042611956
20
-0.190594592790944
30
0
41
1
10
21.1407063136157
20
0.479883883704048
30
0
41
1
10
20.3018539513797
20
1.00714355034623
30
0
41
1
10
19.2327183294171
20
1.5899963395064
30
0
41
1
10
19.0174891896974
20
1.70269702763048
30
0
41
1
10
18.5905162577809
20
1.91519374114833
30
0
41
1
10
18.3779961766953
20
2.01554205852571
30
0
41
1
10
17.7417275023029
20
2.2972630736293
30
0
41
1
10
17.3191200178332
20
2.45915449271047
30
0
41
1
10
16.6812966965307
20
2.65673932475724
30
0
41
1
10
16.4680938572714
20
2.7150973589587
30
0
41
1
10
16.1464770416663
20
2.79042003942416
30
0
41
1
10
16.0389528539252
20
2.81347824842243
30
0
41
1
10
15.8248737711464
20
2.85508157924289
30
0
41
1
10
15.7181029823942
20
2.87367974565345
30
0
41
1
10
15.2136216098852
20
2.95130661862874
30
0
41
1
10
14.8187051854651
20
2.98189225579637
30
0
41
1
10
14.4230907817562
20
2.98163286195708
30
0
0
LINE
5
76
100
AcDbEntity
8
81
62
256
6
ByLayer
370
18
48
1
60
0
100
AcDbLine
10
46
20
0
30
0
11
51
21
0
31
0
39
0
210
0
220
0
230
1
0
LINE
5
77
100
AcDbEntity
8
1
62
256
6
ByLayer
370
18
48
1
60
0
100
AcDbLine
10
4.023449
20
2.975393
30
0
11
0.8
21
2.973459
31
0
39
0
210
0
220
0
230
1
0
LINE
5
79
100
AcDbEntity
8
1
62
256
6
ByLayer
370
18
48
1
60
0
100
AcDbLine
10
14.42375
20
2.981634
30
0
11
13.941357
21
2.981344
31
0
39
0
210
0
220
0
230
1
0
LINE
5
7A
100
AcDbEntity
8
1
62
256
6
ByLayer
370
18
48
1
60
0
100
AcDbLine
10
29.388546
20
2.990612
30
0
11
28.910257
21
2.990325
31
0
39
0
210
0
220
0
230
1
0
LINE
5
7B
100
AcDbEntity
8
1
62
256
6
ByLayer
370
18
48
1
60
0
100
AcDbLine
10
44.354122
20
2.999592
30
0
11
43.879054
21
2.999307
31
0
39
0
210
0
220
0
230
1
0
LINE
5
7C
100
AcDbEntity
8
1
62
256
6
ByLayer
370
18
48
1
60
0
100
AcDbLine
10
43.879054
20
-2.999307
30
0
11
44.354101
21
-2.999592
31
0
39
0
210
0
220
0
230
1
0
LINE
5
7D
100
AcDbEntity
8
1
62
256
6
ByLayer
370
18
48
1
60
0
100
AcDbLine
10
28.910257
20
-2.990325
30
0
11
29.388384
21
-2.990612
31
0
39
0
210
0
220
0
230
1
0
LINE
5
7E
100
AcDbEntity
8
1
62
256
6
ByLayer
370
18
48
1
60
0
100
AcDbLine
10
13.941357
20
-2.981344
30
0
11
14.423577
21
-2.981633
31
0
39
0
210
0
220
0
230
1
0
LINE
5
7F
100
AcDbEntity
8
1
62
256
6
ByLayer
370
18
48
1
60
0
100
AcDbLine
10
0.8
20
-2.973459
30
0
11
4.023449
21
-2.975393
31
0
39
0
210
0
220
0
230
1
0
LINE
5
80
100
AcDbEntity
8
1
62
256
6
ByLayer
370
18
48
1
60
0
100
AcDbLine
10
0
20
-3
30
0
11
0.8
21
-2.973459
31
0
39
0
210
0
220
0
230
1
0
LINE
5
81
100
AcDbEntity
8
1
62
256
6
ByLayer
370
18
48
1
60
0
100
AcDbLine
10
0.8
20
2.973459
30
0
11
0
21
3
31
0
39
0
210
0
220
0
230
1
0
LINE
5
82
100
AcDbEntity
8
SK1
62
256
6
ByLayer
370
18
48
1
60
0
100
AcDbLine
10
-35.278312
20
3
30
0
11
-36
21
1.75
31
0
39
0
210
0
220
0
230
1
0
LINE
5
84
100
AcDbEntity
8
SK1
62
256
6
ByLayer
370
18
48
1
60
0
100
AcDbLine
10
-36
20
-1.75
30
0
11
-35.278312
21
-3
31
0
39
0
210
0
220
0
230
1
0
LINE
5
85
100
AcDbEntity
8
SK1
62
256
6
ByLayer
370
18
48
1
60
0
100
AcDbLine
10
0
20
3
30
0
11
-35.278312
21
3
31
0
39
0
210
0
220
0
230
1
0
LINE
5
86
100
AcDbEntity
8
SK1
62
256
6
ByLayer
370
18
48
1
60
0
100
AcDbLine
10
-35.278312
20
-3
30
0
11
0
21
-3
31
0
39
0
210
0
220
0
230
1
0
LINE
5
87
100
AcDbEntity
8
SK4
62
256
6
ByLayer
370
18
48
0.05
60
0
100
AcDbLine
10
51
20
0
30
0
11
-41
21
0
31
0
39
0
210
0
220
0
230
1
0
LINE
5
89
100
AcDbEntity
8
4
62
256
6
ByLayer
370
18
48
0.05
60
0
100
AcDbLine
10
46
20
0
30
0
11
0
21
0
31
0
39
0
210
0
220
0
230
1
0
LINE
5
8B
100
AcDbEntity
8
80
62
256
6
ByLayer
370
18
48
1
60
0
100
AcDbLine
10
0
20
0
30
0
11
-5
21
0
31
0
39
0
210
0
220
0
230
1
0
LINE
5
8C
100
AcDbEntity
8
1
62
256
6
ByLayer
370
18
48
1
60
0
100
AcDbLine
10
45.92633
20
-0.276166
30
0
11
45.849689
21
-0.604663
31
0
39
0
210
0
220
0
230
1
0
LINE
5
8D
100
AcDbEntity
8
1
62
256
6
ByLayer
370
13
48
1
60
0
100
AcDbLine
10
45.849689
20
0.604663
30
0
11
45.372684
21
0.604663
31
0
39
0
210
0
220
0
230
1
0
LINE
5
8E
100
AcDbEntity
8
1
62
256
6
ByLayer
370
13
48
1
60
0
100
AcDbLine
10
4.118265
20
1.669678
30
0
11
4.114241
21
1.663417
31
0
39
0
210
0
220
0
230
1
0
LINE
5
8F
100
AcDbEntity
8
1
62
256
6
ByLayer
370
18
48
1
60
0
100
AcDbLine
10
0.8
20
2.973459
30
0
11
0.8
21
-2.973459
31
0
39
0
210
0
220
0
230
1
0
LINE
5
90
100
AcDbEntity
8
1
62
256
6
ByLayer
370
18
48
1
60
0
100
AcDbLine
10
44.502964
20
-1.591531
30
0
11
45.895176
21
-0.153357
31
0
39
0
210
0
220
0
230
1
0
LINE
5
91
100
AcDbEntity
8
1
62
256
6
ByLayer
370
13
48
1
60
0
100
AcDbLine
10
45.372684
20
0.604663
30
0
11
45.92633
21
0.276166
31
0
39
0
210
0
220
0
230
1
0
LINE
5
92
100
AcDbEntity
8
1
62
256
6
ByLayer
370
18
48
1
60
0
100
AcDbLine
10
46
20
0
30
0
11
44.960866
21
-2.854998
31
0
39
0
210
0
220
0
230
1
0
LINE
5
93
100
AcDbEntity
8
1
62
256
6
ByLayer
370
18
48
1
60
0
100
AcDbLine
10
46
20
0
30
0
11
45.994612
21
-0.029875
31
0
39
0
210
0
220
0
230
1
0
LINE
5
94
100
AcDbEntity
8
1
62
256
6
ByLayer
370
18
48
1
60
0
100
AcDbLine
10
0
20
-3
30
0
11
0
21
3
31
0
39
0
210
0
220
0
230
1
0
LINE
5
95
100
AcDbEntity
8
1
62
256
6
ByLayer
370
13
48
1
60
0
100
AcDbLine
10
45.182777
20
0.269333
30
0
11
45.895176
21
-0.153357
31
0
39
0
210
0
220
0
230
1
0
LINE
5
96
100
AcDbEntity
8
1
62
256
6
ByLayer
370
18
48
1
60
0
100
AcDbLine
10
45.92633
20
0.276166
30
0
11
45.849689
21
0.604663
31
0
39
0
210
0
220
0
230
1
0
LINE
5
97
100
AcDbEntity
8
1
62
256
6
ByLayer
370
18
48
1
60
0
100
AcDbLine
10
45.994612
20
0.029875
30
0
11
46
21
0
31
0
39
0
210
0
220
0
230
1
0
LINE
5
98
100
AcDbEntity
8
SK1
62
256
6
ByLayer
370
18
48
1
60
0
100
AcDbLine
10
-35.278312
20
3
30
0
11
-35.278312
21
-3
31
0
39
0
210
0
220
0
230
1
0
LINE
5
99
100
AcDbEntity
8
SK1
62
256
6
ByLayer
370
18
48
1
60
0
100
AcDbLine
10
-36
20
1.75
30
0
11
-36
21
-1.75
31
0
39
0
210
0
220
0
230
1
0
LINE
5
9A
100
AcDbEntity
8
SK1
62
256
6
ByLayer
370
18
48
1
60
0
100
AcDbLine
10
0
20
-3
30
0
11
0
21
3
31
0
39
0
210
0
220
0
230
1
0
MTEXT
5
E1
100
AcDbEntity
8
SK6
62
256
6
ByLayer
370
13
48
1
60
0
100
AcDbMText
10
7.129169
20
35.382694
30
0
210
0
220
0
230
1
1
\W0.7670;R840-0600-50-A0A1220
40
3.5
41
0
44
1.084337
50
0
71
8
72
5
7
iso_b_vert
0
DIMENSION
5
EE
100
AcDbEntity
8
SK2
62
256
6
ByLayer
370
13
48
1
60
0
100
AcDbDimension
2
DimnDraft3D1
10
44.98
20
-13.213398
30
0
11
21.230059
21
-13.213398
31
0
70
32
71
5
72
1
41
1
210
0
220
0
230
1
3
Standard
100
AcDbAlignedDimension
13
0
23
-1.5875
33
0
14
44.98
24
-4.5875
34
0
50
0
100
AcDbRotatedDimension
1001
ACAD
1000
DSTYLE
1002
{
1070
   279
1070
     0
1070
   172
1070
     1
1070
   173
1070
     1
1070
   340
1005
E2
1070
   271
1070
     2
1070
   272
1070
     2
1070
    77
1070
     1
1070
    73
1070
     0
1070
   171
1070
     3
1070
   274
1070
     4
1070
   177
1070
    35
1070
   176
1070
    35
1070
   178
1070
    35
1070
    48
1040
-0.005
1070
    41
1041
3.5
1070
   147
1041
1.75
1070
    42
1041
1.5875
1070
    44
1041
2.0
1070
   140
1041
3.5
1070
   343
1005
0
1070
   344
1005
0
1002
}
0
DIMENSION
5
F8
100
AcDbEntity
8
SK2
62
256
6
ByLayer
370
13
48
1
60
0
100
AcDbDimension
2
DimnDraft3D2
10
46
20
-31.692985
30
0
11
5.3213
21
-31.692985
31
0
70
32
71
5
72
1
41
1
210
0
220
0
230
1
3
Standard
100
AcDbAlignedDimension
13
-36
23
-4.5875
33
0
14
46
24
-1.5875
34
0
50
0
100
AcDbRotatedDimension
1001
ACAD
1000
DSTYLE
1002
{
1070
   279
1070
     0
1070
   172
1070
     1
1070
   173
1070
     1
1070
   340
1005
E2
1070
   271
1070
     2
1070
   272
1070
     2
1070
    77
1070
     1
1070
    73
1070
     0
1070
   171
1070
     3
1070
   274
1070
     4
1070
   177
1070
    35
1070
   176
1070
    35
1070
   178
1070
    35
1070
    48
1040
-0.005
1070
    41
1041
3.5
1070
   147
1041
1.75
1070
    42
1041
1.5875
1070
    44
1041
2.0
1070
   140
1041
3.5
1070
   343
1005
0
1070
   344
1005
0
1002
}
0
DIMENSION
5
102
100
AcDbEntity
8
SK2
62
256
6
ByLayer
370
13
48
1
60
0
100
AcDbDimension
2
DimnDraft3D3
10
46
20
14.609119
30
0
11
30.49
21
14.609119
31
0
70
32
71
5
72
1
41
1
210
0
220
0
230
1
3
Standard
100
AcDbAlignedDimension
13
14.98
23
4.5875
33
0
14
46
24
1.5875
34
0
50
0
100
AcDbRotatedDimension
1001
ACAD
1000
DSTYLE
1002
{
1070
   279
1070
     0
1070
   172
1070
     1
1070
   173
1070
     1
1070
   340
1005
E2
1070
   271
1070
     2
1070
   272
1070
     2
1070
    77
1070
     1
1070
    73
1070
     0
1070
   171
1070
     3
1070
   274
1070
     4
1070
   177
1070
    35
1070
   176
1070
    35
1070
   178
1070
    35
1070
    48
1040
-0.005
1070
    41
1041
3.5
1070
   147
1041
1.75
1070
    42
1041
1.5875
1070
    44
1041
2.0
1070
   140
1041
3.5
1070
   343
1005
0
1070
   344
1005
0
1002
}
0
DIMENSION
5
10C
100
AcDbEntity
8
SK2
62
256
6
ByLayer
370
13
48
1
60
0
100
AcDbDimension
2
DimnDraft3D4
10
44.98
20
-15.802503
30
0
11
55.981425
21
-15.802503
31
0
70
32
71
5
72
1
41
1
210
0
220
0
230
1
3
Standard
100
AcDbAlignedDimension
13
46
23
-1.5875
33
0
14
44.98
24
-4.5875
34
0
50
0
100
AcDbRotatedDimension
1001
ACAD
1000
DSTYLE
1002
{
1070
   279
1070
     0
1070
   172
1070
     1
1070
   173
1070
     1
1070
   340
1005
E2
1070
   271
1070
     2
1070
   272
1070
     2
1070
    77
1070
     1
1070
    73
1070
     0
1070
   171
1070
     3
1070
   274
1070
     4
1070
   177
1070
    35
1070
   176
1070
    35
1070
   178
1070
    35
1070
    48
1040
-0.005
1070
    41
1041
3.5
1070
   147
1041
1.75
1070
    42
1041
1.5875
1070
    44
1041
2.0
1070
   140
1041
3.5
1070
   343
1005
0
1070
   344
1005
0
1002
}
0
DIMENSION
5
116
100
AcDbEntity
8
SK2
62
256
6
ByLayer
370
13
48
1
60
0
100
AcDbDimension
2
DimnDraft3D5
10
44.98
20
-21.343428
30
0
11
2.240676
21
-21.343428
31
0
70
32
71
5
72
1
41
1
210
0
220
0
230
1
3
Standard
100
AcDbAlignedDimension
13
-36
23
-4.5875
33
0
14
44.98
24
-4.5875
34
0
50
0
100
AcDbRotatedDimension
1001
ACAD
1000
DSTYLE
1002
{
1070
   279
1070
     0
1070
   172
1070
     1
1070
   173
1070
     1
1070
   340
1005
E2
1070
   271
1070
     2
1070
   272
1070
     2
1070
    77
1070
     1
1070
    73
1070
     0
1070
   171
1070
     3
1070
   274
1070
     4
1070
   177
1070
    35
1070
   176
1070
    35
1070
   178
1070
    35
1070
    48
1040
-0.005
1070
    41
1041
3.5
1070
   147
1041
1.75
1070
    42
1041
1.5875
1070
    44
1041
2.0
1070
   140
1041
3.5
1070
   343
1005
0
1070
   344
1005
0
1002
}
0
DIMENSION
5
121
100
AcDbEntity
8
SK2
62
256
6
ByLayer
370
13
48
1
60
0
100
AcDbDimension
2
DimnDraft3D6
10
-46.625163
20
3
30
0
11
-47.250163
21
21.47418
31
0
70
33
71
5
72
1
41
1
210
0
220
0
230
1
3
Standard
100
AcDbAlignedDimension
13
-37.5875
23
-3
33
0
14
-37.5875
24
3
34
0
1001
ACAD
1000
DSTYLE
1002
{
1070
   279
1070
     0
1070
    74
1070
     0
1070
   173
1070
     1
1070
   340
1005
E2
1070
   271
1070
     3
1070
   272
1070
     2
1070
    77
1070
     1
1070
    73
1070
     0
1070
   171
1070
     3
1070
   274
1070
     4
1070
   177
1070
    35
1070
   176
1070
    35
1070
   178
1070
    35
1070
    48
1040
-0.005
1070
    41
1041
3.5
1070
   147
1041
1.75
1070
    42
1041
1.5875
1070
    44
1041
2.0
1070
   140
1041
3.5
1070
   343
1005
0
1070
   344
1005
0
1002
}
0
DIMENSION
5
12C
100
AcDbEntity
8
2
62
256
6
ByLayer
370
13
48
1
60
0
100
AcDbDimension
2
DimnDraft3D7
10
60.083343
20
3
30
0
11
55.458343
21
20.067266
31
0
70
33
71
5
72
1
41
1
210
0
220
0
230
1
3
Standard
100
AcDbAlignedDimension
13
46.5675
23
-3
33
0
14
46.5675
24
3
34
0
1001
ACAD
1000
DSTYLE
1002
{
1070
   279
1070
     0
1070
    74
1070
     0
1070
   173
1070
     1
1070
   340
1005
E2
1070
   271
1070
     3
1070
   272
1070
     2
1070
    77
1070
     1
1070
    73
1070
     0
1070
   171
1070
     3
1070
   274
1070
     4
1070
   177
1070
    35
1070
   176
1070
    35
1070
   178
1070
    35
1070
    48
1040
-0.005
1070
    41
1041
3.5
1070
   147
1041
1.75
1070
    42
1041
1.5875
1070
    44
1041
2.0
1070
   140
1041
3.5
1070
   343
1005
0
1070
   344
1005
0
1002
}
0
ENDSEC
0
SECTION
2
OBJECTS
0
DICTIONARY
5
197
330
0
100
AcDbDictionary
280
0
281
1
3
ACAD_GROUP
350
198
3
ACAD_MLINESTYLE
350
199
0
DICTIONARY
5
198
330
0
100
AcDbDictionary
280
0
281
1
0
DICTIONARY
5
199
330
0
100
AcDbDictionary
280
0
281
1
3
Standard
350
18
0
MLINESTYLE
5
18
330
199
100
AcDbMlineStyle
2
Standard
70
0
3

62
256
51
90
52
90
71
2
49
-0.5
62
256
6
ByLayer
49
0.5
62
256
6
ByLayer
0
RASTERVARIABLES
5
185
330

100
AcDbRasterVariables
90
0
70
1
71
1
72
1
0
ENDSEC
0
EOF
