0
SECTION
2
HEADER
9
$ACADVER
1
AC1015
9
$DWGCODEPAGE
3
ANSI_1252
9
$HANDSEED
5
19a
9
$ANGBASE
50
0
9
$ANGDIR
70
0
9
$ATTMODE
70
1
9
$AUNITS
70
0
9
$AUPREC
70
0
9
$CECOLOR
62
256
9
$CELTSCALE
40
1
9
$CELTYPE
6
ByLayer
9
$CELWEIGHT
370
18
9
$CLAYER
8
0
9
$CMLJUST
70
0
9
$CMLSCALE
40
1
9
$CMLSTYLE
2
Standard
9
$DIMSTYLE
2
Standard
9
$TEXTSIZE
40
0.2
9
$TEXTSTYLE
7
Standard
9
$LUNITS
70
2
9
$LUPREC
70
4
9
$EXTNAMES
290
1
9
$INSUNITS
70
4
9
$LTSCALE
40
1
9
$LWDISPLAY
290
1
9
$PDMODE
70
0
9
$PDSIZE
40
0
9
$PLINEGEN
70
0
0
ENDSEC
0
SECTION
2
CLASSES
0
CLASS
1
RASTERVARIABLES
2
AcDbRasterVariables
3
ISM
90
0
280
0
281
0
0
ENDSEC
0
SECTION
2
TABLES
0
TABLE
2
VPORT
5
190
100
AcDbSymbolTable
0
VPORT
5
1
100
AcDbSymbolTableRecord
100
AcDbViewportTableRecord
2
*Active
70
0
10
0
20
0
11
1
21
1
12
-1
22
1
13
0
23
0
14
0.5
24
0.5
15
10
25
10
16
0
26
0
36
1
17
0
27
0
37
0
0
ENDTAB
0
TABLE
2
LTYPE
5
191
100
AcDbSymbolTable
0
LTYPE
5
14
100
AcDbSymbolTableRecord
100
AcDbLinetypeTableRecord
70
0
2
ByBlock
3

72
65
73
0
40
0
0
LTYPE
5
15
100
AcDbSymbolTableRecord
100
AcDbLinetypeTableRecord
70
0
2
ByLayer
3

72
65
73
0
40
0
0
LTYPE
5
16
100
AcDbSymbolTableRecord
100
AcDbLinetypeTableRecord
70
0
2
CONTINUOUS
3
Solid line
72
65
73
0
40
0
0
LTYPE
5
6A
100
AcDbSymbolTableRecord
100
AcDbLinetypeTableRecord
70
0
2
CENTER
3
____ _ ____ _ ____ _ ____
72
65
73
4
40
47.5
49
22
74
0
49
-8.5
74
0
49
8.5
74
0
49
-8.5
74
0
0
LTYPE
5
6B
100
AcDbSymbolTableRecord
100
AcDbLinetypeTableRecord
70
0
2
DASHED
3
__ __ __ __ __ __ __ __ __
72
65
73
2
40
25.72
49
12.86
74
0
49
-12.86
74
0
0
ENDTAB
0
TABLE
2
LAYER
5
192
100
AcDbSymbolTable
0
LAYER
5
10
100
AcDbSymbolTableRecord
100
AcDbLayerTableRecord
2
0
70
0
62
7
6
CONTINUOUS
290
1
370
-3
390
0
0
LAYER
5
6D
100
AcDbSymbolTableRecord
100
AcDbLayerTableRecord
2
81
70
0
62
-3
6
CONTINUOUS
290
1
370
-3
390
0
0
LAYER
5
6F
100
AcDbSymbolTableRecord
100
AcDbLayerTableRecord
2
80
70
0
62
-6
6
CONTINUOUS
290
1
370
-3
390
0
0
LAYER
5
74
100
AcDbSymbolTableRecord
100
AcDbLayerTableRecord
2
2
70
0
62
7
6
CONTINUOUS
290
1
370
-3
390
0
0
LAYER
5
78
100
AcDbSymbolTableRecord
100
AcDbLayerTableRecord
2
1
70
0
62
4
6
CONTINUOUS
290
1
370
-3
390
0
0
LAYER
5
88
100
AcDbSymbolTableRecord
100
AcDbLayerTableRecord
2
4
70
0
62
-2
6
CENTER
290
1
370
-3
390
0
0
LAYER
5
17c
100
AcDbSymbolTableRecord
100
AcDbLayerTableRecord
2
SK2
70
0
62
7
6
CONTINUOUS
290
1
370
-3
390
0
0
LAYER
5
17d
100
AcDbSymbolTableRecord
100
AcDbLayerTableRecord
2
SK1
70
0
62
4
6
CONTINUOUS
290
1
370
-3
390
0
0
LAYER
5
17e
100
AcDbSymbolTableRecord
100
AcDbLayerTableRecord
2
SK4
70
0
62
2
6
CENTER
290
1
370
-3
390
0
0
LAYER
5
17f
100
AcDbSymbolTableRecord
100
AcDbLayerTableRecord
2
SK6
70
0
62
5
6
CONTINUOUS
290
1
370
-3
390
0
0
ENDTAB
0
TABLE
2
STYLE
5
193
100
AcDbSymbolTable
0
STYLE
5
11
100
AcDbSymbolTableRecord
100
AcDbTextStyleTableRecord
2
Standard
3
txt
70
0
71
0
40
0
41
1
42
0
50
0
0
STYLE
5
D8
100
AcDbSymbolTableRecord
100
AcDbTextStyleTableRecord
2
iso_b_vert
3
simplex.shx
70
0
71
0
40
0
41
1
42
0
50
0
0
STYLE
5
D9
100
AcDbSymbolTableRecord
100
AcDbTextStyleTableRecord
2
DWGDirectTextStyle
3
simplex
70
0
71
0
40
0
41
1
42
0
50
0
0
ENDTAB
0
TABLE
2
DIMSTYLE
5
194
100
AcDbSymbolTable
100
AcDbDimStyleTable
0
DIMSTYLE
105
27
100
AcDbSymbolTableRecord
100
AcDbDimStyleTableRecord
2
Standard
70
0
3
<>
41
0.18
42
0.0625
44
0.18
140
0.18
147
0.09
73
0
74
0
77
1
271
2
275
0
278
52
280
0
340
11
0
ENDTAB
0
TABLE
2
VIEW
5
195
100
AcDbSymbolTable
0
ENDTAB
0
TABLE
2
UCS
5
196
100
AcDbSymbolTable
0
ENDTAB
0
TABLE
2
APPID
5
197
100
AcDbSymbolTable
0
APPID
5
12
100
AcDbSymbolTableRecord
100
AcDbRegAppTableRecord
2
ACAD
70
0
0
ENDTAB
0
TABLE
2
BLOCK_RECORD
5
198
100
AcDbSymbolTable
0
BLOCK_RECORD
5
1F
100
AcDbSymbolTableRecord
100
AcDbBlockTableRecord
2
*Model_Space
340
0
70
0
0
BLOCK_RECORD
5
1B
100
AcDbSymbolTableRecord
100
AcDbBlockTableRecord
2
*Paper_Space
340
0
70
0
0
BLOCK_RECORD
5
23
100
AcDbSymbolTableRecord
100
AcDbBlockTableRecord
2
*Paper_Space0
340
0
70
0
0
BLOCK_RECORD
5
DB
100
AcDbSymbolTableRecord
100
AcDbBlockTableRecord
2
DimnDraft3D1
340
0
70
0
0
BLOCK_RECORD
5
E5
100
AcDbSymbolTableRecord
100
AcDbBlockTableRecord
2
DimnDraft3D2
340
0
70
0
0
BLOCK_RECORD
5
EF
100
AcDbSymbolTableRecord
100
AcDbBlockTableRecord
2
DimnDraft3D3
340
0
70
0
0
BLOCK_RECORD
5
F9
100
AcDbSymbolTableRecord
100
AcDbBlockTableRecord
2
DimnDraft3D4
340
0
70
0
0
BLOCK_RECORD
5
103
100
AcDbSymbolTableRecord
100
AcDbBlockTableRecord
2
DimnDraft3D5
340
0
70
0
0
BLOCK_RECORD
5
10D
100
AcDbSymbolTableRecord
100
AcDbBlockTableRecord
2
DimnDraft3D6
340
0
70
0
0
BLOCK_RECORD
5
118
100
AcDbSymbolTableRecord
100
AcDbBlockTableRecord
2
DimnDraft3D7
340
0
70
0
0
ENDTAB
0
ENDSEC
0
SECTION
2
BLOCKS
0
BLOCK
5
20
100
AcDbEntity
8
0
100
AcDbBlockBegin
2
*Model_Space
70
0
10
0
20
0
30
0
3
*Model_Space
0
ENDBLK
5
21
100
AcDbEntity
8
0
100
AcDbBlockEnd
0
BLOCK
5
1C
100
AcDbEntity
8
0
100
AcDbBlockBegin
2
*Paper_Space
70
0
10
0
20
0
30
0
3
*Paper_Space
0
ENDBLK
5
1D
100
AcDbEntity
8
0
100
AcDbBlockEnd
0
BLOCK
5
24
100
AcDbEntity
8
0
100
AcDbBlockBegin
2
*Paper_Space0
70
0
10
0
20
0
30
0
3
*Paper_Space0
0
ENDBLK
5
25
100
AcDbEntity
8
0
100
AcDbBlockEnd
0
BLOCK
5
E2
100
AcDbEntity
8
0
100
AcDbBlockBegin
2
DimnDraft3D1
70
0
10
0
20
0
30
0
3
DimnDraft3D1
0
MTEXT
5
DC
100
AcDbEntity
8
SK2
62
256
6
ByLayer
370
13
48
1
60
0
100
AcDbMText
10
8.801375
20
-12.288398
30
0
210
0
220
0
230
1
1
\W0.7317;29,00
40
3.5
41
0
44
1.084337
50
0
71
7
72
5
7
iso_b_vert
0
LINE
5
DD
100
AcDbEntity
8
SK2
62
256
6
ByLayer
370
13
48
1
60
0
100
AcDbLine
10
0
20
-1.5875
30
0
11
0
21
-15.163398
31
0
39
0
210
0
220
0
230
1
0
LINE
5
DE
100
AcDbEntity
8
SK2
62
256
6
ByLayer
370
13
48
1
60
0
100
AcDbLine
10
29
20
-4.5375
30
0
11
29
21
-15.163398
31
0
39
0
210
0
220
0
230
1
0
LINE
5
DF
100
AcDbEntity
8
SK2
62
256
6
ByLayer
370
13
48
1
60
0
100
AcDbLine
10
0
20
-13.163398
30
0
11
29
21
-13.163398
31
0
39
0
210
0
220
0
230
1
0
SOLID
5
E0
100
AcDbEntity
8
SK2
62
256
6
ByLayer
370
13
48
1
60
0
100
AcDbTrace
10
0
20
-13.163398
30
0
11
3.499998
21
-12.702615
31
0
12
3.500002
22
-13.624182
32
0
13
0
23
-13.163398
33
0
39
0
210
0
220
0
230
1
0
SOLID
5
E1
100
AcDbEntity
8
SK2
62
256
6
ByLayer
370
13
48
1
60
0
100
AcDbTrace
10
29
20
-13.163398
30
0
11
25.500002
21
-13.624182
31
0
12
25.499998
22
-12.702615
32
0
13
29
23
-13.163398
33
0
39
0
210
0
220
0
230
1
0
ENDBLK
5
E3
100
AcDbEntity
8
0
100
AcDbBlockEnd
0
BLOCK
5
EC
100
AcDbEntity
8
0
100
AcDbBlockBegin
2
DimnDraft3D2
70
0
10
0
20
0
30
0
3
DimnDraft3D2
0
MTEXT
5
E6
100
AcDbEntity
8
SK2
62
256
6
ByLayer
370
13
48
1
60
0
100
AcDbMText
10
-7.107384
20
-30.817985
30
0
210
0
220
0
230
1
1
\W0.7317;66,00
40
3.5
41
0
44
1.084337
50
0
71
7
72
5
7
iso_b_vert
0
LINE
5
E7
100
AcDbEntity
8
SK2
62
256
6
ByLayer
370
13
48
1
60
0
100
AcDbLine
10
-36
20
-4.5875
30
0
11
-36
21
-33.692985
31
0
39
0
210
0
220
0
230
1
0
LINE
5
E8
100
AcDbEntity
8
SK2
62
256
6
ByLayer
370
13
48
1
60
0
100
AcDbLine
10
30
20
-1.5875
30
0
11
30
21
-33.692985
31
0
39
0
210
0
220
0
230
1
0
LINE
5
E9
100
AcDbEntity
8
SK2
62
256
6
ByLayer
370
13
48
1
60
0
100
AcDbLine
10
-36
20
-31.692985
30
0
11
30
21
-31.692985
31
0
39
0
210
0
220
0
230
1
0
SOLID
5
EA
100
AcDbEntity
8
SK2
62
256
6
ByLayer
370
13
48
1
60
0
100
AcDbTrace
10
-36
20
-31.692985
30
0
11
-32.500002
21
-31.232202
31
0
12
-32.499998
22
-32.153769
32
0
13
-36
23
-31.692985
33
0
39
0
210
0
220
0
230
1
0
SOLID
5
EB
100
AcDbEntity
8
SK2
62
256
6
ByLayer
370
13
48
1
60
0
100
AcDbTrace
10
30
20
-31.692985
30
0
11
26.500002
21
-32.153769
31
0
12
26.499998
22
-31.232202
32
0
13
30
23
-31.692985
33
0
39
0
210
0
220
0
230
1
0
ENDBLK
5
ED
100
AcDbEntity
8
0
100
AcDbBlockEnd
0
BLOCK
5
F6
100
AcDbEntity
8
0
100
AcDbBlockBegin
2
DimnDraft3D3
70
0
10
0
20
0
30
0
3
DimnDraft3D3
0
MTEXT
5
F0
100
AcDbEntity
8
SK2
62
256
6
ByLayer
370
13
48
1
60
0
100
AcDbMText
10
16.638816
20
15.434119
30
0
210
0
220
0
230
1
1
\W0.6713;18,70
40
3.5
41
0
44
1.084337
50
0
71
7
72
5
7
iso_b_vert
0
LINE
5
F1
100
AcDbEntity
8
SK2
62
256
6
ByLayer
370
13
48
1
60
0
100
AcDbLine
10
11.3
20
4.5375
30
0
11
11.3
21
16.559119
31
0
39
0
210
0
220
0
230
1
0
LINE
5
F2
100
AcDbEntity
8
SK2
62
256
6
ByLayer
370
13
48
1
60
0
100
AcDbLine
10
30
20
1.5875
30
0
11
30
21
16.559119
31
0
39
0
210
0
220
0
230
1
0
LINE
5
F3
100
AcDbEntity
8
SK2
62
256
6
ByLayer
370
13
48
1
60
0
100
AcDbLine
10
11.3
20
14.559119
30
0
11
30
21
14.559119
31
0
39
0
210
0
220
0
230
1
0
SOLID
5
F4
100
AcDbEntity
8
SK2
62
256
6
ByLayer
370
13
48
1
60
0
100
AcDbTrace
10
11.3
20
14.559119
30
0
11
14.799998
21
15.019903
31
0
12
14.800002
22
14.098335
32
0
13
11.3
23
14.559119
33
0
39
0
210
0
220
0
230
1
0
SOLID
5
F5
100
AcDbEntity
8
SK2
62
256
6
ByLayer
370
13
48
1
60
0
100
AcDbTrace
10
30
20
14.559119
30
0
11
26.500002
21
14.098335
31
0
12
26.499998
22
15.019903
32
0
13
30
23
14.559119
33
0
39
0
210
0
220
0
230
1
0
ENDBLK
5
F7
100
AcDbEntity
8
0
100
AcDbBlockEnd
0
BLOCK
5
100
100
AcDbEntity
8
0
100
AcDbBlockBegin
2
DimnDraft3D4
70
0
10
0
20
0
30
0
3
DimnDraft3D4
0
MTEXT
5
FA
100
AcDbEntity
8
SK2
62
256
6
ByLayer
370
13
48
1
60
0
100
AcDbMText
10
37.278136
20
-14.877503
30
0
210
0
220
0
230
1
1
\W0.6367;1,00
40
3.5
41
0
44
1.084337
50
0
71
7
72
5
7
iso_b_vert
0
LINE
5
FB
100
AcDbEntity
8
SK2
62
256
6
ByLayer
370
13
48
1
60
0
100
AcDbLine
10
30
20
-1.5875
30
0
11
30
21
-17.752503
31
0
39
0
210
0
220
0
230
1
0
LINE
5
FC
100
AcDbEntity
8
SK2
62
256
6
ByLayer
370
13
48
1
60
0
100
AcDbLine
10
29
20
-4.5375
30
0
11
29
21
-17.752503
31
0
39
0
210
0
220
0
230
1
0
LINE
5
FD
100
AcDbEntity
8
SK2
62
256
6
ByLayer
370
13
48
1
60
0
100
AcDbLine
10
20.25
20
-15.752503
30
0
11
43.559715
21
-15.752503
31
0
39
0
210
0
220
0
230
1
0
SOLID
5
FE
100
AcDbEntity
8
SK2
62
256
6
ByLayer
370
13
48
1
60
0
100
AcDbTrace
10
30
20
-15.752503
30
0
11
33.499998
21
-15.291719
31
0
12
33.500002
22
-16.213287
32
0
13
30
23
-15.752503
33
0
39
0
210
0
220
0
230
1
0
SOLID
5
FF
100
AcDbEntity
8
SK2
62
256
6
ByLayer
370
13
48
1
60
0
100
AcDbTrace
10
29
20
-15.752503
30
0
11
25.500002
21
-16.213287
31
0
12
25.499998
22
-15.291719
32
0
13
29
23
-15.752503
33
0
39
0
210
0
220
0
230
1
0
ENDBLK
5
101
100
AcDbEntity
8
0
100
AcDbBlockEnd
0
BLOCK
5
10A
100
AcDbEntity
8
0
100
AcDbBlockBegin
2
DimnDraft3D5
70
0
10
0
20
0
30
0
3
DimnDraft3D5
0
MTEXT
5
104
100
AcDbEntity
8
SK2
62
256
6
ByLayer
370
13
48
1
60
0
100
AcDbMText
10
-10.188008
20
-20.468428
30
0
210
0
220
0
230
1
1
\W0.7317;65,00
40
3.5
41
0
44
1.084337
50
0
71
7
72
5
7
iso_b_vert
0
LINE
5
105
100
AcDbEntity
8
SK2
62
256
6
ByLayer
370
13
48
1
60
0
100
AcDbLine
10
-36
20
-4.5875
30
0
11
-36
21
-23.343428
31
0
39
0
210
0
220
0
230
1
0
LINE
5
106
100
AcDbEntity
8
SK2
62
256
6
ByLayer
370
13
48
1
60
0
100
AcDbLine
10
29
20
-4.5375
30
0
11
29
21
-23.343428
31
0
39
0
210
0
220
0
230
1
0
LINE
5
107
100
AcDbEntity
8
SK2
62
256
6
ByLayer
370
13
48
1
60
0
100
AcDbLine
10
-36
20
-21.343428
30
0
11
29
21
-21.343428
31
0
39
0
210
0
220
0
230
1
0
SOLID
5
108
100
AcDbEntity
8
SK2
62
256
6
ByLayer
370
13
48
1
60
0
100
AcDbTrace
10
-36
20
-21.343428
30
0
11
-32.500002
21
-20.882645
31
0
12
-32.499998
22
-21.804212
32
0
13
-36
23
-21.343428
33
0
39
0
210
0
220
0
230
1
0
SOLID
5
109
100
AcDbEntity
8
SK2
62
256
6
ByLayer
370
13
48
1
60
0
100
AcDbTrace
10
29
20
-21.343428
30
0
11
25.500002
21
-21.804212
31
0
12
25.499998
22
-20.882645
32
0
13
29
23
-21.343428
33
0
39
0
210
0
220
0
230
1
0
ENDBLK
5
10B
100
AcDbEntity
8
0
100
AcDbBlockEnd
0
BLOCK
5
115
100
AcDbEntity
8
0
100
AcDbBlockBegin
2
DimnDraft3D6
70
0
10
0
20
0
30
0
3
DimnDraft3D6
0
MTEXT
5
10E
100
AcDbEntity
8
SK2
62
256
6
ByLayer
370
13
48
1
60
0
100
AcDbMText
10
-46.375163
20
22.34918
30
0
210
0
220
0
230
1
1
\W0.7317;6,000
40
3.5
41
0
44
1.084337
50
90
71
7
72
5
7
iso_b_vert
0
MTEXT
5
10F
100
AcDbEntity
8
SK2
62
256
6
ByLayer
370
13
48
1
60
0
100
AcDbMText
10
-46.375163
20
17.126524
30
0
210
0
220
0
230
1
1
%%c
40
3.5
41
0
44
1.084337
50
90
71
7
72
5
7
iso_b_vert
0
LINE
5
110
100
AcDbEntity
8
SK2
62
256
6
ByLayer
370
13
48
1
60
0
100
AcDbLine
10
-37.5875
20
-3
30
0
11
-46.625163
21
-3
31
0
39
0
210
0
220
0
230
1
0
LINE
5
111
100
AcDbEntity
8
SK2
62
256
6
ByLayer
370
13
48
1
60
0
100
AcDbLine
10
-37.5875
20
3
30
0
11
-46.625163
21
3
31
0
39
0
210
0
220
0
230
1
0
LINE
5
112
100
AcDbEntity
8
SK2
62
256
6
ByLayer
370
13
48
1
60
0
100
AcDbLine
10
-44.625163
20
32.121549
30
0
11
-44.625163
21
-11.75
31
0
39
0
210
0
220
0
230
1
0
SOLID
5
113
100
AcDbEntity
8
SK2
62
256
6
ByLayer
370
13
48
1
60
0
100
AcDbTrace
10
-44.625163
20
-3
30
0
11
-44.164379
21
-6.499998
31
0
12
-45.085946
22
-6.500002
32
0
13
-44.625163
23
-3
33
0
39
0
210
0
220
0
230
1
0
SOLID
5
114
100
AcDbEntity
8
SK2
62
256
6
ByLayer
370
13
48
1
60
0
100
AcDbTrace
10
-44.625163
20
3
30
0
11
-45.085946
21
6.499998
31
0
12
-44.164379
22
6.500002
32
0
13
-44.625163
23
3
33
0
39
0
210
0
220
0
230
1
0
ENDBLK
5
116
100
AcDbEntity
8
0
100
AcDbBlockEnd
0
BLOCK
5
120
100
AcDbEntity
8
0
100
AcDbBlockBegin
2
DimnDraft3D7
70
0
10
0
20
0
30
0
3
DimnDraft3D7
0
MTEXT
5
119
100
AcDbEntity
8
2
62
256
6
ByLayer
370
13
48
1
60
0
100
AcDbMText
10
40.333343
20
20.892266
30
0
210
0
220
0
230
1
1
\W0.7317;5,900
40
3.5
41
0
44
1.084337
50
90
71
7
72
5
7
iso_b_vert
0
MTEXT
5
11A
100
AcDbEntity
8
2
62
256
6
ByLayer
370
13
48
1
60
0
100
AcDbMText
10
40.333343
20
15.66961
30
0
210
0
220
0
230
1
1
%%c
40
3.5
41
0
44
1.084337
50
90
71
7
72
5
7
iso_b_vert
0
LINE
5
11B
100
AcDbEntity
8
2
62
256
6
ByLayer
370
13
48
1
60
0
100
AcDbLine
10
30.5875
20
-2.95
30
0
11
44.083343
21
-2.95
31
0
39
0
210
0
220
0
230
1
0
LINE
5
11C
100
AcDbEntity
8
2
62
256
6
ByLayer
370
13
48
1
60
0
100
AcDbLine
10
30.5875
20
2.95
30
0
11
44.083343
21
2.95
31
0
39
0
210
0
220
0
230
1
0
LINE
5
11D
100
AcDbEntity
8
2
62
256
6
ByLayer
370
13
48
1
60
0
100
AcDbLine
10
42.083343
20
30.664635
30
0
11
42.083343
21
-11.7
31
0
39
0
210
0
220
0
230
1
0
SOLID
5
11E
100
AcDbEntity
8
2
62
256
6
ByLayer
370
13
48
1
60
0
100
AcDbTrace
10
42.083343
20
-2.95
30
0
11
42.544126
21
-6.449998
31
0
12
41.622559
22
-6.450002
32
0
13
42.083343
23
-2.95
33
0
39
0
210
0
220
0
230
1
0
SOLID
5
11F
100
AcDbEntity
8
2
62
256
6
ByLayer
370
13
48
1
60
0
100
AcDbTrace
10
42.083343
20
2.95
30
0
11
41.622559
21
6.449998
31
0
12
42.544126
22
6.450002
32
0
13
42.083343
23
2.95
33
0
39
0
210
0
220
0
230
1
0
ENDBLK
5
121
100
AcDbEntity
8
0
100
AcDbBlockEnd
0
ENDSEC
0
SECTION
2
ENTITIES
0
ELLIPSE
5
98
100
AcDbEntity
8
1
62
256
6
ByLayer
370
18
48
1
60
0
100
AcDbEllipse
10
4.25
20
3.043026
30
0
11
0.25
21
0
31
0
210
0
220
0
230
1
40
1
41
-2.69082654170926
42
-1.56332489673753
0
ELLIPSE
5
99
100
AcDbEntity
8
1
62
256
6
ByLayer
370
18
48
1
60
0
100
AcDbEllipse
10
4.25
20
-3.043026
30
0
11
0.25
21
0
31
0
210
0
220
0
230
1
40
1
41
1.57140609704293
42
2.69072692392274
0
ELLIPSE
5
9A
100
AcDbEntity
8
1
62
256
6
ByLayer
370
13
48
1
60
0
100
AcDbEllipse
10
29.374032
20
0.390088
30
0
11
0.153082081612425
21
0.258003636193769
31
0
210
0
220
0
230
1
40
0.454519
41
0.917105603404794
42
2.31336900500025
0
ELLIPSE
5
9B
100
AcDbEntity
8
1
62
256
6
ByLayer
370
13
48
1
60
0
100
AcDbEllipse
10
29.606298
20
1.355128
30
0
11
1.76654818347404
21
-1.21631865854218
31
0
210
0
220
0
230
-1
40
0.533762
41
1.44484622740336
42
1.71695086925407
0
ELLIPSE
5
9C
100
AcDbEntity
8
1
62
256
6
ByLayer
370
18
48
1
60
0
100
AcDbEllipse
10
30.055996
20
-0.014543
30
0
11
0.135544944386807
21
-0.427068209957295
31
0
210
0
220
0
230
-1
40
0.100282
41
1.70687987932536
42
2.33653286889794
0
ELLIPSE
5
9D
100
AcDbEntity
8
1
62
256
6
ByLayer
370
18
48
1
60
0
100
AcDbEllipse
10
30.055996
20
0.014543
30
0
11
0.135544944404441
21
0.427068210001166
31
0
210
0
220
0
230
-1
40
0.100282
41
-2.336532868919
42
-1.70687987940064
0
ELLIPSE
5
9E
100
AcDbEntity
8
1
62
256
6
ByLayer
370
18
48
1
60
0
100
AcDbEllipse
10
30.000274
20
0.000644
30
0
11
1.09419545060253
21
2.94703740456053
31
0
210
0
220
0
230
-1
40
0.131755
41
2.84911823950967
42
2.96522716297671
0
ELLIPSE
5
9F
100
AcDbEntity
8
1
62
256
6
ByLayer
370
18
48
1
60
0
100
AcDbEllipse
10
30.000274
20
-0.000644
30
0
11
1.09419545421701
21
-2.94703741527779
31
0
210
0
220
0
230
-1
40
0.131755
41
-2.96522716330469
42
-2.84911824005005
0
ELLIPSE
5
A0
100
AcDbEntity
8
1
62
256
6
ByLayer
370
18
48
1
60
0
100
AcDbEllipse
10
29.860691
20
0.101337
30
0
11
0.0727819104901224
21
0.301917195729013
31
0
210
0
220
0
230
-1
40
0.478434
41
1.69315078768293
42
2.45976119973932
0
ELLIPSE
5
A1
100
AcDbEntity
8
1
62
256
6
ByLayer
370
13
48
1
60
0
100
AcDbEllipse
10
29.796205
20
1.478326
30
0
11
1.83499912714179
21
-0.874247113345532
31
0
210
0
220
0
230
-1
40
0.478452
41
1.57291504847075
42
1.85869855446688
0
ELLIPSE
5
A2
100
AcDbEntity
8
1
62
256
6
ByLayer
370
18
48
1
60
0
100
AcDbEllipse
10
29.410396
20
-1.478326
30
0
11
0.459474625580985
21
1.23752014944856
31
0
210
0
220
0
230
-1
40
0.131755
41
0.736518128027492
42
1.4992517630812
0
ELLIPSE
5
A3
100
AcDbEntity
8
1
62
256
6
ByLayer
370
18
48
1
60
0
100
AcDbEllipse
10
29.410396
20
1.478326
30
0
11
0.459474625562228
21
-1.23752014940949
31
0
210
0
220
0
230
-1
40
0.131755
41
-1.49925176310299
42
-0.736518128027231
0
POINT
5
6C
100
AcDbEntity
8
81
62
256
6
ByLayer
370
18
48
1
60
0
100
AcDbPoint
10
30
20
0
30
0
39
0
210
0
220
0
230
1
50
360
0
POINT
5
6E
100
AcDbEntity
8
80
62
256
6
ByLayer
370
18
48
1
60
0
100
AcDbPoint
10
0
20
0
30
0
39
0
210
0
220
0
230
1
50
360
0
POINT
5
70
100
AcDbEntity
8
SK2
62
256
6
ByLayer
370
18
48
1
60
1
100
AcDbPoint
10
-36
20
-3
30
0
39
0
210
0
220
0
230
1
50
360
0
POINT
5
72
100
AcDbEntity
8
SK2
62
256
6
ByLayer
370
18
48
1
60
1
100
AcDbPoint
10
-36
20
3
30
0
39
0
210
0
220
0
230
1
50
360
0
POINT
5
73
100
AcDbEntity
8
2
62
256
6
ByLayer
370
18
48
1
60
1
100
AcDbPoint
10
29
20
-2.95
30
0
39
0
210
0
220
0
230
1
50
360
0
POINT
5
75
100
AcDbEntity
8
2
62
256
6
ByLayer
370
18
48
1
60
1
100
AcDbPoint
10
29
20
2.95
30
0
39
0
210
0
220
0
230
1
50
360
0
SPLINE
5
A4
100
AcDbEntity
8
1
62
256
6
ByLayer
370
18
48
1
60
0
100
AcDbSpline
70
4
71
3
72
20
73
16
40
0
40
0
40
0
40
0
40
0.0994956785398452
40
0.173387968993891
40
0.223158173367953
40
0.268727042198823
40
0.316784758488311
40
0.412678823582728
40
0.503046740976094
40
0.616588682073701
40
0.738388800404464
40
0.785135012241743
40
0.848654087791443
40
0.935666327680375
40
1
40
1
40
1
40
1
41
1
10
13.5745222046094
20
-2.79773925761086
30
0
41
1
10
13.8198429182591
20
-2.79807005984355
30
0
41
1
10
14.2474473965077
20
-2.79847296152084
30
0
41
1
10
14.7984721988811
20
-2.79835674501635
30
0
41
1
10
15.2158520523577
20
-2.7983695614904
30
0
41
1
10
15.5696758840091
20
-2.79896362621073
30
0
41
1
10
16.0374726680782
20
-2.79955112010904
30
0
41
1
10
16.6158137951249
20
-2.79878412542365
30
0
41
1
10
17.3557972633033
20
-2.80078986396194
30
0
41
1
10
18.159709117352
20
-2.79804960337469
30
0
41
1
10
18.8559595155115
20
-2.80070955426106
30
0
41
1
10
19.4287526179806
20
-2.80166119105496
30
0
41
1
10
19.9156285606964
20
-2.79975095774714
30
0
41
1
10
20.4459787875886
20
-2.80023072577311
30
0
41
1
10
20.8194970540519
20
-2.80089605698308
30
0
41
1
10
20.9782672951231
20
-2.80131313510529
30
0
0
SPLINE
5
A5
100
AcDbEntity
8
1
62
256
6
ByLayer
370
18
48
1
60
0
100
AcDbSpline
70
4
71
3
72
8
73
4
40
0
40
0
40
0
40
0
40
1
40
1
40
1
40
1
41
1
10
20.9965804436064
20
-2.80136184216684
30
0
41
1
10
21.0268271058772
20
-2.80144328609856
30
0
41
1
10
21.0570736371481
20
-2.80152970751533
30
0
41
1
10
21.0873200712872
20
-2.80162162568493
30
0
0
SPLINE
5
A6
100
AcDbEntity
8
1
62
256
6
ByLayer
370
18
48
1
60
0
100
AcDbSpline
70
4
71
2
72
6
73
3
40
0
40
0
40
0
40
1
40
1
40
1
41
1
10
28.4705793742067
20
-2.80655063060399
30
0
41
1
10
28.7176211091514
20
-2.8060821185899
30
0
41
1
10
28.9646311437506
20
-2.80700469925094
30
0
0
SPLINE
5
A7
100
AcDbEntity
8
1
62
256
6
ByLayer
370
18
48
1
60
0
100
AcDbSpline
70
4
71
2
72
6
73
3
40
0
40
0
40
0
40
1
40
1
40
1
41
1
10
6.14403223621594
20
2.79458114036097
30
0
41
1
10
5.19743906339332
20
2.79437249697079
30
0
41
1
10
4.25085444192965
20
2.79263002892043
30
0
0
SPLINE
5
A8
100
AcDbEntity
8
1
62
256
6
ByLayer
370
18
48
1
60
0
100
AcDbSpline
70
4
71
3
72
10
73
6
40
0
40
0
40
0
40
0
40
0.0650795400031553
40
0.361540300272798
40
1
40
1
40
1
40
1
41
1
10
21.5555108326164
20
-0.696631595420229
30
0
41
1
10
21.5554829566813
20
-0.696647690711245
30
0
41
1
10
21.5564900360762
20
-0.697373035856657
30
0
41
1
10
21.5797984513831
20
-0.711039100278583
30
0
41
1
10
21.6313931872887
20
-0.741889052777339
30
0
41
1
10
21.6827509329547
20
-0.772520945198721
30
0
0
SPLINE
5
A9
100
AcDbEntity
8
1
62
256
6
ByLayer
370
18
48
1
60
0
100
AcDbSpline
70
4
71
2
72
6
73
3
40
0
40
0
40
0
40
1
40
1
40
1
41
1
10
4.25085444192973
20
-2.79263002892049
30
0
41
1
10
5.1961384555901
20
-2.7943706714664
30
0
41
1
10
6.14143100885988
20
-2.79457959682264
30
0
0
SPLINE
5
AA
100
AcDbEntity
8
1
62
256
6
ByLayer
370
18
48
1
60
0
100
AcDbSpline
70
4
71
3
72
21
73
17
40
0
40
0
40
0
40
0
40
0.0877008927532368
40
0.179944244658542
40
0.239733923590293
40
0.29133760928408
40
0.34252942623033
40
0.439225050697578
40
0.537792561397672
40
0.605656982911724
40
0.681403710437137
40
0.761313164956274
40
0.840544462365237
40
0.90953999625919
40
0.983000080256293
40
1
40
1
40
1
40
1
41
1
10
21.0803371924503
20
2.80159848843937
30
0
41
1
10
20.8996600215773
20
2.80108223406751
30
0
41
1
10
20.5289151755021
20
2.80037454718524
30
0
41
1
10
20.0345264697343
20
2.79968972308765
30
0
41
1
10
19.6150317863026
20
2.80078190940637
30
0
41
1
10
19.2800018838326
20
2.80172365594882
30
0
41
1
10
18.8687324429896
20
2.80032410607407
30
0
41
1
10
18.3606863738707
20
2.79968687450074
30
0
41
1
10
17.8182613063199
20
2.79879980706011
30
0
41
1
10
17.3190276275801
20
2.80034967168933
30
0
41
1
10
16.8582452656382
20
2.79967668404899
30
0
41
1
10
16.3740369622634
20
2.79889905227046
30
0
41
1
10
15.90374462134
20
2.799549487511
30
0
41
1
10
15.446733820479
20
2.79864291153351
30
0
41
1
10
15.1180614481336
20
2.79841643710023
30
0
41
1
10
14.9315863078371
20
2.7984142939701
30
0
41
1
10
14.8965421347039
20
2.7984168442124
30
0
0
SPLINE
5
AB
100
AcDbEntity
8
1
62
256
6
ByLayer
370
18
48
1
60
0
100
AcDbSpline
70
4
71
3
72
18
73
14
40
0
40
0
40
0
40
0
40
0.191113036124653
40
0.191113036124653
40
0.382226072249306
40
0.382226072249306
40
0.573339108373959
40
0.573339108373959
40
0.764452144498611
40
0.764452144498611
40
0.955565180623264
40
0.955565180623264
40
1
40
1
40
1
40
1
41
1
10
9.77891526756125
20
-2.31743475491052
30
0
41
1
10
9.98002533789449
20
-2.39430948783868
30
0
41
1
10
10.1812653821781
20
-2.46405101076857
30
0
41
1
10
10.5831810256955
20
-2.5904457187159
30
0
41
1
10
10.7834546067654
20
-2.6473192356751
30
0
41
1
10
11.1855609181796
20
-2.74613851516037
30
0
41
1
10
11.3875779214372
20
-2.78829306521777
30
0
41
1
10
11.7893958306345
20
-2.85776458152759
30
0
41
1
10
11.9898623514555
20
-2.88489885822511
30
0
41
1
10
12.3918100708565
20
-2.92352331273452
30
0
41
1
10
12.5927152695704
20
-2.93519867968183
30
0
41
1
10
12.8407002106621
20
-2.93985232267437
30
0
41
1
10
12.8874865555515
20
-2.94030287236919
30
0
41
1
10
12.9342714799587
20
-2.94032794368917
30
0
0
SPLINE
5
AC
100
AcDbEntity
8
1
62
256
6
ByLayer
370
18
48
1
60
0
100
AcDbSpline
70
4
71
3
72
22
73
18
40
0
40
0
40
0
40
0
40
0.102446958895903
40
0.102446958895903
40
0.230668821910771
40
0.230668821910771
40
0.358890684925638
40
0.358890684925638
40
0.487112547940505
40
0.487112547940505
40
0.615334410955379
40
0.615334410955379
40
0.743556273970252
40
0.743556273970252
40
0.871778136985127
40
0.871778136985127
40
1
40
1
40
1
40
1
41
1
10
24.3677877583463
20
2.17236782454788
30
0
41
1
10
24.5280684073768
20
2.23954188055441
30
0
41
1
10
24.6882486501022
20
2.30330306787715
30
0
41
1
10
25.0505205344377
20
2.43719017033584
30
0
41
1
10
25.2516682219958
20
2.50504839309556
30
0
41
1
10
25.6526390838099
20
2.62768481625537
30
0
41
1
10
25.8531226511464
20
2.682001583893
30
0
41
1
10
26.2551374246585
20
2.7760376138063
30
0
41
1
10
26.4563398684334
20
2.8161634887056
30
0
41
1
10
26.8579000548731
20
2.88072028656811
30
0
41
1
10
27.0588484402963
20
2.90517480874675
30
0
41
1
10
27.4600437439624
20
2.93887815981259
30
0
41
1
10
27.6603591234012
20
2.94798678269396
30
0
41
1
10
28.0630989726193
20
2.9503544181639
30
0
41
1
10
28.2640791747586
20
2.94370854326033
30
0
41
1
10
28.6641190720776
20
2.91470971890686
30
0
41
1
10
28.8642544505827
20
2.89252866180226
30
0
41
1
10
29.064497602616
20
2.86280865564964
30
0
0
SPLINE
5
AD
100
AcDbEntity
8
1
62
256
6
ByLayer
370
18
48
1
60
0
100
AcDbSpline
70
4
71
3
72
22
73
18
40
0
40
0
40
0
40
0
40
0.25
40
0.25
40
0.5
40
0.5
40
0.625
40
0.625
40
0.75
40
0.75
40
0.8125
40
0.8125
40
0.875
40
0.875
40
0.9375
40
0.9375
40
1
40
1
40
1
40
1
41
1
10
28.8741030203605
20
0.884736314251199
30
0
41
1
10
28.9565015910096
20
0.904039164663999
30
0
41
1
10
29.0383157113678
20
0.926131578253859
30
0
41
1
10
29.198245486202
20
0.979889755906839
30
0
41
1
10
29.2759995165123
20
1.01117548640016
30
0
41
1
10
29.3860542758129
20
1.07178946992093
30
0
41
1
10
29.4219245017195
20
1.09455658240833
30
0
41
1
10
29.4881992072841
20
1.14662979943628
30
0
41
1
10
29.5190003267318
20
1.1763325056549
30
0
41
1
10
29.5566251360724
20
1.22687890362701
30
0
41
1
10
29.5676966322393
20
1.24465128386626
30
0
41
1
10
29.5863476185418
20
1.28241411515515
30
0
41
1
10
29.5939742284951
20
1.3026960272644
30
0
41
1
10
29.6046009640256
20
1.34379521482282
30
0
41
1
10
29.6077201992729
20
1.3647157987406
30
0
41
1
10
29.6098099384271
20
1.40727331529706
30
0
41
1
10
29.6087220745956
20
1.42906744204279
30
0
41
1
10
29.6058733076412
20
1.45024657348082
30
0
0
SPLINE
5
AE
100
AcDbEntity
8
1
62
256
6
ByLayer
370
18
48
1
60
0
100
AcDbSpline
70
4
71
3
72
34
73
30
40
0
40
0
40
0
40
0
40
0.249999999999993
40
0.249999999999993
40
0.374999999999994
40
0.374999999999994
40
0.499999999999995
40
0.499999999999995
40
0.624999999999996
40
0.624999999999996
40
0.687499999999997
40
0.687499999999997
40
0.749999999999998
40
0.749999999999998
40
0.781249999999998
40
0.781249999999998
40
0.812499999999998
40
0.812499999999998
40
0.843749999999999
40
0.843749999999999
40
0.874999999999999
40
0.874999999999999
40
0.906249999999999
40
0.906249999999999
40
0.937499999999999
40
0.937499999999999
40
0.96875
40
0.96875
40
1
40
1
40
1
40
1
41
1
10
26.5242216260309
20
1.17087645049744
30
0
41
1
10
26.7202987745844
20
1.00194752891406
30
0
41
1
10
26.92038655495
20
0.848367494992488
30
0
41
1
10
27.2280701073426
20
0.646898871992619
30
0
41
1
10
27.3318876037618
20
0.584550634014363
30
0
41
1
10
27.5423739253856
20
0.470766335307644
30
0
41
1
10
27.6497841657979
20
0.419073233217404
30
0
41
1
10
27.863053689062
20
0.330807428911072
30
0
41
1
10
27.9690973601093
20
0.293995060261665
30
0
41
1
10
28.1271608492849
20
0.251186283559804
30
0
41
1
10
28.1796804909142
20
0.23899966578432
30
0
41
1
10
28.2843558701711
20
0.219133305330473
30
0
41
1
10
28.3366118677988
20
0.210699339696646
30
0
41
1
10
28.412138006173
20
0.207774329366657
30
0
41
1
10
28.4368325861399
20
0.20820427414472
30
0
41
1
10
28.4850162728901
20
0.212586686989795
30
0
41
1
10
28.5086995386971
20
0.216481842947786
30
0
41
1
10
28.5533283165591
20
0.229015067753863
30
0
41
1
10
28.5737885318715
20
0.238561795206351
30
0
41
1
10
28.6122637055736
20
0.261981017641375
30
0
41
1
10
28.6302411220543
20
0.276322162428045
30
0
41
1
10
28.6615477185908
20
0.309851795806281
30
0
41
1
10
28.6750648906154
20
0.329010878768656
30
0
41
1
10
28.6967099100319
20
0.373369641892225
30
0
41
1
10
28.7044234196337
20
0.398125343485361
30
0
41
1
10
28.7139701518298
20
0.451065644115829
30
0
41
1
10
28.7158997411671
20
0.47973937120176
30
0
41
1
10
28.7147020972652
20
0.538606999406511
30
0
41
1
10
28.7116547998339
20
0.568737497856262
30
0
41
1
10
28.7067249006872
20
0.59940366805688
30
0
0
SPLINE
5
AF
100
AcDbEntity
8
1
62
256
6
ByLayer
370
18
48
1
60
0
100
AcDbSpline
70
4
71
3
72
8
73
4
40
0
40
0
40
0
40
0
40
1
40
1
40
1
40
1
41
1
10
28.9911781114912
20
-2.9259725676157
30
0
41
1
10
28.9969067731449
20
-2.91091314570699
30
0
41
1
10
29.0026298759194
20
-2.89584510476561
30
0
41
1
10
29.0083471934696
20
-2.88076904774317
30
0
0
SPLINE
5
B0
100
AcDbEntity
8
1
62
256
6
ByLayer
370
18
48
1
60
0
100
AcDbSpline
70
4
71
3
72
8
73
4
40
0
40
0
40
0
40
0
40
1
40
1
40
1
40
1
41
1
10
4.11963086287366
20
1.08388727338783
30
0
41
1
10
4.1440431654454
20
1.06453096996515
30
0
41
1
10
4.17087359692428
20
1.04678858110702
30
0
41
1
10
4.19840435396856
20
1.03120675364846
30
0
0
SPLINE
5
B1
100
AcDbEntity
8
1
62
256
6
ByLayer
370
18
48
1
60
0
100
AcDbSpline
70
4
71
3
72
14
73
10
40
0
40
0
40
0
40
0
40
0.25
40
0.25
40
0.5
40
0.5
40
0.75
40
0.75
40
1
40
1
40
1
40
1
41
1
10
29.008347193456
20
-2.88076904773666
30
0
41
1
10
29.013416791259
20
-2.86740096998204
30
0
41
1
10
29.0181122200204
20
-2.85362154136004
30
0
41
1
10
29.0252024824061
20
-2.82908066476182
30
0
41
1
10
29.0275333411064
20
-2.81845695491654
30
0
41
1
10
29.0294096836473
20
-2.80340473782081
30
0
41
1
10
29.0290719016734
20
-2.79868113263302
30
0
41
1
10
29.0267283359593
20
-2.79368391536286
30
0
41
1
10
29.0247186128528
20
-2.7933393011289
30
0
41
1
10
29.022144456908
20
-2.79465529220116
30
0
0
SPLINE
5
B2
100
AcDbEntity
8
1
62
256
6
ByLayer
370
18
48
1
60
0
100
AcDbSpline
70
4
71
3
72
14
73
10
40
0
40
0
40
0
40
0
40
0.500000000000004
40
0.500000000000004
40
0.750000000000002
40
0.750000000000002
40
0.875000000000001
40
0.875000000000001
40
1
40
1
40
1
40
1
41
1
10
29.6058733076388
20
-1.45024657347963
30
0
41
1
10
29.5173646453238
20
-1.68833739467033
30
0
41
1
10
29.4278909621979
20
-1.92554687515076
30
0
41
1
10
29.292799098853
20
-2.28006025980341
30
0
41
1
10
29.2474387431168
20
-2.39758989635766
30
0
41
1
10
29.1791821557047
20
-2.57346402311978
30
0
41
1
10
29.1563873588216
20
-2.63195842198613
30
0
41
1
10
29.1105719193139
20
-2.74793594301704
30
0
41
1
10
29.0875634626325
20
-2.80549478921017
30
0
41
1
10
29.0644976026321
20
-2.86280865563674
30
0
0
SPLINE
5
B3
100
AcDbEntity
8
1
62
256
6
ByLayer
370
13
48
1
60
0
100
AcDbSpline
70
4
71
3
72
10
73
6
40
0
40
0
40
0
40
0
40
0.5
40
0.5
40
1
40
1
40
1
40
1
41
1
10
4.02426547493712
20
1.22682456694849
30
0
41
1
10
4.03418810107092
20
1.20745940200331
30
0
41
1
10
4.04729020110022
20
1.18895012640539
30
0
41
1
10
4.07937360620485
20
1.15572306957998
30
0
41
1
10
4.09799929667344
20
1.14120635606756
30
0
41
1
10
4.11963086287369
20
1.12907810407094
30
0
0
SPLINE
5
B4
100
AcDbEntity
8
1
62
256
6
ByLayer
370
18
48
1
60
0
100
AcDbSpline
70
4
71
3
72
14
73
10
40
0
40
0
40
0
40
0
40
0.25
40
0.25
40
0.5
40
0.5
40
0.75
40
0.75
40
1
40
1
40
1
40
1
41
1
10
4.25115057012499
20
-2.53641415360909
30
0
41
1
10
4.23013961232152
20
-2.53025327268637
30
0
41
1
10
4.20898587371423
20
-2.5267307874808
30
0
41
1
10
4.16635684974295
20
-2.5258752442856
30
0
41
1
10
4.1447708599288
20
-2.52866758973701
30
0
41
1
10
4.10400549603537
20
-2.54182640964601
30
0
41
1
10
4.08432839070832
20
-2.55245070997643
30
0
41
1
10
4.0504420007897
20
-2.58099673292509
30
0
41
1
10
4.0356706580551
20
-2.59946085310259
30
0
41
1
10
4.02471975860163
20
-2.62035636443011
30
0
0
SPLINE
5
B5
100
AcDbEntity
8
1
62
256
6
ByLayer
370
18
48
1
60
0
100
AcDbSpline
70
4
71
3
72
24
73
20
40
0
40
0
40
0
40
0
40
0.0881405370296983
40
0.0881405370296983
40
0.176281074059397
40
0.176281074059397
40
0.352562148118793
40
0.352562148118793
40
0.440702685148492
40
0.440702685148492
40
0.52884322217819
40
0.52884322217819
40
0.705124296237587
40
0.705124296237587
40
0.881405370296984
40
0.881405370296984
40
0.969545907326682
40
0.969545907326682
40
1
40
1
40
1
40
1
41
1
10
4.02426547493712
20
1.22682456694855
30
0
41
1
10
4.02428185652752
20
1.31660896318206
30
0
41
1
10
4.02429637969834
20
1.40414901119809
30
0
41
1
10
4.02432239880514
20
1.57472062369956
30
0
41
1
10
4.02433383251017
20
1.6573850133627
30
0
41
1
10
4.02436421929357
20
1.89466768029561
30
0
41
1
10
4.02437948031962
20
2.03993820068635
30
0
41
1
10
4.02439939225434
20
2.23833076547405
30
0
41
1
10
4.024405554694
20
2.30146878065384
30
0
41
1
10
4.02441733586693
20
2.41857165248288
30
0
41
1
10
4.02442297930469
20
2.47277836547829
30
0
41
1
10
4.02444013249414
20
2.62265429995992
30
0
41
1
10
4.02445193439507
20
2.70586674268529
30
0
41
1
10
4.02448006923743
20
2.83634727216747
30
0
41
1
10
4.02449601037506
20
2.88179691585197
30
0
41
1
10
4.02452387170257
20
2.92135925935497
30
0
41
1
10
4.02453380198392
20
2.929741466254
30
0
41
1
10
4.02454803849292
20
2.93437726673039
30
0
41
1
10
4.0245517707271
20
2.93496929990587
30
0
41
1
10
4.0245555657628
20
2.93496737402671
30
0
0
SPLINE
5
B6
100
AcDbEntity
8
1
62
256
6
ByLayer
370
18
48
1
60
0
100
AcDbSpline
70
4
71
3
72
12
73
8
40
0
40
0
40
0
40
0
40
0.25
40
0.25
40
0.5
40
0.5
40
1
40
1
40
1
40
1
41
1
10
6.63076357813603
20
-2.77967244846161
30
0
41
1
10
6.42695493103599
20
-2.79205743652838
30
0
41
1
10
6.22536217873321
20
-2.79618794069481
30
0
41
1
10
5.8249530917968
20
-2.78971402221498
30
0
41
1
10
5.62614573982356
20
-2.77920857427588
30
0
41
1
10
5.03265043513099
20
-2.7219856109748
30
0
41
1
10
4.64050267152138
20
-2.65058086390971
30
0
41
1
10
4.25115057066975
20
-2.53641415376529
30
0
0
SPLINE
5
B7
100
AcDbEntity
8
1
62
256
6
ByLayer
370
18
48
1
60
0
100
AcDbSpline
70
4
71
3
72
20
73
16
40
0
40
0
40
0
40
0
40
0.271227282607837
40
0.271227282607837
40
0.445451088443844
40
0.445451088443844
40
0.619674894279851
40
0.619674894279851
40
0.706786797197854
40
0.706786797197854
40
0.793898700115857
40
0.793898700115857
40
0.968122505951865
40
0.968122505951865
40
1
40
1
40
1
40
1
41
1
10
8.08923317880513
20
-1.56513204228958
30
0
41
1
10
7.96263776166677
20
-1.68666858047519
30
0
41
1
10
7.83697736369288
20
-1.81133807067653
30
0
41
1
10
7.62816178228587
20
-2.01535733883213
30
0
41
1
10
7.54538700726795
20
-2.0953211766236
30
0
41
1
10
7.37947846709969
20
-2.2493696081261
30
0
41
1
10
7.29600203501684
20
-2.32379103018792
30
0
41
1
10
7.1682849493568
20
-2.42954581086204
30
0
41
1
10
7.12529368997784
20
-2.4638159594017
30
0
41
1
10
7.03817455980897
20
-2.5300563842799
30
0
41
1
10
6.99386793855155
20
-2.56214056691891
30
0
41
1
10
6.86070906979199
20
-2.65319440565622
30
0
41
1
10
6.77132001751295
20
-2.70719364019754
30
0
41
1
10
6.66407820842511
20
-2.76306763839881
30
0
41
1
10
6.64744887370224
20
-2.77148335192675
30
0
41
1
10
6.63077524811305
20
-2.77967573559604
30
0
0
SPLINE
5
B8
100
AcDbEntity
8
1
62
256
6
ByLayer
370
13
48
1
60
0
100
AcDbSpline
70
4
71
3
72
14
73
10
40
0
40
0
40
0
40
0
40
0.0688738247351345
40
0.0688738247351345
40
0.534436912367567
40
0.534436912367567
40
0.767218456183784
40
0.767218456183784
40
1
40
1
40
1
40
1
41
1
10
4.25086368536179
20
-2.79300367083181
30
0
41
1
10
4.25086974652427
20
-2.79298979352299
30
0
41
1
10
4.25087589714892
20
-2.79255883590648
30
0
41
1
10
4.25092424500997
20
-2.78595762793
30
0
41
1
10
4.25097004998222
20
-2.76167587543034
30
0
41
1
10
4.25103962169473
20
-2.69759450524231
30
0
41
1
10
4.25106304985582
20
-2.67142107749552
30
0
41
1
10
4.25110838792801
20
-2.6102291085395
30
0
41
1
10
4.25113020949473
20
-2.57538565132884
30
0
41
1
10
4.25115057012258
20
-2.53641415362696
30
0
0
SPLINE
5
B9
100
AcDbEntity
8
1
62
256
6
ByLayer
370
18
48
1
60
0
100
AcDbSpline
70
4
71
3
72
69
73
65
40
0
40
0
40
0
40
0
40
0.0625000000000107
40
0.0625000000000107
40
0.125000000000021
40
0.125000000000021
40
0.250000000000041
40
0.250000000000041
40
0.375000000000061
40
0.375000000000061
40
0.43750000000007
40
0.43750000000007
40
0.500000000000079
40
0.500000000000079
40
0.562500000000088
40
0.562500000000088
40
0.593750000000093
40
0.593750000000093
40
0.609375000000094
40
0.609375000000094
40
0.617187500000094
40
0.617187500000094
40
0.621093750000094
40
0.621093750000094
40
0.625000000000094
40
0.625000000000094
40
0.626953125000093
40
0.626953125000093
40
0.628906250000092
40
0.63281250000009
40
0.63281250000009
40
0.640625000000089
40
0.640625000000089
40
0.656250000000085
40
0.656250000000085
40
0.671875000000081
40
0.671875000000081
40
0.687500000000078
40
0.687500000000078
40
0.703125000000074
40
0.703125000000074
40
0.71875000000007
40
0.71875000000007
40
0.734375000000067
40
0.734375000000067
40
0.750000000000063
40
0.750000000000063
40
0.765625000000059
40
0.765625000000059
40
0.781250000000056
40
0.781250000000056
40
0.796875000000052
40
0.796875000000052
40
0.812500000000048
40
0.812500000000048
40
0.84375000000004
40
0.84375000000004
40
0.875000000000031
40
0.875000000000031
40
0.937500000000016
40
0.937500000000016
40
0.968750000000008
40
0.968750000000008
40
1
40
1
40
1
40
1
41
1
10
9.77894519306264
20
-2.31745447173341
30
0
41
1
10
9.56407685793681
20
-2.23560195790518
30
0
41
1
10
9.34787462043425
20
-2.1483115957042
30
0
41
1
10
8.91192970457152
20
-1.96530743698835
30
0
41
1
10
8.69194246127321
20
-1.86947049782566
30
0
41
1
10
8.03141609204422
20
-1.57674146468779
30
0
41
1
10
7.5881948128349
20
-1.37369081654427
30
0
41
1
10
6.68553604083317
20
-0.980937194090387
30
0
41
1
10
6.22598273319883
20
-0.791498327890395
30
0
41
1
10
5.51802693064511
20
-0.539030204571475
30
0
41
1
10
5.27874099929798
20
-0.460054144001163
30
0
41
1
10
4.79429953515839
20
-0.315794960848336
30
0
41
1
10
4.55053442245955
20
-0.250914647755138
30
0
41
1
10
4.05960945994735
20
-0.137318938171688
30
0
41
1
10
3.81245221638878
20
-0.0885914408474946
30
0
41
1
10
3.43900756662791
20
-0.0285263920739567
30
0
41
1
10
3.31407497386519
20
-0.0106733943371751
30
0
41
1
10
3.12597927165956
20
0.0127439398711147
30
0
41
1
10
3.0631561606514
20
0.0199901998034306
30
0
41
1
10
2.96877136063873
20
0.030001562036432
30
0
41
1
10
2.93729542091475
20
0.0331945747970224
30
0
41
1
10
2.89005986681525
20
0.0377666129931242
30
0
41
1
10
2.87423445619933
20
0.0398760026080538
30
0
41
1
10
2.84286567753145
20
0.0395285987900138
30
0
41
1
10
2.82719088217698
20
0.0374978112497217
30
0
41
1
10
2.80493563074023
20
0.0290813206403584
30
0
41
1
10
2.79815647040684
20
0.0251307142870871
30
0
41
1
10
2.7843422460939
20
0.0176879859936321
30
0
41
1
10
2.76366630899056
20
0.0064426643502031
30
0
41
1
10
2.7431296189506
20
-0.0050517940375698
30
0
41
1
10
2.70225081484702
20
-0.028388823023306
30
0
41
1
10
2.67523598863753
20
-0.0444236863826859
30
0
41
1
10
2.59519950171929
20
-0.0939747839843506
30
0
41
1
10
2.54333782982016
20
-0.128825000869597
30
0
41
1
10
2.44324781528692
20
-0.20292019199843
30
0
41
1
10
2.39501273069175
20
-0.242157153597731
30
0
41
1
10
2.30314803278833
20
-0.32618195240525
30
0
41
1
10
2.2592072623101
20
-0.371326642078344
30
0
41
1
10
2.17908901931881
20
-0.467160258799169
30
0
41
1
10
2.14306870729155
20
-0.517560746611224
30
0
41
1
10
2.08111618380758
20
-0.624494494086861
30
0
41
1
10
2.05525938802015
20
-0.681397753687719
30
0
41
1
10
2.01814626278721
20
-0.796373836690378
30
0
41
1
10
2.00643989487196
20
-0.855075220611781
30
0
41
1
10
1.99757965965153
20
-0.974929869868504
30
0
41
1
10
2.00062519711429
20
-1.0340015142055
30
0
41
1
10
2.01933809247131
20
-1.14902256171817
30
0
41
1
10
2.03520717854303
20
-1.20556501125981
30
0
41
1
10
2.07593943068741
20
-1.31240421470954
30
0
41
1
10
2.10083273328812
20
-1.36326768980004
30
0
41
1
10
2.15753435899126
20
-1.46096914946216
30
0
41
1
10
2.18954845263016
20
-1.50801729009004
30
0
41
1
10
2.25778534888639
20
-1.59712038081213
30
0
41
1
10
2.29407418053839
20
-1.63935075669286
30
0
41
1
10
2.40790985902638
20
-1.76056614542506
30
0
41
1
10
2.49034738998466
20
-1.83415190007389
30
0
41
1
10
2.66382519564775
20
-1.97120497363204
30
0
41
1
10
2.75455303204555
20
-2.03427437430366
30
0
41
1
10
3.0316083169156
20
-2.20905740116379
30
0
41
1
10
3.22420885738328
20
-2.30783454215808
30
0
41
1
10
3.51979388457332
20
-2.43805108133108
30
0
41
1
10
3.61949518011372
20
-2.47836498468936
30
0
41
1
10
3.82085237157159
20
-2.55346425386856
30
0
41
1
10
3.92272628948456
20
-2.58830778781152
30
0
41
1
10
4.02471975797226
20
-2.62035636423241
30
0
0
SPLINE
5
BA
100
AcDbEntity
8
1
62
256
6
ByLayer
370
18
48
1
60
0
100
AcDbSpline
70
4
71
3
72
26
73
22
40
0
40
0
40
0
40
0
40
0.0987459789764265
40
0.0987459789764265
40
0.300165733718721
40
0.300165733718721
40
0.350520672404293
40
0.350520672404293
40
0.400875611089865
40
0.400875611089865
40
0.501585488461007
40
0.501585488461007
40
0.703005243203289
40
0.703005243203289
40
0.753360181888862
40
0.753360181888862
40
0.803715120574434
40
0.803715120574434
40
0.904424997945578
40
0.904424997945578
40
1
40
1
40
1
40
1
41
1
10
17.4096959299748
20
1.93959422537492
30
0
41
1
10
17.6642669459848
20
1.82463004371283
30
0
41
1
10
17.9172870230997
20
1.70198071731213
30
0
41
1
10
18.6843487197162
20
1.30982170739762
30
0
41
1
10
19.1964698258424
20
1.02051251183977
30
0
41
1
10
19.8423884585582
20
0.639677326333924
30
0
41
1
10
19.9718437844419
20
0.562524769596564
30
0
41
1
10
20.2315290882818
20
0.406592315815828
30
0
41
1
10
20.3619802581369
20
0.327666675009652
30
0
41
1
10
20.751366512841
20
0.0911675160934919
30
0
41
1
10
21.0095176028131
20
-0.0663135264813945
30
0
41
1
10
21.7816844717631
20
-0.53495564612254
30
0
41
1
10
22.2934029181356
20
-0.842368838005768
30
0
41
1
10
22.9388742999923
20
-1.2044766674359
30
0
41
1
10
23.0682428497171
20
-1.27581973307429
30
0
41
1
10
23.3277505216462
20
-1.41598156582782
30
0
41
1
10
23.4581862316756
20
-1.48494191454191
30
0
41
1
10
23.8478828991071
20
-1.68567682526214
30
0
41
1
10
24.1060113607228
20
-1.81173970947438
30
0
41
1
10
24.607630622218
20
-2.04039538367289
30
0
41
1
10
24.8512065181976
20
-2.14382854744073
30
0
41
1
10
25.0948855968269
20
-2.23852758714372
30
0
0
SPLINE
5
BB
100
AcDbEntity
8
1
62
256
6
ByLayer
370
13
48
1
60
0
100
AcDbSpline
70
4
71
3
72
16
73
12
40
0
40
0
40
0
40
0
40
0.208075540284721
40
0.208075540284721
40
0.30706609774913
40
0.30706609774913
40
0.406056655213539
40
0.406056655213539
40
0.604037770142357
40
0.604037770142357
40
1
40
1
40
1
40
1
41
1
10
25.0948855968463
20
-2.23852758715122
30
0
41
1
10
25.3647485448735
20
-2.34340225334424
30
0
41
1
10
25.6347380413155
20
-2.43756494850567
30
0
41
1
10
26.0349147344991
20
-2.55905253464121
30
0
41
1
10
26.1641925216032
20
-2.59552938868455
30
0
41
1
10
26.4235205643156
20
-2.66283724937154
30
0
41
1
10
26.5538646512248
20
-2.69372541565616
30
0
41
1
10
26.943816730973
20
-2.77695697357342
30
0
41
1
10
27.2022594760173
20
-2.81998004306885
30
0
41
1
10
27.9760573967562
20
-2.91142742780164
30
0
41
1
10
28.4899279886938
20
-2.92217046130628
30
0
41
1
10
29.0083471934551
20
-2.88076904773672
30
0
0
SPLINE
5
BC
100
AcDbEntity
8
1
62
256
6
ByLayer
370
18
48
1
60
0
100
AcDbSpline
70
4
71
3
72
24
73
20
40
0
40
0
40
0
40
0
40
0.125
40
0.125
40
0.1875
40
0.1875
40
0.25
40
0.25
40
0.3125
40
0.3125
40
0.375
40
0.375
40
0.5
40
0.5
40
0.625
40
0.625
40
0.75
40
0.75
40
1
40
1
40
1
40
1
41
1
10
26.5242216260306
20
1.17087645049739
30
0
41
1
10
26.5471735543305
20
1.03773656017344
30
0
41
1
10
26.583343894029
20
0.903041446876927
30
0
41
1
10
26.6553709295272
20
0.698907853552981
30
0
41
1
10
26.6824153760348
20
0.630467178505654
30
0
41
1
10
26.7408151647428
20
0.495991344891905
30
0
41
1
10
26.7723046575918
20
0.429546113673922
30
0
41
1
10
26.8394275098733
20
0.298090305973261
30
0
41
1
10
26.8750622336955
20
0.233080201858058
30
0
41
1
10
26.950186293999
20
0.104394505295403
30
0
41
1
10
26.9898444897605
20
0.0404742044485147
30
0
41
1
10
27.1127071209767
20
-0.146966529354614
30
0
41
1
10
27.1998723603703
20
-0.266491624631271
30
0
41
1
10
27.3825977011855
20
-0.496861777752684
30
0
41
1
10
27.47816286209
20
-0.607701604242834
30
0
41
1
10
27.6764308710596
20
-0.822001101179239
30
0
41
1
10
27.7792884997685
20
-0.9255061608294
30
0
41
1
10
28.0919983340788
20
-1.22114127938681
30
0
41
1
10
28.3076802381423
20
-1.40073055028819
30
0
41
1
10
28.5292088523935
20
-1.56612552537669
30
0
0
SPLINE
5
BD
100
AcDbEntity
8
1
62
256
6
ByLayer
370
18
48
1
60
0
100
AcDbSpline
70
4
71
3
72
46
73
42
40
0
40
0
40
0
40
0
40
0.0997979097970053
40
0.0997979097970053
40
0.124747387246258
40
0.124747387246258
40
0.14969686469551
40
0.14969686469551
40
0.199595819594015
40
0.199595819594015
40
0.299393729391024
40
0.299393729391024
40
0.324343206840277
40
0.324343206840277
40
0.349292684289528
40
0.349292684289528
40
0.399191639188033
40
0.399191639188033
40
0.498989548985041
40
0.498989548985041
40
0.523939026434293
40
0.523939026434293
40
0.548888503883546
40
0.548888503883546
40
0.598787458782051
40
0.598787458782051
40
0.698585368579061
40
0.698585368579061
40
0.723534846028313
40
0.723534846028313
40
0.748484323477566
40
0.748484323477566
40
0.798383278376072
40
0.798383278376072
40
0.898181188173083
40
0.898181188173083
40
0.948080143071589
40
0.948080143071589
40
0.997979097970095
40
0.997979097970095
40
1
40
1
40
1
40
1
41
1
10
28.9911781114902
20
-2.92597256763162
30
0
41
1
10
28.4705475904055
20
-2.96680531059366
30
0
41
1
10
27.9528938908425
20
-2.95469856655475
30
0
41
1
10
27.3010814204925
20
-2.87416863258991
30
0
41
1
10
27.1703579327465
20
-2.85474702271489
30
0
41
1
10
26.9101738596394
20
-2.80975622755997
30
0
41
1
10
26.7804715300447
20
-2.78416523499916
30
0
41
1
10
26.3921724161588
20
-2.69844176313282
30
0
41
1
10
26.1343895530357
20
-2.6293603306714
30
0
41
1
10
25.3616068195228
20
-2.38872215824799
30
0
41
1
10
24.8471294277901
20
-2.18381148941853
30
0
41
1
10
24.1954212526566
20
-1.88014805344926
30
0
41
1
10
24.0646889296478
20
-1.81703942979863
30
0
41
1
10
23.804600993433
20
-1.68761699118412
30
0
41
1
10
23.6749298123935
20
-1.62116358867959
30
0
41
1
10
23.286749057401
20
-1.41703141840213
30
0
41
1
10
23.0290495301651
20
-1.2746099464957
30
0
41
1
10
22.2562049480797
20
-0.832977868354021
30
0
41
1
10
21.7417632002547
20
-0.518698634135518
30
0
41
1
10
21.0895447588448
20
-0.116599730706213
30
0
41
1
10
20.9588277963684
20
-0.0358289396929479
30
0
41
1
10
20.6987803092841
20
0.124844081891837
30
0
41
1
10
20.5691774833181
20
0.204963865021114
30
0
41
1
10
20.1811899465688
20
0.44395942237233
30
0
41
1
10
19.9234825219064
20
0.601234995709746
30
0
41
1
10
19.1504952932573
20
1.06265768463427
30
0
41
1
10
18.6357285877767
20
1.35699987121552
30
0
41
1
10
17.9833198613413
20
1.69297073274416
30
0
41
1
10
17.8527124041941
20
1.75835845094883
30
0
41
1
10
17.592725685548
20
1.88440607475127
30
0
41
1
10
17.4630920503568
20
1.94519792098194
30
0
41
1
10
17.0749210654099
20
2.12055513033212
30
0
41
1
10
16.8171488722624
20
2.22815127761058
30
0
41
1
10
16.0442636035552
20
2.52042893731962
30
0
41
1
10
15.5292044646398
20
2.67425383670545
30
0
41
1
10
14.7458826391934
20
2.83220898195856
30
0
41
1
10
14.4857359914736
20
2.87202160997174
30
0
41
1
10
13.9681113011563
20
2.92562944242579
30
0
41
1
10
13.7104601453964
20
2.93956746705271
30
0
41
1
10
13.4424053375585
20
2.94059722481492
30
0
41
1
10
13.4319715795783
20
2.94061617759237
30
0
41
1
10
13.4215376372597
20
2.94061399827373
30
0
0
SPLINE
5
BE
100
AcDbEntity
8
1
62
256
6
ByLayer
370
18
48
1
60
0
100
AcDbSpline
70
4
71
3
72
16
73
12
40
0
40
0
40
0
40
0
40
0.418296089705555
40
0.418296089705555
40
0.634302416740453
40
0.634302416740453
40
0.742305580257906
40
0.742305580257906
40
0.85030874377536
40
0.85030874377536
40
1
40
1
40
1
40
1
41
1
10
28.9728450319462
20
-2.79722060008979
30
0
41
1
10
28.47183435662
20
-2.82175531031902
30
0
41
1
10
27.9747050576796
20
-2.79927890292731
30
0
41
1
10
27.2181320341086
20
-2.69673526398432
30
0
41
1
10
26.9599568952617
20
-2.6498155240642
30
0
41
1
10
26.5705008442541
20
-2.56166040968961
30
0
41
1
10
26.4405190737615
20
-2.52932826656482
30
0
41
1
10
26.1817737662235
20
-2.45943891114135
30
0
41
1
10
26.0527601079869
20
-2.42182730032602
30
0
41
1
10
25.7455274711275
20
-2.32603563726565
30
0
41
1
10
25.5675195259648
20
-2.26555035219059
30
0
41
1
10
25.3896909749361
20
-2.20054369328571
30
0
0
SPLINE
5
BF
100
AcDbEntity
8
1
62
256
6
ByLayer
370
13
48
1
60
0
100
AcDbSpline
70
4
71
3
72
26
73
22
40
0
40
0
40
0
40
0
40
0.132469037158453
40
0.132469037158453
40
0.233822047135053
40
0.233822047135053
40
0.284498552123351
40
0.284498552123351
40
0.33517505711165
40
0.33517505711165
40
0.537881077064845
40
0.537881077064845
40
0.639234087041442
40
0.639234087041442
40
0.68991059202974
40
0.68991059202974
40
0.740587097018038
40
0.740587097018038
40
0.943293116971235
40
0.943293116971235
40
1
40
1
40
1
40
1
41
1
10
25.3896919141493
20
-2.20054403662263
30
0
41
1
10
25.0543025706981
20
-2.07793979165132
30
0
41
1
10
24.7195513510828
20
-1.93925258577184
30
0
41
1
10
24.1264901637096
20
-1.66985375193951
30
0
41
1
10
23.8686446770076
20
-1.54498944499764
30
0
41
1
10
23.4794605281172
20
-1.34707557052738
30
0
41
1
10
23.3493431406379
20
-1.27929029965264
30
0
41
1
10
23.0904151672664
20
-1.14175295446188
30
0
41
1
10
22.9613064555464
20
-1.07185939781198
30
0
41
1
10
22.3170229279428
20
-0.717652856457846
30
0
41
1
10
21.8058349666432
20
-0.418749283747872
30
0
41
1
10
21.0346153549308
20
0.0344218111208363
30
0
41
1
10
20.7767730301715
20
0.186252586798133
30
0
41
1
10
20.3878977309874
20
0.413511530765362
30
0
41
1
10
20.257719097368
20
0.489198956419187
30
0
41
1
10
19.9986035730228
20
0.638521970883573
30
0
41
1
10
19.8694080608651
20
0.712318325048159
30
0
41
1
10
19.2246973614319
20
1.07610937727978
30
0
41
1
10
18.7131617195937
20
1.3508192131429
30
0
41
1
10
18.0552270560462
20
1.66833350622522
30
0
41
1
10
17.9111979942336
20
1.73565293753526
30
0
41
1
10
17.7668010662123
20
1.80062940346315
30
0
0
SPLINE
5
C0
100
AcDbEntity
8
1
62
256
6
ByLayer
370
18
48
1
60
0
100
AcDbSpline
70
4
71
3
72
10
73
6
40
0
40
0
40
0
40
0
40
0.379627576787822
40
0.379627576787822
40
1
40
1
40
1
40
1
41
1
10
9.77893245259295
20
2.31744435190239
30
0
41
1
10
9.73964972406066
20
2.29550691494151
30
0
41
1
10
9.70035220104342
20
2.27337134420375
30
0
41
1
10
9.59678124792359
20
2.21452595028467
30
0
41
1
10
9.53246819815448
20
2.1774797594413
30
0
41
1
10
9.46804026089811
20
2.13990192204798
30
0
0
SPLINE
5
C1
100
AcDbEntity
8
1
62
256
6
ByLayer
370
18
48
1
60
0
100
AcDbSpline
70
4
71
3
72
14
73
10
40
0
40
0
40
0
40
0
40
0.5
40
0.5
40
0.75
40
0.75
40
0.875
40
0.875
40
1
40
1
40
1
40
1
41
1
10
29.6058733076389
20
1.45024657347952
30
0
41
1
10
29.5173646453238
20
1.68833739467021
30
0
41
1
10
29.4278909621979
20
1.92554687515067
30
0
41
1
10
29.292799098853
20
2.28006025980335
30
0
41
1
10
29.2474387431169
20
2.3975898963576
30
0
41
1
10
29.1791821557048
20
2.57346402311976
30
0
41
1
10
29.1563873588216
20
2.6319584219861
30
0
41
1
10
29.1105719193139
20
2.74793594301701
30
0
41
1
10
29.0875634626325
20
2.80549478921017
30
0
41
1
10
29.0644976026321
20
2.86280865563674
30
0
0
SPLINE
5
C2
100
AcDbEntity
8
1
62
256
6
ByLayer
370
18
48
1
60
0
100
AcDbSpline
70
4
71
3
72
8
73
4
40
0
40
0
40
0
40
0
40
1
40
1
40
1
40
1
41
1
10
9.7789451930627
20
2.31745447173344
30
0
41
1
10
9.65254829327813
20
2.26930450128103
30
0
41
1
10
9.52568980810531
20
2.2192728103997
30
0
41
1
10
9.39828092073009
20
2.16760899011092
30
0
0
SPLINE
5
C3
100
AcDbEntity
8
1
62
256
6
ByLayer
370
18
48
1
60
0
100
AcDbSpline
70
4
71
3
72
20
73
16
40
0
40
0
40
0
40
0
40
0.125000000000001
40
0.125000000000001
40
0.250000000000003
40
0.250000000000003
40
0.500000000000002
40
0.500000000000002
40
0.625000000000002
40
0.625000000000002
40
0.750000000000001
40
0.750000000000001
40
0.875000000000001
40
0.875000000000001
40
1
40
1
40
1
40
1
41
1
10
28.9783596395833
20
-2.80693382103704
30
0
41
1
10
28.9363077874461
20
-2.80688353859435
30
0
41
1
10
28.8963451884614
20
-2.80052739419546
30
0
41
1
10
28.8208143867511
20
-2.77455177435107
30
0
41
1
10
28.7850147705492
20
-2.75472362033753
30
0
41
1
10
28.6867313983201
20
-2.6750597837073
30
0
41
1
10
28.633431231737
20
-2.59612485350615
30
0
41
1
10
28.5729395897249
20
-2.43660570745223
30
0
41
1
10
28.5559820954699
20
-2.37591181202089
30
0
41
1
10
28.5299784079292
20
-2.24355179398063
30
0
41
1
10
28.5207848570502
20
-2.1717590786925
30
0
41
1
10
28.5099627954475
20
-2.0170242041238
30
0
41
1
10
28.5083333290943
20
-1.934083453261
30
0
41
1
10
28.512945009782
20
-1.75660215015731
30
0
41
1
10
28.5192055416424
20
-1.66296690195145
30
0
41
1
10
28.5292088523934
20
-1.56612552537666
30
0
0
SPLINE
5
C4
100
AcDbEntity
8
1
62
256
6
ByLayer
370
18
48
1
60
0
100
AcDbSpline
70
4
71
3
72
16
73
12
40
0
40
0
40
0
40
0
40
0.225376851424083
40
0.225376851424083
40
0.450753702848165
40
0.450753702848165
40
0.676130554272248
40
0.676130554272248
40
0.901507405696331
40
0.901507405696331
40
1
40
1
40
1
40
1
41
1
10
6.63078503902977
20
-2.77967092491971
30
0
41
1
10
6.83846611019538
20
-2.76700330281068
30
0
41
1
10
7.04582566716479
20
-2.74607739228705
30
0
41
1
10
7.45985484259341
20
-2.68910092661204
30
0
41
1
10
7.66651996704218
20
-2.65326476122434
30
0
41
1
10
8.08110690718436
20
-2.56728591433063
30
0
41
1
10
8.28903982553842
20
-2.5161455493797
30
0
41
1
10
8.70338350479247
20
-2.39950863334519
30
0
41
1
10
8.91032560451313
20
-2.33427439603065
30
0
41
1
10
9.20793129900693
20
-2.23202963447085
30
0
41
1
10
9.29838725437375
20
-2.19970340623064
30
0
41
1
10
9.38888348412644
20
-2.16620220432466
30
0
0
SPLINE
5
C5
100
AcDbEntity
8
1
62
256
6
ByLayer
370
18
48
1
60
0
100
AcDbSpline
70
4
71
3
72
24
73
20
40
0
40
0
40
0
40
0
40
0.0866512677539959
40
0.0866512677539959
40
0.200819859284746
40
0.200819859284746
40
0.314988450815497
40
0.314988450815497
40
0.429157042346248
40
0.429157042346248
40
0.543325633876998
40
0.543325633876998
40
0.657494225407749
40
0.657494225407749
40
0.771662816938499
40
0.771662816938499
40
0.885831408469249
40
0.885831408469249
40
1
40
1
40
1
40
1
41
1
10
21.0834574896416
20
2.8025599756524
30
0
41
1
10
21.2405451146882
20
2.80264142005859
30
0
41
1
10
21.397419706923
20
2.79767838040291
30
0
41
1
10
21.7617041736952
20
2.7762029741869
30
0
41
1
10
21.9692633672245
20
2.7563082403241
30
0
41
1
10
22.384186136535
20
2.7030847327309
30
0
41
1
10
22.5910625455425
20
2.66818644150675
30
0
41
1
10
23.0050223629019
20
2.58284574663651
30
0
41
1
10
23.2116474405765
20
2.53237333905014
30
0
41
1
10
23.6261313746284
20
2.41791213605629
30
0
41
1
10
23.8339877563089
20
2.35465072637788
30
0
41
1
10
24.24788901923
20
2.21334355947803
30
0
41
1
10
24.4544304787283
20
2.1357542545062
30
0
41
1
10
24.868427312151
20
1.97001391792958
30
0
41
1
10
25.0757619369734
20
1.88143124530507
30
0
41
1
10
25.4901183058189
20
1.69408187234012
30
0
41
1
10
25.6970760762825
20
1.59537609094633
30
0
41
1
10
26.1105573732912
20
1.38896783116741
30
0
41
1
10
26.3170866280158
20
1.28136788917584
30
0
41
1
10
26.5242216260312
20
1.17087645049782
30
0
0
SPLINE
5
C6
100
AcDbEntity
8
1
62
256
6
ByLayer
370
18
48
1
60
0
100
AcDbSpline
70
4
71
3
72
8
73
4
40
0
40
0
40
0
40
0
40
1
40
1
40
1
40
1
41
1
10
28.9911781114851
20
2.92597256763204
30
0
41
1
10
28.7876370901437
20
2.94193616920745
30
0
41
1
10
28.5844804626361
20
2.9498138864561
30
0
41
1
10
28.3813023329275
20
2.94962603700301
30
0
0
SPLINE
5
C7
100
AcDbEntity
8
1
62
256
6
ByLayer
370
18
48
1
60
0
100
AcDbSpline
70
4
71
3
72
32
73
28
40
0
40
0
40
0
40
0
40
0.132666195282323
40
0.132666195282323
40
0.204944012342126
40
0.204944012342126
40
0.241082920872028
40
0.241082920872028
40
0.277221829401931
40
0.277221829401931
40
0.42177746352154
40
0.42177746352154
40
0.494055280581345
40
0.494055280581345
40
0.530194189111248
40
0.530194189111248
40
0.566333097641151
40
0.566333097641151
40
0.710888731760765
40
0.710888731760765
40
0.783166548820573
40
0.783166548820573
40
0.819305457350477
40
0.819305457350477
40
0.855444365880382
40
0.855444365880382
40
1
40
1
40
1
40
1
41
1
10
14.8776964134831
20
-2.80459846626945
30
0
41
1
10
14.3993892564169
20
-2.89341281570495
30
0
41
1
10
13.9264272449825
20
-2.93869434969531
30
0
41
1
10
13.1959154251012
20
-2.94156776597856
30
0
41
1
10
12.9380621735124
20
-2.92965787338687
30
0
41
1
10
12.5497116341934
20
-2.89244236566833
30
0
41
1
10
12.4200136311436
20
-2.87680883468642
30
0
41
1
10
12.1600158554659
20
-2.8389940149672
30
0
41
1
10
12.0294346241797
20
-2.81677103182233
30
0
41
1
10
11.3768047372505
20
-2.69000507858237
30
0
41
1
10
10.8616903573291
20
-2.53981828920274
30
0
41
1
10
10.0881926434791
20
-2.25287587586286
30
0
41
1
10
9.83038375290994
20
-2.14677682502702
30
0
41
1
10
9.44213669095905
20
-1.97341188464932
30
0
41
1
10
9.31243823114437
20
-1.91328965006855
30
0
41
1
10
9.05229183214297
20
-1.78853861783205
30
0
41
1
10
8.92155934790861
20
-1.72375508410471
30
0
41
1
10
8.26902605054815
20
-1.3910863099475
30
0
41
1
10
7.75368153647855
20
-1.09937467459636
30
0
41
1
10
6.98049374982463
20
-0.639680898971136
30
0
41
1
10
6.72254880983502
20
-0.483048504088458
30
0
41
1
10
6.33395850358502
20
-0.245146449182613
30
0
41
1
10
6.20414679038589
20
-0.165358606179893
30
0
41
1
10
5.94383255714888
20
-0.0049924585625831
30
0
41
1
10
5.8130942783458
20
0.0757590738010379
30
0
41
1
10
5.16028420152844
20
0.478058210553229
30
0
41
1
10
4.6414431611594
20
0.793889942201758
30
0
41
1
10
4.11890677811357
20
1.09244514653395
30
0
0
SPLINE
5
C8
100
AcDbEntity
8
1
62
256
6
ByLayer
370
18
48
1
60
0
100
AcDbSpline
70
4
71
3
72
8
73
4
40
0
40
0
40
0
40
0
40
1
40
1
40
1
40
1
41
1
10
29.0221444569103
20
-2.79465529219996
30
0
41
1
10
29.0061273767154
20
-2.80284373725857
30
0
41
1
10
28.991523872094
20
-2.80696124789799
30
0
41
1
10
28.9783596395875
20
-2.80693382103706
30
0
0
SPLINE
5
C9
100
AcDbEntity
8
1
62
256
6
ByLayer
370
18
48
1
60
0
100
AcDbSpline
70
4
71
3
72
8
73
4
40
0
40
0
40
0
40
0
40
1
40
1
40
1
40
1
41
1
10
4.07251822738982
20
1.12650792454872
30
0
41
1
10
4.04348227851978
20
1.15353084979
30
0
41
1
10
4.02425861725865
20
1.18923892544683
30
0
41
1
10
4.02426547493712
20
1.2268245669465
30
0
0
SPLINE
5
CA
100
AcDbEntity
8
1
62
256
6
ByLayer
370
13
48
1
60
0
100
AcDbSpline
70
4
71
3
72
23
73
19
40
0
40
0
40
0
40
0
40
0.170990109461806
40
0.170990109461806
40
0.256485164192709
40
0.256485164192709
40
0.341980218923612
40
0.427475273654515
40
0.427475273654515
40
0.512970328385418
40
0.512970328385418
40
0.598465383116321
40
0.598465383116321
40
0.683960437847224
40
0.683960437847224
40
0.85495054730903
40
0.85495054730903
40
1
40
1
40
1
40
1
41
1
10
4.25041202231921
20
1.0727363689538
30
0
41
1
10
4.25046390015029
20
1.24693544950944
30
0
41
1
10
4.2505012209802
20
1.41171218324905
30
0
41
1
10
4.25054425377303
20
1.64493311825257
30
0
41
1
10
4.25055643554248
20
1.72047975674585
30
0
41
1
10
4.25057749120094
20
1.86400389446095
30
0
41
1
10
4.25059539176459
20
2.00070463865683
30
0
41
1
10
4.25060994452053
20
2.12400860239828
30
0
41
1
10
4.25062415746729
20
2.24053605297823
30
0
41
1
10
4.25063111993907
20
2.29559787150004
30
0
41
1
10
4.25064581175633
20
2.39773700130795
30
0
41
1
10
4.2506535154495
20
2.44465463912331
30
0
41
1
10
4.25067067219589
20
2.53021570278287
30
0
41
1
10
4.25068015730477
20
2.56889870716447
30
0
41
1
10
4.25071193379318
20
2.67070054167348
30
0
41
1
10
4.25073776220762
20
2.72046197063273
30
0
41
1
10
4.25079671246638
20
2.77920759061729
30
0
41
1
10
4.25082849246306
20
2.79296154700299
30
0
41
1
10
4.25086322191521
20
2.7930039189414
30
0
0
SPLINE
5
CB
100
AcDbEntity
8
1
62
256
6
ByLayer
370
18
48
1
60
0
100
AcDbSpline
70
4
71
3
72
14
73
10
40
0
40
0
40
0
40
0
40
0.25
40
0.25
40
0.5
40
0.5
40
0.75
40
0.75
40
1
40
1
40
1
40
1
41
1
10
28.7067249006872
20
0.59940366805688
30
0
41
1
10
28.7021871695079
20
0.627630378691237
30
0
41
1
10
28.7015179913412
20
0.656455251854425
30
0
41
1
10
28.709314545531
20
0.715632279625197
30
0
41
1
10
28.7176739996053
20
0.744978040815084
30
0
41
1
10
28.7455327934867
20
0.800907504755685
30
0
41
1
10
28.7648218044344
20
0.82714080446226
30
0
41
1
10
28.8143044352242
20
0.86521899759407
30
0
41
1
10
28.8436592797086
20
0.877604503988209
30
0
41
1
10
28.8741030203606
20
0.884736314251199
30
0
0
SPLINE
5
CC
100
AcDbEntity
8
1
62
256
6
ByLayer
370
18
48
1
60
0
100
AcDbSpline
70
4
71
3
72
70
73
66
40
0
40
0
40
0
40
0
40
0.0180045388598992
40
0.0180045388598992
40
0.0530758053291885
40
0.0530758053291885
40
0.0881470717984777
40
0.0881470717984777
40
0.123218338267767
40
0.123218338267767
40
0.158289604737056
40
0.158289604737056
40
0.193360871206346
40
0.193360871206346
40
0.21089650444099
40
0.21089650444099
40
0.228432137675635
40
0.228432137675635
40
0.263503404144924
40
0.263503404144924
40
0.298574670614213
40
0.298574670614213
40
0.333645937083503
40
0.333645937083503
40
0.368717203552792
40
0.368717203552792
40
0.403788470022081
40
0.403788470022081
40
0.438859736491371
40
0.438859736491371
40
0.47393100296066
40
0.47393100296066
40
0.509002269429949
40
0.509002269429949
40
0.544073535899238
40
0.544073535899238
40
0.579144802368528
40
0.579144802368528
40
0.596680435603172
40
0.596680435603172
40
0.614216068837817
40
0.614216068837817
40
0.649287335307106
40
0.649287335307106
40
0.666822968541751
40
0.666822968541751
40
0.684358601776397
40
0.684358601776397
40
0.719429868245686
40
0.719429868245686
40
0.754501134714975
40
0.754501134714975
40
0.789572401184264
40
0.789572401184264
40
0.824643667653554
40
0.824643667653554
40
0.859714934122843
40
0.859714934122843
40
0.894786200592132
40
0.894786200592132
40
0.929857467061421
40
0.929857467061421
40
0.964928733530711
40
0.964928733530711
40
1
40
1
40
1
40
1
41
1
10
24.3557262740757
20
-2.17131419032995
30
0
41
1
10
24.2492861358359
20
-2.21109110414238
30
0
41
1
10
24.1428961529855
20
-2.24923955098993
30
0
41
1
10
23.8294491643468
20
-2.35609751051285
30
0
41
1
10
23.6221706070078
20
-2.41908806684086
30
0
41
1
10
23.2073348143761
20
-2.53348048084021
30
0
41
1
10
23.0001900695155
20
-2.5839561424834
30
0
41
1
10
22.5861934270961
20
-2.66907335128178
30
0
41
1
10
22.3795647487859
20
-2.70376637616502
30
0
41
1
10
21.9656595972214
20
-2.75667987952667
30
0
41
1
10
21.7579111048052
20
-2.77652273394853
30
0
41
1
10
21.3434238784705
20
-2.80076356536199
30
0
41
1
10
21.1369562962647
20
-2.80538254675497
30
0
41
1
10
20.8267030843452
20
-2.79859068806951
30
0
41
1
10
20.7232080254695
20
-2.7937093545157
30
0
41
1
10
20.5161872025935
20
-2.78045981424123
30
0
41
1
10
20.4126809610631
20
-2.77225915812815
30
0
41
1
10
20.1017933994315
20
-2.74202356065266
30
0
41
1
10
19.8944106725452
20
-2.7145737355786
30
0
41
1
10
19.4805135997851
20
-2.64477256236771
30
0
41
1
10
19.2741049750098
20
-2.60199234316181
30
0
41
1
10
18.8601645764936
20
-2.50043666510794
30
0
41
1
10
18.6523712032241
20
-2.44279239817695
30
0
41
1
10
18.2381564741071
20
-2.31325251910252
30
0
41
1
10
18.031378781159
20
-2.24194970792055
30
0
41
1
10
17.6175080619161
20
-2.08870375212652
30
0
41
1
10
17.4107742630704
20
-2.00587027621529
30
0
41
1
10
16.9961328113708
20
-1.82787088777243
30
0
41
1
10
16.7885471244057
20
-1.73322056660098
30
0
41
1
10
16.3747337612558
20
-1.53528781090657
30
0
41
1
10
16.1680838215562
20
-1.43210362827102
30
0
41
1
10
15.7539076736019
20
-1.2181724392932
30
0
41
1
10
15.546137653243
20
-1.10674048997609
30
0
41
1
10
15.1318298641648
20
-0.87824162032814
30
0
41
1
10
14.924691203173
20
-0.762126744599982
30
0
41
1
10
14.5107428514524
20
-0.525737624928098
30
0
41
1
10
14.3039797268298
20
-0.405347872608047
30
0
41
1
10
13.9926660911587
20
-0.223411420642208
30
0
41
1
10
13.8887399849652
20
-0.162527898288772
30
0
41
1
10
13.6812452699932
20
-0.0409339479635094
30
0
41
1
10
13.5775680008151
20
0.0198642512997367
30
0
41
1
10
13.2670194913959
20
0.202678138418889
30
0
41
1
10
13.0599388048122
20
0.323925399582578
30
0
41
1
10
12.748953281383
20
0.504221930140631
30
0
41
1
10
12.6452941145192
20
0.564170697430484
30
0
41
1
10
12.4377303433608
20
0.683291115300023
30
0
41
1
10
12.3338792689549
20
0.742250307326572
30
0
41
1
10
12.0227271922804
20
0.917016561171863
30
0
41
1
10
11.8154165036154
20
1.03083292003433
30
0
41
1
10
11.4011024440995
20
1.25243506906872
30
0
41
1
10
11.1940308576689
20
1.36057529561643
30
0
41
1
10
10.778462473317
20
1.56867060179618
30
0
41
1
10
10.5710863120582
20
1.66901366558616
30
0
41
1
10
10.1570384495124
20
1.85806345454159
30
0
41
1
10
9.94993431778789
20
1.9462638796775
30
0
41
1
10
9.53529087370336
20
2.11285386937061
30
0
41
1
10
9.32764598089636
20
2.19084746407106
30
0
41
1
10
8.91256917427009
20
2.33355617241938
30
0
41
1
10
8.7053708073133
20
2.3989043682696
30
0
41
1
10
8.29092810025148
20
2.51565842978508
30
0
41
1
10
8.08309231002795
20
2.56683507362862
30
0
41
1
10
7.66772358006031
20
2.65305395091332
30
0
41
1
10
7.46073211617517
20
2.68896518875493
30
0
41
1
10
7.04617053375532
20
2.74604490160243
30
0
41
1
10
6.83860523901834
20
2.76699481657087
30
0
41
1
10
6.63078503902992
20
2.77967092491966
30
0
0
SPLINE
5
CD
100
AcDbEntity
8
1
62
256
6
ByLayer
370
18
48
1
60
0
100
AcDbSpline
70
4
71
3
72
14
73
10
40
0
40
0
40
0
40
0
40
0.140120711072724
40
0.140120711072724
40
0.570060355536362
40
0.570060355536362
40
0.785030177768181
40
0.785030177768181
40
1
40
1
40
1
40
1
41
1
10
4.02455565364858
20
-2.93496722328248
30
0
41
1
10
4.02456281477873
20
-2.93494629376954
30
0
41
1
10
4.02457019903625
20
-2.93281167488578
30
0
41
1
10
4.02460077659134
20
-2.91564938810518
30
0
41
1
10
4.02462537442796
20
-2.88336185199066
30
0
41
1
10
4.02466221378609
20
-2.80585930922251
30
0
41
1
10
4.02467453578186
20
-2.7749204305463
30
0
41
1
10
4.02469810146169
20
-2.70416507615815
30
0
41
1
10
4.02470935544844
20
-2.66440006660699
30
0
41
1
10
4.02471975860146
20
-2.62035636443008
30
0
0
SPLINE
5
CE
100
AcDbEntity
8
1
62
256
6
ByLayer
370
18
48
1
60
0
100
AcDbSpline
70
4
71
3
72
14
73
10
40
0
40
0
40
0
40
0
40
0.0243444114430063
40
0.0243444114430063
40
0.547905281185088
40
0.547905281185088
40
0.809685716056128
40
0.809685716056128
40
1
40
1
40
1
40
1
41
1
10
13.612502987804
20
-2.79775187069788
30
0
41
1
10
13.5886190352606
20
-2.79774305549026
30
0
41
1
10
13.5647395818783
20
-2.79763042459436
30
0
41
1
10
13.0273855952384
20
-2.79276768243275
30
0
41
1
10
12.5148184762932
20
-2.7392807679604
30
0
41
1
10
11.7383739138236
20
-2.58727879112007
30
0
41
1
10
11.4775580932539
20
-2.5243196495552
30
0
41
1
10
11.0312615939932
20
-2.39791998032214
30
0
41
1
10
10.844020270657
20
-2.33922967047042
30
0
41
1
10
10.657068492458
20
-2.27541285227093
30
0
0
SPLINE
5
CF
100
AcDbEntity
8
1
62
256
6
ByLayer
370
13
48
1
60
0
100
AcDbSpline
70
4
71
3
72
20
73
16
40
0
40
0
40
0
40
0
40
0.0329990966631334
40
0.0329990966631334
40
0.274749322497349
40
0.274749322497349
40
0.395624435414457
40
0.395624435414457
40
0.516499548331566
40
0.516499548331566
40
0.758249774165783
40
0.758249774165783
40
0.879124887082892
40
0.879124887082892
40
1
40
1
40
1
40
1
41
1
10
10.657069438708
20
-2.27541317527746
30
0
41
1
10
10.586865648335
20
-2.25144880685863
30
0
41
1
10
10.5167026879318
20
-2.22676152943265
30
0
41
1
10
9.93271724326263
20
-2.01535348420248
30
0
41
1
10
9.42050875695767
20
-1.79117527528763
30
0
41
1
10
8.64405939648839
20
-1.41022897895431
30
0
41
1
10
8.38324984330345
20
-1.2754362523709
30
0
41
1
10
7.86608185502504
20
-0.998359282590428
30
0
41
1
10
7.60870836475667
20
-0.855528543851676
30
0
41
1
10
6.83824374138641
20
-0.417753848536478
30
0
41
1
10
6.32565952983421
20
-0.115256850088542
30
0
41
1
10
5.54960205850654
20
0.339358403332483
30
0
41
1
10
5.28901880595464
20
0.491182517573122
30
0
41
1
10
4.76972198520315
20
0.787490640899364
30
0
41
1
10
4.51031362249216
20
0.932367877371007
30
0
41
1
10
4.25041202231915
20
1.0727363689538
30
0
0
SPLINE
5
D0
100
AcDbEntity
8
1
62
256
6
ByLayer
370
18
48
1
60
0
100
AcDbSpline
70
4
71
3
72
8
73
4
40
0
40
0
40
0
40
0
40
1
40
1
40
1
40
1
41
1
10
6.14084984938796
20
2.79399488320271
30
0
41
1
10
6.30333900072122
20
2.79429383602297
30
0
41
1
10
6.46651314273285
20
2.78965357395043
30
0
41
1
10
6.63076357813185
20
2.77967244846184
30
0
0
SPLINE
5
D1
100
AcDbEntity
8
1
62
256
6
ByLayer
370
18
48
1
60
0
100
AcDbSpline
70
4
71
3
72
8
73
4
40
0
40
0
40
0
40
0
40
1
40
1
40
1
40
1
41
1
10
4.11890677811488
20
1.09244514653324
30
0
41
1
10
4.10187915991506
20
1.10217400790228
30
0
41
1
10
4.08643476059359
20
1.11355620604064
30
0
41
1
10
4.07251822739036
20
1.12650792454824
30
0
0
SPLINE
5
D2
100
AcDbEntity
8
1
62
256
6
ByLayer
370
18
48
1
60
0
100
AcDbSpline
70
4
71
3
72
18
73
14
40
0
40
0
40
0
40
0
40
0.132705621259424
40
0.132705621259424
40
0.265411242518847
40
0.265411242518847
40
0.530822485037692
40
0.530822485037692
40
0.663528106297114
40
0.663528106297114
40
0.796233727556536
40
0.796233727556536
40
1
40
1
40
1
40
1
41
1
10
4.19840435396816
20
1.03120675364869
30
0
41
1
10
4.45890523400507
20
0.883768753341741
30
0
41
1
10
4.71887022090249
20
0.732082348679313
30
0
41
1
10
5.23924293004112
20
0.422696156731462
30
0
41
1
10
5.50037417904409
20
0.264580608550119
30
0
41
1
10
6.27770015255757
20
-0.207617820086114
30
0
41
1
10
6.79087687602032
20
-0.520086848931754
30
0
41
1
10
7.56234851830118
20
-0.970070587084621
30
0
41
1
10
7.82008056095333
20
-1.11651504322799
30
0
41
1
10
8.33816638929054
20
-1.39975329875145
30
0
41
1
10
8.59954711192998
20
-1.5371554273666
30
0
41
1
10
9.25682096157925
20
-1.86400646950889
30
0
41
1
10
9.65145764030305
20
-2.04291332229929
30
0
41
1
10
10.046154504548
20
-2.19902376848569
30
0
0
SPLINE
5
D3
100
AcDbEntity
8
1
62
256
6
ByLayer
370
13
48
1
60
0
100
AcDbSpline
70
4
71
3
72
18
73
14
40
0
40
0
40
0
40
0
40
0.0783105755559188
40
0.0783105755559188
40
0.246892965089245
40
0.246892965089245
40
0.415475354622572
40
0.415475354622572
40
0.752640133689228
40
0.752640133689228
40
0.921222523222557
40
0.921222523222557
40
1
40
1
40
1
40
1
41
1
10
10.0461546002947
20
-2.19902380635543
30
0
41
1
10
10.1655613578053
20
-2.24625154855613
30
0
41
1
10
10.2849736237038
20
-2.29139289419336
30
0
41
1
10
10.6617695357646
20
-2.42680548197327
30
0
41
1
10
10.9193938506211
20
-2.50925666471198
30
0
41
1
10
11.4371553271594
20
-2.65222382397647
30
0
41
1
10
11.6985303889356
20
-2.71283871600318
30
0
41
1
10
12.4761460712415
20
-2.85598290226668
30
0
41
1
10
12.9893535124733
20
-2.90132435177992
30
0
41
1
10
13.7605849366643
20
-2.89331566965393
30
0
41
1
10
14.0181052092896
20
-2.87814282961017
30
0
41
1
10
14.3980312926107
20
-2.837026850136
30
0
41
1
10
14.5194999524378
20
-2.82107008883668
30
0
41
1
10
14.6410822809856
20
-2.80235872537222
30
0
0
SPLINE
5
D4
100
AcDbEntity
8
1
62
256
6
ByLayer
370
13
48
1
60
0
100
AcDbSpline
70
4
71
3
72
10
73
6
40
0
40
0
40
0
40
0
40
0.5
40
0.5
40
1
40
1
40
1
40
1
41
1
10
4.25041202231918
20
1.0727363689538
30
0
41
1
10
4.22748446581511
20
1.08016065190725
30
0
41
1
10
4.2050212875842
20
1.08856150596338
30
0
41
1
10
4.16105820146271
20
1.10741442819688
30
0
41
1
10
4.13952461161239
20
1.11792420076009
30
0
41
1
10
4.11963086287369
20
1.12907810407094
30
0
0
SPLINE
5
D5
100
AcDbEntity
8
1
62
256
6
ByLayer
370
18
48
1
60
0
100
AcDbSpline
70
4
71
3
72
68
73
64
40
0
40
0
40
0
40
0
40
0.033254048882965
40
0.033254048882965
40
0.0665080977659299
40
0.0665080977659299
40
0.0997621466488949
40
0.0997621466488949
40
0.13301619553186
40
0.13301619553186
40
0.166270244414825
40
0.166270244414825
40
0.19952429329779
40
0.19952429329779
40
0.232778342180755
40
0.232778342180755
40
0.26603239106372
40
0.26603239106372
40
0.299286439946685
40
0.299286439946685
40
0.33254048882965
40
0.33254048882965
40
0.365794537712615
40
0.365794537712615
40
0.39904858659558
40
0.39904858659558
40
0.432302635478545
40
0.432302635478545
40
0.46555668436151
40
0.46555668436151
40
0.498810733244475
40
0.498810733244475
40
0.53206478212744
40
0.53206478212744
40
0.565318831010405
40
0.565318831010405
40
0.598572879893369
40
0.598572879893369
40
0.631826928776335
40
0.631826928776335
40
0.665080977659299
40
0.665080977659299
40
0.698335026542264
40
0.698335026542264
40
0.731589075425229
40
0.731589075425229
40
0.764843124308194
40
0.764843124308194
40
0.798097173191159
40
0.798097173191159
40
0.831351222074124
40
0.831351222074124
40
0.864605270957089
40
0.864605270957089
40
0.897859319840054
40
0.897859319840054
40
0.931113368723019
40
0.931113368723019
40
0.964367417605984
40
0.964367417605984
40
0.997621466488949
40
0.997621466488949
40
1
40
1
40
1
40
1
41
1
10
9.77891526756125
20
2.31743475491052
30
0
41
1
10
9.98002533789449
20
2.39430948783868
30
0
41
1
10
10.1812653821781
20
2.46405101076857
30
0
41
1
10
10.5831810256954
20
2.59044571871587
30
0
41
1
10
10.7834546067654
20
2.6473192356751
30
0
41
1
10
11.1855609181796
20
2.74613851516037
30
0
41
1
10
11.3875779214373
20
2.78829306521777
30
0
41
1
10
11.7893958306345
20
2.85776458152759
30
0
41
1
10
11.9898623514555
20
2.88489885822511
30
0
41
1
10
12.3918100708565
20
2.92352331273452
30
0
41
1
10
12.5927152695704
20
2.93519867968183
30
0
41
1
10
12.9951231361532
20
2.94275019688371
30
0
41
1
10
13.1964257969671
20
2.93862095425558
30
0
41
1
10
13.5981532942677
20
2.91484784850095
30
0
41
1
10
13.7983904406455
20
2.89504010283562
30
0
41
1
10
14.2004939886841
20
2.84027121644277
30
0
41
1
10
14.4024686586041
20
2.80528704898876
30
0
41
1
10
14.8041120456695
20
2.72016032364618
30
0
41
1
10
15.0046731892126
20
2.67029210523961
30
0
41
1
10
15.4065421434606
20
2.55701962328377
30
0
41
1
10
15.6072143909523
20
2.49312718209842
30
0
41
1
10
16.009747957037
20
2.35195270506671
30
0
41
1
10
16.2110229588882
20
2.27551525713565
30
0
41
1
10
16.6126149898579
20
2.11048241683952
30
0
41
1
10
16.812784651693
20
2.02157358863741
30
0
41
1
10
17.2149589446672
20
1.83455927239609
30
0
41
1
10
17.4167075162775
20
1.73566789007054
30
0
41
1
10
17.818279348962
20
1.52870698937585
30
0
41
1
10
18.0189680626955
20
1.42136339642369
30
0
41
1
10
18.4207328497447
20
1.19989452461758
30
0
41
1
10
18.6211794962413
20
1.08482032974601
30
0
41
1
10
19.0238227271186
20
0.849804419079248
30
0
41
1
10
19.2251406951838
20
0.730655578698503
30
0
41
1
10
19.6264315751919
20
0.487781336223208
30
0
41
1
10
19.8267178249867
20
0.364404802431096
30
0
41
1
10
20.2288686638593
20
0.117488073474192
30
0
41
1
10
20.4305461919276
20
-0.007049886577164
30
0
41
1
10
20.831882303522
20
-0.25609431902285
30
0
41
1
10
21.0327748904818
20
-0.379125826981607
30
0
41
1
10
21.4343794663901
20
-0.623266587725027
30
0
41
1
10
21.6347589252441
20
-0.744891658708355
30
0
41
1
10
22.0373904996263
20
-0.982909206650731
30
0
41
1
10
22.238688442164
20
-1.09877292952533
30
0
41
1
10
22.6398460909135
20
-1.32538613180961
30
0
41
1
10
22.8401708222086
20
-1.43556347365993
30
0
41
1
10
23.2422679660686
20
-1.64690865258453
30
0
41
1
10
23.4436781404922
20
-1.74917929633887
30
0
41
1
10
23.8451822105142
20
-1.94342168657678
30
0
41
1
10
24.0460454190477
20
-2.03487851905589
30
0
41
1
10
24.4475133530849
20
-2.20718613337644
30
0
41
1
10
24.6477684369275
20
-2.28834254048539
30
0
41
1
10
25.0505205344379
20
-2.4371901703359
30
0
41
1
10
25.2516682219961
20
-2.50504839309562
30
0
41
1
10
25.6526390838101
20
-2.62768481625545
30
0
41
1
10
25.8531226511466
20
-2.68200158389305
30
0
41
1
10
26.2551374246588
20
-2.77603761380635
30
0
41
1
10
26.4563398684336
20
-2.81616348870566
30
0
41
1
10
26.8579000548733
20
-2.88072028656814
30
0
41
1
10
27.0588484402965
20
-2.90517480874678
30
0
41
1
10
27.4600437439626
20
-2.93887815981259
30
0
41
1
10
27.6603591234015
20
-2.94798678269396
30
0
41
1
10
27.8761322599468
20
-2.94925527433327
30
0
41
1
10
27.8905334780677
20
-2.94929989162677
30
0
41
1
10
27.9049324936007
20
-2.94930444358403
30
0
0
SPLINE
5
D6
100
AcDbEntity
8
1
62
256
6
ByLayer
370
18
48
1
60
0
100
AcDbSpline
70
4
71
3
72
8
73
4
40
0
40
0
40
0
40
0
40
1
40
1
40
1
40
1
41
1
10
4.0725182273855
20
1.12650792454451
30
0
41
1
10
4.08638529783624
20
1.11052405122231
30
0
41
1
10
4.10199614950912
20
1.09622792779581
30
0
41
1
10
4.11963086287366
20
1.08388727338783
30
0
0
LINE
5
76
100
AcDbEntity
8
81
62
256
6
ByLayer
370
18
48
1
60
0
100
AcDbLine
10
30
20
0
30
0
11
35
21
0
31
0
39
0
210
0
220
0
230
1
0
LINE
5
77
100
AcDbEntity
8
1
62
256
6
ByLayer
370
18
48
1
60
0
100
AcDbLine
10
4.024555
20
2.934976
30
0
11
0.8
21
2.933041
31
0
39
0
210
0
220
0
230
1
0
LINE
5
79
100
AcDbEntity
8
1
62
256
6
ByLayer
370
18
48
1
60
0
100
AcDbLine
10
13.418651
20
2.940613
30
0
11
12.933545
21
2.940321
31
0
39
0
210
0
220
0
230
1
0
LINE
5
7A
100
AcDbEntity
8
1
62
256
6
ByLayer
370
18
48
1
60
0
100
AcDbLine
10
28.383679
20
2.949592
30
0
11
27.902504
21
2.949303
31
0
39
0
210
0
220
0
230
1
0
LINE
5
7B
100
AcDbEntity
8
1
62
256
6
ByLayer
370
18
48
1
60
0
100
AcDbLine
10
27.902504
20
-2.949303
30
0
11
28.383616
21
-2.949592
31
0
39
0
210
0
220
0
230
1
0
LINE
5
7C
100
AcDbEntity
8
1
62
256
6
ByLayer
370
18
48
1
60
0
100
AcDbLine
10
12.933545
20
-2.940321
30
0
11
13.418617
21
-2.940613
31
0
39
0
210
0
220
0
230
1
0
LINE
5
7D
100
AcDbEntity
8
1
62
256
6
ByLayer
370
18
48
1
60
0
100
AcDbLine
10
0.8
20
-2.933041
30
0
11
4.024555
21
-2.934976
31
0
39
0
210
0
220
0
230
1
0
LINE
5
7E
100
AcDbEntity
8
1
62
256
6
ByLayer
370
18
48
1
60
0
100
AcDbLine
10
0
20
-3
30
0
11
0.8
21
-2.933041
31
0
39
0
210
0
220
0
230
1
0
LINE
5
7F
100
AcDbEntity
8
1
62
256
6
ByLayer
370
18
48
1
60
0
100
AcDbLine
10
0.8
20
2.933041
30
0
11
0
21
3
31
0
39
0
210
0
220
0
230
1
0
LINE
5
80
100
AcDbEntity
8
SK1
62
256
6
ByLayer
370
18
48
1
60
0
100
AcDbLine
10
-35.278312
20
3
30
0
11
-36
21
1.75
31
0
39
0
210
0
220
0
230
1
0
LINE
5
82
100
AcDbEntity
8
SK1
62
256
6
ByLayer
370
18
48
1
60
0
100
AcDbLine
10
-36
20
-1.75
30
0
11
-35.278312
21
-3
31
0
39
0
210
0
220
0
230
1
0
LINE
5
83
100
AcDbEntity
8
SK1
62
256
6
ByLayer
370
18
48
1
60
0
100
AcDbLine
10
0
20
3
30
0
11
-35.278312
21
3
31
0
39
0
210
0
220
0
230
1
0
LINE
5
84
100
AcDbEntity
8
SK1
62
256
6
ByLayer
370
18
48
1
60
0
100
AcDbLine
10
-35.278312
20
-3
30
0
11
0
21
-3
31
0
39
0
210
0
220
0
230
1
0
LINE
5
85
100
AcDbEntity
8
SK4
62
256
6
ByLayer
370
18
48
0.05
60
0
100
AcDbLine
10
35
20
0
30
0
11
-41
21
0
31
0
39
0
210
0
220
0
230
1
0
LINE
5
87
100
AcDbEntity
8
4
62
256
6
ByLayer
370
18
48
0.05
60
0
100
AcDbLine
10
30
20
0
30
0
11
0
21
0
31
0
39
0
210
0
220
0
230
1
0
LINE
5
89
100
AcDbEntity
8
80
62
256
6
ByLayer
370
18
48
1
60
0
100
AcDbLine
10
0
20
0
30
0
11
-5
21
0
31
0
39
0
210
0
220
0
230
1
0
LINE
5
8A
100
AcDbEntity
8
1
62
256
6
ByLayer
370
13
48
1
60
0
100
AcDbLine
10
29.184126
20
0.266891
30
0
11
29.895215
21
-0.155022
31
0
39
0
210
0
220
0
230
1
0
LINE
5
8B
100
AcDbEntity
8
1
62
256
6
ByLayer
370
18
48
1
60
0
100
AcDbLine
10
30
20
0
30
0
11
29.995176
21
-0.029927
31
0
39
0
210
0
220
0
230
1
0
LINE
5
8C
100
AcDbEntity
8
1
62
256
6
ByLayer
370
18
48
1
60
0
100
AcDbLine
10
29.931181
20
-0.271646
30
0
11
29.860303
21
-0.60222
31
0
39
0
210
0
220
0
230
1
0
LINE
5
8D
100
AcDbEntity
8
1
62
256
6
ByLayer
370
18
48
1
60
0
100
AcDbLine
10
0.8
20
2.933041
30
0
11
0.8
21
-2.933041
31
0
39
0
210
0
220
0
230
1
0
LINE
5
8E
100
AcDbEntity
8
1
62
256
6
ByLayer
370
13
48
1
60
0
100
AcDbLine
10
29.374032
20
0.60222
30
0
11
29.931181
21
0.271646
31
0
39
0
210
0
220
0
230
1
0
LINE
5
8F
100
AcDbEntity
8
1
62
256
6
ByLayer
370
18
48
1
60
0
100
AcDbLine
10
28.529209
20
-1.566126
30
0
11
29.895215
21
-0.155022
31
0
39
0
210
0
220
0
230
1
0
LINE
5
90
100
AcDbEntity
8
1
62
256
6
ByLayer
370
18
48
1
60
0
100
AcDbLine
10
30
20
0
30
0
11
28.97836
21
-2.806934
31
0
39
0
210
0
220
0
230
1
0
LINE
5
91
100
AcDbEntity
8
1
62
256
6
ByLayer
370
13
48
1
60
0
100
AcDbLine
10
29.860303
20
0.60222
30
0
11
29.374032
21
0.60222
31
0
39
0
210
0
220
0
230
1
0
LINE
5
92
100
AcDbEntity
8
1
62
256
6
ByLayer
370
18
48
1
60
0
100
AcDbLine
10
29.931181
20
0.271646
30
0
11
29.860303
21
0.60222
31
0
39
0
210
0
220
0
230
1
0
LINE
5
93
100
AcDbEntity
8
1
62
256
6
ByLayer
370
18
48
1
60
0
100
AcDbLine
10
0
20
-3
30
0
11
0
21
3
31
0
39
0
210
0
220
0
230
1
0
LINE
5
94
100
AcDbEntity
8
1
62
256
6
ByLayer
370
18
48
1
60
0
100
AcDbLine
10
29.995176
20
0.029927
30
0
11
30
21
0
31
0
39
0
210
0
220
0
230
1
0
LINE
5
95
100
AcDbEntity
8
SK1
62
256
6
ByLayer
370
18
48
1
60
0
100
AcDbLine
10
-36
20
1.75
30
0
11
-36
21
-1.75
31
0
39
0
210
0
220
0
230
1
0
LINE
5
96
100
AcDbEntity
8
SK1
62
256
6
ByLayer
370
18
48
1
60
0
100
AcDbLine
10
-35.278312
20
3
30
0
11
-35.278312
21
-3
31
0
39
0
210
0
220
0
230
1
0
LINE
5
97
100
AcDbEntity
8
SK1
62
256
6
ByLayer
370
18
48
1
60
0
100
AcDbLine
10
0
20
-3
30
0
11
0
21
3
31
0
39
0
210
0
220
0
230
1
0
MTEXT
5
D7
100
AcDbEntity
8
SK6
62
256
6
ByLayer
370
13
48
1
60
0
100
AcDbMText
10
-0.870831
20
35.332694
30
0
210
0
220
0
230
1
1
\W0.7670;R840-0590-30-A0A1220
40
3.5
41
0
44
1.084337
50
0
71
8
72
5
7
iso_b_vert
0
DIMENSION
5
E4
100
AcDbEntity
8
SK2
62
256
6
ByLayer
370
13
48
1
60
0
100
AcDbDimension
2
DimnDraft3D1
10
29
20
-13.163398
30
0
11
13.250059
21
-13.163398
31
0
70
32
71
5
72
1
41
1
210
0
220
0
230
1
3
Standard
100
AcDbAlignedDimension
13
0
23
-1.5875
33
0
14
29
24
-4.5375
34
0
50
0
100
AcDbRotatedDimension
1001
ACAD
1000
DSTYLE
1002
{
1070
   279
1070
     0
1070
   172
1070
     1
1070
   173
1070
     1
1070
   340
1005
D8
1070
   271
1070
     2
1070
   272
1070
     2
1070
    77
1070
     1
1070
    73
1070
     0
1070
   171
1070
     3
1070
   274
1070
     4
1070
   177
1070
    35
1070
   176
1070
    35
1070
   178
1070
    35
1070
    48
1040
-0.005
1070
    41
1041
3.5
1070
   147
1041
1.75
1070
    42
1041
1.5875
1070
    44
1041
2.0
1070
   140
1041
3.5
1070
   343
1005
0
1070
   344
1005
0
1002
}
0
DIMENSION
5
EE
100
AcDbEntity
8
SK2
62
256
6
ByLayer
370
13
48
1
60
0
100
AcDbDimension
2
DimnDraft3D2
10
30
20
-31.692985
30
0
11
-2.6587
21
-31.692985
31
0
70
32
71
5
72
1
41
1
210
0
220
0
230
1
3
Standard
100
AcDbAlignedDimension
13
-36
23
-4.5875
33
0
14
30
24
-1.5875
34
0
50
0
100
AcDbRotatedDimension
1001
ACAD
1000
DSTYLE
1002
{
1070
   279
1070
     0
1070
   172
1070
     1
1070
   173
1070
     1
1070
   340
1005
D8
1070
   271
1070
     2
1070
   272
1070
     2
1070
    77
1070
     1
1070
    73
1070
     0
1070
   171
1070
     3
1070
   274
1070
     4
1070
   177
1070
    35
1070
   176
1070
    35
1070
   178
1070
    35
1070
    48
1040
-0.005
1070
    41
1041
3.5
1070
   147
1041
1.75
1070
    42
1041
1.5875
1070
    44
1041
2.0
1070
   140
1041
3.5
1070
   343
1005
0
1070
   344
1005
0
1002
}
0
DIMENSION
5
F8
100
AcDbEntity
8
SK2
62
256
6
ByLayer
370
13
48
1
60
0
100
AcDbDimension
2
DimnDraft3D3
10
30
20
14.559119
30
0
11
20.65
21
14.559119
31
0
70
32
71
5
72
1
41
1
210
0
220
0
230
1
3
Standard
100
AcDbAlignedDimension
13
11.3
23
4.5375
33
0
14
30
24
1.5875
34
0
50
0
100
AcDbRotatedDimension
1001
ACAD
1000
DSTYLE
1002
{
1070
   279
1070
     0
1070
   172
1070
     1
1070
   173
1070
     1
1070
   340
1005
D8
1070
   271
1070
     2
1070
   272
1070
     2
1070
    77
1070
     1
1070
    73
1070
     0
1070
   171
1070
     3
1070
   274
1070
     4
1070
   177
1070
    35
1070
   176
1070
    35
1070
   178
1070
    35
1070
    48
1040
-0.005
1070
    41
1041
3.5
1070
   147
1041
1.75
1070
    42
1041
1.5875
1070
    44
1041
2.0
1070
   140
1041
3.5
1070
   343
1005
0
1070
   344
1005
0
1002
}
0
DIMENSION
5
102
100
AcDbEntity
8
SK2
62
256
6
ByLayer
370
13
48
1
60
0
100
AcDbDimension
2
DimnDraft3D4
10
29
20
-15.752503
30
0
11
39.981425
21
-15.752503
31
0
70
32
71
5
72
1
41
1
210
0
220
0
230
1
3
Standard
100
AcDbAlignedDimension
13
30
23
-1.5875
33
0
14
29
24
-4.5375
34
0
50
0
100
AcDbRotatedDimension
1001
ACAD
1000
DSTYLE
1002
{
1070
   279
1070
     0
1070
   172
1070
     1
1070
   173
1070
     1
1070
   340
1005
D8
1070
   271
1070
     2
1070
   272
1070
     2
1070
    77
1070
     1
1070
    73
1070
     0
1070
   171
1070
     3
1070
   274
1070
     4
1070
   177
1070
    35
1070
   176
1070
    35
1070
   178
1070
    35
1070
    48
1040
-0.005
1070
    41
1041
3.5
1070
   147
1041
1.75
1070
    42
1041
1.5875
1070
    44
1041
2.0
1070
   140
1041
3.5
1070
   343
1005
0
1070
   344
1005
0
1002
}
0
DIMENSION
5
10C
100
AcDbEntity
8
SK2
62
256
6
ByLayer
370
13
48
1
60
0
100
AcDbDimension
2
DimnDraft3D5
10
29
20
-21.343428
30
0
11
-5.739324
21
-21.343428
31
0
70
32
71
5
72
1
41
1
210
0
220
0
230
1
3
Standard
100
AcDbAlignedDimension
13
-36
23
-4.5875
33
0
14
29
24
-4.5375
34
0
50
0
100
AcDbRotatedDimension
1001
ACAD
1000
DSTYLE
1002
{
1070
   279
1070
     0
1070
   172
1070
     1
1070
   173
1070
     1
1070
   340
1005
D8
1070
   271
1070
     2
1070
   272
1070
     2
1070
    77
1070
     1
1070
    73
1070
     0
1070
   171
1070
     3
1070
   274
1070
     4
1070
   177
1070
    35
1070
   176
1070
    35
1070
   178
1070
    35
1070
    48
1040
-0.005
1070
    41
1041
3.5
1070
   147
1041
1.75
1070
    42
1041
1.5875
1070
    44
1041
2.0
1070
   140
1041
3.5
1070
   343
1005
0
1070
   344
1005
0
1002
}
0
DIMENSION
5
117
100
AcDbEntity
8
SK2
62
256
6
ByLayer
370
13
48
1
60
0
100
AcDbDimension
2
DimnDraft3D6
10
-46.625163
20
3
30
0
11
-47.250163
21
21.47418
31
0
70
33
71
5
72
1
41
1
210
0
220
0
230
1
3
Standard
100
AcDbAlignedDimension
13
-37.5875
23
-3
33
0
14
-37.5875
24
3
34
0
1001
ACAD
1000
DSTYLE
1002
{
1070
   279
1070
     0
1070
    74
1070
     0
1070
   173
1070
     1
1070
   340
1005
D8
1070
   271
1070
     3
1070
   272
1070
     2
1070
    77
1070
     1
1070
    73
1070
     0
1070
   171
1070
     3
1070
   274
1070
     4
1070
   177
1070
    35
1070
   176
1070
    35
1070
   178
1070
    35
1070
    48
1040
-0.005
1070
    41
1041
3.5
1070
   147
1041
1.75
1070
    42
1041
1.5875
1070
    44
1041
2.0
1070
   140
1041
3.5
1070
   343
1005
0
1070
   344
1005
0
1002
}
0
DIMENSION
5
122
100
AcDbEntity
8
2
62
256
6
ByLayer
370
13
48
1
60
0
100
AcDbDimension
2
DimnDraft3D7
10
44.083343
20
2.95
30
0
11
39.458343
21
20.017266
31
0
70
33
71
5
72
1
41
1
210
0
220
0
230
1
3
Standard
100
AcDbAlignedDimension
13
30.5875
23
-2.95
33
0
14
30.5875
24
2.95
34
0
1001
ACAD
1000
DSTYLE
1002
{
1070
   279
1070
     0
1070
    74
1070
     0
1070
   173
1070
     1
1070
   340
1005
D8
1070
   271
1070
     3
1070
   272
1070
     2
1070
    77
1070
     1
1070
    73
1070
     0
1070
   171
1070
     3
1070
   274
1070
     4
1070
   177
1070
    35
1070
   176
1070
    35
1070
   178
1070
    35
1070
    48
1040
-0.005
1070
    41
1041
3.5
1070
   147
1041
1.75
1070
    42
1041
1.5875
1070
    44
1041
2.0
1070
   140
1041
3.5
1070
   343
1005
0
1070
   344
1005
0
1002
}
0
ENDSEC
0
SECTION
2
OBJECTS
0
DICTIONARY
5
18d
330
0
100
AcDbDictionary
280
0
281
1
3
ACAD_GROUP
350
18e
3
ACAD_MLINESTYLE
350
18f
0
DICTIONARY
5
18e
330
0
100
AcDbDictionary
280
0
281
1
0
DICTIONARY
5
18f
330
0
100
AcDbDictionary
280
0
281
1
3
Standard
350
18
0
MLINESTYLE
5
18
330
18f
100
AcDbMlineStyle
2
Standard
70
0
3

62
256
51
90
52
90
71
2
49
-0.5
62
256
6
ByLayer
49
0.5
62
256
6
ByLayer
0
RASTERVARIABLES
5
17b
330

100
AcDbRasterVariables
90
0
70
1
71
1
72
1
0
ENDSEC
0
EOF
