0
SECTION
2
HEADER
9
$ACADVER
1
AC1015
9
$DWGCODEPAGE
3
ANSI_1252
9
$HANDSEED
5
1a7
9
$ANGBASE
50
0
9
$ANGDIR
70
0
9
$ATTMODE
70
1
9
$AUNITS
70
0
9
$AUPREC
70
0
9
$CECOLOR
62
256
9
$CELTSCALE
40
1
9
$CELTYPE
6
ByLayer
9
$CELWEIGHT
370
18
9
$CLAYER
8
0
9
$CMLJUST
70
0
9
$CMLSCALE
40
1
9
$CMLSTYLE
2
Standard
9
$DIMSTYLE
2
Standard
9
$TEXTSIZE
40
0.2
9
$TEXTSTYLE
7
Standard
9
$LUNITS
70
2
9
$LUPREC
70
4
9
$EXTNAMES
290
1
9
$INSUNITS
70
4
9
$LTSCALE
40
1
9
$LWDISPLAY
290
1
9
$PDMODE
70
0
9
$PDSIZE
40
0
9
$PLINEGEN
70
0
0
ENDSEC
0
SECTION
2
CLASSES
0
CLASS
1
RASTERVARIABLES
2
AcDbRasterVariables
3
ISM
90
0
280
0
281
0
0
ENDSEC
0
SECTION
2
TABLES
0
TABLE
2
VPORT
5
19d
100
AcDbSymbolTable
0
VPORT
5
1
100
AcDbSymbolTableRecord
100
AcDbViewportTableRecord
2
*Active
70
0
10
0
20
0
11
1
21
1
12
-1
22
1
13
0
23
0
14
0.5
24
0.5
15
10
25
10
16
0
26
0
36
1
17
0
27
0
37
0
0
ENDTAB
0
TABLE
2
LTYPE
5
19e
100
AcDbSymbolTable
0
LTYPE
5
14
100
AcDbSymbolTableRecord
100
AcDbLinetypeTableRecord
70
0
2
ByBlock
3

72
65
73
0
40
0
0
LTYPE
5
15
100
AcDbSymbolTableRecord
100
AcDbLinetypeTableRecord
70
0
2
ByLayer
3

72
65
73
0
40
0
0
LTYPE
5
16
100
AcDbSymbolTableRecord
100
AcDbLinetypeTableRecord
70
0
2
CONTINUOUS
3
Solid line
72
65
73
0
40
0
0
LTYPE
5
6A
100
AcDbSymbolTableRecord
100
AcDbLinetypeTableRecord
70
0
2
CENTER
3
____ _ ____ _ ____ _ ____
72
65
73
4
40
47.5
49
22
74
0
49
-8.5
74
0
49
8.5
74
0
49
-8.5
74
0
0
LTYPE
5
6B
100
AcDbSymbolTableRecord
100
AcDbLinetypeTableRecord
70
0
2
DASHED
3
__ __ __ __ __ __ __ __ __
72
65
73
2
40
25.72
49
12.86
74
0
49
-12.86
74
0
0
ENDTAB
0
TABLE
2
LAYER
5
19f
100
AcDbSymbolTable
0
LAYER
5
10
100
AcDbSymbolTableRecord
100
AcDbLayerTableRecord
2
0
70
0
62
7
6
CONTINUOUS
290
1
370
-3
390
0
0
LAYER
5
6D
100
AcDbSymbolTableRecord
100
AcDbLayerTableRecord
2
81
70
0
62
-3
6
CONTINUOUS
290
1
370
-3
390
0
0
LAYER
5
6F
100
AcDbSymbolTableRecord
100
AcDbLayerTableRecord
2
80
70
0
62
-6
6
CONTINUOUS
290
1
370
-3
390
0
0
LAYER
5
74
100
AcDbSymbolTableRecord
100
AcDbLayerTableRecord
2
2
70
0
62
7
6
CONTINUOUS
290
1
370
-3
390
0
0
LAYER
5
78
100
AcDbSymbolTableRecord
100
AcDbLayerTableRecord
2
1
70
0
62
4
6
CONTINUOUS
290
1
370
-3
390
0
0
LAYER
5
86
100
AcDbSymbolTableRecord
100
AcDbLayerTableRecord
2
4
70
0
62
-2
6
CENTER
290
1
370
-3
390
0
0
LAYER
5
189
100
AcDbSymbolTableRecord
100
AcDbLayerTableRecord
2
SK2
70
0
62
7
6
CONTINUOUS
290
1
370
-3
390
0
0
LAYER
5
18a
100
AcDbSymbolTableRecord
100
AcDbLayerTableRecord
2
SK1
70
0
62
4
6
CONTINUOUS
290
1
370
-3
390
0
0
LAYER
5
18b
100
AcDbSymbolTableRecord
100
AcDbLayerTableRecord
2
SK4
70
0
62
2
6
CENTER
290
1
370
-3
390
0
0
LAYER
5
18c
100
AcDbSymbolTableRecord
100
AcDbLayerTableRecord
2
SK6
70
0
62
5
6
CONTINUOUS
290
1
370
-3
390
0
0
ENDTAB
0
TABLE
2
STYLE
5
1a0
100
AcDbSymbolTable
0
STYLE
5
11
100
AcDbSymbolTableRecord
100
AcDbTextStyleTableRecord
2
Standard
3
txt
70
0
71
0
40
0
41
1
42
0
50
0
0
STYLE
5
E5
100
AcDbSymbolTableRecord
100
AcDbTextStyleTableRecord
2
iso_b_vert
3
simplex.shx
70
0
71
0
40
0
41
1
42
0
50
0
0
STYLE
5
E6
100
AcDbSymbolTableRecord
100
AcDbTextStyleTableRecord
2
DWGDirectTextStyle
3
simplex
70
0
71
0
40
0
41
1
42
0
50
0
0
ENDTAB
0
TABLE
2
DIMSTYLE
5
1a1
100
AcDbSymbolTable
100
AcDbDimStyleTable
0
DIMSTYLE
105
27
100
AcDbSymbolTableRecord
100
AcDbDimStyleTableRecord
2
Standard
70
0
3
<>
41
0.18
42
0.0625
44
0.18
140
0.18
147
0.09
73
0
74
0
77
1
271
2
275
0
278
52
280
0
340
11
0
ENDTAB
0
TABLE
2
VIEW
5
1a2
100
AcDbSymbolTable
0
ENDTAB
0
TABLE
2
UCS
5
1a3
100
AcDbSymbolTable
0
ENDTAB
0
TABLE
2
APPID
5
1a4
100
AcDbSymbolTable
0
APPID
5
12
100
AcDbSymbolTableRecord
100
AcDbRegAppTableRecord
2
ACAD
70
0
0
ENDTAB
0
TABLE
2
BLOCK_RECORD
5
1a5
100
AcDbSymbolTable
0
BLOCK_RECORD
5
1F
100
AcDbSymbolTableRecord
100
AcDbBlockTableRecord
2
*Model_Space
340
0
70
0
0
BLOCK_RECORD
5
1B
100
AcDbSymbolTableRecord
100
AcDbBlockTableRecord
2
*Paper_Space
340
0
70
0
0
BLOCK_RECORD
5
23
100
AcDbSymbolTableRecord
100
AcDbBlockTableRecord
2
*Paper_Space0
340
0
70
0
0
BLOCK_RECORD
5
E8
100
AcDbSymbolTableRecord
100
AcDbBlockTableRecord
2
DimnDraft3D1
340
0
70
0
0
BLOCK_RECORD
5
F2
100
AcDbSymbolTableRecord
100
AcDbBlockTableRecord
2
DimnDraft3D2
340
0
70
0
0
BLOCK_RECORD
5
FC
100
AcDbSymbolTableRecord
100
AcDbBlockTableRecord
2
DimnDraft3D3
340
0
70
0
0
BLOCK_RECORD
5
106
100
AcDbSymbolTableRecord
100
AcDbBlockTableRecord
2
DimnDraft3D4
340
0
70
0
0
BLOCK_RECORD
5
110
100
AcDbSymbolTableRecord
100
AcDbBlockTableRecord
2
DimnDraft3D5
340
0
70
0
0
BLOCK_RECORD
5
11A
100
AcDbSymbolTableRecord
100
AcDbBlockTableRecord
2
DimnDraft3D6
340
0
70
0
0
BLOCK_RECORD
5
125
100
AcDbSymbolTableRecord
100
AcDbBlockTableRecord
2
DimnDraft3D7
340
0
70
0
0
ENDTAB
0
ENDSEC
0
SECTION
2
BLOCKS
0
BLOCK
5
20
100
AcDbEntity
8
0
100
AcDbBlockBegin
2
*Model_Space
70
0
10
0
20
0
30
0
3
*Model_Space
0
ENDBLK
5
21
100
AcDbEntity
8
0
100
AcDbBlockEnd
0
BLOCK
5
1C
100
AcDbEntity
8
0
100
AcDbBlockBegin
2
*Paper_Space
70
0
10
0
20
0
30
0
3
*Paper_Space
0
ENDBLK
5
1D
100
AcDbEntity
8
0
100
AcDbBlockEnd
0
BLOCK
5
24
100
AcDbEntity
8
0
100
AcDbBlockBegin
2
*Paper_Space0
70
0
10
0
20
0
30
0
3
*Paper_Space0
0
ENDBLK
5
25
100
AcDbEntity
8
0
100
AcDbBlockEnd
0
BLOCK
5
EF
100
AcDbEntity
8
0
100
AcDbBlockBegin
2
DimnDraft3D1
70
0
10
0
20
0
30
0
3
DimnDraft3D1
0
MTEXT
5
E9
100
AcDbEntity
8
SK2
62
256
6
ByLayer
370
13
48
1
60
0
100
AcDbMText
10
8.821375
20
-12.238398
30
0
210
0
220
0
230
1
1
\W0.7317;29,02
40
3.5
41
0
44
1.084337
50
0
71
7
72
5
7
iso_b_vert
0
LINE
5
EA
100
AcDbEntity
8
SK2
62
256
6
ByLayer
370
13
48
1
60
0
100
AcDbLine
10
0
20
-1.5875
30
0
11
0
21
-15.113398
31
0
39
0
210
0
220
0
230
1
0
LINE
5
EB
100
AcDbEntity
8
SK2
62
256
6
ByLayer
370
13
48
1
60
0
100
AcDbLine
10
29.02
20
-4.4875
30
0
11
29.02
21
-15.113398
31
0
39
0
210
0
220
0
230
1
0
LINE
5
EC
100
AcDbEntity
8
SK2
62
256
6
ByLayer
370
13
48
1
60
0
100
AcDbLine
10
0
20
-13.113398
30
0
11
29.02
21
-13.113398
31
0
39
0
210
0
220
0
230
1
0
SOLID
5
ED
100
AcDbEntity
8
SK2
62
256
6
ByLayer
370
13
48
1
60
0
100
AcDbTrace
10
0
20
-13.113398
30
0
11
3.499998
21
-12.652615
31
0
12
3.500002
22
-13.574182
32
0
13
0
23
-13.113398
33
0
39
0
210
0
220
0
230
1
0
SOLID
5
EE
100
AcDbEntity
8
SK2
62
256
6
ByLayer
370
13
48
1
60
0
100
AcDbTrace
10
29.02
20
-13.113398
30
0
11
25.520002
21
-13.574182
31
0
12
25.519998
22
-12.652615
32
0
13
29.02
23
-13.113398
33
0
39
0
210
0
220
0
230
1
0
ENDBLK
5
F0
100
AcDbEntity
8
0
100
AcDbBlockEnd
0
BLOCK
5
F9
100
AcDbEntity
8
0
100
AcDbBlockBegin
2
DimnDraft3D2
70
0
10
0
20
0
30
0
3
DimnDraft3D2
0
MTEXT
5
F3
100
AcDbEntity
8
SK2
62
256
6
ByLayer
370
13
48
1
60
0
100
AcDbMText
10
-7.087384
20
-30.817985
30
0
210
0
220
0
230
1
1
\W0.7317;66,00
40
3.5
41
0
44
1.084337
50
0
71
7
72
5
7
iso_b_vert
0
LINE
5
F4
100
AcDbEntity
8
SK2
62
256
6
ByLayer
370
13
48
1
60
0
100
AcDbLine
10
-36
20
-4.5875
30
0
11
-36
21
-33.692985
31
0
39
0
210
0
220
0
230
1
0
LINE
5
F5
100
AcDbEntity
8
SK2
62
256
6
ByLayer
370
13
48
1
60
0
100
AcDbLine
10
30
20
-1.5875
30
0
11
30
21
-33.692985
31
0
39
0
210
0
220
0
230
1
0
LINE
5
F6
100
AcDbEntity
8
SK2
62
256
6
ByLayer
370
13
48
1
60
0
100
AcDbLine
10
-36
20
-31.692985
30
0
11
30
21
-31.692985
31
0
39
0
210
0
220
0
230
1
0
SOLID
5
F7
100
AcDbEntity
8
SK2
62
256
6
ByLayer
370
13
48
1
60
0
100
AcDbTrace
10
-36
20
-31.692985
30
0
11
-32.500002
21
-31.232202
31
0
12
-32.499998
22
-32.153769
32
0
13
-36
23
-31.692985
33
0
39
0
210
0
220
0
230
1
0
SOLID
5
F8
100
AcDbEntity
8
SK2
62
256
6
ByLayer
370
13
48
1
60
0
100
AcDbTrace
10
30
20
-31.692985
30
0
11
26.500002
21
-32.153769
31
0
12
26.499998
22
-31.232202
32
0
13
30
23
-31.692985
33
0
39
0
210
0
220
0
230
1
0
ENDBLK
5
FA
100
AcDbEntity
8
0
100
AcDbBlockEnd
0
BLOCK
5
103
100
AcDbEntity
8
0
100
AcDbBlockBegin
2
DimnDraft3D3
70
0
10
0
20
0
30
0
3
DimnDraft3D3
0
MTEXT
5
FD
100
AcDbEntity
8
SK2
62
256
6
ByLayer
370
13
48
1
60
0
100
AcDbMText
10
16.798816
20
15.384119
30
0
210
0
220
0
230
1
1
\W0.6713;18,38
40
3.5
41
0
44
1.084337
50
0
71
7
72
5
7
iso_b_vert
0
LINE
5
FE
100
AcDbEntity
8
SK2
62
256
6
ByLayer
370
13
48
1
60
0
100
AcDbLine
10
11.62
20
4.4875
30
0
11
11.62
21
16.509119
31
0
39
0
210
0
220
0
230
1
0
LINE
5
FF
100
AcDbEntity
8
SK2
62
256
6
ByLayer
370
13
48
1
60
0
100
AcDbLine
10
30
20
1.5875
30
0
11
30
21
16.509119
31
0
39
0
210
0
220
0
230
1
0
LINE
5
100
100
AcDbEntity
8
SK2
62
256
6
ByLayer
370
13
48
1
60
0
100
AcDbLine
10
11.62
20
14.509119
30
0
11
30
21
14.509119
31
0
39
0
210
0
220
0
230
1
0
SOLID
5
101
100
AcDbEntity
8
SK2
62
256
6
ByLayer
370
13
48
1
60
0
100
AcDbTrace
10
11.62
20
14.509119
30
0
11
15.119998
21
14.969903
31
0
12
15.120002
22
14.048335
32
0
13
11.62
23
14.509119
33
0
39
0
210
0
220
0
230
1
0
SOLID
5
102
100
AcDbEntity
8
SK2
62
256
6
ByLayer
370
13
48
1
60
0
100
AcDbTrace
10
30
20
14.509119
30
0
11
26.500002
21
14.048335
31
0
12
26.499998
22
14.969903
32
0
13
30
23
14.509119
33
0
39
0
210
0
220
0
230
1
0
ENDBLK
5
104
100
AcDbEntity
8
0
100
AcDbBlockEnd
0
BLOCK
5
10D
100
AcDbEntity
8
0
100
AcDbBlockBegin
2
DimnDraft3D4
70
0
10
0
20
0
30
0
3
DimnDraft3D4
0
MTEXT
5
107
100
AcDbEntity
8
SK2
62
256
6
ByLayer
370
13
48
1
60
0
100
AcDbMText
10
36.840636
20
-14.827503
30
0
210
0
220
0
230
1
1
\W0.7150;0,98
40
3.5
41
0
44
1.084337
50
0
71
7
72
5
7
iso_b_vert
0
LINE
5
108
100
AcDbEntity
8
SK2
62
256
6
ByLayer
370
13
48
1
60
0
100
AcDbLine
10
30
20
-1.5875
30
0
11
30
21
-17.702503
31
0
39
0
210
0
220
0
230
1
0
LINE
5
109
100
AcDbEntity
8
SK2
62
256
6
ByLayer
370
13
48
1
60
0
100
AcDbLine
10
29.02
20
-4.4875
30
0
11
29.02
21
-17.702503
31
0
39
0
210
0
220
0
230
1
0
LINE
5
10A
100
AcDbEntity
8
SK2
62
256
6
ByLayer
370
13
48
1
60
0
100
AcDbLine
10
20.27
20
-15.702503
30
0
11
43.997215
21
-15.702503
31
0
39
0
210
0
220
0
230
1
0
SOLID
5
10B
100
AcDbEntity
8
SK2
62
256
6
ByLayer
370
13
48
1
60
0
100
AcDbTrace
10
30
20
-15.702503
30
0
11
33.499998
21
-15.241719
31
0
12
33.500002
22
-16.163287
32
0
13
30
23
-15.702503
33
0
39
0
210
0
220
0
230
1
0
SOLID
5
10C
100
AcDbEntity
8
SK2
62
256
6
ByLayer
370
13
48
1
60
0
100
AcDbTrace
10
29.02
20
-15.702503
30
0
11
25.520002
21
-16.163287
31
0
12
25.519998
22
-15.241719
32
0
13
29.02
23
-15.702503
33
0
39
0
210
0
220
0
230
1
0
ENDBLK
5
10E
100
AcDbEntity
8
0
100
AcDbBlockEnd
0
BLOCK
5
117
100
AcDbEntity
8
0
100
AcDbBlockBegin
2
DimnDraft3D5
70
0
10
0
20
0
30
0
3
DimnDraft3D5
0
MTEXT
5
111
100
AcDbEntity
8
SK2
62
256
6
ByLayer
370
13
48
1
60
0
100
AcDbMText
10
-10.168008
20
-20.468428
30
0
210
0
220
0
230
1
1
\W0.7317;65,02
40
3.5
41
0
44
1.084337
50
0
71
7
72
5
7
iso_b_vert
0
LINE
5
112
100
AcDbEntity
8
SK2
62
256
6
ByLayer
370
13
48
1
60
0
100
AcDbLine
10
-36
20
-4.5875
30
0
11
-36
21
-23.343428
31
0
39
0
210
0
220
0
230
1
0
LINE
5
113
100
AcDbEntity
8
SK2
62
256
6
ByLayer
370
13
48
1
60
0
100
AcDbLine
10
29.02
20
-4.4875
30
0
11
29.02
21
-23.343428
31
0
39
0
210
0
220
0
230
1
0
LINE
5
114
100
AcDbEntity
8
SK2
62
256
6
ByLayer
370
13
48
1
60
0
100
AcDbLine
10
-36
20
-21.343428
30
0
11
29.02
21
-21.343428
31
0
39
0
210
0
220
0
230
1
0
SOLID
5
115
100
AcDbEntity
8
SK2
62
256
6
ByLayer
370
13
48
1
60
0
100
AcDbTrace
10
-36
20
-21.343428
30
0
11
-32.500002
21
-20.882645
31
0
12
-32.499998
22
-21.804212
32
0
13
-36
23
-21.343428
33
0
39
0
210
0
220
0
230
1
0
SOLID
5
116
100
AcDbEntity
8
SK2
62
256
6
ByLayer
370
13
48
1
60
0
100
AcDbTrace
10
29.02
20
-21.343428
30
0
11
25.520002
21
-21.804212
31
0
12
25.519998
22
-20.882645
32
0
13
29.02
23
-21.343428
33
0
39
0
210
0
220
0
230
1
0
ENDBLK
5
118
100
AcDbEntity
8
0
100
AcDbBlockEnd
0
BLOCK
5
122
100
AcDbEntity
8
0
100
AcDbBlockBegin
2
DimnDraft3D6
70
0
10
0
20
0
30
0
3
DimnDraft3D6
0
MTEXT
5
11B
100
AcDbEntity
8
SK2
62
256
6
ByLayer
370
13
48
1
60
0
100
AcDbMText
10
-46.375163
20
22.34918
30
0
210
0
220
0
230
1
1
\W0.7317;6,000
40
3.5
41
0
44
1.084337
50
90
71
7
72
5
7
iso_b_vert
0
MTEXT
5
11C
100
AcDbEntity
8
SK2
62
256
6
ByLayer
370
13
48
1
60
0
100
AcDbMText
10
-46.375163
20
17.126524
30
0
210
0
220
0
230
1
1
%%c
40
3.5
41
0
44
1.084337
50
90
71
7
72
5
7
iso_b_vert
0
LINE
5
11D
100
AcDbEntity
8
SK2
62
256
6
ByLayer
370
13
48
1
60
0
100
AcDbLine
10
-37.5875
20
-3
30
0
11
-46.625163
21
-3
31
0
39
0
210
0
220
0
230
1
0
LINE
5
11E
100
AcDbEntity
8
SK2
62
256
6
ByLayer
370
13
48
1
60
0
100
AcDbLine
10
-37.5875
20
3
30
0
11
-46.625163
21
3
31
0
39
0
210
0
220
0
230
1
0
LINE
5
11F
100
AcDbEntity
8
SK2
62
256
6
ByLayer
370
13
48
1
60
0
100
AcDbLine
10
-44.625163
20
32.121549
30
0
11
-44.625163
21
-11.75
31
0
39
0
210
0
220
0
230
1
0
SOLID
5
120
100
AcDbEntity
8
SK2
62
256
6
ByLayer
370
13
48
1
60
0
100
AcDbTrace
10
-44.625163
20
-3
30
0
11
-44.164379
21
-6.499998
31
0
12
-45.085946
22
-6.500002
32
0
13
-44.625163
23
-3
33
0
39
0
210
0
220
0
230
1
0
SOLID
5
121
100
AcDbEntity
8
SK2
62
256
6
ByLayer
370
13
48
1
60
0
100
AcDbTrace
10
-44.625163
20
3
30
0
11
-45.085946
21
6.499998
31
0
12
-44.164379
22
6.500002
32
0
13
-44.625163
23
3
33
0
39
0
210
0
220
0
230
1
0
ENDBLK
5
123
100
AcDbEntity
8
0
100
AcDbBlockEnd
0
BLOCK
5
12D
100
AcDbEntity
8
0
100
AcDbBlockBegin
2
DimnDraft3D7
70
0
10
0
20
0
30
0
3
DimnDraft3D7
0
MTEXT
5
126
100
AcDbEntity
8
2
62
256
6
ByLayer
370
13
48
1
60
0
100
AcDbMText
10
40.333343
20
20.842266
30
0
210
0
220
0
230
1
1
\W0.7317;5,800
40
3.5
41
0
44
1.084337
50
90
71
7
72
5
7
iso_b_vert
0
MTEXT
5
127
100
AcDbEntity
8
2
62
256
6
ByLayer
370
13
48
1
60
0
100
AcDbMText
10
40.333343
20
15.61961
30
0
210
0
220
0
230
1
1
%%c
40
3.5
41
0
44
1.084337
50
90
71
7
72
5
7
iso_b_vert
0
LINE
5
128
100
AcDbEntity
8
2
62
256
6
ByLayer
370
13
48
1
60
0
100
AcDbLine
10
30.6075
20
-2.9
30
0
11
44.083343
21
-2.9
31
0
39
0
210
0
220
0
230
1
0
LINE
5
129
100
AcDbEntity
8
2
62
256
6
ByLayer
370
13
48
1
60
0
100
AcDbLine
10
30.6075
20
2.9
30
0
11
44.083343
21
2.9
31
0
39
0
210
0
220
0
230
1
0
LINE
5
12A
100
AcDbEntity
8
2
62
256
6
ByLayer
370
13
48
1
60
0
100
AcDbLine
10
42.083343
20
30.614635
30
0
11
42.083343
21
-11.65
31
0
39
0
210
0
220
0
230
1
0
SOLID
5
12B
100
AcDbEntity
8
2
62
256
6
ByLayer
370
13
48
1
60
0
100
AcDbTrace
10
42.083343
20
-2.9
30
0
11
42.544126
21
-6.399998
31
0
12
41.622559
22
-6.400002
32
0
13
42.083343
23
-2.9
33
0
39
0
210
0
220
0
230
1
0
SOLID
5
12C
100
AcDbEntity
8
2
62
256
6
ByLayer
370
13
48
1
60
0
100
AcDbTrace
10
42.083343
20
2.9
30
0
11
41.622559
21
6.399998
31
0
12
42.544126
22
6.400002
32
0
13
42.083343
23
2.9
33
0
39
0
210
0
220
0
230
1
0
ENDBLK
5
12E
100
AcDbEntity
8
0
100
AcDbBlockEnd
0
ENDSEC
0
SECTION
2
ENTITIES
0
ARC
5
9B
100
AcDbEntity
8
1
62
256
6
ByLayer
370
18
48
1
60
0
100
AcDbCircle
39
0
10
0
20
2.8
30
0
40
0.200000000000005
210
0
220
0
230
1
100
AcDbArc
50
44.975441
51
90
0
ARC
5
9C
100
AcDbEntity
8
1
62
256
6
ByLayer
370
18
48
1
60
0
100
AcDbCircle
39
0
10
-0.282964
20
3.082721
30
0
40
0.199999999999995
210
0
220
0
230
-1
100
AcDbArc
50
269.965623
51
315.024559
0
ARC
5
9D
100
AcDbEntity
8
1
62
256
6
ByLayer
370
18
48
1
60
0
100
AcDbCircle
39
0
10
0
20
-2.8
30
0
40
0.200000000000005
210
0
220
0
230
1
100
AcDbArc
50
270
51
315.024559
0
ARC
5
9E
100
AcDbEntity
8
1
62
256
6
ByLayer
370
18
48
1
60
0
100
AcDbCircle
39
0
10
-0.282964
20
-3.082721
30
0
40
0.199999999999995
210
0
220
0
230
-1
100
AcDbArc
50
44.975441
51
90.034377
0
ELLIPSE
5
9F
100
AcDbEntity
8
1
62
256
6
ByLayer
370
18
48
1
60
0
100
AcDbEllipse
10
4.25
20
-2.995225
30
0
11
0.25
21
0
31
0
210
0
220
0
230
1
40
1
41
1.57050247059921
42
2.68416763420993
0
ELLIPSE
5
A0
100
AcDbEntity
8
1
62
256
6
ByLayer
370
18
48
1
60
0
100
AcDbEllipse
10
4.25
20
2.995225
30
0
11
0.25
21
0
31
0
210
0
220
0
230
1
40
1
41
-2.68420765277614
42
-1.56280933426599
0
ELLIPSE
5
A1
100
AcDbEntity
8
1
62
256
6
ByLayer
370
18
48
1
60
0
100
AcDbEllipse
10
30.000269
20
-0.000633
30
0
11
1.07564968125105
21
-2.89708739175156
31
0
210
0
220
0
230
-1
40
0.131755
41
-2.96500202789152
42
-2.84873210071552
0
ELLIPSE
5
A2
100
AcDbEntity
8
1
62
256
6
ByLayer
370
13
48
1
60
0
100
AcDbEllipse
10
29.798775
20
1.457822
30
0
11
1.8106226085809
21
-0.858037532829468
31
0
210
0
220
0
230
-1
40
0.477439
41
1.57452639355461
42
1.85977992466052
0
ELLIPSE
5
A3
100
AcDbEntity
8
1
62
256
6
ByLayer
370
18
48
1
60
0
100
AcDbEllipse
10
29.860708
20
0.100616
30
0
11
0.0727819104940869
21
0.301917195708467
31
0
210
0
220
0
230
-1
40
0.478434
41
1.69242703825714
42
2.45976119972418
0
ELLIPSE
5
A4
100
AcDbEntity
8
1
62
256
6
ByLayer
370
18
48
1
60
0
100
AcDbEllipse
10
29.419234
20
-1.457822
30
0
11
0.451686920084271
21
1.21654523170583
31
0
210
0
220
0
230
-1
40
0.131755
41
0.736518128025269
42
1.49892348254192
0
ELLIPSE
5
A5
100
AcDbEntity
8
1
62
256
6
ByLayer
370
18
48
1
60
0
100
AcDbEllipse
10
29.419234
20
1.457822
30
0
11
0.451686920064925
21
-1.2165452316661
31
0
210
0
220
0
230
-1
40
0.131755
41
-1.49892348256663
42
-0.736518128028038
0
ELLIPSE
5
A6
100
AcDbEntity
8
1
62
256
6
ByLayer
370
18
48
1
60
0
100
AcDbEllipse
10
30.056171
20
-0.015359
30
0
11
0.135544944387128
21
-0.427068209958812
31
0
210
0
220
0
230
-1
40
0.100282
41
1.70760362868834
42
2.33653286888433
0
ELLIPSE
5
A7
100
AcDbEntity
8
1
62
256
6
ByLayer
370
13
48
1
60
0
100
AcDbEllipse
10
29.382363
20
0.384433
30
0
11
0.153082081612425
21
0.258003636193769
31
0
210
0
220
0
230
1
40
0.454519
41
0.917105603404881
42
2.31336900500031
0
ELLIPSE
5
A8
100
AcDbEntity
8
1
62
256
6
ByLayer
370
18
48
1
60
0
100
AcDbEllipse
10
30.056171
20
0.015359
30
0
11
0.135544944437694
21
0.427068210085595
31
0
210
0
220
0
230
-1
40
0.100282
41
-2.33653286892166
42
-1.70760362888715
0
ELLIPSE
5
A9
100
AcDbEntity
8
1
62
256
6
ByLayer
370
18
48
1
60
0
100
AcDbEllipse
10
30.000269
20
0.000633
30
0
11
1.07564967752103
21
2.8970873807526
31
0
210
0
220
0
230
-1
40
0.131755
41
2.84873210015061
42
2.96500202755019
0
ELLIPSE
5
AA
100
AcDbEntity
8
1
62
256
6
ByLayer
370
13
48
1
60
0
100
AcDbEllipse
10
29.608869
20
1.334624
30
0
11
1.74244323731951
21
-1.19972171765508
31
0
210
0
220
0
230
-1
40
0.533762
41
1.44484622739194
42
1.71462227240006
0
POINT
5
6C
100
AcDbEntity
8
81
62
256
6
ByLayer
370
18
48
1
60
0
100
AcDbPoint
10
30
20
0
30
0
39
0
210
0
220
0
230
1
50
360
0
POINT
5
6E
100
AcDbEntity
8
80
62
256
6
ByLayer
370
18
48
1
60
0
100
AcDbPoint
10
0
20
0
30
0
39
0
210
0
220
0
230
1
50
360
0
POINT
5
70
100
AcDbEntity
8
SK2
62
256
6
ByLayer
370
18
48
1
60
1
100
AcDbPoint
10
-36
20
-3
30
0
39
0
210
0
220
0
230
1
50
360
0
POINT
5
72
100
AcDbEntity
8
SK2
62
256
6
ByLayer
370
18
48
1
60
1
100
AcDbPoint
10
-36
20
3
30
0
39
0
210
0
220
0
230
1
50
360
0
POINT
5
73
100
AcDbEntity
8
2
62
256
6
ByLayer
370
18
48
1
60
1
100
AcDbPoint
10
29.02
20
-2.9
30
0
39
0
210
0
220
0
230
1
50
360
0
POINT
5
75
100
AcDbEntity
8
2
62
256
6
ByLayer
370
18
48
1
60
1
100
AcDbPoint
10
29.02
20
2.9
30
0
39
0
210
0
220
0
230
1
50
360
0
SPLINE
5
AB
100
AcDbEntity
8
1
62
256
6
ByLayer
370
18
48
1
60
0
100
AcDbSpline
70
4
71
2
72
6
73
3
40
0
40
0
40
0
40
1
40
1
40
1
41
1
10
4.25103333061767
20
-2.74473831710438
30
0
41
1
10
5.18890261946254
20
-2.74684962218501
30
0
41
1
10
6.12677384413183
20
-2.74675454798836
30
0
0
SPLINE
5
AC
100
AcDbEntity
8
1
62
256
6
ByLayer
370
18
48
1
60
0
100
AcDbSpline
70
4
71
3
72
10
73
6
40
0
40
0
40
0
40
0
40
0.257726918257547
40
0.59952327522026
40
1
40
1
40
1
40
1
41
1
10
21.6067606567974
20
-0.707596993372846
30
0
41
1
10
21.6067451560144
20
-0.707752944192151
30
0
41
1
10
21.6124132998413
20
-0.71057553176135
30
0
41
1
10
21.6672487532443
20
-0.74239657522395
30
0
41
1
10
21.7192806850963
20
-0.772687276045389
30
0
41
1
10
21.7534390184698
20
-0.792646354795096
30
0
0
SPLINE
5
AD
100
AcDbEntity
8
1
62
256
6
ByLayer
370
18
48
1
60
0
100
AcDbSpline
70
4
71
2
72
6
73
3
40
0
40
0
40
0
40
1
40
1
40
1
41
1
10
28.4884152226888
20
-2.7585428467242
30
0
41
1
10
28.7354078501047
20
-2.75808498893426
30
0
41
1
10
28.9823804124656
20
-2.75900891017852
30
0
0
SPLINE
5
AE
100
AcDbEntity
8
1
62
256
6
ByLayer
370
18
48
1
60
0
100
AcDbSpline
70
4
71
3
72
21
73
17
40
0
40
0
40
0
40
0
40
0.0860912572781483
40
0.177146901110356
40
0.236908524221968
40
0.288752019084706
40
0.340198358065571
40
0.437983594553287
40
0.538085709881368
40
0.60623542273223
40
0.681910058227328
40
0.761716722318226
40
0.840809528927674
40
0.909659441614682
40
0.98301513676213
40
1
40
1
40
1
40
1
41
1
10
21.0686182997717
20
2.75368972476468
30
0
41
1
10
20.8919031487085
20
2.75313668030967
30
0
41
1
10
20.5282529952975
20
2.75237048897367
30
0
41
1
10
20.0415289580499
20
2.7518310292312
30
0
41
1
10
19.6255494820012
20
2.75287679309528
30
0
41
1
10
19.2907813936771
20
2.75380322640288
30
0
41
1
10
18.8777894023577
20
2.75239656364954
30
0
41
1
10
18.3657137026179
20
2.75175398374731
30
0
41
1
10
17.8193258889696
20
2.750948537147
30
0
41
1
10
17.3183539277371
20
2.7524375258875
30
0
41
1
10
16.8590546212069
20
2.75169806038019
30
0
41
1
10
16.3772860154953
20
2.75098147612539
30
0
41
1
10
15.9095329605006
20
2.75161461274192
30
0
41
1
10
15.4550160983029
20
2.75069910247072
30
0
41
1
10
15.1281057943804
20
2.75045957138354
30
0
41
1
10
14.9425674881151
20
2.75045048805097
30
0
41
1
10
14.9076842085275
20
2.7504517597815
30
0
0
SPLINE
5
AF
100
AcDbEntity
8
1
62
256
6
ByLayer
370
18
48
1
60
0
100
AcDbSpline
70
4
71
3
72
20
73
16
40
0
40
0
40
0
40
0
40
0.0974728672852563
40
0.170090072947908
40
0.219273213084354
40
0.264392321795948
40
0.311985274158051
40
0.406980499310946
40
0.496528558697079
40
0.60818293732066
40
0.727127553180823
40
0.773131960283594
40
0.83575760139587
40
0.921537608602128
40
1
40
1
40
1
40
1
41
1
10
13.5928292632284
20
-2.74974793485777
30
0
41
1
10
13.8356957345509
20
-2.75008028609676
30
0
41
1
10
14.2595867153776
20
-2.75048977473997
30
0
41
1
10
14.8067003983313
20
-2.75038891573865
30
0
41
1
10
15.2227197905334
20
-2.75041628173085
30
0
41
1
10
15.5765221068453
20
-2.75101874437331
30
0
41
1
10
16.0447114830789
20
-2.75162615328856
30
0
41
1
10
16.6236856663945
20
-2.75083775200869
30
0
41
1
10
17.3624494691954
20
-2.75286335987229
30
0
41
1
10
18.1609323012222
20
-2.75021113650797
30
0
41
1
10
18.8508215215879
20
-2.75265017931764
30
0
41
1
10
19.4184333957179
20
-2.75380138538657
30
0
41
1
10
19.9032785374584
20
-2.75192386487865
30
0
41
1
10
20.4691388390254
20
-2.75220212564784
30
0
41
1
10
20.8787419767314
20
-2.75305225376314
30
0
41
1
10
21.0744148934663
20
-2.75371053639273
30
0
0
SPLINE
5
B0
100
AcDbEntity
8
1
62
256
6
ByLayer
370
18
48
1
60
0
100
AcDbSpline
70
4
71
2
72
6
73
3
40
0
40
0
40
0
40
1
40
1
40
1
41
1
10
6.12997526358731
20
2.74675594748396
30
0
41
1
10
5.19050332753829
20
2.74685220480015
30
0
41
1
10
4.2510333306177
20
2.74473831710435
30
0
0
SPLINE
5
B1
100
AcDbEntity
8
1
62
256
6
ByLayer
370
18
48
1
60
0
100
AcDbSpline
70
4
71
3
72
14
73
10
40
0
40
0
40
0
40
0
40
0.135925212607231
40
0.135925212607231
40
0.567962606303616
40
0.567962606303616
40
0.783981303151808
40
0.783981303151808
40
1
40
1
40
1
40
1
41
1
10
4.02562745025242
20
-2.88495611776833
30
0
41
1
10
4.02563481392437
20
-2.88492489949923
30
0
41
1
10
4.02564230088328
20
-2.88297860213169
30
0
41
1
10
4.02567372292859
20
-2.86692038592298
30
0
41
1
10
4.0256982755202
20
-2.83585254036916
30
0
41
1
10
4.02573389515234
20
-2.7610832030667
30
0
41
1
10
4.02574560947545
20
-2.73123917894196
30
0
41
1
10
4.0257677161527
20
-2.66265744600739
30
0
41
1
10
4.02577807435176
20
-2.62409501545034
30
0
41
1
10
4.02578744055199
20
-2.58138026455984
30
0
0
SPLINE
5
B2
100
AcDbEntity
8
1
62
256
6
ByLayer
370
18
48
1
60
0
100
AcDbSpline
70
4
71
3
72
8
73
4
40
0
40
0
40
0
40
0
40
1
40
1
40
1
40
1
41
1
10
29.0386543870734
20
-2.7469739536387
30
0
41
1
10
29.0229940994302
20
-2.75495032928973
30
0
41
1
10
29.008711110856
20
-2.75896074885554
30
0
41
1
10
28.9958302833085
20
-2.75893362191024
30
0
0
SPLINE
5
B3
100
AcDbEntity
8
1
62
256
6
ByLayer
370
18
48
1
60
0
100
AcDbSpline
70
4
71
3
72
18
73
14
40
0
40
0
40
0
40
0
40
0.133529007975804
40
0.133529007975804
40
0.267058015951609
40
0.267058015951609
40
0.534116031903215
40
0.534116031903215
40
0.667645039879016
40
0.667645039879016
40
0.801174047854818
40
0.801174047854818
40
1
40
1
40
1
40
1
41
1
10
4.19905846894721
20
1.02271375568836
30
0
41
1
10
4.45977815611474
20
0.877800363263788
30
0
41
1
10
4.72005129797623
20
0.728632022378264
30
0
41
1
10
5.24112567055852
20
0.424138336895993
30
0
41
1
10
5.50213504567208
20
0.268730415901928
30
0
41
1
10
6.2788606705405
20
-0.19535063460242
30
0
41
1
10
6.7920797147226
20
-0.503129707980804
30
0
41
1
10
7.56485063327065
20
-0.945900689949639
30
0
41
1
10
7.82291779271901
20
-1.09036424094822
30
0
41
1
10
8.34165906861878
20
-1.37024334809536
30
0
41
1
10
8.60325249424326
20
-1.50564926178464
30
0
41
1
10
9.24837990119656
20
-1.82133739111177
30
0
41
1
10
9.63131721392196
20
-1.99292456564066
30
0
41
1
10
10.0142742766421
20
-2.14367283321192
30
0
0
SPLINE
5
B4
100
AcDbEntity
8
1
62
256
6
ByLayer
370
13
48
1
60
0
100
AcDbSpline
70
4
71
3
72
18
73
14
40
0
40
0
40
0
40
0
40
0.0849694827874707
40
0.0849694827874707
40
0.25125321909585
40
0.25125321909585
40
0.417536955404229
40
0.417536955404229
40
0.750104428020986
40
0.750104428020986
40
0.916388164329367
40
0.916388164329367
40
1
40
1
40
1
40
1
41
1
10
10.0142739903387
20
-2.14367272051075
30
0
41
1
10
10.1456953135155
20
-2.19540577386039
30
0
41
1
10
10.2771189625436
20
-2.2446846471619
30
0
41
1
10
10.6661040300668
20
-2.38271767870512
30
0
41
1
10
10.924017918895
20
-2.4641913327346
30
0
41
1
10
11.4424236862073
20
-2.60558400850084
30
0
41
1
10
11.7039932167468
20
-2.66555135573543
30
0
41
1
10
12.4816873189334
20
-2.80734417161915
30
0
41
1
10
12.9951742386431
20
-2.85266976022402
30
0
41
1
10
13.7669389160531
20
-2.84575515081028
30
0
41
1
10
14.0246524342391
20
-2.83113574465781
30
0
41
1
10
14.4140592960518
20
-2.79014785919327
30
0
41
1
10
14.5448903769363
20
-2.77317132227711
30
0
41
1
10
14.6758189862009
20
-2.75306269087147
30
0
0
SPLINE
5
B5
100
AcDbEntity
8
1
62
256
6
ByLayer
370
18
48
1
60
0
100
AcDbSpline
70
4
71
3
72
16
73
12
40
0
40
0
40
0
40
0
40
0.25
40
0.25
40
0.5
40
0.5
40
0.75
40
0.75
40
0.875
40
0.875
40
1
40
1
40
1
40
1
41
1
10
29.6115422270008
20
-1.42981877101701
30
0
41
1
10
29.5681731956582
20
-1.54656923861481
30
0
41
1
10
29.524613459639
20
-1.66312929433593
30
0
41
1
10
29.4369377855628
20
-1.89569405771061
30
0
41
1
10
29.3929199321102
20
-2.01180793057111
30
0
41
1
10
29.3046107566463
20
-2.24344382232374
30
0
41
1
10
29.2601176109619
20
-2.35859280920064
30
0
41
1
10
29.1931399737194
20
-2.53084618427951
30
0
41
1
10
29.1707724155468
20
-2.58812093231594
30
0
41
1
10
29.1258201079668
20
-2.70164244740116
30
0
41
1
10
29.1032439388844
20
-2.75794971935542
30
0
41
1
10
29.0806146006007
20
-2.81401591351087
30
0
0
SPLINE
5
B6
100
AcDbEntity
8
1
62
256
6
ByLayer
370
13
48
1
60
0
100
AcDbSpline
70
4
71
3
72
10
73
6
40
0
40
0
40
0
40
0
40
0.5
40
0.5
40
1
40
1
40
1
40
1
41
1
10
4.02524142214435
20
1.2159030013494
30
0
41
1
10
4.03531750639831
20
1.19664703369281
30
0
41
1
10
4.04855318892407
20
1.17825429443846
30
0
41
1
10
4.08085199040551
20
1.14528565050409
30
0
41
1
10
4.0995549673861
20
1.13091162674391
30
0
41
1
10
4.12122628418416
20
1.11893987622764
30
0
0
SPLINE
5
B7
100
AcDbEntity
8
1
62
256
6
ByLayer
370
18
48
1
60
0
100
AcDbSpline
70
2053
71
3
72
46
73
42
40
0
40
0
40
0
40
0
40
0.0312499999999968
40
0.0312499999999968
40
0.0624999999999935
40
0.0624999999999935
40
0.0937499999999903
40
0.0937499999999903
40
0.124999999999987
40
0.124999999999987
40
0.156249999999984
40
0.156249999999984
40
0.187499999999981
40
0.187499999999981
40
0.249999999999974
40
0.249999999999974
40
0.281249999999973
40
0.281249999999973
40
0.312499999999971
40
0.312499999999971
40
0.374999999999974
40
0.374999999999974
40
0.437499999999976
40
0.437499999999976
40
0.499999999999979
40
0.499999999999979
40
0.562499999999982
40
0.562499999999982
40
0.624999999999984
40
0.624999999999984
40
0.687499999999987
40
0.687499999999987
40
0.749999999999989
40
0.749999999999989
40
0.812499999999992
40
0.812499999999992
40
0.874999999999995
40
0.874999999999995
40
0.937499999999997
40
0.937499999999997
40
1
40
1
40
1
40
1
41
1
10
29.357619891135
20
-1.33477872927135
30
0
41
1
10
29.3693901149217
20
-1.31769059959552
30
0
41
1
10
29.3808997998069
20
-1.29942085051263
30
0
41
1
10
29.4033577420905
20
-1.26033511599263
30
0
41
1
10
29.414424894566
20
-1.23926836877754
30
0
41
1
10
29.435242165415
20
-1.19541234929588
30
0
41
1
10
29.4449549243378
20
-1.17276011541463
30
0
41
1
10
29.4627924703503
20
-1.12580298725473
30
0
41
1
10
29.4707464829989
20
-1.10186329266907
30
0
41
1
10
29.4839554992599
20
-1.05498586422999
30
0
41
1
10
29.4893753503958
20
-1.03138041052102
30
0
41
1
10
29.4969900763574
20
-0.987060085801431
30
0
41
1
10
29.499260526682
20
-0.96616988950214
30
0
41
1
10
29.5014550585723
20
-0.90822750773458
30
0
41
1
10
29.4966308210217
20
-0.877749747830251
30
0
41
1
10
29.4827280190864
20
-0.845362309411797
30
0
41
1
10
29.4769250366349
20
-0.836643070838392
30
0
41
1
10
29.4636900564628
20
-0.823523049291452
30
0
41
1
10
29.4562404397099
20
-0.819029239905063
30
0
41
1
10
29.4316138317111
20
-0.811203568723215
30
0
41
1
10
29.412740842663
20
-0.813598869332907
30
0
41
1
10
29.3712522499725
20
-0.831863041403921
30
0
41
1
10
29.3492895881375
20
-0.847426913171944
30
0
41
1
10
29.3033137611896
20
-0.891169659380353
30
0
41
1
10
29.2797179333567
20
-0.919055760290519
30
0
41
1
10
29.2332461787647
20
-0.985966342978401
30
0
41
1
10
29.2100101485504
20
-1.02564774063362
30
0
41
1
10
29.1681882183839
20
-1.11335324413807
30
0
41
1
10
29.149522317407
20
-1.16186897734968
30
0
41
1
10
29.1229548314204
20
-1.25634319802205
30
0
41
1
10
29.1151135163225
20
-1.30226681634409
30
0
41
1
10
29.1121510829311
20
-1.37923520013567
30
0
41
1
10
29.1169041089322
20
-1.41025135583078
30
0
41
1
10
29.1353043581707
20
-1.45389446625163
30
0
41
1
10
29.1489503590576
20
-1.46707740985926
30
0
41
1
10
29.1815244617257
20
-1.47779662461483
30
0
41
1
10
29.2006589140788
20
-1.47545215140141
30
0
41
1
10
29.2418928932428
20
-1.45728543388472
30
0
41
1
10
29.2643148266889
20
-1.4413032808811
30
0
41
1
10
29.3100918578604
20
-1.39744239677697
30
0
41
1
10
29.3340794435617
20
-1.36895498862302
30
0
41
1
10
29.357619891135
20
-1.33477872927135
30
0
0
SPLINE
5
B8
100
AcDbEntity
8
1
62
256
6
ByLayer
370
13
48
1
60
0
100
AcDbSpline
70
4
71
3
72
10
73
6
40
0
40
0
40
0
40
0
40
0.5
40
0.5
40
1
40
1
40
1
40
1
41
1
10
4.25044190824906
20
1.06415135064822
30
0
41
1
10
4.22781257778723
20
1.07133988997202
30
0
41
1
10
4.2056367657749
20
1.07949256593088
30
0
41
1
10
4.16222319743645
20
1.09781720898948
30
0
41
1
10
4.14093410707923
20
1.10805280641475
30
0
41
1
10
4.12122628418416
20
1.11893987622764
30
0
0
SPLINE
5
B9
100
AcDbEntity
8
1
62
256
6
ByLayer
370
18
48
1
60
0
100
AcDbSpline
70
4
71
3
72
14
73
10
40
0
40
0
40
0
40
0
40
0.412780008518483
40
0.412780008518483
40
0.625772863139704
40
0.625772863139704
40
0.83876571776092
40
0.83876571776092
40
1
40
1
40
1
40
1
41
1
10
28.9904781107495
20
-2.74942873049358
30
0
41
1
10
28.4886373438011
20
-2.7735220133664
30
0
41
1
10
27.9904666210601
20
-2.75125953138632
30
0
41
1
10
27.2323626976909
20
-2.6499118132185
30
0
41
1
10
26.9737697190339
20
-2.60358594916408
30
0
41
1
10
26.4536433049822
20
-2.48756473610808
30
0
41
1
10
26.1950168643483
20
-2.41844521151086
30
0
41
1
10
25.7425169387376
20
-2.27953465977438
30
0
41
1
10
25.5480626447522
20
-2.21399716402019
30
0
41
1
10
25.3537567296751
20
-2.14318007149242
30
0
0
SPLINE
5
BA
100
AcDbEntity
8
1
62
256
6
ByLayer
370
13
48
1
60
0
100
AcDbSpline
70
4
71
3
72
26
73
22
40
0
40
0
40
0
40
0
40
0.126966965986442
40
0.126966965986442
40
0.229111948881733
40
0.229111948881733
40
0.280184440329378
40
0.280184440329378
40
0.331256931777022
40
0.331256931777022
40
0.535546897567604
40
0.535546897567604
40
0.637691880462894
40
0.637691880462894
40
0.688764371910538
40
0.688764371910538
40
0.739836863358182
40
0.739836863358182
40
0.944126829148757
40
0.944126829148757
40
1
40
1
40
1
40
1
41
1
10
25.3537576692259
20
-2.14318041392281
30
0
41
1
10
25.0347013357959
20
-2.02689658184616
30
0
41
1
10
24.7160450728774
20
-1.89637755205118
30
0
41
1
10
24.1389144293986
20
-1.63843474521138
30
0
41
1
10
23.8808018847505
20
-1.51546769422421
30
0
41
1
10
23.4911930955582
20
-1.32057047541758
30
0
41
1
10
23.361069091631
20
-1.25389042761211
30
0
41
1
10
23.1020736173588
20
-1.11857899050517
30
0
41
1
10
22.9729200433914
20
-1.04981536940019
30
0
41
1
10
22.3283707415437
20
-0.701333765665765
30
0
41
1
10
21.8168308090386
20
-0.407254220996606
30
0
41
1
10
21.0451436432867
20
0.0384570694484125
30
0
41
1
10
20.787157320649
20
0.187765574585541
30
0
41
1
10
20.398099954234
20
0.411183884284185
30
0
41
1
10
20.2678354261099
20
0.485601055176119
30
0
41
1
10
20.008500253878
20
0.63243483783134
30
0
41
1
10
19.879194859914
20
0.704995502416011
30
0
41
1
10
19.2339469426054
20
1.06265585225393
30
0
41
1
10
18.7220148031796
20
1.33260420762957
30
0
41
1
10
18.0670366658451
20
1.64282158473606
30
0
41
1
10
17.9261896722472
20
1.70746788769765
30
0
41
1
10
17.7850134403511
20
1.76990343725211
30
0
0
SPLINE
5
BB
100
AcDbEntity
8
1
62
256
6
ByLayer
370
18
48
1
60
0
100
AcDbSpline
70
4
71
3
72
48
73
44
40
0
40
0
40
0
40
0
40
0.0998502223598021
40
0.0998502223598021
40
0.124812777949753
40
0.124812777949753
40
0.149775333539703
40
0.149775333539703
40
0.199700444719604
40
0.199700444719604
40
0.299550667079405
40
0.299550667079405
40
0.324513222669356
40
0.324513222669356
40
0.349475778259306
40
0.349475778259306
40
0.399400889439206
40
0.399400889439206
40
0.499251111799007
40
0.499251111799007
40
0.524213667388957
40
0.524213667388957
40
0.549176222978907
40
0.549176222978907
40
0.599101334158808
40
0.599101334158808
40
0.698951556518609
40
0.698951556518609
40
0.723914112108559
40
0.723914112108559
40
0.748876667698509
40
0.748876667698509
40
0.798801778878409
40
0.798801778878409
40
0.898652001238207
40
0.898652001238207
40
0.923614556828157
40
0.923614556828157
40
0.948577112418106
40
0.948577112418106
40
0.998502223598006
40
0.998502223598006
40
1
40
1
40
1
40
1
41
1
10
29.0084039788031
20
-2.87629649736152
30
0
41
1
10
28.4874064239834
20
-2.91653094401562
30
0
41
1
10
27.9693194978964
20
-2.90464631302262
30
0
41
1
10
27.3170770936954
20
-2.82541561830064
30
0
41
1
10
27.1862689614372
20
-2.80630593309994
30
0
41
1
10
26.9258955622021
20
-2.76203259429246
30
0
41
1
10
26.7960946201001
20
-2.7368484047484
30
0
41
1
10
26.4075002809966
20
-2.65248360683992
30
0
41
1
10
26.1495213565092
20
-2.58449146242933
30
0
41
1
10
25.3762117920494
20
-2.34765936367163
30
0
41
1
10
24.8614500983936
20
-2.14601142160473
30
0
41
1
10
24.2097249001598
20
-1.84738276842739
30
0
41
1
10
24.0788370202722
20
-1.78525028784287
30
0
41
1
10
23.818414082953
20
-1.65781473516853
30
0
41
1
10
23.6885835868723
20
-1.59238592181566
30
0
41
1
10
23.2999573716229
20
-1.3914171833226
30
0
41
1
10
23.0420043460217
20
-1.25122447326814
30
0
41
1
10
22.2685915180148
20
-0.816638747109891
30
0
41
1
10
21.7540119001817
20
-0.507546233348677
30
0
41
1
10
21.1021955528392
20
-0.112494556294422
30
0
41
1
10
20.97123334949
20
-0.0329440179784797
30
0
41
1
10
20.710702829504
20
0.125294380544005
30
0
41
1
10
20.5808770577
20
0.204185236171611
30
0
41
1
10
20.1922843666263
20
0.439461042997038
30
0
41
1
10
19.934266254361
20
0.594221040431222
30
0
41
1
10
19.1606732476582
20
1.0480189954549
30
0
41
1
10
18.6459220687599
20
1.33715660624398
30
0
41
1
10
17.9943313038596
20
1.66675869126576
30
0
41
1
10
17.8633767436794
20
1.73115848801629
30
0
41
1
10
17.6027567996702
20
1.85524577904857
30
0
41
1
10
17.4728388424149
20
1.91506710812863
30
0
41
1
10
17.0839164693626
20
2.08755158892146
30
0
41
1
10
16.8257776663556
20
2.19328356357775
30
0
41
1
10
16.0522412415928
20
2.4802252163129
30
0
41
1
10
15.5373502931193
20
2.63082516782001
30
0
41
1
10
14.8858214342914
20
2.75941392909954
30
0
41
1
10
14.7548452988534
20
2.78215550370916
30
0
41
1
10
14.4941078144879
20
2.82109982692899
30
0
41
1
10
14.3641280901118
20
2.83735767640536
30
0
41
1
10
13.9750071196236
20
2.87654589040298
30
0
41
1
10
13.7169281804555
20
2.88994375568402
30
0
41
1
10
13.4513430410758
20
2.89060873246004
30
0
41
1
10
13.4436075406242
20
2.89061668158556
30
0
41
1
10
13.4358721233157
20
2.89061321193355
30
0
0
SPLINE
5
BC
100
AcDbEntity
8
1
62
256
6
ByLayer
370
18
48
1
60
0
100
AcDbSpline
70
4
71
3
72
28
73
24
40
0
40
0
40
0
40
0
40
0.0025471738930265
40
0.0025471738930265
40
0.10243716572425
40
0.10243716572425
40
0.302217149386697
40
0.302217149386697
40
0.352162145302308
40
0.352162145302308
40
0.40210714121792
40
0.40210714121792
40
0.501997133049146
40
0.501997133049146
40
0.701777116711595
40
0.701777116711595
40
0.751722112627208
40
0.751722112627208
40
0.80166710854282
40
0.80166710854282
40
0.901557100374046
40
0.901557100374046
40
1
40
1
40
1
40
1
41
1
10
17.383255309643
20
1.92629481563
30
0
41
1
10
17.3898791490453
20
1.92337724005489
30
0
41
1
10
17.3965017876989
20
1.9204544904083
30
0
41
1
10
17.6627875109645
20
1.80270673609456
30
0
41
1
10
17.9208961258216
20
1.67995096454149
30
0
41
1
10
18.6932574941172
20
1.29202349598285
30
0
41
1
10
19.2057615205061
20
1.00747995725246
30
0
41
1
10
19.852203849159
20
0.632781075022365
30
0
41
1
10
19.9817665670615
20
0.556865293116743
30
0
41
1
10
20.2416670272029
20
0.403424173694191
30
0
41
1
10
20.3721917555205
20
0.325776355024317
30
0
41
1
10
20.7617561168698
20
0.0931175721150623
30
0
41
1
10
21.0200445607521
20
-0.0618460047222698
30
0
41
1
10
21.7926568880461
20
-0.523036347148206
30
0
41
1
10
22.3047067032567
20
-0.82563139597508
30
0
41
1
10
22.9504053408633
20
-1.18202083060302
30
0
41
1
10
23.0798104722969
20
-1.25223523853856
30
0
41
1
10
23.339367791712
20
-1.39017367910853
30
0
41
1
10
23.469831992742
20
-1.45804657624924
30
0
41
1
10
23.8599592128358
20
-1.65579342113915
30
0
41
1
10
24.1183536399284
20
-1.77997627775346
30
0
41
1
10
24.6298173915037
20
-2.00942039271766
30
0
41
1
10
24.8829223535975
20
-2.11489399289698
30
0
41
1
10
25.1361127594037
20
-2.21104591794298
30
0
0
SPLINE
5
BD
100
AcDbEntity
8
1
62
256
6
ByLayer
370
13
48
1
60
0
100
AcDbSpline
70
4
71
3
72
14
73
10
40
0
40
0
40
0
40
0
40
0.202311201024334
40
0.202311201024334
40
0.401733400768256
40
0.401733400768256
40
0.601155600512173
40
0.601155600512173
40
1
40
1
40
1
40
1
41
1
10
25.1361127592685
20
-2.21104591789162
30
0
41
1
10
25.3967468683036
20
-2.31002467357334
30
0
41
1
10
25.6574715189294
20
-2.39912558951929
30
0
41
1
10
26.1772109604656
20
-2.55446875734577
30
0
41
1
10
26.4366512576874
20
-2.62108969335597
30
0
41
1
10
26.9574774928978
20
-2.73060023803629
30
0
41
1
10
27.2163527278312
20
-2.77305299786374
30
0
41
1
10
27.9913544659116
20
-2.86329338722516
30
0
41
1
10
28.5059139835473
20
-2.87389368344532
30
0
41
1
10
29.0247707881933
20
-2.83312876439035
30
0
0
SPLINE
5
BE
100
AcDbEntity
8
1
62
256
6
ByLayer
370
18
48
1
60
0
100
AcDbSpline
70
4
71
3
72
58
73
54
40
0
40
0
40
0
40
0
40
0.0625000000000065
40
0.0625000000000065
40
0.125000000000013
40
0.125000000000013
40
0.250000000000026
40
0.250000000000026
40
0.375000000000039
40
0.375000000000039
40
0.437500000000044
40
0.437500000000044
40
0.50000000000005
40
0.50000000000005
40
0.625000000000061
40
0.625000000000061
40
0.628906250000062
40
0.628906250000062
40
0.630859375000062
40
0.630859375000062
40
0.632812500000061
40
0.632812500000061
40
0.640625000000059
40
0.640625000000059
40
0.656250000000057
40
0.656250000000057
40
0.687500000000052
40
0.687500000000052
40
0.703125000000049
40
0.703125000000049
40
0.718750000000046
40
0.718750000000046
40
0.734375000000043
40
0.734375000000043
40
0.75000000000004
40
0.75000000000004
40
0.765625000000037
40
0.765625000000037
40
0.781250000000034
40
0.781250000000034
40
0.796875000000031
40
0.796875000000031
40
0.812500000000027
40
0.812500000000027
40
0.843750000000022
40
0.843750000000022
40
0.875000000000017
40
0.875000000000017
40
0.937500000000009
40
0.937500000000009
40
0.968750000000004
40
0.968750000000004
40
1
40
1
40
1
40
1
41
1
10
9.80423966600421
20
-2.28226280264209
30
0
41
1
10
9.58998519102545
20
-2.2022696014686
30
0
41
1
10
9.3743893276673
20
-2.1170053539004
30
0
41
1
10
8.93971914000264
20
-1.93833053006864
30
0
41
1
10
8.72039819369778
20
-1.84479874087415
30
0
41
1
10
8.06192767185792
20
-1.55910914166489
30
0
41
1
10
7.62021541089868
20
-1.36096285669899
30
0
41
1
10
6.72153512526481
20
-0.977266961567494
30
0
41
1
10
6.26445868701907
20
-0.791966507358978
30
0
41
1
10
5.56132215267021
20
-0.544287945002367
30
0
41
1
10
5.32404994964094
20
-0.46674095610814
30
0
41
1
10
4.84308294895916
20
-0.324480608495151
30
0
41
1
10
4.60084301795246
20
-0.260211997082195
30
0
41
1
10
3.8699307494968
20
-0.090883436892824
30
0
41
1
10
3.37608210980892
20
-0.0090760998295991
30
0
41
1
10
2.86026246237896
20
0.0384926878253964
30
0
41
1
10
2.84433149246431
20
0.0382791143377972
30
0
41
1
10
2.82135724638835
20
0.034067243839786
30
0
41
1
10
2.81381942725542
20
0.0320372707098215
30
0
41
1
10
2.7991440072783
20
0.025893929947074
30
0
41
1
10
2.79234342315726
20
0.0218578628750947
30
0
41
1
10
2.75751708297003
20
0.0031730265161514
30
0
41
1
10
2.72990440419693
20
-0.0122119095122741
30
0
41
1
10
2.64788628344738
20
-0.059809187673892
30
0
41
1
10
2.59426343088157
20
-0.0934893333547961
30
0
41
1
10
2.43896543706086
20
-0.200558106285456
30
0
41
1
10
2.34209625827882
20
-0.27989436758736
30
0
41
1
10
2.21364465565117
20
-0.418861150057324
30
0
41
1
10
2.1742070523602
20
-0.468166254562135
30
0
41
1
10
2.10557503897709
20
-0.572052901513246
30
0
41
1
10
2.07584317935857
20
-0.627667108997429
30
0
41
1
10
2.030497503818
20
-0.742169250465196
30
0
41
1
10
2.01487074260518
20
-0.800622588774104
30
0
41
1
10
1.99848088351746
20
-0.919934582669555
30
0
41
1
10
1.99800854142464
20
-0.980755539953208
30
0
41
1
10
2.01105329762419
20
-1.09772986317609
30
0
41
1
10
2.02459941514604
20
-1.15536226907858
30
0
41
1
10
2.06208425690352
20
-1.26501632238205
30
0
41
1
10
2.08582261771519
20
-1.3170131036307
30
0
41
1
10
2.14076849843974
20
-1.41664412050673
30
0
41
1
10
2.17218360549407
20
-1.46450713443207
30
0
41
1
10
2.23999019195497
20
-1.55542697624637
30
0
41
1
10
2.27623913319096
20
-1.59837444170276
30
0
41
1
10
2.39026981881801
20
-1.72138611679645
30
0
41
1
10
2.47324757735038
20
-1.79570589278842
30
0
41
1
10
2.64816455481548
20
-1.93379259557176
30
0
41
1
10
2.73993308328952
20
-1.99723906722349
30
0
41
1
10
3.02016861053647
20
-2.17258854424597
30
0
41
1
10
3.21514892670919
20
-2.27116972770497
30
0
41
1
10
3.51444730900661
20
-2.4007634920064
30
0
41
1
10
3.61541454939192
20
-2.44080690814096
30
0
41
1
10
3.81934790002336
20
-2.51527195386723
30
0
41
1
10
3.9225234382165
20
-2.54974580956997
30
0
41
1
10
4.02578744056333
20
-2.58138026456339
30
0
0
SPLINE
5
BF
100
AcDbEntity
8
1
62
256
6
ByLayer
370
18
48
1
60
0
100
AcDbSpline
70
4
71
3
72
14
73
10
40
0
40
0
40
0
40
0
40
0.0279663448913716
40
0.0279663448913716
40
0.543497289617641
40
0.543497289617641
40
0.801262761980776
40
0.801262761980776
40
1
40
1
40
1
40
1
41
1
10
13.6304867455984
20
-2.74976371092077
30
0
41
1
10
13.6025999156404
20
-2.74975107922398
30
0
41
1
10
13.5747194933991
20
-2.74959927224245
30
0
41
1
10
13.0329971227505
20
-2.74395611091836
30
0
41
1
10
12.5201269258831
20
-2.69050497621615
30
0
41
1
10
11.7435773463279
20
-2.5399003830664
30
0
41
1
10
11.4825563010032
20
-2.47760066594458
30
0
41
1
10
11.0243273035523
20
-2.34939778901469
30
0
41
1
10
10.8255654005959
20
-2.28753420529156
30
0
41
1
10
10.6271659659354
20
-2.22001770911154
30
0
0
SPLINE
5
C0
100
AcDbEntity
8
1
62
256
6
ByLayer
370
13
48
1
60
0
100
AcDbSpline
70
4
71
3
72
20
73
16
40
0
40
0
40
0
40
0
40
0.0278283847190747
40
0.0278283847190747
40
0.270871288539308
40
0.270871288539308
40
0.392392740449425
40
0.392392740449425
40
0.513914192359541
40
0.513914192359541
40
0.756957096179772
40
0.756957096179772
40
0.878478548089886
40
0.878478548089886
40
1
40
1
40
1
40
1
41
1
10
10.6271659657149
20
-2.22001770903654
30
0
41
1
10
10.5682380646082
20
-2.19996419720556
30
0
41
1
10
10.509342140015
20
-2.17941199229145
30
0
41
1
10
9.93628912386495
20
-1.97461175325765
30
0
41
1
10
9.42384110513129
20
-1.75345747067897
30
0
41
1
10
8.64747003669805
20
-1.37871794491517
30
0
41
1
10
8.38638316560926
20
-1.24595947157351
30
0
41
1
10
7.86852266118444
20
-0.972332380124158
30
0
41
1
10
7.61083985755403
20
-0.831452980774003
30
0
41
1
10
6.83910890645691
20
-0.4008476668713
30
0
41
1
10
6.3263907820139
20
-0.103128400212938
30
0
41
1
10
5.55083994999063
20
0.343417473586555
30
0
41
1
10
5.29034339383634
20
0.492554138317018
30
0
41
1
10
4.7703205094052
20
0.783960813358163
30
0
41
1
10
4.51058793327374
20
0.926316785588
30
0
41
1
10
4.25044190824909
20
1.06415135064822
30
0
0
SPLINE
5
C1
100
AcDbEntity
8
1
62
256
6
ByLayer
370
18
48
1
60
0
100
AcDbSpline
70
4
71
3
72
8
73
4
40
0
40
0
40
0
40
0
40
1
40
1
40
1
40
1
41
1
10
9.80423966600418
20
2.28226280264209
30
0
41
1
10
9.66834808900234
20
2.23152686231708
30
0
41
1
10
9.53191690221851
20
2.17867050091235
30
0
41
1
10
9.39484459803296
20
2.12399935264045
30
0
0
SPLINE
5
C2
100
AcDbEntity
8
1
62
256
6
ByLayer
370
18
48
1
60
0
100
AcDbSpline
70
4
71
3
72
20
73
16
40
0
40
0
40
0
40
0
40
0.125
40
0.125
40
0.25
40
0.25
40
0.5
40
0.5
40
0.625
40
0.625
40
0.75
40
0.75
40
0.875
40
0.875
40
1
40
1
40
1
40
1
41
1
10
28.9958302833105
20
-2.75893362191022
30
0
41
1
10
28.9545272024991
20
-2.75888352178123
30
0
41
1
10
28.9152770370521
20
-2.75264411400585
30
0
41
1
10
28.8410928110733
20
-2.72715273026915
30
0
41
1
10
28.8059335905761
20
-2.70769956391445
30
0
41
1
10
28.7093620663944
20
-2.62950666043821
30
0
41
1
10
28.6569861165958
20
-2.55203019001047
30
0
41
1
10
28.5975188442889
20
-2.39549422223277
30
0
41
1
10
28.5808399326772
20
-2.33593504360255
30
0
41
1
10
28.5552405510638
20
-2.2060114541313
30
0
41
1
10
28.5461800118769
20
-2.13554277565976
30
0
41
1
10
28.5354832137633
20
-1.98367121428376
30
0
41
1
10
28.5338460460799
20
-1.90226966976255
30
0
41
1
10
28.5382917630585
20
-1.72809677413682
30
0
41
1
10
28.5443979821287
20
-1.63614765015941
30
0
41
1
10
28.5541789231028
20
-1.54107021236666
30
0
0
SPLINE
5
C3
100
AcDbEntity
8
1
62
256
6
ByLayer
370
18
48
1
60
0
100
AcDbSpline
70
4
71
3
72
18
73
14
40
0
40
0
40
0
40
0
40
0.306464450087868
40
0.306464450087868
40
0.478777841037466
40
0.478777841037466
40
0.651091231987065
40
0.651091231987065
40
0.823404622936664
40
0.823404622936664
40
0.995718013886262
40
0.995718013886262
40
1
40
1
40
1
40
1
41
1
10
8.06604304521883
20
-1.55990706857915
30
0
41
1
10
7.92028368561648
20
-1.69568121504324
30
0
41
1
10
7.77577201738563
20
-1.83452890235805
30
0
41
1
10
7.54462058612816
20
-2.04869391884279
30
0
41
1
10
7.46085505779902
20
-2.12459803469622
30
0
41
1
10
7.29220431538454
20
-2.26989955708535
30
0
41
1
10
7.20701453653592
20
-2.33956990724823
30
0
41
1
10
7.03282472399593
20
-2.47051851229486
30
0
41
1
10
6.94339720597446
20
-2.53193937934989
30
0
41
1
10
6.76422325877599
20
-2.6411653388185
30
0
41
1
10
6.67389537618271
20
-2.68945974154008
30
0
41
1
10
6.58006768155582
20
-2.7326043163593
30
0
41
1
10
6.57779184520109
20
-2.73364664190106
30
0
41
1
10
6.57551525084659
20
-2.734685155817
30
0
0
SPLINE
5
C4
100
AcDbEntity
8
1
62
256
6
ByLayer
370
18
48
1
60
0
100
AcDbSpline
70
4
71
3
72
14
73
10
40
0
40
0
40
0
40
0
40
0.25
40
0.25
40
0.5
40
0.5
40
0.75
40
0.75
40
1
40
1
40
1
40
1
41
1
10
6.57550331645902
20
-2.73468195018199
30
0
41
1
10
6.37740773849671
20
-2.74534309703657
30
0
41
1
10
6.18113045855893
20
-2.74820466438533
30
0
41
1
10
5.79076955336714
20
-2.74088877992267
30
0
41
1
10
5.59671573300236
20
-2.7305460793805
30
0
41
1
10
5.21011922775995
20
-2.69361344150551
30
0
41
1
10
5.01756183059376
20
-2.66716271040448
30
0
41
1
10
4.63347003922547
20
-2.59633451537593
30
0
41
1
10
4.44143231012151
20
-2.55185812427524
30
0
41
1
10
4.25130442497422
20
-2.4973458484935
30
0
0
SPLINE
5
C5
100
AcDbEntity
8
1
62
256
6
ByLayer
370
18
48
1
60
0
100
AcDbSpline
70
4
71
3
72
8
73
4
40
0
40
0
40
0
40
0
40
1
40
1
40
1
40
1
41
1
10
4.12053841883392
20
1.08198904906737
30
0
41
1
10
4.10424522697758
20
1.09112829663422
30
0
41
1
10
4.08937743832613
20
1.10177748765176
30
0
41
1
10
4.07588228362613
20
1.11385785749997
30
0
0
SPLINE
5
C6
100
AcDbEntity
8
1
62
256
6
ByLayer
370
18
48
1
60
0
100
AcDbSpline
70
4
71
3
72
20
73
16
40
0
40
0
40
0
40
0
40
0.249999999999997
40
0.249999999999997
40
0.499999999999994
40
0.499999999999994
40
0.624999999999993
40
0.624999999999993
40
0.749999999999992
40
0.749999999999992
40
0.87499999999999
40
0.87499999999999
40
0.937499999999995
40
0.937499999999995
40
1
40
1
40
1
40
1
41
1
10
28.8901134272506
20
0.873726647941396
30
0
41
1
10
28.9712726554557
20
0.892759751517048
30
0
41
1
10
29.0517859757761
20
0.914542124953897
30
0
41
1
10
29.208754189357
20
0.967478453583851
30
0
41
1
10
29.2858990818931
20
0.998531911745118
30
0
41
1
10
29.3948639949241
20
1.05847992307952
30
0
41
1
10
29.4297856038418
20
1.080601134418
30
0
41
1
10
29.495179009364
20
1.13177196814962
30
0
41
1
10
29.5249752417504
20
1.16028175450919
30
0
41
1
10
29.5745364127578
20
1.22582657015897
30
0
41
1
10
29.5942046980836
20
1.26384489235056
30
0
41
1
10
29.6101625678455
20
1.32455922037605
30
0
41
1
10
29.6133723079656
20
1.34573391798384
30
0
41
1
10
29.6154463029252
20
1.38773031895707
30
0
41
1
10
29.6144010771773
20
1.40875908275544
30
0
41
1
10
29.6115422270008
20
1.42981877101698
30
0
0
SPLINE
5
C7
100
AcDbEntity
8
1
62
256
6
ByLayer
370
18
48
1
60
0
100
AcDbSpline
70
4
71
3
72
16
73
12
40
0
40
0
40
0
40
0
40
0.25
40
0.25
40
0.499999999999999
40
0.499999999999999
40
0.75
40
0.75
40
0.875
40
0.875
40
1
40
1
40
1
40
1
41
1
10
29.6115422270007
20
1.42981877101695
30
0
41
1
10
29.5681731956583
20
1.54656923861475
30
0
41
1
10
29.524613459639
20
1.6631292943359
30
0
41
1
10
29.4369377855628
20
1.89569405771058
30
0
41
1
10
29.3929199321103
20
2.01180793057108
30
0
41
1
10
29.3046107566464
20
2.24344382232371
30
0
41
1
10
29.2601176109619
20
2.35859280920062
30
0
41
1
10
29.1931399737194
20
2.53084618427948
30
0
41
1
10
29.1707724155468
20
2.58812093231592
30
0
41
1
10
29.1258201079668
20
2.7016424474011
30
0
41
1
10
29.1032439388844
20
2.75794971935539
30
0
41
1
10
29.0806146006007
20
2.81401591351084
30
0
0
SPLINE
5
C8
100
AcDbEntity
8
1
62
256
6
ByLayer
370
18
48
1
60
0
100
AcDbSpline
70
4
71
3
72
8
73
4
40
0
40
0
40
0
40
0
40
1
40
1
40
1
40
1
41
1
10
29.0084039788031
20
-2.87629649736152
30
0
41
1
10
29.0138647924189
20
-2.8619147031516
30
0
41
1
10
29.0193204608852
20
-2.84752528406114
30
0
41
1
10
29.0247707881929
20
-2.83312876439012
30
0
0
SPLINE
5
C9
100
AcDbEntity
8
1
62
256
6
ByLayer
370
18
48
1
60
0
100
AcDbSpline
70
4
71
3
72
10
73
6
40
0
40
0
40
0
40
0
40
0.385619998633154
40
0.385619998633154
40
1
40
1
40
1
40
1
41
1
10
9.8042264009282
20
2.28225168341393
30
0
41
1
10
9.76088054042725
20
2.2584812169446
30
0
41
1
10
9.71751018457496
20
2.23448636156934
30
0
41
1
10
9.60495610598011
20
2.17166422388084
30
0
41
1
10
9.53571661888913
20
2.13248695334761
30
0
41
1
10
9.46632240176342
20
2.09274404548575
30
0
0
SPLINE
5
CA
100
AcDbEntity
8
1
62
256
6
ByLayer
370
18
48
1
60
0
100
AcDbSpline
70
4
71
3
72
16
73
12
40
0
40
0
40
0
40
0
40
0.222245346832874
40
0.222245346832874
40
0.444490693665748
40
0.444490693665748
40
0.666736040498622
40
0.666736040498622
40
0.888981387331495
40
0.888981387331495
40
1
40
1
40
1
40
1
41
1
10
6.57552482613252
20
-2.73468078783489
30
0
41
1
10
6.78531682795111
20
-2.723343688407
30
0
41
1
10
6.99419580528883
20
-2.70399719066899
30
0
41
1
10
7.41008906014869
20
-2.64971254127843
30
0
41
1
10
7.61709028272145
20
-2.61450953247527
30
0
41
1
10
8.03128444337901
20
-2.53029016348935
30
0
41
1
10
8.23816677693418
20
-2.48114781457895
30
0
41
1
10
8.65189455611991
20
-2.3703869624957
30
0
41
1
10
8.85897345577345
20
-2.30825692000187
30
0
41
1
10
9.17061478443966
20
-2.20364123633155
30
0
41
1
10
9.27453696958239
20
-2.16688523052323
30
0
41
1
10
9.37866514156048
20
-2.1285625299036
30
0
0
SPLINE
5
CB
100
AcDbEntity
8
1
62
256
6
ByLayer
370
18
48
1
60
0
100
AcDbSpline
70
4
71
3
72
24
73
20
40
0
40
0
40
0
40
0
40
0.0938873078475511
40
0.0938873078475511
40
0.207151394366608
40
0.207151394366608
40
0.320415480885664
40
0.320415480885664
40
0.43367956740472
40
0.43367956740472
40
0.546943653923776
40
0.546943653923776
40
0.660207740442832
40
0.660207740442832
40
0.773471826961888
40
0.773471826961888
40
0.886735913480944
40
0.886735913480944
40
1
40
1
40
1
40
1
41
1
10
21.0612106470794
20
2.75459841395514
30
0
41
1
10
21.2350949174834
20
2.75495986984834
30
0
41
1
10
21.4086730610817
20
2.74918900711469
30
0
41
1
10
21.7917208542986
20
2.72515395521944
30
0
41
1
10
22.0010189675796
20
2.70435815909556
30
0
41
1
10
22.4198160865208
20
2.64931087162947
30
0
41
1
10
22.6302103270958
20
2.61309899533194
30
0
41
1
10
23.0486045651348
20
2.52568156805793
30
0
41
1
10
23.25653443531
20
2.47429888783611
30
0
41
1
10
23.6720800761666
20
2.35918462938392
30
0
41
1
10
23.8794347424633
20
2.29581331621958
30
0
41
1
10
24.2935473021857
20
2.15422742364191
30
0
41
1
10
24.5005954836319
20
2.07684131762832
30
0
41
1
10
24.9156777616357
20
1.91136736352368
30
0
41
1
10
25.1232513602276
20
1.8228829116409
30
0
41
1
10
25.54036405343
20
1.63594235801395
30
0
41
1
10
25.7505709080283
20
1.53626125940116
30
0
41
1
10
26.1700069452593
20
1.32839563639908
30
0
41
1
10
26.3791805743941
20
1.22053792278791
30
0
41
1
10
26.5885267139336
20
1.11013835734761
30
0
0
SPLINE
5
CC
100
AcDbEntity
8
1
62
256
6
ByLayer
370
18
48
1
60
0
100
AcDbSpline
70
4
71
3
72
68
73
64
40
0
40
0
40
0
40
0
40
0.0332596048310501
40
0.0332596048310501
40
0.0665192096621001
40
0.0665192096621001
40
0.0997788144931502
40
0.0997788144931502
40
0.1330384193242
40
0.1330384193242
40
0.16629802415525
40
0.16629802415525
40
0.1995576289863
40
0.1995576289863
40
0.232817233817351
40
0.232817233817351
40
0.2660768386484
40
0.2660768386484
40
0.299336443479451
40
0.299336443479451
40
0.332596048310501
40
0.332596048310501
40
0.365855653141551
40
0.365855653141551
40
0.399115257972601
40
0.399115257972601
40
0.432374862803651
40
0.432374862803651
40
0.465634467634701
40
0.465634467634701
40
0.498894072465751
40
0.498894072465751
40
0.532153677296801
40
0.532153677296801
40
0.565413282127851
40
0.565413282127851
40
0.598672886958901
40
0.598672886958901
40
0.631932491789951
40
0.631932491789951
40
0.665192096621001
40
0.665192096621001
40
0.698451701452051
40
0.698451701452051
40
0.731711306283101
40
0.731711306283101
40
0.764970911114152
40
0.764970911114152
40
0.798230515945202
40
0.798230515945202
40
0.831490120776252
40
0.831490120776252
40
0.864749725607302
40
0.864749725607302
40
0.898009330438352
40
0.898009330438352
40
0.931268935269402
40
0.931268935269402
40
0.964528540100452
40
0.964528540100452
40
0.997788144931502
40
0.997788144931502
40
1
40
1
40
1
40
1
41
1
10
9.80420811511155
20
2.28224165562975
30
0
41
1
10
10.0066112319246
20
2.35807418087367
30
0
41
1
10
10.2085598287498
20
2.42656331090277
30
0
41
1
10
10.6107987341603
20
2.55031044971173
30
0
41
1
10
10.8106936742921
20
2.60578351916894
30
0
41
1
10
11.2108771682445
20
2.70187822135685
30
0
41
1
10
11.4110680560364
20
2.74268702603257
30
0
41
1
10
11.810831586585
20
2.81021420362222
30
0
41
1
10
12.0107863698062
20
2.83666627187574
30
0
41
1
10
12.4126783269555
20
2.87428020413171
30
0
41
1
10
12.6140603519439
20
2.8856285589583
30
0
41
1
10
13.0184244917138
20
2.89265945613039
30
0
41
1
10
13.221203248842
20
2.888299016427
30
0
41
1
10
13.6236668919738
20
2.86432123567889
30
0
41
1
10
13.8236733660576
20
2.84455037317548
30
0
41
1
10
14.2240366225458
20
2.7904381523677
30
0
41
1
10
14.4242013522522
20
2.75614533504626
30
0
41
1
10
14.8236947674729
20
2.67259481704343
30
0
41
1
10
15.0236360602431
20
2.62362417774625
30
0
41
1
10
15.4251181617283
20
2.5121783073422
30
0
41
1
10
15.6260420179341
20
2.44920599069607
30
0
41
1
10
16.0299486955224
20
2.30972893824762
30
0
41
1
10
16.2331839056596
20
2.2337242820432
30
0
41
1
10
16.6359410762708
20
2.0706825564084
30
0
41
1
10
16.8360325327574
20
1.98312870188906
30
0
41
1
10
17.2366152475216
20
1.79976264032013
30
0
41
1
10
17.4365557262808
20
1.70330470135895
30
0
41
1
10
17.8358269550096
20
1.5008878397575
30
0
41
1
10
18.0357544463435
20
1.39575408021221
30
0
41
1
10
18.4367105381247
20
1.17844235831299
30
0
41
1
10
18.6371373795645
20
1.06531056563108
30
0
41
1
10
19.0404471528187
20
0.833881149558636
30
0
41
1
10
19.2439523600025
20
0.715472026086076
30
0
41
1
10
19.6470458630093
20
0.475554368493391
30
0
41
1
10
19.8474936263898
20
0.354173324104721
30
0
41
1
10
20.248367086063
20
0.112222486823953
30
0
41
1
10
20.4483036483447
20
-0.0091759067300927
30
0
41
1
10
20.8473160669394
20
-0.252574945942627
30
0
41
1
10
21.047352519166
20
-0.372968716111188
30
0
41
1
10
21.4478095380282
20
-0.61228190705333
30
0
41
1
10
21.6479213215787
20
-0.731708345083433
30
0
41
1
10
22.0505669783001
20
-0.965681574424991
30
0
41
1
10
22.2538229772858
20
-1.08069324490492
30
0
41
1
10
22.6575083776375
20
-1.30485998591431
30
0
41
1
10
22.8582782400185
20
-1.4133005167931
30
0
41
1
10
23.2594904607023
20
-1.62049694022943
30
0
41
1
10
23.459274955584
20
-1.72021414853577
30
0
41
1
10
23.8585013781982
20
-1.91005731143858
30
0
41
1
10
24.0584511780696
20
-1.99956212092692
30
0
41
1
10
24.4585023976094
20
-2.16844863828993
30
0
41
1
10
24.6582842577789
20
-2.24812022326574
30
0
41
1
10
25.0604507758834
20
-2.39437957171935
30
0
41
1
10
25.2628534517364
20
-2.46163285222073
30
0
41
1
10
25.667164122722
20
-2.58326524211961
30
0
41
1
10
25.8683993920429
20
-2.63677805879351
30
0
41
1
10
26.2699916670669
20
-2.72908572679208
30
0
41
1
10
26.4697175930178
20
-2.76824283663299
30
0
41
1
10
26.8691438705723
20
-2.83144714843249
30
0
41
1
10
27.069153997405
20
-2.8554684156623
30
0
41
1
10
27.468745314675
20
-2.88871521501829
30
0
41
1
10
27.6684253361385
20
-2.89779574680767
30
0
41
1
10
27.8826104284085
20
-2.89921821625577
30
0
41
1
10
27.8959693991651
20
-2.89927314269008
30
0
41
1
10
27.9093315946004
20
-2.89929419258903
30
0
0
SPLINE
5
CD
100
AcDbEntity
8
1
62
256
6
ByLayer
370
18
48
1
60
0
100
AcDbSpline
70
4
71
3
72
16
73
12
40
0
40
0
40
0
40
0
40
0.249999999999955
40
0.249999999999955
40
0.49999999999991
40
0.49999999999991
40
0.624999999999911
40
0.624999999999911
40
0.749999999999911
40
0.749999999999911
40
1
40
1
40
1
40
1
41
1
10
28.7253695330347
20
0.586134459397982
30
0
41
1
10
28.7206206290604
20
0.614461178105643
30
0
41
1
10
28.719748818034
20
0.643389653134562
30
0
41
1
10
28.7269431962055
20
0.702825049425144
30
0
41
1
10
28.7348445012971
20
0.732384376935414
30
0
41
1
10
28.7551461959569
20
0.774797597245879
30
0
41
1
10
28.763097912025
20
0.788243204430614
30
0
41
1
10
28.7816729472791
20
0.813529003676422
30
0
41
1
10
28.7929255455149
20
0.825019540342765
30
0
41
1
10
28.8298447423188
20
0.853898639765504
30
0
41
1
10
28.8594826233631
20
0.866543247169318
30
0
41
1
10
28.8901134272483
20
0.873726647946199
30
0
0
SPLINE
5
CE
100
AcDbEntity
8
1
62
256
6
ByLayer
370
13
48
1
60
0
100
AcDbSpline
70
4
71
3
72
23
73
19
40
0
40
0
40
0
40
0
40
0.170678716978809
40
0.170678716978809
40
0.256018075468213
40
0.256018075468213
40
0.341357433957618
40
0.426696792447023
40
0.426696792447023
40
0.512036150936427
40
0.512036150936427
40
0.597375509425832
40
0.597375509425832
40
0.682714867915236
40
0.682714867915236
40
0.853393584894046
40
0.853393584894046
40
1
40
1
40
1
40
1
41
1
10
4.25044190824906
20
1.06415135064822
30
0
41
1
10
4.25050628361424
20
1.2342752223062
30
0
41
1
10
4.25055657470008
20
1.39516496166388
30
0
41
1
10
4.25061903127428
20
1.62283638852836
30
0
41
1
10
4.2506377012885
20
1.69659253071322
30
0
41
1
10
4.25067135775913
20
1.8367235449297
30
0
41
1
10
4.25070153798501
20
1.97018508188992
30
0
41
1
10
4.25072752544637
20
2.09055737212748
30
0
41
1
10
4.25075263885142
20
2.2043127839645
30
0
41
1
10
4.25076479970949
20
2.25805030833553
30
0
41
1
10
4.25078917981031
20
2.35783153103051
30
0
41
1
10
4.25080134649133
20
2.40366944642773
30
0
41
1
10
4.25082660160297
20
2.48727596441941
30
0
41
1
10
4.25083973231119
20
2.52510609352828
30
0
41
1
10
4.25088098409111
20
2.62472504426879
30
0
41
1
10
4.25091123702092
20
2.67346894259978
30
0
41
1
10
4.25097521666609
20
2.73155015943007
30
0
41
1
10
4.25100820034538
20
2.74522793971701
30
0
41
1
10
4.25104288152104
20
2.74520664680898
30
0
0
SPLINE
5
CF
100
AcDbEntity
8
1
62
256
6
ByLayer
370
18
48
1
60
0
100
AcDbSpline
70
4
71
3
72
12
73
8
40
0
40
0
40
0
40
0
40
0.249999999999999
40
0.249999999999999
40
0.499999999999998
40
0.499999999999998
40
1
40
1
40
1
40
1
41
1
10
29.0247707881757
20
-2.83312876439172
30
0
41
1
10
29.0298180187565
20
-2.81979698627296
30
0
41
1
10
29.0344903529966
20
-2.80607077175984
30
0
41
1
10
29.0415645805708
20
-2.78160538370153
30
0
41
1
10
29.0439098388882
20
-2.77097903651929
30
0
41
1
10
29.0467897564049
20
-2.74830991178411
30
0
41
1
10
29.0437823432866
20
-2.74436209196469
30
0
41
1
10
29.0386543870716
20
-2.74697395363964
30
0
0
SPLINE
5
D0
100
AcDbEntity
8
1
62
256
6
ByLayer
370
18
48
1
60
0
100
AcDbSpline
70
4
71
3
72
8
73
4
40
0
40
0
40
0
40
0
40
1
40
1
40
1
40
1
41
1
10
4.12122628418416
20
1.07392383936281
30
0
41
1
10
4.14539971535899
20
1.05505230651292
30
0
41
1
10
4.1718679248869
20
1.03782682223297
30
0
41
1
10
4.19905846894721
20
1.02271375568836
30
0
0
SPLINE
5
D1
100
AcDbEntity
8
1
62
256
6
ByLayer
370
18
48
1
60
0
100
AcDbSpline
70
4
71
3
72
24
73
20
40
0
40
0
40
0
40
0
40
0.0879530656112463
40
0.0879530656112463
40
0.175906131222493
40
0.175906131222493
40
0.351812262444985
40
0.351812262444985
40
0.439765328056231
40
0.439765328056231
40
0.527718393667478
40
0.527718393667478
40
0.70362452488997
40
0.70362452488997
40
0.879530656112462
40
0.879530656112462
40
0.967483721723709
40
0.967483721723709
40
1
40
1
40
1
40
1
41
1
10
4.02524142214432
20
1.2159030013494
30
0
41
1
10
4.02526167373875
20
1.30354322834324
30
0
41
1
10
4.02528009477868
20
1.3889767991711
30
0
41
1
10
4.02531392837716
20
1.5554137414465
30
0
41
1
10
4.02532928240137
20
1.63616185864595
30
0
41
1
10
4.02537118544535
20
1.86781287386557
30
0
41
1
10
4.02539388219677
20
2.009565625687
30
0
41
1
10
4.02542437915341
20
2.20309263533625
30
0
41
1
10
4.02543399526394
20
2.26469945427149
30
0
41
1
10
4.02545234838595
20
2.37910915441157
30
0
41
1
10
4.02546110877515
20
2.43206151332561
30
0
41
1
10
4.02548708355846
20
2.57846575873663
30
0
41
1
10
4.02550403152119
20
2.65959602722353
30
0
41
1
10
4.02554099943728
20
2.78748336146762
30
0
41
1
10
4.02556042261438
20
2.83207925762724
30
0
41
1
10
4.02559216085484
20
2.87112644637025
30
0
41
1
10
4.02560315813127
20
2.87946546799836
30
0
41
1
10
4.02561880279021
20
2.88432417226562
30
0
41
1
10
4.02562308641973
20
2.884970773209
30
0
41
1
10
4.02562741266209
20
2.88495626050076
30
0
0
SPLINE
5
D2
100
AcDbEntity
8
1
62
256
6
ByLayer
370
18
48
1
60
0
100
AcDbSpline
70
4
71
3
72
32
73
28
40
0
40
0
40
0
40
0
40
0.249999999999997
40
0.249999999999997
40
0.375
40
0.375
40
0.500000000000004
40
0.500000000000004
40
0.625000000000007
40
0.625000000000007
40
0.687500000000004
40
0.687500000000004
40
0.75
40
0.75
40
0.781249999999999
40
0.781249999999999
40
0.812499999999997
40
0.812499999999997
40
0.875000000000002
40
0.875000000000002
40
0.906250000000001
40
0.906250000000001
40
0.937500000000001
40
0.937500000000001
40
0.96875
40
0.96875
40
1
40
1
40
1
40
1
41
1
10
26.5885267139336
20
1.11013835734775
30
0
41
1
10
26.7825501606422
20
0.948005795978446
30
0
41
1
10
26.9804278016183
20
0.80032638292559
30
0
41
1
10
27.2847537745253
20
0.60696777502406
30
0
41
1
10
27.3874413194716
20
0.547185707225026
30
0
41
1
10
27.5956756014229
20
0.438343482361574
30
0
41
1
10
27.7002236315262
20
0.389894606062
30
0
41
1
10
27.9080066738534
20
0.307155684589759
30
0
41
1
10
28.0115733794186
20
0.272680682877109
30
0
41
1
10
28.1663623409316
20
0.232877888943619
30
0
41
1
10
28.2178787568817
20
0.221606948915877
30
0
41
1
10
28.3199420621635
20
0.203521146858407
30
0
41
1
10
28.3707999584183
20
0.196062069730829
30
0
41
1
10
28.4442661980089
20
0.19438660359333
30
0
41
1
10
28.4684291069417
20
0.195236891868689
30
0
41
1
10
28.5151700777149
20
0.200399051000062
30
0
41
1
10
28.5378659047846
20
0.204366940246615
30
0
41
1
10
28.6014183403825
20
0.225592727047939
30
0
41
1
10
28.639824570968
20
0.249612033202936
30
0
41
1
10
28.6849483358031
20
0.299842302673739
30
0
41
1
10
28.6981099255244
20
0.31943646849416
30
0
41
1
10
28.7181935058816
20
0.363445410019068
30
0
41
1
10
28.7252282020708
20
0.387699897066426
30
0
41
1
10
28.7338984152018
20
0.440248731995609
30
0
41
1
10
28.7354430228264
20
0.468575948782586
30
0
41
1
10
28.7336622735362
20
0.526216161749204
30
0
41
1
10
28.7304466991736
20
0.555849690991778
30
0
41
1
10
28.7253695330347
20
0.586134459397982
30
0
0
SPLINE
5
D3
100
AcDbEntity
8
1
62
256
6
ByLayer
370
18
48
1
60
0
100
AcDbSpline
70
4
71
3
72
8
73
4
40
0
40
0
40
0
40
0
40
1
40
1
40
1
40
1
41
1
10
29.0084039788031
20
2.87629649736152
30
0
41
1
10
28.8044525413504
20
2.89204680780793
30
0
41
1
10
28.6008803426593
20
2.89981535232832
30
0
41
1
10
28.3972893206233
20
2.8996235637567
30
0
0
SPLINE
5
D4
100
AcDbEntity
8
1
62
256
6
ByLayer
370
18
48
1
60
0
100
AcDbSpline
70
4
71
3
72
36
73
32
40
0
40
0
40
0
40
0
40
0.0277250242692769
40
0.0277250242692769
40
0.0637352085555988
40
0.0637352085555988
40
0.135755577128244
40
0.135755577128244
40
0.279796314273535
40
0.279796314273535
40
0.315806498559858
40
0.315806498559858
40
0.351816682846181
40
0.351816682846181
40
0.423837051418829
40
0.423837051418829
40
0.567877788564123
40
0.567877788564123
40
0.603887972850446
40
0.603887972850446
40
0.63989815713677
40
0.63989815713677
40
0.711918525709417
40
0.711918525709417
40
0.85595926285471
40
0.85595926285471
40
0.891969447141033
40
0.891969447141033
40
0.927979631427356
40
0.927979631427356
40
1
40
1
40
1
40
1
41
1
10
14.9258187103487
20
-2.75102309439234
30
0
41
1
10
14.8252593752086
20
-2.76976368804398
30
0
41
1
10
14.7246323859225
20
-2.78666912406544
30
0
41
1
10
14.4942141514528
20
-2.82108270514107
30
0
41
1
10
14.3643894138437
20
-2.83732502189648
30
0
41
1
10
13.9756514907676
20
-2.87649364096131
30
0
41
1
10
13.7177185025647
20
-2.88991436429308
30
0
41
1
10
12.9442925542657
20
-2.89193298722802
30
0
41
1
10
12.4287219711455
20
-2.84254412018492
30
0
41
1
10
11.7762923744874
20
-2.71731238237703
30
0
41
1
10
11.6453673496519
20
-2.68910230915881
30
0
41
1
10
11.3849189965012
20
-2.6270171135973
30
0
41
1
10
11.2550903132983
20
-2.5930801632758
30
0
41
1
10
10.8663742787363
20
-2.48301026284369
30
0
41
1
10
10.6082392429974
20
-2.39864405776598
30
0
41
1
10
9.83442190931612
20
-2.1152287290858
30
0
41
1
10
9.31924666530392
20
-1.88589360402906
30
0
41
1
10
8.66665402027567
20
-1.55873909260489
30
0
41
1
10
8.53564888044673
20
-1.49125923238265
30
0
41
1
10
8.27512196060178
20
-1.35369964295046
30
0
41
1
10
8.14530038670938
20
-1.28345200642275
30
0
41
1
10
7.75657687496926
20
-1.06923544937308
30
0
41
1
10
7.49838398807549
20
-0.921849352883527
30
0
41
1
10
6.72426983494191
20
-0.469955316072088
30
0
41
1
10
6.20887793796044
20
-0.155616122800552
30
0
41
1
10
5.5567361343056
20
0.239490498916439
30
0
41
1
10
5.42579122278579
20
0.318621032566171
30
0
41
1
10
5.1646189417103
20
0.475439101612267
30
0
41
1
10
5.03417018608565
20
0.553262880961967
30
0
41
1
10
4.64286441892111
20
0.784389233103838
30
0
41
1
10
4.38202433781348
20
0.935315237707101
30
0
41
1
10
4.120538418835
20
1.08198904906678
30
0
0
SPLINE
5
D5
100
AcDbEntity
8
1
62
256
6
ByLayer
370
13
48
1
60
0
100
AcDbSpline
70
4
71
3
72
14
73
10
40
0
40
0
40
0
40
0
40
0.0651750401774574
40
0.0651750401774574
40
0.532587520088728
40
0.532587520088728
40
0.766293760044364
40
0.766293760044364
40
1
40
1
40
1
40
1
41
1
10
4.25104307543063
20
-2.74520638503759
30
0
41
1
10
4.25104870636358
20
-2.74519463973647
30
0
41
1
10
4.25105438194444
20
-2.74482186895125
30
0
41
1
10
4.25110106539819
20
-2.73880668298546
30
0
41
1
10
4.25114400592605
20
-2.71546897501727
30
0
41
1
10
4.2512072709668
20
-2.65356793104837
30
0
41
1
10
4.25122823541781
20
-2.62827562182841
30
0
41
1
10
4.25126822936963
20
-2.56896110469523
30
0
41
1
10
4.25128714122033
20
-2.53516296787555
30
0
41
1
10
4.25130442447175
20
-2.49734584837063
30
0
0
SPLINE
5
D6
100
AcDbEntity
8
1
62
256
6
ByLayer
370
18
48
1
60
0
100
AcDbSpline
70
4
71
3
72
70
73
66
40
0
40
0
40
0
40
0
40
0.0157646483771553
40
0.0157646483771553
40
0.0509159109351126
40
0.0509159109351126
40
0.08606717349307
40
0.08606717349307
40
0.121218436051027
40
0.121218436051027
40
0.156369698608985
40
0.156369698608985
40
0.191520961166942
40
0.191520961166942
40
0.209096592445921
40
0.209096592445921
40
0.2266722237249
40
0.2266722237249
40
0.26182348628286
40
0.26182348628286
40
0.279399117561839
40
0.279399117561839
40
0.296974748840819
40
0.296974748840819
40
0.332126011398777
40
0.332126011398777
40
0.367277273956735
40
0.367277273956735
40
0.402428536514694
40
0.402428536514694
40
0.437579799072652
40
0.437579799072652
40
0.47273106163061
40
0.47273106163061
40
0.507882324188568
40
0.507882324188568
40
0.543033586746527
40
0.543033586746527
40
0.578184849304485
40
0.578184849304485
40
0.595760480583464
40
0.595760480583464
40
0.613336111862443
40
0.613336111862443
40
0.648487374420401
40
0.648487374420401
40
0.666063005699381
40
0.666063005699381
40
0.683638636978361
40
0.683638636978361
40
0.718789899536321
40
0.718789899536321
40
0.78909242465224
40
0.78909242465224
40
0.8242436872102
40
0.8242436872102
40
0.85939494976816
40
0.85939494976816
40
0.89454621232612
40
0.89454621232612
40
0.92969747488408
40
0.92969747488408
40
0.96484873744204
40
0.96484873744204
40
1
40
1
40
1
40
1
41
1
10
24.3541838140763
20
-2.12992791609139
30
0
41
1
10
24.260062739136
20
-2.1645748468022
30
0
41
1
10
24.1660388693702
20
-2.19795490103027
30
0
41
1
10
23.863278745316
20
-2.30100765186089
30
0
41
1
10
23.6550805985721
20
-2.36421424243534
30
0
41
1
10
23.2395718206893
20
-2.47865016748787
30
0
41
1
10
23.0325907087205
20
-2.52934832618311
30
0
41
1
10
22.6181146801486
20
-2.61528277948705
30
0
41
1
10
22.4109190910653
20
-2.65063345875169
30
0
41
1
10
21.9958630532169
20
-2.70487742086422
30
0
41
1
10
21.7878373502771
20
-2.72547687363311
30
0
41
1
10
21.3701690820742
20
-2.75152451698216
30
0
41
1
10
21.1602316190853
20
-2.75715703797391
30
0
41
1
10
20.8457515555372
20
-2.75171962974704
30
0
41
1
10
20.740993984599
20
-2.74727203701789
30
0
41
1
10
20.5315635389428
20
-2.73482990499159
30
0
41
1
10
20.4269366879109
20
-2.72704319885483
30
0
41
1
10
20.1131005607736
20
-2.69804304982367
30
0
41
1
10
19.903795546067
20
-2.67138739656832
30
0
41
1
10
19.5890005522734
20
-2.61993280849472
30
0
41
1
10
19.4839071095806
20
-2.60087125310909
30
0
41
1
10
19.274694099619
20
-2.55870131204947
30
0
41
1
10
19.1704736268476
20
-2.53546287534255
30
0
41
1
10
18.8580726860183
20
-2.46046799570598
30
0
41
1
10
18.6502785412133
20
-2.40409171238389
30
0
41
1
10
18.2358908658301
20
-2.27720589271459
30
0
41
1
10
18.0290226812975
20
-2.20729148745062
30
0
41
1
10
17.6147849522269
20
-2.05693385049247
30
0
41
1
10
17.4076909895594
20
-1.9757150448558
30
0
41
1
10
16.992521432403
20
-1.80068955658877
30
0
41
1
10
16.783980072979
20
-1.70736947944377
30
0
41
1
10
16.3654722245564
20
-1.51096890918095
30
0
41
1
10
16.1554982250279
20
-1.40789995681149
30
0
41
1
10
15.736794550306
20
-1.1952037475009
30
0
41
1
10
15.5276152911369
20
-1.08501872670695
30
0
41
1
10
15.1094434595794
20
-0.858068058503903
30
0
41
1
10
14.8995637472273
20
-0.742308993006333
30
0
41
1
10
14.4800914428995
20
-0.506830721170331
30
0
41
1
10
14.2711402818871
20
-0.38713288801236
30
0
41
1
10
13.9574916452666
20
-0.206819927144892
30
0
41
1
10
13.8528935259439
20
-0.14656406852697
30
0
41
1
10
13.6436036538068
20
-0.0260057773711537
30
0
41
1
10
13.53891761476
20
0.0343278841930328
30
0
41
1
10
13.2249303040946
20
0.215888406606098
30
0
41
1
10
13.014954800479
20
0.336778818543507
30
0
41
1
10
12.70203594232
20
0.514854695155066
30
0
41
1
10
12.598000235426
20
0.573890743508713
30
0
41
1
10
12.3903663616604
20
0.690718652651015
30
0
41
1
10
12.2867559992599
20
0.748377416534112
30
0
41
1
10
11.9759555787158
20
0.919663415342768
30
0
41
1
10
11.7688865412073
20
1.03107531384563
30
0
41
1
10
11.1481387958264
20
1.35663761651679
30
0
41
1
10
10.7343566885321
20
1.56290860159564
30
0
41
1
10
10.1078142149254
20
1.84126572335563
30
0
41
1
10
9.89738450664035
20
1.92848713705564
30
0
41
1
10
9.4798913035082
20
2.09243826463785
30
0
41
1
10
9.27227811992611
20
2.16955495943864
30
0
41
1
10
8.85768792581206
20
2.30864674786738
30
0
41
1
10
8.65102754479315
20
2.37063026428135
30
0
41
1
10
8.23795058643771
20
2.48119447205164
30
0
41
1
10
8.03131204667557
20
2.5302804223964
30
0
41
1
10
7.61742755856096
20
2.6144450779363
30
0
41
1
10
7.41048981959838
20
2.64965059951425
30
0
41
1
10
6.99453618897672
20
2.70396237725228
30
0
41
1
10
6.78553565341497
20
2.72333186314182
30
0
41
1
10
6.57552482613258
20
2.73468078783483
30
0
0
SPLINE
5
D7
100
AcDbEntity
8
1
62
256
6
ByLayer
370
18
48
1
60
0
100
AcDbSpline
70
4
71
3
72
8
73
4
40
0
40
0
40
0
40
0
40
1
40
1
40
1
40
1
41
1
10
6.12724682315024
20
2.74603710738981
30
0
41
1
10
6.27601716263746
20
2.74637224767045
30
0
41
1
10
6.4253415855344
20
2.74276338381034
30
0
41
1
10
6.57550331646118
20
2.73468195018214
30
0
0
SPLINE
5
D8
100
AcDbEntity
8
1
62
256
6
ByLayer
370
18
48
1
60
0
100
AcDbSpline
70
4
71
3
72
8
73
4
40
0
40
0
40
0
40
0
40
1
40
1
40
1
40
1
41
1
10
4.07588228362545
20
1.11385785750053
30
0
41
1
10
4.04556012969746
20
1.14100114278995
30
0
41
1
10
4.0252325349378
20
1.17744297409246
30
0
41
1
10
4.02524142214435
20
1.21590300134713
30
0
0
SPLINE
5
D9
100
AcDbEntity
8
1
62
256
6
ByLayer
370
18
48
1
60
0
100
AcDbSpline
70
4
71
3
72
22
73
18
40
0
40
0
40
0
40
0
40
0.125000000000004
40
0.125000000000004
40
0.187500000000006
40
0.187500000000006
40
0.250000000000008
40
0.250000000000008
40
0.375000000000007
40
0.375000000000007
40
0.500000000000006
40
0.500000000000006
40
0.625000000000004
40
0.625000000000004
40
0.750000000000003
40
0.750000000000003
40
1
40
1
40
1
40
1
41
1
10
26.5885267139332
20
1.11013835734764
30
0
41
1
10
26.6135019996316
20
0.980314185539214
30
0
41
1
10
26.6509191966787
20
0.849459863470457
30
0
41
1
10
26.723600185698
20
0.651807663572754
30
0
41
1
10
26.7507284968239
20
0.585469781621043
30
0
41
1
10
26.8090418032091
20
0.455121277278749
30
0
41
1
10
26.8403296712944
20
0.390781987918047
30
0
41
1
10
26.9399728515082
20
0.20002842973804
30
0
41
1
10
27.0143531871083
20
0.0754361453975889
30
0
41
1
10
27.1753816343697
20
-0.166626022515942
30
0
41
1
10
27.2607200971699
20
-0.282276582913937
30
0
41
1
10
27.4390635949521
20
-0.505027096911476
30
0
41
1
10
27.5320725926194
20
-0.612122630887342
30
0
41
1
10
27.7246139442661
20
-0.819038132457365
30
0
41
1
10
27.8245609877783
20
-0.91919806666877
30
0
41
1
10
28.1291633843144
20
-1.20616962018693
30
0
41
1
10
28.3389461855852
20
-1.38050892557914
30
0
41
1
10
28.5541789231029
20
-1.54107021236666
30
0
0
SPLINE
5
DA
100
AcDbEntity
8
1
62
256
6
ByLayer
370
18
48
1
60
0
100
AcDbSpline
70
4
71
3
72
14
73
10
40
0
40
0
40
0
40
0
40
0.25
40
0.25
40
0.5
40
0.5
40
0.75
40
0.75
40
1
40
1
40
1
40
1
41
1
10
4.25130442447423
20
-2.49734584835406
30
0
41
1
10
4.23041600726503
20
-2.49135685226813
30
0
41
1
10
4.20938183883865
20
-2.48798535139463
30
0
41
1
10
4.16698509759101
20
-2.48737987074824
30
0
41
1
10
4.14552139164914
20
-2.49027094542109
30
0
41
1
10
4.10497371299476
20
-2.5035127895764
30
0
41
1
10
4.08539412777048
20
-2.51412006490642
30
0
41
1
10
4.05160506111787
20
-2.54246497596694
30
0
41
1
10
4.03683343095406
20
-2.56073477267498
30
0
41
1
10
4.02578744055208
20
-2.58138026455987
30
0
0
SPLINE
5
DB
100
AcDbEntity
8
1
62
256
6
ByLayer
370
18
48
1
60
0
100
AcDbSpline
70
4
71
3
72
18
73
14
40
0
40
0
40
0
40
0
40
0.191709937749983
40
0.191709937749983
40
0.383419875499966
40
0.383419875499966
40
0.575129813249949
40
0.575129813249949
40
0.766839750999932
40
0.766839750999932
40
0.958549688749915
40
0.958549688749915
40
1
40
1
40
1
40
1
41
1
10
9.80420811511155
20
-2.28224165562975
30
0
41
1
10
10.0066112319245
20
-2.35807418087362
30
0
41
1
10
10.2085598287496
20
-2.42656331090268
30
0
41
1
10
10.6107987341598
20
-2.55031044971159
30
0
41
1
10
10.8106936742915
20
-2.60578351916877
30
0
41
1
10
11.2108771682437
20
-2.70187822135665
30
0
41
1
10
11.4110680560354
20
-2.7426870260324
30
0
41
1
10
11.8108315865838
20
-2.81021420362205
30
0
41
1
10
12.0107863698049
20
-2.8366662718756
30
0
41
1
10
12.412678326954
20
-2.87428020413159
30
0
41
1
10
12.6140603519422
20
-2.88562855895825
30
0
41
1
10
12.8599569513098
20
-2.88990409562211
30
0
41
1
10
12.90369937494
20
-2.89029599887286
30
0
41
1
10
12.9474480257629
20
-2.89032221830541
30
0
0
SPLINE
5
DC
100
AcDbEntity
8
1
62
256
6
ByLayer
370
18
48
1
60
0
100
AcDbSpline
70
4
71
3
72
22
73
18
40
0
40
0
40
0
40
0
40
0.106742622325488
40
0.106742622325488
40
0.234350819136134
40
0.234350819136134
40
0.361959015946781
40
0.361959015946781
40
0.489567212757427
40
0.489567212757427
40
0.61717540956807
40
0.61717540956807
40
0.744783606378713
40
0.744783606378713
40
0.872391803189357
40
0.872391803189357
40
1
40
1
40
1
40
1
41
1
10
24.3565842387553
20
2.12503757072881
30
0
41
1
10
24.5238709779483
20
2.19432837992511
30
0
41
1
10
24.6911639459431
20
2.26007786158649
30
0
41
1
10
25.0604507758742
20
2.39437957171626
30
0
41
1
10
25.2628534517271
20
2.46163285221772
30
0
41
1
10
25.6671641227125
20
2.58326524211697
30
0
41
1
10
25.8683993920333
20
2.63677805879109
30
0
41
1
10
26.2699916670571
20
2.72908572679006
30
0
41
1
10
26.4697175930079
20
2.76824283663117
30
0
41
1
10
26.8691438705622
20
2.83144714843115
30
0
41
1
10
27.0691539973947
20
2.85546841566119
30
0
41
1
10
27.4687453146645
20
2.88871521501767
30
0
41
1
10
27.6684253361279
20
2.89779574680733
30
0
41
1
10
28.0700841091116
20
2.90046328695772
30
0
41
1
10
28.2716517417306
20
2.89416063906756
30
0
41
1
10
28.6759894587693
20
2.86557804734559
30
0
41
1
10
28.8784676773772
20
2.84355761132886
30
0
41
1
10
29.0806146005851
20
2.8140159135221
30
0
0
SPLINE
5
DD
100
AcDbEntity
8
1
62
256
6
ByLayer
370
18
48
1
60
0
100
AcDbSpline
70
4
71
3
72
8
73
4
40
0
40
0
40
0
40
0
40
1
40
1
40
1
40
1
41
1
10
4.07588228362633
20
1.11385785749985
30
0
41
1
10
4.08933961906789
20
1.09891670676498
30
0
41
1
10
4.10437198288406
20
1.0855253378638
30
0
41
1
10
4.12122628418416
20
1.07392383936281
30
0
0
SPLINE
5
DE
100
AcDbEntity
8
SK1
62
256
6
ByLayer
370
18
48
1
60
0
100
AcDbSpline
70
4
71
3
72
14
73
10
40
0
40
0
40
0
40
0
40
0.5
40
0.5
40
0.75
40
0.75
40
0.875
40
0.875
40
1
40
1
40
1
40
1
41
1
10
-35.4
20
-0.79267849537797
30
0
41
1
10
-35.3787678516107
20
-0.793286405315229
30
0
41
1
10
-35.3584289872789
20
-0.787820430920078
30
0
41
1
10
-35.330362650101
20
-0.767506054405715
30
0
41
1
10
-35.3215171181658
20
-0.758759344569825
30
0
41
1
10
-35.310281247835
20
-0.740241367342009
30
0
41
1
10
-35.3068890128889
20
-0.733121722211649
30
0
41
1
10
-35.30175857625
20
-0.716457177239306
30
0
41
1
10
-35.3
20
-0.706702758733371
30
0
41
1
10
-35.3
20
-0.695935076516434
30
0
0
SPLINE
5
DF
100
AcDbEntity
8
SK1
62
256
6
ByLayer
370
18
48
1
60
0
100
AcDbSpline
70
4
71
3
72
8
73
4
40
0
40
0
40
0
40
0
40
1
40
1
40
1
40
1
41
1
10
-35.4
20
-0.707131368561619
30
0
41
1
10
-35.6037656607381
20
-0.712965501206384
30
0
41
1
10
-35.8061201031067
20
-0.718812955332794
30
0
41
1
10
-35.9999999999999
20
-0.724730605720396
30
0
0
SPLINE
5
E0
100
AcDbEntity
8
SK1
62
256
6
ByLayer
370
18
48
1
60
0
100
AcDbSpline
70
4
71
3
72
8
73
4
40
0
40
0
40
0
40
0
40
1
40
1
40
1
40
1
41
1
10
-36
20
-0.775079258218398
30
0
41
1
10
-35.8060534491693
20
-0.780998943034035
30
0
41
1
10
-35.6037427026638
20
-0.786845020058337
30
0
41
1
10
-35.4
20
-0.792678495377174
30
0
0
SPLINE
5
E1
100
AcDbEntity
8
SK1
62
256
6
ByLayer
370
18
48
1
60
0
100
AcDbSpline
70
4
71
3
72
14
73
10
40
0
40
0
40
0
40
0
40
0.125000000000002
40
0.125000000000002
40
0.250000000000004
40
0.250000000000004
40
0.500000000000003
40
0.500000000000003
40
1
40
1
40
1
40
1
41
1
10
-35.3
20
-0.603900138897188
30
0
41
1
10
-35.3
20
-0.614715928862068
30
0
41
1
10
-35.3017473405979
20
-0.624653093008334
30
0
41
1
10
-35.3069361278352
20
-0.641891719824656
30
0
41
1
10
-35.3102875585928
20
-0.649132837491777
30
0
41
1
10
-35.3215071660416
20
-0.668408241758243
30
0
41
1
10
-35.3303450359861
20
-0.677725054011262
30
0
41
1
10
-35.3582889425212
20
-0.699751026212994
30
0
41
1
10
-35.3787666842182
20
-0.706523425200686
30
0
41
1
10
-35.3999999999999
20
-0.707131368562244
30
0
0
SPLINE
5
E2
100
AcDbEntity
8
SK1
62
256
6
ByLayer
370
18
48
1
60
0
100
AcDbSpline
70
4
71
3
72
14
73
10
40
0
40
0
40
0
40
0
40
0.125
40
0.125
40
0.25
40
0.25
40
0.5
40
0.5
40
1
40
1
40
1
40
1
41
1
10
-35.3
20
0.603900138897188
30
0
41
1
10
-35.3
20
0.614715928862097
30
0
41
1
10
-35.3017473405979
20
0.624653093008334
30
0
41
1
10
-35.3069361278352
20
0.641891719824628
30
0
41
1
10
-35.3102875585928
20
0.649132837491777
30
0
41
1
10
-35.3215071660416
20
0.668408241758243
30
0
41
1
10
-35.3303450359861
20
0.677725054011262
30
0
41
1
10
-35.3582889425211
20
0.699751026212994
30
0
41
1
10
-35.3787666842182
20
0.706523425200686
30
0
41
1
10
-35.3999999999999
20
0.707131368562244
30
0
0
SPLINE
5
E3
100
AcDbEntity
8
SK1
62
256
6
ByLayer
370
18
48
1
60
0
100
AcDbSpline
70
4
71
3
72
8
73
4
40
0
40
0
40
0
40
0
40
1
40
1
40
1
40
1
41
1
10
-35.4
20
0.707131368561619
30
0
41
1
10
-35.6037656607381
20
0.712965501206384
30
0
41
1
10
-35.8061201031067
20
0.718812955332794
30
0
41
1
10
-35.9999999999999
20
0.724730605720396
30
0
0
LINE
5
76
100
AcDbEntity
8
81
62
256
6
ByLayer
370
18
48
1
60
0
100
AcDbLine
10
30
20
0
30
0
11
35
21
0
31
0
39
0
210
0
220
0
230
1
0
LINE
5
77
100
AcDbEntity
8
1
62
256
6
ByLayer
370
18
48
1
60
0
100
AcDbLine
10
4.025627
20
2.884967
30
0
11
0.283084
21
2.882721
31
0
39
0
210
0
220
0
230
1
0
LINE
5
79
100
AcDbEntity
8
1
62
256
6
ByLayer
370
18
48
1
60
0
100
AcDbLine
10
13.434554
20
2.890612
30
0
11
12.947241
21
2.89032
31
0
39
0
210
0
220
0
230
1
0
LINE
5
7A
100
AcDbEntity
8
1
62
256
6
ByLayer
370
18
48
1
60
0
100
AcDbLine
10
12.947241
20
-2.89032
30
0
11
13.434664
21
-2.890612
31
0
39
0
210
0
220
0
230
1
0
LINE
5
7B
100
AcDbEntity
8
1
62
256
6
ByLayer
370
18
48
1
60
0
100
AcDbLine
10
0.283084
20
-2.882721
30
0
11
4.025627
21
-2.884967
31
0
39
0
210
0
220
0
230
1
0
LINE
5
7C
100
AcDbEntity
8
SK1
62
256
6
ByLayer
370
18
48
1
60
0
100
AcDbLine
10
-35.278312
20
3
30
0
11
-36
21
1.75
31
0
39
0
210
0
220
0
230
1
0
LINE
5
7E
100
AcDbEntity
8
SK1
62
256
6
ByLayer
370
18
48
1
60
0
100
AcDbLine
10
-36
20
-1.75
30
0
11
-35.278312
21
-3
31
0
39
0
210
0
220
0
230
1
0
LINE
5
7F
100
AcDbEntity
8
SK1
62
256
6
ByLayer
370
18
48
1
60
0
100
AcDbLine
10
0
20
3
30
0
11
-35.278312
21
3
31
0
39
0
210
0
220
0
230
1
0
LINE
5
80
100
AcDbEntity
8
SK1
62
256
6
ByLayer
370
18
48
1
60
0
100
AcDbLine
10
-35.278312
20
-3
30
0
11
0
21
-3
31
0
39
0
210
0
220
0
230
1
0
LINE
5
81
100
AcDbEntity
8
1
62
256
6
ByLayer
370
18
48
1
60
0
100
AcDbLine
10
28.399825
20
2.899592
30
0
11
27.916423
21
2.899301
31
0
39
0
210
0
220
0
230
1
0
LINE
5
82
100
AcDbEntity
8
1
62
256
6
ByLayer
370
18
48
1
60
0
100
AcDbLine
10
27.916423
20
-2.899301
30
0
11
28.399764
21
-2.899591
31
0
39
0
210
0
220
0
230
1
0
LINE
5
83
100
AcDbEntity
8
SK4
62
256
6
ByLayer
370
18
48
0.05
60
0
100
AcDbLine
10
35
20
0
30
0
11
-41
21
0
31
0
39
0
210
0
220
0
230
1
0
LINE
5
85
100
AcDbEntity
8
4
62
256
6
ByLayer
370
18
48
0.05
60
0
100
AcDbLine
10
30
20
0
30
0
11
0
21
0
31
0
39
0
210
0
220
0
230
1
0
LINE
5
87
100
AcDbEntity
8
80
62
256
6
ByLayer
370
18
48
1
60
0
100
AcDbLine
10
0
20
0
30
0
11
-5
21
0
31
0
39
0
210
0
220
0
230
1
0
LINE
5
88
100
AcDbEntity
8
1
62
256
6
ByLayer
370
13
48
1
60
0
100
AcDbLine
10
0.283084
20
2.882721
30
0
11
0.283084
21
-2.882721
31
0
39
0
210
0
220
0
230
1
0
LINE
5
89
100
AcDbEntity
8
1
62
256
6
ByLayer
370
18
48
1
60
0
100
AcDbLine
10
30
20
0
30
0
11
28.99583
21
-2.758934
31
0
39
0
210
0
220
0
230
1
0
LINE
5
8A
100
AcDbEntity
8
1
62
256
6
ByLayer
370
18
48
1
60
0
100
AcDbLine
10
30
20
0
30
0
11
29.995258
21
-0.02942
31
0
39
0
210
0
220
0
230
1
0
LINE
5
8B
100
AcDbEntity
8
1
62
256
6
ByLayer
370
13
48
1
60
0
100
AcDbLine
10
29.192457
20
0.261236
30
0
11
29.895232
21
-0.155744
31
0
39
0
210
0
220
0
230
1
0
LINE
5
8C
100
AcDbEntity
8
1
62
256
6
ByLayer
370
18
48
1
60
0
100
AcDbLine
10
0
20
-3
30
0
11
0
21
3
31
0
39
0
210
0
220
0
230
1
0
LINE
5
8D
100
AcDbEntity
8
1
62
256
6
ByLayer
370
18
48
1
60
0
100
AcDbLine
10
29.995258
20
0.02942
30
0
11
30
21
0
31
0
39
0
210
0
220
0
230
1
0
LINE
5
8E
100
AcDbEntity
8
1
62
256
6
ByLayer
370
18
48
1
60
0
100
AcDbLine
10
29.931356
20
-0.27083
30
0
11
29.861515
21
-0.596565
31
0
39
0
210
0
220
0
230
1
0
LINE
5
8F
100
AcDbEntity
8
1
62
256
6
ByLayer
370
18
48
1
60
0
100
AcDbLine
10
28.554179
20
-1.54107
30
0
11
29.895232
21
-0.155744
31
0
39
0
210
0
220
0
230
1
0
LINE
5
90
100
AcDbEntity
8
1
62
256
6
ByLayer
370
13
48
1
60
0
100
AcDbLine
10
29.861515
20
0.596565
30
0
11
29.382363
21
0.596565
31
0
39
0
210
0
220
0
230
1
0
LINE
5
91
100
AcDbEntity
8
1
62
256
6
ByLayer
370
18
48
1
60
0
100
AcDbLine
10
29.931356
20
0.27083
30
0
11
29.861515
21
0.596565
31
0
39
0
210
0
220
0
230
1
0
LINE
5
92
100
AcDbEntity
8
1
62
256
6
ByLayer
370
13
48
1
60
0
100
AcDbLine
10
29.382363
20
0.596565
30
0
11
29.931356
21
0.27083
31
0
39
0
210
0
220
0
230
1
0
LINE
5
93
100
AcDbEntity
8
1
62
256
6
ByLayer
370
13
48
1
60
0
100
AcDbLine
10
0.141482
20
2.941361
30
0
11
0.141482
21
-2.941361
31
0
39
0
210
0
220
0
230
1
0
LINE
5
94
100
AcDbEntity
8
SK1
62
256
6
ByLayer
370
13
48
1
60
0
100
AcDbLine
10
-35.4
20
-0.707131
30
0
11
-35.4
21
-0.792678
31
0
39
0
210
0
220
0
230
1
0
LINE
5
95
100
AcDbEntity
8
SK1
62
256
6
ByLayer
370
18
48
1
60
0
100
AcDbLine
10
-36
20
-1.75
30
0
11
-36
21
-0.775079
31
0
39
0
210
0
220
0
230
1
0
LINE
5
96
100
AcDbEntity
8
SK1
62
256
6
ByLayer
370
18
48
1
60
0
100
AcDbLine
10
-35.3
20
-0.695935
30
0
11
-35.3
21
0.6039
31
0
39
0
210
0
220
0
230
1
0
LINE
5
97
100
AcDbEntity
8
SK1
62
256
6
ByLayer
370
18
48
1
60
0
100
AcDbLine
10
-36
20
1.75
30
0
11
-36
21
0.724731
31
0
39
0
210
0
220
0
230
1
0
LINE
5
98
100
AcDbEntity
8
SK1
62
256
6
ByLayer
370
18
48
1
60
0
100
AcDbLine
10
-36
20
-0.724731
30
0
11
-36
21
-0.775079
31
0
39
0
210
0
220
0
230
1
0
LINE
5
99
100
AcDbEntity
8
SK1
62
256
6
ByLayer
370
18
48
1
60
0
100
AcDbLine
10
-35.278312
20
3
30
0
11
-35.278312
21
-3
31
0
39
0
210
0
220
0
230
1
0
LINE
5
9A
100
AcDbEntity
8
SK1
62
256
6
ByLayer
370
18
48
1
60
0
100
AcDbLine
10
0
20
-3
30
0
11
0
21
3
31
0
39
0
210
0
220
0
230
1
0
MTEXT
5
E4
100
AcDbEntity
8
SK6
62
256
6
ByLayer
370
13
48
1
60
0
100
AcDbMText
10
-0.870831
20
35.282694
30
0
210
0
220
0
230
1
1
\W0.7542;R840-0580-30-A1A1220
40
3.5
41
0
44
1.084337
50
0
71
8
72
5
7
iso_b_vert
0
DIMENSION
5
F1
100
AcDbEntity
8
SK2
62
256
6
ByLayer
370
13
48
1
60
0
100
AcDbDimension
2
DimnDraft3D1
10
29.02
20
-13.113398
30
0
11
13.270059
21
-13.113398
31
0
70
32
71
5
72
1
41
1
210
0
220
0
230
1
3
Standard
100
AcDbAlignedDimension
13
0
23
-1.5875
33
0
14
29.02
24
-4.4875
34
0
50
0
100
AcDbRotatedDimension
1001
ACAD
1000
DSTYLE
1002
{
1070
   279
1070
     0
1070
   172
1070
     1
1070
   173
1070
     1
1070
   340
1005
E5
1070
   271
1070
     2
1070
   272
1070
     2
1070
    77
1070
     1
1070
    73
1070
     0
1070
   171
1070
     3
1070
   274
1070
     4
1070
   177
1070
    35
1070
   176
1070
    35
1070
   178
1070
    35
1070
    48
1040
-0.005
1070
    41
1041
3.5
1070
   147
1041
1.75
1070
    42
1041
1.5875
1070
    44
1041
2.0
1070
   140
1041
3.5
1070
   343
1005
0
1070
   344
1005
0
1002
}
0
DIMENSION
5
FB
100
AcDbEntity
8
SK2
62
256
6
ByLayer
370
13
48
1
60
0
100
AcDbDimension
2
DimnDraft3D2
10
30
20
-31.692985
30
0
11
-2.6387
21
-31.692985
31
0
70
32
71
5
72
1
41
1
210
0
220
0
230
1
3
Standard
100
AcDbAlignedDimension
13
-36
23
-4.5875
33
0
14
30
24
-1.5875
34
0
50
0
100
AcDbRotatedDimension
1001
ACAD
1000
DSTYLE
1002
{
1070
   279
1070
     0
1070
   172
1070
     1
1070
   173
1070
     1
1070
   340
1005
E5
1070
   271
1070
     2
1070
   272
1070
     2
1070
    77
1070
     1
1070
    73
1070
     0
1070
   171
1070
     3
1070
   274
1070
     4
1070
   177
1070
    35
1070
   176
1070
    35
1070
   178
1070
    35
1070
    48
1040
-0.005
1070
    41
1041
3.5
1070
   147
1041
1.75
1070
    42
1041
1.5875
1070
    44
1041
2.0
1070
   140
1041
3.5
1070
   343
1005
0
1070
   344
1005
0
1002
}
0
DIMENSION
5
105
100
AcDbEntity
8
SK2
62
256
6
ByLayer
370
13
48
1
60
0
100
AcDbDimension
2
DimnDraft3D3
10
30
20
14.509119
30
0
11
20.81
21
14.509119
31
0
70
32
71
5
72
1
41
1
210
0
220
0
230
1
3
Standard
100
AcDbAlignedDimension
13
11.62
23
4.4875
33
0
14
30
24
1.5875
34
0
50
0
100
AcDbRotatedDimension
1001
ACAD
1000
DSTYLE
1002
{
1070
   279
1070
     0
1070
   172
1070
     1
1070
   173
1070
     1
1070
   340
1005
E5
1070
   271
1070
     2
1070
   272
1070
     2
1070
    77
1070
     1
1070
    73
1070
     0
1070
   171
1070
     3
1070
   274
1070
     4
1070
   177
1070
    35
1070
   176
1070
    35
1070
   178
1070
    35
1070
    48
1040
-0.005
1070
    41
1041
3.5
1070
   147
1041
1.75
1070
    42
1041
1.5875
1070
    44
1041
2.0
1070
   140
1041
3.5
1070
   343
1005
0
1070
   344
1005
0
1002
}
0
DIMENSION
5
10F
100
AcDbEntity
8
SK2
62
256
6
ByLayer
370
13
48
1
60
0
100
AcDbDimension
2
DimnDraft3D4
10
29.02
20
-15.702503
30
0
11
39.981425
21
-15.702503
31
0
70
32
71
5
72
1
41
1
210
0
220
0
230
1
3
Standard
100
AcDbAlignedDimension
13
30
23
-1.5875
33
0
14
29.02
24
-4.4875
34
0
50
0
100
AcDbRotatedDimension
1001
ACAD
1000
DSTYLE
1002
{
1070
   279
1070
     0
1070
   172
1070
     1
1070
   173
1070
     1
1070
   340
1005
E5
1070
   271
1070
     2
1070
   272
1070
     2
1070
    77
1070
     1
1070
    73
1070
     0
1070
   171
1070
     3
1070
   274
1070
     4
1070
   177
1070
    35
1070
   176
1070
    35
1070
   178
1070
    35
1070
    48
1040
-0.005
1070
    41
1041
3.5
1070
   147
1041
1.75
1070
    42
1041
1.5875
1070
    44
1041
2.0
1070
   140
1041
3.5
1070
   343
1005
0
1070
   344
1005
0
1002
}
0
DIMENSION
5
119
100
AcDbEntity
8
SK2
62
256
6
ByLayer
370
13
48
1
60
0
100
AcDbDimension
2
DimnDraft3D5
10
29.02
20
-21.343428
30
0
11
-5.719324
21
-21.343428
31
0
70
32
71
5
72
1
41
1
210
0
220
0
230
1
3
Standard
100
AcDbAlignedDimension
13
-36
23
-4.5875
33
0
14
29.02
24
-4.4875
34
0
50
0
100
AcDbRotatedDimension
1001
ACAD
1000
DSTYLE
1002
{
1070
   279
1070
     0
1070
   172
1070
     1
1070
   173
1070
     1
1070
   340
1005
E5
1070
   271
1070
     2
1070
   272
1070
     2
1070
    77
1070
     1
1070
    73
1070
     0
1070
   171
1070
     3
1070
   274
1070
     4
1070
   177
1070
    35
1070
   176
1070
    35
1070
   178
1070
    35
1070
    48
1040
-0.005
1070
    41
1041
3.5
1070
   147
1041
1.75
1070
    42
1041
1.5875
1070
    44
1041
2.0
1070
   140
1041
3.5
1070
   343
1005
0
1070
   344
1005
0
1002
}
0
DIMENSION
5
124
100
AcDbEntity
8
SK2
62
256
6
ByLayer
370
13
48
1
60
0
100
AcDbDimension
2
DimnDraft3D6
10
-46.625163
20
3
30
0
11
-47.250163
21
21.47418
31
0
70
33
71
5
72
1
41
1
210
0
220
0
230
1
3
Standard
100
AcDbAlignedDimension
13
-37.5875
23
-3
33
0
14
-37.5875
24
3
34
0
1001
ACAD
1000
DSTYLE
1002
{
1070
   279
1070
     0
1070
    74
1070
     0
1070
   173
1070
     1
1070
   340
1005
E5
1070
   271
1070
     3
1070
   272
1070
     2
1070
    77
1070
     1
1070
    73
1070
     0
1070
   171
1070
     3
1070
   274
1070
     4
1070
   177
1070
    35
1070
   176
1070
    35
1070
   178
1070
    35
1070
    48
1040
-0.005
1070
    41
1041
3.5
1070
   147
1041
1.75
1070
    42
1041
1.5875
1070
    44
1041
2.0
1070
   140
1041
3.5
1070
   343
1005
0
1070
   344
1005
0
1002
}
0
DIMENSION
5
12F
100
AcDbEntity
8
2
62
256
6
ByLayer
370
13
48
1
60
0
100
AcDbDimension
2
DimnDraft3D7
10
44.083343
20
2.9
30
0
11
39.458343
21
19.967266
31
0
70
33
71
5
72
1
41
1
210
0
220
0
230
1
3
Standard
100
AcDbAlignedDimension
13
30.6075
23
-2.9
33
0
14
30.6075
24
2.9
34
0
1001
ACAD
1000
DSTYLE
1002
{
1070
   279
1070
     0
1070
    74
1070
     0
1070
   173
1070
     1
1070
   340
1005
E5
1070
   271
1070
     3
1070
   272
1070
     2
1070
    77
1070
     1
1070
    73
1070
     0
1070
   171
1070
     3
1070
   274
1070
     4
1070
   177
1070
    35
1070
   176
1070
    35
1070
   178
1070
    35
1070
    48
1040
-0.005
1070
    41
1041
3.5
1070
   147
1041
1.75
1070
    42
1041
1.5875
1070
    44
1041
2.0
1070
   140
1041
3.5
1070
   343
1005
0
1070
   344
1005
0
1002
}
0
ENDSEC
0
SECTION
2
OBJECTS
0
DICTIONARY
5
19a
330
0
100
AcDbDictionary
280
0
281
1
3
ACAD_GROUP
350
19b
3
ACAD_MLINESTYLE
350
19c
0
DICTIONARY
5
19b
330
0
100
AcDbDictionary
280
0
281
1
0
DICTIONARY
5
19c
330
0
100
AcDbDictionary
280
0
281
1
3
Standard
350
18
0
MLINESTYLE
5
18
330
19c
100
AcDbMlineStyle
2
Standard
70
0
3

62
256
51
90
52
90
71
2
49
-0.5
62
256
6
ByLayer
49
0.5
62
256
6
ByLayer
0
RASTERVARIABLES
5
188
330

100
AcDbRasterVariables
90
0
70
1
71
1
72
1
0
ENDSEC
0
EOF
