0
SECTION
2
HEADER
9
$ACADVER
1
AC1015
9
$DWGCODEPAGE
3
ANSI_1252
9
$HANDSEED
5
1b7
9
$ANGBASE
50
0
9
$ANGDIR
70
0
9
$ATTMODE
70
1
9
$AUNITS
70
0
9
$AUPREC
70
0
9
$CECOLOR
62
256
9
$CELTSCALE
40
1
9
$CELTYPE
6
ByLayer
9
$CELWEIGHT
370
18
9
$CLAYER
8
0
9
$CMLJUST
70
0
9
$CMLSCALE
40
1
9
$CMLSTYLE
2
Standard
9
$DIMSTYLE
2
Standard
9
$TEXTSIZE
40
0.2
9
$TEXTSTYLE
7
Standard
9
$LUNITS
70
2
9
$LUPREC
70
4
9
$EXTNAMES
290
1
9
$INSUNITS
70
4
9
$LTSCALE
40
1
9
$LWDISPLAY
290
1
9
$PDMODE
70
0
9
$PDSIZE
40
0
9
$PLINEGEN
70
0
0
ENDSEC
0
SECTION
2
CLASSES
0
CLASS
1
RASTERVARIABLES
2
AcDbRasterVariables
3
ISM
90
0
280
0
281
0
0
ENDSEC
0
SECTION
2
TABLES
0
TABLE
2
VPORT
5
1ad
100
AcDbSymbolTable
0
VPORT
5
1
100
AcDbSymbolTableRecord
100
AcDbViewportTableRecord
2
*Active
70
0
10
0
20
0
11
1
21
1
12
-1
22
1
13
0
23
0
14
0.5
24
0.5
15
10
25
10
16
0
26
0
36
1
17
0
27
0
37
0
0
ENDTAB
0
TABLE
2
LTYPE
5
1ae
100
AcDbSymbolTable
0
LTYPE
5
14
100
AcDbSymbolTableRecord
100
AcDbLinetypeTableRecord
70
0
2
ByBlock
3

72
65
73
0
40
0
0
LTYPE
5
15
100
AcDbSymbolTableRecord
100
AcDbLinetypeTableRecord
70
0
2
ByLayer
3

72
65
73
0
40
0
0
LTYPE
5
16
100
AcDbSymbolTableRecord
100
AcDbLinetypeTableRecord
70
0
2
CONTINUOUS
3
Solid line
72
65
73
0
40
0
0
LTYPE
5
6A
100
AcDbSymbolTableRecord
100
AcDbLinetypeTableRecord
70
0
2
CENTER
3
____ _ ____ _ ____ _ ____
72
65
73
4
40
47.5
49
22
74
0
49
-8.5
74
0
49
8.5
74
0
49
-8.5
74
0
0
LTYPE
5
6B
100
AcDbSymbolTableRecord
100
AcDbLinetypeTableRecord
70
0
2
DASHED
3
__ __ __ __ __ __ __ __ __
72
65
73
2
40
25.72
49
12.86
74
0
49
-12.86
74
0
0
ENDTAB
0
TABLE
2
LAYER
5
1af
100
AcDbSymbolTable
0
LAYER
5
10
100
AcDbSymbolTableRecord
100
AcDbLayerTableRecord
2
0
70
0
62
7
6
CONTINUOUS
290
1
370
-3
390
0
0
LAYER
5
6D
100
AcDbSymbolTableRecord
100
AcDbLayerTableRecord
2
81
70
0
62
-3
6
CONTINUOUS
290
1
370
-3
390
0
0
LAYER
5
6F
100
AcDbSymbolTableRecord
100
AcDbLayerTableRecord
2
80
70
0
62
-6
6
CONTINUOUS
290
1
370
-3
390
0
0
LAYER
5
74
100
AcDbSymbolTableRecord
100
AcDbLayerTableRecord
2
2
70
0
62
7
6
CONTINUOUS
290
1
370
-3
390
0
0
LAYER
5
78
100
AcDbSymbolTableRecord
100
AcDbLayerTableRecord
2
1
70
0
62
4
6
CONTINUOUS
290
1
370
-3
390
0
0
LAYER
5
8A
100
AcDbSymbolTableRecord
100
AcDbLayerTableRecord
2
4
70
0
62
-2
6
CENTER
290
1
370
-3
390
0
0
LAYER
5
199
100
AcDbSymbolTableRecord
100
AcDbLayerTableRecord
2
SK2
70
0
62
7
6
CONTINUOUS
290
1
370
-3
390
0
0
LAYER
5
19a
100
AcDbSymbolTableRecord
100
AcDbLayerTableRecord
2
SK1
70
0
62
4
6
CONTINUOUS
290
1
370
-3
390
0
0
LAYER
5
19b
100
AcDbSymbolTableRecord
100
AcDbLayerTableRecord
2
SK4
70
0
62
2
6
CENTER
290
1
370
-3
390
0
0
LAYER
5
19c
100
AcDbSymbolTableRecord
100
AcDbLayerTableRecord
2
SK6
70
0
62
5
6
CONTINUOUS
290
1
370
-3
390
0
0
ENDTAB
0
TABLE
2
STYLE
5
1b0
100
AcDbSymbolTable
0
STYLE
5
11
100
AcDbSymbolTableRecord
100
AcDbTextStyleTableRecord
2
Standard
3
txt
70
0
71
0
40
0
41
1
42
0
50
0
0
STYLE
5
F5
100
AcDbSymbolTableRecord
100
AcDbTextStyleTableRecord
2
iso_b_vert
3
simplex.shx
70
0
71
0
40
0
41
1
42
0
50
0
0
STYLE
5
F6
100
AcDbSymbolTableRecord
100
AcDbTextStyleTableRecord
2
DWGDirectTextStyle
3
simplex
70
0
71
0
40
0
41
1
42
0
50
0
0
ENDTAB
0
TABLE
2
DIMSTYLE
5
1b1
100
AcDbSymbolTable
100
AcDbDimStyleTable
0
DIMSTYLE
105
27
100
AcDbSymbolTableRecord
100
AcDbDimStyleTableRecord
2
Standard
70
0
3
<>
41
0.18
42
0.0625
44
0.18
140
0.18
147
0.09
73
0
74
0
77
1
271
2
275
0
278
52
280
0
340
11
0
ENDTAB
0
TABLE
2
VIEW
5
1b2
100
AcDbSymbolTable
0
ENDTAB
0
TABLE
2
UCS
5
1b3
100
AcDbSymbolTable
0
ENDTAB
0
TABLE
2
APPID
5
1b4
100
AcDbSymbolTable
0
APPID
5
12
100
AcDbSymbolTableRecord
100
AcDbRegAppTableRecord
2
ACAD
70
0
0
ENDTAB
0
TABLE
2
BLOCK_RECORD
5
1b5
100
AcDbSymbolTable
0
BLOCK_RECORD
5
1F
100
AcDbSymbolTableRecord
100
AcDbBlockTableRecord
2
*Model_Space
340
0
70
0
0
BLOCK_RECORD
5
1B
100
AcDbSymbolTableRecord
100
AcDbBlockTableRecord
2
*Paper_Space
340
0
70
0
0
BLOCK_RECORD
5
23
100
AcDbSymbolTableRecord
100
AcDbBlockTableRecord
2
*Paper_Space0
340
0
70
0
0
BLOCK_RECORD
5
F8
100
AcDbSymbolTableRecord
100
AcDbBlockTableRecord
2
DimnDraft3D1
340
0
70
0
0
BLOCK_RECORD
5
102
100
AcDbSymbolTableRecord
100
AcDbBlockTableRecord
2
DimnDraft3D2
340
0
70
0
0
BLOCK_RECORD
5
10C
100
AcDbSymbolTableRecord
100
AcDbBlockTableRecord
2
DimnDraft3D3
340
0
70
0
0
BLOCK_RECORD
5
116
100
AcDbSymbolTableRecord
100
AcDbBlockTableRecord
2
DimnDraft3D4
340
0
70
0
0
BLOCK_RECORD
5
120
100
AcDbSymbolTableRecord
100
AcDbBlockTableRecord
2
DimnDraft3D5
340
0
70
0
0
BLOCK_RECORD
5
12A
100
AcDbSymbolTableRecord
100
AcDbBlockTableRecord
2
DimnDraft3D6
340
0
70
0
0
BLOCK_RECORD
5
135
100
AcDbSymbolTableRecord
100
AcDbBlockTableRecord
2
DimnDraft3D7
340
0
70
0
0
ENDTAB
0
ENDSEC
0
SECTION
2
BLOCKS
0
BLOCK
5
20
100
AcDbEntity
8
0
100
AcDbBlockBegin
2
*Model_Space
70
0
10
0
20
0
30
0
3
*Model_Space
0
ENDBLK
5
21
100
AcDbEntity
8
0
100
AcDbBlockEnd
0
BLOCK
5
1C
100
AcDbEntity
8
0
100
AcDbBlockBegin
2
*Paper_Space
70
0
10
0
20
0
30
0
3
*Paper_Space
0
ENDBLK
5
1D
100
AcDbEntity
8
0
100
AcDbBlockEnd
0
BLOCK
5
24
100
AcDbEntity
8
0
100
AcDbBlockBegin
2
*Paper_Space0
70
0
10
0
20
0
30
0
3
*Paper_Space0
0
ENDBLK
5
25
100
AcDbEntity
8
0
100
AcDbBlockEnd
0
BLOCK
5
FF
100
AcDbEntity
8
0
100
AcDbBlockBegin
2
DimnDraft3D1
70
0
10
0
20
0
30
0
3
DimnDraft3D1
0
MTEXT
5
F9
100
AcDbEntity
8
SK2
62
256
6
ByLayer
370
13
48
1
60
0
100
AcDbMText
10
22.157164
20
-12.188398
30
0
210
0
220
0
230
1
1
\W0.7495;56,04
40
3.5
41
0
44
1.084337
50
0
71
7
72
5
7
iso_b_vert
0
LINE
5
FA
100
AcDbEntity
8
SK2
62
256
6
ByLayer
370
13
48
1
60
0
100
AcDbLine
10
0
20
-1.5875
30
0
11
0
21
-15.063398
31
0
39
0
210
0
220
0
230
1
0
LINE
5
FB
100
AcDbEntity
8
SK2
62
256
6
ByLayer
370
13
48
1
60
0
100
AcDbLine
10
56.04
20
-4.4375
30
0
11
56.04
21
-15.063398
31
0
39
0
210
0
220
0
230
1
0
LINE
5
FC
100
AcDbEntity
8
SK2
62
256
6
ByLayer
370
13
48
1
60
0
100
AcDbLine
10
0
20
-13.063398
30
0
11
56.04
21
-13.063398
31
0
39
0
210
0
220
0
230
1
0
SOLID
5
FD
100
AcDbEntity
8
SK2
62
256
6
ByLayer
370
13
48
1
60
0
100
AcDbTrace
10
0
20
-13.063398
30
0
11
3.499998
21
-12.602615
31
0
12
3.500002
22
-13.524182
32
0
13
0
23
-13.063398
33
0
39
0
210
0
220
0
230
1
0
SOLID
5
FE
100
AcDbEntity
8
SK2
62
256
6
ByLayer
370
13
48
1
60
0
100
AcDbTrace
10
56.04
20
-13.063398
30
0
11
52.540002
21
-13.524182
31
0
12
52.539998
22
-12.602615
32
0
13
56.04
23
-13.063398
33
0
39
0
210
0
220
0
230
1
0
ENDBLK
5
100
100
AcDbEntity
8
0
100
AcDbBlockEnd
0
BLOCK
5
109
100
AcDbEntity
8
0
100
AcDbBlockBegin
2
DimnDraft3D2
70
0
10
0
20
0
30
0
3
DimnDraft3D2
0
MTEXT
5
103
100
AcDbEntity
8
SK2
62
256
6
ByLayer
370
13
48
1
60
0
100
AcDbMText
10
6.432616
20
-30.817985
30
0
210
0
220
0
230
1
1
\W0.7317;93,00
40
3.5
41
0
44
1.084337
50
0
71
7
72
5
7
iso_b_vert
0
LINE
5
104
100
AcDbEntity
8
SK2
62
256
6
ByLayer
370
13
48
1
60
0
100
AcDbLine
10
-36
20
-4.5875
30
0
11
-36
21
-33.692985
31
0
39
0
210
0
220
0
230
1
0
LINE
5
105
100
AcDbEntity
8
SK2
62
256
6
ByLayer
370
13
48
1
60
0
100
AcDbLine
10
57
20
-1.5875
30
0
11
57
21
-33.692985
31
0
39
0
210
0
220
0
230
1
0
LINE
5
106
100
AcDbEntity
8
SK2
62
256
6
ByLayer
370
13
48
1
60
0
100
AcDbLine
10
-36
20
-31.692985
30
0
11
57
21
-31.692985
31
0
39
0
210
0
220
0
230
1
0
SOLID
5
107
100
AcDbEntity
8
SK2
62
256
6
ByLayer
370
13
48
1
60
0
100
AcDbTrace
10
-36
20
-31.692985
30
0
11
-32.500002
21
-31.232202
31
0
12
-32.499998
22
-32.153769
32
0
13
-36
23
-31.692985
33
0
39
0
210
0
220
0
230
1
0
SOLID
5
108
100
AcDbEntity
8
SK2
62
256
6
ByLayer
370
13
48
1
60
0
100
AcDbTrace
10
57
20
-31.692985
30
0
11
53.500002
21
-32.153769
31
0
12
53.499998
22
-31.232202
32
0
13
57
23
-31.692985
33
0
39
0
210
0
220
0
230
1
0
ENDBLK
5
10A
100
AcDbEntity
8
0
100
AcDbBlockEnd
0
BLOCK
5
113
100
AcDbEntity
8
0
100
AcDbBlockBegin
2
DimnDraft3D3
70
0
10
0
20
0
30
0
3
DimnDraft3D3
0
MTEXT
5
10D
100
AcDbEntity
8
SK2
62
256
6
ByLayer
370
13
48
1
60
0
100
AcDbMText
10
29.087105
20
15.334119
30
0
210
0
220
0
230
1
1
\W0.7581;46,56
40
3.5
41
0
44
1.084337
50
0
71
7
72
5
7
iso_b_vert
0
LINE
5
10E
100
AcDbEntity
8
SK2
62
256
6
ByLayer
370
13
48
1
60
0
100
AcDbLine
10
10.44
20
4.4375
30
0
11
10.44
21
16.459119
31
0
39
0
210
0
220
0
230
1
0
LINE
5
10F
100
AcDbEntity
8
SK2
62
256
6
ByLayer
370
13
48
1
60
0
100
AcDbLine
10
57
20
1.5875
30
0
11
57
21
16.459119
31
0
39
0
210
0
220
0
230
1
0
LINE
5
110
100
AcDbEntity
8
SK2
62
256
6
ByLayer
370
13
48
1
60
0
100
AcDbLine
10
10.44
20
14.459119
30
0
11
57
21
14.459119
31
0
39
0
210
0
220
0
230
1
0
SOLID
5
111
100
AcDbEntity
8
SK2
62
256
6
ByLayer
370
13
48
1
60
0
100
AcDbTrace
10
10.44
20
14.459119
30
0
11
13.939998
21
14.919903
31
0
12
13.940002
22
13.998335
32
0
13
10.44
23
14.459119
33
0
39
0
210
0
220
0
230
1
0
SOLID
5
112
100
AcDbEntity
8
SK2
62
256
6
ByLayer
370
13
48
1
60
0
100
AcDbTrace
10
57
20
14.459119
30
0
11
53.500002
21
13.998335
31
0
12
53.499998
22
14.919903
32
0
13
57
23
14.459119
33
0
39
0
210
0
220
0
230
1
0
ENDBLK
5
114
100
AcDbEntity
8
0
100
AcDbBlockEnd
0
BLOCK
5
11D
100
AcDbEntity
8
0
100
AcDbBlockBegin
2
DimnDraft3D4
70
0
10
0
20
0
30
0
3
DimnDraft3D4
0
MTEXT
5
117
100
AcDbEntity
8
SK2
62
256
6
ByLayer
370
13
48
1
60
0
100
AcDbMText
10
63.840636
20
-14.777503
30
0
210
0
220
0
230
1
1
\W0.7150;0,96
40
3.5
41
0
44
1.084337
50
0
71
7
72
5
7
iso_b_vert
0
LINE
5
118
100
AcDbEntity
8
SK2
62
256
6
ByLayer
370
13
48
1
60
0
100
AcDbLine
10
57
20
-1.5875
30
0
11
57
21
-17.652503
31
0
39
0
210
0
220
0
230
1
0
LINE
5
119
100
AcDbEntity
8
SK2
62
256
6
ByLayer
370
13
48
1
60
0
100
AcDbLine
10
56.04
20
-4.4375
30
0
11
56.04
21
-17.652503
31
0
39
0
210
0
220
0
230
1
0
LINE
5
11A
100
AcDbEntity
8
SK2
62
256
6
ByLayer
370
13
48
1
60
0
100
AcDbLine
10
47.29
20
-15.652503
30
0
11
70.997215
21
-15.652503
31
0
39
0
210
0
220
0
230
1
0
SOLID
5
11B
100
AcDbEntity
8
SK2
62
256
6
ByLayer
370
13
48
1
60
0
100
AcDbTrace
10
57
20
-15.652503
30
0
11
60.499998
21
-15.191719
31
0
12
60.500002
22
-16.113287
32
0
13
57
23
-15.652503
33
0
39
0
210
0
220
0
230
1
0
SOLID
5
11C
100
AcDbEntity
8
SK2
62
256
6
ByLayer
370
13
48
1
60
0
100
AcDbTrace
10
56.04
20
-15.652503
30
0
11
52.540002
21
-16.113287
31
0
12
52.539998
22
-15.191719
32
0
13
56.04
23
-15.652503
33
0
39
0
210
0
220
0
230
1
0
ENDBLK
5
11E
100
AcDbEntity
8
0
100
AcDbBlockEnd
0
BLOCK
5
127
100
AcDbEntity
8
0
100
AcDbBlockBegin
2
DimnDraft3D5
70
0
10
0
20
0
30
0
3
DimnDraft3D5
0
MTEXT
5
121
100
AcDbEntity
8
SK2
62
256
6
ByLayer
370
13
48
1
60
0
100
AcDbMText
10
3.167782
20
-20.468428
30
0
210
0
220
0
230
1
1
\W0.7495;92,04
40
3.5
41
0
44
1.084337
50
0
71
7
72
5
7
iso_b_vert
0
LINE
5
122
100
AcDbEntity
8
SK2
62
256
6
ByLayer
370
13
48
1
60
0
100
AcDbLine
10
-36
20
-4.5875
30
0
11
-36
21
-23.343428
31
0
39
0
210
0
220
0
230
1
0
LINE
5
123
100
AcDbEntity
8
SK2
62
256
6
ByLayer
370
13
48
1
60
0
100
AcDbLine
10
56.04
20
-4.4375
30
0
11
56.04
21
-23.343428
31
0
39
0
210
0
220
0
230
1
0
LINE
5
124
100
AcDbEntity
8
SK2
62
256
6
ByLayer
370
13
48
1
60
0
100
AcDbLine
10
-36
20
-21.343428
30
0
11
56.04
21
-21.343428
31
0
39
0
210
0
220
0
230
1
0
SOLID
5
125
100
AcDbEntity
8
SK2
62
256
6
ByLayer
370
13
48
1
60
0
100
AcDbTrace
10
-36
20
-21.343428
30
0
11
-32.500002
21
-20.882645
31
0
12
-32.499998
22
-21.804212
32
0
13
-36
23
-21.343428
33
0
39
0
210
0
220
0
230
1
0
SOLID
5
126
100
AcDbEntity
8
SK2
62
256
6
ByLayer
370
13
48
1
60
0
100
AcDbTrace
10
56.04
20
-21.343428
30
0
11
52.540002
21
-21.804212
31
0
12
52.539998
22
-20.882645
32
0
13
56.04
23
-21.343428
33
0
39
0
210
0
220
0
230
1
0
ENDBLK
5
128
100
AcDbEntity
8
0
100
AcDbBlockEnd
0
BLOCK
5
132
100
AcDbEntity
8
0
100
AcDbBlockBegin
2
DimnDraft3D6
70
0
10
0
20
0
30
0
3
DimnDraft3D6
0
MTEXT
5
12B
100
AcDbEntity
8
SK2
62
256
6
ByLayer
370
13
48
1
60
0
100
AcDbMText
10
-46.375163
20
22.34918
30
0
210
0
220
0
230
1
1
\W0.7317;6,000
40
3.5
41
0
44
1.084337
50
90
71
7
72
5
7
iso_b_vert
0
MTEXT
5
12C
100
AcDbEntity
8
SK2
62
256
6
ByLayer
370
13
48
1
60
0
100
AcDbMText
10
-46.375163
20
17.126524
30
0
210
0
220
0
230
1
1
%%c
40
3.5
41
0
44
1.084337
50
90
71
7
72
5
7
iso_b_vert
0
LINE
5
12D
100
AcDbEntity
8
SK2
62
256
6
ByLayer
370
13
48
1
60
0
100
AcDbLine
10
-37.5875
20
-3
30
0
11
-46.625163
21
-3
31
0
39
0
210
0
220
0
230
1
0
LINE
5
12E
100
AcDbEntity
8
SK2
62
256
6
ByLayer
370
13
48
1
60
0
100
AcDbLine
10
-37.5875
20
3
30
0
11
-46.625163
21
3
31
0
39
0
210
0
220
0
230
1
0
LINE
5
12F
100
AcDbEntity
8
SK2
62
256
6
ByLayer
370
13
48
1
60
0
100
AcDbLine
10
-44.625163
20
32.121549
30
0
11
-44.625163
21
-11.75
31
0
39
0
210
0
220
0
230
1
0
SOLID
5
130
100
AcDbEntity
8
SK2
62
256
6
ByLayer
370
13
48
1
60
0
100
AcDbTrace
10
-44.625163
20
-3
30
0
11
-44.164379
21
-6.499998
31
0
12
-45.085946
22
-6.500002
32
0
13
-44.625163
23
-3
33
0
39
0
210
0
220
0
230
1
0
SOLID
5
131
100
AcDbEntity
8
SK2
62
256
6
ByLayer
370
13
48
1
60
0
100
AcDbTrace
10
-44.625163
20
3
30
0
11
-45.085946
21
6.499998
31
0
12
-44.164379
22
6.500002
32
0
13
-44.625163
23
3
33
0
39
0
210
0
220
0
230
1
0
ENDBLK
5
133
100
AcDbEntity
8
0
100
AcDbBlockEnd
0
BLOCK
5
13D
100
AcDbEntity
8
0
100
AcDbBlockBegin
2
DimnDraft3D7
70
0
10
0
20
0
30
0
3
DimnDraft3D7
0
MTEXT
5
136
100
AcDbEntity
8
2
62
256
6
ByLayer
370
13
48
1
60
0
100
AcDbMText
10
67.333343
20
20.792266
30
0
210
0
220
0
230
1
1
\W0.7317;5,700
40
3.5
41
0
44
1.084337
50
90
71
7
72
5
7
iso_b_vert
0
MTEXT
5
137
100
AcDbEntity
8
2
62
256
6
ByLayer
370
13
48
1
60
0
100
AcDbMText
10
67.333343
20
15.56961
30
0
210
0
220
0
230
1
1
%%c
40
3.5
41
0
44
1.084337
50
90
71
7
72
5
7
iso_b_vert
0
LINE
5
138
100
AcDbEntity
8
2
62
256
6
ByLayer
370
13
48
1
60
0
100
AcDbLine
10
57.6275
20
-2.85
30
0
11
71.083343
21
-2.85
31
0
39
0
210
0
220
0
230
1
0
LINE
5
139
100
AcDbEntity
8
2
62
256
6
ByLayer
370
13
48
1
60
0
100
AcDbLine
10
57.6275
20
2.85
30
0
11
71.083343
21
2.85
31
0
39
0
210
0
220
0
230
1
0
LINE
5
13A
100
AcDbEntity
8
2
62
256
6
ByLayer
370
13
48
1
60
0
100
AcDbLine
10
69.083343
20
30.564635
30
0
11
69.083343
21
-11.6
31
0
39
0
210
0
220
0
230
1
0
SOLID
5
13B
100
AcDbEntity
8
2
62
256
6
ByLayer
370
13
48
1
60
0
100
AcDbTrace
10
69.083343
20
-2.85
30
0
11
69.544126
21
-6.349998
31
0
12
68.622559
22
-6.350002
32
0
13
69.083343
23
-2.85
33
0
39
0
210
0
220
0
230
1
0
SOLID
5
13C
100
AcDbEntity
8
2
62
256
6
ByLayer
370
13
48
1
60
0
100
AcDbTrace
10
69.083343
20
2.85
30
0
11
68.622559
21
6.349998
31
0
12
69.544126
22
6.350002
32
0
13
69.083343
23
2.85
33
0
39
0
210
0
220
0
230
1
0
ENDBLK
5
13E
100
AcDbEntity
8
0
100
AcDbBlockEnd
0
ENDSEC
0
SECTION
2
ENTITIES
0
ARC
5
A0
100
AcDbEntity
8
1
62
256
6
ByLayer
370
18
48
1
60
0
100
AcDbCircle
39
0
10
0
20
2.8
30
0
40
0.2
210
0
220
0
230
1
100
AcDbArc
50
32.776223
51
90
0
ARC
5
A1
100
AcDbEntity
8
1
62
256
6
ByLayer
370
18
48
1
60
0
100
AcDbCircle
39
0
10
0
20
-2.8
30
0
40
0.2
210
0
220
0
230
1
100
AcDbArc
50
270
51
327.223777
0
ARC
5
A2
100
AcDbEntity
8
1
62
256
6
ByLayer
370
18
48
1
60
0
100
AcDbCircle
39
0
10
-0.336317
20
-3.016544
30
0
40
0.2
210
0
220
0
230
-1
100
AcDbArc
50
32.776223
51
90.034377
0
ARC
5
A3
100
AcDbEntity
8
1
62
256
6
ByLayer
370
18
48
1
60
0
100
AcDbCircle
39
0
10
-0.336317
20
3.016544
30
0
40
0.2
210
0
220
0
230
-1
100
AcDbArc
50
269.965623
51
327.223777
0
ELLIPSE
5
A4
100
AcDbEntity
8
1
62
256
6
ByLayer
370
13
48
1
60
0
100
AcDbEllipse
10
56.799343
20
1.438506
30
0
11
1.78623896412348
21
-0.841840152639559
31
0
210
0
220
0
230
-1
40
0.476391
41
1.5761772299249
42
1.85929847877294
0
ELLIPSE
5
A5
100
AcDbEntity
8
1
62
256
6
ByLayer
370
18
48
1
60
0
100
AcDbEllipse
10
56.427817
20
1.438506
30
0
11
0.443899214575362
21
-1.19557031393786
31
0
210
0
220
0
230
-1
40
0.131755
41
-1.48284613259178
42
-0.736518128023316
0
ELLIPSE
5
A6
100
AcDbEntity
8
1
62
256
6
ByLayer
370
18
48
1
60
0
100
AcDbEllipse
10
56.427817
20
-1.438506
30
0
11
0.44389921453675
21
1.19557031385787
31
0
210
0
220
0
230
-1
40
0.131755
41
0.736518128025264
42
1.48284613263884
0
ELLIPSE
5
A7
100
AcDbEntity
8
1
62
256
6
ByLayer
370
13
48
1
60
0
100
AcDbEllipse
10
9.250198
20
-2.651843
30
0
11
0.0175503343963812
21
0.0984478834844874
31
0
210
0
220
0
230
1
40
0.479926
41
0.353040733968984
42
1.89739063382362
0
ELLIPSE
5
A8
100
AcDbEntity
8
1
62
256
6
ByLayer
370
13
48
1
60
0
100
AcDbEllipse
10
56.609436
20
1.315308
30
0
11
1.71833829183718
21
-1.18312477723501
31
0
210
0
220
0
230
-1
40
0.533762
41
1.44484622742677
42
1.71094154164825
0
ELLIPSE
5
A9
100
AcDbEntity
8
1
62
256
6
ByLayer
370
13
48
1
60
0
100
AcDbEllipse
10
56.388692
20
0.379967
30
0
11
0.153082081612423
21
0.258003636193771
31
0
210
0
220
0
230
1
40
0.454519
41
0.917105603404826
42
2.31336900500027
0
ELLIPSE
5
AA
100
AcDbEntity
8
1
62
256
6
ByLayer
370
18
48
1
60
0
100
AcDbEllipse
10
57.056346
20
-0.016174
30
0
11
0.135544944454746
21
-0.427068210128512
31
0
210
0
220
0
230
-1
40
0.100282
41
1.70832806992058
42
2.33653286893487
0
ELLIPSE
5
AB
100
AcDbEntity
8
1
62
256
6
ByLayer
370
18
48
1
60
0
100
AcDbEllipse
10
56.860725
20
0.099894
30
0
11
0.0727819104927692
21
0.30191719571511
31
0
210
0
220
0
230
-1
40
0.478434
41
1.69170259730978
42
2.45976119973151
0
ELLIPSE
5
AC
100
AcDbEntity
8
1
62
256
6
ByLayer
370
13
48
1
60
0
100
AcDbEllipse
10
9.173986
20
-2.657827
30
0
11
0.035180990616257
21
-0.0936071466249177
31
0
210
0
220
0
230
1
40
0.562812
41
-2.80318412248054
42
-1.51595942752869
0
ELLIPSE
5
AD
100
AcDbEntity
8
1
62
256
6
ByLayer
370
18
48
1
60
0
100
AcDbEllipse
10
57.056346
20
0.016174
30
0
11
0.135544944411687
21
0.427068210018589
31
0
210
0
220
0
230
-1
40
0.100282
41
-2.33653286893283
42
-1.70832806977147
0
ELLIPSE
5
AE
100
AcDbEntity
8
1
62
256
6
ByLayer
370
18
48
1
60
0
100
AcDbEllipse
10
57.000265
20
0.000623
30
0
11
1.05710391660123
21
2.84713739222521
31
0
210
0
220
0
230
-1
40
0.131755
41
2.84839480977121
42
2.96479595560712
0
ELLIPSE
5
AF
100
AcDbEntity
8
1
62
256
6
ByLayer
370
18
48
1
60
0
100
AcDbEllipse
10
57.000265
20
-0.000622
30
0
11
1.05710391235399
21
-2.84713737959478
31
0
210
0
220
0
230
-1
40
0.131755
41
-2.96479595520861
42
-2.84839480911062
0
POINT
5
6C
100
AcDbEntity
8
81
62
256
6
ByLayer
370
18
48
1
60
0
100
AcDbPoint
10
57
20
0
30
0
39
0
210
0
220
0
230
1
50
360
0
POINT
5
6E
100
AcDbEntity
8
80
62
256
6
ByLayer
370
18
48
1
60
0
100
AcDbPoint
10
0
20
0
30
0
39
0
210
0
220
0
230
1
50
360
0
POINT
5
70
100
AcDbEntity
8
SK2
62
256
6
ByLayer
370
18
48
1
60
1
100
AcDbPoint
10
-36
20
-3
30
0
39
0
210
0
220
0
230
1
50
360
0
POINT
5
72
100
AcDbEntity
8
SK2
62
256
6
ByLayer
370
18
48
1
60
1
100
AcDbPoint
10
-36
20
3
30
0
39
0
210
0
220
0
230
1
50
360
0
POINT
5
73
100
AcDbEntity
8
2
62
256
6
ByLayer
370
18
48
1
60
1
100
AcDbPoint
10
56.04
20
-2.85
30
0
39
0
210
0
220
0
230
1
50
360
0
POINT
5
75
100
AcDbEntity
8
2
62
256
6
ByLayer
370
18
48
1
60
1
100
AcDbPoint
10
56.04
20
2.85
30
0
39
0
210
0
220
0
230
1
50
360
0
SPLINE
5
B0
100
AcDbEntity
8
1
62
256
6
ByLayer
370
18
48
1
60
0
100
AcDbSpline
70
4
71
3
72
21
73
17
40
0
40
0
40
0
40
0
40
0.0956054641441168
40
0.166651373922427
40
0.214796279407879
40
0.257785998872536
40
0.303148717503164
40
0.38889686580629
40
0.468730792419723
40
0.529858886293129
40
0.601512985600958
40
0.683307121566391
40
0.742558842000585
40
0.809763809430286
40
0.905508368424946
40
1
40
1
40
1
40
1
41
1
10
10.663613833848
20
-2.6838019902689
30
0
41
1
10
10.9013976217588
20
-2.68395753543189
30
0
41
1
10
11.3160609544658
20
-2.68423550036951
30
0
41
1
10
11.8514307864413
20
-2.68474509161646
30
0
41
1
10
12.2552285333408
20
-2.68496590407926
30
0
41
1
10
12.5951608972328
20
-2.68494898718342
30
0
41
1
10
13.0289261241895
20
-2.68487476557516
30
0
41
1
10
13.5544511310846
20
-2.68638124593093
30
0
41
1
10
14.1192679983248
20
-2.68519660701995
30
0
41
1
10
14.6489641348386
20
-2.68641697327479
30
0
41
1
10
15.1835484503653
20
-2.6873180708078
30
0
41
1
10
15.7134524848623
20
-2.68561035138455
30
0
41
1
10
16.2322719356201
20
-2.68754172201645
30
0
41
1
10
16.7858401201571
20
-2.68835919519327
30
0
41
1
10
17.4272116775661
20
-2.68795899338556
30
0
41
1
10
17.9011282764355
20
-2.68870664180398
30
0
41
1
10
18.1365225665984
20
-2.68915323390607
30
0
0
SPLINE
5
B1
100
AcDbEntity
8
1
62
256
6
ByLayer
370
18
48
1
60
0
100
AcDbSpline
70
4
71
3
72
10
73
6
40
0
40
0
40
0
40
0
40
0.0403969325432173
40
0.447632820768883
40
1
40
1
40
1
40
1
41
1
10
48.6441832446512
20
-0.709497652657063
30
0
41
1
10
48.6441634307565
20
-0.709576194229072
30
0
41
1
10
48.6458632242096
20
-0.711383558923444
30
0
41
1
10
48.7051343124123
20
-0.742570971686462
30
0
41
1
10
48.7814269899814
20
-0.78572475892588
30
0
41
1
10
48.8411246526724
20
-0.819155174791121
30
0
0
SPLINE
5
B2
100
AcDbEntity
8
1
62
256
6
ByLayer
370
18
48
1
60
0
100
AcDbSpline
70
4
71
1
72
4
73
2
40
0
40
0
40
1
40
1
41
1
10
47.9306998123662
20
0.0016981095173207
30
0
41
1
10
47.9306900858534
20
0.0017042886146612
30
0
0
SPLINE
5
B3
100
AcDbEntity
8
1
62
256
6
ByLayer
370
18
48
1
60
0
100
AcDbSpline
70
4
71
3
72
21
73
17
40
0
40
0
40
0
40
0
40
0.0961890269960131
40
0.16861961710018
40
0.217396471754686
40
0.254438392705436
40
0.293233613639201
40
0.390064494929318
40
0.4771812033582
40
0.533790782730437
40
0.602881250511456
40
0.683900149928352
40
0.742953861658291
40
0.810345507782527
40
0.905983350240609
40
1
40
1
40
1
40
1
41
1
10
40.6105556978429
20
-2.70188523892671
30
0
41
1
10
40.849181993165
20
-2.70210057752658
30
0
41
1
10
41.2676827004748
20
-2.70234399486324
30
0
41
1
10
41.8081116764911
20
-2.70209670480014
30
0
41
1
10
42.2011894038943
20
-2.70207255061064
30
0
41
1
10
42.5103341965667
20
-2.70279351903773
30
0
41
1
10
42.9394129920008
20
-2.70403163389571
30
0
41
1
10
43.4929255970348
20
-2.70228540686011
30
0
41
1
10
44.0907072095431
20
-2.70461079692603
30
0
41
1
10
44.6195567630002
20
-2.70436429289916
30
0
41
1
10
45.1332490948845
20
-2.70214199323485
30
0
41
1
10
45.6530109630313
20
-2.70598681303761
30
0
41
1
10
46.1685596178928
20
-2.7049912259406
30
0
41
1
10
46.7204102320507
20
-2.70384965161196
30
0
41
1
10
47.3591634696077
20
-2.70441101575633
30
0
41
1
10
47.8304239658187
20
-2.70528552691121
30
0
41
1
10
48.0640374223034
20
-2.70592736517321
30
0
0
SPLINE
5
B4
100
AcDbEntity
8
1
62
256
6
ByLayer
370
18
48
1
60
0
100
AcDbSpline
70
4
71
3
72
21
73
17
40
0
40
0
40
0
40
0
40
0.0652179968337593
40
0.14095218438071
40
0.191130267828576
40
0.234297373282384
40
0.278313823508517
40
0.323699098719311
40
0.407833012209067
40
0.507947515082596
40
0.61000169230707
40
0.727897122920314
40
0.826880883199365
40
0.922161871851386
40
0.996955564183216
40
1
40
1
40
1
40
1
41
1
10
33.1014377012162
20
2.69751235297301
30
0
41
1
10
32.9682697345657
20
2.69781813105379
30
0
41
1
10
32.6804593796896
20
2.69823719583812
30
0
41
1
10
32.2901823073347
20
2.6967418377921
30
0
41
1
10
31.9449336826268
20
2.69685186413105
30
0
41
1
10
31.6644511732753
20
2.69553267160285
30
0
41
1
10
31.3937531164657
20
2.69557020853517
30
0
41
1
10
31.0394069468428
20
2.69684345474738
30
0
41
1
10
30.5705084791994
20
2.69803342103395
30
0
41
1
10
29.9859046023822
20
2.69311869057472
30
0
41
1
10
29.3323565071479
20
2.69684192715093
30
0
41
1
10
28.6811131802314
20
2.69493682781447
30
0
41
1
10
28.0437014822785
20
2.69348478608515
30
0
41
1
10
27.4943030353208
20
2.69409249583029
30
0
41
1
10
27.1408012460935
20
2.69404969506161
30
0
41
1
10
26.9818620661777
20
2.69388135943231
30
0
41
1
10
26.9756455781419
20
2.69387456092298
30
0
0
SPLINE
5
B5
100
AcDbEntity
8
1
62
256
6
ByLayer
370
18
48
1
60
0
100
AcDbSpline
70
4
71
3
72
22
73
18
40
0
40
0
40
0
40
0
40
0.0901354131360018
40
0.158935390849222
40
0.212115964306124
40
0.264824307676275
40
0.317932848215895
40
0.371815345650797
40
0.431087327264321
40
0.498665631522104
40
0.606619322654361
40
0.706403580288862
40
0.784492985488957
40
0.827239276681775
40
0.870842077576323
40
0.938034292398076
40
1
40
1
40
1
40
1
41
1
10
25.6845630470257
20
-2.69274260347001
30
0
41
1
10
25.9062795583935
20
-2.6927640117303
30
0
41
1
10
26.2972399669222
20
-2.69294560401525
30
0
41
1
10
26.8190408887512
20
-2.69353168603624
30
0
41
1
10
27.2487805653115
20
-2.69422069039834
30
0
41
1
10
27.6399175930374
20
-2.69386304147756
30
0
41
1
10
28.0327836195199
20
-2.69356291741801
30
0
41
1
10
28.4417942691394
20
-2.69480814792885
30
0
41
1
10
28.8864028232667
20
-2.69509791865033
30
0
41
1
10
29.4640275999955
20
-2.69659008620329
30
0
41
1
10
30.141310169541
20
-2.69294769444548
30
0
41
1
10
30.8444487960238
20
-2.69877229313465
30
0
41
1
10
31.3871768273372
20
-2.69498392987626
30
0
41
1
10
31.7917003452056
20
-2.69617966822034
30
0
41
1
10
32.1694157356039
20
-2.69696586297295
30
0
41
1
10
32.5944109301542
20
-2.69794958326284
30
0
41
1
10
32.9121391939272
20
-2.69774141521526
30
0
41
1
10
33.0645742101731
20
-2.69749761005082
30
0
0
SPLINE
5
B6
100
AcDbEntity
8
1
62
256
6
ByLayer
370
18
48
1
60
0
100
AcDbSpline
70
4
71
3
72
8
73
4
40
0
40
0
40
0
40
0
40
1
40
1
40
1
40
1
41
1
10
33.0774379961728
20
-2.69747669561923
30
0
41
1
10
33.0853566527482
20
-2.69746361284862
30
0
41
1
10
33.0932753079448
20
-2.69745014722608
30
0
41
1
10
33.1011939617896
20
-2.69743630902207
30
0
0
SPLINE
5
B7
100
AcDbEntity
8
1
62
256
6
ByLayer
370
18
48
1
60
0
100
AcDbSpline
70
4
71
3
72
10
73
6
40
0
40
0
40
0
40
0
40
0.177636433944944
40
0.551333647705884
40
1
40
1
40
1
40
1
41
1
10
33.6715258570014
20
-0.706098967245964
30
0
41
1
10
33.671416589696
20
-0.70620641107493
30
0
41
1
10
33.6838353495121
20
-0.712279605686518
30
0
41
1
10
33.7386803377208
20
-0.73976845462505
30
0
41
1
10
33.8025166800484
20
-0.77717661907414
30
0
41
1
10
33.8448656269752
20
-0.802494485513535
30
0
0
SPLINE
5
B8
100
AcDbEntity
8
1
62
256
6
ByLayer
370
18
48
1
60
0
100
AcDbSpline
70
4
71
3
72
21
73
17
40
0
40
0
40
0
40
0
40
0.0770050067815292
40
0.166249405921817
40
0.229952026864524
40
0.319424705756896
40
0.41064798681815
40
0.495690735840167
40
0.582037752687983
40
0.643085302422553
40
0.708056189078975
40
0.777295043163188
40
0.846937294774453
40
0.911098784831761
40
0.984340207806425
40
1
40
1
40
1
40
1
41
1
10
18.1296818020322
20
2.68892051770027
30
0
41
1
10
17.9717707330361
20
2.68829113750951
30
0
41
1
10
17.6308060729682
20
2.68726046730916
30
0
41
1
10
17.1589622915278
20
2.68907095336911
30
0
41
1
10
16.661589041957
20
2.68785353643452
30
0
41
1
10
16.1604108367311
20
2.6874022054964
30
0
41
1
10
15.6151203437413
20
2.68569201847524
30
0
41
1
10
15.0763325492427
20
2.68746265495602
30
0
41
1
10
14.5994356136279
20
2.68612167688605
30
0
41
1
10
14.1637248416992
20
2.68533557898783
30
0
41
1
10
13.7631203436239
20
2.68620020237927
30
0
41
1
10
13.3448742970291
20
2.68550286972609
30
0
41
1
10
12.9282912043824
20
2.68489442895557
30
0
41
1
10
12.503483947792
20
2.68494733766701
30
0
41
1
10
12.1894799334691
20
2.68496904914562
30
0
41
1
10
12.0070760680265
20
2.6848864538982
30
0
41
1
10
11.9749455236622
20
2.68486948044017
30
0
0
SPLINE
5
B9
100
AcDbEntity
8
1
62
256
6
ByLayer
370
18
48
1
60
0
100
AcDbSpline
70
4
71
3
72
21
73
17
40
0
40
0
40
0
40
0
40
0.0746056497006251
40
0.162945139291965
40
0.225906065659287
40
0.31364645575934
40
0.402787015147409
40
0.486145711280376
40
0.573777391528117
40
0.63794609334353
40
0.705404145561574
40
0.775787887383803
40
0.846186475264663
40
0.911354654187717
40
0.984604258865818
40
1
40
1
40
1
40
1
41
1
10
48.0500580443014
20
2.70595421057249
30
0
41
1
10
47.8978984655626
20
2.70574936280053
30
0
41
1
10
47.5654579134597
20
2.7053296428825
30
0
41
1
10
47.1041337580557
20
2.70331593832268
30
0
41
1
10
46.6158285685731
20
2.70401430482343
30
0
41
1
10
46.1273005368092
20
2.70509558763706
30
0
41
1
10
45.5955016018976
20
2.706010745919
30
0
41
1
10
45.0643737919064
20
2.70212848950641
30
0
41
1
10
44.5841328859737
20
2.7044663201728
30
0
41
1
10
44.1363720631914
20
2.70461411807662
30
0
41
1
10
43.7238363948704
20
2.70256965313885
30
0
41
1
10
43.2985742942318
20
2.70336560513402
30
0
41
1
10
42.8779923291651
20
2.7037845383698
30
0
41
1
10
42.4515464220262
20
2.70255084367807
30
0
41
1
10
42.1374719280344
20
2.70225560157203
30
0
41
1
10
41.9564480166068
20
2.70225418617247
30
0
41
1
10
41.9250078156887
20
2.70225767025238
30
0
0
SPLINE
5
BA
100
AcDbEntity
8
1
62
256
6
ByLayer
370
18
48
1
60
0
100
AcDbSpline
70
4
71
2
72
6
73
3
40
0
40
0
40
0
40
1
40
1
40
1
41
1
10
55.5614371627938
20
-2.71082855281196
30
0
41
1
10
55.7871451288755
20
-2.70848492796031
30
0
41
1
10
56.0128648555022
20
-2.71149125809381
30
0
0
SPLINE
5
BB
100
AcDbEntity
8
1
62
256
6
ByLayer
370
18
48
1
60
0
100
AcDbSpline
70
4
71
3
72
11
73
7
40
0
40
0
40
0
40
0
40
0.0810985424965473
40
0.310657510149789
40
0.618141170375441
40
1
40
1
40
1
40
1
41
1
10
18.6997665790332
20
-0.701508154095279
30
0
41
1
10
18.6997763478162
20
-0.701491103866999
30
0
41
1
10
18.7013379098496
20
-0.702245907027105
30
0
41
1
10
18.7173628787137
20
-0.711172932939689
30
0
41
1
10
18.7989020751827
20
-0.756612025084252
30
0
41
1
10
18.8699023833023
20
-0.796834116552049
30
0
41
1
10
18.9165795547819
20
-0.823348758258305
30
0
0
SPLINE
5
BC
100
AcDbEntity
8
1
62
256
6
ByLayer
370
18
48
1
60
0
100
AcDbSpline
70
4
71
3
72
68
73
64
40
0
40
0
40
0
40
0
40
0.0354981052102707
40
0.0354981052102707
40
0.0715367650909675
40
0.0715367650909675
40
0.107575424971664
40
0.107575424971664
40
0.143614084852361
40
0.143614084852361
40
0.179652744733058
40
0.179652744733058
40
0.215691404613754
40
0.215691404613754
40
0.251730064494451
40
0.251730064494451
40
0.287768724375148
40
0.287768724375148
40
0.323807384255845
40
0.323807384255845
40
0.359846044136541
40
0.359846044136541
40
0.395884704017238
40
0.395884704017238
40
0.413904033957586
40
0.413904033957586
40
0.431923363897934
40
0.431923363897934
40
0.46796202377863
40
0.46796202377863
40
0.485981353718979
40
0.485981353718979
40
0.504000683659328
40
0.504000683659328
40
0.540039343540027
40
0.540039343540027
40
0.576078003420726
40
0.576078003420726
40
0.612116663301426
40
0.612116663301426
40
0.648155323182125
40
0.648155323182125
40
0.666174653122474
40
0.666174653122474
40
0.684193983062824
40
0.684193983062824
40
0.720232642943523
40
0.720232642943523
40
0.756271302824223
40
0.756271302824223
40
0.792309962704922
40
0.792309962704922
40
0.828348622585622
40
0.828348622585622
40
0.864387282466321
40
0.864387282466321
40
0.90042594234702
40
0.90042594234702
40
0.936464602227719
40
0.936464602227719
40
0.972503262108419
40
0.972503262108419
40
1
40
1
40
1
40
1
41
1
10
18.1355698352903
20
2.68841686071522
30
0
41
1
10
18.351883407526
20
2.6894016827793
30
0
41
1
10
18.5680445742451
20
2.68183664639687
30
0
41
1
10
19.0037206319461
20
2.64798177267096
30
0
41
1
10
19.2231674029741
20
2.62211360252331
30
0
41
1
10
19.6625251315582
20
2.55516713729335
30
0
41
1
10
19.8825216272682
20
2.51409099957917
30
0
41
1
10
20.3215648656256
20
2.41555362610941
30
0
41
1
10
20.5407509919893
20
2.3593066273003
30
0
41
1
10
20.9793143325671
20
2.22871433325571
30
0
41
1
10
21.1996965697063
20
2.15573690189686
30
0
41
1
10
21.6393626461749
20
1.99815895833714
30
0
41
1
10
21.8587489354202
20
1.91382014856904
30
0
41
1
10
22.2971228993184
20
1.73136523340841
30
0
41
1
10
22.5169201314639
20
1.63486166589132
30
0
41
1
10
22.9572503343751
20
1.43090185328333
30
0
41
1
10
23.1766974896893
20
1.3235093868941
30
0
41
1
10
23.6150344222067
20
1.10120099443631
30
0
41
1
10
23.8345034845078
20
0.987241711925691
30
0
41
1
10
24.2741861952503
20
0.753467671117761
30
0
41
1
10
24.494368081696
20
0.632787722073658
30
0
41
1
10
24.9328407793409
20
0.388183128190406
30
0
41
1
10
25.152214687611
20
0.265119349247954
30
0
41
1
10
25.4815999981584
20
0.0798054118257596
30
0
41
1
10
25.5914243332367
20
0.0178540489762327
30
0
41
1
10
25.8112276612983
20
-0.106387189072592
30
0
41
1
10
25.9212542396416
20
-0.168717086953563
30
0
41
1
10
26.2505471702611
20
-0.354997838288625
30
0
41
1
10
26.469992119289
20
-0.477440149515189
30
0
41
1
10
26.799265092625
20
-0.65871103385436
30
0
41
1
10
26.9089965858931
20
-0.718870346257944
30
0
41
1
10
27.1285068916309
20
-0.83783245536921
30
0
41
1
10
27.2382729121292
20
-0.896767289588411
30
0
41
1
10
27.5678590111794
20
-1.07168680371208
30
0
41
1
10
27.787411505473
20
-1.18411614143884
30
0
41
1
10
28.2246100619802
20
-1.40053973120916
30
0
41
1
10
28.4424352283837
20
-1.50505550806156
30
0
41
1
10
28.8767733450519
20
-1.7036401785694
30
0
41
1
10
29.093951621029
20
-1.79798542876452
30
0
41
1
10
29.5289227463338
20
-1.97304361076814
30
0
41
1
10
29.7466552126161
20
-2.05424067900458
30
0
41
1
10
30.0737881538194
20
-2.16786771239205
30
0
41
1
10
30.1829968725376
20
-2.20427431921769
30
0
41
1
10
30.4020087508914
20
-2.27424343739438
30
0
41
1
10
30.5117760578469
20
-2.30776607999221
30
0
41
1
10
30.8420668895424
20
-2.40145721326709
30
0
41
1
10
31.0614739132058
20
-2.4548715364715
30
0
41
1
10
31.4995403213456
20
-2.54673762294095
30
0
41
1
10
31.718728472948
20
-2.58556615451411
30
0
41
1
10
32.158019591807
20
-2.64672390800945
30
0
41
1
10
32.3783360990242
20
-2.66874809181454
30
0
41
1
10
32.8168008141562
20
-2.6961390013395
30
0
41
1
10
33.0358653221751
20
-2.70054748471844
30
0
41
1
10
33.4746286987799
20
-2.69166935175917
30
0
41
1
10
33.6942718666492
20
-2.67889545914235
30
0
41
1
10
34.133549313394
20
-2.638092837306
30
0
41
1
10
34.352767036033
20
-2.60879689748501
30
0
41
1
10
34.7913423965674
20
-2.53447582811151
30
0
41
1
10
35.0105111492456
20
-2.48872866723087
30
0
41
1
10
35.4491072348736
20
-2.38040401165168
30
0
41
1
10
35.6690942824834
20
-2.31824829301777
30
0
41
1
10
36.0560968405686
20
-2.198535403519
30
0
41
1
10
36.2233907873199
20
-2.14280377181692
30
0
41
1
10
36.3905906598708
20
-2.08266357759425
30
0
0
SPLINE
5
BD
100
AcDbEntity
8
1
62
256
6
ByLayer
370
18
48
1
60
0
100
AcDbSpline
70
4
71
3
72
24
73
20
40
0
40
0
40
0
40
0
40
0.0610431387939112
40
0.0610431387939112
40
0.178412746444673
40
0.178412746444673
40
0.295782354095433
40
0.295782354095433
40
0.413151961746195
40
0.413151961746195
40
0.530521569396956
40
0.530521569396956
40
0.647891177047717
40
0.647891177047717
40
0.765260784698479
40
0.765260784698479
40
0.882630392349239
40
0.882630392349239
40
1
40
1
40
1
40
1
41
1
10
48.036700115605
20
2.70627419571301
30
0
41
1
10
48.1511564922467
20
2.70678835855816
30
0
41
1
10
48.2655991069398
20
2.70485804382432
30
0
41
1
10
48.5993390876878
20
2.69232028414922
30
0
41
1
10
48.8184881092077
20
2.67563531407762
30
0
41
1
10
49.2576063806214
20
2.62605083939317
30
0
41
1
10
49.4773159691148
20
2.59241714245184
30
0
41
1
10
49.9173426134613
20
2.50802768215814
30
0
41
1
10
50.1367428142727
20
2.4579910318831
30
0
41
1
10
50.5759492098326
20
2.34427345986597
30
0
41
1
10
50.7954540604354
20
2.27944846379736
30
0
41
1
10
51.2346331145611
20
2.13428888628729
30
0
41
1
10
51.4547925582312
20
2.05420644211827
30
0
41
1
10
51.8943822525184
20
1.88277575797972
30
0
41
1
10
52.1139329491719
20
1.79110791619038
30
0
41
1
10
52.5526934213487
20
1.59636547721573
30
0
41
1
10
52.7724715325478
20
1.49334915010132
30
0
41
1
10
53.2127588661989
20
1.2789039155345
30
0
41
1
10
53.4324266805263
20
1.16749450537864
30
0
41
1
10
53.6517260839701
20
1.05248757851271
30
0
0
SPLINE
5
BE
100
AcDbEntity
8
1
62
256
6
ByLayer
370
13
48
1
60
0
100
AcDbSpline
70
4
71
3
72
10
73
6
40
0
40
0
40
0
40
0
40
0.5
40
0.5
40
1
40
1
40
1
40
1
41
1
10
9.02616301660052
20
-2.65526337214393
30
0
41
1
10
9.0364261871562
20
-2.63976268198087
30
0
41
1
10
9.04985180595409
20
-2.6248117220143
30
0
41
1
10
9.08256050388388
20
-2.59782278672395
30
0
41
1
10
9.10145848027054
20
-2.58597429841228
30
0
41
1
10
9.12331046134972
20
-2.57610263918249
30
0
0
SPLINE
5
BF
100
AcDbEntity
8
1
62
256
6
ByLayer
370
18
48
1
60
0
100
AcDbSpline
70
4
71
3
72
8
73
4
40
0
40
0
40
0
40
0
40
1
40
1
40
1
40
1
41
1
10
9.1226531522282
20
-2.70117774798362
30
0
41
1
10
9.10685108655048
20
-2.69846289283322
30
0
41
1
10
9.09236002928358
20
-2.69525780669875
30
0
41
1
10
9.07912981608396
20
-2.69152966473311
30
0
0
SPLINE
5
C0
100
AcDbEntity
8
1
62
256
6
ByLayer
370
18
48
1
60
0
100
AcDbSpline
70
4
71
3
72
20
73
16
40
0
40
0
40
0
40
0
40
0.25
40
0.25
40
0.5
40
0.5
40
0.625
40
0.625
40
0.75
40
0.75
40
0.875
40
0.875
40
0.9375
40
0.9375
40
1
40
1
40
1
40
1
41
1
10
55.9066576780935
20
0.862242806646236
30
0
41
1
10
55.9855787240253
20
0.880599692393645
30
0
41
1
10
56.0640027852628
20
0.901550120003094
30
0
41
1
10
56.2171603046589
20
0.951902755351966
30
0
41
1
10
56.2921229506962
20
0.981063514712162
30
0
41
1
10
56.3992667471307
20
1.0378000468917
30
0
41
1
10
56.4336188983046
20
1.05870534879304
30
0
41
1
10
56.4980803447254
20
1.10683993077856
30
0
41
1
10
56.5281313706657
20
1.13411067508233
30
0
41
1
10
56.5785333807182
20
1.19638225130575
30
0
41
1
10
56.5990971591305
20
1.2321773793951
30
0
41
1
10
56.6174563242039
20
1.2901040890381
30
0
41
1
10
56.6216029957702
20
1.31041417911331
30
0
41
1
10
56.6256132421947
20
1.35089355522524
30
0
41
1
10
56.6255752957468
20
1.37126206306752
30
0
41
1
10
56.6237215357201
20
1.39175042587976
30
0
0
SPLINE
5
C1
100
AcDbEntity
8
1
62
256
6
ByLayer
370
13
48
1
60
0
100
AcDbSpline
70
4
71
3
72
10
73
6
40
0
40
0
40
0
40
0
40
0.5
40
0.5
40
1
40
1
40
1
40
1
41
1
10
9.25032970197739
20
-2.55655437241094
30
0
41
1
10
9.22811378740948
20
-2.55425178241819
30
0
41
1
10
9.20633787821262
20
-2.55475510820182
30
0
41
1
10
9.16369248433014
20
-2.56123675144042
30
0
41
1
10
9.142750885959
20
-2.56732040354311
30
0
41
1
10
9.12331046134972
20
-2.57610263918249
30
0
0
SPLINE
5
C2
100
AcDbEntity
8
1
62
256
6
ByLayer
370
18
48
1
60
0
100
AcDbSpline
70
4
71
3
72
30
73
26
40
0
40
0
40
0
40
0
40
0.0625
40
0.0625
40
0.125
40
0.125
40
0.25
40
0.25
40
0.3125
40
0.3125
40
0.375
40
0.375
40
0.5
40
0.5
40
0.625
40
0.625
40
0.6875
40
0.6875
40
0.75
40
0.75
40
0.875
40
0.875
40
0.9375
40
0.9375
40
1
40
1
40
1
40
1
41
1
10
9.02616301660052
20
-2.65526337214391
30
0
41
1
10
9.02616826951646
20
-2.62341506644989
30
0
41
1
10
9.02617190288382
20
-2.58721045488707
30
0
41
1
10
9.02617655253829
20
-2.50606116241479
30
0
41
1
10
9.02617755473958
20
-2.46112847330113
30
0
41
1
10
9.02617762893667
20
-2.31563844705491
30
0
41
1
10
9.02617383836068
20
-2.20383470187437
30
0
41
1
10
9.02616643463904
20
-2.01388940482124
30
0
41
1
10
9.02616365857276
20
-1.94642806379568
30
0
41
1
10
9.02615824656434
20
-1.80609273655375
30
0
41
1
10
9.02615561450364
20
-1.73329359806988
30
0
41
1
10
9.02614877829501
20
-1.50720409371161
30
0
41
1
10
9.02614565730852
20
-1.346298356332
30
0
41
1
10
9.02614593220812
20
-1.00335598830392
30
0
41
1
10
9.02614936443081
20
-0.826274724419363
30
0
41
1
10
9.02616039214868
20
-0.554384777150858
30
0
41
1
10
9.02616503759054
20
-0.462601827001578
30
0
41
1
10
9.02617630708059
20
-0.276679511817548
30
0
41
1
10
9.0261829674443
20
-0.182193277605705
30
0
41
1
10
9.0262053099915
20
0.0987429288976216
30
0
41
1
10
9.02622347382089
20
0.284475830614213
30
0
41
1
10
9.02625361864915
20
0.560760663880217
30
0
41
1
10
9.02626418226106
20
0.652813396904492
30
0
41
1
10
9.02628559860881
20
0.834537800397214
30
0
41
1
10
9.02629635637783
20
0.923453556800581
30
0
41
1
10
9.02630687457184
20
1.01048306873065
30
0
0
SPLINE
5
C3
100
AcDbEntity
8
1
62
256
6
ByLayer
370
18
48
1
60
0
100
AcDbSpline
70
4
71
3
72
18
73
14
40
0
40
0
40
0
40
0
40
0.25
40
0.25
40
0.5
40
0.5
40
0.625
40
0.625
40
0.75
40
0.75
40
0.875
40
0.875
40
1
40
1
40
1
40
1
41
1
10
56.6237215357199
20
-1.39175042587976
30
0
41
1
10
56.5807189552195
20
-1.50773757683746
30
0
41
1
10
56.5375007693124
20
-1.62351207623288
30
0
41
1
10
56.4503134631518
20
-1.85432042865369
30
0
41
1
10
56.4065987572923
20
-1.96968860048185
30
0
41
1
10
56.3408605781966
20
-2.14226943544105
30
0
41
1
10
56.3189124626906
20
-2.1996855881452
30
0
41
1
10
56.2748639841499
20
-2.31404125436862
30
0
41
1
10
56.2527362308979
20
-2.37089501772243
30
0
41
1
10
56.2083321035013
20
-2.4841372591035
30
0
41
1
10
56.186124736749
20
-2.54074177759819
30
0
41
1
10
56.1415767275036
20
-2.65353357011062
30
0
41
1
10
56.1192421695756
20
-2.70973989299057
30
0
41
1
10
56.0966902655844
20
-2.76526577362469
30
0
0
SPLINE
5
C4
100
AcDbEntity
8
1
62
256
6
ByLayer
370
18
48
1
60
0
100
AcDbSpline
70
4
71
3
72
24
73
20
40
0
40
0
40
0
40
0
40
0.108477869798641
40
0.108477869798641
40
0.20321984763886
40
0.20321984763886
40
0.297961825479078
40
0.297961825479078
40
0.487445781159513
40
0.487445781159513
40
0.58218775899973
40
0.58218775899973
40
0.676929736839946
40
0.676929736839946
40
0.866413692520379
40
0.866413692520379
40
0.961155670360595
40
0.961155670360595
40
1
40
1
40
1
40
1
41
1
10
14.2219994292517
20
1.98560558134687
30
0
41
1
10
14.5000830121818
20
1.87170890037038
30
0
41
1
10
14.7776554795793
20
1.74782920236012
30
0
41
1
10
15.2988535036084
20
1.49990840023889
30
0
41
1
10
15.5422663454194
20
1.37777266553459
30
0
41
1
10
16.0313269008293
20
1.12222448641171
30
0
41
1
10
16.2779762312842
20
0.98826994492677
30
0
41
1
10
17.0126996419314
20
0.579251891044322
30
0
41
1
10
17.4974298436633
20
0.29584337942822
30
0
41
1
10
18.2256264539837
20
-0.130162673845746
30
0
41
1
10
18.4685684097591
20
-0.272269138249612
30
0
41
1
10
18.9561826572704
20
-0.554411699810515
30
0
41
1
10
19.2012156323729
20
-0.694526226399972
30
0
41
1
10
19.9391093062256
20
-1.10692479106103
30
0
41
1
10
20.4280695545505
20
-1.36688880112197
30
0
41
1
10
21.1659699186632
20
-1.72058323485021
30
0
41
1
10
21.4109716325957
20
-1.83161142454819
30
0
41
1
10
21.7546506861314
20
-1.97671869686562
30
0
41
1
10
21.8544246742892
20
-2.01758177282605
30
0
41
1
10
21.9540911166559
20
-2.05705649421318
30
0
0
SPLINE
5
C5
100
AcDbEntity
8
1
62
256
6
ByLayer
370
13
48
1
60
0
100
AcDbSpline
70
4
71
3
72
16
73
12
40
0
40
0
40
0
40
0
40
0.0906713857612609
40
0.0906713857612609
40
0.398032668279566
40
0.398032668279566
40
0.551713309538719
40
0.551713309538719
40
0.705393950797871
40
0.705393950797871
40
1
40
1
40
1
40
1
41
1
10
21.9540911166482
20
-2.05705649421006
30
0
41
1
10
22.0975128151215
20
-2.113861286813
30
0
41
1
10
22.240711811025
20
-2.16779111677604
30
0
41
1
10
22.8690573412125
20
-2.39116773450442
30
0
41
1
10
23.3537292599935
20
-2.5287901263838
30
0
41
1
10
24.087770305446
20
-2.67466371609589
30
0
41
1
10
24.3344029583514
20
-2.71307119226805
30
0
41
1
10
24.8235235354011
20
-2.76753756939147
30
0
41
1
10
25.0668601477086
20
-2.78388300281045
30
0
41
1
10
25.7751540517174
20
-2.79964822582269
30
0
41
1
10
26.2389583413815
20
-2.7699875607434
30
0
41
1
10
26.7060531260258
20
-2.70088233126054
30
0
0
SPLINE
5
C6
100
AcDbEntity
8
1
62
256
6
ByLayer
370
13
48
1
60
0
100
AcDbSpline
70
4
71
3
72
14
73
10
40
0
40
0
40
0
40
0
40
0.172828201955692
40
0.172828201955692
40
0.388856605737089
40
0.388856605737089
40
0.604885009518485
40
0.604885009518485
40
1
40
1
40
1
40
1
41
1
10
40.8362596326556
20
2.79154176218717
30
0
41
1
10
41.0301863169886
20
2.7824635642784
30
0
41
1
10
41.2240575885656
20
2.76643849821861
30
0
41
1
10
41.6609341699813
20
2.71484783979005
30
0
41
1
10
41.9040432411763
20
2.67544071265917
30
0
41
1
10
42.392591378412
20
2.57545697350091
30
0
41
1
10
42.6389726444376
20
2.51454428705074
30
0
41
1
10
43.3306483098941
20
2.31611546120448
30
0
41
1
10
43.7734576790607
20
2.15654024970198
30
0
41
1
10
44.2167437114095
20
1.97148695961567
30
0
0
SPLINE
5
C7
100
AcDbEntity
8
1
62
256
6
ByLayer
370
18
48
1
60
0
100
AcDbSpline
70
4
71
3
72
28
73
24
40
0
40
0
40
0
40
0
40
0.0159088429240035
40
0.0159088429240035
40
0.108940594625675
40
0.108940594625675
40
0.201972346327345
40
0.201972346327345
40
0.388035849730687
40
0.388035849730687
40
0.574099353134028
40
0.574099353134028
40
0.620615228984862
40
0.620615228984862
40
0.667131104835697
40
0.667131104835697
40
0.76016285653737
40
0.76016285653737
40
0.853194608239043
40
0.853194608239043
40
0.946226359940715
40
0.946226359940715
40
1
40
1
40
1
40
1
41
1
10
44.2167437118159
20
1.97148695944605
30
0
41
1
10
44.2581893462836
20
1.9541851487439
30
0
41
1
10
44.2996391475364
20
1.93666061960832
30
0
41
1
10
44.5835348141113
20
1.8151635090293
30
0
41
1
10
44.8260956399629
20
1.70374102554158
30
0
41
1
10
45.3128941458737
20
1.46734302261146
30
0
41
1
10
45.5578374565357
20
1.3424389517397
30
0
41
1
10
46.2945169375454
20
0.952263059261639
30
0
41
1
10
46.7792852790506
20
0.675609887906631
30
0
41
1
10
47.748349349681
20
0.110285519013217
30
0
41
1
10
48.2328853267225
20
-0.17801421760106
30
0
41
1
10
48.8452498190818
20
-0.53394810467401
30
0
41
1
10
48.9682380107865
20
-0.604936418800975
30
0
41
1
10
49.2136172021948
20
-0.745184429259353
30
0
41
1
10
49.3361511306846
20
-0.814549079039296
30
0
41
1
10
49.7035376767607
20
-1.01997499838669
30
0
41
1
10
49.948165794759
20
-1.15337997958463
30
0
41
1
10
50.4383897039945
20
-1.41062813858139
30
0
41
1
10
50.6843789455186
20
-1.53444996578838
30
0
41
1
10
51.1724574782028
20
-1.76712652778357
30
0
41
1
10
51.4153508372828
20
-1.87640241033606
30
0
41
1
10
51.7979515157067
20
-2.03646710975752
30
0
41
1
10
51.9379387914081
20
-2.09248222215283
30
0
41
1
10
52.0779095117418
20
-2.14572562703745
30
0
0
SPLINE
5
C8
100
AcDbEntity
8
1
62
256
6
ByLayer
370
13
48
1
60
0
100
AcDbSpline
70
4
71
3
72
16
73
12
40
0
40
0
40
0
40
0
40
0.262262963637719
40
0.262262963637719
40
0.354480093183004
40
0.354480093183004
40
0.446697222728288
40
0.446697222728288
40
0.631131481818858
40
0.631131481818858
40
1
40
1
40
1
40
1
41
1
10
52.077909512477
20
-2.14572562731715
30
0
41
1
10
52.4222549469969
20
-2.27671104586236
30
0
41
1
10
52.7665001848929
20
-2.39092149788826
30
0
41
1
10
53.2344659138002
20
-2.51946982090172
30
0
41
1
10
53.3564561938491
20
-2.55054700257182
30
0
41
1
10
53.6011306115985
20
-2.60775424963194
30
0
41
1
10
53.7240570512121
20
-2.63392360644789
30
0
41
1
10
54.0917940042917
20
-2.70427340618537
30
0
41
1
10
54.3357742160265
20
-2.74043333429014
30
0
41
1
10
55.0665448839312
20
-2.81621880955126
30
0
41
1
10
55.5520689730651
20
-2.82317494173796
30
0
41
1
10
56.041186442887
20
-2.78548580266363
30
0
0
SPLINE
5
C9
100
AcDbEntity
8
1
62
256
6
ByLayer
370
18
48
1
60
0
100
AcDbSpline
70
4
71
3
72
12
73
8
40
0
40
0
40
0
40
0
40
0.25
40
0.25
40
0.5
40
0.5
40
1
40
1
40
1
40
1
41
1
10
56.0411864428705
20
-2.78548580266491
30
0
41
1
10
56.0462116874772
20
-2.77218921088883
30
0
41
1
10
56.0508610864179
20
-2.75851511283923
30
0
41
1
10
56.0579184980288
20
-2.73412424157925
30
0
41
1
10
56.0602764891221
20
-2.72349869597625
30
0
41
1
10
56.0632189075338
20
-2.70074246008673
30
0
41
1
10
56.060258292114
20
-2.69670487324044
30
0
41
1
10
56.0551500218923
20
-2.69929746654358
30
0
0
SPLINE
5
CA
100
AcDbEntity
8
1
62
256
6
ByLayer
370
13
48
1
60
0
100
AcDbSpline
70
4
71
3
72
31
73
27
40
0
40
0
40
0
40
0
40
0.125
40
0.125
40
0.1875
40
0.1875
40
0.25
40
0.3125
40
0.3125
40
0.375
40
0.375
40
0.4375
40
0.4375
40
0.5
40
0.5
40
0.625
40
0.625
40
0.6875
40
0.6875
40
0.75
40
0.75
40
0.875
40
0.875
40
0.9375
40
0.9375
40
1
40
1
40
1
40
1
41
1
10
9.25032970197739
20
-2.55655437241094
30
0
41
1
10
9.25034731952695
20
-2.50204765990296
30
0
41
1
10
9.25035330813091
20
-2.43116484368483
30
0
41
1
10
9.25035218192042
20
-2.30061073367457
30
0
41
1
10
9.25035009161388
20
-2.2528501283287
30
0
41
1
10
9.25034383818615
20
-2.15097155066149
30
0
41
1
10
9.25033552315838
20
-2.04239346036437
30
0
41
1
10
9.25032552854191
20
-1.92066976092568
30
0
41
1
10
9.25031580397837
20
-1.79230354083316
30
0
41
1
10
9.25031106373584
20
-1.72457358488416
30
0
41
1
10
9.25030296941497
20
-1.58325067255581
30
0
41
1
10
9.2502996368373
20
-1.51005748316939
30
0
41
1
10
9.25029526127238
20
-1.3586332980457
30
0
41
1
10
9.25029422820913
20
-1.28014029576812
30
0
41
1
10
9.25029559810361
20
-1.04083500367366
30
0
41
1
10
9.25030247708543
20
-0.875288830635611
30
0
41
1
10
9.25032355334409
20
-0.618057872387794
30
0
41
1
10
9.2503323749217
20
-0.530650705415894
30
0
41
1
10
9.25035357881461
20
-0.353463735537417
30
0
41
1
10
9.25036592794288
20
-0.264032163957125
30
0
41
1
10
9.25040713358442
20
0.0028346143210456
30
0
41
1
10
9.2504403157742
20
0.179892646128053
30
0
41
1
10
9.25049487642929
20
0.444210821651154
30
0
41
1
10
9.25051392545652
20
0.532465017936715
30
0
41
1
10
9.25055234119742
20
0.706858730392213
30
0
41
1
10
9.25057155555734
20
0.792352023467686
30
0
41
1
10
9.25059025473621
20
0.876193379411575
30
0
0
SPLINE
5
CB
100
AcDbEntity
8
1
62
256
6
ByLayer
370
13
48
1
60
0
100
AcDbSpline
70
4
71
3
72
8
73
4
40
0
40
0
40
0
40
0
40
1
40
1
40
1
40
1
41
1
10
9.12265315222857
20
-2.70117774797276
30
0
41
1
10
9.12287166695498
20
-2.69502812722843
30
0
41
1
10
9.12309076962021
20
-2.68887835593537
30
0
41
1
10
9.1233104613496
20
-2.682728432396
30
0
0
SPLINE
5
CC
100
AcDbEntity
8
1
62
256
6
ByLayer
370
18
48
1
60
0
100
AcDbSpline
70
4
71
3
72
8
73
4
40
0
40
0
40
0
40
0
40
1
40
1
40
1
40
1
41
1
10
9.07912981608308
20
-2.69152966473274
30
0
41
1
10
9.04757639990535
20
-2.68263822713925
30
0
41
1
10
9.02616059479251
20
-2.6699467445558
30
0
41
1
10
9.02616301660052
20
-2.6552633721451
30
0
0
SPLINE
5
CD
100
AcDbEntity
8
1
62
256
6
ByLayer
370
18
48
1
60
0
100
AcDbSpline
70
4
71
3
72
8
73
4
40
0
40
0
40
0
40
0
40
1
40
1
40
1
40
1
41
1
10
56.025614925972
20
-2.82663008888633
30
0
41
1
10
56.0308101941037
20
-2.81292183418355
30
0
41
1
10
56.0360007543803
20
-2.79920692244039
30
0
41
1
10
56.0411864428874
20
-2.78548580266337
30
0
0
SPLINE
5
CE
100
AcDbEntity
8
1
62
256
6
ByLayer
370
18
48
1
60
0
100
AcDbSpline
70
4
71
3
72
78
73
74
40
0
40
0
40
0
40
0
40
0.0067252845827726
40
0.0067252845827726
40
0.0241487121882059
40
0.0241487121882059
40
0.0589955673990717
40
0.0589955673990717
40
0.0764189950045041
40
0.0764189950045041
40
0.0938424226099365
40
0.0938424226099365
40
0.128689277820801
40
0.128689277820801
40
0.163536133031665
40
0.163536133031665
40
0.198382988242529
40
0.198382988242529
40
0.233229843453394
40
0.233229843453394
40
0.268076698664259
40
0.268076698664259
40
0.302923553875124
40
0.302923553875124
40
0.337770409085989
40
0.337770409085989
40
0.372617264296854
40
0.372617264296854
40
0.407464119507718
40
0.407464119507718
40
0.442310974718583
40
0.442310974718583
40
0.477157829929449
40
0.477157829929449
40
0.494581257534881
40
0.494581257534881
40
0.512004685140313
40
0.512004685140313
40
0.546851540351178
40
0.546851540351178
40
0.56427496795661
40
0.56427496795661
40
0.581698395562043
40
0.581698395562043
40
0.616545250772906
40
0.616545250772906
40
0.633968678378338
40
0.633968678378338
40
0.651392105983769
40
0.651392105983769
40
0.686238961194634
40
0.686238961194634
40
0.703662388800066
40
0.703662388800066
40
0.721085816405497
40
0.721085816405497
40
0.755932671616362
40
0.755932671616362
40
0.790779526827227
40
0.790779526827227
40
0.825626382038092
40
0.825626382038092
40
0.860473237248957
40
0.860473237248957
40
0.895320092459821
40
0.895320092459821
40
0.930166947670686
40
0.930166947670686
40
0.965013802881551
40
0.965013802881551
40
0.999860658092416
40
0.999860658092416
40
1
40
1
40
1
40
1
41
1
10
21.4063910640478
20
2.06439014511889
30
0
41
1
10
21.4479454941195
20
2.08143821792913
30
0
41
1
10
21.4895073342453
20
2.09823919768473
30
0
41
1
10
21.6388968156192
20
2.15753297349201
30
0
41
1
10
21.7469376193876
20
2.19843320294658
30
0
41
1
10
22.071474975245
20
2.31596219519722
30
0
41
1
10
22.2889113800307
20
2.38752266113718
30
0
41
1
10
22.6118937683212
20
2.48378144649053
30
0
41
1
10
22.7190253977944
20
2.51413531647461
30
0
41
1
10
22.9332671978843
20
2.57053674887112
30
0
41
1
10
23.0404475806614
20
2.59655560990458
30
0
41
1
10
23.3618151254091
20
2.66852729465361
30
0
41
1
10
23.5758668189155
20
2.7084084460796
30
0
41
1
10
24.0027931742912
20
2.77228637766328
30
0
41
1
10
24.2155247054237
20
2.79614652607051
30
0
41
1
10
24.6440591236274
20
2.82632739376319
30
0
41
1
10
24.8591788329237
20
2.83298920042569
30
0
41
1
10
25.2903764969172
20
2.82901002136839
30
0
41
1
10
25.5064060910161
20
2.81805777911049
30
0
41
1
10
25.9387528438008
20
2.77923344492078
30
0
41
1
10
26.1550133506701
20
2.75143137009013
30
0
41
1
10
26.5868752608865
20
2.67869048462714
30
0
41
1
10
26.8023436521553
20
2.63322968585621
30
0
41
1
10
27.2352949398364
20
2.52752743347728
30
0
41
1
10
27.4516895925653
20
2.46722728398297
30
0
41
1
10
27.8834754977741
20
2.33114423767009
30
0
41
1
10
28.0983185507958
20
2.25467550982174
30
0
41
1
10
28.5310256721269
20
2.08986762540852
30
0
41
1
10
28.7480804569219
20
2.00126562736429
30
0
41
1
10
29.1801172921731
20
1.81180352091494
30
0
41
1
10
29.3948668131954
20
1.70990539294144
30
0
41
1
10
29.8267991195636
20
1.49829598159866
30
0
41
1
10
30.0442319214252
20
1.3878904707193
30
0
41
1
10
30.3679838790291
20
1.21643671854656
30
0
41
1
10
30.4755429764794
20
1.15829697789758
30
0
41
1
10
30.6898397316696
20
1.03986189571611
30
0
41
1
10
30.7966831391638
20
0.979733434771561
30
0
41
1
10
31.1176990170516
20
0.798922536427398
30
0
41
1
10
31.3317919685265
20
0.676915507081361
30
0
41
1
10
31.65235445564
20
0.490588843490542
30
0
41
1
10
31.7591224603559
20
0.427941505506709
30
0
41
1
10
31.9723595975519
20
0.301337112700907
30
0
41
1
10
32.0788164173902
20
0.237354468968277
30
0
41
1
10
32.399440796815
20
0.0463449135535541
30
0
41
1
10
32.6143643230842
20
-0.0805714928989403
30
0
41
1
10
32.9377353554685
20
-0.271672044120919
30
0
41
1
10
33.045703802214
20
-0.335471658974683
30
0
41
1
10
33.2618960525882
20
-0.463479709770894
30
0
41
1
10
33.369642848272
20
-0.527601928641104
30
0
41
1
10
33.6932777742863
20
-0.716979859534717
30
0
41
1
10
33.9094836169933
20
-0.839830861040781
30
0
41
1
10
34.2335731088493
20
-1.02055194158271
30
0
41
1
10
34.3415819170149
20
-1.08017006256671
30
0
41
1
10
34.5574454691743
20
-1.19830835058795
30
0
41
1
10
34.6652844556354
20
-1.25704690911655
30
0
41
1
10
34.9892572586731
20
-1.42918512355763
30
0
41
1
10
35.2048901926012
20
-1.53786611905869
30
0
41
1
10
35.6343005332697
20
-1.7454901832053
30
0
41
1
10
35.8477746146611
20
-1.84477826991082
30
0
41
1
10
36.2739140987255
20
-2.03187572665709
30
0
41
1
10
36.4877253147102
20
-2.11833225284406
30
0
41
1
10
36.9156275602199
20
-2.27882263067852
30
0
41
1
10
37.1295329437019
20
-2.35300600154841
30
0
41
1
10
37.5580257475813
20
-2.48785419199783
30
0
41
1
10
37.7744590522586
20
-2.54743656704147
30
0
41
1
10
38.2075522462488
20
-2.65089845811846
30
0
41
1
10
38.4233411612124
20
-2.69473573290844
30
0
41
1
10
38.8535659688382
20
-2.76606688007283
30
0
41
1
10
39.069481066047
20
-2.79289964792744
30
0
41
1
10
39.5024504052588
20
-2.82953152527031
30
0
41
1
10
39.7188881725634
20
-2.83927762515128
30
0
41
1
10
39.934018474175
20
-2.84024598003313
30
0
41
1
10
39.9348752849035
20
-2.84024969678896
30
0
41
1
10
39.9357320922766
20
-2.84025327359598
30
0
0
SPLINE
5
CF
100
AcDbEntity
8
1
62
256
6
ByLayer
370
18
48
1
60
0
100
AcDbSpline
70
4
71
3
72
24
73
20
40
0
40
0
40
0
40
0
40
0.0446297334138538
40
0.0446297334138538
40
0.181111200069017
40
0.181111200069017
40
0.31759266672418
40
0.31759266672418
40
0.454074133379342
40
0.454074133379342
40
0.590555600034505
40
0.590555600034505
40
0.727037066689668
40
0.727037066689668
40
0.863518533344831
40
0.863518533344831
40
0.931759266672416
40
0.931759266672416
40
1
40
1
40
1
40
1
41
1
10
51.3563716943463
20
2.08156277069242
30
0
41
1
10
51.4269786274913
20
2.11022823734794
30
0
41
1
10
51.497583695268
20
2.13824839299909
30
0
41
1
10
51.7840386877202
20
2.24940083425182
30
0
41
1
10
51.9995659241817
20
2.32771344736187
30
0
41
1
10
52.4313409060558
20
2.46695296857541
30
0
41
1
10
52.6473460482989
20
2.52874350095183
30
0
41
1
10
53.0787456304868
20
2.63738922709746
30
0
41
1
10
53.2938352928874
20
2.68449072331686
30
0
41
1
10
53.7261728967567
20
2.76065386482631
30
0
41
1
10
53.9423124101101
20
2.79006209228496
30
0
41
1
10
54.373660046321
20
2.83206693860941
30
0
41
1
10
54.5882467375598
20
2.84461489120599
30
0
41
1
10
55.020174243107
20
2.85179119874533
30
0
41
1
10
55.2369385744637
20
2.84660663699361
30
0
41
1
10
55.5601443245989
20
2.82590694744522
30
0
41
1
10
55.6676777737773
20
2.81684432936373
30
0
41
1
10
55.8822133607664
20
2.79427877684844
30
0
41
1
10
55.9892884109776
20
2.78077581052057
30
0
41
1
10
56.0966902655702
20
2.76526577362597
30
0
0
SPLINE
5
D0
100
AcDbEntity
8
1
62
256
6
ByLayer
370
18
48
1
60
0
100
AcDbSpline
70
4
71
3
72
16
73
12
40
0
40
0
40
0
40
0
40
0.342375357388357
40
0.342375357388357
40
0.591193766842987
40
0.591193766842987
40
0.715602971570297
40
0.715602971570297
40
0.840012176297607
40
0.840012176297607
40
1
40
1
40
1
40
1
41
1
10
55.5985483092713
20
-2.7108365949031
30
0
41
1
10
55.2634244090447
20
-2.71012476803642
30
0
41
1
10
54.9291641591277
20
-2.68920550672698
30
0
41
1
10
54.3507016721035
20
-2.61894464991417
30
0
41
1
10
54.1068512906147
20
-2.57893174016758
30
0
41
1
10
53.7393553952123
20
-2.50361293669553
30
0
41
1
10
53.6166641210592
20
-2.47595289081787
30
0
41
1
10
53.3723740345595
20
-2.41604250113298
30
0
41
1
10
53.2505511873706
20
-2.38375091299855
30
0
41
1
10
52.9725889731383
20
-2.30483171796652
30
0
41
1
10
52.8165877192182
20
-2.25674898443393
30
0
41
1
10
52.6607736368858
20
-2.20519779227718
30
0
0
SPLINE
5
D1
100
AcDbEntity
8
1
62
256
6
ByLayer
370
13
48
1
60
0
100
AcDbSpline
70
4
71
3
72
24
73
20
40
0
40
0
40
0
40
0
40
0.125277879363107
40
0.125277879363107
40
0.217596864840297
40
0.217596864840297
40
0.309915850317487
40
0.309915850317487
40
0.402234835794678
40
0.402234835794678
40
0.494553821271868
40
0.494553821271868
40
0.679191792226245
40
0.679191792226245
40
0.863829763180622
40
0.863829763180622
40
0.956148748657812
40
0.956148748657812
40
1
40
1
40
1
40
1
41
1
10
52.6607745862735
20
-2.20519810638263
30
0
41
1
10
52.3319338157198
20
-2.09640095029604
30
0
41
1
10
52.0039267237931
20
-1.97215500415524
30
0
41
1
10
51.4327241935098
20
-1.73308001296334
30
0
41
1
10
51.1899386232203
20
-1.62436270467009
30
0
41
1
10
50.7021220896909
20
-1.39397627587894
30
0
41
1
10
50.4563838678577
20
-1.27194989730234
30
0
41
1
10
49.9667922996601
20
-1.01951428024253
30
0
41
1
10
49.7224346280286
20
-0.889019000859236
30
0
41
1
10
49.2331036545674
20
-0.621925091505631
30
0
41
1
10
48.9873783010913
20
-0.484914468796973
30
0
41
1
10
48.2536844714224
20
-0.0711911972553594
30
0
41
1
10
47.7695142341665
20
0.206690379112359
30
0
41
1
10
46.800904415876
20
0.748559821598207
30
0
41
1
10
46.3163314811185
20
1.01236313831149
30
0
41
1
10
45.5802267472155
20
1.38160704408224
30
0
41
1
10
45.3357955652544
20
1.49912884787653
30
0
41
1
10
44.977131497329
20
1.6628440343774
30
0
41
1
10
44.8618083873786
20
1.71404541250197
30
0
41
1
10
44.7465878958259
20
1.76362363751272
30
0
0
SPLINE
5
D2
100
AcDbEntity
8
1
62
256
6
ByLayer
370
18
48
1
60
0
100
AcDbSpline
70
4
71
3
72
14
73
10
40
0
40
0
40
0
40
0
40
0.131468903750059
40
0.131468903750059
40
0.360511772427643
40
0.360511772427643
40
0.589554641105225
40
0.589554641105225
40
1
40
1
40
1
40
1
41
1
10
25.7658419964281
20
-2.69239535635361
30
0
41
1
10
25.6266932167117
20
-2.69368067641275
30
0
41
1
10
25.4875216792075
20
-2.69151591055413
30
0
41
1
10
25.1054670392475
20
-2.67607978848861
30
0
41
1
10
24.8622614922622
20
-2.65577337417574
30
0
41
1
10
24.3735170467396
20
-2.5942587840745
30
0
41
1
10
24.1272011381713
20
-2.55275396838439
30
0
41
1
10
23.444690885687
20
-2.409930627427
30
0
41
1
10
23.0102404486748
20
-2.28746762534053
30
0
41
1
10
22.5757192484199
20
-2.13822350005515
30
0
0
SPLINE
5
D3
100
AcDbEntity
8
1
62
256
6
ByLayer
370
13
48
1
60
0
100
AcDbSpline
70
4
71
3
72
26
73
22
40
0
40
0
40
0
40
0
40
0.0198812589074934
40
0.0198812589074934
40
0.115465314051988
40
0.115465314051988
40
0.211049369196483
40
0.211049369196483
40
0.402217479485474
40
0.402217479485474
40
0.497801534629969
40
0.497801534629969
40
0.593385589774464
40
0.593385589774464
40
0.784553700063456
40
0.784553700063456
40
0.880137755207952
40
0.880137755207952
40
0.975721810352447
40
0.975721810352447
40
1
40
1
40
1
40
1
41
1
10
22.5757192487931
20
-2.1382235001833
30
0
41
1
10
22.5252843881432
20
-2.12090073973709
30
0
41
1
10
22.4748485741541
20
-2.10321717765598
30
0
41
1
10
22.1818912008604
20
-1.99845653017445
30
0
41
1
10
21.9391920467057
20
-1.90351077473073
30
0
41
1
10
21.4519590407101
20
-1.69891911929648
30
0
41
1
10
21.2071292264251
20
-1.58903246892714
30
0
41
1
10
20.4701725297449
20
-1.24052317069578
30
0
41
1
10
19.9815747984849
20
-0.986091711608992
30
0
41
1
10
19.2444707840547
20
-0.584927320516869
30
0
41
1
10
18.9997519186545
20
-0.448964661609381
30
0
41
1
10
18.5125401414724
20
-0.175776751716342
30
0
41
1
10
18.2697064822885
20
-0.0385732042610982
30
0
41
1
10
17.5418285086699
20
0.371844510713771
30
0
41
1
10
17.0572991982166
20
0.643664695798094
30
0
41
1
10
16.3231926750206
20
1.03356207557815
30
0
41
1
10
16.0768590820621
20
1.16080947677531
30
0
41
1
10
15.5882310050545
20
1.40301658522489
30
0
41
1
10
15.3449912629815
20
1.51847554633494
30
0
41
1
10
15.040459994377
20
1.65496105481344
30
0
41
1
10
14.9788058035383
20
1.6821886796431
30
0
41
1
10
14.9171687330502
20
1.70898285234165
30
0
0
SPLINE
5
D4
100
AcDbEntity
8
1
62
256
6
ByLayer
370
18
48
1
60
0
100
AcDbSpline
70
4
71
3
72
72
73
68
40
0
40
0
40
0
40
0
40
0.0117674809981684
40
0.0117674809981684
40
0.0500345018324859
40
0.0500345018324859
40
0.0883015226668038
40
0.0883015226668038
40
0.164835564335439
40
0.164835564335439
40
0.241369606004075
40
0.241369606004075
40
0.31790364767271
40
0.31790364767271
40
0.394437689341345
40
0.394437689341345
40
0.432704710175663
40
0.432704710175663
40
0.451838220592822
40
0.451838220592822
40
0.456621598197112
40
0.456621598197112
40
0.45692055929738
40
0.45692055929738
40
0.457219520397648
40
0.457219520397648
40
0.457817442598184
40
0.457817442598184
40
0.459013286999256
40
0.459013286999256
40
0.461404975801401
40
0.461404975801401
40
0.470971731009978
40
0.470971731009978
40
0.509238751844289
40
0.509238751844289
40
0.5475057726786
40
0.5475057726786
40
0.624039814347222
40
0.624039814347222
40
0.700573856015844
40
0.700573856015844
40
0.719707366432999
40
0.719707366432999
40
0.729274121641577
40
0.729274121641577
40
0.734057499245866
40
0.734057499245866
40
0.73644918804801
40
0.73644918804801
40
0.737645032449083
40
0.737645032449083
40
0.738242954649619
40
0.738242954649619
40
0.738541915749887
40
0.738541915749887
40
0.738840876850155
40
0.738840876850155
40
0.777107897684466
40
0.777107897684466
40
0.853641939353087
40
0.853641939353087
40
0.930175981021709
40
0.930175981021709
40
0.96844300185602
40
0.96844300185602
40
1
40
1
40
1
40
1
41
1
10
14.7572001895392
20
1.5427893880931
30
0
41
1
10
14.7269812192613
20
1.55086892628324
30
0
41
1
10
14.6967494944327
20
1.55866649009982
30
0
41
1
10
14.5681409161694
20
1.59055834228343
30
0
41
1
10
14.4696065810219
20
1.61178694941745
30
0
41
1
10
14.2718391310579
20
1.64663683417197
30
0
41
1
10
14.1722055443509
20
1.66027455959826
30
0
41
1
10
13.8757259509855
20
1.68737844109242
30
0
41
1
10
13.6808357932846
20
1.68712206329459
30
0
41
1
10
13.2925419945957
20
1.64596639437835
30
0
41
1
10
13.0991098044248
20
1.60506232932997
30
0
41
1
10
12.7073154579826
20
1.48319597980972
30
0
41
1
10
12.515021339689
20
1.40433497126344
30
0
41
1
10
12.1308882697988
20
1.22085214620873
30
0
41
1
10
11.9386618427731
20
1.11604543526528
30
0
41
1
10
11.6465272706776
20
0.946553273313754
30
0
41
1
10
11.5491522776138
20
0.888373215334184
30
0
41
1
10
11.4027984118633
20
0.799580519316265
30
0
41
1
10
11.3539886118376
20
0.769742277340555
30
0
41
1
10
11.292940120769
20
0.73225753118615
30
0
41
1
10
11.2807285317486
20
0.724751170307371
30
0
41
1
10
11.2677519395612
20
0.716767321822545
30
0
41
1
10
11.2680395244929
20
0.715723587740882
30
0
41
1
10
11.2690003165869
20
0.714268515354718
30
0
41
1
10
11.2695776250598
20
0.713606230416076
30
0
41
1
10
11.2713430719626
20
0.711689891579908
30
0
41
1
10
11.2726075712594
20
0.710501075306098
30
0
41
1
10
11.276468974707
20
0.707003500095567
30
0
41
1
10
11.2791451643014
20
0.704786831200863
30
0
41
1
10
11.2872452635061
20
0.698249218123635
30
0
41
1
10
11.2927694264114
20
0.694050026968995
30
0
41
1
10
11.3205788017455
20
0.673296884036063
30
0
41
1
10
11.3433752166713
20
0.657465619959169
30
0
41
1
10
11.4576112910636
20
0.578749627375089
30
0
41
1
10
11.5504785162011
20
0.518020394584539
30
0
41
1
10
11.7362921854111
20
0.396914672093288
30
0
41
1
10
11.8294852966201
20
0.336871395052753
30
0
41
1
10
12.109435626668
20
0.157563258131859
30
0
41
1
10
12.2961020102952
20
0.0385824088108677
30
0
41
1
10
12.6697845548476
20
-0.197930494574507
30
0
41
1
10
12.8566255882235
20
-0.315826949482982
30
0
41
1
10
13.0884752727256
20
-0.464484102232632
30
0
41
1
10
13.1347607549669
20
-0.494277905167365
30
0
41
1
10
13.2038031881178
20
-0.53932222881906
30
0
41
1
10
13.2267629228694
20
-0.554391974540721
30
0
41
1
10
13.2609156418966
20
-0.577253653059017
30
0
41
1
10
13.2722565230392
20
-0.584911929853064
30
0
41
1
10
13.2890571916538
20
-0.596587679700065
30
0
41
1
10
13.2946271615355
20
-0.600507617419936
30
0
41
1
10
13.3028135541677
20
-0.606522170475131
30
0
41
1
10
13.305518892254
20
-0.608546300990497
30
0
41
1
10
13.3094344702913
20
-0.611684114972434
30
0
41
1
10
13.3107226335041
20
-0.612744004214278
30
0
41
1
10
13.31250996944
20
-0.614413704995457
30
0
41
1
10
13.3131007762704
20
-0.614982795713843
30
0
41
1
10
13.313991196087
20
-0.616206431425951
30
0
41
1
10
13.3135637896251
20
-0.616686862854408
30
0
41
1
10
13.2287141832723
20
-0.6512924749494
30
0
41
1
10
13.1445823013714
20
-0.680549931037291
30
0
41
1
10
12.8930911101812
20
-0.751083008179535
30
0
41
1
10
12.7269136107004
20
-0.775350535275635
30
0
41
1
10
12.3845576707609
20
-0.771844590359478
30
0
41
1
10
12.2130395320744
20
-0.743872617014233
30
0
41
1
10
11.9438302830038
20
-0.663806014117228
30
0
41
1
10
11.8525378850931
20
-0.630850244931622
30
0
41
1
10
11.6856234274623
20
-0.562239477508456
30
0
41
1
10
11.6096689510601
20
-0.527967018336994
30
0
41
1
10
11.5329754335277
20
-0.491004058587095
30
0
0
SPLINE
5
D5
100
AcDbEntity
8
1
62
256
6
ByLayer
370
13
48
1
60
0
100
AcDbSpline
70
4
71
3
72
8
73
4
40
0
40
0
40
0
40
0
40
1
40
1
40
1
40
1
41
1
10
9.12331046134972
20
-2.68272843239626
30
0
41
1
10
9.14714273105488
20
-2.67345980170327
30
0
41
1
10
9.17310341920214
20
-2.67115730380021
30
0
41
1
10
9.19981709507772
20
-2.67544911962693
30
0
0
SPLINE
5
D6
100
AcDbEntity
8
1
62
256
6
ByLayer
370
18
48
1
60
0
100
AcDbSpline
70
4
71
3
72
48
73
44
40
0
40
0
40
0
40
0
40
0.0631592222807228
40
0.0631592222807228
40
0.126318444561446
40
0.126318444561446
40
0.189477666842168
40
0.189477666842168
40
0.252636889122891
40
0.252636889122891
40
0.284216500263254
40
0.284216500263254
40
0.315796111403616
40
0.315796111403616
40
0.37895533368434
40
0.37895533368434
40
0.410534944824702
40
0.410534944824702
40
0.442114555965064
40
0.442114555965064
40
0.505273778245787
40
0.505273778245787
40
0.53685338938615
40
0.53685338938615
40
0.568433000526512
40
0.568433000526512
40
0.631592222807236
40
0.631592222807236
40
0.663171833947598
40
0.663171833947598
40
0.69475144508796
40
0.69475144508796
40
0.757910667368686
40
0.757910667368686
40
0.789490278509049
40
0.789490278509049
40
0.821069889649412
40
0.821069889649412
40
0.884229111930136
40
0.884229111930136
40
0.94738833421086
40
0.94738833421086
40
1
40
1
40
1
40
1
41
1
10
14.7571906510612
20
1.54279193835242
30
0
41
1
10
14.9731581097938
20
1.43415804675558
30
0
41
1
10
15.1890232847627
20
1.32288662458382
30
0
41
1
10
15.619421171775
20
1.09366022463925
30
0
41
1
10
15.833896927714
20
0.97560508181445
30
0
41
1
10
16.2610336640558
20
0.731910834443426
30
0
41
1
10
16.4750805381584
20
0.608529191155384
30
0
41
1
10
16.9043562264616
20
0.359213222429531
30
0
41
1
10
17.1193711266985
20
0.232926797848336
30
0
41
1
10
17.4419527949916
20
0.040002171964602
30
0
41
1
10
17.5496464415849
20
-0.0246218179555626
30
0
41
1
10
17.7661685457568
20
-0.153071689625932
30
0
41
1
10
17.8744819334219
20
-0.2169027885015
30
0
41
1
10
18.1985077662548
20
-0.407111120084124
30
0
41
1
10
18.4137056402159
20
-0.532385498812772
30
0
41
1
10
18.7346295315744
20
-0.71905335237696
30
0
41
1
10
18.8413538006507
20
-0.780953107135787
30
0
41
1
10
19.0553296666655
20
-0.902429195440192
30
0
41
1
10
19.1624514160868
20
-0.962225752066047
30
0
41
1
10
19.4839643968738
20
-1.13923715091337
30
0
41
1
10
19.6985376084931
20
-1.25403552830392
30
0
41
1
10
20.0201277236999
20
-1.42222716962448
30
0
41
1
10
20.1272336536569
20
-1.47767954058651
30
0
41
1
10
20.3424649754443
20
-1.5855532132372
30
0
41
1
10
20.4504954262533
20
-1.63812438981691
30
0
41
1
10
20.7755303116606
20
-1.7921932784005
30
0
41
1
10
20.9923520965704
20
-1.88945096980342
30
0
41
1
10
21.3158248543685
20
-2.02725768546227
30
0
41
1
10
21.4233261637813
20
-2.07197140795779
30
0
41
1
10
21.6388968156195
20
-2.15753297349212
30
0
41
1
10
21.746937619388
20
-2.19843320294672
30
0
41
1
10
22.0714749752453
20
-2.31596219519736
30
0
41
1
10
22.288911380031
20
-2.3875226611373
30
0
41
1
10
22.6118937683217
20
-2.48378144649064
30
0
41
1
10
22.7190253977948
20
-2.51413531647472
30
0
41
1
10
22.9332671978847
20
-2.57053674887123
30
0
41
1
10
23.0404475806618
20
-2.59655560990467
30
0
41
1
10
23.3618151254095
20
-2.66852729465373
30
0
41
1
10
23.575866818916
20
-2.70840844607966
30
0
41
1
10
24.0027931742917
20
-2.77228637766334
30
0
41
1
10
24.2155247054241
20
-2.79614652607057
30
0
41
1
10
24.6082766137951
20
-2.82380729934582
30
0
41
1
10
24.7873528543276
20
-2.83052909961003
30
0
41
1
10
24.9668048199577
20
-2.83127359785183
30
0
0
SPLINE
5
D7
100
AcDbEntity
8
1
62
256
6
ByLayer
370
18
48
1
60
0
100
AcDbSpline
70
4
71
3
72
76
73
72
40
0
40
0
40
0
40
0
40
0.0179037026070024
40
0.0179037026070024
40
0.052735895278777
40
0.052735895278777
40
0.0875680879505515
40
0.0875680879505515
40
0.122400280622326
40
0.122400280622326
40
0.157232473294101
40
0.157232473294101
40
0.192064665965875
40
0.192064665965875
40
0.226896858637649
40
0.226896858637649
40
0.261729051309424
40
0.261729051309424
40
0.296561243981198
40
0.296561243981198
40
0.331393436652973
40
0.331393436652973
40
0.348809532988859
40
0.348809532988859
40
0.366225629324746
40
0.366225629324746
40
0.401057821996517
40
0.401057821996517
40
0.418473918332403
40
0.418473918332403
40
0.43589001466829
40
0.43589001466829
40
0.470722207340061
40
0.470722207340061
40
0.488138303675947
40
0.488138303675947
40
0.505554400011832
40
0.505554400011832
40
0.540386592683605
40
0.540386592683605
40
0.557802689019491
40
0.557802689019491
40
0.575218785355376
40
0.575218785355376
40
0.610050978027148
40
0.610050978027148
40
0.627467074363033
40
0.627467074363033
40
0.644883170698919
40
0.644883170698919
40
0.679715363370689
40
0.679715363370689
40
0.714547556042458
40
0.714547556042458
40
0.749379748714228
40
0.749379748714228
40
0.784211941385997
40
0.784211941385997
40
0.819044134057767
40
0.819044134057767
40
0.853876326729536
40
0.853876326729536
40
0.888708519401306
40
0.888708519401306
40
0.923540712073075
40
0.923540712073075
40
0.958372904744845
40
0.958372904744845
40
0.993205097416614
40
0.993205097416614
40
1
40
1
40
1
40
1
41
1
10
36.3719572029556
20
2.06979704284549
30
0
41
1
10
36.4817721916625
20
2.11444458993299
30
0
41
1
10
36.5917058332516
20
2.15733151700601
30
0
41
1
10
36.9156275602211
20
2.27882263067897
30
0
41
1
10
37.129532943703
20
2.35300600154884
30
0
41
1
10
37.5580257475825
20
2.48785419199817
30
0
41
1
10
37.7744590522598
20
2.54743656704181
30
0
41
1
10
38.2075522462501
20
2.65089845811872
30
0
41
1
10
38.4233411612137
20
2.69473573290867
30
0
41
1
10
38.8535659688396
20
2.76606688007303
30
0
41
1
10
39.0694810660483
20
2.79289964792758
30
0
41
1
10
39.5024504052602
20
2.8295315252704
30
0
41
1
10
39.7188881725647
20
2.83927762515131
30
0
41
1
10
40.1474351476104
20
2.8412066214492
30
0
41
1
10
40.3614984760771
20
2.83341683904027
30
0
41
1
10
40.7893611996281
20
2.80121148738317
30
0
41
1
10
41.0029650433183
20
2.77678075196079
30
0
41
1
10
41.4288218925797
20
2.71051858396143
30
0
41
1
10
41.642306973775
20
2.66916972789932
30
0
41
1
10
42.0714095529506
20
2.57095527521758
30
0
41
1
10
42.2867139047245
20
2.51395507699661
30
0
41
1
10
42.6102284978516
20
2.4154384780617
30
0
41
1
10
42.7181274979787
20
2.38046267296022
30
0
41
1
10
42.9340317124261
20
2.30762243863944
30
0
41
1
10
43.0420547196118
20
2.26960295429041
30
0
41
1
10
43.3660751166315
20
2.15058590467405
30
0
41
1
10
43.5820618620092
20
2.06470667222177
30
0
41
1
10
43.9053556609332
20
1.92507514466311
30
0
41
1
10
44.0129708094174
20
1.87665644240991
30
0
41
1
10
44.2291302306971
20
1.77761501185347
30
0
41
1
10
44.3373328745072
20
1.72697766140161
30
0
41
1
10
44.6616503751009
20
1.57157081915219
30
0
41
1
10
44.8776741358918
20
1.46331965840415
30
0
41
1
10
45.200792380329
20
1.29294405678604
30
0
41
1
10
45.3082536141258
20
1.23466280518957
30
0
41
1
10
45.5239170880011
20
1.11697265675178
30
0
41
1
10
45.6321451819652
20
1.05747070608757
30
0
41
1
10
45.9569815593328
20
0.876877972665824
30
0
41
1
10
46.1731854897093
20
0.754124244854978
30
0
41
1
10
46.4963379355978
20
0.565421356685761
30
0
41
1
10
46.6037475265143
20
0.501560870829394
30
0
41
1
10
46.8190591859048
20
0.373746981608036
30
0
41
1
10
46.9270148865263
20
0.30988829526899
30
0
41
1
10
47.25139609435
20
0.117836759895994
30
0
41
1
10
47.4683554217062
20
-0.0107429834653203
30
0
41
1
10
47.791792463103
20
-0.204019801897715
30
0
41
1
10
47.8992582644343
20
-0.268767283486994
30
0
41
1
10
48.1144065438656
20
-0.39737301258873
30
0
41
1
10
48.2222303318189
20
-0.460997563931983
30
0
41
1
10
48.5461299905944
20
-0.650389113042337
30
0
41
1
10
48.7630384241421
20
-0.774917160337367
30
0
41
1
10
49.1949575674486
20
-1.02003224021587
30
0
41
1
10
49.4096086380735
20
-1.14083021528242
30
0
41
1
10
49.8411347370478
20
-1.37147778163799
30
0
41
1
10
50.0573138995495
20
-1.48246980080134
30
0
41
1
10
50.489693419947
20
-1.69685568436432
30
0
41
1
10
50.7047712083804
20
-1.80025404401849
30
0
41
1
10
51.1362871351272
20
-1.99222501363565
30
0
41
1
10
51.3523061666449
20
-2.08187670323596
30
0
41
1
10
51.7840386877224
20
-2.24940083425261
30
0
41
1
10
51.9995659241838
20
-2.32771344736258
30
0
41
1
10
52.4313409060579
20
-2.46695296857604
30
0
41
1
10
52.6473460483011
20
-2.52874350095243
30
0
41
1
10
53.078745630489
20
-2.63738922709794
30
0
41
1
10
53.2938352928896
20
-2.68449072331731
30
0
41
1
10
53.726172896759
20
-2.76065386482662
30
0
41
1
10
53.9423124101123
20
-2.79006209228524
30
0
41
1
10
54.3736600463233
20
-2.83206693860959
30
0
41
1
10
54.588246737562
20
-2.84461489120611
30
0
41
1
10
54.8463396975167
20
-2.84890300537006
30
0
41
1
10
54.8884993702328
20
-2.84926912536753
30
0
41
1
10
54.9306739606843
20
-2.84930257404849
30
0
0
SPLINE
5
D8
100
AcDbEntity
8
1
62
256
6
ByLayer
370
18
48
1
60
0
100
AcDbSpline
70
4
71
3
72
14
73
10
40
0
40
0
40
0
40
0
40
0.25
40
0.25
40
0.5
40
0.5
40
0.75
40
0.75
40
1
40
1
40
1
40
1
41
1
10
55.7440918296162
20
0.57238436358125
30
0
41
1
10
55.7390767350851
20
0.600848521952912
30
0
41
1
10
55.7379026868468
20
0.629938914244264
30
0
41
1
10
55.744344383035
20
0.689754667243875
30
0
41
1
10
55.7518755960447
20
0.71957602844401
30
0
41
1
10
55.7782706838758
20
0.776672466916523
30
0
41
1
10
55.7964515140214
20
0.803234904708972
30
0
41
1
10
55.8464124679058
20
0.842641002517354
30
0
41
1
10
55.8759239026566
20
0.855094188712627
30
0
41
1
10
55.9066576780934
20
0.862242806646151
30
0
0
SPLINE
5
D9
100
AcDbEntity
8
1
62
256
6
ByLayer
370
18
48
1
60
0
100
AcDbSpline
70
4
71
3
72
66
73
62
40
0
40
0
40
0
40
0
40
0.0191852260631375
40
0.0191852260631375
40
0.0551863136054648
40
0.0551863136054648
40
0.0911874011477922
40
0.0911874011477922
40
0.12718848869012
40
0.12718848869012
40
0.163189576232447
40
0.163189576232447
40
0.199190663774774
40
0.199190663774774
40
0.235191751317101
40
0.235191751317101
40
0.271192838859429
40
0.271192838859429
40
0.307193926401756
40
0.307193926401756
40
0.32519447017292
40
0.32519447017292
40
0.343195013944083
40
0.343195013944083
40
0.379196101486411
40
0.379196101486411
40
0.415197189028738
40
0.415197189028738
40
0.451198276571065
40
0.451198276571065
40
0.487199364113393
40
0.487199364113393
40
0.52320045165572
40
0.52320045165572
40
0.559201539198047
40
0.559201539198047
40
0.595202626740375
40
0.595202626740375
40
0.631203714282702
40
0.631203714282702
40
0.667204801825029
40
0.667204801825029
40
0.703205889367357
40
0.703205889367357
40
0.739206976909684
40
0.739206976909684
40
0.775208064452011
40
0.775208064452011
40
0.811209151994339
40
0.811209151994339
40
0.847210239536666
40
0.847210239536666
40
0.883211327078993
40
0.883211327078993
40
0.91921241462132
40
0.91921241462132
40
0.955213502163648
40
0.955213502163648
40
0.991214589705975
40
0.991214589705975
40
1
40
1
40
1
40
1
41
1
10
51.3672061618333
20
-2.08444933194553
30
0
41
1
10
51.2500474176179
20
-2.1270975487551
30
0
41
1
10
51.1329318469758
20
-2.16789181620672
30
0
41
1
10
50.7965938890714
20
-2.27909384356255
30
0
41
1
10
50.5772063936672
20
-2.34391829787901
30
0
41
1
10
50.1381126683729
20
-2.45766583479059
30
0
41
1
10
49.9184797668343
20
-2.50777498870957
30
0
41
1
10
49.4789139060323
20
-2.59214507845783
30
0
41
1
10
49.2593754172455
20
-2.62580294762668
30
0
41
1
10
48.8204587401974
20
-2.67546052070881
30
0
41
1
10
48.6013455100873
20
-2.69219240015775
30
0
41
1
10
48.1622016942102
20
-2.70879445565936
30
0
41
1
10
47.9419265839889
20
-2.70837468942574
30
0
41
1
10
47.5028006748221
20
-2.68891427535519
30
0
41
1
10
47.2837620505994
20
-2.67036886245302
30
0
41
1
10
46.8451724399759
20
-2.61785098840539
30
0
41
1
10
46.6249127489348
20
-2.58374520765139
30
0
41
1
10
46.1852362221247
20
-2.49929680672619
30
0
41
1
10
45.9662012650684
20
-2.44882480249447
30
0
41
1
10
45.6376263895652
20
-2.36083110480996
30
0
41
1
10
45.5280124000474
20
-2.32957213147398
30
0
41
1
10
45.3084700475377
20
-2.2624787606567
30
0
41
1
10
45.1985627978907
20
-2.22732976342741
30
0
41
1
10
44.8685744019829
20
-2.11795601617223
30
0
41
1
10
44.6490047449232
20
-2.03859630855578
30
0
41
1
10
44.2108540818936
20
-1.86647649083028
30
0
41
1
10
43.9916044890442
20
-1.77339295935892
30
0
41
1
10
43.5524030129004
20
-1.57782278588761
30
0
41
1
10
43.3324274356038
20
-1.4747204770448
30
0
41
1
10
42.8938892516718
20
-1.25965777703971
30
0
41
1
10
42.6747164269885
20
-1.14802344169883
30
0
41
1
10
42.2360030530403
20
-0.917801095774166
30
0
41
1
10
42.0166756888674
20
-0.799495962758897
30
0
41
1
10
41.5774139209999
20
-0.557824905914117
30
0
41
1
10
41.3580993762501
20
-0.435611089739609
30
0
41
1
10
40.919652267576
20
-0.189083729755595
30
0
41
1
10
40.7007462347159
20
-0.0645169400675627
30
0
41
1
10
40.2621631754715
20
0.184974078881339
30
0
41
1
10
40.0420103627349
20
0.309077148786258
30
0
41
1
10
39.6030870297044
20
0.554215079273945
30
0
41
1
10
39.3841812166771
20
0.675798169493561
30
0
41
1
10
38.9460725199187
20
0.913872015135837
30
0
41
1
10
38.7259732612183
20
1.02965968279611
30
0
41
1
10
38.2863654495921
20
1.25476900667303
30
0
41
1
10
38.0672447922105
20
1.36414451300456
30
0
41
1
10
37.6292246379567
20
1.5732938435001
30
0
41
1
10
37.4097700342668
20
1.67195116014491
30
0
41
1
10
36.969836712724
20
1.85987649134398
30
0
41
1
10
36.7502560441918
20
1.94889986317514
30
0
41
1
10
36.3121899869443
20
2.11314538652056
30
0
41
1
10
36.092950745623
20
2.18741514962784
30
0
41
1
10
35.6536969097834
20
2.32271109558937
30
0
41
1
10
35.4336676423088
20
2.38458453042895
30
0
41
1
10
34.9952707099517
20
2.49209892863075
30
0
41
1
10
34.7761110671918
20
2.53742671674556
30
0
41
1
10
34.3374071793418
20
2.61100326020386
30
0
41
1
10
34.1177214275845
20
2.63995218653457
30
0
41
1
10
33.6788197090973
20
2.67991277801073
30
0
41
1
10
33.4600067775074
20
2.6923068549398
30
0
41
1
10
33.1886376222151
20
2.69735941365391
30
0
41
1
10
33.1354561223473
20
2.69782745489445
30
0
41
1
10
33.0823182336557
20
2.69776856912674
30
0
0
SPLINE
5
DA
100
AcDbEntity
8
1
62
256
6
ByLayer
370
18
48
1
60
0
100
AcDbSpline
70
4
71
3
72
36
73
32
40
0
40
0
40
0
40
0
40
0.0009325162359169
40
0.0009325162359169
40
0.0675370151535223
40
0.0675370151535223
40
0.134141514071128
40
0.134141514071128
40
0.200746012988734
40
0.200746012988734
40
0.26735051190634
40
0.26735051190634
40
0.333955010823945
40
0.333955010823945
40
0.400559509741551
40
0.400559509741551
40
0.467164008659156
40
0.467164008659156
40
0.533768507576762
40
0.533768507576762
40
0.600373006494368
40
0.600373006494368
40
0.666977505411973
40
0.666977505411973
40
0.733582004329579
40
0.733582004329579
40
0.800186503247185
40
0.800186503247185
40
0.866791002164791
40
0.866791002164791
40
1
40
1
40
1
40
1
41
1
10
21.4197504904182
20
-2.07686900411321
30
0
41
1
10
21.4166754894905
20
-2.07797099437667
30
0
41
1
10
21.4136004015838
20
-2.07907189740286
30
0
41
1
10
21.1908823796612
20
-2.15872576338595
30
0
41
1
10
20.9707256063565
20
-2.2314703028525
30
0
41
1
10
20.5325963317694
20
-2.36152866325852
30
0
41
1
10
20.3135972839684
20
-2.41751333505371
30
0
41
1
10
19.8749371472829
20
-2.51561555849429
30
0
41
1
10
19.6551130279909
20
-2.55645486471545
30
0
41
1
10
19.2161862417054
20
-2.62301375291994
30
0
41
1
10
18.9969260427079
20
-2.64868308915163
30
0
41
1
10
18.5583099239817
20
-2.68241444953654
30
0
41
1
10
18.3390207480257
20
-2.68973762963788
30
0
41
1
10
17.9000663359349
20
-2.68691940631211
30
0
41
1
10
17.6801389984578
20
-2.67813488338351
30
0
41
1
10
17.2411868395086
20
-2.64380345443007
30
0
41
1
10
17.0219521630225
20
-2.6182163694327
30
0
41
1
10
16.5835887479802
20
-2.54833284455381
30
0
41
1
10
16.3634399768523
20
-2.50552160654488
30
0
41
1
10
15.923981553933
20
-2.40391093302364
30
0
41
1
10
15.7045947768522
20
-2.34570957993901
30
0
41
1
10
15.2664547190361
20
-2.21510683914639
30
0
41
1
10
15.0470898143236
20
-2.14272180176832
30
0
41
1
10
14.6067539566509
20
-1.9833279233664
30
0
41
1
10
14.3871659502725
20
-1.8968069842318
30
0
41
1
10
13.9489499672383
20
-1.7133654897311
30
0
41
1
10
13.7297686011205
20
-1.61644822505491
30
0
41
1
10
13.290278697451
20
-1.41184359709703
30
0
41
1
10
13.0698145105495
20
-1.30430793452052
30
0
41
1
10
12.4116788940362
20
-0.970388099495921
30
0
41
1
10
11.9732099551208
20
-0.735786024953086
30
0
41
1
10
11.533186396665
20
-0.491105727810492
30
0
0
SPLINE
5
DB
100
AcDbEntity
8
1
62
256
6
ByLayer
370
18
48
1
60
0
100
AcDbSpline
70
4
71
3
72
58
73
54
40
0
40
0
40
0
40
0
40
0.0624999999999993
40
0.0624999999999993
40
0.124999999999999
40
0.124999999999999
40
0.249999999999997
40
0.249999999999997
40
0.374999999999996
40
0.374999999999996
40
0.437499999999996
40
0.437499999999996
40
0.499999999999996
40
0.499999999999996
40
0.624999999999999
40
0.624999999999999
40
0.628906249999998
40
0.628906249999998
40
0.632812499999998
40
0.632812499999998
40
0.636718749999997
40
0.636718749999997
40
0.638671874999998
40
0.638671874999998
40
0.640624999999999
40
0.640624999999999
40
0.656249999999998
40
0.656249999999998
40
0.687499999999997
40
0.687499999999997
40
0.703124999999997
40
0.703124999999997
40
0.718749999999997
40
0.718749999999997
40
0.734374999999997
40
0.734374999999997
40
0.749999999999997
40
0.749999999999997
40
0.765624999999998
40
0.765624999999998
40
0.781249999999998
40
0.781249999999998
40
0.796874999999998
40
0.796874999999998
40
0.812499999999998
40
0.812499999999998
40
0.843749999999999
40
0.843749999999999
40
0.874999999999999
40
0.874999999999999
40
0.937499999999999
40
0.937499999999999
40
1
40
1
40
1
40
1
41
1
10
14.7572070717447
20
1.54277681108442
30
0
41
1
10
14.5457162288896
20
1.64814538778353
30
0
41
1
10
14.3328666876044
20
1.74663781315374
30
0
41
1
10
13.9037314431858
20
1.93002575895159
30
0
41
1
10
13.6873359428469
20
2.01489539046923
30
0
41
1
10
13.0376894877367
20
2.24669922519578
30
0
41
1
10
12.6018992652894
20
2.37152749966077
30
0
41
1
10
11.7161366068115
20
2.56685634534068
30
0
41
1
10
11.2660696607287
20
2.63729046847462
30
0
41
1
10
10.5748769434015
20
2.71190829659253
30
0
41
1
10
10.3418211953476
20
2.73167935706186
30
0
41
1
10
9.869819570977
20
2.7632512115529
30
0
41
1
10
9.63154506282086
20
2.77500849429455
30
0
41
1
10
8.91388544688505
20
2.80175353950921
30
0
41
1
10
8.42992495579097
20
2.80867563609212
30
0
41
1
10
7.92444517163079
20
2.81228258025877
30
0
41
1
10
7.90912154327765
20
2.81238810936608
30
0
41
1
10
7.87846212099927
20
2.8125919042063
30
0
41
1
10
7.86323455655887
20
2.81273480792797
30
0
41
1
10
7.83194523293412
20
2.81267388521758
30
0
41
1
10
7.81615363123069
20
2.81250533813616
30
0
41
1
10
7.79410314604672
20
2.81179975422893
30
0
41
1
10
7.78715781484576
20
2.81146559685828
30
0
41
1
10
7.77311059066796
20
2.81083230262229
30
0
41
1
10
7.76610260925202
20
2.81050593940455
30
0
41
1
10
7.70317481588791
20
2.80747769353525
30
0
41
1
10
7.64813684454279
20
2.8041364660323
30
0
41
1
10
7.48785728993337
20
2.79152942010813
30
0
41
1
10
7.38721908369581
20
2.77990264026462
30
0
41
1
10
7.2516859854627
20
2.75257526649347
30
0
41
1
10
7.20905992829921
20
2.74169684083887
30
0
41
1
10
7.13372675703297
20
2.71581200333
30
0
41
1
10
7.10053228364777
20
2.70068848799056
30
0
41
1
10
7.04661591426651
20
2.66478438126236
30
0
41
1
10
7.02676677475287
20
2.64457907659255
30
0
41
1
10
7.00224847277551
20
2.59888840884983
30
0
41
1
10
6.99778905177354
20
2.57299539001659
30
0
41
1
10
7.00435692798521
20
2.51839425770837
30
0
41
1
10
7.01516816353941
20
2.48926435731372
30
0
41
1
10
7.04876632153633
20
2.42889082610967
30
0
41
1
10
7.07113684937974
20
2.39817078505914
30
0
41
1
10
7.12406232544964
20
2.33568342118579
30
0
41
1
10
7.15481485379067
20
2.30375597553777
30
0
41
1
10
7.22193811228158
20
2.23963228637325
30
0
41
1
10
7.2580636086953
20
2.20763797608026
30
0
41
1
10
7.37213603370202
20
2.11157335125358
30
0
41
1
10
7.45568060685252
20
2.0474083902092
30
0
41
1
10
7.6322749603527
20
1.91805928032301
30
0
41
1
10
7.72483960179972
20
1.85331205570159
30
0
41
1
10
8.0079634686102
20
1.66021122250251
30
0
41
1
10
8.20531547793286
20
1.53182782600334
30
0
41
1
10
8.60961896015561
20
1.27268749893844
30
0
41
1
10
8.81766089675273
20
1.14142965671158
30
0
41
1
10
9.026306874547
20
1.01048306874634
30
0
0
SPLINE
5
DC
100
AcDbEntity
8
1
62
256
6
ByLayer
370
18
48
1
60
0
100
AcDbSpline
70
4
71
3
72
18
73
14
40
0
40
0
40
0
40
0
40
0.25
40
0.25
40
0.5
40
0.5
40
0.625
40
0.625
40
0.75
40
0.75
40
0.875
40
0.875
40
1
40
1
40
1
40
1
41
1
10
56.62372153572
20
1.39175042587976
30
0
41
1
10
56.5807189552196
20
1.50773757683743
30
0
41
1
10
56.5375007693124
20
1.62351207623288
30
0
41
1
10
56.4503134631518
20
1.85432042865366
30
0
41
1
10
56.4065987572923
20
1.96968860048182
30
0
41
1
10
56.3408605781966
20
2.14226943544102
30
0
41
1
10
56.3189124626905
20
2.19968558814517
30
0
41
1
10
56.2748639841498
20
2.31404125436859
30
0
41
1
10
56.2527362308979
20
2.37089501772246
30
0
41
1
10
56.2083321035013
20
2.48413725910348
30
0
41
1
10
56.186124736749
20
2.54074177759816
30
0
41
1
10
56.1415767275036
20
2.65353357011062
30
0
41
1
10
56.1192421695756
20
2.70973989299054
30
0
41
1
10
56.0966902655844
20
2.76526577362466
30
0
0
SPLINE
5
DD
100
AcDbEntity
8
1
62
256
6
ByLayer
370
13
48
1
60
0
100
AcDbSpline
70
4
71
3
72
8
73
4
40
0
40
0
40
0
40
0
40
1
40
1
40
1
40
1
41
1
10
9.07912981608425
20
-2.69152966473376
30
0
41
1
10
9.09232894553597
20
-2.68826070411634
30
0
41
1
10
9.10698149949025
20
-2.68530496025988
30
0
41
1
10
9.12331046134972
20
-2.68272843239626
30
0
0
SPLINE
5
DE
100
AcDbEntity
8
1
62
256
6
ByLayer
370
18
48
1
60
0
100
AcDbSpline
70
4
71
3
72
40
73
36
40
0
40
0
40
0
40
0
40
0.09402046476934
40
0.09402046476934
40
0.14103069715401
40
0.14103069715401
40
0.18804092953868
40
0.18804092953868
40
0.282061394308022
40
0.282061394308022
40
0.329071626692693
40
0.329071626692693
40
0.376081859077364
40
0.376081859077364
40
0.470102323846708
40
0.470102323846708
40
0.493607440039045
40
0.493607440039045
40
0.517112556231382
40
0.517112556231382
40
0.564122788616056
40
0.564122788616056
40
0.658143253385404
40
0.658143253385404
40
0.705153485770079
40
0.705153485770079
40
0.752163718154754
40
0.752163718154754
40
0.846184182924104
40
0.846184182924104
40
0.893194415308779
40
0.893194415308779
40
0.940204647693455
40
0.940204647693455
40
1
40
1
40
1
40
1
41
1
10
56.0256149259722
20
-2.8266300888863
30
0
41
1
10
55.5353421317981
20
-2.86389534087829
30
0
41
1
10
55.0469408426923
20
-2.85581808692777
30
0
41
1
10
54.3089847277432
20
-2.77606129858566
30
0
41
1
10
54.0634286894305
20
-2.73824336217862
30
0
41
1
10
53.5754114901808
20
-2.64192736963693
30
0
41
1
10
53.3323580184734
20
-2.58337141493777
30
0
41
1
10
52.6038269501659
20
-2.3784672447251
30
0
41
1
10
52.1189158252476
20
-2.20293527954456
30
0
41
1
10
51.3837255613596
20
-1.88915379874732
30
0
41
1
10
51.1368204711266
20
-1.77577952805879
30
0
41
1
10
50.6474054100821
20
-1.53782733529897
30
0
41
1
10
50.4038922775252
20
-1.41288644714746
30
0
41
1
10
49.6748367862925
20
-1.02349668781352
30
0
41
1
10
49.1902942626882
20
-0.745245892585018
30
0
41
1
10
48.5796386496373
20
-0.384951284941195
30
0
41
1
10
48.4572485108768
20
-0.312283188583223
30
0
41
1
10
48.2117218263147
20
-0.166096820704098
30
0
41
1
10
48.0883789875777
20
-0.0924458847223377
30
0
41
1
10
47.7199979959753
20
0.12750156579159
30
0
41
1
10
47.4758021912164
20
0.273254055903152
30
0
41
1
10
46.7455843732565
20
0.704956832711304
30
0
41
1
10
46.2613611533024
20
0.984359952592058
30
0
41
1
10
45.5298640885483
20
1.37617763298863
30
0
41
1
10
45.2853101235914
20
1.50245266682114
30
0
41
1
10
44.7932177809097
20
1.74377375493447
30
0
41
1
10
44.5478456330176
20
1.85734775101662
30
0
41
1
10
43.8155790177133
20
2.17286358369617
30
0
41
1
10
43.3313674620851
20
2.3510613442115
30
0
41
1
10
42.6012680593481
20
2.56040767978135
30
0
41
1
10
42.3574213974326
20
2.62066709579156
30
0
41
1
10
41.8670357205963
20
2.7204254011688
30
0
41
1
10
41.6201141968999
20
2.75985339613831
30
0
41
1
10
41.0640038216498
20
2.82343811300478
30
0
41
1
10
40.7545523538462
20
2.84099861965282
30
0
41
1
10
40.4454790168995
20
2.8406112591455
30
0
0
SPLINE
5
DF
100
AcDbEntity
8
1
62
256
6
ByLayer
370
18
48
1
60
0
100
AcDbSpline
70
4
71
3
72
46
73
42
40
0
40
0
40
0
40
0
40
0.0136611660315024
40
0.0136611660315024
40
0.0583040494176154
40
0.0583040494176154
40
0.102946932803729
40
0.102946932803729
40
0.192232699575954
40
0.192232699575954
40
0.236875582962066
40
0.236875582962066
40
0.259197024655121
40
0.259197024655121
40
0.281518466348177
40
0.281518466348177
40
0.370804233120399
40
0.370804233120399
40
0.415447116506509
40
0.415447116506509
40
0.437768558199565
40
0.437768558199565
40
0.46008999989262
40
0.46008999989262
40
0.549375766664843
40
0.549375766664843
40
0.638661533437067
40
0.638661533437067
40
0.72794730020929
40
0.72794730020929
40
0.817233066981513
40
0.817233066981513
40
0.839554508674569
40
0.839554508674569
40
0.861875950367624
40
0.861875950367624
40
0.906518833753736
40
0.906518833753736
40
0.995804600525959
40
0.995804600525959
40
1
40
1
40
1
40
1
41
1
10
26.9537424522991
20
-2.69903784815449
30
0
41
1
10
26.8791889738129
20
-2.71244356688507
30
0
41
1
10
26.8045786571118
20
-2.72486833721254
30
0
41
1
10
26.4858215394603
20
-2.7736454955984
30
0
41
1
10
26.2409041077651
20
-2.80033759472397
30
0
41
1
10
25.747764218249
20
-2.83128277459414
30
0
41
1
10
25.5026575458239
20
-2.83534646175139
30
0
41
1
10
24.7702421448145
20
-2.81411436478899
30
0
41
1
10
24.2852454565459
20
-2.75554035957268
30
0
41
1
10
23.5544006637024
20
-2.60435188347626
30
0
41
1
10
23.3101187694251
20
-2.54345165004557
30
0
41
1
10
22.9416254194895
20
-2.43678281289397
30
0
41
1
10
22.8181808668102
20
-2.39858005876761
30
0
41
1
10
22.5719797617678
20
-2.31760540113939
30
0
41
1
10
22.4492731753325
20
-2.27486775273101
30
0
41
1
10
21.8371769141651
20
-2.05061633130526
30
0
41
1
10
21.3518812973816
20
-1.83767245404795
30
0
41
1
10
20.6217519034639
20
-1.47979450693634
30
0
41
1
10
20.3780022976375
20
-1.3541025181155
30
0
41
1
10
20.0107405116898
20
-1.15739876992103
30
0
41
1
10
19.8880524779032
20
-1.09046077460914
30
0
41
1
10
19.641952677025
20
-0.954089672658512
30
0
41
1
10
19.5184878372194
20
-0.884637367331692
30
0
41
1
10
18.90413876751
20
-0.535232206015593
30
0
41
1
10
18.4180077669077
20
-0.246203480898345
30
0
41
1
10
17.4449944038296
20
0.331210187140158
30
0
41
1
10
16.9580559372613
20
0.619499100204791
30
0
41
1
10
15.9712778819958
20
1.17457829467725
30
0
41
1
10
15.4840948338999
20
1.43408749299965
30
0
41
1
10
14.5107896813087
20
1.8996628726251
30
0
41
1
10
14.0248382122945
20
2.10629262764209
30
0
41
1
10
13.410394658101
20
2.3212351356319
30
0
41
1
10
13.2869028756747
20
2.36215891925272
30
0
41
1
10
13.0406237772202
20
2.43899523500571
30
0
41
1
10
12.9178735069626
20
2.47489380456463
30
0
41
1
10
12.5504160694252
20
2.57484184524148
30
0
41
1
10
12.3065150676328
20
2.63116231758153
30
0
41
1
10
11.5758509669172
20
2.76841348951771
30
0
41
1
10
11.0902818180423
20
2.81775005427602
30
0
41
1
10
10.5775369260392
20
2.82252298182746
30
0
41
1
10
10.5545086995733
20
2.82263740240759
30
0
41
1
10
10.5314657005731
20
2.82265206265419
30
0
0
SPLINE
5
E0
100
AcDbEntity
8
1
62
256
6
ByLayer
370
18
48
1
60
0
100
AcDbSpline
70
4
71
3
72
14
73
10
40
0
40
0
40
0
40
0
40
0.25
40
0.25
40
0.5
40
0.5
40
0.75
40
0.75
40
1
40
1
40
1
40
1
41
1
10
9.25059025514986
20
0.876193379411859
30
0
41
1
10
9.43672329093283
20
0.759297559741128
30
0
41
1
10
9.62438902770938
20
0.642481508704776
30
0
41
1
10
10.0025537370972
20
0.409114756484911
30
0
41
1
10
10.1936279552019
20
0.292232074216969
30
0
41
1
10
10.5755240244057
20
0.0616966257915976
30
0
41
1
10
10.7663873225095
20
-0.0519595094903593
30
0
41
1
10
11.1488123289668
20
-0.275064436324527
30
0
41
1
10
11.3403581583866
20
-0.384511778796963
30
0
41
1
10
11.5327155754226
20
-0.490843919258339
30
0
0
SPLINE
5
E1
100
AcDbEntity
8
1
62
256
6
ByLayer
370
18
48
1
60
0
100
AcDbSpline
70
4
71
3
72
8
73
4
40
0
40
0
40
0
40
0
40
1
40
1
40
1
40
1
41
1
10
56.025614925972
20
2.82663008888633
30
0
41
1
10
55.8216562470504
20
2.84213282870033
30
0
41
1
10
55.6178771060578
20
2.8497825551446
30
0
41
1
10
55.4138713124727
20
2.8495901551378
30
0
0
SPLINE
5
E2
100
AcDbEntity
8
1
62
256
6
ByLayer
370
18
48
1
60
0
100
AcDbSpline
70
4
71
3
72
46
73
42
40
0
40
0
40
0
40
0
40
0.0107832543277524
40
0.0107832543277524
40
0.0330719354235449
40
0.0330719354235449
40
0.122226659806714
40
0.122226659806714
40
0.166804021998299
40
0.166804021998299
40
0.211381384189884
40
0.211381384189884
40
0.300536108573053
40
0.300536108573053
40
0.345113470764638
40
0.345113470764638
40
0.36740215186043
40
0.36740215186043
40
0.389690832956221
40
0.389690832956221
40
0.478845557339387
40
0.478845557339387
40
0.568000281722553
40
0.568000281722553
40
0.612577643914135
40
0.612577643914135
40
0.657155006105717
40
0.657155006105717
40
0.746309730488879
40
0.746309730488879
40
0.790887092680459
40
0.790887092680459
40
0.835464454872039
40
0.835464454872039
40
0.924619179255199
40
0.924619179255199
40
0.946907860350991
40
0.946907860350991
40
0.969196541446782
40
0.969196541446782
40
1
40
1
40
1
40
1
41
1
10
41.9214676248228
20
-2.70718909615826
30
0
41
1
10
41.8619658733264
20
-2.71794243075274
30
0
41
1
10
41.8025126819844
20
-2.72805220314027
30
0
41
1
10
41.6205693728952
20
-2.75702637255716
30
0
41
1
10
41.4982673475209
20
-2.77377247763002
30
0
41
1
10
40.8878563577427
20
-2.84362901960333
30
0
41
1
10
40.4033241283286
20
-2.85523878989775
30
0
41
1
10
39.6734554593577
20
-2.80605707387136
30
0
41
1
10
39.4295424320218
20
-2.77858639351754
30
0
41
1
10
38.9391020615724
20
-2.70150025448749
30
0
41
1
10
38.6920819354418
20
-2.65164355177134
30
0
41
1
10
37.9576681209469
20
-2.47239892552835
30
0
41
1
10
37.4724388196879
20
-2.3133523162916
30
0
41
1
10
36.743364102577
20
-2.02378312622051
30
0
41
1
10
36.4999615253782
20
-1.9189288670122
30
0
41
1
10
36.1331576580851
20
-1.75041381943015
30
0
41
1
10
36.0106000869849
20
-1.69238107652532
30
0
41
1
10
35.7648579574961
20
-1.57258486479574
30
0
41
1
10
35.6414840858163
20
-1.51068488886747
30
0
41
1
10
35.0273595132719
20
-1.19548074098594
30
0
41
1
10
34.5414498656955
20
-0.923749539246614
30
0
41
1
10
33.569299135388
20
-0.359755385039165
30
0
41
1
10
33.0829814980646
20
-0.0676003689934532
30
0
41
1
10
32.3440701662155
20
0.370810040822107
30
0
41
1
10
32.0985141406147
20
0.515513928580788
30
0
41
1
10
31.6101375792378
20
0.798219464314826
30
0
41
1
10
31.3669005974037
20
0.936497481009525
30
0
41
1
10
30.6376876645559
20
1.3384131877059
30
0
41
1
10
30.1520291956571
20
1.58888643256648
30
0
41
1
10
29.4159807491016
20
1.9253895799902
30
0
41
1
10
29.1688177613098
20
2.03088065982797
30
0
41
1
10
28.6789972490381
20
2.22316000884189
30
0
41
1
10
28.4352629613691
20
2.31041434228976
30
0
41
1
10
27.7052810326636
20
2.54368742139587
30
0
41
1
10
27.2202025898123
20
2.6612056905355
30
0
41
1
10
26.6086401182481
20
2.75486700831507
30
0
41
1
10
26.4860690189668
20
2.77093490882575
30
0
41
1
10
26.2401715816966
20
2.79757122839772
30
0
41
1
10
26.1166822450847
20
2.80814108419676
30
0
41
1
10
25.8239306738097
20
2.82649157006517
30
0
41
1
10
25.6547833966468
20
2.83172904617686
30
0
41
1
10
25.4860627343359
20
2.83163270675419
30
0
0
SPLINE
5
E3
100
AcDbEntity
8
1
62
256
6
ByLayer
370
18
48
1
60
0
100
AcDbSpline
70
4
71
3
72
12
73
8
40
0
40
0
40
0
40
0
40
0.490445734331518
40
0.490445734331518
40
0.745222867165759
40
0.745222867165759
40
1
40
1
40
1
40
1
41
1
10
12.0102682781949
20
-2.68664714695316
30
0
41
1
10
11.5417724765002
20
-2.77174223873166
30
0
41
1
10
11.0737260447545
20
-2.81787717025921
30
0
41
1
10
10.3554373524009
20
-2.82460441721221
30
0
41
1
10
10.1082614228393
20
-2.81552486206647
30
0
41
1
10
9.6155926929147
20
-2.7749677435861
30
0
41
1
10
9.36934474898678
20
-2.74356030515526
30
0
41
1
10
9.12265315222911
20
-2.70117774798373
30
0
0
SPLINE
5
E4
100
AcDbEntity
8
1
62
256
6
ByLayer
370
18
48
1
60
0
100
AcDbSpline
70
4
71
3
72
16
73
12
40
0
40
0
40
0
40
0
40
0.221752079465267
40
0.221752079465267
40
0.34226472029291
40
0.34226472029291
40
0.462777361120554
40
0.462777361120554
40
0.703802642775852
40
0.703802642775852
40
1
40
1
40
1
40
1
41
1
10
40.6588938387837
20
-2.70188468779543
30
0
41
1
10
40.4358649269977
20
-2.70198960567561
30
0
41
1
10
40.2125917350103
20
-2.69321740416504
30
0
41
1
10
39.86683197224
20
-2.66597920499794
30
0
41
1
10
39.7448490057795
20
-2.65376705041899
30
0
41
1
10
39.5002015092779
20
-2.62404385698042
30
0
41
1
10
39.377289249255
20
-2.60649061861474
30
0
41
1
10
39.0097413540197
20
-2.54623044590113
30
0
41
1
10
38.7660806108351
20
-2.49589590293479
30
0
41
1
10
38.2246272445594
20
-2.36309333510289
30
0
41
1
10
37.9270045116678
20
-2.27586542655536
30
0
41
1
10
37.6292040762253
20
-2.17578869675216
30
0
0
SPLINE
5
E5
100
AcDbEntity
8
1
62
256
6
ByLayer
370
13
48
1
60
0
100
AcDbSpline
70
4
71
3
72
28
73
24
40
0
40
0
40
0
40
0
40
0.0712980821664281
40
0.0712980821664281
40
0.163761438782304
40
0.163761438782304
40
0.256224795398181
40
0.256224795398181
40
0.348688152014057
40
0.348688152014057
40
0.441151508629933
40
0.441151508629933
40
0.626078221861686
40
0.626078221861686
40
0.811004935093438
40
0.811004935093438
40
0.857236613401374
40
0.857236613401374
40
0.903468291709311
40
0.903468291709311
40
0.995931648325186
40
0.995931648325186
40
1
40
1
40
1
40
1
41
1
10
37.6292050242885
20
-2.17578901535157
30
0
41
1
10
37.4423456283975
20
-2.11299437177075
30
0
41
1
10
37.2554162692407
20
-2.04514098591474
30
0
41
1
10
36.8252901133829
20
-1.87832965555998
30
0
41
1
10
36.5817263160411
20
-1.77625547654779
30
0
41
1
10
36.0916272890779
20
-1.55780320672306
30
0
41
1
10
35.8458797542615
20
-1.44163041562092
30
0
41
1
10
35.3565843943851
20
-1.19942525214515
30
0
41
1
10
35.1121337622834
20
-1.07336147736643
30
0
41
1
10
34.6223017033105
20
-0.813378296030862
30
0
41
1
10
34.3764295377318
20
-0.679111679170461
30
0
41
1
10
33.6413537126476
20
-0.271237383205488
30
0
41
1
10
33.15355828755
20
0.0080435067279154
30
0
41
1
10
32.1710590624766
20
0.561115355885136
30
0
41
1
10
31.6833715389603
20
0.830776144148984
30
0
41
1
10
31.0720143164101
20
1.14774726661528
30
0
41
1
10
30.949636294163
20
1.21012104169856
30
0
41
1
10
30.7044289407345
20
1.3324232503611
30
0
41
1
10
30.581421978934
20
1.39244017330017
30
0
41
1
10
30.2137802218755
20
1.56743846978435
30
0
41
1
10
29.9701304517058
20
1.67780488252237
30
0
41
1
10
29.7164390490153
20
1.78556257760641
30
0
41
1
10
29.7057482967453
20
1.79008981976358
30
0
41
1
10
29.6950586221878
20
1.7946027699688
30
0
0
SPLINE
5
E6
100
AcDbEntity
8
1
62
256
6
ByLayer
370
18
48
1
60
0
100
AcDbSpline
70
4
71
3
72
10
73
6
40
0
40
0
40
0
40
0
40
0.47889522026342
40
0.47889522026342
40
1
40
1
40
1
40
1
41
1
10
10.6610208292402
20
-2.68361844576847
30
0
41
1
10
10.4374145975038
20
-2.68198212881487
30
0
41
1
10
10.2131910309909
20
-2.67149678864655
30
0
41
1
10
9.74238227164432
20
-2.63075469442296
30
0
41
1
10
9.49613660570191
20
-2.59881097276309
30
0
41
1
10
9.25032970197765
20
-2.556554372411
30
0
0
SPLINE
5
E7
100
AcDbEntity
8
1
62
256
6
ByLayer
370
18
48
1
60
0
100
AcDbSpline
70
4
71
3
72
22
73
18
40
0
40
0
40
0
40
0
40
0.125
40
0.125
40
0.1875
40
0.1875
40
0.25
40
0.25
40
0.375
40
0.375
40
0.5
40
0.5
40
0.625
40
0.625
40
0.75
40
0.75
40
1
40
1
40
1
40
1
41
1
10
53.6517260839694
20
1.05248757851234
30
0
41
1
10
53.6785004784774
20
0.925913270015315
30
0
41
1
10
53.7169896455355
20
0.798790843617155
30
0
41
1
10
53.7901968484793
20
0.60738322272141
30
0
41
1
10
53.8173538898039
20
0.543144194395353
30
0
41
1
10
53.8755688986439
20
0.416748343569168
30
0
41
1
10
53.9066636188498
20
0.354424607835824
30
0
41
1
10
54.0053219342951
20
0.16981752773296
30
0
41
1
10
54.078242208141
20
0.0498906225527094
30
0
41
1
10
54.2363936657421
20
-0.184547535181082
30
0
41
1
10
54.3199835709772
20
-0.296672168633336
30
0
41
1
10
54.4940252162923
20
-0.512368480925232
30
0
41
1
10
54.5845455998847
20
-0.616017023322996
30
0
41
1
10
54.7715689689701
20
-0.816134745433061
30
0
41
1
10
54.868310897791
20
-0.912810117194738
30
0
41
1
10
55.1650471988756
20
-1.19170078227907
30
0
41
1
10
55.3691507755773
20
-1.3610474705805
30
0
41
1
10
55.5784114784067
20
-1.5167769895117
30
0
0
SPLINE
5
E8
100
AcDbEntity
8
1
62
256
6
ByLayer
370
18
48
1
60
0
100
AcDbSpline
70
4
71
3
72
12
73
8
40
0
40
0
40
0
40
0
40
0.289771956413373
40
0.289771956413373
40
0.579543912826745
40
0.579543912826745
40
1
40
1
40
1
40
1
41
1
10
9.19981709507775
20
-2.67544911962693
30
0
41
1
10
9.44595347477826
20
-2.71499335962031
30
0
41
1
10
9.69252747047801
20
-2.74372906122343
30
0
41
1
10
10.1837350669667
20
-2.7789289189794
30
0
41
1
10
10.427783489051
20
-2.78542492554365
30
0
41
1
10
11.024204689808
20
-2.77474992139003
30
0
41
1
10
11.3759480131807
20
-2.74559074628365
30
0
41
1
10
11.7284030126874
20
-2.69419862949184
30
0
0
SPLINE
5
E9
100
AcDbEntity
8
1
62
256
6
ByLayer
370
18
48
1
60
0
100
AcDbSpline
70
4
71
3
72
28
73
24
40
0
40
0
40
0
40
0
40
0.0563849352724982
40
0.0563849352724982
40
0.151306473275066
40
0.151306473275066
40
0.198767242276352
40
0.198767242276352
40
0.246228011277638
40
0.246228011277638
40
0.436071087282785
40
0.436071087282785
40
0.625914163287932
40
0.625914163287932
40
0.720835701290506
40
0.720835701290506
40
0.81575723929308
40
0.81575723929308
40
0.863218008294369
40
0.863218008294369
40
0.910678777295658
40
0.910678777295658
40
1
40
1
40
1
40
1
41
1
10
29.2585098763951
20
1.96231808565017
30
0
41
1
10
29.4026492399088
20
1.90221522957395
30
0
41
1
10
29.5468725617586
20
1.83935784180508
30
0
41
1
10
29.9344911668399
20
1.66372404443774
30
0
41
1
10
30.1783439705994
20
1.54633403483129
30
0
41
1
10
30.5464316873188
20
1.36077114681842
30
0
41
1
10
30.6695859163926
20
1.29726024117963
30
0
41
1
10
30.9150282601626
20
1.16812043014915
30
0
41
1
10
31.0375201012952
20
1.10238266724883
30
0
41
1
10
31.6494383463646
20
0.768850410697013
30
0
41
1
10
32.1376671212251
20
0.486507864839723
30
0
41
1
10
33.1211489444784
20
-0.0891420162142538
30
0
41
1
10
33.6093461777604
20
-0.378149288772136
30
0
41
1
10
34.3452703797911
20
-0.798173400805325
30
0
41
1
10
34.5914235073912
20
-0.936027753188228
30
0
41
1
10
35.0817283439336
20
-1.20205018320317
30
0
41
1
10
35.3264181140416
20
-1.33061817852476
30
0
41
1
10
35.6937732303679
20
-1.51529084616718
30
0
41
1
10
35.8163031261984
20
-1.5754595022037
30
0
41
1
10
36.0618231616447
20
-1.69255576822016
30
0
41
1
10
36.1849641189516
20
-1.74958662360842
30
0
41
1
10
36.5383415411561
20
-1.90820623289923
30
0
41
1
10
36.7677461756527
20
-2.00494348108731
30
0
41
1
10
36.9964594674355
20
-2.09425861535144
30
0
0
SPLINE
5
EA
100
AcDbEntity
8
1
62
256
6
ByLayer
370
13
48
1
60
0
100
AcDbSpline
70
4
71
3
72
20
73
16
40
0
40
0
40
0
40
0
40
0.0091132831714654
40
0.0091132831714654
40
0.318041194588686
40
0.318041194588686
40
0.472505150297298
40
0.472505150297298
40
0.549737128151604
40
0.549737128151604
40
0.62696910600591
40
0.62696910600591
40
0.935897017423143
40
0.935897017423143
40
1
40
1
40
1
40
1
41
1
10
36.9964594674003
20
-2.09425861533771
30
0
41
1
10
37.0107994698001
20
-2.09985854890391
30
0
41
1
10
37.0251367544528
20
-2.10542930529411
30
0
41
1
10
37.5253993838361
20
-2.29881791723611
30
0
41
1
10
38.0090140066631
20
-2.45227157275826
30
0
41
1
10
38.7383561124964
20
-2.62387772086268
30
0
41
1
10
38.9822562603369
20
-2.6712492612892
30
0
41
1
10
39.3503617199266
20
-2.72632813720171
30
0
41
1
10
39.4733875118751
20
-2.74202148281503
30
0
41
1
10
39.718206038034
20
-2.76781373390165
30
0
41
1
10
39.8402606867851
20
-2.77795205681989
30
0
41
1
10
40.449277075954
20
-2.81500269552092
30
0
41
1
10
40.9328167934839
20
-2.80083105899749
30
0
41
1
10
41.5189519744212
20
-2.73161448571656
30
0
41
1
10
41.6197450267225
20
-2.71786929394943
30
0
41
1
10
41.7206619784185
20
-2.70228486728251
30
0
0
SPLINE
5
EB
100
AcDbEntity
8
1
62
256
6
ByLayer
370
18
48
1
60
0
100
AcDbSpline
70
4
71
3
72
26
73
22
40
0
40
0
40
0
40
0
40
0.249999999999993
40
0.249999999999993
40
0.499999999999985
40
0.499999999999985
40
0.624999999999981
40
0.624999999999981
40
0.687499999999984
40
0.687499999999984
40
0.749999999999988
40
0.749999999999988
40
0.812499999999991
40
0.812499999999991
40
0.874999999999994
40
0.874999999999994
40
0.906249999999995
40
0.906249999999995
40
0.937499999999997
40
0.937499999999997
40
1
40
1
40
1
40
1
41
1
10
53.6517260839701
20
1.05248757851265
30
0
41
1
10
53.8449165087417
20
0.896347531636053
30
0
41
1
10
54.043111678182
20
0.752507419518167
30
0
41
1
10
54.4469798585661
20
0.50418127417592
30
0
41
1
10
54.648840406505
20
0.401282949961768
30
0
41
1
10
54.9512946076935
20
0.285190653773469
30
0
41
1
10
55.0520663528445
20
0.252898405235214
30
0
41
1
10
55.2031419646457
20
0.215799439230011
30
0
41
1
10
55.2535707920385
20
0.205317176979719
30
0
41
1
10
55.3533797834373
20
0.188656303402382
30
0
41
1
10
55.4031780121519
20
0.181462707540788
30
0
41
1
10
55.498974062889
20
0.180699879769037
30
0
41
1
10
55.543875538715
20
0.187102319389652
30
0
41
1
10
55.6263774309529
20
0.216319469957711
30
0
41
1
10
55.6640643002182
20
0.239536286011713
30
0
41
1
10
55.7078652191219
20
0.289625285347284
30
0
41
1
10
55.7204610919209
20
0.309122865618946
30
0
41
1
10
55.7397627018744
20
0.352242956827041
30
0
41
1
10
55.7466341392879
20
0.376076575264847
30
0
41
1
10
55.7584402033311
20
0.454782736588612
30
0
41
1
10
55.7546129016985
20
0.512669943417876
30
0
41
1
10
55.7440918296162
20
0.57238436358125
30
0
0
SPLINE
5
EC
100
AcDbEntity
8
1
62
256
6
ByLayer
370
18
48
1
60
0
100
AcDbSpline
70
2053
71
3
72
46
73
42
40
0
40
0
40
0
40
0
40
0.0312499999999985
40
0.0312499999999985
40
0.0624999999999971
40
0.0624999999999971
40
0.0937499999999956
40
0.0937499999999956
40
0.124999999999994
40
0.124999999999994
40
0.156249999999993
40
0.156249999999993
40
0.187499999999991
40
0.187499999999991
40
0.249999999999989
40
0.249999999999989
40
0.281249999999989
40
0.281249999999989
40
0.31249999999999
40
0.31249999999999
40
0.374999999999991
40
0.374999999999991
40
0.437499999999991
40
0.437499999999991
40
0.499999999999992
40
0.499999999999992
40
0.562499999999993
40
0.562499999999993
40
0.624999999999994
40
0.624999999999994
40
0.687499999999995
40
0.687499999999995
40
0.749999999999996
40
0.749999999999996
40
0.812499999999997
40
0.812499999999997
40
0.874999999999998
40
0.874999999999998
40
0.937499999999999
40
0.937499999999999
40
1
40
1
40
1
40
1
41
1
10
56.3575884388645
20
-1.33484672359209
30
0
41
1
10
56.3693591148912
20
-1.3177589133671
30
0
41
1
10
56.3808693093137
20
-1.29948949013891
30
0
41
1
10
56.4033284633377
20
-1.26040473509249
30
0
41
1
10
56.4143962489906
20
-1.23933884558798
30
0
41
1
10
56.4352158865684
20
-1.19548344847433
30
0
41
1
10
56.4449300356682
20
-1.17283160626806
30
0
41
1
10
56.4627709928227
20
-1.12587561048494
30
0
41
1
10
56.4707278407261
20
-1.10193423737286
30
0
41
1
10
56.4839424187794
20
-1.05505451124515
30
0
41
1
10
56.4893654907116
20
-1.03144753575876
30
0
41
1
10
56.4969871930121
20
-0.987119803085562
30
0
41
1
10
56.499260863352
20
-0.966227852002135
30
0
41
1
10
56.5014645995645
20
-0.908269932147164
30
0
41
1
10
56.4966438708542
20
-0.877785393175117
30
0
41
1
10
56.4827432024945
20
-0.845392022147195
30
0
41
1
10
56.4769404505035
20
-0.836671565408693
30
0
41
1
10
56.4637051613275
20
-0.823550238716791
30
0
41
1
10
56.4562551964568
20
-0.819056499824995
30
0
41
1
10
56.4316275211874
20
-0.811231760156289
30
0
41
1
10
56.4127530248805
20
-0.813628613643374
30
0
41
1
10
56.3712632420756
20
-0.831893042468039
30
0
41
1
10
56.3492998406071
20
-0.847455986752152
30
0
41
1
10
56.3033236002085
20
-0.89119218377175
30
0
41
1
10
56.2797268990432
20
-0.919073870174145
30
0
41
1
10
56.2332534220484
20
-0.9859727408259
30
0
41
1
10
56.2100145284484
20
-1.02564978308777
30
0
41
1
10
56.1681867214289
20
-1.11334812960993
30
0
41
1
10
56.1495161313305
20
-1.16186464138687
30
0
41
1
10
56.1229407112038
20
-1.25634532600213
30
0
41
1
10
56.1150964977168
20
-1.30227265519943
30
0
41
1
10
56.1121289186356
20
-1.37924990942682
30
0
41
1
10
56.116879608522
20
-1.41027129361092
30
0
41
1
10
56.1352754720835
20
-1.4539259258766
30
0
41
1
10
56.1489195113247
20
-1.46711520726055
30
0
41
1
10
56.1814908120836
20
-1.4778458539561
30
0
41
1
10
56.2006244947546
20
-1.47550647680589
30
0
41
1
10
56.2418579798331
20
-1.45734728854856
30
0
41
1
10
56.2642802537582
20
-1.44136759103515
30
0
41
1
10
56.3100585505851
20
-1.39750946466717
30
0
41
1
10
56.3340470868112
20
-1.36902234404207
30
0
41
1
10
56.3575884388645
20
-1.33484672359209
30
0
0
SPLINE
5
ED
100
AcDbEntity
8
1
62
256
6
ByLayer
370
18
48
1
60
0
100
AcDbSpline
70
4
71
3
72
8
73
4
40
0
40
0
40
0
40
0
40
1
40
1
40
1
40
1
41
1
10
56.0551500218953
20
-2.69929746654199
30
0
41
1
10
56.03985038141
20
-2.70706247185748
30
0
41
1
10
56.0258885166049
20
-2.71097563861716
30
0
41
1
10
56.0132891782013
20
-2.71096570242392
30
0
0
SPLINE
5
EE
100
AcDbEntity
8
1
62
256
6
ByLayer
370
18
48
1
60
0
100
AcDbSpline
70
4
71
3
72
20
73
16
40
0
40
0
40
0
40
0
40
0.124999999999998
40
0.124999999999998
40
0.249999999999997
40
0.249999999999997
40
0.499999999999998
40
0.499999999999998
40
0.624999999999998
40
0.624999999999998
40
0.749999999999999
40
0.749999999999999
40
0.874999999999999
40
0.874999999999999
40
1
40
1
40
1
40
1
41
1
10
56.013289178203
20
-2.71096570242389
30
0
41
1
10
55.9727127907029
20
-2.71094351641946
30
0
41
1
10
55.9341493172603
20
-2.70486015957735
30
0
41
1
10
55.8612562757969
20
-2.6799445538164
30
0
41
1
10
55.8267094161567
20
-2.6609216739904
30
0
41
1
10
55.7317344860852
20
-2.58434567012145
30
0
41
1
10
55.6802125359327
20
-2.50842467998052
30
0
41
1
10
55.6216695942413
20
-2.35502793844668
30
0
41
1
10
55.6052328201157
20
-2.29665187859249
30
0
41
1
10
55.5799616634765
20
-2.16919840010158
30
0
41
1
10
55.5710012783822
20
-2.10006944154063
30
0
41
1
10
55.5603705175154
20
-1.951095834997
30
0
41
1
10
55.5586992813925
20
-1.87125245165581
30
0
41
1
10
55.5629300730827
20
-1.7004336355248
30
0
41
1
10
55.5688635855714
20
-1.61012629920728
30
0
41
1
10
55.5784114784068
20
-1.51677698951173
30
0
0
SPLINE
5
EF
100
AcDbEntity
8
1
62
256
6
ByLayer
370
18
48
1
60
0
100
AcDbSpline
70
4
71
3
72
14
73
10
40
0
40
0
40
0
40
0
40
0.25
40
0.25
40
0.5
40
0.5
40
0.75
40
0.75
40
1
40
1
40
1
40
1
41
1
10
9.02630687457187
20
1.01048306873065
30
0
41
1
10
9.03729237532022
20
1.00405206974753
30
0
41
1
10
9.05189244578582
20
0.995626606684937
30
0
41
1
10
9.08553880601659
20
0.976082276769461
30
0
41
1
10
9.10490167061704
20
0.964770474821677
30
0
41
1
10
9.14528204476446
20
0.94082573686299
30
0
41
1
10
9.16654385170438
20
0.92804813825137
30
0
41
1
10
9.20857370316349
20
0.902397729089273
30
0
41
1
10
9.2298182436424
20
0.889238679517689
30
0
41
1
10
9.25059025473627
20
0.876193379671605
30
0
0
SPLINE
5
F0
100
AcDbEntity
8
SK1
62
256
6
ByLayer
370
18
48
1
60
0
100
AcDbSpline
70
4
71
3
72
8
73
4
40
0
40
0
40
0
40
0
40
1
40
1
40
1
40
1
41
1
10
-36
20
-1.53839318647485
30
0
41
1
10
-35.8061863788748
20
-1.7575943116571
30
0
41
1
10
-35.6038183496576
20
-1.97428835851625
30
0
41
1
10
-35.4
20
-2.1905256248601
30
0
0
SPLINE
5
F1
100
AcDbEntity
8
SK1
62
256
6
ByLayer
370
18
48
1
60
0
100
AcDbSpline
70
4
71
3
72
8
73
4
40
0
40
0
40
0
40
0
40
1
40
1
40
1
40
1
41
1
10
-35.4
20
-0.979387701707623
30
0
41
1
10
-35.6037671791474
20
-0.763204723759571
30
0
41
1
10
-35.8060911221566
20
-0.546564122830461
30
0
41
1
10
-36
20
-0.327255263322371
30
0
0
SPLINE
5
F2
100
AcDbEntity
8
SK1
62
256
6
ByLayer
370
18
48
1
60
0
100
AcDbSpline
70
4
71
3
72
14
73
10
40
0
40
0
40
0
40
0
40
0.500000000000001
40
0.500000000000001
40
0.75
40
0.75
40
0.875
40
0.875
40
1
40
1
40
1
40
1
41
1
10
-35.4
20
-2.19052562486078
30
0
41
1
10
-35.3787677796885
20
-2.21305155192417
30
0
41
1
10
-35.3584290958895
20
-2.23070690939701
30
0
41
1
10
-35.3303626450498
20
-2.24648402118908
30
0
41
1
10
-35.3215171954455
20
-2.24988099473896
30
0
41
1
10
-35.3102812516991
20
-2.24917449261747
30
0
41
1
10
-35.3068890218585
20
-2.24792466339389
30
0
41
1
10
-35.3017585680987
20
-2.24203664917005
30
0
41
1
10
-35.3
20
-2.23727708982531
30
0
41
1
10
-35.3
20
-2.22998466678052
30
0
0
SPLINE
5
F3
100
AcDbEntity
8
SK1
62
256
6
ByLayer
370
18
48
1
60
0
100
AcDbSpline
70
4
71
3
72
14
73
10
40
0
40
0
40
0
40
0
40
0.125
40
0.125
40
0.250000000000001
40
0.250000000000001
40
0.500000000000001
40
0.500000000000001
40
1
40
1
40
1
40
1
41
1
10
-35.3
20
-1.18033180004838
30
0
41
1
10
-35.3
20
-1.17021415766715
30
0
41
1
10
-35.3017593723636
20
-1.15901166380786
30
0
41
1
10
-35.306935341198
20
-1.13750501705505
30
0
41
1
10
-35.3102739075535
20
-1.12724251601924
30
0
41
1
10
-35.3215583577555
20
-1.0972847017002
30
0
41
1
10
-35.3303095934912
20
-1.07950296970188
30
0
41
1
10
-35.358391202053
20
-1.029430896169
30
0
41
1
10
-35.378655954467
20
-1.00203226764853
30
0
41
1
10
-35.4
20
-0.979387701707623
30
0
0
LINE
5
76
100
AcDbEntity
8
81
62
256
6
ByLayer
370
18
48
1
60
0
100
AcDbLine
10
57
20
0
30
0
11
62
21
0
31
0
39
0
210
0
220
0
230
1
0
LINE
5
77
100
AcDbEntity
8
1
62
256
6
ByLayer
370
18
48
1
60
0
100
AcDbLine
10
10.521023
20
2.822655
30
0
11
0.8
21
2.816822
31
0
39
0
210
0
220
0
230
1
0
LINE
5
79
100
AcDbEntity
8
1
62
256
6
ByLayer
370
18
48
1
60
0
100
AcDbLine
10
25.485744
20
2.831633
30
0
11
24.994176
21
2.831338
31
0
39
0
210
0
220
0
230
1
0
LINE
5
7A
100
AcDbEntity
8
1
62
256
6
ByLayer
370
18
48
1
60
0
100
AcDbLine
10
40.450494
20
2.840612
30
0
11
39.963226
21
2.84032
31
0
39
0
210
0
220
0
230
1
0
LINE
5
7B
100
AcDbEntity
8
1
62
256
6
ByLayer
370
18
48
1
60
0
100
AcDbLine
10
55.41605
20
2.849592
30
0
11
54.932306
21
2.849301
31
0
39
0
210
0
220
0
230
1
0
LINE
5
7C
100
AcDbEntity
8
1
62
256
6
ByLayer
370
18
48
1
60
0
100
AcDbLine
10
54.932306
20
-2.849301
30
0
11
55.41617
21
-2.849592
31
0
39
0
210
0
220
0
230
1
0
LINE
5
7D
100
AcDbEntity
8
1
62
256
6
ByLayer
370
18
48
1
60
0
100
AcDbLine
10
39.963226
20
-2.84032
30
0
11
40.450792
21
-2.840612
31
0
39
0
210
0
220
0
230
1
0
LINE
5
7E
100
AcDbEntity
8
1
62
256
6
ByLayer
370
18
48
1
60
0
100
AcDbLine
10
24.994176
20
-2.831338
30
0
11
25.485762
21
-2.831633
31
0
39
0
210
0
220
0
230
1
0
LINE
5
7F
100
AcDbEntity
8
1
62
256
6
ByLayer
370
18
48
1
60
0
100
AcDbLine
10
0.8
20
-2.816822
30
0
11
10.520929
21
-2.822654
31
0
39
0
210
0
220
0
230
1
0
LINE
5
80
100
AcDbEntity
8
1
62
256
6
ByLayer
370
18
48
1
60
0
100
AcDbLine
10
0.8
20
2.816822
30
0
11
0.336437
21
2.816544
31
0
39
0
210
0
220
0
230
1
0
LINE
5
81
100
AcDbEntity
8
1
62
256
6
ByLayer
370
18
48
1
60
0
100
AcDbLine
10
0.336437
20
-2.816544
30
0
11
0.8
21
-2.816822
31
0
39
0
210
0
220
0
230
1
0
LINE
5
82
100
AcDbEntity
8
SK1
62
256
6
ByLayer
370
18
48
1
60
0
100
AcDbLine
10
-35.278312
20
3
30
0
11
-36
21
1.75
31
0
39
0
210
0
220
0
230
1
0
LINE
5
84
100
AcDbEntity
8
SK1
62
256
6
ByLayer
370
18
48
1
60
0
100
AcDbLine
10
-36
20
-1.75
30
0
11
-35.278312
21
-3
31
0
39
0
210
0
220
0
230
1
0
LINE
5
85
100
AcDbEntity
8
SK1
62
256
6
ByLayer
370
18
48
1
60
0
100
AcDbLine
10
0
20
3
30
0
11
-35.278312
21
3
31
0
39
0
210
0
220
0
230
1
0
LINE
5
86
100
AcDbEntity
8
SK1
62
256
6
ByLayer
370
18
48
1
60
0
100
AcDbLine
10
-35.278312
20
-3
30
0
11
0
21
-3
31
0
39
0
210
0
220
0
230
1
0
LINE
5
87
100
AcDbEntity
8
SK4
62
256
6
ByLayer
370
18
48
0.05
60
0
100
AcDbLine
10
62
20
0
30
0
11
-41
21
0
31
0
39
0
210
0
220
0
230
1
0
LINE
5
89
100
AcDbEntity
8
4
62
256
6
ByLayer
370
18
48
0.05
60
0
100
AcDbLine
10
57
20
0
30
0
11
0
21
0
31
0
39
0
210
0
220
0
230
1
0
LINE
5
8B
100
AcDbEntity
8
80
62
256
6
ByLayer
370
18
48
1
60
0
100
AcDbLine
10
0
20
0
30
0
11
-5
21
0
31
0
39
0
210
0
220
0
230
1
0
LINE
5
8C
100
AcDbEntity
8
1
62
256
6
ByLayer
370
18
48
1
60
0
100
AcDbLine
10
56.931531
20
0.270014
30
0
11
56.862473
21
0.592099
31
0
39
0
210
0
220
0
230
1
0
LINE
5
8D
100
AcDbEntity
8
1
62
256
6
ByLayer
370
18
48
1
60
0
100
AcDbLine
10
55.578411
20
-1.516777
30
0
11
56.895249
21
-0.156466
31
0
39
0
210
0
220
0
230
1
0
LINE
5
8E
100
AcDbEntity
8
1
62
256
6
ByLayer
370
18
48
1
60
0
100
AcDbLine
10
0
20
-3
30
0
11
0
21
3
31
0
39
0
210
0
220
0
230
1
0
LINE
5
8F
100
AcDbEntity
8
1
62
256
6
ByLayer
370
18
48
1
60
0
100
AcDbLine
10
56.931531
20
-0.270014
30
0
11
56.862473
21
-0.592099
31
0
39
0
210
0
220
0
230
1
0
LINE
5
90
100
AcDbEntity
8
1
62
256
6
ByLayer
370
13
48
1
60
0
100
AcDbLine
10
0.168158
20
2.908272
30
0
11
0.168158
21
-2.908272
31
0
39
0
210
0
220
0
230
1
0
LINE
5
91
100
AcDbEntity
8
1
62
256
6
ByLayer
370
13
48
1
60
0
100
AcDbLine
10
0.336437
20
2.816544
30
0
11
0.336437
21
-2.816544
31
0
39
0
210
0
220
0
230
1
0
LINE
5
92
100
AcDbEntity
8
1
62
256
6
ByLayer
370
18
48
1
60
0
100
AcDbLine
10
57
20
0
30
0
11
56.013289
21
-2.710966
31
0
39
0
210
0
220
0
230
1
0
LINE
5
93
100
AcDbEntity
8
1
62
256
6
ByLayer
370
13
48
1
60
0
100
AcDbLine
10
56.198785
20
0.256769
30
0
11
56.895249
21
-0.156466
31
0
39
0
210
0
220
0
230
1
0
LINE
5
94
100
AcDbEntity
8
1
62
256
6
ByLayer
370
13
48
1
60
0
100
AcDbLine
10
56.388692
20
0.592099
30
0
11
56.931531
21
0.270014
31
0
39
0
210
0
220
0
230
1
0
LINE
5
95
100
AcDbEntity
8
1
62
256
6
ByLayer
370
18
48
1
60
0
100
AcDbLine
10
0.8
20
2.816822
30
0
11
0.8
21
-2.816822
31
0
39
0
210
0
220
0
230
1
0
LINE
5
96
100
AcDbEntity
8
1
62
256
6
ByLayer
370
18
48
1
60
0
100
AcDbLine
10
56.99534
20
0.028912
30
0
11
57
21
0
31
0
39
0
210
0
220
0
230
1
0
LINE
5
97
100
AcDbEntity
8
1
62
256
6
ByLayer
370
13
48
1
60
0
100
AcDbLine
10
56.862473
20
0.592099
30
0
11
56.388692
21
0.592099
31
0
39
0
210
0
220
0
230
1
0
LINE
5
98
100
AcDbEntity
8
1
62
256
6
ByLayer
370
18
48
1
60
0
100
AcDbLine
10
57
20
0
30
0
11
56.99534
21
-0.028912
31
0
39
0
210
0
220
0
230
1
0
LINE
5
99
100
AcDbEntity
8
SK1
62
256
6
ByLayer
370
18
48
1
60
0
100
AcDbLine
10
-36
20
1.75
30
0
11
-36
21
-0.327255
31
0
39
0
210
0
220
0
230
1
0
LINE
5
9A
100
AcDbEntity
8
SK1
62
256
6
ByLayer
370
18
48
1
60
0
100
AcDbLine
10
-36
20
-1.75
30
0
11
-36
21
-1.538393
31
0
39
0
210
0
220
0
230
1
0
LINE
5
9B
100
AcDbEntity
8
SK1
62
256
6
ByLayer
370
18
48
1
60
0
100
AcDbLine
10
-35.3
20
-2.229985
30
0
11
-35.3
21
-1.180332
31
0
39
0
210
0
220
0
230
1
0
LINE
5
9C
100
AcDbEntity
8
SK1
62
256
6
ByLayer
370
18
48
1
60
0
100
AcDbLine
10
-36
20
-0.327267
30
0
11
-36
21
-1.538393
31
0
39
0
210
0
220
0
230
1
0
LINE
5
9D
100
AcDbEntity
8
SK1
62
256
6
ByLayer
370
18
48
1
60
0
100
AcDbLine
10
0
20
-3
30
0
11
0
21
3
31
0
39
0
210
0
220
0
230
1
0
LINE
5
9E
100
AcDbEntity
8
SK1
62
256
6
ByLayer
370
13
48
1
60
0
100
AcDbLine
10
-35.4
20
-0.979371
30
0
11
-35.4
21
-2.190526
31
0
39
0
210
0
220
0
230
1
0
LINE
5
9F
100
AcDbEntity
8
SK1
62
256
6
ByLayer
370
18
48
1
60
0
100
AcDbLine
10
-35.278312
20
3
30
0
11
-35.278312
21
-3
31
0
39
0
210
0
220
0
230
1
0
MTEXT
5
F4
100
AcDbEntity
8
SK6
62
256
6
ByLayer
370
13
48
1
60
0
100
AcDbMText
10
12.629169
20
35.232694
30
0
210
0
220
0
230
1
1
\W0.7542;R840-0570-70-A1A1220
40
3.5
41
0
44
1.084337
50
0
71
8
72
5
7
iso_b_vert
0
DIMENSION
5
101
100
AcDbEntity
8
SK2
62
256
6
ByLayer
370
13
48
1
60
0
100
AcDbDimension
2
DimnDraft3D1
10
56.04
20
-13.063398
30
0
11
26.790059
21
-13.063398
31
0
70
32
71
5
72
1
41
1
210
0
220
0
230
1
3
Standard
100
AcDbAlignedDimension
13
0
23
-1.5875
33
0
14
56.04
24
-4.4375
34
0
50
0
100
AcDbRotatedDimension
1001
ACAD
1000
DSTYLE
1002
{
1070
   279
1070
     0
1070
   172
1070
     1
1070
   173
1070
     1
1070
   340
1005
F5
1070
   271
1070
     2
1070
   272
1070
     2
1070
    77
1070
     1
1070
    73
1070
     0
1070
   171
1070
     3
1070
   274
1070
     4
1070
   177
1070
    35
1070
   176
1070
    35
1070
   178
1070
    35
1070
    48
1040
-0.005
1070
    41
1041
3.5
1070
   147
1041
1.75
1070
    42
1041
1.5875
1070
    44
1041
2.0
1070
   140
1041
3.5
1070
   343
1005
0
1070
   344
1005
0
1002
}
0
DIMENSION
5
10B
100
AcDbEntity
8
SK2
62
256
6
ByLayer
370
13
48
1
60
0
100
AcDbDimension
2
DimnDraft3D2
10
57
20
-31.692985
30
0
11
10.8813
21
-31.692985
31
0
70
32
71
5
72
1
41
1
210
0
220
0
230
1
3
Standard
100
AcDbAlignedDimension
13
-36
23
-4.5875
33
0
14
57
24
-1.5875
34
0
50
0
100
AcDbRotatedDimension
1001
ACAD
1000
DSTYLE
1002
{
1070
   279
1070
     0
1070
   172
1070
     1
1070
   173
1070
     1
1070
   340
1005
F5
1070
   271
1070
     2
1070
   272
1070
     2
1070
    77
1070
     1
1070
    73
1070
     0
1070
   171
1070
     3
1070
   274
1070
     4
1070
   177
1070
    35
1070
   176
1070
    35
1070
   178
1070
    35
1070
    48
1040
-0.005
1070
    41
1041
3.5
1070
   147
1041
1.75
1070
    42
1041
1.5875
1070
    44
1041
2.0
1070
   140
1041
3.5
1070
   343
1005
0
1070
   344
1005
0
1002
}
0
DIMENSION
5
115
100
AcDbEntity
8
SK2
62
256
6
ByLayer
370
13
48
1
60
0
100
AcDbDimension
2
DimnDraft3D3
10
57
20
14.459119
30
0
11
33.72
21
14.459119
31
0
70
32
71
5
72
1
41
1
210
0
220
0
230
1
3
Standard
100
AcDbAlignedDimension
13
10.44
23
4.4375
33
0
14
57
24
1.5875
34
0
50
0
100
AcDbRotatedDimension
1001
ACAD
1000
DSTYLE
1002
{
1070
   279
1070
     0
1070
   172
1070
     1
1070
   173
1070
     1
1070
   340
1005
F5
1070
   271
1070
     2
1070
   272
1070
     2
1070
    77
1070
     1
1070
    73
1070
     0
1070
   171
1070
     3
1070
   274
1070
     4
1070
   177
1070
    35
1070
   176
1070
    35
1070
   178
1070
    35
1070
    48
1040
-0.005
1070
    41
1041
3.5
1070
   147
1041
1.75
1070
    42
1041
1.5875
1070
    44
1041
2.0
1070
   140
1041
3.5
1070
   343
1005
0
1070
   344
1005
0
1002
}
0
DIMENSION
5
11F
100
AcDbEntity
8
SK2
62
256
6
ByLayer
370
13
48
1
60
0
100
AcDbDimension
2
DimnDraft3D4
10
56.04
20
-15.652503
30
0
11
66.981425
21
-15.652503
31
0
70
32
71
5
72
1
41
1
210
0
220
0
230
1
3
Standard
100
AcDbAlignedDimension
13
57
23
-1.5875
33
0
14
56.04
24
-4.4375
34
0
50
0
100
AcDbRotatedDimension
1001
ACAD
1000
DSTYLE
1002
{
1070
   279
1070
     0
1070
   172
1070
     1
1070
   173
1070
     1
1070
   340
1005
F5
1070
   271
1070
     2
1070
   272
1070
     2
1070
    77
1070
     1
1070
    73
1070
     0
1070
   171
1070
     3
1070
   274
1070
     4
1070
   177
1070
    35
1070
   176
1070
    35
1070
   178
1070
    35
1070
    48
1040
-0.005
1070
    41
1041
3.5
1070
   147
1041
1.75
1070
    42
1041
1.5875
1070
    44
1041
2.0
1070
   140
1041
3.5
1070
   343
1005
0
1070
   344
1005
0
1002
}
0
DIMENSION
5
129
100
AcDbEntity
8
SK2
62
256
6
ByLayer
370
13
48
1
60
0
100
AcDbDimension
2
DimnDraft3D5
10
56.04
20
-21.343428
30
0
11
7.800676
21
-21.343428
31
0
70
32
71
5
72
1
41
1
210
0
220
0
230
1
3
Standard
100
AcDbAlignedDimension
13
-36
23
-4.5875
33
0
14
56.04
24
-4.4375
34
0
50
0
100
AcDbRotatedDimension
1001
ACAD
1000
DSTYLE
1002
{
1070
   279
1070
     0
1070
   172
1070
     1
1070
   173
1070
     1
1070
   340
1005
F5
1070
   271
1070
     2
1070
   272
1070
     2
1070
    77
1070
     1
1070
    73
1070
     0
1070
   171
1070
     3
1070
   274
1070
     4
1070
   177
1070
    35
1070
   176
1070
    35
1070
   178
1070
    35
1070
    48
1040
-0.005
1070
    41
1041
3.5
1070
   147
1041
1.75
1070
    42
1041
1.5875
1070
    44
1041
2.0
1070
   140
1041
3.5
1070
   343
1005
0
1070
   344
1005
0
1002
}
0
DIMENSION
5
134
100
AcDbEntity
8
SK2
62
256
6
ByLayer
370
13
48
1
60
0
100
AcDbDimension
2
DimnDraft3D6
10
-46.625163
20
3
30
0
11
-47.250163
21
21.47418
31
0
70
33
71
5
72
1
41
1
210
0
220
0
230
1
3
Standard
100
AcDbAlignedDimension
13
-37.5875
23
-3
33
0
14
-37.5875
24
3
34
0
1001
ACAD
1000
DSTYLE
1002
{
1070
   279
1070
     0
1070
    74
1070
     0
1070
   173
1070
     1
1070
   340
1005
F5
1070
   271
1070
     3
1070
   272
1070
     2
1070
    77
1070
     1
1070
    73
1070
     0
1070
   171
1070
     3
1070
   274
1070
     4
1070
   177
1070
    35
1070
   176
1070
    35
1070
   178
1070
    35
1070
    48
1040
-0.005
1070
    41
1041
3.5
1070
   147
1041
1.75
1070
    42
1041
1.5875
1070
    44
1041
2.0
1070
   140
1041
3.5
1070
   343
1005
0
1070
   344
1005
0
1002
}
0
DIMENSION
5
13F
100
AcDbEntity
8
2
62
256
6
ByLayer
370
13
48
1
60
0
100
AcDbDimension
2
DimnDraft3D7
10
71.083343
20
2.85
30
0
11
66.458343
21
19.917266
31
0
70
33
71
5
72
1
41
1
210
0
220
0
230
1
3
Standard
100
AcDbAlignedDimension
13
57.6275
23
-2.85
33
0
14
57.6275
24
2.85
34
0
1001
ACAD
1000
DSTYLE
1002
{
1070
   279
1070
     0
1070
    74
1070
     0
1070
   173
1070
     1
1070
   340
1005
F5
1070
   271
1070
     3
1070
   272
1070
     2
1070
    77
1070
     1
1070
    73
1070
     0
1070
   171
1070
     3
1070
   274
1070
     4
1070
   177
1070
    35
1070
   176
1070
    35
1070
   178
1070
    35
1070
    48
1040
-0.005
1070
    41
1041
3.5
1070
   147
1041
1.75
1070
    42
1041
1.5875
1070
    44
1041
2.0
1070
   140
1041
3.5
1070
   343
1005
0
1070
   344
1005
0
1002
}
0
ENDSEC
0
SECTION
2
OBJECTS
0
DICTIONARY
5
1aa
330
0
100
AcDbDictionary
280
0
281
1
3
ACAD_GROUP
350
1ab
3
ACAD_MLINESTYLE
350
1ac
0
DICTIONARY
5
1ab
330
0
100
AcDbDictionary
280
0
281
1
0
DICTIONARY
5
1ac
330
0
100
AcDbDictionary
280
0
281
1
3
Standard
350
18
0
MLINESTYLE
5
18
330
1ac
100
AcDbMlineStyle
2
Standard
70
0
3

62
256
51
90
52
90
71
2
49
-0.5
62
256
6
ByLayer
49
0.5
62
256
6
ByLayer
0
RASTERVARIABLES
5
198
330

100
AcDbRasterVariables
90
0
70
1
71
1
72
1
0
ENDSEC
0
EOF
