0
SECTION
2
HEADER
9
$ACADVER
1
AC1015
9
$DWGCODEPAGE
3
ANSI_1252
9
$HANDSEED
5
1b3
9
$ANGBASE
50
0
9
$ANGDIR
70
0
9
$ATTMODE
70
1
9
$AUNITS
70
0
9
$AUPREC
70
0
9
$CECOLOR
62
256
9
$CELTSCALE
40
1
9
$CELTYPE
6
ByLayer
9
$CELWEIGHT
370
18
9
$CLAYER
8
0
9
$CMLJUST
70
0
9
$CMLSCALE
40
1
9
$CMLSTYLE
2
Standard
9
$DIMSTYLE
2
Standard
9
$TEXTSIZE
40
0.2
9
$TEXTSTYLE
7
Standard
9
$LUNITS
70
2
9
$LUPREC
70
4
9
$EXTNAMES
290
1
9
$INSUNITS
70
4
9
$LTSCALE
40
1
9
$LWDISPLAY
290
1
9
$PDMODE
70
0
9
$PDSIZE
40
0
9
$PLINEGEN
70
0
0
ENDSEC
0
SECTION
2
CLASSES
0
CLASS
1
RASTERVARIABLES
2
AcDbRasterVariables
3
ISM
90
0
280
0
281
0
0
ENDSEC
0
SECTION
2
TABLES
0
TABLE
2
VPORT
5
1a9
100
AcDbSymbolTable
0
VPORT
5
1
100
AcDbSymbolTableRecord
100
AcDbViewportTableRecord
2
*Active
70
0
10
0
20
0
11
1
21
1
12
-1
22
1
13
0
23
0
14
0.5
24
0.5
15
10
25
10
16
0
26
0
36
1
17
0
27
0
37
0
0
ENDTAB
0
TABLE
2
LTYPE
5
1aa
100
AcDbSymbolTable
0
LTYPE
5
14
100
AcDbSymbolTableRecord
100
AcDbLinetypeTableRecord
70
0
2
ByBlock
3

72
65
73
0
40
0
0
LTYPE
5
15
100
AcDbSymbolTableRecord
100
AcDbLinetypeTableRecord
70
0
2
ByLayer
3

72
65
73
0
40
0
0
LTYPE
5
16
100
AcDbSymbolTableRecord
100
AcDbLinetypeTableRecord
70
0
2
CONTINUOUS
3
Solid line
72
65
73
0
40
0
0
LTYPE
5
6A
100
AcDbSymbolTableRecord
100
AcDbLinetypeTableRecord
70
0
2
CENTER
3
____ _ ____ _ ____ _ ____
72
65
73
4
40
47.5
49
22
74
0
49
-8.5
74
0
49
8.5
74
0
49
-8.5
74
0
0
LTYPE
5
6B
100
AcDbSymbolTableRecord
100
AcDbLinetypeTableRecord
70
0
2
DASHED
3
__ __ __ __ __ __ __ __ __
72
65
73
2
40
25.72
49
12.86
74
0
49
-12.86
74
0
0
ENDTAB
0
TABLE
2
LAYER
5
1ab
100
AcDbSymbolTable
0
LAYER
5
10
100
AcDbSymbolTableRecord
100
AcDbLayerTableRecord
2
0
70
0
62
7
6
CONTINUOUS
290
1
370
-3
390
0
0
LAYER
5
6D
100
AcDbSymbolTableRecord
100
AcDbLayerTableRecord
2
81
70
0
62
-3
6
CONTINUOUS
290
1
370
-3
390
0
0
LAYER
5
6F
100
AcDbSymbolTableRecord
100
AcDbLayerTableRecord
2
80
70
0
62
-6
6
CONTINUOUS
290
1
370
-3
390
0
0
LAYER
5
74
100
AcDbSymbolTableRecord
100
AcDbLayerTableRecord
2
2
70
0
62
7
6
CONTINUOUS
290
1
370
-3
390
0
0
LAYER
5
78
100
AcDbSymbolTableRecord
100
AcDbLayerTableRecord
2
1
70
0
62
4
6
CONTINUOUS
290
1
370
-3
390
0
0
LAYER
5
88
100
AcDbSymbolTableRecord
100
AcDbLayerTableRecord
2
4
70
0
62
-2
6
CENTER
290
1
370
-3
390
0
0
LAYER
5
195
100
AcDbSymbolTableRecord
100
AcDbLayerTableRecord
2
SK2
70
0
62
7
6
CONTINUOUS
290
1
370
-3
390
0
0
LAYER
5
196
100
AcDbSymbolTableRecord
100
AcDbLayerTableRecord
2
SK1
70
0
62
4
6
CONTINUOUS
290
1
370
-3
390
0
0
LAYER
5
197
100
AcDbSymbolTableRecord
100
AcDbLayerTableRecord
2
SK4
70
0
62
2
6
CENTER
290
1
370
-3
390
0
0
LAYER
5
198
100
AcDbSymbolTableRecord
100
AcDbLayerTableRecord
2
SK6
70
0
62
5
6
CONTINUOUS
290
1
370
-3
390
0
0
ENDTAB
0
TABLE
2
STYLE
5
1ac
100
AcDbSymbolTable
0
STYLE
5
11
100
AcDbSymbolTableRecord
100
AcDbTextStyleTableRecord
2
Standard
3
txt
70
0
71
0
40
0
41
1
42
0
50
0
0
STYLE
5
F1
100
AcDbSymbolTableRecord
100
AcDbTextStyleTableRecord
2
iso_b_vert
3
simplex.shx
70
0
71
0
40
0
41
1
42
0
50
0
0
STYLE
5
F2
100
AcDbSymbolTableRecord
100
AcDbTextStyleTableRecord
2
DWGDirectTextStyle
3
simplex
70
0
71
0
40
0
41
1
42
0
50
0
0
ENDTAB
0
TABLE
2
DIMSTYLE
5
1ad
100
AcDbSymbolTable
100
AcDbDimStyleTable
0
DIMSTYLE
105
27
100
AcDbSymbolTableRecord
100
AcDbDimStyleTableRecord
2
Standard
70
0
3
<>
41
0.18
42
0.0625
44
0.18
140
0.18
147
0.09
73
0
74
0
77
1
271
2
275
0
278
52
280
0
340
11
0
ENDTAB
0
TABLE
2
VIEW
5
1ae
100
AcDbSymbolTable
0
ENDTAB
0
TABLE
2
UCS
5
1af
100
AcDbSymbolTable
0
ENDTAB
0
TABLE
2
APPID
5
1b0
100
AcDbSymbolTable
0
APPID
5
12
100
AcDbSymbolTableRecord
100
AcDbRegAppTableRecord
2
ACAD
70
0
0
ENDTAB
0
TABLE
2
BLOCK_RECORD
5
1b1
100
AcDbSymbolTable
0
BLOCK_RECORD
5
1F
100
AcDbSymbolTableRecord
100
AcDbBlockTableRecord
2
*Model_Space
340
0
70
0
0
BLOCK_RECORD
5
1B
100
AcDbSymbolTableRecord
100
AcDbBlockTableRecord
2
*Paper_Space
340
0
70
0
0
BLOCK_RECORD
5
23
100
AcDbSymbolTableRecord
100
AcDbBlockTableRecord
2
*Paper_Space0
340
0
70
0
0
BLOCK_RECORD
5
F4
100
AcDbSymbolTableRecord
100
AcDbBlockTableRecord
2
DimnDraft3D1
340
0
70
0
0
BLOCK_RECORD
5
FE
100
AcDbSymbolTableRecord
100
AcDbBlockTableRecord
2
DimnDraft3D2
340
0
70
0
0
BLOCK_RECORD
5
108
100
AcDbSymbolTableRecord
100
AcDbBlockTableRecord
2
DimnDraft3D3
340
0
70
0
0
BLOCK_RECORD
5
112
100
AcDbSymbolTableRecord
100
AcDbBlockTableRecord
2
DimnDraft3D4
340
0
70
0
0
BLOCK_RECORD
5
11C
100
AcDbSymbolTableRecord
100
AcDbBlockTableRecord
2
DimnDraft3D5
340
0
70
0
0
BLOCK_RECORD
5
126
100
AcDbSymbolTableRecord
100
AcDbBlockTableRecord
2
DimnDraft3D6
340
0
70
0
0
BLOCK_RECORD
5
131
100
AcDbSymbolTableRecord
100
AcDbBlockTableRecord
2
DimnDraft3D7
340
0
70
0
0
ENDTAB
0
ENDSEC
0
SECTION
2
BLOCKS
0
BLOCK
5
20
100
AcDbEntity
8
0
100
AcDbBlockBegin
2
*Model_Space
70
0
10
0
20
0
30
0
3
*Model_Space
0
ENDBLK
5
21
100
AcDbEntity
8
0
100
AcDbBlockEnd
0
BLOCK
5
1C
100
AcDbEntity
8
0
100
AcDbBlockBegin
2
*Paper_Space
70
0
10
0
20
0
30
0
3
*Paper_Space
0
ENDBLK
5
1D
100
AcDbEntity
8
0
100
AcDbBlockEnd
0
BLOCK
5
24
100
AcDbEntity
8
0
100
AcDbBlockBegin
2
*Paper_Space0
70
0
10
0
20
0
30
0
3
*Paper_Space0
0
ENDBLK
5
25
100
AcDbEntity
8
0
100
AcDbBlockEnd
0
BLOCK
5
FB
100
AcDbEntity
8
0
100
AcDbBlockBegin
2
DimnDraft3D1
70
0
10
0
20
0
30
0
3
DimnDraft3D1
0
MTEXT
5
F5
100
AcDbEntity
8
SK2
62
256
6
ByLayer
370
13
48
1
60
0
100
AcDbMText
10
22.351375
20
-12.138398
30
0
210
0
220
0
230
1
1
\W0.7317;56,05
40
3.5
41
0
44
1.084337
50
0
71
7
72
5
7
iso_b_vert
0
LINE
5
F6
100
AcDbEntity
8
SK2
62
256
6
ByLayer
370
13
48
1
60
0
100
AcDbLine
10
0
20
-1.5875
30
0
11
0
21
-15.013398
31
0
39
0
210
0
220
0
230
1
0
LINE
5
F7
100
AcDbEntity
8
SK2
62
256
6
ByLayer
370
13
48
1
60
0
100
AcDbLine
10
56.05
20
-4.3875
30
0
11
56.05
21
-15.013398
31
0
39
0
210
0
220
0
230
1
0
LINE
5
F8
100
AcDbEntity
8
SK2
62
256
6
ByLayer
370
13
48
1
60
0
100
AcDbLine
10
0
20
-13.013398
30
0
11
56.05
21
-13.013398
31
0
39
0
210
0
220
0
230
1
0
SOLID
5
F9
100
AcDbEntity
8
SK2
62
256
6
ByLayer
370
13
48
1
60
0
100
AcDbTrace
10
0
20
-13.013398
30
0
11
3.499998
21
-12.552615
31
0
12
3.500002
22
-13.474182
32
0
13
0
23
-13.013398
33
0
39
0
210
0
220
0
230
1
0
SOLID
5
FA
100
AcDbEntity
8
SK2
62
256
6
ByLayer
370
13
48
1
60
0
100
AcDbTrace
10
56.05
20
-13.013398
30
0
11
52.550002
21
-13.474182
31
0
12
52.549998
22
-12.552615
32
0
13
56.05
23
-13.013398
33
0
39
0
210
0
220
0
230
1
0
ENDBLK
5
FC
100
AcDbEntity
8
0
100
AcDbBlockEnd
0
BLOCK
5
105
100
AcDbEntity
8
0
100
AcDbBlockBegin
2
DimnDraft3D2
70
0
10
0
20
0
30
0
3
DimnDraft3D2
0
MTEXT
5
FF
100
AcDbEntity
8
SK2
62
256
6
ByLayer
370
13
48
1
60
0
100
AcDbMText
10
6.442616
20
-30.817985
30
0
210
0
220
0
230
1
1
\W0.7317;93,00
40
3.5
41
0
44
1.084337
50
0
71
7
72
5
7
iso_b_vert
0
LINE
5
100
100
AcDbEntity
8
SK2
62
256
6
ByLayer
370
13
48
1
60
0
100
AcDbLine
10
-36
20
-4.5875
30
0
11
-36
21
-33.692985
31
0
39
0
210
0
220
0
230
1
0
LINE
5
101
100
AcDbEntity
8
SK2
62
256
6
ByLayer
370
13
48
1
60
0
100
AcDbLine
10
57
20
-1.5875
30
0
11
57
21
-33.692985
31
0
39
0
210
0
220
0
230
1
0
LINE
5
102
100
AcDbEntity
8
SK2
62
256
6
ByLayer
370
13
48
1
60
0
100
AcDbLine
10
-36
20
-31.692985
30
0
11
57
21
-31.692985
31
0
39
0
210
0
220
0
230
1
0
SOLID
5
103
100
AcDbEntity
8
SK2
62
256
6
ByLayer
370
13
48
1
60
0
100
AcDbTrace
10
-36
20
-31.692985
30
0
11
-32.500002
21
-31.232202
31
0
12
-32.499998
22
-32.153769
32
0
13
-36
23
-31.692985
33
0
39
0
210
0
220
0
230
1
0
SOLID
5
104
100
AcDbEntity
8
SK2
62
256
6
ByLayer
370
13
48
1
60
0
100
AcDbTrace
10
57
20
-31.692985
30
0
11
53.500002
21
-32.153769
31
0
12
53.499998
22
-31.232202
32
0
13
57
23
-31.692985
33
0
39
0
210
0
220
0
230
1
0
ENDBLK
5
106
100
AcDbEntity
8
0
100
AcDbBlockEnd
0
BLOCK
5
10F
100
AcDbEntity
8
0
100
AcDbBlockBegin
2
DimnDraft3D3
70
0
10
0
20
0
30
0
3
DimnDraft3D3
0
MTEXT
5
109
100
AcDbEntity
8
SK2
62
256
6
ByLayer
370
13
48
1
60
0
100
AcDbMText
10
29.492105
20
15.284119
30
0
210
0
220
0
230
1
1
\W0.7581;45,75
40
3.5
41
0
44
1.084337
50
0
71
7
72
5
7
iso_b_vert
0
LINE
5
10A
100
AcDbEntity
8
SK2
62
256
6
ByLayer
370
13
48
1
60
0
100
AcDbLine
10
11.25
20
4.3875
30
0
11
11.25
21
16.409119
31
0
39
0
210
0
220
0
230
1
0
LINE
5
10B
100
AcDbEntity
8
SK2
62
256
6
ByLayer
370
13
48
1
60
0
100
AcDbLine
10
57
20
1.5875
30
0
11
57
21
16.409119
31
0
39
0
210
0
220
0
230
1
0
LINE
5
10C
100
AcDbEntity
8
SK2
62
256
6
ByLayer
370
13
48
1
60
0
100
AcDbLine
10
11.25
20
14.409119
30
0
11
57
21
14.409119
31
0
39
0
210
0
220
0
230
1
0
SOLID
5
10D
100
AcDbEntity
8
SK2
62
256
6
ByLayer
370
13
48
1
60
0
100
AcDbTrace
10
11.25
20
14.409119
30
0
11
14.749998
21
14.869903
31
0
12
14.750002
22
13.948335
32
0
13
11.25
23
14.409119
33
0
39
0
210
0
220
0
230
1
0
SOLID
5
10E
100
AcDbEntity
8
SK2
62
256
6
ByLayer
370
13
48
1
60
0
100
AcDbTrace
10
57
20
14.409119
30
0
11
53.500002
21
13.948335
31
0
12
53.499998
22
14.869903
32
0
13
57
23
14.409119
33
0
39
0
210
0
220
0
230
1
0
ENDBLK
5
110
100
AcDbEntity
8
0
100
AcDbBlockEnd
0
BLOCK
5
119
100
AcDbEntity
8
0
100
AcDbBlockBegin
2
DimnDraft3D4
70
0
10
0
20
0
30
0
3
DimnDraft3D4
0
MTEXT
5
113
100
AcDbEntity
8
SK2
62
256
6
ByLayer
370
13
48
1
60
0
100
AcDbMText
10
63.840636
20
-14.727503
30
0
210
0
220
0
230
1
1
\W0.7150;0,95
40
3.5
41
0
44
1.084337
50
0
71
7
72
5
7
iso_b_vert
0
LINE
5
114
100
AcDbEntity
8
SK2
62
256
6
ByLayer
370
13
48
1
60
0
100
AcDbLine
10
57
20
-1.5875
30
0
11
57
21
-17.602503
31
0
39
0
210
0
220
0
230
1
0
LINE
5
115
100
AcDbEntity
8
SK2
62
256
6
ByLayer
370
13
48
1
60
0
100
AcDbLine
10
56.05
20
-4.3875
30
0
11
56.05
21
-17.602503
31
0
39
0
210
0
220
0
230
1
0
LINE
5
116
100
AcDbEntity
8
SK2
62
256
6
ByLayer
370
13
48
1
60
0
100
AcDbLine
10
47.3
20
-15.602503
30
0
11
70.997215
21
-15.602503
31
0
39
0
210
0
220
0
230
1
0
SOLID
5
117
100
AcDbEntity
8
SK2
62
256
6
ByLayer
370
13
48
1
60
0
100
AcDbTrace
10
57
20
-15.602503
30
0
11
60.499998
21
-15.141719
31
0
12
60.500002
22
-16.063287
32
0
13
57
23
-15.602503
33
0
39
0
210
0
220
0
230
1
0
SOLID
5
118
100
AcDbEntity
8
SK2
62
256
6
ByLayer
370
13
48
1
60
0
100
AcDbTrace
10
56.05
20
-15.602503
30
0
11
52.550002
21
-16.063287
31
0
12
52.549998
22
-15.141719
32
0
13
56.05
23
-15.602503
33
0
39
0
210
0
220
0
230
1
0
ENDBLK
5
11A
100
AcDbEntity
8
0
100
AcDbBlockEnd
0
BLOCK
5
123
100
AcDbEntity
8
0
100
AcDbBlockBegin
2
DimnDraft3D5
70
0
10
0
20
0
30
0
3
DimnDraft3D5
0
MTEXT
5
11D
100
AcDbEntity
8
SK2
62
256
6
ByLayer
370
13
48
1
60
0
100
AcDbMText
10
3.361992
20
-20.468428
30
0
210
0
220
0
230
1
1
\W0.7317;92,05
40
3.5
41
0
44
1.084337
50
0
71
7
72
5
7
iso_b_vert
0
LINE
5
11E
100
AcDbEntity
8
SK2
62
256
6
ByLayer
370
13
48
1
60
0
100
AcDbLine
10
-36
20
-4.5875
30
0
11
-36
21
-23.343428
31
0
39
0
210
0
220
0
230
1
0
LINE
5
11F
100
AcDbEntity
8
SK2
62
256
6
ByLayer
370
13
48
1
60
0
100
AcDbLine
10
56.05
20
-4.3875
30
0
11
56.05
21
-23.343428
31
0
39
0
210
0
220
0
230
1
0
LINE
5
120
100
AcDbEntity
8
SK2
62
256
6
ByLayer
370
13
48
1
60
0
100
AcDbLine
10
-36
20
-21.343428
30
0
11
56.05
21
-21.343428
31
0
39
0
210
0
220
0
230
1
0
SOLID
5
121
100
AcDbEntity
8
SK2
62
256
6
ByLayer
370
13
48
1
60
0
100
AcDbTrace
10
-36
20
-21.343428
30
0
11
-32.500002
21
-20.882645
31
0
12
-32.499998
22
-21.804212
32
0
13
-36
23
-21.343428
33
0
39
0
210
0
220
0
230
1
0
SOLID
5
122
100
AcDbEntity
8
SK2
62
256
6
ByLayer
370
13
48
1
60
0
100
AcDbTrace
10
56.05
20
-21.343428
30
0
11
52.550002
21
-21.804212
31
0
12
52.549998
22
-20.882645
32
0
13
56.05
23
-21.343428
33
0
39
0
210
0
220
0
230
1
0
ENDBLK
5
124
100
AcDbEntity
8
0
100
AcDbBlockEnd
0
BLOCK
5
12E
100
AcDbEntity
8
0
100
AcDbBlockBegin
2
DimnDraft3D6
70
0
10
0
20
0
30
0
3
DimnDraft3D6
0
MTEXT
5
127
100
AcDbEntity
8
SK2
62
256
6
ByLayer
370
13
48
1
60
0
100
AcDbMText
10
-46.375163
20
22.34918
30
0
210
0
220
0
230
1
1
\W0.7317;6,000
40
3.5
41
0
44
1.084337
50
90
71
7
72
5
7
iso_b_vert
0
MTEXT
5
128
100
AcDbEntity
8
SK2
62
256
6
ByLayer
370
13
48
1
60
0
100
AcDbMText
10
-46.375163
20
17.126524
30
0
210
0
220
0
230
1
1
%%c
40
3.5
41
0
44
1.084337
50
90
71
7
72
5
7
iso_b_vert
0
LINE
5
129
100
AcDbEntity
8
SK2
62
256
6
ByLayer
370
13
48
1
60
0
100
AcDbLine
10
-37.5875
20
-3
30
0
11
-46.625163
21
-3
31
0
39
0
210
0
220
0
230
1
0
LINE
5
12A
100
AcDbEntity
8
SK2
62
256
6
ByLayer
370
13
48
1
60
0
100
AcDbLine
10
-37.5875
20
3
30
0
11
-46.625163
21
3
31
0
39
0
210
0
220
0
230
1
0
LINE
5
12B
100
AcDbEntity
8
SK2
62
256
6
ByLayer
370
13
48
1
60
0
100
AcDbLine
10
-44.625163
20
32.121549
30
0
11
-44.625163
21
-11.75
31
0
39
0
210
0
220
0
230
1
0
SOLID
5
12C
100
AcDbEntity
8
SK2
62
256
6
ByLayer
370
13
48
1
60
0
100
AcDbTrace
10
-44.625163
20
-3
30
0
11
-44.164379
21
-6.499998
31
0
12
-45.085946
22
-6.500002
32
0
13
-44.625163
23
-3
33
0
39
0
210
0
220
0
230
1
0
SOLID
5
12D
100
AcDbEntity
8
SK2
62
256
6
ByLayer
370
13
48
1
60
0
100
AcDbTrace
10
-44.625163
20
3
30
0
11
-45.085946
21
6.499998
31
0
12
-44.164379
22
6.500002
32
0
13
-44.625163
23
3
33
0
39
0
210
0
220
0
230
1
0
ENDBLK
5
12F
100
AcDbEntity
8
0
100
AcDbBlockEnd
0
BLOCK
5
139
100
AcDbEntity
8
0
100
AcDbBlockBegin
2
DimnDraft3D7
70
0
10
0
20
0
30
0
3
DimnDraft3D7
0
MTEXT
5
132
100
AcDbEntity
8
2
62
256
6
ByLayer
370
13
48
1
60
0
100
AcDbMText
10
67.333343
20
20.742266
30
0
210
0
220
0
230
1
1
\W0.7317;5,600
40
3.5
41
0
44
1.084337
50
90
71
7
72
5
7
iso_b_vert
0
MTEXT
5
133
100
AcDbEntity
8
2
62
256
6
ByLayer
370
13
48
1
60
0
100
AcDbMText
10
67.333343
20
15.51961
30
0
210
0
220
0
230
1
1
%%c
40
3.5
41
0
44
1.084337
50
90
71
7
72
5
7
iso_b_vert
0
LINE
5
134
100
AcDbEntity
8
2
62
256
6
ByLayer
370
13
48
1
60
0
100
AcDbLine
10
57.6375
20
-2.8
30
0
11
71.083343
21
-2.8
31
0
39
0
210
0
220
0
230
1
0
LINE
5
135
100
AcDbEntity
8
2
62
256
6
ByLayer
370
13
48
1
60
0
100
AcDbLine
10
57.6375
20
2.8
30
0
11
71.083343
21
2.8
31
0
39
0
210
0
220
0
230
1
0
LINE
5
136
100
AcDbEntity
8
2
62
256
6
ByLayer
370
13
48
1
60
0
100
AcDbLine
10
69.083343
20
30.514635
30
0
11
69.083343
21
-11.55
31
0
39
0
210
0
220
0
230
1
0
SOLID
5
137
100
AcDbEntity
8
2
62
256
6
ByLayer
370
13
48
1
60
0
100
AcDbTrace
10
69.083343
20
-2.8
30
0
11
69.544126
21
-6.299998
31
0
12
68.622559
22
-6.300002
32
0
13
69.083343
23
-2.8
33
0
39
0
210
0
220
0
230
1
0
SOLID
5
138
100
AcDbEntity
8
2
62
256
6
ByLayer
370
13
48
1
60
0
100
AcDbTrace
10
69.083343
20
2.8
30
0
11
68.622559
21
6.299998
31
0
12
69.544126
22
6.300002
32
0
13
69.083343
23
2.8
33
0
39
0
210
0
220
0
230
1
0
ENDBLK
5
13A
100
AcDbEntity
8
0
100
AcDbBlockEnd
0
ENDSEC
0
SECTION
2
ENTITIES
0
ARC
5
9D
100
AcDbEntity
8
1
62
256
6
ByLayer
370
18
48
1
60
0
100
AcDbCircle
39
0
10
0
20
2.8
30
0
40
0.199999999999999
210
0
220
0
230
1
100
AcDbArc
50
24.606005
51
90
0
ARC
5
9E
100
AcDbEntity
8
1
62
256
6
ByLayer
370
18
48
1
60
0
100
AcDbCircle
39
0
10
-0.363677
20
2.96655
30
0
40
0.199999999999998
210
0
220
0
230
-1
100
AcDbArc
50
269.965623
51
335.393995
0
ARC
5
9F
100
AcDbEntity
8
1
62
256
6
ByLayer
370
18
48
1
60
0
100
AcDbCircle
39
0
10
-0.363677
20
-2.96655
30
0
40
0.199999999999998
210
0
220
0
230
-1
100
AcDbArc
50
24.606005
51
90.034377
0
ARC
5
A0
100
AcDbEntity
8
1
62
256
6
ByLayer
370
18
48
1
60
0
100
AcDbCircle
39
0
10
0
20
-2.8
30
0
40
0.199999999999999
210
0
220
0
230
1
100
AcDbArc
50
270
51
335.393995
0
ELLIPSE
5
A1
100
AcDbEntity
8
1
62
256
6
ByLayer
370
18
48
1
60
0
100
AcDbEllipse
10
56.436637
20
1.418083
30
0
11
0.436111509020173
21
-1.17459539607409
31
0
210
0
220
0
230
-1
40
0.131755
41
-1.48137617396302
42
-0.736518128024465
0
ELLIPSE
5
A2
100
AcDbEntity
8
1
62
256
6
ByLayer
370
18
48
1
60
0
100
AcDbEllipse
10
57.05652
20
0.01699
30
0
11
0.135544944424069
21
0.427068210051645
31
0
210
0
220
0
230
-1
40
0.100282
41
-2.33653286891148
42
-1.70905320472257
0
ELLIPSE
5
A3
100
AcDbEntity
8
1
62
256
6
ByLayer
370
18
48
1
60
0
100
AcDbEllipse
10
57.05652
20
-0.01699
30
0
11
0.135544944360478
21
-0.427068209891109
31
0
210
0
220
0
230
-1
40
0.100282
41
1.70905320448265
42
2.33653286887925
0
ELLIPSE
5
A4
100
AcDbEntity
8
1
62
256
6
ByLayer
370
13
48
1
60
0
100
AcDbEllipse
10
9.2502
20
-2.602783
30
0
11
0.017465872093935
21
0.0984629032275522
31
0
210
0
220
0
230
1
40
0.473111
41
0.356034733089878
42
1.89968466600871
0
ELLIPSE
5
A5
100
AcDbEntity
8
1
62
256
6
ByLayer
370
18
48
1
60
0
100
AcDbEllipse
10
57.00026
20
0.000612
30
0
11
1.03855815572295
21
2.79718740317445
31
0
210
0
220
0
230
-1
40
0.131755
41
2.84783619003719
42
2.96460939747854
0
ELLIPSE
5
A6
100
AcDbEntity
8
1
62
256
6
ByLayer
370
13
48
1
60
0
100
AcDbEllipse
10
9.174971
20
-2.608457
30
0
11
0.0344347208924903
21
-0.0938842372129438
31
0
210
0
220
0
230
1
40
0.557781
41
-2.79916008204725
42
-1.50578573458802
0
ELLIPSE
5
A7
100
AcDbEntity
8
1
62
256
6
ByLayer
370
13
48
1
60
0
100
AcDbEllipse
10
56.801776
20
1.418083
30
0
11
1.76184792560464
21
-0.825655524598197
31
0
210
0
220
0
230
-1
40
0.475307
41
1.57786895912947
42
1.86029994729051
0
ELLIPSE
5
A8
100
AcDbEntity
8
1
62
256
6
ByLayer
370
18
48
1
60
0
100
AcDbEllipse
10
56.436637
20
-1.418083
30
0
11
0.436111509036988
21
1.17459539610905
31
0
210
0
220
0
230
-1
40
0.131755
41
0.736518128024549
42
1.48137617394278
0
ELLIPSE
5
A9
100
AcDbEntity
8
1
62
256
6
ByLayer
370
18
48
1
60
0
100
AcDbEllipse
10
56.860742
20
0.099172
30
0
11
0.0727819104924657
21
0.301917195716828
31
0
210
0
220
0
230
-1
40
0.478434
41
1.69097746239096
42
2.4597611997312
0
ELLIPSE
5
AA
100
AcDbEntity
8
1
62
256
6
ByLayer
370
18
48
1
60
0
100
AcDbEllipse
10
57.00026
20
-0.000612
30
0
11
1.03855815504718
21
-2.79718740117713
31
0
210
0
220
0
230
-1
40
0.131755
41
-2.96460939741622
42
-2.84783618993083
0
ELLIPSE
5
AB
100
AcDbEntity
8
1
62
256
6
ByLayer
370
13
48
1
60
0
100
AcDbEllipse
10
56.611869
20
1.294885
30
0
11
1.69423334535714
21
-1.16652783611233
31
0
210
0
220
0
230
-1
40
0.533762
41
1.4448462273992
42
1.70834782018196
0
ELLIPSE
5
AC
100
AcDbEntity
8
1
62
256
6
ByLayer
370
13
48
1
60
0
100
AcDbEllipse
10
56.396885
20
0.374393
30
0
11
0.153082081612419
21
0.258003636193773
31
0
210
0
220
0
230
1
40
0.454519
41
0.917105603404795
42
2.31336900500034
0
POINT
5
6C
100
AcDbEntity
8
81
62
256
6
ByLayer
370
18
48
1
60
0
100
AcDbPoint
10
57
20
0
30
0
39
0
210
0
220
0
230
1
50
360
0
POINT
5
6E
100
AcDbEntity
8
80
62
256
6
ByLayer
370
18
48
1
60
0
100
AcDbPoint
10
0
20
0
30
0
39
0
210
0
220
0
230
1
50
360
0
POINT
5
70
100
AcDbEntity
8
SK2
62
256
6
ByLayer
370
18
48
1
60
1
100
AcDbPoint
10
-36
20
-3
30
0
39
0
210
0
220
0
230
1
50
360
0
POINT
5
72
100
AcDbEntity
8
SK2
62
256
6
ByLayer
370
18
48
1
60
1
100
AcDbPoint
10
-36
20
3
30
0
39
0
210
0
220
0
230
1
50
360
0
POINT
5
73
100
AcDbEntity
8
2
62
256
6
ByLayer
370
18
48
1
60
1
100
AcDbPoint
10
56.05
20
-2.8
30
0
39
0
210
0
220
0
230
1
50
360
0
POINT
5
75
100
AcDbEntity
8
2
62
256
6
ByLayer
370
18
48
1
60
1
100
AcDbPoint
10
56.05
20
2.8
30
0
39
0
210
0
220
0
230
1
50
360
0
SPLINE
5
AD
100
AcDbEntity
8
1
62
256
6
ByLayer
370
18
48
1
60
0
100
AcDbSpline
70
4
71
3
72
11
73
7
40
0
40
0
40
0
40
0
40
0.154158055026135
40
0.357464132751995
40
0.64073523175885
40
1
40
1
40
1
40
1
41
1
10
18.7400648294903
20
-0.706232176600253
30
0
41
1
10
18.7399210798931
20
-0.706031975848049
30
0
41
1
10
18.7434772415752
20
-0.707441786793368
30
0
41
1
10
18.7721284656509
20
-0.722502857938622
30
0
41
1
10
18.8619415439064
20
-0.77125472726982
30
0
41
1
10
18.9380663302541
20
-0.813623948823533
30
0
41
1
10
18.9873330942231
20
-0.8412419275611
30
0
0
SPLINE
5
AE
100
AcDbEntity
8
1
62
256
6
ByLayer
370
18
48
1
60
0
100
AcDbSpline
70
4
71
3
72
10
73
6
40
0
40
0
40
0
40
0
40
0.190677600128952
40
0.556288678706246
40
1
40
1
40
1
40
1
41
1
10
33.7098659142511
20
-0.709617954716123
30
0
41
1
10
33.7109148214498
20
-0.71031238568176
30
0
41
1
10
33.7289843444664
20
-0.719028985109389
30
0
41
1
10
33.7961689773382
20
-0.751961544204818
30
0
41
1
10
33.8671246506286
20
-0.792282117578964
30
0
41
1
10
33.9132810654329
20
-0.819118906701618
30
0
0
SPLINE
5
AF
100
AcDbEntity
8
1
62
256
6
ByLayer
370
18
48
1
60
0
100
AcDbSpline
70
4
71
3
72
21
73
17
40
0
40
0
40
0
40
0
40
0.0944579606728434
40
0.16495480867337
40
0.213086324529049
40
0.256241692243363
40
0.301787686708358
40
0.387890601706155
40
0.468077526071312
40
0.52948091101021
40
0.601260236213384
40
0.682998172069528
40
0.742183441971029
40
0.80937895567076
40
0.905097917224971
40
1
40
1
40
1
40
1
41
1
10
10.6786761418446
20
-2.63578469184006
30
0
41
1
10
10.9126624157251
20
-2.63595755509621
30
0
41
1
10
11.3214639854221
20
-2.6362572292758
30
0
41
1
10
11.8504468403019
20
-2.63675250123273
30
0
41
1
10
12.2516816770262
20
-2.63698128972925
30
0
41
1
10
12.5911022179193
20
-2.63697980108211
30
0
41
1
10
13.0248895803131
20
-2.63689161029552
30
0
41
1
10
13.5505371336465
20
-2.63837676944831
30
0
41
1
10
14.1155485162767
20
-2.63730853994554
30
0
41
1
10
14.6450096100927
20
-2.63837311451044
30
0
41
1
10
15.1783235250619
20
-2.6393846487222
30
0
41
1
10
15.7061282609323
20
-2.63770945007468
30
0
41
1
10
16.2225582112594
20
-2.63952831128074
30
0
41
1
10
16.7736752066404
20
-2.64033659929177
30
0
41
1
10
17.4134297626732
20
-2.64007296572234
30
0
41
1
10
17.8864201069022
20
-2.6407344721444
30
0
41
1
10
18.1218987342412
20
-2.64111897101074
30
0
0
SPLINE
5
B0
100
AcDbEntity
8
1
62
256
6
ByLayer
370
18
48
1
60
0
100
AcDbSpline
70
4
71
3
72
21
73
17
40
0
40
0
40
0
40
0
40
0.0962352431435341
40
0.168781067879946
40
0.217737022333754
40
0.254960686122421
40
0.293957099185716
40
0.391325459938969
40
0.478297781612882
40
0.5339437909497
40
0.602457116661476
40
0.683413925648096
40
0.742452355693791
40
0.809877465410082
40
0.905555206544558
40
1
40
1
40
1
40
1
41
1
10
40.6296041264979
20
-2.65382318128269
30
0
41
1
10
40.8672765286487
20
-2.65403623864131
30
0
41
1
10
41.2842942248503
20
-2.65427789159563
30
0
41
1
10
41.8230933674043
20
-2.65404004137187
30
0
41
1
10
42.2155669900599
20
-2.65401624131528
30
0
41
1
10
42.5247227396402
20
-2.65472528996864
30
0
41
1
10
42.9541224157261
20
-2.65593119562809
30
0
41
1
10
43.5065834870633
20
-2.65422401329798
30
0
41
1
10
44.100230332772
20
-2.65649443323014
30
0
41
1
10
44.6225018878486
20
-2.65630520842618
30
0
41
1
10
45.1298891789591
20
-2.65404362307629
30
0
41
1
10
45.6456637242175
20
-2.65789186308174
30
0
41
1
10
46.1587552832797
20
-2.65697980819076
30
0
41
1
10
46.7082366280048
20
-2.65584337624
30
0
41
1
10
47.3453193225124
20
-2.65619476561841
30
0
41
1
10
47.8155920878882
20
-2.6571415155957
30
0
41
1
10
48.0492012146071
20
-2.65784329420191
30
0
0
SPLINE
5
B1
100
AcDbEntity
8
1
62
256
6
ByLayer
370
18
48
1
60
0
100
AcDbSpline
70
4
71
3
72
22
73
18
40
0
40
0
40
0
40
0
40
0.0885154478086671
40
0.156704962274307
40
0.209861024674812
40
0.262557400420588
40
0.315605619701497
40
0.369355498856159
40
0.42838740976283
40
0.495607775238527
40
0.602951179591106
40
0.702657572142215
40
0.781834112067171
40
0.824975646417966
40
0.868580790359713
40
0.934662493040799
40
1
40
1
40
1
40
1
41
1
10
25.7031698751929
20
-2.64470804219891
30
0
41
1
10
25.9210634197029
20
-2.64473589914408
30
0
41
1
10
26.3068211099803
20
-2.64492178310712
30
0
41
1
10
26.8234445870427
20
-2.64548845228688
30
0
41
1
10
27.251901562781
20
-2.64617527014818
30
0
41
1
10
27.6430783308299
20
-2.64583784268012
30
0
41
1
10
28.0357210844099
20
-2.64554185065512
30
0
41
1
10
28.4439579479999
20
-2.64676114182475
30
0
41
1
10
28.8870856052476
20
-2.64703578534676
30
0
41
1
10
29.4621484717239
20
-2.64857389305701
30
0
41
1
10
30.1373401096605
20
-2.64490325634418
30
0
41
1
10
30.8419630940044
20
-2.65074642279822
30
0
41
1
10
31.3885369354794
20
-2.6469825596366
30
0
41
1
10
31.7970055103819
20
-2.64813571071161
30
0
41
1
10
32.1732325203682
20
-2.64892773979616
30
0
41
1
10
32.6041036079374
20
-2.64990526860672
30
0
41
1
10
32.9276295487343
20
-2.6496969943768
30
0
41
1
10
33.088476878815
20
-2.64944371216978
30
0
0
SPLINE
5
B2
100
AcDbEntity
8
1
62
256
6
ByLayer
370
18
48
1
60
0
100
AcDbSpline
70
4
71
2
72
6
73
3
40
0
40
0
40
0
40
1
40
1
40
1
41
1
10
55.580209959318
20
-2.66282241147766
30
0
41
1
10
55.8052665867739
20
-2.6605262496995
30
0
41
1
10
56.030336177378
20
-2.66348368424252
30
0
0
SPLINE
5
B3
100
AcDbEntity
8
1
62
256
6
ByLayer
370
18
48
1
60
0
100
AcDbSpline
70
4
71
3
72
21
73
17
40
0
40
0
40
0
40
0
40
0.0720195373283661
40
0.158535253925994
40
0.220645876649553
40
0.308544890149424
40
0.398007774762412
40
0.48167234892686
40
0.570150297539987
40
0.635307641151332
40
0.703429958627992
40
0.773929428437891
40
0.844080454191523
40
0.90900084992227
40
0.982013883475485
40
1
40
1
40
1
40
1
41
1
10
48.0330472518104
20
2.6578517109167
30
0
41
1
10
47.8864750646854
20
2.65761950861736
30
0
41
1
10
47.5637124805675
20
2.65715501802481
30
0
41
1
10
47.1140556686483
20
2.65521256074743
30
0
41
1
10
46.6318421299274
20
2.6559237778321
30
0
41
1
10
46.1451573754512
20
2.65703540372698
30
0
41
1
10
45.612799717846
20
2.65796123356503
30
0
41
1
10
45.0797401111284
20
2.65401618890428
30
0
41
1
10
44.5961026701997
20
2.6563972666475
30
0
41
1
10
44.1441560176087
20
2.65650442440929
30
0
41
1
10
43.7288501368998
20
2.65449992175462
30
0
41
1
10
43.3033628964358
20
2.65529484223649
30
0
41
1
10
42.8844045979739
20
2.6556842537785
30
0
41
1
10
42.4603129090102
20
2.65446795578143
30
0
41
1
10
42.1425799124927
20
2.65418809402627
30
0
41
1
10
41.9571241682144
20
2.65419314732836
30
0
41
1
10
41.9204681633757
20
2.65419864270942
30
0
0
SPLINE
5
B4
100
AcDbEntity
8
1
62
256
6
ByLayer
370
18
48
1
60
0
100
AcDbSpline
70
4
71
3
72
21
73
17
40
0
40
0
40
0
40
0
40
0.0770614684266713
40
0.166302455350648
40
0.230225747497214
40
0.320577771078546
40
0.412767104568801
40
0.498707164105539
40
0.585690368815249
40
0.646991055207404
40
0.712212222051397
40
0.781738573080582
40
0.851683733989911
40
0.91612961078674
40
0.989774760836688
40
1
40
1
40
1
40
1
41
1
10
18.1146880748726
20
2.64089433714193
30
0
41
1
10
17.9582057927157
20
2.64031245200562
30
0
41
1
10
17.6204645239482
20
2.63935704315048
30
0
41
1
10
17.1526736364234
20
2.64106394092781
30
0
41
1
10
16.657920019102
20
2.63987251385882
30
0
41
1
10
16.1574616381764
20
2.63939897953409
30
0
41
1
10
15.6119140765961
20
2.6378078489293
30
0
41
1
10
15.073308685387
20
2.63948630358635
30
0
41
1
10
14.5974363132381
20
2.63811606302281
30
0
41
1
10
14.1636629721781
20
2.63741956294965
30
0
41
1
10
13.7653614114594
20
2.6382420570373
30
0
41
1
10
13.3494899622505
20
2.63750957409684
30
0
41
1
10
12.9351954331564
20
2.63692570729572
30
0
41
1
10
12.5125221625145
20
2.63697251529464
30
0
41
1
10
12.2112214411868
20
2.63698315535248
30
0
41
1
10
12.0408194116233
20
2.63691026151392
30
0
41
1
10
12.0200442619241
20
2.63690033214976
30
0
0
SPLINE
5
B5
100
AcDbEntity
8
1
62
256
6
ByLayer
370
18
48
1
60
0
100
AcDbSpline
70
4
71
3
72
11
73
7
40
0
40
0
40
0
40
0
40
0.0667080603350783
40
0.238961332679824
40
0.457346361641862
40
1
40
1
40
1
40
1
41
1
10
48.6867739081564
20
-0.714685579012212
30
0
41
1
10
48.6872287515724
20
-0.715048556554393
30
0
41
1
10
48.6906486136224
20
-0.717218346458992
30
0
41
1
10
48.713415862924
20
-0.72924432794224
30
0
41
1
10
48.7842067906964
20
-0.766872910710958
30
0
41
1
10
48.8589270328745
20
-0.807704725421274
30
0
41
1
10
48.9233017255265
20
-0.843185785287915
30
0
0
SPLINE
5
B6
100
AcDbEntity
8
1
62
256
6
ByLayer
370
18
48
1
60
0
100
AcDbSpline
70
4
71
3
72
20
73
16
40
0
40
0
40
0
40
0
40
0.0634090179340618
40
0.137602232153222
40
0.187412915601319
40
0.230741931792566
40
0.275222226182428
40
0.321310717258694
40
0.454439935733487
40
0.606808638552104
40
0.723970281160133
40
0.822547405679245
40
0.917632098765356
40
0.992310842854809
40
1
40
1
40
1
40
1
41
1
10
33.0877291008637
20
2.64951735610248
30
0
41
1
10
32.9580020842206
20
2.64979301868018
30
0
41
1
10
32.6764849011267
20
2.65016501784049
30
0
41
1
10
32.2930652060555
20
2.64871303991512
30
0
41
1
10
31.950720208523
20
2.64880379894237
30
0
41
1
10
31.6691716648104
20
2.64751280736419
30
0
41
1
10
31.3952309276853
20
2.6475156611105
30
0
41
1
10
30.9375761052139
20
2.64954789363515
30
0
41
1
10
30.2591915351716
20
2.64595459891538
30
0
41
1
10
29.4354038591545
20
2.6484395784079
30
0
41
1
10
28.6823003312883
20
2.64701888343242
30
0
41
1
10
28.0463941522217
20
2.64543395144295
30
0
41
1
10
27.4974041398384
20
2.64606679749875
30
0
41
1
10
27.134355897357
20
2.64600147730383
30
0
41
1
10
26.9658423365803
20
2.64581276985027
30
0
41
1
10
26.9501113796815
20
2.64579398469255
30
0
0
SPLINE
5
B7
100
AcDbEntity
8
1
62
256
6
ByLayer
370
18
48
1
60
0
100
AcDbSpline
70
4
71
3
72
50
73
46
40
0
40
0
40
0
40
0
40
0.0632231179250211
40
0.0632231179250211
40
0.126446235850042
40
0.126446235850042
40
0.189669353775063
40
0.189669353775063
40
0.252892471700085
40
0.252892471700085
40
0.284504030662596
40
0.284504030662596
40
0.316115589625107
40
0.316115589625107
40
0.37933870755013
40
0.37933870755013
40
0.410950266512641
40
0.410950266512641
40
0.442561825475153
40
0.442561825475153
40
0.505784943400175
40
0.505784943400175
40
0.537396502362687
40
0.537396502362687
40
0.569008061325199
40
0.569008061325199
40
0.632231179250222
40
0.632231179250222
40
0.663842738212733
40
0.663842738212733
40
0.695454297175243
40
0.695454297175243
40
0.758677415100264
40
0.758677415100264
40
0.790288974062775
40
0.790288974062775
40
0.821900533025286
40
0.821900533025286
40
0.885123650950307
40
0.885123650950307
40
0.916735209912818
40
0.916735209912818
40
0.948346768875329
40
0.948346768875329
40
1
40
1
40
1
40
1
41
1
10
14.7805721625804
20
1.51034332007492
30
0
41
1
10
14.9963793612197
20
1.4035407361518
30
0
41
1
10
15.2121016435365
20
1.29418628498485
30
0
41
1
10
15.6422607286949
20
1.06894449409981
30
0
41
1
10
15.8566349967186
20
0.952946478972393
30
0
41
1
10
16.2836029681182
20
0.713479903431505
30
0
41
1
10
16.497566756135
20
0.592285004392579
30
0
41
1
10
16.9266406748533
20
0.347430487357883
30
0
41
1
10
17.1415432812004
20
0.223422796807853
30
0
41
1
10
17.4639415455027
20
0.033979224755825
30
0
41
1
10
17.5715747308839
20
-0.0294630964942826
30
0
41
1
10
17.7879463808927
20
-0.155536013731904
30
0
41
1
10
17.8961710921602
20
-0.218174180719217
30
0
41
1
10
18.2199746924765
20
-0.404841202618712
30
0
41
1
10
18.4350495711573
20
-0.527783462898157
30
0
41
1
10
18.7558215932561
20
-0.711019274783183
30
0
41
1
10
18.8625076930941
20
-0.771772315787416
30
0
41
1
10
19.0763982253801
20
-0.890977434711118
30
0
41
1
10
19.1834739241659
20
-0.949651487869801
30
0
41
1
10
19.5048458360189
20
-1.1233291634079
30
0
41
1
10
19.7193212176877
20
-1.23594925290379
30
0
41
1
10
20.040749948709
20
-1.40097003693793
30
0
41
1
10
20.1478078891767
20
-1.45536996205467
30
0
41
1
10
20.3629276536053
20
-1.56116006002557
30
0
41
1
10
20.4708905768442
20
-1.61270842232341
30
0
41
1
10
20.7956965449585
20
-1.76376080366788
30
0
41
1
10
21.0123339068361
20
-1.85908889167715
30
0
41
1
10
21.3355596152474
20
-1.99419239705827
30
0
41
1
10
21.4429849178721
20
-2.03802892491302
30
0
41
1
10
21.6584046706382
20
-2.12187656156613
30
0
41
1
10
21.7663604259183
20
-2.16195234856639
30
0
41
1
10
22.0906246828307
20
-2.27709964502341
30
0
41
1
10
22.3077278253979
20
-2.34716547489137
30
0
41
1
10
22.6313942381003
20
-2.44172741509593
30
0
41
1
10
22.7389002344379
20
-2.47158567773769
30
0
41
1
10
22.9542333789344
20
-2.52708302461846
30
0
41
1
10
23.0621129284198
20
-2.55270655407111
30
0
41
1
10
23.3860179049921
20
-2.62360834429342
30
0
41
1
10
23.6024162886507
20
-2.66293784824666
30
0
41
1
10
23.9268052795434
20
-2.71001624151842
30
0
41
1
10
24.0345091324473
20
-2.72370102575528
30
0
41
1
10
24.2499662028492
20
-2.746691554954
30
0
41
1
10
24.3578548575301
20
-2.75597724296682
30
0
41
1
10
24.6421788600981
20
-2.77485229201304
30
0
41
1
10
24.8187079594988
20
-2.78093100436462
30
0
41
1
10
24.9951617265189
20
-2.7813224884294
30
0
0
SPLINE
5
B8
100
AcDbEntity
8
1
62
256
6
ByLayer
370
18
48
1
60
0
100
AcDbSpline
70
4
71
3
72
78
73
74
40
0
40
0
40
0
40
0
40
0.0196140111782924
40
0.0196140111782924
40
0.0543906085032826
40
0.0543906085032826
40
0.0891672058282726
40
0.0891672058282726
40
0.123943803153263
40
0.123943803153263
40
0.158720400478253
40
0.158720400478253
40
0.193496997803243
40
0.193496997803243
40
0.228273595128234
40
0.228273595128234
40
0.263050192453224
40
0.263050192453224
40
0.297826789778214
40
0.297826789778214
40
0.332603387103204
40
0.332603387103204
40
0.367379984428194
40
0.367379984428194
40
0.402156581753184
40
0.402156581753184
40
0.419544880415679
40
0.419544880415679
40
0.436933179078173
40
0.436933179078173
40
0.471709776403162
40
0.471709776403162
40
0.489098075065656
40
0.489098075065656
40
0.50648637372815
40
0.50648637372815
40
0.541262971053141
40
0.541262971053141
40
0.558651269715635
40
0.558651269715635
40
0.576039568378129
40
0.576039568378129
40
0.61081616570312
40
0.61081616570312
40
0.628204464365614
40
0.628204464365614
40
0.645592763028108
40
0.645592763028108
40
0.680369360353098
40
0.680369360353098
40
0.697757659015594
40
0.697757659015594
40
0.715145957678089
40
0.715145957678089
40
0.749922555003077
40
0.749922555003077
40
0.767310853665571
40
0.767310853665571
40
0.784699152328064
40
0.784699152328064
40
0.819475749653051
40
0.819475749653051
40
0.854252346978038
40
0.854252346978038
40
0.889028944303025
40
0.889028944303025
40
0.923805541628012
40
0.923805541628012
40
0.958582138952999
40
0.958582138952999
40
0.993358736277986
40
0.993358736277986
40
1
40
1
40
1
40
1
41
1
10
36.3808829359969
20
2.0316050274462
30
0
41
1
10
36.5028942886803
20
2.08037404286006
30
0
41
1
10
36.6250560631203
20
2.12701605945756
30
0
41
1
10
36.9630016664963
20
2.25055510242615
30
0
41
1
10
37.178169663221
20
2.32337772729423
30
0
41
1
10
37.608446547425
20
2.45456243472014
30
0
41
1
10
37.8249618554052
20
2.51209452246087
30
0
41
1
10
38.2576788800273
20
2.6118913905153
30
0
41
1
10
38.4724533701977
20
2.65397771996621
30
0
41
1
10
38.8998584530358
20
2.72177694631054
30
0
41
1
10
39.1137733941821
20
2.74696614145822
30
0
41
1
10
39.5410474847384
20
2.78104383180408
30
0
41
1
10
39.7542573113254
20
2.78991851777116
30
0
41
1
10
40.180050877962
20
2.79069452138052
30
0
41
1
10
40.3940309122216
20
2.78261904908891
30
0
41
1
10
40.8236531595455
20
2.74982257053438
30
0
41
1
10
41.039529476805
20
2.72499874144236
30
0
41
1
10
41.4706832707693
20
2.65768061029357
30
0
41
1
10
41.6863538064359
20
2.61601740561898
30
0
41
1
10
42.1180149842437
20
2.51744275005169
30
0
41
1
10
42.3337908193694
20
2.46041312215343
30
0
41
1
10
42.764596654136
20
2.32974668693885
30
0
41
1
10
42.9808978655093
20
2.25720607069212
30
0
41
1
10
43.4128219769224
20
2.10003591478173
30
0
41
1
10
43.6285823177169
20
2.01503161766146
30
0
41
1
10
43.9512910166426
20
1.87686629200161
30
0
41
1
10
44.0588180328237
20
1.82915022879016
30
0
41
1
10
44.2747199273305
20
1.7316341914057
30
0
41
1
10
44.383028952169
20
1.68163100972092
30
0
41
1
10
44.7074149046786
20
1.52825769728077
30
0
41
1
10
44.9233137680757
20
1.42145689969181
30
0
41
1
10
45.2459533122317
20
1.25331172930453
30
0
41
1
10
45.3533210752753
20
1.19595580516517
30
0
41
1
10
45.5688155268519
20
1.08036826784686
30
0
41
1
10
45.6768150099003
20
1.02194885321029
30
0
41
1
10
46.0012955771957
20
0.844410747470903
30
0
41
1
10
46.21779671632
20
0.723355748204824
30
0
41
1
10
46.5406301160573
20
0.537458786436616
30
0
41
1
10
46.6479424500614
20
0.474631959561009
30
0
41
1
10
46.8631928572891
20
0.349322256432316
30
0
41
1
10
46.9710401925462
20
0.286690080054541
30
0
41
1
10
47.2949341917438
20
0.0983438143640569
30
0
41
1
10
47.5117693887326
20
-0.027971626359431
30
0
41
1
10
47.8350824920816
20
-0.218115965143255
30
0
41
1
10
47.9424688033999
20
-0.281801270175123
30
0
41
1
10
48.1576592148777
20
-0.407749846230359
30
0
41
1
10
48.2654448730163
20
-0.470049004973902
30
0
41
1
10
48.5890208631572
20
-0.655540972918374
30
0
41
1
10
48.8050769497372
20
-0.777256788002916
30
0
41
1
10
49.1290573334492
20
-0.957871890330637
30
0
41
1
10
49.2366522734759
20
-1.01778022369308
30
0
41
1
10
49.451952701274
20
-1.13525113580653
30
0
41
1
10
49.5597607944825
20
-1.19270879208168
30
0
41
1
10
49.8832882907747
20
-1.36191290128863
30
0
41
1
10
50.0991494045725
20
-1.47045115168808
30
0
41
1
10
50.422590256427
20
-1.62766273532691
30
0
41
1
10
50.5303367859105
20
-1.67932475421361
30
0
41
1
10
50.7458620929876
20
-1.77964409293403
30
0
41
1
10
50.853556693708
20
-1.82798639555779
30
0
41
1
10
51.1761990856831
20
-1.96812565566944
30
0
41
1
10
51.3906855145627
20
-2.05509925943875
30
0
41
1
10
51.8176735885379
20
-2.21721368543999
30
0
41
1
10
52.0298743417898
20
-2.29251268336961
30
0
41
1
10
52.4564318991754
20
-2.42689044510263
30
0
41
1
10
52.6701455718694
20
-2.48674759498178
30
0
41
1
10
53.0976561981628
20
-2.59227655099852
30
0
41
1
10
53.3110006950473
20
-2.63809283089287
30
0
41
1
10
53.7417481226616
20
-2.71243469109393
30
0
41
1
10
53.9587046525755
20
-2.7414071920534
30
0
41
1
10
54.389839718145
20
-2.78255047349359
30
0
41
1
10
54.6040622936422
20
-2.79477652569682
30
0
41
1
10
54.8605731355332
20
-2.79890908318839
30
0
41
1
10
54.9017391321879
20
-2.79926078305354
30
0
41
1
10
54.9429315050846
20
-2.79930120306196
30
0
0
SPLINE
5
B9
100
AcDbEntity
8
1
62
256
6
ByLayer
370
18
48
1
60
0
100
AcDbSpline
70
4
71
3
72
29
73
25
40
0
40
0
40
0
40
0
40
0.0624999999999999
40
0.0624999999999999
40
0.125
40
0.125
40
0.25
40
0.25
40
0.3125
40
0.3125
40
0.375
40
0.375
40
0.5
40
0.5
40
0.5625
40
0.5625
40
0.625
40
0.6875
40
0.6875
40
0.75
40
0.75
40
0.875
40
0.875
40
1
40
1
40
1
40
1
41
1
10
9.02717039606617
20
-2.6045273469631
30
0
41
1
10
9.02717705024563
20
-2.57307756172662
30
0
41
1
10
9.02718212251472
20
-2.53740463031318
30
0
41
1
10
9.02718970026771
20
-2.45759099973731
30
0
41
1
10
9.0271921928732
20
-2.4134137233263
30
0
41
1
10
9.02719668886539
20
-2.27054730542247
30
0
41
1
10
9.02719581084961
20
-2.16096947196479
30
0
41
1
10
9.02719257540534
20
-1.97514199010462
30
0
41
1
10
9.02719116285229
20
-1.90921659045881
30
0
41
1
10
9.02718833356144
20
-1.77185018358532
30
0
41
1
10
9.02718692427271
20
-1.70063108740777
30
0
41
1
10
9.02718352874189
20
-1.4795740672821
30
0
41
1
10
9.027182399091
20
-1.32240876258771
30
0
41
1
10
9.02718503550221
20
-1.07148034755039
30
0
41
1
10
9.02718663056331
20
-0.985940364661701
30
0
41
1
10
9.02719143492007
20
-0.8133182670976
30
0
41
1
10
9.02719785847486
20
-0.638496128260897
30
0
41
1
10
9.02720775249225
20
-0.459319446516673
30
0
41
1
10
9.02721942124015
20
-0.277924051692764
30
0
41
1
10
9.02722618691507
20
-0.185643782230983
30
0
41
1
10
9.02724860208318
20
0.0891257107844297
30
0
41
1
10
9.02726644351395
20
0.270655551675418
30
0
41
1
10
9.02730540428928
20
0.630466873429782
30
0
41
1
10
9.02732670471758
20
0.810077493333154
30
0
41
1
10
9.02734675885617
20
0.980553415086519
30
0
0
SPLINE
5
BA
100
AcDbEntity
8
1
62
256
6
ByLayer
370
18
48
1
60
0
100
AcDbSpline
70
2053
71
3
72
46
73
42
40
0
40
0
40
0
40
0
40
0.0312499999999989
40
0.0312499999999989
40
0.0624999999999977
40
0.0624999999999977
40
0.0937499999999966
40
0.0937499999999966
40
0.124999999999995
40
0.124999999999995
40
0.156249999999994
40
0.156249999999994
40
0.187499999999993
40
0.187499999999993
40
0.249999999999991
40
0.249999999999991
40
0.281249999999991
40
0.281249999999991
40
0.312499999999992
40
0.312499999999992
40
0.374999999999993
40
0.374999999999993
40
0.437499999999993
40
0.437499999999993
40
0.499999999999994
40
0.499999999999994
40
0.562499999999995
40
0.562499999999995
40
0.624999999999996
40
0.624999999999996
40
0.687499999999997
40
0.687499999999997
40
0.749999999999998
40
0.749999999999998
40
0.812499999999998
40
0.812499999999998
40
0.874999999999999
40
0.874999999999999
40
0.937499999999999
40
0.937499999999999
40
1
40
1
40
1
40
1
41
1
10
56.3575884388646
20
-1.33484672359219
30
0
41
1
10
56.3693591148913
20
-1.31775891336721
30
0
41
1
10
56.3808693093136
20
-1.29948949013905
30
0
41
1
10
56.4033284633376
20
-1.26040473509264
30
0
41
1
10
56.4143962489906
20
-1.23933884558812
30
0
41
1
10
56.4352158865684
20
-1.19548344847448
30
0
41
1
10
56.4449300356682
20
-1.1728316062682
30
0
41
1
10
56.4627709928226
20
-1.12587561048508
30
0
41
1
10
56.470727840726
20
-1.101934237373
30
0
41
1
10
56.4839424187793
20
-1.05505451124526
30
0
41
1
10
56.4893654907115
20
-1.03144753575887
30
0
41
1
10
56.4969871930121
20
-0.987119803085704
30
0
41
1
10
56.499260863352
20
-0.966227852002277
30
0
41
1
10
56.5014645995645
20
-0.908269932147306
30
0
41
1
10
56.4966438708543
20
-0.87778539317523
30
0
41
1
10
56.4827432024946
20
-0.845392022147337
30
0
41
1
10
56.4769404505035
20
-0.836671565408807
30
0
41
1
10
56.4637051613275
20
-0.823550238716905
30
0
41
1
10
56.4562551964568
20
-0.819056499825081
30
0
41
1
10
56.4316275211874
20
-0.811231760156375
30
0
41
1
10
56.4127530248806
20
-0.813628613643459
30
0
41
1
10
56.3712632420757
20
-0.831893042468096
30
0
41
1
10
56.3492998406071
20
-0.84745598675218
30
0
41
1
10
56.3033236002085
20
-0.891192183771778
30
0
41
1
10
56.2797268990432
20
-0.919073870174174
30
0
41
1
10
56.2332534220485
20
-0.9859727408259
30
0
41
1
10
56.2100145284484
20
-1.02564978308774
30
0
41
1
10
56.1681867214289
20
-1.11334812960988
30
0
41
1
10
56.1495161313305
20
-1.16186464138681
30
0
41
1
10
56.1229407112038
20
-1.2563453260021
30
0
41
1
10
56.1150964977169
20
-1.30227265519943
30
0
41
1
10
56.1121289186357
20
-1.37924990942682
30
0
41
1
10
56.116879608522
20
-1.41027129361095
30
0
41
1
10
56.1352754720835
20
-1.45392592587663
30
0
41
1
10
56.1489195113246
20
-1.46711520726058
30
0
41
1
10
56.1814908120836
20
-1.47784585395613
30
0
41
1
10
56.2006244947546
20
-1.47550647680592
30
0
41
1
10
56.241857979833
20
-1.45734728854862
30
0
41
1
10
56.2642802537581
20
-1.4413675910352
30
0
41
1
10
56.310058550585
20
-1.39750946466725
30
0
41
1
10
56.3340470868112
20
-1.36902234404215
30
0
41
1
10
56.3575884388646
20
-1.33484672359219
30
0
0
SPLINE
5
BB
100
AcDbEntity
8
1
62
256
6
ByLayer
370
13
48
1
60
0
100
AcDbSpline
70
4
71
3
72
8
73
4
40
0
40
0
40
0
40
0
40
1
40
1
40
1
40
1
41
1
10
9.12495182839641
20
-2.63372259936625
30
0
41
1
10
9.14852979348598
20
-2.62476249387893
30
0
41
1
10
9.17411241437094
20
-2.62255588608264
30
0
41
1
10
9.20047112110024
20
-2.62676564208326
30
0
0
SPLINE
5
BC
100
AcDbEntity
8
1
62
256
6
ByLayer
370
18
48
1
60
0
100
AcDbSpline
70
4
71
3
72
10
73
6
40
0
40
0
40
0
40
0
40
0.5
40
0.5
40
1
40
1
40
1
40
1
41
1
10
9.08271977709089
20
-2.64178664987952
30
0
41
1
10
9.06626270653044
20
-2.63729232020629
30
0
41
1
10
9.05247995755596
20
-2.63182632063553
30
0
41
1
10
9.03299705715719
20
-2.61927068616728
30
0
41
1
10
9.02716878705462
20
-2.61213205467445
30
0
41
1
10
9.02717039606614
20
-2.60452734696449
30
0
0
SPLINE
5
BD
100
AcDbEntity
8
1
62
256
6
ByLayer
370
18
48
1
60
0
100
AcDbSpline
70
4
71
3
72
66
73
62
40
0
40
0
40
0
40
0
40
0.0345899254353677
40
0.0345899254353677
40
0.0706962386330445
40
0.0706962386330445
40
0.106802551830721
40
0.106802551830721
40
0.142908865028398
40
0.142908865028398
40
0.179015178226074
40
0.179015178226074
40
0.215121491423751
40
0.215121491423751
40
0.251227804621428
40
0.251227804621428
40
0.287334117819105
40
0.287334117819105
40
0.323440431016781
40
0.323440431016781
40
0.359546744214458
40
0.359546744214458
40
0.395653057412135
40
0.395653057412135
40
0.431759370609812
40
0.431759370609812
40
0.467865683807489
40
0.467865683807489
40
0.485918840406327
40
0.485918840406327
40
0.503971997005166
40
0.503971997005166
40
0.540078310202846
40
0.540078310202846
40
0.576184623400525
40
0.576184623400525
40
0.612290936598204
40
0.612290936598204
40
0.648397249795884
40
0.648397249795884
40
0.666450406394722
40
0.666450406394722
40
0.684503562993561
40
0.684503562993561
40
0.720609876191239
40
0.720609876191239
40
0.756716189388917
40
0.756716189388917
40
0.792822502586594
40
0.792822502586594
40
0.828928815784272
40
0.828928815784272
40
0.86503512898195
40
0.86503512898195
40
0.901141442179627
40
0.901141442179627
40
0.937247755377305
40
0.937247755377305
40
0.973354068574983
40
0.973354068574983
40
1
40
1
40
1
40
1
41
1
10
18.1185102155352
20
2.6403671025567
30
0
41
1
10
18.3295246657541
20
2.64128866889359
30
0
41
1
10
18.5403821048721
20
2.63450126546846
30
0
41
1
10
18.9711930793308
20
2.60262253288215
30
0
41
1
10
19.1910798796575
20
2.57756864172731
30
0
41
1
10
19.6312925794233
20
2.51235292035159
30
0
41
1
10
19.8521000741062
20
2.47238899712866
30
0
41
1
10
20.2923254854761
20
2.37599026594285
30
0
41
1
10
20.511994768194
20
2.32092459702258
30
0
41
1
10
20.9514449455583
20
2.19312654433074
30
0
41
1
10
21.1722567902244
20
2.12163734773662
30
0
41
1
10
21.6132273513716
20
1.96680066372929
30
0
41
1
10
21.8331465988542
20
1.88381613131673
30
0
41
1
10
22.2725226499108
20
1.70464328483305
30
0
41
1
10
22.4926323060649
20
1.60990545366187
30
0
41
1
10
22.9338634738283
20
1.40957278257781
30
0
41
1
10
23.1542806768383
20
1.30360134485642
30
0
41
1
10
23.5938988592824
20
1.08474929137313
30
0
41
1
10
23.8139754144767
20
0.972658324781492
30
0
41
1
10
24.2545106209736
20
0.74269556541833
30
0
41
1
10
24.4753258059616
20
0.623735966615016
30
0
41
1
10
24.9154010061224
20
0.382663076078131
30
0
41
1
10
25.1355255919736
20
0.261554612106465
30
0
41
1
10
25.5758376534106
20
0.0182219164437356
30
0
41
1
10
25.7959423201889
20
-0.104416180022866
30
0
41
1
10
26.236905686467
20
-0.349403304645563
30
0
41
1
10
26.4572432106675
20
-0.469945603926078
30
0
41
1
10
26.7875530852105
20
-0.648518087902715
30
0
41
1
10
26.8975973194245
20
-0.707801652317698
30
0
41
1
10
27.1176271296486
20
-0.825011311109535
30
0
41
1
10
27.2275929315869
20
-0.883077866706373
30
0
41
1
10
27.5578027316685
20
-1.05513760180798
30
0
41
1
10
27.7789434303166
20
-1.16610529031277
30
0
41
1
10
28.2198507159766
20
-1.3802683162445
30
0
41
1
10
28.4398320223658
20
-1.4840351716656
30
0
41
1
10
28.8797532078344
20
-1.68111598126006
30
0
41
1
10
29.100627898911
20
-1.77483056033029
30
0
41
1
10
29.5420969844243
20
-1.94846262538323
30
0
41
1
10
29.762171085384
20
-2.02866383104089
30
0
41
1
10
30.0920277196317
20
-2.14024426875608
30
0
41
1
10
30.2020695710065
20
-2.17582801163675
30
0
41
1
10
30.4223536542962
20
-2.24419732551178
30
0
41
1
10
30.5325616101211
20
-2.27685882635339
30
0
41
1
10
30.8635812534612
20
-2.36779921285122
30
0
41
1
10
31.0843217717596
20
-2.4198511193824
30
0
41
1
10
31.5242929609582
20
-2.50863495458449
30
0
41
1
10
31.7445149114959
20
-2.5459485192639
30
0
41
1
10
32.185316228199
20
-2.60412312675646
30
0
41
1
10
32.4062245494285
20
-2.62486617503629
30
0
41
1
10
32.846571872203
20
-2.64956610264289
30
0
41
1
10
33.0667053915442
20
-2.65268537465323
30
0
41
1
10
33.5070896870054
20
-2.64152974351293
30
0
41
1
10
33.7272222152489
20
-2.62784658331964
30
0
41
1
10
34.1680510616702
20
-2.58513664399843
30
0
41
1
10
34.3879760354463
20
-2.55508595780324
30
0
41
1
10
34.8258675240233
20
-2.47977702721604
30
0
41
1
10
35.0438566325626
20
-2.43369746617361
30
0
41
1
10
35.4789897266292
20
-2.32593568573114
30
0
41
1
10
35.6967557698279
20
-2.26479952355683
30
0
41
1
10
36.0754813404866
20
-2.14830077594135
30
0
41
1
10
36.2363009632089
20
-2.09509000803229
30
0
41
1
10
36.397348283857
20
-2.03781950014738
30
0
0
SPLINE
5
BE
100
AcDbEntity
8
1
62
256
6
ByLayer
370
18
48
1
60
0
100
AcDbSpline
70
4
71
3
72
24
73
20
40
0
40
0
40
0
40
0
40
0.0721385842724581
40
0.0721385842724581
40
0.188121261238401
40
0.188121261238401
40
0.304103938204344
40
0.304103938204344
40
0.420086615170286
40
0.420086615170286
40
0.536069292136229
40
0.536069292136229
40
0.652051969102172
40
0.652051969102172
40
0.768034646068114
40
0.768034646068114
40
0.884017323034058
40
0.884017323034058
40
1
40
1
40
1
40
1
41
1
10
48.0317152669717
20
2.65823062221929
30
0
41
1
10
48.1683899582967
20
2.65868823234786
30
0
41
1
10
48.3051132498315
20
2.65568860296611
30
0
41
1
10
48.6620101526137
20
2.63925430671415
30
0
41
1
10
48.8818592376276
20
2.62100985993067
30
0
41
1
10
49.3213197369509
20
2.56830683380818
30
0
41
1
10
49.54082139613
20
2.53313929655394
30
0
41
1
10
49.9801408575296
20
2.44644892984292
30
0
41
1
10
50.2007173359491
20
2.39565484999301
30
0
41
1
10
50.640495388032
20
2.28024120372601
30
0
41
1
10
50.8599174017045
20
2.21452457334936
30
0
41
1
10
51.2986662850761
20
2.06846794354277
30
0
41
1
10
51.5189645850267
20
1.98868690020171
30
0
41
1
10
51.9594033618103
20
1.8172471886466
30
0
41
1
10
52.1790360145252
20
1.72574737079574
30
0
41
1
10
52.6176856005287
20
1.53180039425121
30
0
41
1
10
52.8373593176762
20
1.42998307399157
30
0
41
1
10
53.2777874135284
20
1.21695821261392
30
0
41
1
10
53.4980562088239
20
1.10596611812713
30
0
41
1
10
53.7174401373795
20
0.991900955333023
30
0
0
SPLINE
5
BF
100
AcDbEntity
8
1
62
256
6
ByLayer
370
18
48
1
60
0
100
AcDbSpline
70
4
71
3
72
14
73
10
40
0
40
0
40
0
40
0
40
0.25
40
0.25
40
0.5
40
0.5
40
0.75
40
0.75
40
1
40
1
40
1
40
1
41
1
10
9.25063400535089
20
0.850560047022327
30
0
41
1
10
9.43257863579868
20
0.738142903296563
30
0
41
1
10
9.61598777063389
20
0.625903666407567
30
0
41
1
10
9.98550720163018
20
0.401867910097451
30
0
41
1
10
10.1721538482431
20
0.289767540282981
30
0
41
1
10
10.5454692037847
20
0.0685621691865492
30
0
41
1
10
10.7320458994799
20
-0.0404683929725422
30
0
41
1
10
11.1058016241931
20
-0.254524618992036
30
0
41
1
10
11.2929750103392
20
-0.359586602781008
30
0
41
1
10
11.480847117311
20
-0.461742446060185
30
0
0
SPLINE
5
C0
100
AcDbEntity
8
1
62
256
6
ByLayer
370
18
48
1
60
0
100
AcDbSpline
70
4
71
3
72
14
73
10
40
0
40
0
40
0
40
0
40
0.347617780166629
40
0.347617780166629
40
0.599696391218242
40
0.599696391218242
40
0.851775002269855
40
0.851775002269855
40
1
40
1
40
1
40
1
41
1
10
55.6169038796643
20
-2.66283019987679
30
0
41
1
10
55.2807535846204
20
-2.66210318982499
30
0
41
1
10
54.9453665909356
20
-2.64140619430683
30
0
41
1
10
54.3653661174203
20
-2.57194850115897
30
0
41
1
10
54.1211251560055
20
-2.53246430591056
30
0
41
1
10
53.6302654933506
20
-2.43337464759375
30
0
41
1
10
53.3863569792334
20
-2.37425945871485
30
0
41
1
10
53.0003515543316
20
-2.26645378389151
30
0
41
1
10
52.8577095296864
20
-2.22349800912375
30
0
41
1
10
52.7152169850203
20
-2.17766910346546
30
0
0
SPLINE
5
C1
100
AcDbEntity
8
1
62
256
6
ByLayer
370
13
48
1
60
0
100
AcDbSpline
70
4
71
3
72
24
73
20
40
0
40
0
40
0
40
0
40
0.130438047348786
40
0.130438047348786
40
0.22281690225101
40
0.22281690225101
40
0.315195757153234
40
0.315195757153234
40
0.407574612055458
40
0.407574612055458
40
0.499953466957682
40
0.499953466957682
40
0.684711176762126
40
0.684711176762126
40
0.869468886566571
40
0.869468886566571
40
0.961847741468793
40
0.961847741468793
40
1
40
1
40
1
40
1
41
1
10
52.7152179370002
20
-2.17766940964415
30
0
41
1
10
52.3730507153509
20
-2.06762053020859
30
0
41
1
10
52.0317454325336
20
-1.94100449388526
30
0
41
1
10
51.4469021750564
20
-1.70029993979657
30
0
41
1
10
51.2039014869584
20
-1.59333488782681
30
0
41
1
10
50.7155714809464
20
-1.3666333184924
30
0
41
1
10
50.4696859755061
20
-1.24661453759072
30
0
41
1
10
49.9800330584652
20
-0.998493496568983
30
0
41
1
10
49.735594908503
20
-0.870221671131304
30
0
41
1
10
49.246050856478
20
-0.607666989048198
30
0
41
1
10
49.0001911061935
20
-0.472975910503152
30
0
41
1
10
48.2664768624843
20
-0.0665211688287002
30
0
41
1
10
47.7821397072297
20
0.206510426095605
30
0
41
1
10
46.8131633986049
20
0.73881976832385
30
0
41
1
10
46.3283908366792
20
0.997907894048609
30
0
41
1
10
45.5922127213748
20
1.36035147877698
30
0
41
1
10
45.347538337577
20
1.47579991716887
30
0
41
1
10
45.0037437185222
20
1.62975963849362
30
0
41
1
10
44.9033944847051
20
1.67362641437111
30
0
41
1
10
44.8031335901948
20
1.71629322401722
30
0
0
SPLINE
5
C2
100
AcDbEntity
8
1
62
256
6
ByLayer
370
18
48
1
60
0
100
AcDbSpline
70
4
71
3
72
16
73
12
40
0
40
0
40
0
40
0
40
0.122543748671839
40
0.122543748671839
40
0.351173024906225
40
0.351173024906225
40
0.57980230114061
40
0.57980230114061
40
0.808431577374996
40
0.808431577374996
40
1
40
1
40
1
40
1
41
1
10
25.7419376675676
20
-2.64464746431634
30
0
41
1
10
25.6119512703423
20
-2.64517714481195
30
0
41
1
10
25.4819553519701
20
-2.64274898693805
30
0
41
1
10
25.109102159649
20
-2.62728840649137
30
0
41
1
10
24.8659552080065
20
-2.6069162115767
30
0
41
1
10
24.3775147680611
20
-2.54569998746766
30
0
41
1
10
24.1315216382301
20
-2.50461155491379
30
0
41
1
10
23.6407486074007
20
-2.40291486910789
30
0
41
1
10
23.3958336048181
20
-2.34241826250542
30
0
41
1
10
22.9453205882141
20
-2.21462543057908
30
0
41
1
10
22.7393813335606
20
-2.14986655380108
30
0
41
1
10
22.5336951585874
20
-2.07933706626912
30
0
0
SPLINE
5
C3
100
AcDbEntity
8
1
62
256
6
ByLayer
370
13
48
1
60
0
100
AcDbSpline
70
4
71
3
72
28
73
24
40
0
40
0
40
0
40
0
40
0.0153342875046192
40
0.0153342875046192
40
0.204529447795244
40
0.204529447795244
40
0.393724608085869
40
0.393724608085869
40
0.441023398158527
40
0.441023398158527
40
0.488322188231184
40
0.488322188231184
40
0.582919768376501
40
0.582919768376501
40
0.772114928667134
40
0.772114928667134
40
0.819413718739792
40
0.819413718739792
40
0.866712508812451
40
0.866712508812451
40
0.961310088957767
40
0.961310088957767
40
1
40
1
40
1
40
1
41
1
10
22.5336951580488
20
-2.07933706608449
30
0
41
1
10
22.4939030822918
20
-2.06569242170454
30
0
41
1
10
22.4541204785037
20
-2.05183180168623
30
0
41
1
10
21.9237021394046
20
-1.86414775831486
30
0
41
1
10
21.4383793543786
20
-1.66011266062449
30
0
41
1
10
20.4678358013567
20
-1.20765449909595
30
0
41
1
10
19.9825669542886
20
-0.959168353112744
30
0
41
1
10
19.3694799647573
20
-0.63113529938073
30
0
41
1
10
19.246368311697
20
-0.564590516633217
30
0
41
1
10
19.0012178050097
20
-0.431105027939083
30
0
41
1
10
18.8789679278465
20
-0.364051999872316
30
0
41
1
10
18.5129560131962
20
-0.162403250626085
30
0
41
1
10
18.26984772539
20
-0.0274729027740932
30
0
41
1
10
17.5415441331942
20
0.375785626693443
30
0
41
1
10
17.0572687612072
20
0.642384311899889
30
0
41
1
10
16.4467310186084
20
0.960421170436319
30
0
41
1
10
16.3243674916159
20
1.023274020662
30
0
41
1
10
16.0789716186186
20
1.1471915482015
30
0
41
1
10
15.95589841192
20
1.20826445185025
30
0
41
1
10
15.5883495550185
20
1.38682739581091
30
0
41
1
10
15.3445612108549
20
1.50017945157671
30
0
41
1
10
15.0018736204335
20
1.65054182628353
30
0
41
1
10
14.9025049002412
20
1.69310177738856
30
0
41
1
10
14.8031932729488
20
1.73451275199363
30
0
0
SPLINE
5
C4
100
AcDbEntity
8
1
62
256
6
ByLayer
370
18
48
1
60
0
100
AcDbSpline
70
4
71
3
72
8
73
4
40
0
40
0
40
0
40
0
40
1
40
1
40
1
40
1
41
1
10
14.7791096977403
20
1.51106705164747
30
0
41
1
10
14.7795971860203
20
1.51082583223496
30
0
41
1
10
14.7800846743003
20
1.51058458837355
30
0
41
1
10
14.7805721625804
20
1.51034332007492
30
0
0
SPLINE
5
C5
100
AcDbEntity
8
1
62
256
6
ByLayer
370
18
48
1
60
0
100
AcDbSpline
70
4
71
3
72
12
73
8
40
0
40
0
40
0
40
0
40
0.25
40
0.25
40
0.5
40
0.5
40
1
40
1
40
1
40
1
41
1
10
56.0575889131943
20
-2.73785810897365
30
0
41
1
10
56.0625921568965
20
-2.72459746691183
30
0
41
1
10
56.067218889432
20
-2.71097579153451
30
0
41
1
10
56.0742604947072
20
-2.68665796147639
30
0
41
1
10
56.0766313618565
20
-2.67603407170804
30
0
41
1
10
56.0796383969406
20
-2.65318541656885
30
0
41
1
10
56.0767260191233
20
-2.64905566309997
30
0
41
1
10
56.0716384702292
20
-2.65162628431065
30
0
0
SPLINE
5
C6
100
AcDbEntity
8
1
62
256
6
ByLayer
370
13
48
1
60
0
100
AcDbSpline
70
4
71
3
72
12
73
8
40
0
40
0
40
0
40
0
40
0.284333906662791
40
0.284333906662791
40
0.568667813325582
40
0.568667813325582
40
1
40
1
40
1
40
1
41
1
10
9.20047112110026
20
-2.62676564208329
30
0
41
1
10
9.44677148592274
20
-2.66610233828072
30
0
41
1
10
9.69335360651363
20
-2.69476315257066
30
0
41
1
10
10.182787947293
20
-2.73018703932456
30
0
41
1
10
10.426247420213
20
-2.73708797662266
30
0
41
1
10
11.0379069550864
20
-2.72767790679575
30
0
41
1
10
11.4056787197681
20
-2.69751601259216
30
0
41
1
10
11.7748701901797
20
-2.64331712472938
30
0
0
SPLINE
5
C7
100
AcDbEntity
8
1
62
256
6
ByLayer
370
18
48
1
60
0
100
AcDbSpline
70
4
71
3
72
26
73
22
40
0
40
0
40
0
40
0
40
0.0462425522327933
40
0.0462425522327933
40
0.144628885060982
40
0.144628885060982
40
0.193822051475077
40
0.193822051475077
40
0.243015217889171
40
0.243015217889171
40
0.439787883545549
40
0.439787883545549
40
0.636560549201927
40
0.636560549201927
40
0.734946882030118
40
0.734946882030118
40
0.833333214858309
40
0.833333214858309
40
0.9317195476865
40
0.9317195476865
40
1
40
1
40
1
40
1
41
1
10
29.3543137135234
20
1.89569905678653
30
0
41
1
10
29.4684483722595
20
1.8481544571838
30
0
41
1
10
29.5826574128293
20
1.79892897683581
30
0
41
1
10
29.9403039296032
20
1.6399593942329
30
0
41
1
10
30.1842887146118
20
1.52470939425291
30
0
41
1
10
30.5525495942707
20
1.3424878200893
30
0
41
1
10
30.6757446219354
20
1.2801218954402
30
0
41
1
10
30.921280220882
20
1.15328847322579
30
0
41
1
10
31.0438245750892
20
1.08871394357072
30
0
41
1
10
31.6560242611435
20
0.761045934373414
30
0
41
1
10
32.1445149419793
20
0.483540805925969
30
0
41
1
10
33.1283817321612
20
-0.0823514770881388
30
0
41
1
10
33.6170014436985
20
-0.366680759683845
30
0
41
1
10
34.3536917595197
20
-0.780083984119074
30
0
41
1
10
34.5997912389789
20
-0.915613511261313
30
0
41
1
10
35.0902499590735
20
-1.1773248390019
30
0
41
1
10
35.3351336730194
20
-1.30388800470303
30
0
41
1
10
35.8255260726458
20
-1.54640062744051
30
0
41
1
10
36.0720319912094
20
-1.66236599151401
30
0
41
1
10
36.4867498908686
20
-1.84554872796437
30
0
41
1
10
36.6559910259604
20
-1.91698712294149
30
0
41
1
10
36.8248279276114
20
-1.98457777189131
30
0
0
SPLINE
5
C8
100
AcDbEntity
8
1
62
256
6
ByLayer
370
13
48
1
60
0
100
AcDbSpline
70
4
71
3
72
18
73
14
40
0
40
0
40
0
40
0
40
0.0455352116178116
40
0.0455352116178116
40
0.343154308189266
40
0.343154308189266
40
0.491963856474994
40
0.491963856474994
40
0.640773404760721
40
0.640773404760721
40
0.938392501332169
40
0.938392501332169
40
1
40
1
40
1
40
1
41
1
10
36.8248279273374
20
-1.98457777178163
30
0
41
1
10
36.8992706619943
20
-2.01437950763528
30
0
41
1
10
36.9736348112041
20
-2.04343321818709
30
0
41
1
10
37.5336185587507
20
-2.25659081565905
30
0
41
1
10
38.0174864933788
20
-2.4079360514346
30
0
41
1
10
38.7477918832994
20
-2.57740332885905
30
0
41
1
10
38.9921045185337
20
-2.62423432128875
30
0
41
1
10
39.4839048714663
20
-2.69690516526532
30
0
41
1
10
39.7284225335894
20
-2.72238089629352
30
0
41
1
10
40.458826751827
20
-2.7666281514413
30
0
41
1
10
40.9424707147399
20
-2.75313363975178
30
0
41
1
10
41.5287907068596
20
-2.68552917128278
30
0
41
1
10
41.6294248818953
20
-2.67212039058987
30
0
41
1
10
41.7301918820821
20
-2.6569074253035
30
0
0
SPLINE
5
C9
100
AcDbEntity
8
1
62
256
6
ByLayer
370
18
48
1
60
0
100
AcDbSpline
70
4
71
3
72
20
73
16
40
0
40
0
40
0
40
0
40
0.125
40
0.125
40
0.25
40
0.25
40
0.5
40
0.5
40
0.625
40
0.625
40
0.75
40
0.75
40
0.875
40
0.875
40
1
40
1
40
1
40
1
41
1
10
56.0307605517254
20
-2.66296349818376
30
0
41
1
10
55.9909341199234
20
-2.66293972865722
30
0
41
1
10
55.9530845634497
20
-2.65697052479618
30
0
41
1
10
55.8815413732485
20
-2.63253321770637
30
0
41
1
10
55.8476376671033
20
-2.61388248778292
30
0
41
1
10
55.7543803733791
20
-2.53876801177432
30
0
41
1
10
55.703786495738
20
-2.46429945523641
30
0
41
1
10
55.646273497646
20
-2.31387752948933
30
0
41
1
10
55.6301178522612
20
-2.25663611689225
30
0
41
1
10
55.605254540684
20
-2.13161606064139
30
0
41
1
10
55.5964288166879
20
-2.06380979262559
30
0
41
1
10
55.5859265310281
20
-1.91769686975755
30
0
41
1
10
55.584249157403
20
-1.83939140747981
30
0
41
1
10
55.5883171308448
20
-1.6718783051553
30
0
41
1
10
55.5940972479355
20
-1.58326261797961
30
0
41
1
10
55.6034236423731
20
-1.49167864737638
30
0
0
SPLINE
5
CA
100
AcDbEntity
8
1
62
256
6
ByLayer
370
13
48
1
60
0
100
AcDbSpline
70
4
71
3
72
10
73
6
40
0
40
0
40
0
40
0
40
0.5
40
0.5
40
1
40
1
40
1
40
1
41
1
10
9.25033277697247
20
-2.50761521029176
30
0
41
1
10
9.22842581960941
20
-2.50535721737199
30
0
41
1
10
9.20694797848094
20
-2.50582642476317
30
0
41
1
10
9.16487382673355
20
-2.51207855258545
30
0
41
1
10
9.1441925945735
20
-2.51796407146009
30
0
41
1
10
9.12495182839641
20
-2.52647291780624
30
0
0
SPLINE
5
CB
100
AcDbEntity
8
1
62
256
6
ByLayer
370
18
48
1
60
0
100
AcDbSpline
70
4
71
3
72
18
73
14
40
0
40
0
40
0
40
0
40
0.250000000000019
40
0.250000000000019
40
0.500000000000038
40
0.500000000000038
40
0.625000000000028
40
0.625000000000028
40
0.750000000000019
40
0.750000000000019
40
0.875000000000009
40
0.875000000000009
40
1
40
1
40
1
40
1
41
1
10
55.9227008401534
20
0.851218668748288
30
0
41
1
10
56.0003073242382
20
0.869273961399642
30
0
41
1
10
56.0774277589435
20
0.889872181495747
30
0
41
1
10
56.228066362898
20
0.939319804400697
30
0
41
1
10
56.3017766054123
20
0.967915211383541
30
0
41
1
10
56.4072797389458
20
1.02349594380533
30
0
41
1
10
56.4411299843908
20
1.04397198064365
30
0
41
1
10
56.5047014884448
20
1.09106278399744
30
0
41
1
10
56.5343794695601
20
1.11775737593257
30
0
41
1
10
56.584047431376
20
1.17828683140678
30
0
41
1
10
56.6046608168307
20
1.21342386772824
30
0
41
1
10
56.6292750338439
20
1.28918945285611
30
0
41
1
10
56.6332851334754
20
1.33026354102165
30
0
41
1
10
56.6297235458372
20
1.37042073050762
30
0
0
SPLINE
5
CC
100
AcDbEntity
8
1
62
256
6
ByLayer
370
18
48
1
60
0
100
AcDbSpline
70
4
71
3
72
14
73
10
40
0
40
0
40
0
40
0
40
0.226092615773641
40
0.226092615773641
40
0.468932564106271
40
0.468932564106271
40
0.711772512438901
40
0.711772512438901
40
1
40
1
40
1
40
1
41
1
10
40.6766294670459
20
-2.65382212299679
30
0
41
1
10
40.4509156297914
20
-2.65389484974722
30
0
41
1
10
40.2250247207095
20
-2.64503737086284
30
0
41
1
10
39.7550976303083
20
-2.60818388268655
30
0
41
1
10
39.5105766726177
20
-2.57877170766929
30
0
41
1
10
39.0195620566626
20
-2.49922569156243
30
0
41
1
10
38.775504759041
20
-2.449452930446
30
0
41
1
10
38.2435750697739
20
-2.32075807281058
30
0
41
1
10
37.9558553654526
20
-2.23808898954624
30
0
41
1
10
37.6681586789247
20
-2.14367367748665
30
0
0
SPLINE
5
CD
100
AcDbEntity
8
1
62
256
6
ByLayer
370
13
48
1
60
0
100
AcDbSpline
70
4
71
3
72
26
73
22
40
0
40
0
40
0
40
0
40
0.0753209478508651
40
0.0753209478508651
40
0.167955599236415
40
0.167955599236415
40
0.260590250621965
40
0.260590250621965
40
0.353224902007515
40
0.353224902007515
40
0.445859553393065
40
0.445859553393065
40
0.631128856164169
40
0.631128856164169
40
0.816398158935272
40
0.816398158935272
40
0.862715484628045
40
0.862715484628045
40
0.909032810320818
40
0.909032810320818
40
1
40
1
40
1
40
1
41
1
10
37.6681586789851
20
-2.14367367750648
30
0
41
1
10
37.4710698991026
20
-2.07899375755221
30
0
41
1
10
37.2739919215582
20
-2.00880128764896
30
0
41
1
10
36.8338755639775
20
-1.8407606385299
30
0
41
1
10
36.5905524717423
20
-1.74040175720063
30
0
41
1
10
36.1012426772814
20
-1.52584272738949
30
0
41
1
10
35.8550542598739
20
-1.41139251543527
30
0
41
1
10
35.3651978896072
20
-1.17294569839879
30
0
41
1
10
35.1205603793347
20
-1.04890515586823
30
0
41
1
10
34.6305788251536
20
-0.793261814336034
30
0
41
1
10
34.384730764086
20
-0.661314291272959
30
0
41
1
10
33.6489085964835
20
-0.260110208169294
30
0
41
1
10
33.1606986606324
20
0.0144639017967734
30
0
41
1
10
32.1778223140442
20
0.557744853082539
30
0
41
1
10
31.6898550735354
20
0.822568874331438
30
0
41
1
10
31.0782128464937
20
1.13367135987977
30
0
41
1
10
30.9557817707241
20
1.19488132977682
30
0
41
1
10
30.7104805752213
20
1.3148768599809
30
0
41
1
10
30.5874302265473
20
1.37375046286047
30
0
41
1
10
30.2240231623637
20
1.54335120106777
30
0
41
1
10
29.9846006791036
20
1.64974253036201
30
0
41
1
10
29.7458249506009
20
1.74934906562055
30
0
0
SPLINE
5
CE
100
AcDbEntity
8
1
62
256
6
ByLayer
370
18
48
1
60
0
100
AcDbSpline
70
4
71
3
72
12
73
8
40
0
40
0
40
0
40
0
40
0.0039838153998103
40
0.0039838153998103
40
0.501991907699902
40
0.501991907699902
40
1
40
1
40
1
40
1
41
1
10
10.7236427716791
20
-2.63581988337424
30
0
41
1
10
10.7216997679917
20
-2.63581570389957
30
0
41
1
10
10.7197567421173
20
-2.63581086945214
30
0
41
1
10
10.4749174456317
20
-2.63511915520789
30
0
41
1
10
10.2316041698925
20
-2.62418911790547
30
0
41
1
10
9.74259599531325
20
-2.58153423985431
30
0
41
1
10
9.49631995656554
20
-2.54966487434803
30
0
41
1
10
9.2503327769723
20
-2.50761521029173
30
0
0
SPLINE
5
CF
100
AcDbEntity
8
1
62
256
6
ByLayer
370
18
48
1
60
0
100
AcDbSpline
70
4
71
3
72
44
73
40
40
0
40
0
40
0
40
0
40
0.0940515434794242
40
0.0940515434794242
40
0.141077315219135
40
0.141077315219135
40
0.188103086958847
40
0.188103086958847
40
0.282154630438269
40
0.282154630438269
40
0.329180402177981
40
0.329180402177981
40
0.376206173917693
40
0.376206173917693
40
0.470257717397117
40
0.470257717397117
40
0.493770603266974
40
0.493770603266974
40
0.51728348913683
40
0.51728348913683
40
0.564309260876544
40
0.564309260876544
40
0.65836080435597
40
0.65836080435597
40
0.705386576095684
40
0.705386576095684
40
0.728899461965541
40
0.728899461965541
40
0.752412347835398
40
0.752412347835398
40
0.846463891314824
40
0.846463891314824
40
0.893489663054538
40
0.893489663054538
40
0.917002548924395
40
0.917002548924395
40
0.940515434794253
40
0.940515434794253
40
1
40
1
40
1
40
1
41
1
10
56.0428112498241
20
-2.7769731791436
30
0
41
1
10
55.552280352055
20
-2.81365206899682
30
0
41
1
10
55.063575491672
20
-2.80573393654092
30
0
41
1
10
54.325307466953
20
-2.7273453762229
30
0
41
1
10
54.0796150705426
20
-2.6901640323054
30
0
41
1
10
53.591238271347
20
-2.59552584418802
30
0
41
1
10
53.3480009519628
20
-2.53799306709288
30
0
41
1
10
52.6190167478007
20
-2.33664736179208
30
0
41
1
10
52.1340822125075
20
-2.16396549812433
30
0
41
1
10
51.3990730665416
20
-1.85555420019557
30
0
41
1
10
51.1520278204476
20
-1.74409208502604
30
0
41
1
10
50.6620806712497
20
-1.51001193845565
30
0
41
1
10
50.418338726346
20
-1.38711433393882
30
0
41
1
10
49.6887410708472
20
-1.00419446623221
30
0
41
1
10
49.2040480061627
20
-0.730693768366535
30
0
41
1
10
48.5936561448743
20
-0.376852307602149
30
0
41
1
10
48.4713407708613
20
-0.305502250518288
30
0
41
1
10
48.2260169068343
20
-0.162000636417787
30
0
41
1
10
48.1027556205203
20
-0.0896917509831781
30
0
41
1
10
47.7336908963688
20
0.126790968364418
30
0
41
1
10
47.4891183325025
20
0.270207323942685
30
0
41
1
10
46.7580117091911
20
0.694791372362886
30
0
41
1
10
46.2735428167983
20
0.969322284541107
30
0
41
1
10
45.5424432772644
20
1.35389084988066
30
0
41
1
10
45.2981493683003
20
1.47776249081593
30
0
41
1
10
44.9296870247376
20
1.65519357648759
30
0
41
1
10
44.8062925845604
20
1.71296417765115
30
0
41
1
10
44.5605773655275
20
1.82436606248299
30
0
41
1
10
44.4380506236095
20
1.87810636295154
30
0
41
1
10
43.8266698034056
20
2.13667296029703
30
0
41
1
10
43.3420201922395
20
2.31158066901304
30
0
41
1
10
42.6122241491671
20
2.51672378060684
30
0
41
1
10
42.368636512961
20
2.57570558033143
30
0
41
1
10
42.0015126160058
20
2.64887260021513
30
0
41
1
10
41.8788441381427
20
2.6707102543001
30
0
41
1
10
41.6327221352697
20
2.70910394778719
30
0
41
1
10
41.5094223429585
20
2.72562268138495
30
0
41
1
10
41.0761976169767
20
2.77402153910725
30
0
41
1
10
40.7678343307365
20
2.79103686896533
30
0
41
1
10
40.460120170611
20
2.79059215038578
30
0
0
SPLINE
5
D0
100
AcDbEntity
8
1
62
256
6
ByLayer
370
18
48
1
60
0
100
AcDbSpline
70
4
71
3
72
46
73
42
40
0
40
0
40
0
40
0
40
0.0134964748615021
40
0.0134964748615021
40
0.058185195753965
40
0.058185195753965
40
0.102873916646428
40
0.102873916646428
40
0.192251358431353
40
0.192251358431353
40
0.236940079323815
40
0.236940079323815
40
0.281628800216277
40
0.281628800216277
40
0.3710062420012
40
0.3710062420012
40
0.460383683786123
40
0.460383683786123
40
0.482728044232354
40
0.482728044232354
40
0.505072404678584
40
0.505072404678584
40
0.549761125571046
40
0.549761125571046
40
0.63913856735597
40
0.63913856735597
40
0.661482927802201
40
0.661482927802201
40
0.683827288248431
40
0.683827288248431
40
0.728516009140892
40
0.728516009140892
40
0.817893450925814
40
0.817893450925814
40
0.862582171818275
40
0.862582171818275
40
0.907270892710736
40
0.907270892710736
40
0.996648334495659
40
0.996648334495659
40
1
40
1
40
1
40
1
41
1
10
26.9541673523471
20
-2.65418358800807
30
0
41
1
10
26.880687245925
20
-2.66702641828633
30
0
41
1
10
26.8071850057063
20
-2.67892613133219
30
0
41
1
10
26.4901280531238
20
-2.72611097018395
30
0
41
1
10
26.2461435394169
20
-2.75186509901999
30
0
41
1
10
25.7557007684175
20
-2.7815114027496
30
0
41
1
10
25.5084167554132
20
-2.78532636680427
30
0
41
1
10
24.7723045369883
20
-2.76329458121341
30
0
41
1
10
24.2863652713536
20
-2.70458638568442
30
0
41
1
10
23.5565192203636
20
-2.5550479358732
30
0
41
1
10
23.3129793642248
20
-2.49500592797605
30
0
41
1
10
22.8240213842843
20
-2.35532231657413
30
0
41
1
10
22.5782122125094
20
-2.27547933549718
30
0
41
1
10
21.8387253802253
20
-2.00852108603147
30
0
41
1
10
21.3518065525177
20
-1.79784476837418
30
0
41
1
10
20.3785355412978
20
-1.32812640144016
30
0
41
1
10
19.892284427099
20
-1.06892364148331
30
0
41
1
10
19.2775990822674
20
-0.725257183651081
30
0
41
1
10
19.1540391971372
20
-0.655415894461186
30
0
41
1
10
18.9077809943963
20
-0.515064843606723
30
0
41
1
10
18.7850164421974
20
-0.444518897205597
30
0
41
1
10
18.4175593186494
20
-0.232216623719495
30
0
41
1
10
18.1736499028252
20
-0.0898905242277692
30
0
41
1
10
17.4430875981278
20
0.335949271097121
30
0
41
1
10
16.9574851973939
20
0.618120073138073
30
0
41
1
10
16.3450962233387
20
0.956178072781569
30
0
41
1
10
16.2223530461765
20
1.02306352136674
30
0
41
1
10
15.9761528746875
20
1.15506287492843
30
0
41
1
10
15.8525897728298
20
1.22020983033502
30
0
41
1
10
15.4836632904282
20
1.41075295747498
30
0
41
1
10
15.2390408965646
20
1.53183668740942
30
0
41
1
10
14.5071082193351
20
1.87475989633583
30
0
41
1
10
14.0218698595208
20
2.07640837610663
30
0
41
1
10
13.2889770540199
20
2.32706093467047
30
0
41
1
10
13.0439675027698
20
2.40211154537315
30
0
41
1
10
12.5508030964151
20
2.53310492059023
30
0
41
1
10
12.3047388015143
20
2.58843102989408
30
0
41
1
10
11.5707804257489
20
2.72222238187331
30
0
41
1
10
11.0851891876297
20
2.76915346733341
30
0
41
1
10
10.5794931491368
20
2.77259175887605
30
0
41
1
10
10.5612119270204
20
2.77265459542389
30
0
41
1
10
10.5429273683882
20
2.77265595487046
30
0
0
SPLINE
5
D1
100
AcDbEntity
8
1
62
256
6
ByLayer
370
18
48
1
60
0
100
AcDbSpline
70
4
71
3
72
64
73
60
40
0
40
0
40
0
40
0
40
0.0154518529819421
40
0.0154518529819421
40
0.0876380690191595
40
0.0876380690191595
40
0.123731177037768
40
0.123731177037768
40
0.159824285056377
40
0.159824285056377
40
0.195917393074986
40
0.195917393074986
40
0.232010501093594
40
0.232010501093594
40
0.304196717130813
40
0.304196717130813
40
0.322243271140118
40
0.322243271140118
40
0.340289825149422
40
0.340289825149422
40
0.376382933168031
40
0.376382933168031
40
0.394429487177336
40
0.394429487177336
40
0.412476041186641
40
0.412476041186641
40
0.44856914920525
40
0.44856914920525
40
0.484662257223859
40
0.484662257223859
40
0.520755365242467
40
0.520755365242467
40
0.556848473261076
40
0.556848473261076
40
0.592941581279685
40
0.592941581279685
40
0.629034689298294
40
0.629034689298294
40
0.665127797316902
40
0.665127797316902
40
0.701220905335511
40
0.701220905335511
40
0.73731401335412
40
0.73731401335412
40
0.773407121372728
40
0.773407121372728
40
0.809500229391337
40
0.809500229391337
40
0.845593337409946
40
0.845593337409946
40
0.881686445428555
40
0.881686445428555
40
0.917779553447163
40
0.917779553447163
40
0.953872661465772
40
0.953872661465772
40
0.989965769484381
40
0.989965769484381
40
1
40
1
40
1
40
1
41
1
10
51.3580251746249
20
-2.04528698524118
30
0
41
1
10
51.2636256793957
20
-2.07901511071182
30
0
41
1
10
51.1692641714638
20
-2.11158237493007
30
0
41
1
10
50.6349683423436
20
-2.28922945693554
30
0
41
1
10
50.1951716046163
20
-2.40429658982711
30
0
41
1
10
49.5342578460444
20
-2.53429193564105
30
0
41
1
10
49.3139681566979
20
-2.56938197897938
30
0
41
1
10
48.8738410869225
20
-2.62177107525602
30
0
41
1
10
48.6539181225249
20
-2.63982604870617
30
0
41
1
10
48.2141551531583
20
-2.65967058019933
30
0
41
1
10
47.9933198521461
20
-2.66106156976838
30
0
41
1
10
47.5527626572284
20
-2.64533140165705
30
0
41
1
10
47.3328310125944
20
-2.62869696633646
30
0
41
1
10
46.6736970927564
20
-2.55572009209723
30
0
41
1
10
46.2313397101324
20
-2.47618515819343
30
0
41
1
10
45.6824103816051
20
-2.33517095778902
30
0
41
1
10
45.5726135670631
20
-2.30507951281342
30
0
41
1
10
45.3527206586309
20
-2.24031455186878
30
0
41
1
10
45.2426403245593
20
-2.2061533140112
30
0
41
1
10
44.9121355392936
20
-2.10022729889664
30
0
41
1
10
44.6913421950929
20
-2.02347017031528
30
0
41
1
10
44.3618004611461
20
-1.89784958718192
30
0
41
1
10
44.2520074598493
20
-1.85434466044265
30
0
41
1
10
44.0322719930084
20
-1.76418536367885
30
0
41
1
10
43.9223400256443
20
-1.71748774219731
30
0
41
1
10
43.5923469562742
20
-1.57436290442047
30
0
41
1
10
43.3718646211039
20
-1.47419103485453
30
0
41
1
10
42.931839608009
20
-1.26343303828665
30
0
41
1
10
42.7121528389014
20
-1.15392787461909
30
0
41
1
10
42.2724680610764
20
-0.928244849336579
30
0
41
1
10
42.0526005800729
20
-0.812697787585989
30
0
41
1
10
41.6127985506161
20
-0.5754540874008
30
0
41
1
10
41.3924210107199
20
-0.454806837911605
30
0
41
1
10
40.9527455329327
20
-0.212270128644008
30
0
41
1
10
40.7331285162406
20
-0.0901444330629033
30
0
41
1
10
40.294088601337
20
0.155509125049178
30
0
41
1
10
40.0736184709587
20
0.277986183717928
30
0
41
1
10
39.6332862120649
20
0.519862595484284
30
0
41
1
10
39.4136155902265
20
0.63942662902241
30
0
41
1
10
38.9749685146168
20
0.874483675880953
30
0
41
1
10
38.7552636685653
20
0.988712343253525
30
0
41
1
10
38.3146147041965
20
1.21123836866386
30
0
41
1
10
38.0944034465883
20
1.3192707062087
30
0
41
1
10
37.6556442663614
20
1.5264200168213
30
0
41
1
10
37.4361622329589
20
1.6242226493477
30
0
41
1
10
36.9962864591889
20
1.81010075542662
30
0
41
1
10
36.7756838214823
20
1.89835379009864
30
0
41
1
10
36.336500561346
20
2.06179323105576
30
0
41
1
10
36.1170749540967
20
2.13582159948154
30
0
41
1
10
35.6776461300102
20
2.27033655126851
30
0
41
1
10
35.457835371005
20
2.33169478664365
30
0
41
1
10
35.0178409688617
20
2.43956138243499
30
0
41
1
10
34.7982344315906
20
2.4851871995123
30
0
41
1
10
34.3589990032478
20
2.55932087930205
30
0
41
1
10
34.1394748582804
20
2.58856210502259
30
0
41
1
10
33.7003641231762
20
2.62970317750788
30
0
41
1
10
33.4799486677221
20
2.64287151828731
30
0
41
1
10
33.199001800927
20
2.64909802068678
30
0
41
1
10
33.1379144572105
20
2.64977814122631
30
0
41
1
10
33.0768516712808
20
2.64977529881924
30
0
0
SPLINE
5
D2
100
AcDbEntity
8
1
62
256
6
ByLayer
370
18
48
1
60
0
100
AcDbSpline
70
4
71
3
72
36
73
32
40
0
40
0
40
0
40
0
40
0.0031899413943736
40
0.0031899413943736
40
0.0696439453014154
40
0.0696439453014154
40
0.136097949208457
40
0.136097949208457
40
0.202551953115499
40
0.202551953115499
40
0.269005957022541
40
0.269005957022541
40
0.335459960929583
40
0.335459960929583
40
0.401913964836625
40
0.401913964836625
40
0.468367968743667
40
0.468367968743667
40
0.534821972650708
40
0.534821972650708
40
0.60127597655775
40
0.60127597655775
40
0.667729980464792
40
0.667729980464792
40
0.734183984371834
40
0.734183984371834
40
0.800637988278876
40
0.800637988278876
40
0.867091992185918
40
0.867091992185918
40
1
40
1
40
1
40
1
41
1
10
21.4113474298872
20
-2.03767406006992
30
0
41
1
10
21.4007712212955
20
-2.04140259212579
30
0
41
1
10
21.3901942776482
20
-2.04511803196749
30
0
41
1
10
21.1592577790922
20
-2.12595165442889
30
0
41
1
10
20.9383539529383
20
-2.19724985170751
30
0
41
1
10
20.4977377792652
20
-2.32473424175279
30
0
41
1
10
20.2777537618623
20
-2.37950235403056
30
0
41
1
10
19.8373874105972
20
-2.47526742292882
30
0
41
1
10
19.6171625134427
20
-2.51475409918376
30
0
41
1
10
19.1765348788915
20
-2.57939488107303
30
0
41
1
10
18.9558725279808
20
-2.6041523805128
30
0
41
1
10
18.5154329063865
20
-2.63592235657964
30
0
41
1
10
18.2954282562573
20
-2.6420857674716
30
0
41
1
10
17.8554993090832
20
-2.6380617845474
30
0
41
1
10
17.6346251020908
20
-2.62875396738363
30
0
41
1
10
17.1937051900979
20
-2.59326255090807
30
0
41
1
10
16.9736843311518
20
-2.56701918582274
30
0
41
1
10
16.5342188912128
20
-2.49647435318869
30
0
41
1
10
16.3141449712423
20
-2.45365924451832
30
0
41
1
10
15.8724878654749
20
-2.35164468291444
30
0
41
1
10
15.6520307312445
20
-2.29358563272515
30
0
41
1
10
15.2123249455213
20
-2.16318221290447
30
0
41
1
10
14.9923903262204
20
-2.09095073560116
30
0
41
1
10
14.5514184889139
20
-1.93240008816591
30
0
41
1
10
14.330166017685
20
-1.8462245191551
30
0
41
1
10
13.8908780942043
20
-1.66424570623434
30
0
41
1
10
13.6718604166702
20
-1.5683158029461
30
0
41
1
10
13.2343302208792
20
-1.36695463249779
30
0
41
1
10
13.0158581594429
20
-1.26183356854529
30
0
41
1
10
12.3611753145194
20
-0.934407944932985
30
0
41
1
10
11.9231039557498
20
-0.703739855379894
30
0
41
1
10
11.4815226503827
20
-0.462112095142828
30
0
0
SPLINE
5
D3
100
AcDbEntity
8
1
62
256
6
ByLayer
370
18
48
1
60
0
100
AcDbSpline
70
4
71
3
72
78
73
74
40
0
40
0
40
0
40
0
40
0.0080415726232721
40
0.0080415726232721
40
0.0254480159396689
40
0.0254480159396689
40
0.0602609025724626
40
0.0602609025724626
40
0.0776673458888599
40
0.0776673458888599
40
0.0950737892052572
40
0.0950737892052572
40
0.129886675838052
40
0.129886675838052
40
0.147293119154449
40
0.147293119154449
40
0.164699562470846
40
0.164699562470846
40
0.199512449103641
40
0.199512449103641
40
0.234325335736435
40
0.234325335736435
40
0.26913822236923
40
0.26913822236923
40
0.303951109002025
40
0.303951109002025
40
0.338763995634821
40
0.338763995634821
40
0.373576882267616
40
0.373576882267616
40
0.408389768900411
40
0.408389768900411
40
0.443202655533207
40
0.443202655533207
40
0.478015542166002
40
0.478015542166002
40
0.512828428798798
40
0.512828428798798
40
0.547641315431593
40
0.547641315431593
40
0.565047758747991
40
0.565047758747991
40
0.582454202064388
40
0.582454202064388
40
0.617267088697184
40
0.617267088697184
40
0.634673532013582
40
0.634673532013582
40
0.652079975329981
40
0.652079975329981
40
0.68689286196278
40
0.68689286196278
40
0.704299305279178
40
0.704299305279178
40
0.721705748595577
40
0.721705748595577
40
0.756518635228374
40
0.756518635228374
40
0.773925078544772
40
0.773925078544772
40
0.79133152186117
40
0.79133152186117
40
0.826144408493965
40
0.826144408493965
40
0.86095729512676
40
0.86095729512676
40
0.895770181759555
40
0.895770181759555
40
0.930583068392351
40
0.930583068392351
40
0.965395955025147
40
0.965395955025147
40
1
40
1
40
1
40
1
41
1
10
21.4015356306116
20
2.02069357501057
30
0
41
1
10
21.4512341329646
20
2.04080788305114
30
0
41
1
10
21.5009340948699
20
2.06058443096506
30
0
41
1
10
21.6584046706349
20
2.12187656156487
30
0
41
1
10
21.766360425915
20
2.16195234856519
30
0
41
1
10
22.0906246828273
20
2.27709964502225
30
0
41
1
10
22.3077278253945
20
2.34716547489029
30
0
41
1
10
22.6313942380968
20
2.44172741509493
30
0
41
1
10
22.7389002344344
20
2.47158567773673
30
0
41
1
10
22.9542333789307
20
2.52708302461758
30
0
41
1
10
23.0621129284161
20
2.55270655407026
30
0
41
1
10
23.3860179049883
20
2.62360834429271
30
0
41
1
10
23.6024162886468
20
2.662937848246
30
0
41
1
10
23.9268052795395
20
2.71001624151791
30
0
41
1
10
24.0345091324434
20
2.72370102575479
30
0
41
1
10
24.2499662028453
20
2.74669155495363
30
0
41
1
10
24.3578548575261
20
2.75597724296651
30
0
41
1
10
24.6816865141803
20
2.77747503543884
30
0
41
1
10
24.8977974840303
20
2.78337167474336
30
0
41
1
10
25.3296431560652
20
2.77808611479418
30
0
41
1
10
25.5453100941147
20
2.76663073572041
30
0
41
1
10
25.9773204829694
20
2.7272148341157
30
0
41
1
10
26.1933843590644
20
2.69929103642014
30
0
41
1
10
26.6248010865355
20
2.62658777961261
30
0
41
1
10
26.8401335677582
20
2.58133575481091
30
0
41
1
10
27.272743709412
20
2.47647833799189
30
0
41
1
10
27.4889350782059
20
2.41675135683579
30
0
41
1
10
27.9202596284601
20
2.28205610717518
30
0
41
1
10
28.1349284904047
20
2.20646706296281
30
0
41
1
10
28.5673084351962
20
2.04387852982791
30
0
41
1
10
28.7841758117663
20
1.95649326916904
30
0
41
1
10
29.2157723044455
20
1.76964569996895
30
0
41
1
10
29.430327321195
20
1.66920192186316
30
0
41
1
10
29.8619418280224
20
1.46100842223981
30
0
41
1
10
30.0791316005032
20
1.35239645870979
30
0
41
1
10
30.5105130539393
20
1.12734077539969
30
0
41
1
10
30.7241502322672
20
1.00989854391241
30
0
41
1
10
31.1520444967866
20
0.773029857586863
30
0
41
1
10
31.3659954425987
20
0.653131228146918
30
0
41
1
10
31.6862710598201
20
0.47001195829273
30
0
41
1
10
31.792927643658
20
0.408435835860843
30
0
41
1
10
32.0059107458417
20
0.283975000007303
30
0
41
1
10
32.1123035830828
20
0.221201249261497
30
0
41
1
10
32.4326907736221
20
0.0338810551706104
30
0
41
1
10
32.6473389300092
20
-0.0906111637845584
30
0
41
1
10
32.9701807177999
20
-0.278048938757024
30
0
41
1
10
33.0779511836795
20
-0.340626419620634
30
0
41
1
10
33.2936956457485
20
-0.466204683529696
30
0
41
1
10
33.4014937022833
20
-0.52918268326269
30
0
41
1
10
33.7250706872453
20
-0.714781176200631
30
0
41
1
10
33.941115783909
20
-0.835217552955214
30
0
41
1
10
34.2648541963647
20
-1.01237260063883
30
0
41
1
10
34.372725306158
20
-1.07081482594316
30
0
41
1
10
34.5882633461454
20
-1.18664085569222
30
0
41
1
10
34.6958405618421
20
-1.24415760086885
30
0
41
1
10
35.0198051165462
20
-1.41268860845082
30
0
41
1
10
35.2361944123174
20
-1.51957877414674
30
0
41
1
10
35.5599893849495
20
-1.67298300212587
30
0
41
1
10
35.667833169007
20
-1.72294674377326
30
0
41
1
10
35.8832301754538
20
-1.8206401642245
30
0
41
1
10
35.9906712416104
20
-1.86850434974684
30
0
41
1
10
36.3138446580693
20
-2.00701068291198
30
0
41
1
10
36.5308462451855
20
-2.09257681648563
30
0
41
1
10
36.9630016664894
20
-2.25055510242373
30
0
41
1
10
37.178169663214
20
-2.3233777272919
30
0
41
1
10
37.6084465474179
20
-2.45456243471818
30
0
41
1
10
37.824961855398
20
-2.51209452245905
30
0
41
1
10
38.2576788800201
20
-2.61189139051379
30
0
41
1
10
38.4724533701905
20
-2.65397771996484
30
0
41
1
10
38.8998584530285
20
-2.7217769463096
30
0
41
1
10
39.1137733941748
20
-2.74696614145745
30
0
41
1
10
39.5397658813062
20
-2.78094161618699
30
0
41
1
10
39.7516992148429
20
-2.78981174591218
30
0
41
1
10
39.9633225729805
20
-2.79029862055643
30
0
0
SPLINE
5
D4
100
AcDbEntity
8
1
62
256
6
ByLayer
370
18
48
1
60
0
100
AcDbSpline
70
4
71
3
72
22
73
18
40
0
40
0
40
0
40
0
40
0.0505906138382253
40
0.0505906138382253
40
0.18622052614705
40
0.18622052614705
40
0.321850438455875
40
0.321850438455875
40
0.457480350764701
40
0.457480350764701
40
0.593110263073525
40
0.593110263073525
40
0.728740175382351
40
0.728740175382351
40
0.864370087691175
40
0.864370087691175
40
1
40
1
40
1
40
1
41
1
10
51.3648823244644
20
2.04295495912243
30
0
41
1
10
51.4447728589403
20
2.07486384388898
30
0
41
1
10
51.5245452422778
20
2.10592173961047
30
0
41
1
10
51.8176735885274
20
2.21721368543624
30
0
41
1
10
52.0298743417793
20
2.29251268336606
30
0
41
1
10
52.4564318991648
20
2.42689044509956
30
0
41
1
10
52.6701455718587
20
2.48674759497891
30
0
41
1
10
53.097656198152
20
2.5922765509961
30
0
41
1
10
53.3110006950364
20
2.63809283089071
30
0
41
1
10
53.7417481226505
20
2.71243469109231
30
0
41
1
10
53.9587046525643
20
2.74140719205204
30
0
41
1
10
54.3898397181337
20
2.78255047349279
30
0
41
1
10
54.6040622936309
20
2.79477652569634
30
0
41
1
10
55.0348220688791
20
2.80171634751164
30
0
41
1
10
55.2511628304389
20
2.79665999591154
30
0
41
1
10
55.6832774442603
20
2.76939910053491
30
0
41
1
10
55.8977044807343
20
2.74693020229796
30
0
41
1
10
56.1129027756015
20
2.71637328164186
30
0
0
SPLINE
5
D5
100
AcDbEntity
8
1
62
256
6
ByLayer
370
18
48
1
60
0
100
AcDbSpline
70
4
71
3
72
16
73
12
40
0
40
0
40
0
40
0
40
0.25
40
0.25
40
0.5
40
0.5
40
0.625
40
0.625
40
0.75
40
0.75
40
1
40
1
40
1
40
1
41
1
10
55.7627920285573
20
0.559062322408209
30
0
41
1
10
55.7575766240905
20
0.587656942526223
30
0
41
1
10
55.7561717491963
20
0.616897780314588
30
0
41
1
10
55.7620013452898
20
0.677056889504541
30
0
41
1
10
55.7691811278012
20
0.707148070489666
30
0
41
1
10
55.7883285652093
20
0.750403106786393
30
0
41
1
10
55.7958786195186
20
0.764580738924792
30
0
41
1
10
55.8142766394293
20
0.790443164570661
30
0
41
1
10
55.8253945029694
20
0.802056031179063
30
0
41
1
10
55.8623330686282
20
0.831428836330616
30
0
41
1
10
55.8919816622554
20
0.844071794959319
30
0
41
1
10
55.9227008401534
20
0.851218668748288
30
0
0
SPLINE
5
D6
100
AcDbEntity
8
1
62
256
6
ByLayer
370
13
48
1
60
0
100
AcDbSpline
70
4
71
3
72
8
73
4
40
0
40
0
40
0
40
0
40
1
40
1
40
1
40
1
41
1
10
9.12433317738271
20
-2.65083232070163
30
0
41
1
10
9.12453888478157
20
-2.64512921613195
30
0
41
1
10
9.12474510151736
20
-2.63942597615244
30
0
41
1
10
9.12495182839632
20
-2.63372259936602
30
0
0
SPLINE
5
D7
100
AcDbEntity
8
1
62
256
6
ByLayer
370
18
48
1
60
0
100
AcDbSpline
70
4
71
3
72
18
73
14
40
0
40
0
40
0
40
0
40
0.25
40
0.25
40
0.375
40
0.375
40
0.5
40
0.5
40
0.75
40
0.75
40
0.875
40
0.875
40
1
40
1
40
1
40
1
41
1
10
56.6297235458372
20
-1.37042073050765
30
0
41
1
10
56.5876186509992
20
-1.48409437338219
30
0
41
1
10
56.545256664911
20
-1.5976981425087
30
0
41
1
10
56.4812004601842
20
-1.76738311839489
30
0
41
1
10
56.4597780853164
20
-1.82384263195047
30
0
41
1
10
56.4169500363811
20
-1.93678592284144
30
0
41
1
10
56.3955191086392
20
-1.99323301034289
30
0
41
1
10
56.3310656006964
20
-2.16234076373084
30
0
41
1
10
56.2878110453666
20
-2.27486340226571
30
0
41
1
10
56.2224195900283
20
-2.44126666672639
30
0
41
1
10
56.200611160189
20
-2.49668701704024
30
0
41
1
10
56.156892283371
20
-2.60709891411003
30
0
41
1
10
56.1349811359267
20
-2.66208751663473
30
0
41
1
10
56.112902775613
20
-2.71637328164053
30
0
0
SPLINE
5
D8
100
AcDbEntity
8
1
62
256
6
ByLayer
370
18
48
1
60
0
100
AcDbSpline
70
4
71
3
72
60
73
56
40
0
40
0
40
0
40
0
40
0.0624999999999932
40
0.0624999999999932
40
0.124999999999986
40
0.124999999999986
40
0.249999999999973
40
0.249999999999973
40
0.374999999999959
40
0.374999999999959
40
0.437499999999953
40
0.437499999999953
40
0.499999999999947
40
0.499999999999947
40
0.562499999999941
40
0.562499999999941
40
0.593749999999939
40
0.593749999999939
40
0.609374999999939
40
0.617187499999939
40
0.621093749999939
40
0.621093749999939
40
0.62499999999994
40
0.62499999999994
40
0.628906249999941
40
0.628906249999941
40
0.632812499999942
40
0.632812499999942
40
0.640624999999942
40
0.640624999999942
40
0.656249999999943
40
0.656249999999943
40
0.687499999999948
40
0.687499999999948
40
0.703124999999951
40
0.703124999999951
40
0.718749999999953
40
0.718749999999953
40
0.734374999999955
40
0.734374999999955
40
0.749999999999958
40
0.749999999999958
40
0.76562499999996
40
0.76562499999996
40
0.781249999999963
40
0.781249999999963
40
0.812499999999968
40
0.812499999999968
40
0.843749999999974
40
0.843749999999974
40
0.87499999999998
40
0.87499999999998
40
0.93749999999999
40
0.93749999999999
40
1
40
1
40
1
40
1
41
1
10
14.7791061571989
20
1.51106184798002
30
0
41
1
10
14.5641447223793
20
1.61640241314541
30
0
41
1
10
14.3477704555179
20
1.71469177541968
30
0
41
1
10
13.9115021209145
20
1.89740904923417
30
0
41
1
10
13.691568121697
20
1.9817805041871
30
0
41
1
10
13.0312978768784
20
2.21181693694237
30
0
41
1
10
12.5883632272338
20
2.33509286655541
30
0
41
1
10
11.6883084441131
20
2.52706473471508
30
0
41
1
10
11.2310937816085
20
2.59569816332089
30
0
41
1
10
10.5293239986727
20
2.66787828987444
30
0
41
1
10
10.2927672908618
20
2.68688105545144
30
0
41
1
10
9.81384082905385
20
2.71706438567475
30
0
41
1
10
9.57206687474979
20
2.72821261377143
30
0
41
1
10
9.08572499646573
20
2.74502542942119
30
0
41
1
10
8.8406114448706
20
2.75072212402949
30
0
41
1
10
8.47145899933869
20
2.7567887641174
30
0
41
1
10
8.34813353217058
20
2.75839559529123
30
0
41
1
10
8.16272264358923
20
2.76034343750831
30
0
41
1
10
8.06991152775305
20
2.76120122030366
30
0
41
1
10
7.9614445143126
20
2.76202791421869
30
0
41
1
10
7.91491822002152
20
2.76234764015001
30
0
41
1
10
7.8838916738998
20
2.76255339924819
30
0
41
1
10
7.8683599700534
20
2.76269683772591
30
0
41
1
10
7.8373613578149
20
2.76274617886602
30
0
41
1
10
7.82155809514492
20
2.76263451821663
30
0
41
1
10
7.79201116672007
20
2.76193398854383
30
0
41
1
10
7.7787436254462
20
2.76125324683952
30
0
41
1
10
7.73788137709533
20
2.75934072260009
30
0
41
1
10
7.71088201174319
20
2.75791566805816
30
0
41
1
10
7.63068426931994
20
2.75311417816158
30
0
41
1
10
7.57816436395601
20
2.74920372360396
30
0
41
1
10
7.42626847135489
20
2.73474394996512
30
0
41
1
10
7.33185924228971
20
2.72166463930773
30
0
41
1
10
7.2072424898397
20
2.69167786663127
30
0
41
1
10
7.168202298675
20
2.6797481993089
30
0
41
1
10
7.10032800528995
20
2.65132447067961
30
0
41
1
10
7.07167181769657
20
2.63498260768859
30
0
41
1
10
7.02735245315893
20
2.59660916258301
30
0
41
1
10
7.01227914814456
20
2.57481993639814
30
0
41
1
10
6.99783855593665
20
2.52706228051454
30
0
41
1
10
6.99840064353754
20
2.50048919053532
30
0
41
1
10
7.01364556317421
20
2.44497389122668
30
0
41
1
10
7.02813950884877
20
2.41583480112607
30
0
41
1
10
7.06778951546468
20
2.35573222268371
30
0
41
1
10
7.09247190580908
20
2.3253790723025
30
0
41
1
10
7.17707334164822
20
2.23332206936726
30
0
41
1
10
7.24805576358261
20
2.17012119893761
30
0
41
1
10
7.40161327207124
20
2.04515227376015
30
0
41
1
10
7.48477110295897
20
1.98287143420384
30
0
41
1
10
7.65914200332116
20
1.85782174293462
30
0
41
1
10
7.75080939897731
20
1.79481862635132
30
0
41
1
10
8.03099589777494
20
1.6068655605207
30
0
41
1
10
8.22492613120551
20
1.48253681102091
30
0
41
1
10
8.62060153756366
20
1.23262352926756
30
0
41
1
10
8.82250084152199
20
1.10711265442472
30
0
41
1
10
9.02734675884088
20
0.980553415097944
30
0
0
SPLINE
5
D9
100
AcDbEntity
8
1
62
256
6
ByLayer
370
18
48
1
60
0
100
AcDbSpline
70
4
71
3
72
8
73
4
40
0
40
0
40
0
40
0
40
1
40
1
40
1
40
1
41
1
10
56.0716384702316
20
-2.6516262843094
30
0
41
1
10
56.0567039970939
20
-2.65917232940655
30
0
41
1
10
56.0430700814679
20
-2.66297426678426
30
0
41
1
10
56.0307605517238
20
-2.66296349818378
30
0
0
SPLINE
5
DA
100
AcDbEntity
8
1
62
256
6
ByLayer
370
13
48
1
60
0
100
AcDbSpline
70
4
71
3
72
8
73
4
40
0
40
0
40
0
40
0
40
1
40
1
40
1
40
1
41
1
10
9.08271977709242
20
-2.64178664988125
30
0
41
1
10
9.09543712776571
20
-2.63879906704389
30
0
41
1
10
9.10945028120011
20
-2.63609204506574
30
0
41
1
10
9.12495182839641
20
-2.63372259936625
30
0
0
SPLINE
5
DB
100
AcDbEntity
8
1
62
256
6
ByLayer
370
18
48
1
60
0
100
AcDbSpline
70
4
71
3
72
18
73
14
40
0
40
0
40
0
40
0
40
0.250000000000003
40
0.250000000000003
40
0.375000000000004
40
0.375000000000004
40
0.500000000000005
40
0.500000000000005
40
0.750000000000008
40
0.750000000000008
40
0.875000000000004
40
0.875000000000004
40
1
40
1
40
1
40
1
41
1
10
56.6297235458371
20
1.37042073050765
30
0
41
1
10
56.5876186509992
20
1.48409437338219
30
0
41
1
10
56.545256664911
20
1.5976981425087
30
0
41
1
10
56.4812004601841
20
1.76738311839489
30
0
41
1
10
56.4597780853162
20
1.82384263195047
30
0
41
1
10
56.416950036381
20
1.93678592284141
30
0
41
1
10
56.3955191086392
20
1.99323301034289
30
0
41
1
10
56.3310656006964
20
2.16234076373084
30
0
41
1
10
56.2878110453666
20
2.27486340226571
30
0
41
1
10
56.2224195900283
20
2.44126666672642
30
0
41
1
10
56.2006111601889
20
2.49668701704024
30
0
41
1
10
56.1568922833709
20
2.60709891411003
30
0
41
1
10
56.1349811359266
20
2.66208751663473
30
0
41
1
10
56.1129027756129
20
2.71637328164053
30
0
0
SPLINE
5
DC
100
AcDbEntity
8
1
62
256
6
ByLayer
370
18
48
1
60
0
100
AcDbSpline
70
4
71
3
72
22
73
18
40
0
40
0
40
0
40
0
40
0.124999999999996
40
0.124999999999996
40
0.187499999999996
40
0.187499999999996
40
0.249999999999997
40
0.249999999999997
40
0.374999999999997
40
0.374999999999997
40
0.499999999999998
40
0.499999999999998
40
0.749999999999999
40
0.749999999999999
40
0.874999999999999
40
0.874999999999999
40
1
40
1
40
1
40
1
41
1
10
53.7174401373789
20
0.991900955332966
30
0
41
1
10
53.7459969144339
20
0.868784870018288
30
0
41
1
10
53.7855288986362
20
0.745569122322593
30
0
41
1
10
53.8592086338158
20
0.560614904579495
30
0
41
1
10
53.8863342904515
20
0.498633073316427
30
0
41
1
10
53.944392483203
20
0.376344959284239
30
0
41
1
10
53.9752614628406
20
0.316105477996956
30
0
41
1
10
54.072831498137
20
0.137827132711578
30
0
41
1
10
54.144482668398
20
0.0222219848174348
30
0
41
1
10
54.2990033978302
20
-0.203472807604584
30
0
41
1
10
54.3810353645662
20
-0.312273142509127
30
0
41
1
10
54.6356401370201
20
-0.62480990925846
30
0
41
1
10
54.8179573712332
20
-0.81687921923313
30
0
41
1
10
55.10580153154
20
-1.08638021782454
30
0
41
1
10
55.2036897976112
20
-1.17256827913988
30
0
41
1
10
55.4016485080775
20
-1.3373938510718
30
0
41
1
10
55.5019285009933
20
-1.41621433948427
30
0
41
1
10
55.6034236423731
20
-1.4916786473764
30
0
0
SPLINE
5
DD
100
AcDbEntity
8
1
62
256
6
ByLayer
370
18
48
1
60
0
100
AcDbSpline
70
4
71
3
72
12
73
8
40
0
40
0
40
0
40
0
40
0.249999999999986
40
0.249999999999986
40
0.499999999999972
40
0.499999999999972
40
1
40
1
40
1
40
1
41
1
10
9.02734675884861
20
0.980553415092686
30
0
41
1
10
9.03839517660941
20
0.97443295130509
30
0
41
1
10
9.05296111237132
20
0.9663906872224
30
0
41
1
10
9.08642733755994
20
0.947655371028418
30
0
41
1
10
9.10565798255567
20
0.9367693840112
30
0
41
1
10
9.16578078442228
20
0.902085679554091
30
0
41
1
10
9.20934434646449
20
0.876071465007414
30
0
41
1
10
9.25063400494975
20
0.850560047270164
30
0
0
SPLINE
5
DE
100
AcDbEntity
8
1
62
256
6
ByLayer
370
13
48
1
60
0
100
AcDbSpline
70
4
71
3
72
10
73
6
40
0
40
0
40
0
40
0
40
0.5
40
0.5
40
1
40
1
40
1
40
1
41
1
10
9.02717039606597
20
-2.60452734696375
30
0
41
1
10
9.03764354876478
20
-2.58912270048759
30
0
41
1
10
9.05123199395678
20
-2.57435844875514
30
0
41
1
10
9.08413029725227
20
-2.54778512308334
30
0
41
1
10
9.10308652056975
20
-2.53614241552253
30
0
41
1
10
9.12495182839641
20
-2.52647291780624
30
0
0
SPLINE
5
DF
100
AcDbEntity
8
1
62
256
6
ByLayer
370
18
48
1
60
0
100
AcDbSpline
70
4
71
3
72
8
73
4
40
0
40
0
40
0
40
0
40
1
40
1
40
1
40
1
41
1
10
56.0428112498248
20
-2.77697317912771
30
0
41
1
10
56.0477415004806
20
-2.76394052420017
30
0
41
1
10
56.0526674349873
20
-2.75090203907791
30
0
41
1
10
56.057588913212
20
-2.73785810897215
30
0
0
SPLINE
5
E0
100
AcDbEntity
8
1
62
256
6
ByLayer
370
18
48
1
60
0
100
AcDbSpline
70
4
71
3
72
72
73
68
40
0
40
0
40
0
40
0
40
0.0122376661028688
40
0.0122376661028688
40
0.0505379689442924
40
0.0505379689442924
40
0.0888382717857159
40
0.0888382717857159
40
0.165438877468563
40
0.165438877468563
40
0.24203948315141
40
0.24203948315141
40
0.280339785992834
40
0.280339785992834
40
0.318640088834258
40
0.318640088834258
40
0.395240694517105
40
0.395240694517105
40
0.433540997358529
40
0.433540997358529
40
0.45269114877924
40
0.45269114877924
40
0.455084917706829
40
0.456281802170624
40
0.456581023286573
40
0.456581023286573
40
0.456880244402521
40
0.456880244402521
40
0.457478686634418
40
0.457478686634418
40
0.462266224489596
40
0.462266224489596
40
0.471841300199952
40
0.471841300199952
40
0.510141603041376
40
0.510141603041376
40
0.548441905882801
40
0.548441905882801
40
0.625042511565649
40
0.625042511565649
40
0.701643117248497
40
0.701643117248497
40
0.720793268669209
40
0.720793268669209
40
0.730368344379565
40
0.730368344379565
40
0.735155882234743
40
0.735155882234743
40
0.736352766698538
40
0.736352766698538
40
0.736651987814486
40
0.736651987814486
40
0.736951208930435
40
0.736951208930435
40
0.737549651162332
40
0.739943420089921
40
0.778243722931346
40
0.778243722931346
40
0.816544025772771
40
0.816544025772771
40
0.854844328614196
40
0.854844328614196
40
0.931444934297047
40
0.931444934297047
40
0.969745237138472
40
0.969745237138472
40
1
40
1
40
1
40
1
41
1
10
14.7791094140439
20
1.51106712481229
30
0
41
1
10
14.7474622532742
20
1.51922887094418
30
0
41
1
10
14.7158038233421
20
1.52709197056331
30
0
41
1
10
14.5850059782126
20
1.5582645929787
30
0
41
1
10
14.4857339457674
20
1.57878659195069
30
0
41
1
10
14.2865711213179
20
1.61242465774652
30
0
41
1
10
14.1863278060759
20
1.62556487094031
30
0
41
1
10
13.8865964600826
20
1.65171135905604
30
0
41
1
10
13.68952667996
20
1.65129466262636
30
0
41
1
10
13.2971254784523
20
1.61101762138117
30
0
41
1
10
13.1017682016548
20
1.57115055165988
30
0
41
1
10
12.8055365583984
20
1.48224766332379
30
0
41
1
10
12.706899221711
20
1.44796320754384
30
0
41
1
10
12.5114908193187
20
1.37206204150823
30
0
41
1
10
12.4143323923067
20
1.33033525988009
30
0
41
1
10
12.1231994626375
20
1.19561806950688
30
0
41
1
10
11.9295463381307
20
1.09312553146685
30
0
41
1
10
11.6350447563689
20
0.926959474855948
30
0
41
1
10
11.5365864964061
20
0.869699565965675
30
0
41
1
10
11.3888960570981
20
0.78241431871848
30
0
41
1
10
11.3396188344189
20
0.753059122306752
30
0
41
1
10
11.2841695583571
20
0.719871068700797
30
0
41
1
10
11.2749275738478
20
0.714336209996134
30
0
41
1
10
11.2649146551682
20
0.708334803108329
30
0
41
1
10
11.2610634170575
20
0.706025758287041
30
0
41
1
10
11.2595229124539
20
0.705102076076145
30
0
41
1
10
11.2594280045401
20
0.704165287245615
30
0
41
1
10
11.2608199058738
20
0.701932983612068
30
0
41
1
10
11.2621172092165
20
0.700716477090623
30
0
41
1
10
11.2734980845954
20
0.689866707531905
30
0
41
1
10
11.285110260248
20
0.681941020998437
30
0
41
1
10
11.3191087311836
20
0.657414201834825
30
0
41
1
10
11.342202072496
20
0.64169296370369
30
0
41
1
10
11.4579966156267
20
0.563588610872301
30
0
41
1
10
11.5519798988977
20
0.503201034828351
30
0
41
1
10
11.740064534221
20
0.382830161096223
30
0
41
1
10
11.8343827978359
20
0.323145772587395
30
0
41
1
10
12.1176864953659
20
0.144899364712217
30
0
41
1
10
12.3065702149088
20
0.0266086425740752
30
0
41
1
10
12.6847133045811
20
-0.208478072267042
30
0
41
1
10
12.8737329122142
20
-0.325740826514647
30
0
41
1
10
13.1082166530698
20
-0.473703813399766
30
0
41
1
10
13.15502738517
20
-0.503361735468644
30
0
41
1
10
13.2247655996343
20
-0.548303604777175
30
0
41
1
10
13.2479591337601
20
-0.56334055305166
30
0
41
1
10
13.2822635219216
20
-0.586330641844853
30
0
41
1
10
13.2937295613746
20
-0.593993412753406
30
0
41
1
10
13.3072935924774
20
-0.604174733633812
30
0
41
1
10
13.3100722299662
20
-0.606205609915747
30
0
41
1
10
13.3129023702067
20
-0.609073577279219
30
0
41
1
10
13.3138010985393
20
-0.609810461178341
30
0
41
1
10
13.3130946090255
20
-0.610818895419698
30
0
41
1
10
13.3121491363257
20
-0.610871599262396
30
0
41
1
10
13.3101368644315
20
-0.611653226329878
30
0
41
1
10
13.3034293931583
20
-0.614252340271804
30
0
41
1
10
13.2108794163854
20
-0.649682949655528
30
0
41
1
10
13.119655414842
20
-0.678726643623264
30
0
41
1
10
12.948453331982
20
-0.72170882039282
30
0
41
1
10
12.8630342118105
20
-0.737413053663602
30
0
41
1
10
12.6910038067899
20
-0.75656590662453
30
0
41
1
10
12.6039497411274
20
-0.759983208445618
30
0
41
1
10
12.3416141069073
20
-0.750680608977547
30
0
41
1
10
12.1661930210312
20
-0.718596141546016
30
0
41
1
10
11.8920593565945
20
-0.634435612466689
30
0
41
1
10
11.798268952871
20
-0.60012345846124
30
0
41
1
10
11.6303836065491
20
-0.530874162325745
30
0
41
1
10
11.5560222701929
20
-0.497545655761456
30
0
41
1
10
11.4812162354129
20
-0.461966369297073
30
0
0
SPLINE
5
E1
100
AcDbEntity
8
1
62
256
6
ByLayer
370
18
48
1
60
0
100
AcDbSpline
70
4
71
3
72
28
73
24
40
0
40
0
40
0
40
0
40
0.249999999999997
40
0.249999999999997
40
0.374999999999996
40
0.374999999999996
40
0.499999999999994
40
0.499999999999994
40
0.624999999999993
40
0.624999999999993
40
0.687499999999992
40
0.687499999999992
40
0.749999999999992
40
0.749999999999992
40
0.812499999999991
40
0.812499999999991
40
0.87499999999999
40
0.87499999999999
40
0.906249999999993
40
0.906249999999993
40
0.937499999999995
40
0.937499999999995
40
1
40
1
40
1
40
1
41
1
10
53.7174401373794
20
0.991900955333108
30
0
41
1
10
53.9068253255465
20
0.844178072832193
30
0
41
1
10
54.0987586372141
20
0.708997409700345
30
0
41
1
10
54.3921936900851
20
0.53347087741659
30
0
41
1
10
54.4909030953469
20
0.479380741190084
30
0
41
1
10
54.6904112001181
20
0.381484266508124
30
0
41
1
10
54.7916445009997
20
0.337510432218039
30
0
41
1
10
54.9917364660179
20
0.26339765580687
30
0
41
1
10
55.0910665858999
20
0.232955094377615
30
0
41
1
10
55.238850371556
20
0.198483275496613
30
0
41
1
10
55.2879101000691
20
0.188854628137705
30
0
41
1
10
55.3855934392966
20
0.173626608680337
30
0
41
1
10
55.4345153175905
20
0.167142441433072
30
0
41
1
10
55.5278172975853
20
0.168263614631655
30
0
41
1
10
55.571541938899
20
0.175342358591706
30
0
41
1
10
55.6519041437039
20
0.205285623761427
30
0
41
1
10
55.6885708834464
20
0.228699500830686
30
0
41
1
10
55.7308445348673
20
0.278893307523276
30
0
41
1
10
55.7428928190104
20
0.298364159871085
30
0
41
1
10
55.7610516623975
20
0.341424021556804
30
0
41
1
10
55.7672946098831
20
0.365293484316112
30
0
41
1
10
55.777555193952
20
0.443538656813104
30
0
41
1
10
55.7735035297675
20
0.500334124059975
30
0
41
1
10
55.7627920285573
20
0.559062322408209
30
0
0
SPLINE
5
E2
100
AcDbEntity
8
1
62
256
6
ByLayer
370
18
48
1
60
0
100
AcDbSpline
70
4
71
3
72
8
73
4
40
0
40
0
40
0
40
0
40
1
40
1
40
1
40
1
41
1
10
9.12433317738305
20
-2.65083232069128
30
0
41
1
10
9.10931319899183
20
-2.64827168669859
30
0
41
1
10
9.09545748539904
20
-2.64526524348528
30
0
41
1
10
9.08271977709191
20
-2.64178664988
30
0
0
SPLINE
5
E3
100
AcDbEntity
8
1
62
256
6
ByLayer
370
18
48
1
60
0
100
AcDbSpline
70
4
71
3
72
26
73
22
40
0
40
0
40
0
40
0
40
0.145711629210733
40
0.145711629210733
40
0.239117138949804
40
0.239117138949804
40
0.285819893819338
40
0.285819893819338
40
0.332522648688873
40
0.332522648688873
40
0.519333668167004
40
0.519333668167004
40
0.61273917790607
40
0.61273917790607
40
0.659441932775602
40
0.659441932775602
40
0.706144687645134
40
0.706144687645134
40
0.892955707123259
40
0.892955707123259
40
1
40
1
40
1
40
1
41
1
10
13.9186833940822
20
2.07547484111262
30
0
41
1
10
14.2978630182934
20
1.9336716080843
30
0
41
1
10
14.6758608582771
20
1.77242989185072
30
0
41
1
10
15.298871100906
20
1.48192308989019
30
0
41
1
10
15.5428563685243
20
1.36186188977706
30
0
41
1
10
15.9107847137291
20
1.17322579070586
30
0
41
1
10
16.0340111097295
20
1.10877684595425
30
0
41
1
10
16.2796370706106
20
0.97825468709587
30
0
41
1
10
16.4021001134481
20
0.912163452376717
30
0
41
1
10
17.013062963791
20
0.578250506942879
30
0
41
1
10
17.4975022060187
20
0.300068541718758
30
0
41
1
10
18.2261159596831
20
-0.118821173475538
30
0
41
1
10
18.4693385397012
20
-0.258677224727847
30
0
41
1
10
18.835670945964
20
-0.467084907430063
30
0
41
1
10
18.9580445840568
20
-0.536301563233053
30
0
41
1
10
19.203478091079
20
-0.673945050011412
30
0
41
1
10
19.3267495617235
20
-0.742486581918655
30
0
41
1
10
19.9403716029
20
-1.07982973562284
30
0
41
1
10
20.4257493925757
20
-1.33369675712134
30
0
41
1
10
21.1894309665948
20
-1.6947615921577
30
0
41
1
10
21.4676299725506
20
-1.81837453762165
30
0
41
1
10
21.7469049359356
20
-1.93248430219069
30
0
0
SPLINE
5
E4
100
AcDbEntity
8
1
62
256
6
ByLayer
370
13
48
1
60
0
100
AcDbSpline
70
4
71
3
72
18
73
14
40
0
40
0
40
0
40
0
40
0.125919525403162
40
0.125919525403162
40
0.273368976063323
40
0.273368976063323
40
0.420818426723484
40
0.420818426723484
40
0.568267877383645
40
0.568267877383645
40
0.715717328043805
40
0.715717328043805
40
1
40
1
40
1
40
1
41
1
10
21.7469040102906
20
-1.93248392397865
30
0
41
1
10
21.9550130265769
20
-2.01751580487999
30
0
41
1
10
22.1637195077759
20
-2.09727069046153
30
0
41
1
10
22.6190734393251
20
-2.25753334010702
30
0
41
1
10
22.8652296463947
20
-2.33537481110324
30
0
41
1
10
23.3559828674924
20
-2.47148334237201
30
0
41
1
10
23.6011398009701
20
-2.53000164766439
30
0
41
1
10
24.0924153046329
20
-2.62665930483951
30
0
41
1
10
24.3386656559429
20
-2.66465760147537
30
0
41
1
10
24.8274519122563
20
-2.71885958074543
30
0
41
1
10
25.070718082724
20
-2.73528839354066
30
0
41
1
10
25.7816999981392
20
-2.75191696428828
30
0
41
1
10
26.2484418732481
20
-2.72307752684492
30
0
41
1
10
26.7186930142771
20
-2.65491160651479
30
0
0
SPLINE
5
E5
100
AcDbEntity
8
1
62
256
6
ByLayer
370
13
48
1
60
0
100
AcDbSpline
70
4
71
3
72
14
73
10
40
0
40
0
40
0
40
0
40
0.189205906411045
40
0.189205906411045
40
0.395988468953334
40
0.395988468953334
40
0.602771031495622
40
0.602771031495622
40
1
40
1
40
1
40
1
41
1
10
40.7623373627228
20
2.74725533640043
30
0
41
1
10
40.9842052719461
20
2.73947392657496
30
0
41
1
10
41.2059988719361
20
2.72274804616242
30
0
41
1
10
41.6711195481048
20
2.66911822540084
30
0
41
1
10
41.9144696617303
20
2.63052609520273
30
0
41
1
10
42.4035910922048
20
2.53246108600825
30
0
41
1
10
42.6500414763272
20
2.47271022457426
30
0
41
1
10
43.363957599112
20
2.27182571980194
30
0
41
1
10
43.8288923553104
20
2.10570692941602
30
0
41
1
10
44.2947244843399
20
1.91218491525632
30
0
0
SPLINE
5
E6
100
AcDbEntity
8
1
62
256
6
ByLayer
370
18
48
1
60
0
100
AcDbSpline
70
4
71
3
72
28
73
24
40
0
40
0
40
0
40
0
40
0.0073421537979665
40
0.0073421537979665
40
0.100278908075408
40
0.100278908075408
40
0.146747285214129
40
0.146747285214129
40
0.19321566235285
40
0.19321566235285
40
0.379089170907732
40
0.379089170907732
40
0.564962679462616
40
0.564962679462616
40
0.657899433740055
40
0.657899433740055
40
0.750836188017494
40
0.750836188017494
40
0.843772942294934
40
0.843772942294934
40
0.936709696572373
40
0.936709696572373
40
1
40
1
40
1
40
1
41
1
10
44.2947244840753
20
1.91218491536625
30
0
41
1
10
44.3138819656246
20
1.90422626634998
30
0
41
1
10
44.333040964891
20
1.89622127054898
30
0
41
1
10
44.5947399063876
20
1.7862625573585
30
0
41
1
10
44.8374333308278
20
1.67679446544164
30
0
41
1
10
45.2027474254746
20
1.50256162305192
30
0
41
1
10
45.3247466582767
20
1.44283747483874
30
0
41
1
10
45.5694884837876
20
1.32050570831672
30
0
41
1
10
45.6924774290836
20
1.25777437149503
30
0
41
1
10
46.3064403789676
20
0.938314611149139
30
0
41
1
10
46.7914062842979
20
0.666389170716684
30
0
41
1
10
47.7608130085723
20
0.110633176791453
30
0
41
1
10
48.2454972703052
20
-0.172811433931145
30
0
41
1
10
48.9803136344984
20
-0.592652863793887
30
0
41
1
10
49.2264379399302
20
-0.731296446334625
30
0
41
1
10
49.716494179195
20
-1.00067559464662
30
0
41
1
10
49.9611967085593
20
-1.13186462176364
30
0
41
1
10
50.451460900332
20
-1.38481347740182
30
0
41
1
10
50.6976426617451
20
-1.50666818657035
30
0
41
1
10
51.1862461386829
20
-1.73570253983016
30
0
41
1
10
51.4293538526344
20
-1.84324416765662
30
0
41
1
10
51.8371261901177
20
-2.01105160749856
30
0
41
1
10
52.0020693936739
20
-2.07545286430846
30
0
41
1
10
52.1669926063418
20
-2.13602032381371
30
0
0
SPLINE
5
E7
100
AcDbEntity
8
1
62
256
6
ByLayer
370
13
48
1
60
0
100
AcDbSpline
70
4
71
3
72
14
73
10
40
0
40
0
40
0
40
0
40
0.24797819229481
40
0.24797819229481
40
0.435983644221109
40
0.435983644221109
40
0.623989096147409
40
0.623989096147409
40
1
40
1
40
1
40
1
41
1
10
52.1669935442047
20
-2.13602066824041
30
0
41
1
10
52.486423142716
20
-2.25333001679013
30
0
41
1
10
52.8057777502077
20
-2.3562574760457
30
0
41
1
10
53.3700900522234
20
-2.50869796133591
30
0
41
1
10
53.614584437042
20
-2.565176366955
30
0
41
1
10
54.1058566603959
20
-2.65767836233846
30
0
41
1
10
54.3502376610812
20
-2.69333283623109
30
0
41
1
10
55.0820929342614
20
-2.76806669768828
30
0
41
1
10
55.5681833376307
20
-2.77492960909595
30
0
41
1
10
56.0575889132119
20
-2.73785810897232
30
0
0
SPLINE
5
E8
100
AcDbEntity
8
1
62
256
6
ByLayer
370
13
48
1
60
0
100
AcDbSpline
70
4
71
3
72
30
73
26
40
0
40
0
40
0
40
0
40
0.125
40
0.125
40
0.1875
40
0.1875
40
0.25
40
0.25
40
0.375
40
0.375
40
0.4375
40
0.4375
40
0.5
40
0.5
40
0.625
40
0.625
40
0.6875
40
0.6875
40
0.75
40
0.75
40
0.875
40
0.875
40
0.9375
40
0.9375
40
1
40
1
40
1
40
1
41
1
10
9.25033277697247
20
-2.50761521029176
30
0
41
1
10
9.25035436641207
20
-2.45369180528971
30
0
41
1
10
9.2503648140281
20
-2.38387228579984
30
0
41
1
10
9.25037065276248
20
-2.25562735046029
30
0
41
1
10
9.25037093732448
20
-2.20875242255349
30
0
41
1
10
9.25036935990761
20
-2.10883043298986
30
0
41
1
10
9.25036751393739
20
-2.05562159545977
30
0
41
1
10
9.25036053388675
20
-1.88643946773664
30
0
41
1
10
9.25035396685823
20
-1.76057165181837
30
0
41
1
10
9.25034741009299
20
-1.55322490629487
30
0
41
1
10
9.25034578805281
20
-1.48165975624508
30
0
41
1
10
9.25034448647665
20
-1.33365950193675
30
0
41
1
10
9.25034481872294
20
-1.25693854371005
30
0
41
1
10
9.25034966062702
20
-1.02298232761828
30
0
41
1
10
9.25035804383009
20
-0.86122103070096
30
0
41
1
10
9.25038011792566
20
-0.610013289666938
30
0
41
1
10
9.25038905384102
20
-0.524744711496538
30
0
41
1
10
9.25041010602058
20
-0.35162040545589
30
0
41
1
10
9.25042217581722
20
-0.264228714671901
30
0
41
1
10
9.25046201635644
20
-0.0033974951115567
30
0
41
1
10
9.25049357471414
20
0.169648659535454
30
0
41
1
10
9.25054495766705
20
0.427968912074164
30
0
41
1
10
9.25056280365223
20
0.51414779671282
30
0
41
1
10
9.25059873605193
20
0.684821251308904
30
0
41
1
10
9.25061664166367
20
0.76849566072454
30
0
41
1
10
9.25063400494966
20
0.850560047022014
30
0
0
SPLINE
5
E9
100
AcDbEntity
8
1
62
256
6
ByLayer
370
18
48
1
60
0
100
AcDbSpline
70
4
71
3
72
8
73
4
40
0
40
0
40
0
40
0
40
1
40
1
40
1
40
1
41
1
10
56.0428112498187
20
2.77697317914402
30
0
41
1
10
55.838493266361
20
2.79225082392494
30
0
41
1
10
55.6343547627952
20
2.79978590648241
30
0
41
1
10
55.4299976557252
20
2.79959001440753
30
0
0
SPLINE
5
EA
100
AcDbEntity
8
1
62
256
6
ByLayer
370
18
48
1
60
0
100
AcDbSpline
70
4
71
3
72
48
73
44
40
0
40
0
40
0
40
0
40
0.0115480851752932
40
0.0115480851752932
40
0.0338336037413544
40
0.0338336037413544
40
0.122975678005603
40
0.122975678005603
40
0.167546715137729
40
0.167546715137729
40
0.189832233703791
40
0.189832233703791
40
0.212117752269854
40
0.212117752269854
40
0.301259826534103
40
0.301259826534103
40
0.390401900798351
40
0.390401900798351
40
0.434972937930476
40
0.434972937930476
40
0.4795439750626
40
0.4795439750626
40
0.568686049326847
40
0.568686049326847
40
0.61325708645897
40
0.61325708645897
40
0.657828123591094
40
0.657828123591094
40
0.746970197855343
40
0.746970197855343
40
0.769255716421404
40
0.769255716421404
40
0.791541234987465
40
0.791541234987465
40
0.836112272119588
40
0.836112272119588
40
0.925254346383832
40
0.925254346383832
40
0.969825383515954
40
0.969825383515954
40
0.992110902082015
40
0.992110902082015
40
1
40
1
40
1
40
1
41
1
10
41.9466674240519
20
-2.65796797714873
30
0
41
1
10
41.882879492928
20
-2.66935889615075
30
0
41
1
10
41.8190487754483
20
-2.68004160144071
30
0
41
1
10
41.6322981895822
20
-2.70916310221872
30
0
41
1
10
41.5096495340485
20
-2.72558880638584
30
0
41
1
10
40.8977232385805
20
-2.79399415690173
30
0
41
1
10
40.4126623504485
20
-2.80491477442106
30
0
41
1
10
39.683204102825
20
-2.75602166674645
30
0
41
1
10
39.4396338115283
20
-2.72886982160398
30
0
41
1
10
39.0726674848135
20
-2.67195755143379
30
0
41
1
10
38.9500787857946
20
-2.65028722638192
30
0
41
1
10
38.7041991619394
20
-2.60154671067963
30
0
41
1
10
38.5807676755084
20
-2.57442876662842
30
0
41
1
10
37.9665678512882
20
-2.42676954461049
30
0
41
1
10
37.48044215889
20
-2.26973609329588
30
0
41
1
10
36.5084128626854
20
-1.88972894434497
30
0
41
1
10
36.0216883134619
20
-1.66773189082224
30
0
41
1
10
35.2830609034114
20
-1.29503813049607
30
0
41
1
10
35.0372451516095
20
-1.16551581632476
30
0
41
1
10
34.5485552455148
20
-0.899951556468039
30
0
41
1
10
34.3051671901547
20
-0.763574296900941
30
0
41
1
10
33.5755852285408
20
-0.347571621335533
30
0
41
1
10
33.0900308838722
20
-0.0609795431494149
30
0
41
1
10
32.354228227819
20
0.367838340004425
30
0
41
1
10
32.1069469470219
20
0.510962273229296
30
0
41
1
10
31.6165932256646
20
0.789682275606538
30
0
41
1
10
31.3726644334015
20
0.925806942388675
30
0
41
1
10
30.6423052457945
20
1.32088086559381
30
0
41
1
10
30.1571052633091
20
1.56625417503034
30
0
41
1
10
29.5460797382341
20
1.84021818501651
30
0
41
1
10
29.423615216561
20
1.89332567777444
30
0
41
1
10
29.1779909124035
20
1.99590394951187
30
0
41
1
10
29.0545808812962
20
2.04548477265166
30
0
41
1
10
28.6851804183812
20
2.18763339204926
30
0
41
1
10
28.4404310869905
20
2.27343115506432
30
0
41
1
10
27.708443609838
20
2.50231433852821
30
0
41
1
10
27.2234024120927
20
2.61686336220291
30
0
41
1
10
26.4918900514162
20
2.72590873029395
30
0
41
1
10
26.247375654249
20
2.75177602138194
30
0
41
1
10
25.8784249771919
20
2.77410024272288
30
0
41
1
10
25.7548818424157
20
2.77879257621018
30
0
41
1
10
25.5883816745738
20
2.78134473735136
30
0
41
1
10
25.5448969392428
20
2.78166252086891
30
0
41
1
10
25.501453038006
20
2.78163281150526
30
0
0
SPLINE
5
EB
100
AcDbEntity
8
1
62
256
6
ByLayer
370
18
48
1
60
0
100
AcDbSpline
70
4
71
3
72
12
73
8
40
0
40
0
40
0
40
0
40
0.491223577081053
40
0.491223577081053
40
0.745611788540527
40
0.745611788540527
40
1
40
1
40
1
40
1
41
1
10
12.0114626061809
20
-2.64175457924185
30
0
41
1
10
11.5401361773662
20
-2.7250136729912
30
0
41
1
10
11.071330126653
20
-2.76911489439456
30
0
41
1
10
10.3560130798025
20
-2.77417951275686
30
0
41
1
10
10.1112243385938
20
-2.76495578263041
30
0
41
1
10
9.61852133827543
20
-2.72431354362632
30
0
41
1
10
9.37121680103175
20
-2.69292150234551
30
0
41
1
10
9.12433317738245
20
-2.65083232069117
30
0
0
SPLINE
5
EC
100
AcDbEntity
8
SK1
62
256
6
ByLayer
370
18
48
1
60
0
100
AcDbSpline
70
4
71
3
72
8
73
4
40
0
40
0
40
0
40
0
40
1
40
1
40
1
40
1
41
1
10
-36
20
-1.53839318476383
30
0
41
1
10
-35.8061863788745
20
-1.75759430933107
30
0
41
1
10
-35.6038183496577
20
-1.97428835558142
30
0
41
1
10
-35.4
20
-2.19052562131844
30
0
0
SPLINE
5
ED
100
AcDbEntity
8
SK1
62
256
6
ByLayer
370
18
48
1
60
0
100
AcDbSpline
70
4
71
3
72
8
73
4
40
0
40
0
40
0
40
0
40
1
40
1
40
1
40
1
41
1
10
-35.4
20
-0.979387696350784
30
0
41
1
10
-35.6037671791476
20
-0.763204719009394
30
0
41
1
10
-35.8060911221569
20
-0.546564118688309
30
0
41
1
10
-36
20
-0.327255259796175
30
0
0
SPLINE
5
EE
100
AcDbEntity
8
SK1
62
256
6
ByLayer
370
18
48
1
60
0
100
AcDbSpline
70
4
71
3
72
14
73
10
40
0
40
0
40
0
40
0
40
0.125
40
0.125
40
0.249999999999999
40
0.249999999999999
40
0.5
40
0.5
40
1
40
1
40
1
40
1
41
1
10
-35.3
20
-1.18033179447511
30
0
41
1
10
-35.3
20
-1.17021415208489
30
0
41
1
10
-35.3017593723636
20
-1.15901165822257
30
0
41
1
10
-35.3069353411979
20
-1.13750501147112
30
0
41
1
10
-35.3102739075534
20
-1.1272425104394
30
0
41
1
10
-35.3215583577555
20
-1.09728469613845
30
0
41
1
10
-35.3303095934911
20
-1.07950296415902
30
0
41
1
10
-35.358391202053
20
-1.02943089069285
30
0
41
1
10
-35.378655954467
20
-1.00203226222811
30
0
41
1
10
-35.4
20
-0.979387696350784
30
0
0
SPLINE
5
EF
100
AcDbEntity
8
SK1
62
256
6
ByLayer
370
18
48
1
60
0
100
AcDbSpline
70
4
71
3
72
14
73
10
40
0
40
0
40
0
40
0
40
0.499999999999998
40
0.499999999999998
40
0.749999999999998
40
0.749999999999998
40
0.874999999999999
40
0.874999999999999
40
1
40
1
40
1
40
1
41
1
10
-35.3999999999999
20
-2.19052562131913
30
0
41
1
10
-35.3787677796885
20
-2.21305154831927
30
0
41
1
10
-35.3584290958895
20
-2.23070690572143
30
0
41
1
10
-35.3303626450498
20
-2.24648401739549
30
0
41
1
10
-35.3215171954455
20
-2.24988099090442
30
0
41
1
10
-35.3102812516991
20
-2.24917448871915
30
0
41
1
10
-35.3068890218584
20
-2.24792465947391
30
0
41
1
10
-35.3017585680987
20
-2.24203664520792
30
0
41
1
10
-35.3
20
-2.23727708584232
30
0
41
1
10
-35.3
20
-2.22998466278042
30
0
0
LINE
5
76
100
AcDbEntity
8
81
62
256
6
ByLayer
370
18
48
1
60
0
100
AcDbLine
10
57
20
0
30
0
11
62
21
0
31
0
39
0
210
0
220
0
230
1
0
LINE
5
77
100
AcDbEntity
8
1
62
256
6
ByLayer
370
18
48
1
60
0
100
AcDbLine
10
10.5372
20
2.772655
30
0
11
0.363797
21
2.76655
31
0
39
0
210
0
220
0
230
1
0
LINE
5
79
100
AcDbEntity
8
1
62
256
6
ByLayer
370
18
48
1
60
0
100
AcDbLine
10
25.50219
20
2.781634
30
0
11
25.007158
21
2.781336
31
0
39
0
210
0
220
0
230
1
0
LINE
5
7A
100
AcDbEntity
8
1
62
256
6
ByLayer
370
18
48
1
60
0
100
AcDbLine
10
40.466958
20
2.790612
30
0
11
39.977179
21
2.790318
31
0
39
0
210
0
220
0
230
1
0
LINE
5
7B
100
AcDbEntity
8
1
62
256
6
ByLayer
370
18
48
1
60
0
100
AcDbLine
10
55.432363
20
2.799592
30
0
11
54.947125
21
2.7993
31
0
39
0
210
0
220
0
230
1
0
LINE
5
7C
100
AcDbEntity
8
1
62
256
6
ByLayer
370
18
48
1
60
0
100
AcDbLine
10
54.947125
20
-2.7993
30
0
11
55.432471
21
-2.799592
31
0
39
0
210
0
220
0
230
1
0
LINE
5
7D
100
AcDbEntity
8
1
62
256
6
ByLayer
370
18
48
1
60
0
100
AcDbLine
10
39.977179
20
-2.790318
30
0
11
40.466798
21
-2.790612
31
0
39
0
210
0
220
0
230
1
0
LINE
5
7E
100
AcDbEntity
8
1
62
256
6
ByLayer
370
18
48
1
60
0
100
AcDbLine
10
25.007158
20
-2.781336
30
0
11
25.502222
21
-2.781634
31
0
39
0
210
0
220
0
230
1
0
LINE
5
7F
100
AcDbEntity
8
1
62
256
6
ByLayer
370
18
48
1
60
0
100
AcDbLine
10
0.363797
20
-2.76655
30
0
11
10.537391
21
-2.772655
31
0
39
0
210
0
220
0
230
1
0
LINE
5
80
100
AcDbEntity
8
SK1
62
256
6
ByLayer
370
18
48
1
60
0
100
AcDbLine
10
-35.278312
20
3
30
0
11
-36
21
1.75
31
0
39
0
210
0
220
0
230
1
0
LINE
5
82
100
AcDbEntity
8
SK1
62
256
6
ByLayer
370
18
48
1
60
0
100
AcDbLine
10
-36
20
-1.75
30
0
11
-35.278312
21
-3
31
0
39
0
210
0
220
0
230
1
0
LINE
5
83
100
AcDbEntity
8
SK1
62
256
6
ByLayer
370
18
48
1
60
0
100
AcDbLine
10
0
20
3
30
0
11
-35.278312
21
3
31
0
39
0
210
0
220
0
230
1
0
LINE
5
84
100
AcDbEntity
8
SK1
62
256
6
ByLayer
370
18
48
1
60
0
100
AcDbLine
10
-35.278312
20
-3
30
0
11
0
21
-3
31
0
39
0
210
0
220
0
230
1
0
LINE
5
85
100
AcDbEntity
8
SK4
62
256
6
ByLayer
370
18
48
0.05
60
0
100
AcDbLine
10
62
20
0
30
0
11
-41
21
0
31
0
39
0
210
0
220
0
230
1
0
LINE
5
87
100
AcDbEntity
8
4
62
256
6
ByLayer
370
18
48
0.05
60
0
100
AcDbLine
10
57
20
0
30
0
11
0
21
0
31
0
39
0
210
0
220
0
230
1
0
LINE
5
89
100
AcDbEntity
8
80
62
256
6
ByLayer
370
18
48
1
60
0
100
AcDbLine
10
0
20
0
30
0
11
-5
21
0
31
0
39
0
210
0
220
0
230
1
0
LINE
5
8A
100
AcDbEntity
8
1
62
256
6
ByLayer
370
13
48
1
60
0
100
AcDbLine
10
56.396885
20
0.586525
30
0
11
56.931706
21
0.269198
31
0
39
0
210
0
220
0
230
1
0
LINE
5
8B
100
AcDbEntity
8
1
62
256
6
ByLayer
370
13
48
1
60
0
100
AcDbLine
10
56.863668
20
0.586525
30
0
11
56.396885
21
0.586525
31
0
39
0
210
0
220
0
230
1
0
LINE
5
8C
100
AcDbEntity
8
1
62
256
6
ByLayer
370
13
48
1
60
0
100
AcDbLine
10
56.206978
20
0.251196
30
0
11
56.895266
21
-0.157188
31
0
39
0
210
0
220
0
230
1
0
LINE
5
8D
100
AcDbEntity
8
1
62
256
6
ByLayer
370
18
48
1
60
0
100
AcDbLine
10
55.603424
20
-1.491679
30
0
11
56.895266
21
-0.157188
31
0
39
0
210
0
220
0
230
1
0
LINE
5
8E
100
AcDbEntity
8
1
62
256
6
ByLayer
370
13
48
1
60
0
100
AcDbLine
10
0.181838
20
2.883275
30
0
11
0.181838
21
-2.883275
31
0
39
0
210
0
220
0
230
1
0
LINE
5
8F
100
AcDbEntity
8
1
62
256
6
ByLayer
370
13
48
1
60
0
100
AcDbLine
10
0.363797
20
2.76655
30
0
11
0.363797
21
-2.76655
31
0
39
0
210
0
220
0
230
1
0
LINE
5
90
100
AcDbEntity
8
1
62
256
6
ByLayer
370
18
48
1
60
0
100
AcDbLine
10
56.931706
20
0.269198
30
0
11
56.863668
21
0.586525
31
0
39
0
210
0
220
0
230
1
0
LINE
5
91
100
AcDbEntity
8
1
62
256
6
ByLayer
370
18
48
1
60
0
100
AcDbLine
10
0
20
-3
30
0
11
0
21
3
31
0
39
0
210
0
220
0
230
1
0
LINE
5
92
100
AcDbEntity
8
1
62
256
6
ByLayer
370
18
48
1
60
0
100
AcDbLine
10
57
20
0
30
0
11
56.995422
21
-0.028404
31
0
39
0
210
0
220
0
230
1
0
LINE
5
93
100
AcDbEntity
8
1
62
256
6
ByLayer
370
18
48
1
60
0
100
AcDbLine
10
57
20
0
30
0
11
56.030761
21
-2.662963
31
0
39
0
210
0
220
0
230
1
0
LINE
5
94
100
AcDbEntity
8
1
62
256
6
ByLayer
370
18
48
1
60
0
100
AcDbLine
10
56.931706
20
-0.269198
30
0
11
56.863668
21
-0.586525
31
0
39
0
210
0
220
0
230
1
0
LINE
5
95
100
AcDbEntity
8
1
62
256
6
ByLayer
370
18
48
1
60
0
100
AcDbLine
10
56.995422
20
0.028404
30
0
11
57
21
0
31
0
39
0
210
0
220
0
230
1
0
LINE
5
96
100
AcDbEntity
8
SK1
62
256
6
ByLayer
370
18
48
1
60
0
100
AcDbLine
10
-35.3
20
-2.229985
30
0
11
-35.3
21
-1.180332
31
0
39
0
210
0
220
0
230
1
0
LINE
5
97
100
AcDbEntity
8
SK1
62
256
6
ByLayer
370
13
48
1
60
0
100
AcDbLine
10
-35.4
20
-0.979371
30
0
11
-35.4
21
-2.190526
31
0
39
0
210
0
220
0
230
1
0
LINE
5
98
100
AcDbEntity
8
SK1
62
256
6
ByLayer
370
18
48
1
60
0
100
AcDbLine
10
-36
20
1.75
30
0
11
-36
21
-0.327255
31
0
39
0
210
0
220
0
230
1
0
LINE
5
99
100
AcDbEntity
8
SK1
62
256
6
ByLayer
370
18
48
1
60
0
100
AcDbLine
10
-35.278312
20
3
30
0
11
-35.278312
21
-3
31
0
39
0
210
0
220
0
230
1
0
LINE
5
9A
100
AcDbEntity
8
SK1
62
256
6
ByLayer
370
18
48
1
60
0
100
AcDbLine
10
0
20
-3
30
0
11
0
21
3
31
0
39
0
210
0
220
0
230
1
0
LINE
5
9B
100
AcDbEntity
8
SK1
62
256
6
ByLayer
370
18
48
1
60
0
100
AcDbLine
10
-36
20
-0.327267
30
0
11
-36
21
-1.538393
31
0
39
0
210
0
220
0
230
1
0
LINE
5
9C
100
AcDbEntity
8
SK1
62
256
6
ByLayer
370
18
48
1
60
0
100
AcDbLine
10
-36
20
-1.75
30
0
11
-36
21
-1.538393
31
0
39
0
210
0
220
0
230
1
0
MTEXT
5
F0
100
AcDbEntity
8
SK6
62
256
6
ByLayer
370
13
48
1
60
0
100
AcDbMText
10
12.629169
20
35.182694
30
0
210
0
220
0
230
1
1
\W0.7542;R840-0560-70-A1A1220
40
3.5
41
0
44
1.084337
50
0
71
8
72
5
7
iso_b_vert
0
DIMENSION
5
FD
100
AcDbEntity
8
SK2
62
256
6
ByLayer
370
13
48
1
60
0
100
AcDbDimension
2
DimnDraft3D1
10
56.05
20
-13.013398
30
0
11
26.800059
21
-13.013398
31
0
70
32
71
5
72
1
41
1
210
0
220
0
230
1
3
Standard
100
AcDbAlignedDimension
13
0
23
-1.5875
33
0
14
56.05
24
-4.3875
34
0
50
0
100
AcDbRotatedDimension
1001
ACAD
1000
DSTYLE
1002
{
1070
   279
1070
     0
1070
   172
1070
     1
1070
   173
1070
     1
1070
   340
1005
F1
1070
   271
1070
     2
1070
   272
1070
     2
1070
    77
1070
     1
1070
    73
1070
     0
1070
   171
1070
     3
1070
   274
1070
     4
1070
   177
1070
    35
1070
   176
1070
    35
1070
   178
1070
    35
1070
    48
1040
-0.005
1070
    41
1041
3.5
1070
   147
1041
1.75
1070
    42
1041
1.5875
1070
    44
1041
2.0
1070
   140
1041
3.5
1070
   343
1005
0
1070
   344
1005
0
1002
}
0
DIMENSION
5
107
100
AcDbEntity
8
SK2
62
256
6
ByLayer
370
13
48
1
60
0
100
AcDbDimension
2
DimnDraft3D2
10
57
20
-31.692985
30
0
11
10.8913
21
-31.692985
31
0
70
32
71
5
72
1
41
1
210
0
220
0
230
1
3
Standard
100
AcDbAlignedDimension
13
-36
23
-4.5875
33
0
14
57
24
-1.5875
34
0
50
0
100
AcDbRotatedDimension
1001
ACAD
1000
DSTYLE
1002
{
1070
   279
1070
     0
1070
   172
1070
     1
1070
   173
1070
     1
1070
   340
1005
F1
1070
   271
1070
     2
1070
   272
1070
     2
1070
    77
1070
     1
1070
    73
1070
     0
1070
   171
1070
     3
1070
   274
1070
     4
1070
   177
1070
    35
1070
   176
1070
    35
1070
   178
1070
    35
1070
    48
1040
-0.005
1070
    41
1041
3.5
1070
   147
1041
1.75
1070
    42
1041
1.5875
1070
    44
1041
2.0
1070
   140
1041
3.5
1070
   343
1005
0
1070
   344
1005
0
1002
}
0
DIMENSION
5
111
100
AcDbEntity
8
SK2
62
256
6
ByLayer
370
13
48
1
60
0
100
AcDbDimension
2
DimnDraft3D3
10
57
20
14.409119
30
0
11
34.125
21
14.409119
31
0
70
32
71
5
72
1
41
1
210
0
220
0
230
1
3
Standard
100
AcDbAlignedDimension
13
11.25
23
4.3875
33
0
14
57
24
1.5875
34
0
50
0
100
AcDbRotatedDimension
1001
ACAD
1000
DSTYLE
1002
{
1070
   279
1070
     0
1070
   172
1070
     1
1070
   173
1070
     1
1070
   340
1005
F1
1070
   271
1070
     2
1070
   272
1070
     2
1070
    77
1070
     1
1070
    73
1070
     0
1070
   171
1070
     3
1070
   274
1070
     4
1070
   177
1070
    35
1070
   176
1070
    35
1070
   178
1070
    35
1070
    48
1040
-0.005
1070
    41
1041
3.5
1070
   147
1041
1.75
1070
    42
1041
1.5875
1070
    44
1041
2.0
1070
   140
1041
3.5
1070
   343
1005
0
1070
   344
1005
0
1002
}
0
DIMENSION
5
11B
100
AcDbEntity
8
SK2
62
256
6
ByLayer
370
13
48
1
60
0
100
AcDbDimension
2
DimnDraft3D4
10
56.05
20
-15.602503
30
0
11
66.981425
21
-15.602503
31
0
70
32
71
5
72
1
41
1
210
0
220
0
230
1
3
Standard
100
AcDbAlignedDimension
13
57
23
-1.5875
33
0
14
56.05
24
-4.3875
34
0
50
0
100
AcDbRotatedDimension
1001
ACAD
1000
DSTYLE
1002
{
1070
   279
1070
     0
1070
   172
1070
     1
1070
   173
1070
     1
1070
   340
1005
F1
1070
   271
1070
     2
1070
   272
1070
     2
1070
    77
1070
     1
1070
    73
1070
     0
1070
   171
1070
     3
1070
   274
1070
     4
1070
   177
1070
    35
1070
   176
1070
    35
1070
   178
1070
    35
1070
    48
1040
-0.005
1070
    41
1041
3.5
1070
   147
1041
1.75
1070
    42
1041
1.5875
1070
    44
1041
2.0
1070
   140
1041
3.5
1070
   343
1005
0
1070
   344
1005
0
1002
}
0
DIMENSION
5
125
100
AcDbEntity
8
SK2
62
256
6
ByLayer
370
13
48
1
60
0
100
AcDbDimension
2
DimnDraft3D5
10
56.05
20
-21.343428
30
0
11
7.810676
21
-21.343428
31
0
70
32
71
5
72
1
41
1
210
0
220
0
230
1
3
Standard
100
AcDbAlignedDimension
13
-36
23
-4.5875
33
0
14
56.05
24
-4.3875
34
0
50
0
100
AcDbRotatedDimension
1001
ACAD
1000
DSTYLE
1002
{
1070
   279
1070
     0
1070
   172
1070
     1
1070
   173
1070
     1
1070
   340
1005
F1
1070
   271
1070
     2
1070
   272
1070
     2
1070
    77
1070
     1
1070
    73
1070
     0
1070
   171
1070
     3
1070
   274
1070
     4
1070
   177
1070
    35
1070
   176
1070
    35
1070
   178
1070
    35
1070
    48
1040
-0.005
1070
    41
1041
3.5
1070
   147
1041
1.75
1070
    42
1041
1.5875
1070
    44
1041
2.0
1070
   140
1041
3.5
1070
   343
1005
0
1070
   344
1005
0
1002
}
0
DIMENSION
5
130
100
AcDbEntity
8
SK2
62
256
6
ByLayer
370
13
48
1
60
0
100
AcDbDimension
2
DimnDraft3D6
10
-46.625163
20
3
30
0
11
-47.250163
21
21.47418
31
0
70
33
71
5
72
1
41
1
210
0
220
0
230
1
3
Standard
100
AcDbAlignedDimension
13
-37.5875
23
-3
33
0
14
-37.5875
24
3
34
0
1001
ACAD
1000
DSTYLE
1002
{
1070
   279
1070
     0
1070
    74
1070
     0
1070
   173
1070
     1
1070
   340
1005
F1
1070
   271
1070
     3
1070
   272
1070
     2
1070
    77
1070
     1
1070
    73
1070
     0
1070
   171
1070
     3
1070
   274
1070
     4
1070
   177
1070
    35
1070
   176
1070
    35
1070
   178
1070
    35
1070
    48
1040
-0.005
1070
    41
1041
3.5
1070
   147
1041
1.75
1070
    42
1041
1.5875
1070
    44
1041
2.0
1070
   140
1041
3.5
1070
   343
1005
0
1070
   344
1005
0
1002
}
0
DIMENSION
5
13B
100
AcDbEntity
8
2
62
256
6
ByLayer
370
13
48
1
60
0
100
AcDbDimension
2
DimnDraft3D7
10
71.083343
20
2.8
30
0
11
66.458343
21
19.867266
31
0
70
33
71
5
72
1
41
1
210
0
220
0
230
1
3
Standard
100
AcDbAlignedDimension
13
57.6375
23
-2.8
33
0
14
57.6375
24
2.8
34
0
1001
ACAD
1000
DSTYLE
1002
{
1070
   279
1070
     0
1070
    74
1070
     0
1070
   173
1070
     1
1070
   340
1005
F1
1070
   271
1070
     3
1070
   272
1070
     2
1070
    77
1070
     1
1070
    73
1070
     0
1070
   171
1070
     3
1070
   274
1070
     4
1070
   177
1070
    35
1070
   176
1070
    35
1070
   178
1070
    35
1070
    48
1040
-0.005
1070
    41
1041
3.5
1070
   147
1041
1.75
1070
    42
1041
1.5875
1070
    44
1041
2.0
1070
   140
1041
3.5
1070
   343
1005
0
1070
   344
1005
0
1002
}
0
ENDSEC
0
SECTION
2
OBJECTS
0
DICTIONARY
5
1a6
330
0
100
AcDbDictionary
280
0
281
1
3
ACAD_GROUP
350
1a7
3
ACAD_MLINESTYLE
350
1a8
0
DICTIONARY
5
1a7
330
0
100
AcDbDictionary
280
0
281
1
0
DICTIONARY
5
1a8
330
0
100
AcDbDictionary
280
0
281
1
3
Standard
350
18
0
MLINESTYLE
5
18
330
1a8
100
AcDbMlineStyle
2
Standard
70
0
3

62
256
51
90
52
90
71
2
49
-0.5
62
256
6
ByLayer
49
0.5
62
256
6
ByLayer
0
RASTERVARIABLES
5
194
330

100
AcDbRasterVariables
90
0
70
1
71
1
72
1
0
ENDSEC
0
EOF
