0
SECTION
2
HEADER
9
$ACADVER
1
AC1015
9
$DWGCODEPAGE
3
ANSI_1252
9
$HANDSEED
5
1ba
9
$ANGBASE
50
0
9
$ANGDIR
70
0
9
$ATTMODE
70
1
9
$AUNITS
70
0
9
$AUPREC
70
0
9
$CECOLOR
62
256
9
$CELTSCALE
40
1
9
$CELTYPE
6
ByLayer
9
$CELWEIGHT
370
18
9
$CLAYER
8
0
9
$CMLJUST
70
0
9
$CMLSCALE
40
1
9
$CMLSTYLE
2
Standard
9
$DIMSTYLE
2
Standard
9
$TEXTSIZE
40
0.2
9
$TEXTSTYLE
7
Standard
9
$LUNITS
70
2
9
$LUPREC
70
4
9
$EXTNAMES
290
1
9
$INSUNITS
70
4
9
$LTSCALE
40
1
9
$LWDISPLAY
290
1
9
$PDMODE
70
0
9
$PDSIZE
40
0
9
$PLINEGEN
70
0
0
ENDSEC
0
SECTION
2
CLASSES
0
CLASS
1
RASTERVARIABLES
2
AcDbRasterVariables
3
ISM
90
0
280
0
281
0
0
ENDSEC
0
SECTION
2
TABLES
0
TABLE
2
VPORT
5
1b0
100
AcDbSymbolTable
0
VPORT
5
1
100
AcDbSymbolTableRecord
100
AcDbViewportTableRecord
2
*Active
70
0
10
0
20
0
11
1
21
1
12
-1
22
1
13
0
23
0
14
0.5
24
0.5
15
10
25
10
16
0
26
0
36
1
17
0
27
0
37
0
0
ENDTAB
0
TABLE
2
LTYPE
5
1b1
100
AcDbSymbolTable
0
LTYPE
5
14
100
AcDbSymbolTableRecord
100
AcDbLinetypeTableRecord
70
0
2
ByBlock
3

72
65
73
0
40
0
0
LTYPE
5
15
100
AcDbSymbolTableRecord
100
AcDbLinetypeTableRecord
70
0
2
ByLayer
3

72
65
73
0
40
0
0
LTYPE
5
16
100
AcDbSymbolTableRecord
100
AcDbLinetypeTableRecord
70
0
2
CONTINUOUS
3
Solid line
72
65
73
0
40
0
0
LTYPE
5
6A
100
AcDbSymbolTableRecord
100
AcDbLinetypeTableRecord
70
0
2
CENTER
3
____ _ ____ _ ____ _ ____
72
65
73
4
40
47.5
49
22
74
0
49
-8.5
74
0
49
8.5
74
0
49
-8.5
74
0
0
LTYPE
5
6B
100
AcDbSymbolTableRecord
100
AcDbLinetypeTableRecord
70
0
2
DASHED
3
__ __ __ __ __ __ __ __ __
72
65
73
2
40
25.72
49
12.86
74
0
49
-12.86
74
0
0
ENDTAB
0
TABLE
2
LAYER
5
1b2
100
AcDbSymbolTable
0
LAYER
5
10
100
AcDbSymbolTableRecord
100
AcDbLayerTableRecord
2
0
70
0
62
7
6
CONTINUOUS
290
1
370
-3
390
0
0
LAYER
5
6D
100
AcDbSymbolTableRecord
100
AcDbLayerTableRecord
2
81
70
0
62
-3
6
CONTINUOUS
290
1
370
-3
390
0
0
LAYER
5
6F
100
AcDbSymbolTableRecord
100
AcDbLayerTableRecord
2
80
70
0
62
-6
6
CONTINUOUS
290
1
370
-3
390
0
0
LAYER
5
74
100
AcDbSymbolTableRecord
100
AcDbLayerTableRecord
2
2
70
0
62
7
6
CONTINUOUS
290
1
370
-3
390
0
0
LAYER
5
78
100
AcDbSymbolTableRecord
100
AcDbLayerTableRecord
2
1
70
0
62
4
6
CONTINUOUS
290
1
370
-3
390
0
0
LAYER
5
8A
100
AcDbSymbolTableRecord
100
AcDbLayerTableRecord
2
4
70
0
62
-2
6
CENTER
290
1
370
-3
390
0
0
LAYER
5
19c
100
AcDbSymbolTableRecord
100
AcDbLayerTableRecord
2
SK2
70
0
62
7
6
CONTINUOUS
290
1
370
-3
390
0
0
LAYER
5
19d
100
AcDbSymbolTableRecord
100
AcDbLayerTableRecord
2
SK1
70
0
62
4
6
CONTINUOUS
290
1
370
-3
390
0
0
LAYER
5
19e
100
AcDbSymbolTableRecord
100
AcDbLayerTableRecord
2
SK4
70
0
62
2
6
CENTER
290
1
370
-3
390
0
0
LAYER
5
19f
100
AcDbSymbolTableRecord
100
AcDbLayerTableRecord
2
SK6
70
0
62
5
6
CONTINUOUS
290
1
370
-3
390
0
0
ENDTAB
0
TABLE
2
STYLE
5
1b3
100
AcDbSymbolTable
0
STYLE
5
11
100
AcDbSymbolTableRecord
100
AcDbTextStyleTableRecord
2
Standard
3
txt
70
0
71
0
40
0
41
1
42
0
50
0
0
STYLE
5
F8
100
AcDbSymbolTableRecord
100
AcDbTextStyleTableRecord
2
iso_b_vert
3
simplex.shx
70
0
71
0
40
0
41
1
42
0
50
0
0
STYLE
5
F9
100
AcDbSymbolTableRecord
100
AcDbTextStyleTableRecord
2
DWGDirectTextStyle
3
simplex
70
0
71
0
40
0
41
1
42
0
50
0
0
ENDTAB
0
TABLE
2
DIMSTYLE
5
1b4
100
AcDbSymbolTable
100
AcDbDimStyleTable
0
DIMSTYLE
105
27
100
AcDbSymbolTableRecord
100
AcDbDimStyleTableRecord
2
Standard
70
0
3
<>
41
0.18
42
0.0625
44
0.18
140
0.18
147
0.09
73
0
74
0
77
1
271
2
275
0
278
52
280
0
340
11
0
ENDTAB
0
TABLE
2
VIEW
5
1b5
100
AcDbSymbolTable
0
ENDTAB
0
TABLE
2
UCS
5
1b6
100
AcDbSymbolTable
0
ENDTAB
0
TABLE
2
APPID
5
1b7
100
AcDbSymbolTable
0
APPID
5
12
100
AcDbSymbolTableRecord
100
AcDbRegAppTableRecord
2
ACAD
70
0
0
ENDTAB
0
TABLE
2
BLOCK_RECORD
5
1b8
100
AcDbSymbolTable
0
BLOCK_RECORD
5
1F
100
AcDbSymbolTableRecord
100
AcDbBlockTableRecord
2
*Model_Space
340
0
70
0
0
BLOCK_RECORD
5
1B
100
AcDbSymbolTableRecord
100
AcDbBlockTableRecord
2
*Paper_Space
340
0
70
0
0
BLOCK_RECORD
5
23
100
AcDbSymbolTableRecord
100
AcDbBlockTableRecord
2
*Paper_Space0
340
0
70
0
0
BLOCK_RECORD
5
FB
100
AcDbSymbolTableRecord
100
AcDbBlockTableRecord
2
DimnDraft3D1
340
0
70
0
0
BLOCK_RECORD
5
105
100
AcDbSymbolTableRecord
100
AcDbBlockTableRecord
2
DimnDraft3D2
340
0
70
0
0
BLOCK_RECORD
5
10F
100
AcDbSymbolTableRecord
100
AcDbBlockTableRecord
2
DimnDraft3D3
340
0
70
0
0
BLOCK_RECORD
5
119
100
AcDbSymbolTableRecord
100
AcDbBlockTableRecord
2
DimnDraft3D4
340
0
70
0
0
BLOCK_RECORD
5
123
100
AcDbSymbolTableRecord
100
AcDbBlockTableRecord
2
DimnDraft3D5
340
0
70
0
0
BLOCK_RECORD
5
12D
100
AcDbSymbolTableRecord
100
AcDbBlockTableRecord
2
DimnDraft3D6
340
0
70
0
0
BLOCK_RECORD
5
138
100
AcDbSymbolTableRecord
100
AcDbBlockTableRecord
2
DimnDraft3D7
340
0
70
0
0
ENDTAB
0
ENDSEC
0
SECTION
2
BLOCKS
0
BLOCK
5
20
100
AcDbEntity
8
0
100
AcDbBlockBegin
2
*Model_Space
70
0
10
0
20
0
30
0
3
*Model_Space
0
ENDBLK
5
21
100
AcDbEntity
8
0
100
AcDbBlockEnd
0
BLOCK
5
1C
100
AcDbEntity
8
0
100
AcDbBlockBegin
2
*Paper_Space
70
0
10
0
20
0
30
0
3
*Paper_Space
0
ENDBLK
5
1D
100
AcDbEntity
8
0
100
AcDbBlockEnd
0
BLOCK
5
24
100
AcDbEntity
8
0
100
AcDbBlockBegin
2
*Paper_Space0
70
0
10
0
20
0
30
0
3
*Paper_Space0
0
ENDBLK
5
25
100
AcDbEntity
8
0
100
AcDbBlockEnd
0
BLOCK
5
102
100
AcDbEntity
8
0
100
AcDbBlockBegin
2
DimnDraft3D1
70
0
10
0
20
0
30
0
3
DimnDraft3D1
0
MTEXT
5
FC
100
AcDbEntity
8
SK2
62
256
6
ByLayer
370
13
48
1
60
0
100
AcDbMText
10
16.667164
20
-12.138398
30
0
210
0
220
0
230
1
1
\W0.7581;45,05
40
3.5
41
0
44
1.084337
50
0
71
7
72
5
7
iso_b_vert
0
LINE
5
FD
100
AcDbEntity
8
SK2
62
256
6
ByLayer
370
13
48
1
60
0
100
AcDbLine
10
0
20
-1.5875
30
0
11
0
21
-15.013398
31
0
39
0
210
0
220
0
230
1
0
LINE
5
FE
100
AcDbEntity
8
SK2
62
256
6
ByLayer
370
13
48
1
60
0
100
AcDbLine
10
45.05
20
-4.3875
30
0
11
45.05
21
-15.013398
31
0
39
0
210
0
220
0
230
1
0
LINE
5
FF
100
AcDbEntity
8
SK2
62
256
6
ByLayer
370
13
48
1
60
0
100
AcDbLine
10
0
20
-13.013398
30
0
11
45.05
21
-13.013398
31
0
39
0
210
0
220
0
230
1
0
SOLID
5
100
100
AcDbEntity
8
SK2
62
256
6
ByLayer
370
13
48
1
60
0
100
AcDbTrace
10
0
20
-13.013398
30
0
11
3.499998
21
-12.552615
31
0
12
3.500002
22
-13.474182
32
0
13
0
23
-13.013398
33
0
39
0
210
0
220
0
230
1
0
SOLID
5
101
100
AcDbEntity
8
SK2
62
256
6
ByLayer
370
13
48
1
60
0
100
AcDbTrace
10
45.05
20
-13.013398
30
0
11
41.550002
21
-13.474182
31
0
12
41.549998
22
-12.552615
32
0
13
45.05
23
-13.013398
33
0
39
0
210
0
220
0
230
1
0
ENDBLK
5
103
100
AcDbEntity
8
0
100
AcDbBlockEnd
0
BLOCK
5
10C
100
AcDbEntity
8
0
100
AcDbBlockBegin
2
DimnDraft3D2
70
0
10
0
20
0
30
0
3
DimnDraft3D2
0
MTEXT
5
106
100
AcDbEntity
8
SK2
62
256
6
ByLayer
370
13
48
1
60
0
100
AcDbMText
10
0.942616
20
-30.817985
30
0
210
0
220
0
230
1
1
\W0.7317;82,00
40
3.5
41
0
44
1.084337
50
0
71
7
72
5
7
iso_b_vert
0
LINE
5
107
100
AcDbEntity
8
SK2
62
256
6
ByLayer
370
13
48
1
60
0
100
AcDbLine
10
-36
20
-4.5875
30
0
11
-36
21
-33.692985
31
0
39
0
210
0
220
0
230
1
0
LINE
5
108
100
AcDbEntity
8
SK2
62
256
6
ByLayer
370
13
48
1
60
0
100
AcDbLine
10
46
20
-1.5875
30
0
11
46
21
-33.692985
31
0
39
0
210
0
220
0
230
1
0
LINE
5
109
100
AcDbEntity
8
SK2
62
256
6
ByLayer
370
13
48
1
60
0
100
AcDbLine
10
-36
20
-31.692985
30
0
11
46
21
-31.692985
31
0
39
0
210
0
220
0
230
1
0
SOLID
5
10A
100
AcDbEntity
8
SK2
62
256
6
ByLayer
370
13
48
1
60
0
100
AcDbTrace
10
-36
20
-31.692985
30
0
11
-32.500002
21
-31.232202
31
0
12
-32.499998
22
-32.153769
32
0
13
-36
23
-31.692985
33
0
39
0
210
0
220
0
230
1
0
SOLID
5
10B
100
AcDbEntity
8
SK2
62
256
6
ByLayer
370
13
48
1
60
0
100
AcDbTrace
10
46
20
-31.692985
30
0
11
42.500002
21
-32.153769
31
0
12
42.499998
22
-31.232202
32
0
13
46
23
-31.692985
33
0
39
0
210
0
220
0
230
1
0
ENDBLK
5
10D
100
AcDbEntity
8
0
100
AcDbBlockEnd
0
BLOCK
5
116
100
AcDbEntity
8
0
100
AcDbBlockBegin
2
DimnDraft3D3
70
0
10
0
20
0
30
0
3
DimnDraft3D3
0
MTEXT
5
110
100
AcDbEntity
8
SK2
62
256
6
ByLayer
370
13
48
1
60
0
100
AcDbMText
10
27.076316
20
15.284119
30
0
210
0
220
0
230
1
1
\W0.7317;28,95
40
3.5
41
0
44
1.084337
50
0
71
7
72
5
7
iso_b_vert
0
LINE
5
111
100
AcDbEntity
8
SK2
62
256
6
ByLayer
370
13
48
1
60
0
100
AcDbLine
10
17.05
20
4.3875
30
0
11
17.05
21
16.409119
31
0
39
0
210
0
220
0
230
1
0
LINE
5
112
100
AcDbEntity
8
SK2
62
256
6
ByLayer
370
13
48
1
60
0
100
AcDbLine
10
46
20
1.5875
30
0
11
46
21
16.409119
31
0
39
0
210
0
220
0
230
1
0
LINE
5
113
100
AcDbEntity
8
SK2
62
256
6
ByLayer
370
13
48
1
60
0
100
AcDbLine
10
17.05
20
14.409119
30
0
11
46
21
14.409119
31
0
39
0
210
0
220
0
230
1
0
SOLID
5
114
100
AcDbEntity
8
SK2
62
256
6
ByLayer
370
13
48
1
60
0
100
AcDbTrace
10
17.05
20
14.409119
30
0
11
20.549998
21
14.869903
31
0
12
20.550002
22
13.948335
32
0
13
17.05
23
14.409119
33
0
39
0
210
0
220
0
230
1
0
SOLID
5
115
100
AcDbEntity
8
SK2
62
256
6
ByLayer
370
13
48
1
60
0
100
AcDbTrace
10
46
20
14.409119
30
0
11
42.500002
21
13.948335
31
0
12
42.499998
22
14.869903
32
0
13
46
23
14.409119
33
0
39
0
210
0
220
0
230
1
0
ENDBLK
5
117
100
AcDbEntity
8
0
100
AcDbBlockEnd
0
BLOCK
5
120
100
AcDbEntity
8
0
100
AcDbBlockBegin
2
DimnDraft3D4
70
0
10
0
20
0
30
0
3
DimnDraft3D4
0
MTEXT
5
11A
100
AcDbEntity
8
SK2
62
256
6
ByLayer
370
13
48
1
60
0
100
AcDbMText
10
52.840636
20
-14.727503
30
0
210
0
220
0
230
1
1
\W0.7150;0,95
40
3.5
41
0
44
1.084337
50
0
71
7
72
5
7
iso_b_vert
0
LINE
5
11B
100
AcDbEntity
8
SK2
62
256
6
ByLayer
370
13
48
1
60
0
100
AcDbLine
10
46
20
-1.5875
30
0
11
46
21
-17.602503
31
0
39
0
210
0
220
0
230
1
0
LINE
5
11C
100
AcDbEntity
8
SK2
62
256
6
ByLayer
370
13
48
1
60
0
100
AcDbLine
10
45.05
20
-4.3875
30
0
11
45.05
21
-17.602503
31
0
39
0
210
0
220
0
230
1
0
LINE
5
11D
100
AcDbEntity
8
SK2
62
256
6
ByLayer
370
13
48
1
60
0
100
AcDbLine
10
36.3
20
-15.602503
30
0
11
59.997215
21
-15.602503
31
0
39
0
210
0
220
0
230
1
0
SOLID
5
11E
100
AcDbEntity
8
SK2
62
256
6
ByLayer
370
13
48
1
60
0
100
AcDbTrace
10
46
20
-15.602503
30
0
11
49.499998
21
-15.141719
31
0
12
49.500002
22
-16.063287
32
0
13
46
23
-15.602503
33
0
39
0
210
0
220
0
230
1
0
SOLID
5
11F
100
AcDbEntity
8
SK2
62
256
6
ByLayer
370
13
48
1
60
0
100
AcDbTrace
10
45.05
20
-15.602503
30
0
11
41.550002
21
-16.063287
31
0
12
41.549998
22
-15.141719
32
0
13
45.05
23
-15.602503
33
0
39
0
210
0
220
0
230
1
0
ENDBLK
5
121
100
AcDbEntity
8
0
100
AcDbBlockEnd
0
BLOCK
5
12A
100
AcDbEntity
8
0
100
AcDbBlockBegin
2
DimnDraft3D5
70
0
10
0
20
0
30
0
3
DimnDraft3D5
0
MTEXT
5
124
100
AcDbEntity
8
SK2
62
256
6
ByLayer
370
13
48
1
60
0
100
AcDbMText
10
-1.700508
20
-20.468428
30
0
210
0
220
0
230
1
1
\W0.6713;81,05
40
3.5
41
0
44
1.084337
50
0
71
7
72
5
7
iso_b_vert
0
LINE
5
125
100
AcDbEntity
8
SK2
62
256
6
ByLayer
370
13
48
1
60
0
100
AcDbLine
10
-36
20
-4.5875
30
0
11
-36
21
-23.343428
31
0
39
0
210
0
220
0
230
1
0
LINE
5
126
100
AcDbEntity
8
SK2
62
256
6
ByLayer
370
13
48
1
60
0
100
AcDbLine
10
45.05
20
-4.3875
30
0
11
45.05
21
-23.343428
31
0
39
0
210
0
220
0
230
1
0
LINE
5
127
100
AcDbEntity
8
SK2
62
256
6
ByLayer
370
13
48
1
60
0
100
AcDbLine
10
-36
20
-21.343428
30
0
11
45.05
21
-21.343428
31
0
39
0
210
0
220
0
230
1
0
SOLID
5
128
100
AcDbEntity
8
SK2
62
256
6
ByLayer
370
13
48
1
60
0
100
AcDbTrace
10
-36
20
-21.343428
30
0
11
-32.500002
21
-20.882645
31
0
12
-32.499998
22
-21.804212
32
0
13
-36
23
-21.343428
33
0
39
0
210
0
220
0
230
1
0
SOLID
5
129
100
AcDbEntity
8
SK2
62
256
6
ByLayer
370
13
48
1
60
0
100
AcDbTrace
10
45.05
20
-21.343428
30
0
11
41.550002
21
-21.804212
31
0
12
41.549998
22
-20.882645
32
0
13
45.05
23
-21.343428
33
0
39
0
210
0
220
0
230
1
0
ENDBLK
5
12B
100
AcDbEntity
8
0
100
AcDbBlockEnd
0
BLOCK
5
135
100
AcDbEntity
8
0
100
AcDbBlockBegin
2
DimnDraft3D6
70
0
10
0
20
0
30
0
3
DimnDraft3D6
0
MTEXT
5
12E
100
AcDbEntity
8
SK2
62
256
6
ByLayer
370
13
48
1
60
0
100
AcDbMText
10
-46.375163
20
22.34918
30
0
210
0
220
0
230
1
1
\W0.7317;6,000
40
3.5
41
0
44
1.084337
50
90
71
7
72
5
7
iso_b_vert
0
MTEXT
5
12F
100
AcDbEntity
8
SK2
62
256
6
ByLayer
370
13
48
1
60
0
100
AcDbMText
10
-46.375163
20
17.126524
30
0
210
0
220
0
230
1
1
%%c
40
3.5
41
0
44
1.084337
50
90
71
7
72
5
7
iso_b_vert
0
LINE
5
130
100
AcDbEntity
8
SK2
62
256
6
ByLayer
370
13
48
1
60
0
100
AcDbLine
10
-37.5875
20
-3
30
0
11
-46.625163
21
-3
31
0
39
0
210
0
220
0
230
1
0
LINE
5
131
100
AcDbEntity
8
SK2
62
256
6
ByLayer
370
13
48
1
60
0
100
AcDbLine
10
-37.5875
20
3
30
0
11
-46.625163
21
3
31
0
39
0
210
0
220
0
230
1
0
LINE
5
132
100
AcDbEntity
8
SK2
62
256
6
ByLayer
370
13
48
1
60
0
100
AcDbLine
10
-44.625163
20
32.121549
30
0
11
-44.625163
21
-11.75
31
0
39
0
210
0
220
0
230
1
0
SOLID
5
133
100
AcDbEntity
8
SK2
62
256
6
ByLayer
370
13
48
1
60
0
100
AcDbTrace
10
-44.625163
20
-3
30
0
11
-44.164379
21
-6.499998
31
0
12
-45.085946
22
-6.500002
32
0
13
-44.625163
23
-3
33
0
39
0
210
0
220
0
230
1
0
SOLID
5
134
100
AcDbEntity
8
SK2
62
256
6
ByLayer
370
13
48
1
60
0
100
AcDbTrace
10
-44.625163
20
3
30
0
11
-45.085946
21
6.499998
31
0
12
-44.164379
22
6.500002
32
0
13
-44.625163
23
3
33
0
39
0
210
0
220
0
230
1
0
ENDBLK
5
136
100
AcDbEntity
8
0
100
AcDbBlockEnd
0
BLOCK
5
140
100
AcDbEntity
8
0
100
AcDbBlockBegin
2
DimnDraft3D7
70
0
10
0
20
0
30
0
3
DimnDraft3D7
0
MTEXT
5
139
100
AcDbEntity
8
2
62
256
6
ByLayer
370
13
48
1
60
0
100
AcDbMText
10
56.333343
20
20.742266
30
0
210
0
220
0
230
1
1
\W0.7317;5,600
40
3.5
41
0
44
1.084337
50
90
71
7
72
5
7
iso_b_vert
0
MTEXT
5
13A
100
AcDbEntity
8
2
62
256
6
ByLayer
370
13
48
1
60
0
100
AcDbMText
10
56.333343
20
15.51961
30
0
210
0
220
0
230
1
1
%%c
40
3.5
41
0
44
1.084337
50
90
71
7
72
5
7
iso_b_vert
0
LINE
5
13B
100
AcDbEntity
8
2
62
256
6
ByLayer
370
13
48
1
60
0
100
AcDbLine
10
46.6375
20
-2.8
30
0
11
60.083343
21
-2.8
31
0
39
0
210
0
220
0
230
1
0
LINE
5
13C
100
AcDbEntity
8
2
62
256
6
ByLayer
370
13
48
1
60
0
100
AcDbLine
10
46.6375
20
2.8
30
0
11
60.083343
21
2.8
31
0
39
0
210
0
220
0
230
1
0
LINE
5
13D
100
AcDbEntity
8
2
62
256
6
ByLayer
370
13
48
1
60
0
100
AcDbLine
10
58.083343
20
30.514635
30
0
11
58.083343
21
-11.55
31
0
39
0
210
0
220
0
230
1
0
SOLID
5
13E
100
AcDbEntity
8
2
62
256
6
ByLayer
370
13
48
1
60
0
100
AcDbTrace
10
58.083343
20
-2.8
30
0
11
58.544126
21
-6.299998
31
0
12
57.622559
22
-6.300002
32
0
13
58.083343
23
-2.8
33
0
39
0
210
0
220
0
230
1
0
SOLID
5
13F
100
AcDbEntity
8
2
62
256
6
ByLayer
370
13
48
1
60
0
100
AcDbTrace
10
58.083343
20
2.8
30
0
11
57.622559
21
6.299998
31
0
12
58.544126
22
6.300002
32
0
13
58.083343
23
2.8
33
0
39
0
210
0
220
0
230
1
0
ENDBLK
5
141
100
AcDbEntity
8
0
100
AcDbBlockEnd
0
ENDSEC
0
SECTION
2
ENTITIES
0
ARC
5
A1
100
AcDbEntity
8
1
62
256
6
ByLayer
370
18
48
1
60
0
100
AcDbCircle
39
0
10
0
20
2.8
30
0
40
0.199999999999999
210
0
220
0
230
1
100
AcDbArc
50
25.649927
51
90
0
ARC
5
A2
100
AcDbEntity
8
1
62
256
6
ByLayer
370
18
48
1
60
0
100
AcDbCircle
39
0
10
-0.360582
20
-2.973149
30
0
40
0.199999999999999
210
0
220
0
230
-1
100
AcDbArc
50
25.649927
51
90.034377
0
ARC
5
A3
100
AcDbEntity
8
1
62
256
6
ByLayer
370
18
48
1
60
0
100
AcDbCircle
39
0
10
0
20
-2.8
30
0
40
0.199999999999999
210
0
220
0
230
1
100
AcDbArc
50
270
51
334.350073
0
ARC
5
A4
100
AcDbEntity
8
1
62
256
6
ByLayer
370
18
48
1
60
0
100
AcDbCircle
39
0
10
-0.360582
20
2.973149
30
0
40
0.199999999999999
210
0
220
0
230
-1
100
AcDbArc
50
269.965623
51
334.350073
0
ELLIPSE
5
A5
100
AcDbEntity
8
1
62
256
6
ByLayer
370
18
48
1
60
0
100
AcDbEllipse
10
4.25
20
-2.889392
30
0
11
-0.25
21
3.06151588455594E-17
31
0
210
0
220
0
230
1
40
1
41
-1.57046259531504
42
-0.504248789855478
0
ELLIPSE
5
A6
100
AcDbEntity
8
1
62
256
6
ByLayer
370
18
48
1
60
0
100
AcDbEllipse
10
4.25
20
2.889392
30
0
11
-0.25
21
3.06151588455594E-17
31
0
210
0
220
0
230
1
40
1
41
0.502841535351378
42
1.57931072422462
0
ELLIPSE
5
A7
100
AcDbEntity
8
1
62
256
6
ByLayer
370
18
48
1
60
0
100
AcDbEllipse
10
46.00026
20
-0.000612
30
0
11
1.03855816404415
21
-2.79718742790685
31
0
210
0
220
0
230
-1
40
0.131755
41
-2.96462734275572
42
-2.84866849457606
0
ELLIPSE
5
A8
100
AcDbEntity
8
1
62
256
6
ByLayer
370
18
48
1
60
0
100
AcDbEllipse
10
45.43686
20
1.417045
30
0
11
0.43611150903505
21
-1.17459539610495
31
0
210
0
220
0
230
-1
40
0.131755
41
-1.49290914240131
42
-0.736518128023648
0
ELLIPSE
5
A9
100
AcDbEntity
8
1
62
256
6
ByLayer
370
18
48
1
60
0
100
AcDbEllipse
10
45.43686
20
-1.417045
30
0
11
0.43611150904069
21
1.17459539611698
31
0
210
0
220
0
230
-1
40
0.131755
41
0.736518128024827
42
1.49290914239506
0
ELLIPSE
5
AA
100
AcDbEntity
8
1
62
256
6
ByLayer
370
18
48
1
60
0
100
AcDbEllipse
10
45.860742
20
0.099172
30
0
11
0.0727819104895455
21
0.30191719573187
31
0
210
0
220
0
230
-1
40
0.478434
41
1.69097746243407
42
2.45976119974391
0
ELLIPSE
5
AB
100
AcDbEntity
8
1
62
256
6
ByLayer
370
13
48
1
60
0
100
AcDbEllipse
10
45.398634
20
0.373355
30
0
11
0.153082081612423
21
0.258003636193771
31
0
210
0
220
0
230
1
40
0.454519
41
0.917105603404823
42
2.31336900500027
0
ELLIPSE
5
AC
100
AcDbEntity
8
1
62
256
6
ByLayer
370
18
48
1
60
0
100
AcDbEllipse
10
46.05652
20
0.01699
30
0
11
0.135544944462698
21
0.42706821014955
31
0
210
0
220
0
230
-1
40
0.100282
41
-2.33653286891838
42
-1.70905320485761
0
ELLIPSE
5
AD
100
AcDbEntity
8
1
62
256
6
ByLayer
370
13
48
1
60
0
100
AcDbEllipse
10
45.803525
20
1.417045
30
0
11
1.76184792562174
21
-0.825655524608455
31
0
210
0
220
0
230
-1
40
0.475307
41
1.57786895912704
42
1.86236069867264
0
ELLIPSE
5
AE
100
AcDbEntity
8
1
62
256
6
ByLayer
370
13
48
1
60
0
100
AcDbEllipse
10
4.25025
20
1.598889
30
0
11
0.042241941608276
21
0.0906400483735694
31
0
210
0
220
0
230
1
40
0.292033
41
-2.35538476346112
42
-2.1272136621451
0
ELLIPSE
5
AF
100
AcDbEntity
8
1
62
256
6
ByLayer
370
18
48
1
60
0
100
AcDbEllipse
10
46.05652
20
-0.01699
30
0
11
0.135544944406742
21
-0.427068210008328
31
0
210
0
220
0
230
-1
40
0.100282
41
1.70905320464664
42
2.33653286889025
0
ELLIPSE
5
B0
100
AcDbEntity
8
1
62
256
6
ByLayer
370
13
48
1
60
0
100
AcDbEllipse
10
45.613618
20
1.293847
30
0
11
1.69423334543774
21
-1.16652783617268
31
0
210
0
220
0
230
-1
40
0.533762
41
1.44484622740177
42
1.7085397099489
0
ELLIPSE
5
B1
100
AcDbEntity
8
1
62
256
6
ByLayer
370
18
48
1
60
0
100
AcDbEllipse
10
46.00026
20
0.000612
30
0
11
1.03855814978719
21
2.79718738539978
31
0
210
0
220
0
230
-1
40
0.131755
41
2.84866849231783
42
2.96462734139366
0
POINT
5
6C
100
AcDbEntity
8
81
62
256
6
ByLayer
370
18
48
1
60
0
100
AcDbPoint
10
46
20
0
30
0
39
0
210
0
220
0
230
1
50
360
0
POINT
5
6E
100
AcDbEntity
8
80
62
256
6
ByLayer
370
18
48
1
60
0
100
AcDbPoint
10
0
20
0
30
0
39
0
210
0
220
0
230
1
50
360
0
POINT
5
70
100
AcDbEntity
8
SK2
62
256
6
ByLayer
370
18
48
1
60
1
100
AcDbPoint
10
-36
20
-3
30
0
39
0
210
0
220
0
230
1
50
360
0
POINT
5
72
100
AcDbEntity
8
SK2
62
256
6
ByLayer
370
18
48
1
60
1
100
AcDbPoint
10
-36
20
3
30
0
39
0
210
0
220
0
230
1
50
360
0
POINT
5
73
100
AcDbEntity
8
2
62
256
6
ByLayer
370
18
48
1
60
1
100
AcDbPoint
10
45.05
20
-2.8
30
0
39
0
210
0
220
0
230
1
50
360
0
POINT
5
75
100
AcDbEntity
8
2
62
256
6
ByLayer
370
18
48
1
60
1
100
AcDbPoint
10
45.05
20
2.8
30
0
39
0
210
0
220
0
230
1
50
360
0
SPLINE
5
B2
100
AcDbEntity
8
1
62
256
6
ByLayer
370
18
48
1
60
0
100
AcDbSpline
70
4
71
1
72
4
73
2
40
0
40
0
40
1
40
1
41
1
10
4.04293133654542
20
1.66060774334096
30
0
41
1
10
4.04648501779945
20
1.65396112262812
30
0
0
SPLINE
5
B3
100
AcDbEntity
8
1
62
256
6
ByLayer
370
18
48
1
60
0
100
AcDbSpline
70
4
71
1
72
4
73
2
40
0
40
0
40
1
40
1
41
1
10
36.9456738842713
20
0.0022685663495281
30
0
41
1
10
36.9456634760971
20
0.0022715837032479
30
0
0
SPLINE
5
B4
100
AcDbEntity
8
1
62
256
6
ByLayer
370
18
48
1
60
0
100
AcDbSpline
70
4
71
3
72
11
73
7
40
0
40
0
40
0
40
0
40
0.179310106469656
40
0.331817392975839
40
0.523258868211822
40
1
40
1
40
1
40
1
41
1
10
22.7085460348488
20
-0.707857486628029
30
0
41
1
10
22.7078550130585
20
-0.707786647139386
30
0
41
1
10
22.7107217047822
20
-0.709609326112258
30
0
41
1
10
22.7388264385298
20
-0.724141702083926
30
0
41
1
10
22.8096062547763
20
-0.760355691755819
30
0
41
1
10
22.8816360639166
20
-0.800054321434402
30
0
41
1
10
22.9435154257196
20
-0.83482721764085
30
0
0
SPLINE
5
B5
100
AcDbEntity
8
1
62
256
6
ByLayer
370
18
48
1
60
0
100
AcDbSpline
70
4
71
3
72
10
73
6
40
0
40
0
40
0
40
0
40
0.141559857998088
40
0.378775098978916
40
1
40
1
40
1
40
1
41
1
10
37.6720746426768
20
-0.70659758553461
30
0
41
1
10
37.6731908471311
20
-0.707233210959629
30
0
41
1
10
37.6817414509128
20
-0.711716790392785
30
0
41
1
10
37.7494242790376
20
-0.747371932458009
30
0
41
1
10
37.8318396598763
20
-0.792397167842609
30
0
41
1
10
37.9114076189804
20
-0.83615010983786
30
0
0
SPLINE
5
B6
100
AcDbEntity
8
1
62
256
6
ByLayer
370
18
48
1
60
0
100
AcDbSpline
70
4
71
3
72
21
73
17
40
0
40
0
40
0
40
0
40
0.108727032307995
40
0.205796778353624
40
0.291557469791657
40
0.365974975372481
40
0.448975583932924
40
0.528143628001054
40
0.611076429951394
40
0.690013801266488
40
0.721301268278068
40
0.750133806186514
40
0.793859923175611
40
0.85495093782818
40
0.933285668949288
40
1
40
1
40
1
40
1
41
1
10
14.6611956750438
20
-2.64476472789858
30
0
41
1
10
14.9264119208486
20
-2.6429569580686
30
0
41
1
10
15.4298059488672
20
-2.64101740812555
30
0
41
1
10
16.1542241304481
20
-2.64545307649939
30
0
41
1
10
16.7838658050568
20
-2.64714940309759
30
0
41
1
10
17.3898918092877
20
-2.64596636191058
30
0
41
1
10
17.9765944212923
20
-2.64906628206003
30
0
41
1
10
18.5854436483079
20
-2.64609999235569
30
0
41
1
10
19.1839291298406
20
-2.65033991500633
30
0
41
1
10
19.6636423058665
20
-2.64828414346957
30
0
41
1
10
20.008899446085
20
-2.64831633419507
30
0
41
1
10
20.2665753582199
20
-2.64923312253148
30
0
41
1
10
20.5985551294538
20
-2.65053980382157
30
0
41
1
10
21.0532859201122
20
-2.64872064311223
30
0
41
1
10
21.5651578742109
20
-2.65104807068013
30
0
41
1
10
21.9253520659335
20
-2.65061600051922
30
0
41
1
10
22.0910271209235
20
-2.65037054229589
30
0
0
SPLINE
5
B7
100
AcDbEntity
8
1
62
256
6
ByLayer
370
18
48
1
60
0
100
AcDbSpline
70
4
71
2
72
6
73
3
40
0
40
0
40
0
40
1
40
1
40
1
41
1
10
44.6030814022979
20
-2.66282543527348
30
0
41
1
10
44.8168373369418
20
-2.66130305593205
30
0
41
1
10
45.030429783855
20
-2.66346470274615
30
0
0
SPLINE
5
B8
100
AcDbEntity
8
1
62
256
6
ByLayer
370
18
48
1
60
0
100
AcDbSpline
70
4
71
3
72
20
73
16
40
0
40
0
40
0
40
0
40
0.100527365432924
40
0.201367458880375
40
0.292290317628559
40
0.356718840791117
40
0.416852381872604
40
0.509552952335247
40
0.595619143602949
40
0.665416768501773
40
0.728799271298567
40
0.789219989221229
40
0.861098608207089
40
0.937231537948927
40
1
40
1
40
1
40
1
41
1
10
29.6281239567489
20
-2.6538493815419
30
0
41
1
10
29.8760659172272
20
-2.65260083944347
30
0
41
1
10
30.3742565308353
20
-2.65121644845144
30
0
41
1
10
31.1138678080621
20
-2.65287848037147
30
0
41
1
10
31.7458428084706
20
-2.65633672646973
30
0
41
1
10
32.2886357204223
20
-2.65449913229082
30
0
41
1
10
32.8333661523099
20
-2.65668576175443
30
0
41
1
10
33.4338706874241
20
-2.65516805506797
30
0
41
1
10
34.0583919153148
20
-2.6582148031861
30
0
41
1
10
34.6086988621228
20
-2.65699255168411
30
0
41
1
10
35.0966729659015
20
-2.65713666226355
30
0
41
1
10
35.5818462741768
20
-2.65817552067554
30
0
41
1
10
36.0930227554636
20
-2.64860417324167
30
0
41
1
10
36.6302071308464
20
-2.65571612105501
30
0
41
1
10
36.9675111325325
20
-2.65723999528476
30
0
41
1
10
37.1186395840679
20
-2.6582621861715
30
0
0
SPLINE
5
B9
100
AcDbEntity
8
1
62
256
6
ByLayer
370
18
48
1
60
0
100
AcDbSpline
70
4
71
2
72
6
73
3
40
0
40
0
40
0
40
1
40
1
40
1
41
1
10
7.00265260005364
20
0.0098446015715865
30
0
41
1
10
7.00265072381444
20
0.0098876503259078
30
0
41
1
10
7.00264884757846
20
0.0099307080029405
30
0
0
SPLINE
5
BA
100
AcDbEntity
8
1
62
256
6
ByLayer
370
18
48
1
60
0
100
AcDbSpline
70
4
71
3
72
20
73
16
40
0
40
0
40
0
40
0
40
0.0810342573085794
40
0.176031499143713
40
0.25011712897724
40
0.321741184566911
40
0.376046768955863
40
0.446108938022052
40
0.522488285023174
40
0.596955485155279
40
0.668356485858673
40
0.769012079757698
40
0.859258866506727
40
0.963261638048926
40
1
40
1
40
1
40
1
41
1
10
22.0918206907119
20
2.65037021487356
30
0
41
1
10
21.9258810990216
20
2.65061621786703
30
0
41
1
10
21.5654205761591
20
2.6510507928711
30
0
41
1
10
21.0532927192051
20
2.64871327574619
30
0
41
1
10
20.5604622443951
20
2.65071277697322
30
0
41
1
10
20.1508294461235
20
2.64853673201705
30
0
41
1
10
19.7497345434863
20
2.64806598743274
30
0
41
1
10
19.3385948576582
20
2.65002127417185
30
0
41
1
10
18.8862536095803
20
2.64754913575499
30
0
41
1
10
18.4311928404928
20
2.64704623779383
30
0
41
1
10
17.9262554070048
20
2.64877531373668
30
0
41
1
10
17.3898973475943
20
2.64597312535011
30
0
41
1
10
16.7838641529905
20
2.64714738557649
30
0
41
1
10
16.3176637192821
20
2.64589336454046
30
0
41
1
10
16.0308776687467
20
2.64449331134634
30
0
41
1
10
15.9559422128045
20
2.64413233435465
30
0
0
SPLINE
5
BB
100
AcDbEntity
8
1
62
256
6
ByLayer
370
18
48
1
60
0
100
AcDbSpline
70
4
71
3
72
18
73
14
40
0
40
0
40
0
40
0
40
0.0759572703404657
40
0.168017296982725
40
0.293523210955962
40
0.385701709238735
40
0.477546196762592
40
0.593037753605217
40
0.705131390556251
40
0.777844937936411
40
0.855751982612814
40
0.965696008502208
40
1
40
1
40
1
40
1
41
1
10
37.1189880510867
20
2.65826449618297
30
0
41
1
10
36.9677457937161
20
2.6572415269689
30
0
41
1
10
36.6303032471139
20
2.65556147053292
30
0
41
1
10
36.0118055891231
20
2.64830453523658
30
0
41
1
10
35.3882423134748
20
2.66011828920992
30
0
41
1
10
34.743058384166
20
2.65598304473761
30
0
41
1
10
34.1213228081992
20
2.65869593121261
30
0
41
1
10
33.4576081869157
20
2.65508209233212
30
0
41
1
10
32.8333665124597
20
2.65668998591843
30
0
41
1
10
32.2886356364193
20
2.65449814701446
30
0
41
1
10
31.7458428423183
20
2.65633712348253
30
0
41
1
10
31.2926396969232
20
2.65385675682197
30
0
41
1
10
30.993650201847
20
2.65282617892399
30
0
41
1
10
30.9224183095843
20
2.65261878916402
30
0
0
SPLINE
5
BC
100
AcDbEntity
8
1
62
256
6
ByLayer
370
18
48
1
60
0
100
AcDbSpline
70
4
71
3
72
11
73
7
40
0
40
0
40
0
40
0
40
0.124498598345851
40
0.390221850657836
40
0.706992667436143
40
1
40
1
40
1
40
1
41
1
10
4.25100397664002
20
-2.63930066914986
30
0
41
1
10
4.37047053914242
20
-2.63987576378787
30
0
41
1
10
4.74492172060019
20
-2.64136529197663
30
0
41
1
10
5.42332848475837
20
-2.64152887795819
30
0
41
1
10
6.26350443143494
20
-2.64050209988963
30
0
41
1
10
6.84860103593067
20
-2.6413491872251
30
0
41
1
10
7.12974096230298
20
-2.64192285858221
30
0
0
SPLINE
5
BD
100
AcDbEntity
8
1
62
256
6
ByLayer
370
18
48
1
60
0
100
AcDbSpline
70
4
71
3
72
11
73
7
40
0
40
0
40
0
40
0
40
0.167721237203294
40
0.435471535112141
40
0.741102110182118
40
1
40
1
40
1
40
1
41
1
10
7.14882396950398
20
2.64195052010714
30
0
41
1
10
6.98720882790801
20
2.64178464754821
30
0
41
1
10
6.56729232160467
20
2.64140777742574
30
0
41
1
10
5.85062885446143
20
2.63935187346385
30
0
41
1
10
5.04555758712667
20
2.64136815095287
30
0
41
1
10
4.50073285851423
20
2.63980824726494
30
0
41
1
10
4.25102998873319
20
2.63890677447031
30
0
0
SPLINE
5
BE
100
AcDbEntity
8
1
62
256
6
ByLayer
370
18
48
1
60
0
100
AcDbSpline
70
4
71
3
72
10
73
6
40
0
40
0
40
0
40
0
40
0.5
40
0.5
40
1
40
1
40
1
40
1
41
1
10
4.0828867919829
20
1.60940489672308
30
0
41
1
10
4.06639701947916
20
1.62147400948044
30
0
41
1
10
4.05258411644044
20
1.63579030956717
30
0
41
1
10
4.03305892737569
20
1.66726763326153
30
0
41
1
10
4.02721633722214
20
1.68453548989379
30
0
41
1
10
4.02722072243918
20
1.70211507314298
30
0
0
SPLINE
5
BF
100
AcDbEntity
8
1
62
256
6
ByLayer
370
18
48
1
60
0
100
AcDbSpline
70
4
71
3
72
74
73
70
40
0
40
0
40
0
40
0
40
0.0254796218707002
40
0.0254796218707002
40
0.0552432393020602
40
0.0552432393020602
40
0.0850068567334202
40
0.0850068567334202
40
0.11477047416478
40
0.11477047416478
40
0.14453409159614
40
0.14453409159614
40
0.1742977090275
40
0.1742977090275
40
0.20406132645886
40
0.20406132645886
40
0.23382494389022
40
0.23382494389022
40
0.26358856132158
40
0.26358856132158
40
0.293352178752941
40
0.293352178752941
40
0.323115796184301
40
0.323115796184301
40
0.352879413615661
40
0.352879413615661
40
0.382643031047021
40
0.382643031047021
40
0.412406648478381
40
0.412406648478381
40
0.442170265909741
40
0.442170265909741
40
0.471933883341101
40
0.471933883341101
40
0.501697500772461
40
0.501697500772461
40
0.531461118203821
40
0.531461118203821
40
0.561224735635181
40
0.561224735635181
40
0.590988353066541
40
0.590988353066541
40
0.620751970497901
40
0.620751970497901
40
0.650515587929261
40
0.650515587929261
40
0.680279205360621
40
0.680279205360621
40
0.710042822791981
40
0.710042822791981
40
0.739806440223341
40
0.739806440223341
40
0.769570057654701
40
0.769570057654701
40
0.799333675086061
40
0.799333675086061
40
0.829097292517421
40
0.829097292517421
40
0.858860909948781
40
0.858860909948781
40
0.88862452738014
40
0.88862452738014
40
0.918388144811499
40
0.918388144811499
40
0.948151762242858
40
0.948151762242858
40
0.977915379674218
40
0.977915379674218
40
1
40
1
40
1
40
1
41
1
10
10.4305953037953
20
2.03200863365112
30
0
41
1
10
10.5876160623872
20
2.09420553785631
30
0
41
1
10
10.744250858395
20
2.15296594370037
30
0
41
1
10
11.0825910689741
20
2.27362262595898
30
0
41
1
10
11.264559629587
20
2.33369876250026
30
0
41
1
10
11.6296704953769
20
2.4424682634596
30
0
41
1
10
11.8124638445142
20
2.49153802120168
30
0
41
1
10
12.1780347653691
20
2.57926758967602
30
0
41
1
10
12.3605425892708
20
2.61801113524288
30
0
41
1
10
12.7283435472292
20
2.68298819966122
30
0
41
1
10
12.9136219870534
20
2.70958485972133
30
0
41
1
10
13.2826492332788
20
2.7506161731325
30
0
41
1
10
13.4662191650051
20
2.76514372083037
30
0
41
1
10
13.8341015990472
20
2.78149398038511
30
0
41
1
10
14.0186033512346
20
2.78340530420394
30
0
41
1
10
14.3879549657309
20
2.77487459655956
30
0
41
1
10
14.5725869576019
20
2.76435299359565
30
0
41
1
10
14.9402893574397
20
2.73072027262447
30
0
41
1
10
15.1245080629777
20
2.70787813319168
30
0
41
1
10
15.4932398010131
20
2.65035513162979
30
0
41
1
10
15.6777190761372
20
2.61566213978338
30
0
41
1
10
16.0463809255456
20
2.53367966721748
30
0
41
1
10
16.2304399419364
20
2.4869606791911
30
0
41
1
10
16.5990962914711
20
2.38342689781416
30
0
41
1
10
16.7834442958623
20
2.32642188673316
30
0
41
1
10
17.1516405350005
20
2.20127409789453
30
0
41
1
10
17.3356708584326
20
2.13282917563518
30
0
41
1
10
17.7048011614509
20
1.98839087018195
30
0
41
1
10
17.8892875529033
20
1.91202857647795
30
0
41
1
10
18.257583738969
20
1.75041573979453
30
0
41
1
10
18.4409763206782
20
1.6645443804685
30
0
41
1
10
18.8094605582232
20
1.48694816755449
30
0
41
1
10
18.9946092728534
20
1.39500882797387
30
0
41
1
10
19.3635275016582
20
1.20525495314041
30
0
41
1
10
19.547269182646
20
1.10690355272112
30
0
41
1
10
19.9147316508531
20
0.905365552349195
30
0
41
1
10
20.0991391470082
20
0.803308076576656
30
0
41
1
10
20.468537767907
20
0.595447815490189
30
0
41
1
10
20.6532323573946
20
0.489723106436799
30
0
41
1
10
21.0207668408528
20
0.275283497211689
30
0
41
1
10
21.2046780926299
20
0.167847176471355
30
0
41
1
10
21.573302700549
20
-0.0465516654641078
30
0
41
1
10
21.7579511920596
20
-0.153869922263397
30
0
41
1
10
22.1266882953602
20
-0.369356942197328
30
0
41
1
10
22.3103178037536
20
-0.476824565743385
30
0
41
1
10
22.6787114047347
20
-0.686833500996272
30
0
41
1
10
22.8630340407177
20
-0.790140490458498
30
0
41
1
10
23.2314137013044
20
-0.994189551187759
30
0
41
1
10
23.4154069910636
20
-1.09562098939719
30
0
41
1
10
23.7841157797393
20
-1.29051585732617
30
0
41
1
10
23.9685052110894
20
-1.38458640924344
30
0
41
1
10
24.336809338924
20
-1.56687083892271
30
0
41
1
10
24.5203557266923
20
-1.65557187144978
30
0
41
1
10
24.8884837464887
20
-1.82478441744405
30
0
41
1
10
25.0735243484378
20
-1.9048661581536
30
0
41
1
10
25.4423095730363
20
-2.0561576125958
30
0
41
1
10
25.6262360111106
20
-2.12759381264402
30
0
41
1
10
25.9934942528616
20
-2.26141021606728
30
0
41
1
10
26.1776838528692
20
-2.32289231644646
30
0
41
1
10
26.5470896336011
20
-2.43530226587666
30
0
41
1
10
26.7314934872641
20
-2.48607332817085
30
0
41
1
10
27.0975432049217
20
-2.57674609642376
30
0
41
1
10
27.2799119985254
20
-2.61628688822168
30
0
41
1
10
27.6451478264252
20
-2.68304941712017
30
0
41
1
10
27.8276664722326
20
-2.71053566092436
30
0
41
1
10
28.1919957372492
20
-2.75386822104727
30
0
41
1
10
28.3735572208257
20
-2.7696777585821
30
0
41
1
10
28.6916705268133
20
-2.78626673389454
30
0
41
1
10
28.8275207991428
20
-2.78997581165788
30
0
41
1
10
28.9636228923557
20
-2.79030077942738
30
0
0
SPLINE
5
C0
100
AcDbEntity
8
1
62
256
6
ByLayer
370
18
48
1
60
0
100
AcDbSpline
70
4
71
3
72
24
73
20
40
0
40
0
40
0
40
0
40
0.0719273608388649
40
0.0719273608388649
40
0.187936440734007
40
0.187936440734007
40
0.303945520629148
40
0.303945520629148
40
0.419954600524291
40
0.419954600524291
40
0.535963680419433
40
0.535963680419433
40
0.651972760314575
40
0.651972760314575
40
0.767981840209716
40
0.767981840209716
40
0.883990920104858
40
0.883990920104858
40
1
40
1
40
1
40
1
41
1
10
40.359550220368
20
2.04048581055301
30
0
41
1
10
40.4737236970133
20
2.08652554251319
30
0
41
1
10
40.5878461736059
20
2.13096432375841
30
0
41
1
10
40.8857069676657
20
2.24177713133599
30
0
41
1
10
41.0698604569233
20
2.30454895065657
30
0
41
1
10
41.4379224490424
20
2.41994709183959
30
0
41
1
10
41.6217705500749
20
2.47260248555219
30
0
41
1
10
41.9892292384645
20
2.56734920900504
30
0
41
1
10
42.1738590601111
20
2.6087659089045
30
0
41
1
10
42.5423400335724
20
2.67946436722795
30
0
41
1
10
42.7263935400119
20
2.70889872906679
30
0
41
1
10
43.093477467546
20
2.75599292877666
30
0
41
1
10
43.2769571395952
20
2.77340236308501
30
0
41
1
10
43.6457620199486
20
2.79557425742735
30
0
41
1
10
43.8304603496362
20
2.80044087581814
30
0
41
1
10
44.1975171575477
20
2.79771994262984
30
0
41
1
10
44.3799471924988
20
2.79002128057627
30
0
41
1
10
44.7460039310604
20
2.76253027528071
30
0
41
1
10
44.929217787262
20
2.74277327600268
30
0
41
1
10
45.1123591966463
20
2.71693743369815
30
0
0
SPLINE
5
C1
100
AcDbEntity
8
1
62
256
6
ByLayer
370
18
48
1
60
0
100
AcDbSpline
70
4
71
3
72
22
73
18
40
0
40
0
40
0
40
0
40
0.108844591314945
40
0.108844591314945
40
0.21768918262989
40
0.21768918262989
40
0.435378365259779
40
0.435378365259779
40
0.544222956574724
40
0.544222956574724
40
0.653067547889669
40
0.653067547889669
40
0.870756730519558
40
0.870756730519558
40
0.979601321834503
40
0.979601321834503
40
1
40
1
40
1
40
1
41
1
10
4.02722072243921
20
1.7021150731459
30
0
41
1
10
4.02723885858745
20
1.77481977090625
30
0
41
1
10
4.0272556195267
20
1.84457444520305
30
0
41
1
10
4.02728688571881
20
1.97816855175014
30
0
41
1
10
4.02730137514595
20
2.04195180967594
30
0
41
1
10
4.02734154213479
20
2.22124311201657
30
0
41
1
10
4.02736422910124
20
2.32600186057763
30
0
41
1
10
4.02739531092308
20
2.4610248685805
30
0
41
1
10
4.02740522382049
20
2.50251316734551
30
0
41
1
10
4.02742425109835
20
2.57669878930349
30
0
41
1
10
4.02743334854779
20
2.60935562983914
30
0
41
1
10
4.02746008237116
20
2.69438122866322
30
0
41
1
10
4.0274771948373
20
2.73393164191944
30
0
41
1
10
4.02750378140178
20
2.76669818517752
30
0
41
1
10
4.02751271803743
20
2.77303458866092
30
0
41
1
10
4.02752339573806
20
2.77515363705922
30
0
41
1
10
4.02752508417547
20
2.77532979781594
30
0
41
1
10
4.02752677604238
20
2.77534797086142
30
0
0
SPLINE
5
C2
100
AcDbEntity
8
1
62
256
6
ByLayer
370
18
48
1
60
0
100
AcDbSpline
70
4
71
3
72
72
73
68
40
0
40
0
40
0
40
0
40
0.0263243430468275
40
0.0263243430468275
40
0.0572956431829946
40
0.0572956431829946
40
0.0882669433191617
40
0.0882669433191617
40
0.119238243455329
40
0.119238243455329
40
0.150209543591496
40
0.150209543591496
40
0.181180843727663
40
0.181180843727663
40
0.21215214386383
40
0.21215214386383
40
0.243123443999997
40
0.243123443999997
40
0.274094744136164
40
0.274094744136164
40
0.305066044272331
40
0.305066044272331
40
0.336037344408498
40
0.336037344408498
40
0.367008644544665
40
0.367008644544665
40
0.397979944680833
40
0.397979944680833
40
0.428951244817
40
0.428951244817
40
0.459922544953167
40
0.459922544953167
40
0.490893845089334
40
0.490893845089334
40
0.521865145225501
40
0.521865145225501
40
0.552836445361668
40
0.552836445361668
40
0.583807745497835
40
0.583807745497835
40
0.614779045634002
40
0.614779045634002
40
0.645750345770169
40
0.645750345770169
40
0.676721645906336
40
0.676721645906336
40
0.707692946042503
40
0.707692946042503
40
0.738664246178671
40
0.738664246178671
40
0.769635546314838
40
0.769635546314838
40
0.800606846451005
40
0.800606846451005
40
0.831578146587172
40
0.831578146587172
40
0.862549446723339
40
0.862549446723339
40
0.893520746859506
40
0.893520746859506
40
0.924492046995673
40
0.924492046995673
40
0.95546334713184
40
0.95546334713184
40
0.986434647268007
40
0.986434647268007
40
1
40
1
40
1
40
1
41
1
10
40.368312813093
20
-2.04246683270267
30
0
41
1
10
40.2076990138248
20
-2.09990248195587
30
0
41
1
10
40.0469974468373
20
-2.15372132581453
30
0
41
1
10
39.6981471284955
20
-2.26279236082704
30
0
41
1
10
39.510124725828
20
-2.31698783052133
30
0
41
1
10
39.1332792245752
20
-2.41310360067266
30
0
41
1
10
38.9445202878388
20
-2.45483054511433
30
0
41
1
10
38.5662004068582
20
-2.52704085903466
30
0
41
1
10
38.3776715233772
20
-2.55769744679699
30
0
41
1
10
38.0006375651267
20
-2.60748735504055
30
0
41
1
10
37.8120338174953
20
-2.62652954436839
30
0
41
1
10
37.4345617262575
20
-2.65240963769909
30
0
41
1
10
37.2456043049548
20
-2.65930202089743
30
0
41
1
10
36.8679676166795
20
-2.65988889846997
30
0
41
1
10
36.6793808733686
20
-2.65339762222945
30
0
41
1
10
36.3022206059825
20
-2.62663598720385
30
0
41
1
10
36.1136744605684
20
-2.60741198335876
30
0
41
1
10
35.7366980352757
20
-2.55819591479505
30
0
41
1
10
35.5475558886271
20
-2.52787208261455
30
0
41
1
10
35.1698200462053
20
-2.45429679373706
30
0
41
1
10
34.9812008776145
20
-2.4110432079234
30
0
41
1
10
34.6045561047417
20
-2.31507120388298
30
0
41
1
10
34.4163076322223
20
-2.26181102126608
30
0
41
1
10
34.0387508764792
20
-2.1441888106763
30
0
41
1
10
33.849331592344
20
-2.07906021342936
30
0
41
1
10
33.4718525878938
20
-1.94088867870963
30
0
41
1
10
33.2836167207013
20
-1.86744381125786
30
0
41
1
10
32.9064806892603
20
-1.71235254880912
30
0
41
1
10
32.7177003369458
20
-1.63022431732446
30
0
41
1
10
32.3396316215157
20
-1.45833599799713
30
0
41
1
10
32.1507656976817
20
-1.36871185535952
30
0
41
1
10
31.7734405899299
20
-1.18446326297121
30
0
41
1
10
31.5848329422936
20
-1.08954370634404
30
0
41
1
10
31.2074655789054
20
-0.894294114883252
30
0
41
1
10
31.0189476965418
20
-0.794021033482323
30
0
41
1
10
30.6408784128259
20
-0.590295881104709
30
0
41
1
10
30.4519655475392
20
-0.487321477472562
30
0
41
1
10
30.0746020313425
20
-0.279561250068639
30
0
41
1
10
29.8861900534216
20
-0.174614135947792
30
0
41
1
10
29.5092312337886
20
0.0360130636389329
30
0
41
1
10
29.3201535790811
20
0.141388528564505
30
0
41
1
10
28.9419410950461
20
0.350713293929033
30
0
41
1
10
28.7532561970141
20
0.454412851450059
30
0
41
1
10
28.3764706703306
20
0.660390581530891
30
0
41
1
10
28.1880278296478
20
0.761897510592064
30
0
41
1
10
27.810407280669
20
0.9604433701723
30
0
41
1
10
27.6209593138929
20
1.05750823834126
30
0
41
1
10
27.2433244106335
20
1.24728406412356
30
0
41
1
10
27.0548308079019
20
1.33977153530384
30
0
41
1
10
26.6774935860261
20
1.51675833881669
30
0
41
1
10
26.4887109648068
20
1.60139684250683
30
0
41
1
10
26.110900263554
20
1.76346573130385
30
0
41
1
10
25.9218306949702
20
1.84162666919582
30
0
41
1
10
25.5441468876342
20
1.98739425796828
30
0
41
1
10
25.3554357154685
20
2.05521226531681
30
0
41
1
10
24.9781181244276
20
2.18059685178534
30
0
41
1
10
24.7897277435798
20
2.23903712686504
30
0
41
1
10
24.4117489593681
20
2.34551675791758
30
0
41
1
10
24.2224506133036
20
2.39302348376944
30
0
41
1
10
23.8449398894476
20
2.47544047190073
30
0
41
1
10
23.656649447726
20
2.51078279959913
30
0
41
1
10
23.2796017028918
20
2.57118704612893
30
0
41
1
10
23.0907800605948
20
2.5956091336129
30
0
41
1
10
22.712238163585
20
2.63086967928683
30
0
41
1
10
22.5235163441998
20
2.64135638213077
30
0
41
1
10
22.2524314325738
20
2.64915196040414
30
0
41
1
10
22.1698485958611
20
2.65043062075591
30
0
41
1
10
22.0872404260543
20
2.65052098444468
30
0
0
SPLINE
5
C3
100
AcDbEntity
8
1
62
256
6
ByLayer
370
18
48
1
60
0
100
AcDbSpline
70
4
71
3
72
20
73
16
40
0
40
0
40
0
40
0
40
0.1395381739344
40
0.1395381739344
40
0.282948478278667
40
0.282948478278667
40
0.426358782622933
40
0.426358782622933
40
0.5697690869672
40
0.5697690869672
40
0.713179391311467
40
0.713179391311467
40
0.856589695655733
40
0.856589695655733
40
1
40
1
40
1
40
1
41
1
10
10.4251812703007
20
-2.0349656025808
30
0
41
1
10
10.2413361419209
20
-2.10005795215798
30
0
41
1
10
10.0573785090048
20
-2.16031594918019
30
0
41
1
10
9.6847666187889
20
-2.27290240555467
30
0
41
1
10
9.49597379324754
20
-2.32496210572487
30
0
41
1
10
9.11845370767054
20
-2.41758851425738
30
0
41
1
10
8.92992787891157
20
-2.45801351205935
30
0
41
1
10
8.55183432635971
20
-2.52714121275414
30
0
41
1
10
8.36249380884982
20
-2.55622570617294
30
0
41
1
10
7.98513423085848
20
-2.60181751694105
30
0
41
1
10
7.79698361610861
20
-2.6182579967664
30
0
41
1
10
7.42087261303459
20
-2.63906505037224
30
0
41
1
10
7.23267857736741
20
-2.64362486262533
30
0
41
1
10
6.85564439823338
20
-2.64015336607545
30
0
41
1
10
6.66675687814293
20
-2.63168849939828
30
0
41
1
10
6.47752245671526
20
-2.6169494942726
30
0
0
SPLINE
5
C4
100
AcDbEntity
8
1
62
256
6
ByLayer
370
18
48
1
60
0
100
AcDbSpline
70
4
71
3
72
14
73
10
40
0
40
0
40
0
40
0
40
0.279634939433938
40
0.279634939433938
40
0.491321848658745
40
0.491321848658745
40
0.703008757883553
40
0.703008757883553
40
1
40
1
40
1
40
1
41
1
10
44.6377462073112
20
-2.66284555524129
30
0
41
1
10
44.3567054293101
20
-2.66291311659666
30
0
41
1
10
44.0761495256091
20
-2.64901268690875
30
0
41
1
10
43.5826267269513
20
-2.60053197175253
30
0
41
1
10
43.369791036752
20
-2.571787443869
30
0
41
1
10
42.942730479213
20
-2.49879730110359
30
0
41
1
10
42.7283311715299
20
-2.45445739456108
30
0
41
1
10
42.2170289710012
20
-2.33138759345471
30
0
41
1
10
41.9203260419307
20
-2.24581321213276
30
0
41
1
10
41.6242290082525
20
-2.14800722195116
30
0
0
SPLINE
5
C5
100
AcDbEntity
8
1
62
256
6
ByLayer
370
13
48
1
60
0
100
AcDbSpline
70
4
71
3
72
22
73
18
40
0
40
0
40
0
40
0
40
0.2128180653259
40
0.2128180653259
40
0.294764903786795
40
0.294764903786795
40
0.376711742247691
40
0.376711742247691
40
0.540605419169483
40
0.540605419169483
40
0.704499096091275
40
0.704499096091275
40
0.786445934552171
40
0.786445934552171
40
0.868392773013066
40
0.868392773013066
40
1
40
1
40
1
40
1
41
1
10
41.6242290082501
20
-2.14800722195037
30
0
41
1
10
41.0761278703831
20
-1.96695990160794
30
0
41
1
10
40.5301028453054
20
-1.74400072665099
30
0
41
1
10
39.7660340090997
20
-1.39021698149239
30
0
41
1
10
39.5522058315841
20
-1.2867745209218
30
0
41
1
10
39.1245521215694
20
-1.07273043907787
30
0
41
1
10
38.9118573247311
20
-0.962760146021509
30
0
41
1
10
38.2761542386761
20
-0.625911079823226
30
0
41
1
10
37.8550655024205
20
-0.392884117654035
30
0
41
1
10
37.0110836769879
20
0.0769379616321544
30
0
41
1
10
36.5882626041965
20
0.313870230424982
30
0
41
1
10
35.9480586783947
20
0.663671525882421
30
0
41
1
10
35.7335989740872
20
0.77914669798156
30
0
41
1
10
35.3078032798179
20
1.00274206465812
30
0
41
1
10
35.0957079358906
20
1.1113263996962
30
0
41
1
10
34.5442049047043
20
1.38495184859417
30
0
41
1
10
34.2050871319203
20
1.54336679044607
30
0
41
1
10
33.8653003888963
20
1.68948974055613
30
0
0
SPLINE
5
C6
100
AcDbEntity
8
1
62
256
6
ByLayer
370
18
48
1
60
0
100
AcDbSpline
70
4
71
3
72
16
73
12
40
0
40
0
40
0
40
0
40
0.0752171466425165
40
0.0752171466425165
40
0.497780654187894
40
0.497780654187894
40
0.709062407960583
40
0.709062407960583
40
0.920344161733272
40
0.920344161733272
40
1
40
1
40
1
40
1
41
1
10
14.6973862047287
20
-2.64479585265298
30
0
41
1
10
14.6220438349148
20
-2.64470610725766
30
0
41
1
10
14.5467159491799
20
-2.64362138825226
30
0
41
1
10
14.0481605924822
20
-2.62985619380817
30
0
41
1
10
13.6249284513379
20
-2.58696972279424
30
0
41
1
10
12.984482721665
20
-2.47615914599828
30
0
41
1
10
12.7695529064473
20
-2.43131099922667
30
0
41
1
10
12.3426802230019
20
-2.32792941066293
30
0
41
1
10
12.1301328073721
20
-2.26928946537012
30
0
41
1
10
11.838056212181
20
-2.17970897541085
30
0
41
1
10
11.7581555433415
20
-2.1542715165707
30
0
41
1
10
11.6782973189571
20
-2.12795159527695
30
0
0
SPLINE
5
C7
100
AcDbEntity
8
1
62
256
6
ByLayer
370
13
48
1
60
0
100
AcDbSpline
70
4
71
3
72
24
73
20
40
0
40
0
40
0
40
0
40
0.139636120484388
40
0.139636120484388
40
0.225672508435947
40
0.225672508435947
40
0.311708896387508
40
0.311708896387508
40
0.483781672290631
40
0.483781672290631
40
0.569818060242193
40
0.569818060242193
40
0.655854448193754
40
0.655854448193754
40
0.827927224096877
40
0.827927224096877
40
0.913963612048438
40
0.913963612048438
40
1
40
1
40
1
40
1
41
1
10
11.678298268416
20
-2.12795190820256
30
0
41
1
10
11.3345190361892
20
-2.01464811311229
30
0
41
1
10
10.9915263822101
20
-1.88499060907392
30
0
41
1
10
10.4353028132731
20
-1.65272094334719
30
0
41
1
10
10.2228389441385
20
-1.55880012088721
30
0
41
1
10
9.7962009883646
20
-1.36141680023891
30
0
41
1
10
9.58145974862472
20
-1.25767229822807
30
0
41
1
10
8.93903910204025
20
-0.936889189799274
30
0
41
1
10
8.51237531685874
20
-0.70974110996616
30
0
41
1
10
7.8691166313335
20
-0.358749407522026
30
0
41
1
10
7.65530577567392
20
-0.24069779442948
30
0
41
1
10
7.22956744805362
20
-0.0050036238741598
30
0
41
1
10
7.01739392348824
20
0.112786069226956
30
0
41
1
10
6.38164788758425
20
0.463583106843487
30
0
41
1
10
5.95905671380623
20
0.694413562003831
30
0
41
1
10
5.32133081609908
20
1.02584242647657
30
0
41
1
10
5.10811644666984
20
1.133845843763
30
0
41
1
10
4.67950795136375
20
1.34326002209491
30
0
41
1
10
4.46482901683527
20
1.44429153279563
30
0
41
1
10
4.25041728862971
20
1.54054263488138
30
0
0
SPLINE
5
C8
100
AcDbEntity
8
1
62
256
6
ByLayer
370
18
48
1
60
0
100
AcDbSpline
70
4
71
3
72
8
73
4
40
0
40
0
40
0
40
0
40
1
40
1
40
1
40
1
41
1
10
4.08288679198452
20
1.60940489672268
30
0
41
1
10
4.09548641604371
20
1.59636974484732
30
0
41
1
10
4.10935810061108
20
1.58463443106248
30
0
41
1
10
4.1246899956044
20
1.57439247632976
30
0
0
SPLINE
5
C9
100
AcDbEntity
8
1
62
256
6
ByLayer
370
13
48
1
60
0
100
AcDbSpline
70
4
71
3
72
8
73
4
40
0
40
0
40
0
40
0
40
1
40
1
40
1
40
1
41
1
10
4.20042281166363
20
1.52689789316975
30
0
41
1
10
4.39280560990858
20
1.43526010437631
30
0
41
1
10
4.58540138094293
20
1.33982653653123
30
0
41
1
10
4.77772729435247
20
1.24144961838354
30
0
0
SPLINE
5
CA
100
AcDbEntity
8
1
62
256
6
ByLayer
370
18
48
1
60
0
100
AcDbSpline
70
4
71
3
72
24
73
20
40
0
40
0
40
0
40
0
40
0.0112633598464646
40
0.0112633598464646
40
0.119523135534264
40
0.119523135534264
40
0.336042686909862
40
0.336042686909862
40
0.444302462597662
40
0.444302462597662
40
0.552562238285463
40
0.552562238285463
40
0.769081789661064
40
0.769081789661064
40
0.877341565348864
40
0.877341565348864
40
0.985601341036665
40
0.985601341036665
40
1
40
1
40
1
40
1
41
1
10
4.77772702656836
20
1.24144975535822
30
0
41
1
10
4.80006017103747
20
1.23002609526691
30
0
41
1
10
4.82238967670418
20
1.21856274654147
30
0
41
1
10
5.05929653985521
20
1.09651039442932
30
0
41
1
10
5.27273032312428
20
0.982826590074609
30
0
41
1
10
5.91101030834596
20
0.634895398317525
30
0
41
1
10
6.33379413931749
20
0.393701206320486
30
0
41
1
10
6.96998047915363
20
0.0287298603171564
30
0
41
1
10
7.18232819668117
20
-0.0935440698943921
30
0
41
1
10
7.6084803294074
20
-0.337768162312756
30
0
41
1
10
7.82256413925163
20
-0.459879731168201
30
0
41
1
10
8.46668287753255
20
-0.822072379541112
30
0
41
1
10
8.89376240645043
20
-1.05536651364312
30
0
41
1
10
9.53705034051987
20
-1.38303932395695
30
0
41
1
10
9.75209986242322
20
-1.48871355633128
30
0
41
1
10
10.1791401826665
20
-1.68910068967102
30
0
41
1
10
10.391748298231
20
-1.78409553386061
30
0
41
1
10
10.6321796934592
20
-1.88514519508954
30
0
41
1
10
10.6603950129466
20
-1.8969060566196
30
0
41
1
10
10.6886030077966
20
-1.90856443500474
30
0
0
SPLINE
5
CB
100
AcDbEntity
8
1
62
256
6
ByLayer
370
13
48
1
60
0
100
AcDbSpline
70
4
71
3
72
18
73
14
40
0
40
0
40
0
40
0
40
0.235881377301666
40
0.235881377301666
40
0.362223907711317
40
0.362223907711317
40
0.488566438120967
40
0.488566438120967
40
0.741251498940266
40
0.741251498940266
40
0.993936559759564
40
0.993936559759564
40
1
40
1
40
1
40
1
41
1
10
10.6886030078159
20
-1.90856443501269
30
0
41
1
10
11.0845721815196
20
-2.07221869262338
30
0
41
1
10
11.4790980291868
20
-2.21567855891891
30
0
41
1
10
12.0877205930564
20
-2.39943772218129
30
0
41
1
10
12.3004753286732
20
-2.45674803861078
30
0
41
1
10
12.7278388658159
20
-2.55669829831007
30
0
41
1
10
12.9430797574091
20
-2.59940243685597
30
0
41
1
10
13.5841890672576
20
-2.7026033435651
30
0
41
1
10
14.0076117310446
20
-2.73898746961819
30
0
41
1
10
14.8546106818348
20
-2.74679432444219
30
0
41
1
10
15.2778643859449
20
-2.71808920650958
30
0
41
1
10
15.7151580346564
20
-2.65546019180627
30
0
41
1
10
15.7254092739872
20
-2.653973350668
30
0
41
1
10
15.7356639970185
20
-2.65246738832803
30
0
0
SPLINE
5
CC
100
AcDbEntity
8
1
62
256
6
ByLayer
370
13
48
1
60
0
100
AcDbSpline
70
4
71
3
72
12
73
8
40
0
40
0
40
0
40
0
40
0.759991737704058
40
0.759991737704058
40
0.958838432593425
40
0.958838432593425
40
1
40
1
40
1
40
1
41
1
10
29.8803007991247
20
2.74230751843768
30
0
41
1
10
30.6947782161268
20
2.70211943379616
30
0
41
1
10
31.4969381742314
20
2.54228123203117
30
0
41
1
10
32.5255749825951
20
2.20785845876182
30
0
41
1
10
32.7406789755063
20
2.13130673796911
30
0
41
1
10
32.9984250433976
20
2.03186277698012
30
0
41
1
10
33.0425827420131
20
2.01455364121537
30
0
41
1
10
33.0866992427689
20
1.99699730464872
30
0
0
SPLINE
5
CD
100
AcDbEntity
8
1
62
256
6
ByLayer
370
18
48
1
60
0
100
AcDbSpline
70
4
71
3
72
24
73
20
40
0
40
0
40
0
40
0
40
0.0687948993315185
40
0.0687948993315185
40
0.242300651943348
40
0.242300651943348
40
0.329053528249261
40
0.329053528249261
40
0.415806404555174
40
0.415806404555174
40
0.589312157166999
40
0.589312157166999
40
0.762817909778825
40
0.762817909778825
40
0.849570786084738
40
0.849570786084738
40
0.936323662390651
40
0.936323662390651
40
1
40
1
40
1
40
1
41
1
10
33.0866992428607
20
1.99699730461219
30
0
41
1
10
33.2557043727135
20
1.92974104243331
30
0
41
1
10
33.4241048967582
20
1.85885694519081
30
0
41
1
10
34.0160281302563
20
1.59785278286978
30
0
41
1
10
34.438329241044
20
1.39128870005254
30
0
41
1
10
35.0737330685533
20
1.05828599219527
30
0
41
1
10
35.2860446680938
20
0.943769052037538
30
0
41
1
10
35.7124457187007
20
0.70864938313423
30
0
41
1
10
35.9273096170674
20
0.587505045263441
30
0
41
1
10
36.5678986841107
20
0.221833102518275
30
0
41
1
10
36.9908366309983
20
-0.0244616583768789
30
0
41
1
10
37.8351954767896
20
-0.510381048175418
30
0
41
1
10
38.2564827642528
20
-0.750241018823203
30
0
41
1
10
38.892824269583
20
-1.0952978093689
30
0
41
1
10
39.1058109001823
20
-1.20763228264997
30
0
41
1
10
39.5342488714388
20
-1.42564434148858
30
0
41
1
10
39.7480775600981
20
-1.53044523916839
30
0
41
1
10
40.1165809264497
20
-1.70270756458689
30
0
41
1
10
40.2721043643395
20
-1.77279953094481
30
0
41
1
10
40.4273488159855
20
-1.83985470576303
30
0
0
SPLINE
5
CE
100
AcDbEntity
8
1
62
256
6
ByLayer
370
13
48
1
60
0
100
AcDbSpline
70
4
71
3
72
14
73
10
40
0
40
0
40
0
40
0
40
0.449491018058235
40
0.449491018058235
40
0.587118263543675
40
0.587118263543675
40
0.724745509029115
40
0.724745509029115
40
1
40
1
40
1
40
1
41
1
10
40.4273488147997
20
-1.83985470525087
30
0
41
1
10
41.1181268087186
20
-2.13822439680482
30
0
41
1
10
41.8033811341885
20
-2.37646843716806
30
0
41
1
10
42.7124308739247
20
-2.58489946446733
30
0
41
1
10
42.9272227960006
20
-2.62644966861669
30
0
41
1
10
43.3546145831577
20
-2.69303213142496
30
0
41
1
10
43.5675915734793
20
-2.7181972837536
30
0
41
1
10
44.2058926756187
20
-2.76906272589593
30
0
41
1
10
44.6306144824331
20
-2.7701940431046
30
0
41
1
10
45.0575819823666
20
-2.7378600588392
30
0
0
SPLINE
5
CF
100
AcDbEntity
8
1
62
256
6
ByLayer
370
18
48
1
60
0
100
AcDbSpline
70
4
71
3
72
30
73
26
40
0
40
0
40
0
40
0
40
0.124999999999997
40
0.124999999999997
40
0.249999999999995
40
0.249999999999995
40
0.5
40
0.5
40
0.624999999999997
40
0.624999999999997
40
0.687499999999996
40
0.687499999999996
40
0.749999999999994
40
0.749999999999994
40
0.812499999999993
40
0.812499999999993
40
0.874999999999992
40
0.874999999999992
40
0.906249999999994
40
0.906249999999994
40
0.937499999999996
40
0.937499999999996
40
0.968749999999998
40
0.968749999999998
40
1
40
1
40
1
40
1
41
1
10
42.7165702411946
20
0.993126513056552
30
0
41
1
10
42.8116853317051
20
0.918575733961291
30
0
41
1
10
42.9077296449479
20
0.847101563789948
30
0
41
1
10
43.1021317250951
20
0.711812950156144
30
0
41
1
10
43.200759778032
20
0.647875144906607
30
0
41
1
10
43.4961604492105
20
0.471726782308423
30
0
41
1
10
43.693592076971
20
0.374047848838274
30
0
41
1
10
43.9906639343759
20
0.264207927121419
30
0
41
1
10
44.0901817937518
20
0.233674281413073
30
0
41
1
10
44.2385821247263
20
0.199131369510496
30
0
41
1
10
44.2877231727051
20
0.189523119269154
30
0
41
1
10
44.3852638662122
20
0.174370240243974
30
0
41
1
10
44.4337684709332
20
0.168499443519465
30
0
41
1
10
44.5270442706824
20
0.169199541695576
30
0
41
1
10
44.571866388715
20
0.174845245087425
30
0
41
1
10
44.6524641789194
20
0.203565925218726
30
0
41
1
10
44.6887313433099
20
0.227936451088851
30
0
41
1
10
44.7298010668841
20
0.279022921608885
30
0
41
1
10
44.7415429471212
20
0.298796764090525
30
0
41
1
10
44.7597473780614
20
0.342215841050745
30
0
41
1
10
44.7663147695367
20
0.365779746751599
30
0
41
1
10
44.7743115041527
20
0.416666331318879
30
0
41
1
10
44.7756568841263
20
0.444037807653757
30
0
41
1
10
44.7733764141804
20
0.499924727883922
30
0
41
1
10
44.7697435910087
20
0.528823856313721
30
0
41
1
10
44.7642358859728
20
0.558269827679425
30
0
0
SPLINE
5
D0
100
AcDbEntity
8
1
62
256
6
ByLayer
370
18
48
1
60
0
100
AcDbSpline
70
4
71
3
72
8
73
4
40
0
40
0
40
0
40
0
40
1
40
1
40
1
40
1
41
1
10
45.0428014588019
20
-2.77697959881593
30
0
41
1
10
45.0477326400738
20
-2.76394543503801
30
0
41
1
10
45.0526595272348
20
-2.75090546078798
30
0
41
1
10
45.0575819823666
20
-2.73786005883903
30
0
0
SPLINE
5
D1
100
AcDbEntity
8
1
62
256
6
ByLayer
370
18
48
1
60
0
100
AcDbSpline
70
4
71
3
72
8
73
4
40
0
40
0
40
0
40
0
40
1
40
1
40
1
40
1
41
1
10
4.12407553874064
20
1.58485832323092
30
0
41
1
10
4.10921858676383
20
1.59196453031049
30
0
41
1
10
4.09550422196654
20
1.60017000975648
30
0
41
1
10
4.08288679198395
20
1.60940489672242
30
0
0
SPLINE
5
D2
100
AcDbEntity
8
1
62
256
6
ByLayer
370
18
48
1
60
0
100
AcDbSpline
70
4
71
3
72
20
73
16
40
0
40
0
40
0
40
0
40
0.25
40
0.25
40
0.5
40
0.5
40
0.625
40
0.625
40
0.75
40
0.75
40
0.8125
40
0.8125
40
0.875
40
0.875
40
1
40
1
40
1
40
1
41
1
10
44.921203433757
20
0.8523051532095
30
0
41
1
10
44.9992699408978
20
0.870741790240004
30
0
41
1
10
45.076920085737
20
0.891756549615536
30
0
41
1
10
45.2284195163531
20
0.942159745809562
30
0
41
1
10
45.3023440357956
20
0.971259072374551
30
0
41
1
10
45.4074845515787
20
1.02765367565522
30
0
41
1
10
45.4418287672261
20
1.04884710145905
30
0
41
1
10
45.505431121714
20
1.09730232975753
30
0
41
1
10
45.5351382290598
20
1.12497741164663
30
0
41
1
10
45.5718889294461
20
1.17208565372016
30
0
41
1
10
45.5828188185578
20
1.18867187531083
30
0
41
1
10
45.6015166864034
20
1.22398344478347
30
0
41
1
10
45.6093303134094
20
1.24296369449743
30
0
41
1
10
45.6263379015211
20
1.30106301513732
30
0
41
1
10
45.6292837668547
20
1.3424939344319
30
0
41
1
10
45.6250831990659
20
1.38293719427548
30
0
0
SPLINE
5
D3
100
AcDbEntity
8
1
62
256
6
ByLayer
370
18
48
1
60
0
100
AcDbSpline
70
4
71
3
72
12
73
8
40
0
40
0
40
0
40
0
40
0.25
40
0.25
40
0.5
40
0.5
40
1
40
1
40
1
40
1
41
1
10
4.02770512357134
20
-2.17095291492637
30
0
41
1
10
4.03882819006614
20
-2.15306389402843
30
0
41
1
10
4.05345925914594
20
-2.1377156045435
30
0
41
1
10
4.08703826172643
20
-2.11488923766751
30
0
41
1
10
4.10630259630702
20
-2.10713389742648
30
0
41
1
10
4.16650993027702
20
-2.09523898806469
30
0
41
1
10
4.21006375995853
20
-2.10195173373808
30
0
41
1
10
4.25133626639189
20
-2.11825840369235
30
0
0
SPLINE
5
D4
100
AcDbEntity
8
1
62
256
6
ByLayer
370
18
48
1
60
0
100
AcDbSpline
70
4
71
3
72
42
73
38
40
0
40
0
40
0
40
0
40
0.0820378879764466
40
0.0820378879764466
40
0.12305683196467
40
0.12305683196467
40
0.164075775952893
40
0.164075775952893
40
0.246113663929338
40
0.246113663929338
40
0.287132607917559
40
0.287132607917559
40
0.32815155190578
40
0.32815155190578
40
0.410189439882225
40
0.410189439882225
40
0.492227327858669
40
0.492227327858669
40
0.533246271846891
40
0.533246271846891
40
0.574265215835112
40
0.574265215835112
40
0.656303103811555
40
0.656303103811555
40
0.697322047799777
40
0.697322047799777
40
0.738340991788
40
0.738340991788
40
0.820378879764446
40
0.820378879764446
40
0.902416767740893
40
0.902416767740893
40
0.943435711729115
40
0.943435711729115
40
0.984454655717338
40
0.984454655717338
40
1
40
1
40
1
40
1
41
1
10
45.0428014588021
20
-2.7769795988159
30
0
41
1
10
44.6148757438825
20
-2.80900263844379
30
0
41
1
10
44.1883516015511
20
-2.80698975374898
30
0
41
1
10
43.5458838580809
20
-2.75349488442046
30
0
41
1
10
43.3306637539778
20
-2.7270936536425
30
0
41
1
10
42.9028941055794
20
-2.65828252946758
30
0
41
1
10
42.6899906935312
20
-2.61590690590322
30
0
41
1
10
42.0528015172405
20
-2.46620154287308
30
0
41
1
10
41.6300363342728
20
-2.3362843552496
30
0
41
1
10
40.9931263402575
20
-2.10155637633858
30
0
41
1
10
40.7803782720472
20
-2.01665541216684
30
0
41
1
10
40.3530034210257
20
-1.83443464851266
30
0
41
1
10
40.1376452573134
20
-1.73675510545755
30
0
41
1
10
39.495912587189
20
-1.43088216472492
30
0
41
1
10
39.0719063624686
20
-1.20943959447712
30
0
41
1
10
38.2247660102394
20
-0.742538578569082
30
0
41
1
10
37.801182544821
20
-0.497781851347241
30
0
41
1
10
37.1599137795098
20
-0.123395074673141
30
0
41
1
10
36.9444325944762
20
0.0030582400518995
30
0
41
1
10
36.5164257000895
20
0.253736310426518
30
0
41
1
10
36.30345672727
20
0.378134412961941
30
0
41
1
10
35.666273495143
20
0.746215064656496
30
0
41
1
10
35.2432206499333
20
0.983840627746673
30
0
41
1
10
34.6064312300838
20
1.32072639117206
30
0
41
1
10
34.3936692857611
20
1.42954942784772
30
0
41
1
10
33.966192614678
20
1.63869991880787
30
0
41
1
10
33.7507710737323
20
1.73946212385911
30
0
41
1
10
33.1089029276468
20
2.02351834258062
30
0
41
1
10
32.6845667490148
20
2.18820843065009
30
0
41
1
10
31.8370865590424
20
2.46308890756023
30
0
41
1
10
31.413117949885
20
2.57247400094101
30
0
41
1
10
30.7722669508111
20
2.68998259420067
30
0
41
1
10
30.5568655941981
20
2.72132446314808
30
0
41
1
10
30.1285572532644
20
2.76691859157273
30
0
41
1
10
29.915420591708
20
2.78129344041568
30
0
41
1
10
29.62229545307
20
2.78962038967268
30
0
41
1
10
29.5418104241349
20
2.79071169115491
30
0
41
1
10
29.4613744808864
20
2.79060989750431
30
0
0
SPLINE
5
D5
100
AcDbEntity
8
1
62
256
6
ByLayer
370
18
48
1
60
0
100
AcDbSpline
70
4
71
3
72
38
73
34
40
0
40
0
40
0
40
0
40
0.0277636620902532
40
0.0277636620902532
40
0.0817767919741268
40
0.0817767919741268
40
0.108783356916063
40
0.108783356916063
40
0.135789921858
40
0.135789921858
40
0.3518424413935
40
0.3518424413935
40
0.378849006335438
40
0.378849006335438
40
0.405855571277375
40
0.405855571277375
40
0.459868701161251
40
0.459868701161251
40
0.567894960929001
40
0.567894960929001
40
0.621908090812876
40
0.621908090812876
40
0.648914655754814
40
0.648914655754814
40
0.675921220696751
40
0.675921220696751
40
0.7839474804645
40
0.7839474804645
40
0.891973740232249
40
0.891973740232249
40
0.945986870116124
40
0.945986870116124
40
1
40
1
40
1
40
1
41
1
10
15.9732190557784
20
-2.65085571751899
30
0
41
1
10
15.8641660013251
20
-2.67015846270809
30
0
41
1
10
15.7550741691706
20
-2.68737954966801
30
0
41
1
10
15.4334303490113
20
-2.73185294124897
30
0
41
1
10
15.2206716626095
20
-2.7532394850181
30
0
41
1
10
14.9002284005392
20
-2.77285777892874
30
0
41
1
10
14.793189387162
20
-2.77732034106131
30
0
41
1
10
14.5785460576031
20
-2.78202594390146
30
0
41
1
10
14.4708046830747
20
-2.78225988268912
30
0
41
1
10
13.5050873704525
20
-2.7653022481492
30
0
41
1
10
12.6642156621941
20
-2.61512037302953
30
0
41
1
10
11.7027728511664
20
-2.31424528152118
30
0
41
1
10
11.595741428278
20
-2.27897570537431
30
0
41
1
10
11.3811644702749
20
-2.20480250085137
30
0
41
1
10
11.2734358973233
20
-2.16583818514513
30
0
41
1
10
10.9514271394809
20
-2.04456741371533
30
0
41
1
10
10.7378228853342
20
-1.95771668243108
30
0
41
1
10
10.0988385959251
20
-1.68123066486086
30
0
41
1
10
9.67541238090934
20
-1.47546864497878
30
0
41
1
10
9.03801303347427
20
-1.14368271535548
30
0
41
1
10
8.8252598033701
20
-1.02909264338524
30
0
41
1
10
8.5048852614718
20
-0.852418702366066
30
0
41
1
10
8.39788417225151
20
-0.792733428378057
30
0
41
1
10
8.18333805415841
20
-0.671960976604822
30
0
41
1
10
8.07559642992263
20
-0.610760058557304
30
0
41
1
10
7.53864357043523
20
-0.30369302449165
30
0
41
1
10
7.11344432145205
20
-0.0541874491436261
30
0
41
1
10
6.26421023791363
20
0.439409376548724
30
0
41
1
10
5.84041808425729
20
0.683914795327439
30
0
41
1
10
5.19958388350904
20
1.03615217553264
30
0
41
1
10
4.98474018693088
20
1.15137733518989
30
0
41
1
10
4.55423912047127
20
1.37443845512752
30
0
41
1
10
4.33922891921867
20
1.48194862291467
30
0
41
1
10
4.12407553873993
20
1.58485832323126
30
0
0
SPLINE
5
D6
100
AcDbEntity
8
1
62
256
6
ByLayer
370
18
48
1
60
0
100
AcDbSpline
70
4
71
3
72
12
73
8
40
0
40
0
40
0
40
0
40
0.250000000000004
40
0.250000000000004
40
0.500000000000008
40
0.500000000000008
40
1
40
1
40
1
40
1
41
1
10
45.0575819823581
20
-2.73786005883986
30
0
41
1
10
45.0625863869669
20
-2.72459747586254
30
0
41
1
10
45.067214273062
20
-2.71097300689269
30
0
41
1
10
45.0742564033626
20
-2.68665170534945
30
0
41
1
10
45.0766263178571
20
-2.67602818099684
30
0
41
1
10
45.0796293324929
20
-2.65318575791082
30
0
41
1
10
45.0767145320545
20
-2.6490605901964
30
0
41
1
10
45.0716259897377
20
-2.65163205882072
30
0
0
SPLINE
5
D7
100
AcDbEntity
8
1
62
256
6
ByLayer
370
18
48
1
60
0
100
AcDbSpline
70
4
71
3
72
8
73
4
40
0
40
0
40
0
40
0
40
1
40
1
40
1
40
1
41
1
10
4.1246899956044
20
1.57439247632976
30
0
41
1
10
4.14832450783919
20
1.55539209788637
30
0
41
1
10
4.17398780556434
20
1.53948969206124
30
0
41
1
10
4.20042281166363
20
1.52689789316975
30
0
0
SPLINE
5
D8
100
AcDbEntity
8
1
62
256
6
ByLayer
370
18
48
1
60
0
100
AcDbSpline
70
4
71
3
72
72
73
68
40
0
40
0
40
0
40
0
40
0.0252989020125335
40
0.0252989020125335
40
0.0563404063443549
40
0.0563404063443549
40
0.0873819106761763
40
0.0873819106761763
40
0.118423415007998
40
0.118423415007998
40
0.149464919339819
40
0.149464919339819
40
0.18050642367164
40
0.18050642367164
40
0.211547928003462
40
0.211547928003462
40
0.242589432335283
40
0.242589432335283
40
0.273630936667105
40
0.273630936667105
40
0.304672440998926
40
0.304672440998926
40
0.335713945330747
40
0.335713945330747
40
0.366755449662569
40
0.366755449662569
40
0.39779695399439
40
0.39779695399439
40
0.428838458326211
40
0.428838458326211
40
0.459879962658033
40
0.459879962658033
40
0.490921466989854
40
0.490921466989854
40
0.521962971321676
40
0.521962971321676
40
0.553004475653497
40
0.553004475653497
40
0.584045979985318
40
0.584045979985318
40
0.61508748431714
40
0.61508748431714
40
0.646128988648961
40
0.646128988648961
40
0.677170492980783
40
0.677170492980783
40
0.708211997312604
40
0.708211997312604
40
0.739253501644425
40
0.739253501644425
40
0.770295005976247
40
0.770295005976247
40
0.801336510308068
40
0.801336510308068
40
0.832378014639889
40
0.832378014639889
40
0.863419518971711
40
0.863419518971711
40
0.894461023303532
40
0.894461023303532
40
0.925502527635354
40
0.925502527635354
40
0.956544031967175
40
0.956544031967175
40
0.987585536298996
40
0.987585536298996
40
1
40
1
40
1
40
1
41
1
10
7.14942287397145
20
2.6422068491537
30
0
41
1
10
7.303264977758
20
2.64172294053049
30
0
41
1
10
7.45700709508057
20
2.63709768244999
30
0
41
1
10
7.7993801165172
20
2.6180861671167
30
0
41
1
10
7.98842337592009
20
2.60150618968518
30
0
41
1
10
8.3671283636221
20
2.55557788832275
30
0
41
1
10
8.55608627151787
20
2.52643987967738
30
0
41
1
10
8.93336159953199
20
2.45730809265012
30
0
41
1
10
9.1217486194756
20
2.41684902643411
30
0
41
1
10
9.49956427745082
20
2.32401095981945
30
0
41
1
10
9.68902863900374
20
2.27169366353232
30
0
41
1
10
10.0673209178971
20
2.15723082915375
30
0
41
1
10
10.2558273868696
20
2.09525871989143
30
0
41
1
10
10.6333306924518
20
1.96090036927984
30
0
41
1
10
10.8221621724733
20
1.88880270930628
30
0
41
1
10
11.2000069708308
20
1.73612429541541
30
0
41
1
10
11.389124086789
20
1.65549309755946
30
0
41
1
10
11.7670780076177
20
1.48699430128826
30
0
41
1
10
11.9558923777706
20
1.39895059265265
30
0
41
1
10
12.3333041673321
20
1.21689174634511
30
0
41
1
10
12.5217720348526
20
1.12273369261581
30
0
41
1
10
12.8992647190474
20
0.929518409804416
30
0
41
1
10
13.0888504028827
20
0.830269156928239
30
0
41
1
10
13.4668137937366
20
0.628767353391623
30
0
41
1
10
13.6554230392065
20
0.526304871082942
30
0
41
1
10
14.0323854176906
20
0.319044220943795
30
0
41
1
10
14.2211427895768
20
0.214757518469241
30
0
41
1
10
14.5994780613847
20
0.005247295794959
30
0
41
1
10
14.7888803246884
20
-0.0999236444198459
30
0
41
1
10
15.1662897497484
20
-0.309701039973049
30
0
41
1
10
15.354839155033
20
-0.41399518117845
30
0
41
1
10
15.7324780928246
20
-0.619198467751659
30
0
41
1
10
15.9214465361655
20
-0.720515654803023
30
0
41
1
10
16.2997064960526
20
-0.920787812062599
30
0
41
1
10
16.4885777055562
20
-1.01958396964429
30
0
41
1
10
16.8662018131714
20
-1.20965497479003
30
0
41
1
10
17.0549360130186
20
-1.30148741122841
30
0
41
1
10
17.4323779691182
20
-1.48002135905466
30
0
41
1
10
17.6211051847708
20
-1.56702733304061
30
0
41
1
10
17.9994677561585
20
-1.73224110144704
30
0
41
1
10
18.1882787254602
20
-1.80959715294978
30
0
41
1
10
18.5655182939028
20
-1.95637669340459
30
0
41
1
10
18.7537611490916
20
-2.02592641436701
30
0
41
1
10
19.1310867803419
20
-2.15624358167588
30
0
41
1
10
19.3204583083468
20
-2.21598501363812
30
0
41
1
10
19.6985056376921
20
-2.32337098447064
30
0
41
1
10
19.8869970300697
20
-2.37185278043137
30
0
41
1
10
20.2639769429573
20
-2.45894583339501
30
0
41
1
10
20.45269276624
20
-2.49718403896048
30
0
41
1
10
20.830566657553
20
-2.55961966442123
30
0
41
1
10
21.0198973448275
20
-2.58475158702356
30
0
41
1
10
21.3973542073099
20
-2.62407656529544
30
0
41
1
10
21.5860592614162
20
-2.63805391562417
30
0
41
1
10
21.9634965182663
20
-2.65197737988865
30
0
41
1
10
22.1522227009226
20
-2.6521573280082
30
0
41
1
10
22.5299137148968
20
-2.64104470506638
30
0
41
1
10
22.7191417594914
20
-2.63038436411736
30
0
41
1
10
23.0967956880489
20
-2.59488554995809
30
0
41
1
10
23.2854043841651
20
-2.57037308752706
30
0
41
1
10
23.6624182634713
20
-2.50973936093709
30
0
41
1
10
23.8508793843604
20
-2.47427578770279
30
0
41
1
10
24.2291587741744
20
-2.39142248211982
30
0
41
1
10
24.4182426286324
20
-2.34380631729036
30
0
41
1
10
24.7953933792045
20
-2.23731829710204
30
0
41
1
10
24.9835671175429
20
-2.17887877610102
30
0
41
1
10
25.2476375323072
20
-2.09099521481448
30
0
41
1
10
25.3231393013531
20
-2.06504856980979
30
0
41
1
10
25.3986837335964
20
-2.03827422781629
30
0
0
SPLINE
5
D9
100
AcDbEntity
8
1
62
256
6
ByLayer
370
18
48
1
60
0
100
AcDbSpline
70
4
71
3
72
24
73
20
40
0
40
0
40
0
40
0
40
0.191348908537249
40
0.191348908537249
40
0.292430294970093
40
0.292430294970093
40
0.393511681402937
40
0.393511681402937
40
0.494593067835781
40
0.494593067835781
40
0.595674454268624
40
0.595674454268624
40
0.696755840701468
40
0.696755840701468
40
0.797837227134312
40
0.797837227134312
40
0.898918613567156
40
0.898918613567156
40
1
40
1
40
1
40
1
41
1
10
37.121105914969
20
2.65924411334015
30
0
41
1
10
37.4778971761323
20
2.65590761556032
30
0
41
1
10
37.8344621636396
20
2.62952682033162
30
0
41
1
10
38.3802225713208
20
2.55730995522416
30
0
41
1
10
38.5690740950937
20
2.5265380551331
30
0
41
1
10
38.9463304120443
20
2.45443877391026
30
0
41
1
10
39.1347569452226
20
2.41275633231328
30
0
41
1
10
39.511392999221
20
2.31663450662305
30
0
41
1
10
39.6995299540082
20
2.26238937326508
30
0
41
1
10
40.0773015559151
20
2.14421685737318
30
0
41
1
10
40.266319237361
20
2.08012730082621
30
0
41
1
10
40.6432790586731
20
1.94224470496118
30
0
41
1
10
40.8312783384979
20
1.8681956648754
30
0
41
1
10
41.208072956424
20
1.71261497042619
30
0
41
1
10
41.3968836620245
20
1.63103353730685
30
0
41
1
10
41.7748476713853
20
1.45978711513479
30
0
41
1
10
41.9631593402854
20
1.37025842712893
30
0
41
1
10
42.3396121994725
20
1.1853817084513
30
0
41
1
10
42.5280380871025
20
1.09055329317795
30
0
41
1
10
42.7165702411947
20
0.993126513056552
30
0
0
SPLINE
5
DA
100
AcDbEntity
8
1
62
256
6
ByLayer
370
18
48
1
60
0
100
AcDbSpline
70
4
71
3
72
18
73
14
40
0
40
0
40
0
40
0
40
0.25
40
0.25
40
0.5
40
0.5
40
0.625
40
0.625
40
0.75
40
0.75
40
0.875
40
0.875
40
1
40
1
40
1
40
1
41
1
10
44.7642358859728
20
0.558269827679425
30
0
41
1
10
44.7588704228225
20
0.586955327948402
30
0
41
1
10
44.7571872191315
20
0.616327005136753
30
0
41
1
10
44.7621106042969
20
0.676791165482342
30
0
41
1
10
44.7686915444877
20
0.707213160418689
30
0
41
1
10
44.7870432340495
20
0.750889879185308
30
0
41
1
10
44.7944445078115
20
0.765188367753211
30
0
41
1
10
44.8128810040134
20
0.791165652889248
30
0
41
1
10
44.8239272113377
20
0.802750169153057
30
0
41
1
10
44.8486219033039
20
0.82249113193555
30
0
41
1
10
44.8624452732074
20
0.830758130639936
30
0
41
1
10
44.8909515078141
20
0.843764446791852
30
0
41
1
10
44.9058268624348
20
0.848673733351944
30
0
41
1
10
44.9212034337569
20
0.8523051532095
30
0
0
SPLINE
5
DB
100
AcDbEntity
8
1
62
256
6
ByLayer
370
18
48
1
60
0
100
AcDbSpline
70
4
71
3
72
8
73
4
40
0
40
0
40
0
40
0
40
1
40
1
40
1
40
1
41
1
10
45.042801458802
20
2.7769795988159
30
0
41
1
10
44.8387245361095
20
2.7922513227499
30
0
41
1
10
44.6348227386572
20
2.79979288796704
30
0
41
1
10
44.4307487444136
20
2.79961356700486
30
0
0
SPLINE
5
DC
100
AcDbEntity
8
1
62
256
6
ByLayer
370
18
48
1
60
0
100
AcDbSpline
70
4
71
3
72
44
73
40
40
0
40
0
40
0
40
0
40
0.016724856489529
40
0.016724856489529
40
0.036171691026437
40
0.036171691026437
40
0.0750653601002548
40
0.0750653601002548
40
0.15285269824789
40
0.15285269824789
40
0.191746367321707
40
0.191746367321707
40
0.230640036395524
40
0.230640036395524
40
0.386214712690792
40
0.386214712690792
40
0.425108381764608
40
0.425108381764608
40
0.464002050838425
40
0.464002050838425
40
0.541789388986059
40
0.541789388986059
40
0.580683058059876
40
0.580683058059876
40
0.619576727133693
40
0.619576727133693
40
0.697364065281328
40
0.697364065281328
40
0.775151403428963
40
0.775151403428963
40
0.81404507250278
40
0.81404507250278
40
0.852938741576598
40
0.852938741576598
40
0.930726079724232
40
0.930726079724232
40
0.969619748798049
40
0.969619748798049
40
1
40
1
40
1
40
1
41
1
10
30.9411584419723
20
-2.65889574654926
30
0
41
1
10
30.8489268040521
20
-2.67531971467281
30
0
41
1
10
30.7564278229416
20
-2.69028279593343
30
0
41
1
10
30.5569310131242
20
-2.71923742668116
30
0
41
1
10
30.4499437143986
20
-2.73270054840728
30
0
41
1
10
30.129620141612
20
-2.76681725728187
30
0
41
1
10
29.9169302050437
20
-2.78120330904986
30
0
41
1
10
29.2801140378406
20
-2.79943479883494
30
0
41
1
10
28.85700973968
20
-2.77835728830649
30
0
41
1
10
28.2191469288869
20
-2.69736158502491
30
0
41
1
10
28.0059078676356
20
-2.66215643166376
30
0
41
1
10
27.5772493839176
20
-2.57546373127343
30
0
41
1
10
27.3619254139637
20
-2.52391163672417
30
0
41
1
10
26.2939750558669
20
-2.23080705963699
30
0
41
1
10
25.4534336344728
20
-1.88165001075558
30
0
41
1
10
24.3821014790543
20
-1.34598732041295
30
0
41
1
10
24.1667153383401
20
-1.2339157252822
30
0
41
1
10
23.7393008530243
20
-1.00490499095255
30
0
41
1
10
23.5265205771867
20
-0.887454899059406
30
0
41
1
10
22.8894300733093
20
-0.528888864472293
30
0
41
1
10
22.466143732158
20
-0.28194964562843
30
0
41
1
10
21.8282039412675
20
0.091417978387085
30
0
41
1
10
21.6149593875847
20
0.216199458742352
30
0
41
1
10
21.1863403884283
20
0.46480242537703
30
0
41
1
10
20.9708758636615
20
0.588802027542357
30
0
41
1
10
20.3296949334759
20
0.951470984505136
30
0
41
1
10
19.9055962406733
20
1.182147930187
30
0
41
1
10
19.0574455475363
20
1.61124874611426
30
0
41
1
10
18.6329230347442
20
1.80895106932726
30
0
41
1
10
17.9902050459532
20
2.07219935692183
30
0
41
1
10
17.7746534993258
20
2.15435237781088
30
0
41
1
10
17.3469401951471
20
2.30379776661047
30
0
41
1
10
17.1340168740095
20
2.37146917920057
30
0
41
1
10
16.4964461469761
20
2.55224587297369
30
0
41
1
10
16.0732342883908
20
2.64329091331146
30
0
41
1
10
15.4350587878852
20
2.73167591937386
30
0
41
1
10
15.2218663638267
20
2.75315052719014
30
0
41
1
10
14.8403167015736
20
2.77653802869969
30
0
41
1
10
14.6721162264489
20
2.78166159257725
30
0
41
1
10
14.5045290928707
20
2.7816265453973
30
0
0
SPLINE
5
DD
100
AcDbEntity
8
1
62
256
6
ByLayer
370
18
48
1
60
0
100
AcDbSpline
70
4
71
3
72
14
73
10
40
0
40
0
40
0
40
0
40
0.173766081253388
40
0.173766081253388
40
0.386438910501669
40
0.386438910501669
40
0.81178456899822
40
0.81178456899822
40
1
40
1
40
1
40
1
41
1
10
29.675165520203
20
-2.65387669799324
30
0
41
1
10
29.5005654748118
20
-2.65392086193373
30
0
41
1
10
29.3253456137946
20
-2.64864349217137
30
0
41
1
10
28.9377922038397
20
-2.62510472117751
30
0
41
1
10
28.7254043681704
20
-2.6042153433591
30
0
41
1
10
28.0898102625078
20
-2.51893784749336
30
0
41
1
10
27.6677058203287
20
-2.43182205317567
30
0
41
1
10
27.0565912458238
20
-2.26568667867158
30
0
41
1
10
26.8688143501383
20
-2.20928247929908
30
0
41
1
10
26.6803650427145
20
-2.14765322784464
30
0
0
SPLINE
5
DE
100
AcDbEntity
8
1
62
256
6
ByLayer
370
13
48
1
60
0
100
AcDbSpline
70
4
71
3
72
24
73
20
40
0
40
0
40
0
40
0
40
0.0094023466950611
40
0.0094023466950611
40
0.0911618068758412
40
0.0911618068758412
40
0.254680727237401
40
0.254680727237401
40
0.418199647598962
40
0.418199647598962
40
0.499959107779742
40
0.499959107779742
40
0.581718567960522
40
0.581718567960522
40
0.908756408683648
40
0.908756408683648
40
0.990515868864431
40
0.990515868864431
40
1
40
1
40
1
40
1
41
1
10
26.6803650425364
20
-2.14765322778638
30
0
41
1
10
26.6558772535955
20
-2.13964489852847
30
0
41
1
10
26.6313781107475
20
-2.13154834243977
30
0
41
1
10
26.3937253902774
20
-2.0521961874413
30
0
41
1
10
26.1791555016332
20
-1.9741086770926
30
0
41
1
10
25.5373915695395
20
-1.7231766636416
30
0
41
1
10
25.1108767143543
20
-1.53386134702245
30
0
41
1
10
24.2539449104718
20
-1.12052275262735
30
0
41
1
10
23.8275529702959
20
-0.899204273460555
30
0
41
1
10
23.1878135541951
20
-0.55451869132196
30
0
41
1
10
22.9743716315778
20
-0.437601769508774
30
0
41
1
10
22.5461798012833
20
-0.201304583938651
30
0
41
1
10
22.3319283242136
20
-0.0820095381460533
30
0
41
1
10
21.2675277124812
20
0.510429133021404
30
0
41
1
10
20.4278758908941
20
0.974241678179794
30
0
41
1
10
19.3592830433597
20
1.48141305953317
30
0
41
1
10
19.1447068234865
20
1.57901299186625
30
0
41
1
10
18.9069039333575
20
1.68135186028471
30
0
41
1
10
18.8821974743192
20
1.69191745874437
30
0
41
1
10
18.8575017827377
20
1.70241049110666
30
0
0
SPLINE
5
DF
100
AcDbEntity
8
1
62
256
6
ByLayer
370
13
48
1
60
0
100
AcDbSpline
70
4
71
3
72
20
73
16
40
0
40
0
40
0
40
0
40
0.211018588381223
40
0.211018588381223
40
0.316527882571835
40
0.316527882571835
40
0.422037176762446
40
0.422037176762446
40
0.633055765143669
40
0.633055765143669
40
0.738565059334281
40
0.738565059334281
40
0.844074353524892
40
0.844074353524892
40
1
40
1
40
1
40
1
41
1
10
4.25041728862976
20
1.54054263488135
30
0
41
1
10
4.25048255135417
20
1.6833469059589
30
0
41
1
10
4.25053843853883
20
1.81425293954462
30
0
41
1
10
4.25061380612252
20
1.99301124814892
30
0
41
1
10
4.25063756333898
20
2.04977129692341
30
0
41
1
10
4.25068226985894
20
2.15526543218786
30
0
41
1
10
4.25070333379327
20
2.20427285379108
30
0
41
1
10
4.25076402227714
20
2.3402932358978
30
0
41
1
10
4.2508012974975
20
2.41659908052426
30
0
41
1
10
4.25085631752933
20
2.50753652939193
30
0
41
1
10
4.25087432861508
20
2.53363867092841
30
0
41
1
10
4.25091027834245
20
2.57747300763177
30
0
41
1
10
4.25092828032797
20
2.59522902547846
30
0
41
1
10
4.25097264582567
20
2.62821498895252
30
0
41
1
10
4.25099905043308
20
2.63845051910735
30
0
41
1
10
4.25102565472994
20
2.63934531860485
30
0
0
SPLINE
5
E0
100
AcDbEntity
8
1
62
256
6
ByLayer
370
18
48
1
60
0
100
AcDbSpline
70
4
71
3
72
57
73
53
40
0
40
0
40
0
40
0
40
0.0946436585965319
40
0.0946436585965319
40
0.151842854692686
40
0.151842854692686
40
0.180442452740764
40
0.180442452740764
40
0.184017402496773
40
0.185804877374778
40
0.18625174609428
40
0.18625174609428
40
0.186698614813781
40
0.186698614813781
40
0.187592352252783
40
0.187592352252783
40
0.194742251764801
40
0.194742251764801
40
0.209042050788838
40
0.209042050788838
40
0.266241246884984
40
0.266241246884984
40
0.323440442981131
40
0.323440442981131
40
0.437838835173424
40
0.437838835173424
40
0.552237227365717
40
0.552237227365717
40
0.58083682541379
40
0.58083682541379
40
0.595136624437827
40
0.595136624437827
40
0.602286523949845
40
0.602286523949845
40
0.60407399882785
40
0.60407399882785
40
0.604520867547351
40
0.604520867547351
40
0.604967736266852
40
0.605861473705855
40
0.609436423461864
40
0.666635619558013
40
0.666635619558013
40
0.723834815654162
40
0.723834815654162
40
0.781034011750311
40
0.781034011750311
40
0.895432403942609
40
0.895432403942609
40
0.952631600038758
40
0.952631600038758
40
1
40
1
40
1
40
1
41
1
10
7.22365115053245
20
-0.561756060512693
30
0
41
1
10
7.06311988372877
20
-0.528539140610917
30
0
41
1
10
6.90251787130572
20
-0.507470069319311
30
0
41
1
10
6.64190853689598
20
-0.494409073933014
30
0
41
1
10
6.54344692732451
20
-0.494248358889109
30
0
41
1
10
6.3957505946193
20
-0.501116872456009
30
0
41
1
10
6.34647147321786
20
-0.504589836968535
30
0
41
1
10
6.29102003775128
20
-0.509810004190143
30
0
41
1
10
6.28177769753199
20
-0.510707379489872
30
0
41
1
10
6.27176438966063
20
-0.511723894476546
30
0
41
1
10
6.26791300203953
20
-0.512121962409822
30
0
41
1
10
6.2663724378541
20
-0.512281757476103
30
0
41
1
10
6.26650608902787
20
-0.512692389104615
30
0
41
1
10
6.267951859015
20
-0.513740763973715
30
0
41
1
10
6.26924170031742
20
-0.514386622216335
30
0
41
1
10
6.28065327828944
20
-0.520116470147997
30
0
41
1
10
6.29225283258879
20
-0.524746927212959
30
0
41
1
10
6.32625596068911
20
-0.538822923601231
30
0
41
1
10
6.34935052426152
20
-0.548031988629134
30
0
41
1
10
6.46515201568533
20
-0.593997766090894
30
0
41
1
10
6.55913877783507
20
-0.630365070594308
30
0
41
1
10
6.74723120972365
20
-0.703431781450007
30
0
41
1
10
6.8415534016911
20
-0.740041234934552
30
0
41
1
10
7.12486784765878
20
-0.85032182478966
30
0
41
1
10
7.31375879784477
20
-0.925091639519849
30
0
41
1
10
7.69191646982063
20
-1.07662033827336
30
0
41
1
10
7.88094289187481
20
-1.15339792632511
30
0
41
1
10
8.11543376686066
20
-1.25333146626431
30
0
41
1
10
8.16224590711323
20
-1.27351301396112
30
0
41
1
10
8.23198503550242
20
-1.30467098652485
30
0
41
1
10
8.25517896598873
20
-1.31516872871538
30
0
41
1
10
8.28948092025226
20
-1.33169246067024
30
0
41
1
10
8.30095020068302
20
-1.33718809398619
30
0
41
1
10
8.31449882074136
20
-1.34515447023639
30
0
41
1
10
8.31729644313515
20
-1.34669855334906
30
0
41
1
10
8.32006215481073
20
-1.34937431107593
30
0
41
1
10
8.32095924204685
20
-1.35020830094865
30
0
41
1
10
8.31961780198543
20
-1.35138791857966
30
0
41
1
10
8.31760565578372
20
-1.35315751377243
30
0
41
1
10
8.31022795290593
20
-1.35964785525485
30
0
41
1
10
8.21768443247595
20
-1.44114005912402
30
0
41
1
10
8.12646702969519
20
-1.52249351276177
30
0
41
1
10
7.95527720540417
20
-1.67434647377385
30
0
41
1
10
7.86986321800222
20
-1.74970258615693
30
0
41
1
10
7.6978411019563
20
-1.89745678911802
30
0
41
1
10
7.61078880676416
20
-1.97020581566957
30
0
41
1
10
7.3484775254777
20
-2.17791538265482
30
0
41
1
10
7.17306729324005
20
-2.30147004134992
30
0
41
1
10
6.89894290282163
20
-2.45307421032686
30
0
41
1
10
6.80515713327327
20
-2.49817177027694
30
0
41
1
10
6.63370358406223
20
-2.5676421327268
30
0
41
1
10
6.55573888432147
20
-2.59447271393881
30
0
41
1
10
6.47727568754988
20
-2.61702042210158
30
0
0
SPLINE
5
E1
100
AcDbEntity
8
1
62
256
6
ByLayer
370
18
48
1
60
0
100
AcDbSpline
70
4
71
3
72
12
73
8
40
0
40
0
40
0
40
0
40
0.249999999999998
40
0.249999999999998
40
0.499999999999996
40
0.499999999999996
40
1
40
1
40
1
40
1
41
1
10
4.25133626677328
20
-2.11825840384304
30
0
41
1
10
4.4322266241895
20
-2.18972775743182
30
0
41
1
10
4.61458403381914
20
-2.25295518550232
30
0
41
1
10
4.98205592340219
20
-2.36417948688958
30
0
41
1
10
5.16753355828317
20
-2.41227562668576
30
0
41
1
10
5.72541243668306
20
-2.53496086047628
30
0
41
1
10
6.09887658322322
20
-2.58759946652054
30
0
41
1
10
6.47697932065978
20
-2.61690717468903
30
0
0
SPLINE
5
E2
100
AcDbEntity
8
1
62
256
6
ByLayer
370
18
48
1
60
0
100
AcDbSpline
70
4
71
3
72
60
73
56
40
0
40
0
40
0
40
0
40
0.0625000000000046
40
0.0625000000000046
40
0.125000000000009
40
0.125000000000009
40
0.250000000000018
40
0.250000000000018
40
0.375000000000027
40
0.375000000000027
40
0.437500000000031
40
0.437500000000031
40
0.500000000000035
40
0.500000000000035
40
0.562500000000039
40
0.562500000000039
40
0.593750000000041
40
0.593750000000041
40
0.609375000000042
40
0.617187500000041
40
0.621093750000041
40
0.621093750000041
40
0.625000000000041
40
0.625000000000041
40
0.628906250000041
40
0.628906250000041
40
0.632812500000041
40
0.632812500000041
40
0.640625000000039
40
0.640625000000039
40
0.656250000000036
40
0.656250000000036
40
0.687500000000033
40
0.687500000000033
40
0.703125000000031
40
0.703125000000031
40
0.71875000000003
40
0.71875000000003
40
0.734375000000028
40
0.734375000000028
40
0.750000000000026
40
0.750000000000026
40
0.765625000000025
40
0.765625000000025
40
0.781250000000023
40
0.781250000000023
40
0.81250000000002
40
0.81250000000002
40
0.843750000000017
40
0.843750000000017
40
0.875000000000013
40
0.875000000000013
40
0.937500000000007
40
0.937500000000007
40
1
40
1
40
1
40
1
41
1
10
9.79867316930336
20
-1.76310170592615
30
0
41
1
10
9.58332323251912
20
-1.66558053736418
30
0
41
1
10
9.3665657947403
20
-1.56485544284911
30
0
41
1
10
8.92954271045451
20
-1.35923012807726
30
0
41
1
10
8.709190915156
20
-1.25429067264429
30
0
41
1
10
8.04768702707366
20
-0.940304326871484
30
0
41
1
10
7.60396138936125
20
-0.73109165778061
30
0
41
1
10
6.70231998662757
20
-0.337172611150692
30
0
41
1
10
6.24430825239421
20
-0.152703301567016
30
0
41
1
10
5.54128292455954
20
0.0891389111616832
30
0
41
1
10
5.30429782979024
20
0.163990680992356
30
0
41
1
10
4.82448845860546
20
0.300178964176183
30
0
41
1
10
4.58223942783638
20
0.361330917439261
30
0
41
1
10
4.09494871806177
20
0.468104310171185
30
0
41
1
10
3.84934810510927
20
0.513859904937789
30
0
41
1
10
3.47944891128174
20
0.570308142819982
30
0
41
1
10
3.35587326744269
20
0.587104630996578
30
0
41
1
10
3.17008516768289
20
0.609228725264643
30
0
41
1
10
3.07708496005134
20
0.619523004418767
30
0
41
1
10
2.96839647921644
20
0.630178364220768
30
0
41
1
10
2.92177508506677
20
0.634453289036969
30
0
41
1
10
2.8906850977686
20
0.637238264275624
30
0
41
1
10
2.8751263525088
20
0.638971859072143
30
0
41
1
10
2.84404203895568
20
0.640695309933363
30
0
41
1
10
2.82826432610057
20
0.639854099087444
30
0
41
1
10
2.79811763098121
20
0.632796922948103
30
0
41
1
10
2.78465437202968
20
0.625188546103715
30
0
41
1
10
2.74366611801111
20
0.603925883226566
30
0
41
1
10
2.71658237429338
20
0.589318423705919
30
0
41
1
10
2.63612981199381
20
0.544061484781253
30
0
41
1
10
2.58342147465905
20
0.51189214767814
30
0
41
1
10
2.43088268479562
20
0.409333232185844
30
0
41
1
10
2.33603244248161
20
0.333072629448793
30
0
41
1
10
2.21067597955042
20
0.198956610400103
30
0
41
1
10
2.17138504442664
20
0.15032265697937
30
0
41
1
10
2.10285583027527
20
0.0464502226267598
30
0
41
1
10
2.07385164655395
20
-0.0082530325778123
30
0
41
1
10
2.0287888727411
20
-0.124471854627785
30
0
41
1
10
2.01328987567956
20
-0.185202352643103
30
0
41
1
10
1.99808032829947
20
-0.307206059601754
30
0
41
1
10
1.99826720133359
20
-0.369993386499686
30
0
41
1
10
2.01288862302522
20
-0.491924937043194
30
0
41
1
10
2.02710875500341
20
-0.551533086772764
30
0
41
1
10
2.06636852677497
20
-0.66732479567483
30
0
41
1
10
2.09090857616309
20
-0.722272757854796
30
0
41
1
10
2.17518287946405
20
-0.880604817210497
30
0
41
1
10
2.24608968474271
20
-0.97821978503589
30
0
41
1
10
2.39963578713852
20
-1.15659466954767
30
0
41
1
10
2.48284508930701
20
-1.23822738257954
30
0
41
1
10
2.65737835680696
20
-1.39151921351348
30
0
41
1
10
2.74915907598131
20
-1.46334911856377
30
0
41
1
10
3.02970819609163
20
-1.66487730348143
30
0
41
1
10
3.22393484562579
20
-1.78157788968062
30
0
41
1
10
3.62025142942306
20
-1.99246946681089
30
0
41
1
10
3.82249722831034
20
-2.0863509772602
30
0
41
1
10
4.02770512356454
20
-2.17095291490711
30
0
0
SPLINE
5
E3
100
AcDbEntity
8
1
62
256
6
ByLayer
370
18
48
1
60
0
100
AcDbSpline
70
2053
71
3
72
50
73
46
40
0
40
0
40
0
40
0
40
0.03125
40
0.03125
40
0.0624999999999999
40
0.0624999999999999
40
0.0937499999999999
40
0.0937499999999999
40
0.125
40
0.125
40
0.15625
40
0.15625
40
0.1875
40
0.1875
40
0.25
40
0.25
40
0.28125
40
0.28125
40
0.3125
40
0.3125
40
0.375
40
0.375
40
0.4375
40
0.4375
40
0.500000000000001
40
0.500000000000001
40
0.531250000000001
40
0.531250000000001
40
0.562500000000001
40
0.562500000000001
40
0.593750000000001
40
0.593750000000001
40
0.625000000000001
40
0.625000000000001
40
0.687500000000001
40
0.687500000000001
40
0.750000000000001
40
0.750000000000001
40
0.8125
40
0.8125
40
0.875
40
0.875
40
0.9375
40
0.9375
40
1
40
1
40
1
40
1
41
1
10
45.2587793435861
20
-0.949254643402535
30
0
41
1
10
45.2469868228001
20
-0.966027843777766
30
0
41
1
10
45.2354350064001
20
-0.984008303556067
30
0
41
1
10
45.2128519660443
20
-1.02258035209914
30
0
41
1
10
45.2017007488807
20
-1.04342033946284
30
0
41
1
10
45.180671517866
20
-1.08692383462849
30
0
41
1
10
45.1708336930941
20
-1.10944682942215
30
0
41
1
10
45.1527018360567
20
-1.1562520713201
30
0
41
1
10
45.144580034697
20
-1.18017264591001
30
0
41
1
10
45.1310002582736
20
-1.22713378960458
30
0
41
1
10
45.1253721825202
20
-1.25084136573204
30
0
41
1
10
45.1173099169255
20
-1.29549718255123
30
0
41
1
10
45.1147988868377
20
-1.3166215350285
30
0
41
1
10
45.1118435460992
20
-1.37546396788869
30
0
41
1
10
45.1161317815614
20
-1.40679576850707
30
0
41
1
10
45.1293282034682
20
-1.44054617478534
30
0
41
1
10
45.1349102885482
20
-1.44973981786444
30
0
41
1
10
45.1477530085863
20
-1.46377651951909
30
0
41
1
10
45.1550272688951
20
-1.46871422066559
30
0
41
1
10
45.1791931212737
20
-1.47781140287839
30
0
41
1
10
45.1978537746097
20
-1.47614848975547
30
0
41
1
10
45.2390608486693
20
-1.45910020571918
30
0
41
1
10
45.2609248057643
20
-1.44402645837025
30
0
41
1
10
45.3068442479278
20
-1.40108336831341
30
0
41
1
10
45.3303799836603
20
-1.37361079932748
30
0
41
1
10
45.3653217553278
20
-1.32391502290102
30
0
41
1
10
45.3770928627059
20
-1.30562613803403
30
0
41
1
10
45.3998046416841
20
-1.26687095519375
30
0
41
1
10
45.4107890674815
20
-1.2463834267609
30
0
41
1
10
45.4319081915981
20
-1.20286937618127
30
0
41
1
10
45.441970297606
20
-1.17993012004587
30
0
41
1
10
45.4600963289879
20
-1.13343821112861
30
0
41
1
10
45.4683895730634
20
-1.10925532974812
30
0
41
1
10
45.4891181781269
20
-1.038271551512
30
0
41
1
10
45.4976542768613
20
-0.991826247422523
30
0
41
1
10
45.501791168545
20
-0.913564724149211
30
0
41
1
10
45.4975016938001
20
-0.881744815678076
30
0
41
1
10
45.4797527389025
20
-0.836828731462731
30
0
41
1
10
45.4663329946316
20
-0.82311211178191
30
0
41
1
10
45.4341327350537
20
-0.811328145862689
30
0
41
1
10
45.4151741227103
20
-0.813130219632228
30
0
41
1
10
45.3742115490136
20
-0.830112754865866
30
0
41
1
10
45.3519368009335
20
-0.845421859031035
30
0
41
1
10
45.3063138826217
20
-0.887933787395752
30
0
41
1
10
45.2823643851582
20
-0.915708242652073
30
0
41
1
10
45.2587793435861
20
-0.949254643402535
30
0
0
SPLINE
5
E4
100
AcDbEntity
8
1
62
256
6
ByLayer
370
18
48
1
60
0
100
AcDbSpline
70
4
71
3
72
18
73
14
40
0
40
0
40
0
40
0
40
0.249999999999995
40
0.249999999999995
40
0.499999999999989
40
0.499999999999989
40
0.624999999999992
40
0.624999999999992
40
0.749999999999995
40
0.749999999999995
40
0.874999999999997
40
0.874999999999997
40
1
40
1
40
1
40
1
41
1
10
45.6250831990655
20
-1.38293719427551
30
0
41
1
10
45.5831996411058
20
-1.49560062389958
30
0
41
1
10
45.5410094178
20
-1.60797212217517
30
0
41
1
10
45.4565689255128
20
-1.83265795799605
30
0
41
1
10
45.4141512746212
20
-1.94499977451389
30
0
41
1
10
45.3500778916026
20
-2.11234674272859
30
0
41
1
10
45.3286297839037
20
-2.16783651256102
30
0
41
1
10
45.2857261702433
20
-2.2787920869647
30
0
41
1
10
45.2642636175781
20
-2.33423506508308
30
0
41
1
10
45.2212124120603
20
-2.44471254380866
30
0
41
1
10
45.1996309062127
20
-2.49977019577622
30
0
41
1
10
45.1561514692493
20
-2.60886050039204
30
0
41
1
10
45.1342680724746
20
-2.66294023426815
30
0
41
1
10
45.1123591966661
20
-2.71693743367263
30
0
0
SPLINE
5
E5
100
AcDbEntity
8
1
62
256
6
ByLayer
370
18
48
1
60
0
100
AcDbSpline
70
4
71
3
72
15
73
11
40
0
40
0
40
0
40
0
40
0.11910444225662
40
0.265920368547184
40
0.265920368547184
40
0.412736294837747
40
0.412736294837747
40
0.706368147418874
40
0.706368147418874
40
1
40
1
40
1
40
1
41
1
10
4.02752681230075
20
-2.77534832737808
30
0
41
1
10
4.02753413613129
20
-2.77541719924827
30
0
41
1
10
4.02755063134194
20
-2.7689615091092
30
0
41
1
10
4.02756755671146
20
-2.74787269831955
30
0
41
1
10
4.0275864897784
20
-2.71549511177204
30
0
41
1
10
4.02759612736827
20
-2.69460382980876
30
0
41
1
10
4.02762464098561
20
-2.61931253669093
30
0
41
1
10
4.02764328462007
20
-2.55240137361847
30
0
41
1
10
4.02767760658432
20
-2.38566215840632
30
0
41
1
10
4.02769334445901
20
-2.28463863473036
30
0
41
1
10
4.02770512357949
20
-2.17095291491458
30
0
0
SPLINE
5
E6
100
AcDbEntity
8
1
62
256
6
ByLayer
370
18
48
1
60
0
100
AcDbSpline
70
4
71
3
72
18
73
14
40
0
40
0
40
0
40
0
40
0.250000000000005
40
0.250000000000005
40
0.50000000000001
40
0.50000000000001
40
0.625000000000008
40
0.625000000000008
40
0.750000000000005
40
0.750000000000005
40
0.875000000000003
40
0.875000000000003
40
1
40
1
40
1
40
1
41
1
10
45.6250831990655
20
1.38293719427546
30
0
41
1
10
45.5831996411058
20
1.49560062389955
30
0
41
1
10
45.5410094178001
20
1.60797212217514
30
0
41
1
10
45.4565689255128
20
1.83265795799599
30
0
41
1
10
45.4141512746212
20
1.9449997745138
30
0
41
1
10
45.3500778916026
20
2.11234674272853
30
0
41
1
10
45.3286297839037
20
2.16783651256094
30
0
41
1
10
45.2857261702433
20
2.27879208696461
30
0
41
1
10
45.264263617578
20
2.33423506508296
30
0
41
1
10
45.2212124120602
20
2.44471254380855
30
0
41
1
10
45.1996309062127
20
2.49977019577611
30
0
41
1
10
45.1561514692492
20
2.60886050039193
30
0
41
1
10
45.1342680724746
20
2.66294023426804
30
0
41
1
10
45.1123591966661
20
2.71693743367251
30
0
0
SPLINE
5
E7
100
AcDbEntity
8
1
62
256
6
ByLayer
370
18
48
1
60
0
100
AcDbSpline
70
4
71
3
72
22
73
18
40
0
40
0
40
0
40
0
40
0.124999999999997
40
0.124999999999997
40
0.187499999999996
40
0.187499999999996
40
0.249999999999994
40
0.249999999999994
40
0.374999999999991
40
0.374999999999991
40
0.499999999999988
40
0.499999999999988
40
0.749999999999989
40
0.749999999999989
40
0.874999999999995
40
0.874999999999995
40
1
40
1
40
1
40
1
41
1
10
42.7165702411943
20
0.993126513056325
30
0
41
1
10
42.7451590378608
20
0.869974358082601
30
0
41
1
10
42.7847522385971
20
0.746730495756964
30
0
41
1
10
42.8585734206036
20
0.561744435534536
30
0
41
1
10
42.8857544709347
20
0.499753404737362
30
0
41
1
10
42.9439308279286
20
0.377447365233849
30
0
41
1
10
42.9748607919173
20
0.317202651095471
30
0
41
1
10
43.0725983145237
20
0.138908510897494
30
0
41
1
10
43.1443210946374
20
0.0232831039736254
30
0
41
1
10
43.2988680426233
20
-0.20249288511161
30
0
41
1
10
43.3808795990811
20
-0.311372640605043
30
0
41
1
10
43.6354117912333
20
-0.624178633439271
30
0
41
1
10
43.8176353970623
20
-0.816491690064453
30
0
41
1
10
44.1053625732441
20
-1.08633446607101
30
0
41
1
10
44.2032688521915
20
-1.17266739926364
30
0
41
1
10
44.4012556596364
20
-1.3376599158523
30
0
41
1
10
44.5015580049973
20
-1.41653894370003
30
0
41
1
10
44.6030880110434
20
-1.49202535916621
30
0
0
SPLINE
5
E8
100
AcDbEntity
8
1
62
256
6
ByLayer
370
18
48
1
60
0
100
AcDbSpline
70
4
71
3
72
24
73
20
40
0
40
0
40
0
40
0
40
0.0247024110016939
40
0.0247024110016939
40
0.109012259663122
40
0.109012259663122
40
0.19332210832455
40
0.19332210832455
40
0.530561502970259
40
0.530561502970259
40
0.614871351631686
40
0.614871351631686
40
0.699181200293114
40
0.699181200293114
40
0.783491048954541
40
0.783491048954541
40
0.867800897615968
40
0.867800897615968
40
1
40
1
40
1
40
1
41
1
10
18.0710780750127
20
2.01014570697501
30
0
41
1
10
18.133139564891
20
1.98580599602448
30
0
41
1
10
18.1952229075928
20
1.96094447595945
30
0
41
1
10
18.469345698113
20
1.84898496048842
30
0
41
1
10
18.6817712182453
20
1.75652371796599
30
0
41
1
10
19.1084150329469
20
1.56078354003924
30
0
41
1
10
19.323343349749
20
1.45695215644605
30
0
41
1
10
20.3930165466424
20
0.919720862007125
30
0
41
1
10
21.2326821201778
20
0.43389774537286
30
0
41
1
10
22.2983176382402
20
-0.181158386856737
30
0
41
1
10
22.512928233371
20
-0.304805823571229
30
0
41
1
10
22.9415823058059
20
-0.54900190488226
30
0
41
1
10
23.1552512880646
20
-0.669478798660464
30
0
41
1
10
23.5821936460164
20
-0.905694093711418
30
0
41
1
10
23.7955432068331
20
-1.02131601297
30
0
41
1
10
24.2229325789183
20
-1.24598854202648
30
0
41
1
10
24.4371424132798
20
-1.35526497348891
30
0
41
1
10
24.9879552273113
20
-1.62496201720165
30
0
41
1
10
25.3230167733823
20
-1.77794499867306
30
0
41
1
10
25.6585328757983
20
-1.91696890478102
30
0
0
SPLINE
5
E9
100
AcDbEntity
8
1
62
256
6
ByLayer
370
13
48
1
60
0
100
AcDbSpline
70
4
71
3
72
20
73
16
40
0
40
0
40
0
40
0
40
0.054509270087535
40
0.054509270087535
40
0.180692500145565
40
0.180692500145565
40
0.306875730203591
40
0.306875730203591
40
0.559242190319644
40
0.559242190319644
40
0.685425420377671
40
0.685425420377671
40
0.811608650435698
40
0.811608650435698
40
1
40
1
40
1
40
1
41
1
10
25.6585328756952
20
-1.9169689047383
30
0
41
1
10
25.7509669077403
20
-1.95526971981076
30
0
41
1
10
25.8434354402372
20
-1.99251105256968
30
0
41
1
10
26.1501922212681
20
-2.11229297347563
30
0
41
1
10
26.364996278599
20
-2.18993315752485
30
0
41
1
10
26.791589227637
20
-2.33046743850233
30
0
41
1
10
27.0039391680939
20
-2.39367894423305
30
0
41
1
10
27.6397761484025
20
-2.56123715595007
30
0
41
1
10
28.0620682145824
20
-2.64329354857284
30
0
41
1
10
28.6982048466004
20
-2.71884233023971
30
0
41
1
10
28.9108085565335
20
-2.73610671760704
30
0
41
1
10
29.3379798462672
20
-2.75406404127602
30
0
41
1
10
29.5530031272987
20
-2.75473328175767
30
0
41
1
10
30.0850517191702
20
-2.7358095142846
30
0
41
1
10
30.4016225634521
20
-2.70611614213334
30
0
41
1
10
30.7176511878694
20
-2.65892189716308
30
0
0
SPLINE
5
EA
100
AcDbEntity
8
1
62
256
6
ByLayer
370
13
48
1
60
0
100
AcDbSpline
70
4
71
3
72
10
73
6
40
0
40
0
40
0
40
0
40
0.5
40
0.5
40
1
40
1
40
1
40
1
41
1
10
4.02722072243898
20
1.70211507314539
30
0
41
1
10
4.03767298409633
20
1.6804459794933
30
0
41
1
10
4.05122784221925
20
1.65986562654615
30
0
41
1
10
4.08401541796295
20
1.62308816887995
30
0
41
1
10
4.10290472765385
20
1.60710393641745
30
0
41
1
10
4.1246899956044
20
1.59387509101128
30
0
0
SPLINE
5
EB
100
AcDbEntity
8
1
62
256
6
ByLayer
370
13
48
1
60
0
100
AcDbSpline
70
4
71
3
72
10
73
6
40
0
40
0
40
0
40
0
40
0.5
40
0.5
40
1
40
1
40
1
40
1
41
1
10
4.1246899956044
20
1.59387509101128
30
0
41
1
10
4.14397494963345
20
1.58216453155919
30
0
41
1
10
4.16471212099708
20
1.57165975615248
30
0
41
1
10
4.20690679092223
20
1.55384956029542
30
0
41
1
10
4.22844673087911
20
1.54645265042311
30
0
41
1
10
4.25041728862976
20
1.54054263488135
30
0
0
SPLINE
5
EC
100
AcDbEntity
8
1
62
256
6
ByLayer
370
13
48
1
60
0
100
AcDbSpline
70
4
71
3
72
18
73
14
40
0
40
0
40
0
40
0
40
0.0748753654850437
40
0.0748753654850437
40
0.22906280457087
40
0.22906280457087
40
0.383250243656696
40
0.383250243656696
40
0.691625121828348
40
0.691625121828348
40
0.845812560914174
40
0.845812560914174
40
1
40
1
40
1
40
1
41
1
10
4.25102762900431
20
-2.6393945697732
30
0
41
1
10
4.25103637438409
20
-2.63953679815185
30
0
41
1
10
4.25104514200817
20
-2.63867071393332
30
0
41
1
10
4.25107206020337
20
-2.63294701881932
30
0
41
1
10
4.25109030992735
20
-2.62478920879278
30
0
41
1
10
4.25112684646246
20
-2.59961935785978
30
0
41
1
10
4.25114502872557
20
-2.58264469307986
30
0
41
1
10
4.25119810619958
20
-2.51957190829998
30
0
41
1
10
4.25123182881873
20
-2.46137049071385
30
0
41
1
10
4.25127680613213
20
-2.35007761994856
30
0
41
1
10
4.25129088636163
20
-2.308793853319
30
0
41
1
10
4.25131611733048
20
-2.21855760572399
30
0
41
1
10
4.25132715730129
20
-2.17004987031748
30
0
41
1
10
4.25133626639183
20
-2.11825840384145
30
0
0
SPLINE
5
ED
100
AcDbEntity
8
1
62
256
6
ByLayer
370
18
48
1
60
0
100
AcDbSpline
70
4
71
3
72
20
73
16
40
0
40
0
40
0
40
0
40
0.124999999999999
40
0.124999999999999
40
0.249999999999998
40
0.249999999999998
40
0.5
40
0.5
40
0.625
40
0.625
40
0.75
40
0.75
40
0.875
40
0.875
40
1
40
1
40
1
40
1
41
1
10
45.0307534579761
20
-2.66298298809997
30
0
41
1
10
44.9909155726419
20
-2.6629751273654
30
0
41
1
10
44.9530525736442
20
-2.65702783756149
30
0
41
1
10
44.8814811302289
20
-2.63263852253854
30
0
41
1
10
44.8475631674634
20
-2.61401503146175
30
0
41
1
10
44.7542531497199
20
-2.53897095797109
30
0
41
1
10
44.7036285221005
20
-2.46454325665039
30
0
41
1
10
44.6460734580287
20
-2.3141791233013
30
0
41
1
10
44.6299032070588
20
-2.25695523298947
30
0
41
1
10
44.6050095885007
20
-2.13194804401098
30
0
41
1
10
44.5961704492114
20
-2.06414727127668
30
0
41
1
10
44.5856430292117
20
-1.91804604800882
30
0
41
1
10
44.5839539338713
20
-1.83974679360466
30
0
41
1
10
44.5879989956961
20
-1.67224864824649
30
0
41
1
10
44.5937690956798
20
-1.58362115729935
30
0
41
1
10
44.6030880110434
20
-1.49202535916621
30
0
0
SPLINE
5
EE
100
AcDbEntity
8
1
62
256
6
ByLayer
370
18
48
1
60
0
100
AcDbSpline
70
4
71
3
72
20
73
16
40
0
40
0
40
0
40
0
40
0.262397721738718
40
0.262397721738718
40
0.393596582608078
40
0.393596582608078
40
0.524795443477437
40
0.524795443477437
40
0.655994304346796
40
0.655994304346796
40
0.787193165216155
40
0.787193165216155
40
0.918392026085514
40
0.918392026085514
40
1
40
1
40
1
40
1
41
1
10
9.79953341020604
20
-1.76348650254417
30
0
41
1
10
10.1679619572559
20
-1.93161222381781
30
0
41
1
10
10.5357244089149
20
-2.07860259943706
30
0
41
1
10
11.0825910689742
20
-2.27362262595901
30
0
41
1
10
11.2645596295871
20
-2.33369876250032
30
0
41
1
10
11.629670495377
20
-2.44246826345966
30
0
41
1
10
11.8124638445143
20
-2.49153802120173
30
0
41
1
10
12.1780347653694
20
-2.57926758967605
30
0
41
1
10
12.360542589271
20
-2.61801113524294
30
0
41
1
10
12.7283435472295
20
-2.68298819966128
30
0
41
1
10
12.9136219870537
20
-2.70958485972136
30
0
41
1
10
13.2826492332792
20
-2.75061617313253
30
0
41
1
10
13.4662191650055
20
-2.7651437208304
30
0
41
1
10
13.7645750190209
20
-2.7784039235512
30
0
41
1
10
13.8792065302338
20
-2.78106549462856
30
0
41
1
10
13.9939619045743
20
-2.78132453231856
30
0
0
SPLINE
5
EF
100
AcDbEntity
8
1
62
256
6
ByLayer
370
18
48
1
60
0
100
AcDbSpline
70
4
71
3
72
74
73
70
40
0
40
0
40
0
40
0
40
0.0219474644426792
40
0.0219474644426792
40
0.0516872380447857
40
0.0516872380447857
40
0.0814270116468921
40
0.0814270116468921
40
0.111166785248999
40
0.111166785248999
40
0.140906558851105
40
0.140906558851105
40
0.170646332453211
40
0.170646332453211
40
0.200386106055318
40
0.200386106055318
40
0.230125879657425
40
0.230125879657425
40
0.259865653259531
40
0.259865653259531
40
0.289605426861638
40
0.289605426861638
40
0.319345200463744
40
0.319345200463744
40
0.349084974065851
40
0.349084974065851
40
0.378824747667957
40
0.378824747667957
40
0.408564521270064
40
0.408564521270064
40
0.43830429487217
40
0.43830429487217
40
0.468044068474277
40
0.468044068474277
40
0.497783842076383
40
0.497783842076383
40
0.52752361567849
40
0.52752361567849
40
0.557263389280596
40
0.557263389280596
40
0.587003162882703
40
0.587003162882703
40
0.616742936484809
40
0.616742936484809
40
0.646482710086916
40
0.646482710086916
40
0.676222483689023
40
0.676222483689023
40
0.705962257291129
40
0.705962257291129
40
0.735702030893236
40
0.735702030893236
40
0.765441804495342
40
0.765441804495342
40
0.795181578097449
40
0.795181578097449
40
0.824921351699555
40
0.824921351699555
40
0.854661125301662
40
0.854661125301662
40
0.884400898903768
40
0.884400898903768
40
0.914140672505875
40
0.914140672505875
40
0.943880446107981
40
0.943880446107981
40
0.973620219710088
40
0.973620219710088
40
1
40
1
40
1
40
1
41
1
10
25.4027656651403
20
2.03910044067499
30
0
41
1
10
25.5386726569692
20
2.09328166920977
30
0
41
1
10
25.6743498568882
20
2.14512486045965
30
0
41
1
10
25.9934942528622
20
2.26141021606748
30
0
41
1
10
26.1776838528699
20
2.32289231644666
30
0
41
1
10
26.547089633602
20
2.43530226587689
30
0
41
1
10
26.7314934872646
20
2.48607332817096
30
0
41
1
10
27.097543204922
20
2.57674609642385
30
0
41
1
10
27.2799119985256
20
2.61628688822174
30
0
41
1
10
27.6451478264254
20
2.6830494171202
30
0
41
1
10
27.8276664722327
20
2.71053566092436
30
0
41
1
10
28.1919957372494
20
2.7538682210473
30
0
41
1
10
28.3735572208259
20
2.7696777585821
30
0
41
1
10
28.738784782989
20
2.78872364851537
30
0
41
1
10
28.9220356324385
20
2.79214930477428
30
0
41
1
10
29.2893271505942
20
2.7866730845642
30
0
41
1
10
29.4734108052573
20
2.77760058634701
30
0
41
1
10
29.841670943618
20
2.74701013245857
30
0
41
1
10
30.0259800350455
20
2.7256882394893
30
0
41
1
10
30.3942258549633
20
2.67103188747026
30
0
41
1
10
30.5780065281696
20
2.63758385346176
30
0
41
1
10
30.9455748611145
20
2.55843230407155
30
0
41
1
10
31.1304421032937
20
2.51320036952706
30
0
41
1
10
31.499300198486
20
2.41213495919905
30
0
41
1
10
31.6834416084679
20
2.35624944670255
30
0
41
1
10
32.0505802969637
20
2.23303253139531
30
0
41
1
10
32.2342427587395
20
2.16629944294931
30
0
41
1
10
32.6030963143689
20
2.02420854789773
30
0
41
1
10
32.7880891367419
20
1.94850620610544
30
0
41
1
10
33.1560992399709
20
1.78805493681622
30
0
41
1
10
33.3393105313778
20
1.70300509894835
30
0
41
1
10
33.7073059344194
20
1.52758429045562
30
0
41
1
10
33.8916302638066
20
1.43664216543559
30
0
41
1
10
34.2604275054029
20
1.24749541781935
30
0
41
1
10
34.4442792714063
20
1.14867930881888
30
0
41
1
10
34.8121405318234
20
0.948562068570737
30
0
41
1
10
34.9963116702848
20
0.846981427611553
30
0
41
1
10
35.3645003698423
20
0.639800751758429
30
0
41
1
10
35.5482648413312
20
0.533763201328384
30
0
41
1
10
35.9164851896454
20
0.318936229511564
30
0
41
1
10
36.1009707442475
20
0.211725841099195
30
0
41
1
10
36.4693030430634
20
-0.0030386176964328
30
0
41
1
10
36.6532410682608
20
-0.1106991682569
30
0
41
1
10
37.0203544891724
20
-0.327094838405998
30
0
41
1
10
37.2045188415729
20
-0.434470320516027
30
0
41
1
10
37.5737500564015
20
-0.646009787675922
30
0
41
1
10
37.75806051707
20
-0.750171118077503
30
0
41
1
10
38.1254658818193
20
-0.956240724301722
30
0
41
1
10
38.3087160846775
20
-1.05785873600567
30
0
41
1
10
38.6769712426109
20
-1.25406353215098
30
0
41
1
10
38.8618170914951
20
-1.34952193316499
30
0
41
1
10
39.2303769273805
20
-1.5347960234098
30
0
41
1
10
39.4135711031511
20
-1.62503286045859
30
0
41
1
10
39.7812314260902
20
-1.79586935015786
30
0
41
1
10
39.9653886070035
20
-1.87696995718937
30
0
41
1
10
40.3337936612411
20
-2.03129380893617
30
0
41
1
10
40.5179809798729
20
-2.10497245633604
30
0
41
1
10
40.8857069676667
20
-2.24177713133639
30
0
41
1
10
41.0698604569243
20
-2.30454895065694
30
0
41
1
10
41.4379224490434
20
-2.4199470918399
30
0
41
1
10
41.621770550076
20
-2.47260248555247
30
0
41
1
10
41.9892292384658
20
-2.56734920900536
30
0
41
1
10
42.1738590601123
20
-2.60876590890476
30
0
41
1
10
42.5423400335735
20
-2.67946436722812
30
0
41
1
10
42.726393540013
20
-2.70889872906696
30
0
41
1
10
43.0934774675471
20
-2.75599292877678
30
0
41
1
10
43.2769571395963
20
-2.7734023630851
30
0
41
1
10
43.6249282713803
20
-2.79432176946793
30
0
41
1
10
43.7887297702913
20
-2.79926183058933
30
0
41
1
10
43.951741066736
20
-2.79930308047375
30
0
0
SPLINE
5
F0
100
AcDbEntity
8
1
62
256
6
ByLayer
370
18
48
1
60
0
100
AcDbSpline
70
4
71
3
72
8
73
4
40
0
40
0
40
0
40
0
40
1
40
1
40
1
40
1
41
1
10
45.0716259897393
20
-2.6516320588199
30
0
41
1
10
45.0566952217691
20
-2.65917724542985
30
0
41
1
10
45.0430629735487
20
-2.66298412402151
30
0
41
1
10
45.0307534579745
20
-2.6629829881
30
0
0
SPLINE
5
F1
100
AcDbEntity
8
SK1
62
256
6
ByLayer
370
18
48
1
60
0
100
AcDbSpline
70
4
71
3
72
14
73
10
40
0
40
0
40
0
40
0
40
0.125
40
0.125
40
0.25
40
0.25
40
0.499999999999998
40
0.499999999999998
40
1
40
1
40
1
40
1
41
1
10
-35.3
20
1.21489608584125
30
0
41
1
10
-35.3
20
1.22495683993097
30
0
41
1
10
-35.3017593723636
20
1.23358704687371
30
0
41
1
10
-35.306935341198
20
1.24757594301576
30
0
41
1
10
-35.3102739075535
20
1.25300604141145
30
0
41
1
10
-35.3215583577555
20
1.26665189831954
30
0
41
1
10
-35.3303095934912
20
1.2718092098969
30
0
41
1
10
-35.358391202053
20
1.28146355933023
30
0
41
1
10
-35.378655954467
20
1.27980519753785
30
0
41
1
10
-35.4
20
1.27212896692379
30
0
0
SPLINE
5
F2
100
AcDbEntity
8
SK1
62
256
6
ByLayer
370
18
48
1
60
0
100
AcDbSpline
70
4
71
3
72
8
73
4
40
0
40
0
40
0
40
0
40
1
40
1
40
1
40
1
41
1
10
-36
20
-0.418632071297168
30
0
41
1
10
-35.8060540431149
20
-0.344274837156377
30
0
41
1
10
-35.6037430884363
20
-0.270841877537066
30
0
41
1
10
-35.4
20
-0.197567158813428
30
0
0
SPLINE
5
F3
100
AcDbEntity
8
SK1
62
256
6
ByLayer
370
18
48
1
60
0
100
AcDbSpline
70
4
71
3
72
8
73
4
40
0
40
0
40
0
40
0
40
1
40
1
40
1
40
1
41
1
10
-36
20
0.418632071297139
30
0
41
1
10
-35.8060540431149
20
0.344274837156377
30
0
41
1
10
-35.6037430884363
20
0.270841877537038
30
0
41
1
10
-35.4
20
0.197567158813428
30
0
0
SPLINE
5
F4
100
AcDbEntity
8
SK1
62
256
6
ByLayer
370
18
48
1
60
0
100
AcDbSpline
70
4
71
3
72
8
73
4
40
0
40
0
40
0
40
0
40
1
40
1
40
1
40
1
41
1
10
-35.4
20
1.27212896692379
30
0
41
1
10
-35.6037694491256
20
1.19884476777014
30
0
41
1
10
-35.8061051627009
20
1.12540168976537
30
0
41
1
10
-36
20
1.05106405444008
30
0
0
SPLINE
5
F5
100
AcDbEntity
8
SK1
62
256
6
ByLayer
370
18
48
1
60
0
100
AcDbSpline
70
4
71
3
72
14
73
10
40
0
40
0
40
0
40
0
40
0.500000000000002
40
0.500000000000002
40
0.750000000000001
40
0.750000000000001
40
0.875
40
0.875
40
1
40
1
40
1
40
1
41
1
10
-35.4
20
-0.197567158814195
30
0
41
1
10
-35.3787677796885
20
-0.189931145327108
30
0
41
1
10
-35.3584290958895
20
-0.176330482613565
30
0
41
1
10
-35.3303626450498
20
-0.144401707156305
30
0
41
1
10
-35.3215171954455
20
-0.131923100199515
30
0
41
1
10
-35.3102812516991
20
-0.108454391677185
30
0
41
1
10
-35.3068890218585
20
-0.0997968250130725
30
0
41
1
10
-35.3017585680987
20
-0.0806391973884217
30
0
41
1
10
-35.3
20
-0.069915994452117
30
0
41
1
10
-35.3
20
-0.0588405564643608
30
0
0
SPLINE
5
F6
100
AcDbEntity
8
SK1
62
256
6
ByLayer
370
18
48
1
60
0
100
AcDbSpline
70
4
71
3
72
14
73
10
40
0
40
0
40
0
40
0
40
0.5
40
0.5
40
0.749999999999999
40
0.749999999999999
40
0.874999999999999
40
0.874999999999999
40
1
40
1
40
1
40
1
41
1
10
-35.4
20
0.197567158814167
30
0
41
1
10
-35.3787677796885
20
0.18993114532708
30
0
41
1
10
-35.3584290958895
20
0.176330482613565
30
0
41
1
10
-35.3303626450498
20
0.144401707156305
30
0
41
1
10
-35.3215171954455
20
0.131923100199486
30
0
41
1
10
-35.3102812516991
20
0.108454391677156
30
0
41
1
10
-35.3068890218585
20
0.0997968250130441
30
0
41
1
10
-35.3017585680987
20
0.0806391973883933
30
0
41
1
10
-35.3
20
0.0699159944520886
30
0
41
1
10
-35.3
20
0.0588405564643324
30
0
0
LINE
5
76
100
AcDbEntity
8
81
62
256
6
ByLayer
370
18
48
1
60
0
100
AcDbLine
10
46
20
0
30
0
11
51
21
0
31
0
39
0
210
0
220
0
230
1
0
LINE
5
77
100
AcDbEntity
8
1
62
256
6
ByLayer
370
18
48
1
60
0
100
AcDbLine
10
4.027522
20
2.775349
30
0
11
0.8
21
2.773412
31
0
39
0
210
0
220
0
230
1
0
LINE
5
79
100
AcDbEntity
8
1
62
256
6
ByLayer
370
18
48
1
60
0
100
AcDbLine
10
14.502155
20
2.781633
30
0
11
14.008478
21
2.781337
31
0
39
0
210
0
220
0
230
1
0
LINE
5
7A
100
AcDbEntity
8
1
62
256
6
ByLayer
370
18
48
1
60
0
100
AcDbLine
10
44.432625
20
2.799592
30
0
11
43.94728
21
2.799301
31
0
39
0
210
0
220
0
230
1
0
LINE
5
7B
100
AcDbEntity
8
1
62
256
6
ByLayer
370
18
48
1
60
0
100
AcDbLine
10
43.94728
20
-2.799301
30
0
11
44.432506
21
-2.799592
31
0
39
0
210
0
220
0
230
1
0
LINE
5
7C
100
AcDbEntity
8
1
62
256
6
ByLayer
370
18
48
1
60
0
100
AcDbLine
10
14.008478
20
-2.781337
30
0
11
14.502075
21
-2.781633
31
0
39
0
210
0
220
0
230
1
0
LINE
5
7D
100
AcDbEntity
8
1
62
256
6
ByLayer
370
18
48
1
60
0
100
AcDbLine
10
0.8
20
-2.773412
30
0
11
4.027522
21
-2.775349
31
0
39
0
210
0
220
0
230
1
0
LINE
5
7E
100
AcDbEntity
8
1
62
256
6
ByLayer
370
18
48
1
60
0
100
AcDbLine
10
0.8
20
2.773412
30
0
11
0.360702
21
2.773149
31
0
39
0
210
0
220
0
230
1
0
LINE
5
7F
100
AcDbEntity
8
1
62
256
6
ByLayer
370
18
48
1
60
0
100
AcDbLine
10
0.360702
20
-2.773149
30
0
11
0.8
21
-2.773412
31
0
39
0
210
0
220
0
230
1
0
LINE
5
80
100
AcDbEntity
8
SK1
62
256
6
ByLayer
370
18
48
1
60
0
100
AcDbLine
10
0
20
3
30
0
11
-35.278312
21
3
31
0
39
0
210
0
220
0
230
1
0
LINE
5
82
100
AcDbEntity
8
SK1
62
256
6
ByLayer
370
18
48
1
60
0
100
AcDbLine
10
-35.278312
20
-3
30
0
11
0
21
-3
31
0
39
0
210
0
220
0
230
1
0
LINE
5
83
100
AcDbEntity
8
SK1
62
256
6
ByLayer
370
18
48
1
60
0
100
AcDbLine
10
-35.278312
20
3
30
0
11
-36
21
1.75
31
0
39
0
210
0
220
0
230
1
0
LINE
5
84
100
AcDbEntity
8
SK1
62
256
6
ByLayer
370
18
48
1
60
0
100
AcDbLine
10
-36
20
-1.75
30
0
11
-35.278312
21
-3
31
0
39
0
210
0
220
0
230
1
0
LINE
5
85
100
AcDbEntity
8
1
62
256
6
ByLayer
370
18
48
1
60
0
100
AcDbLine
10
29.466951
20
2.790612
30
0
11
28.977416
21
2.790319
31
0
39
0
210
0
220
0
230
1
0
LINE
5
86
100
AcDbEntity
8
1
62
256
6
ByLayer
370
18
48
1
60
0
100
AcDbLine
10
28.977416
20
-2.790319
30
0
11
29.466795
21
-2.790612
31
0
39
0
210
0
220
0
230
1
0
LINE
5
87
100
AcDbEntity
8
SK4
62
256
6
ByLayer
370
18
48
0.05
60
0
100
AcDbLine
10
51
20
0
30
0
11
-41
21
0
31
0
39
0
210
0
220
0
230
1
0
LINE
5
89
100
AcDbEntity
8
4
62
256
6
ByLayer
370
18
48
0.05
60
0
100
AcDbLine
10
46
20
0
30
0
11
0
21
0
31
0
39
0
210
0
220
0
230
1
0
LINE
5
8B
100
AcDbEntity
8
80
62
256
6
ByLayer
370
18
48
1
60
0
100
AcDbLine
10
0
20
0
30
0
11
-5
21
0
31
0
39
0
210
0
220
0
230
1
0
LINE
5
8C
100
AcDbEntity
8
1
62
256
6
ByLayer
370
13
48
1
60
0
100
AcDbLine
10
45.208728
20
0.250158
30
0
11
45.895266
21
-0.157188
31
0
39
0
210
0
220
0
230
1
0
LINE
5
8D
100
AcDbEntity
8
1
62
256
6
ByLayer
370
18
48
1
60
0
100
AcDbLine
10
45.931706
20
0.269198
30
0
11
45.86389
21
0.585487
31
0
39
0
210
0
220
0
230
1
0
LINE
5
8E
100
AcDbEntity
8
1
62
256
6
ByLayer
370
13
48
1
60
0
100
AcDbLine
10
45.398634
20
0.585487
30
0
11
45.931706
21
0.269198
31
0
39
0
210
0
220
0
230
1
0
LINE
5
8F
100
AcDbEntity
8
1
62
256
6
ByLayer
370
18
48
1
60
0
100
AcDbLine
10
45.995422
20
0.028404
30
0
11
46
21
0
31
0
39
0
210
0
220
0
230
1
0
LINE
5
90
100
AcDbEntity
8
1
62
256
6
ByLayer
370
18
48
1
60
0
100
AcDbLine
10
0
20
-3
30
0
11
0
21
3
31
0
39
0
210
0
220
0
230
1
0
LINE
5
91
100
AcDbEntity
8
1
62
256
6
ByLayer
370
18
48
1
60
0
100
AcDbLine
10
46
20
0
30
0
11
45.030753
21
-2.662983
31
0
39
0
210
0
220
0
230
1
0
LINE
5
92
100
AcDbEntity
8
1
62
256
6
ByLayer
370
18
48
1
60
0
100
AcDbLine
10
0.8
20
2.773412
30
0
11
0.8
21
-2.773412
31
0
39
0
210
0
220
0
230
1
0
LINE
5
93
100
AcDbEntity
8
1
62
256
6
ByLayer
370
13
48
1
60
0
100
AcDbLine
10
4.12469
20
1.593875
30
0
11
4.12011
21
1.58647
31
0
39
0
210
0
220
0
230
1
0
LINE
5
94
100
AcDbEntity
8
1
62
256
6
ByLayer
370
13
48
1
60
0
100
AcDbLine
10
45.86389
20
0.585487
30
0
11
45.398634
21
0.585487
31
0
39
0
210
0
220
0
230
1
0
LINE
5
95
100
AcDbEntity
8
1
62
256
6
ByLayer
370
18
48
1
60
0
100
AcDbLine
10
46
20
0
30
0
11
45.995422
21
-0.028404
31
0
39
0
210
0
220
0
230
1
0
LINE
5
96
100
AcDbEntity
8
1
62
256
6
ByLayer
370
18
48
1
60
0
100
AcDbLine
10
44.603088
20
-1.492025
30
0
11
45.895266
21
-0.157188
31
0
39
0
210
0
220
0
230
1
0
LINE
5
97
100
AcDbEntity
8
1
62
256
6
ByLayer
370
13
48
1
60
0
100
AcDbLine
10
0.360702
20
2.773149
30
0
11
0.360702
21
-2.773149
31
0
39
0
210
0
220
0
230
1
0
LINE
5
98
100
AcDbEntity
8
1
62
256
6
ByLayer
370
13
48
1
60
0
100
AcDbLine
10
0.180291
20
2.886574
30
0
11
0.180291
21
-2.886574
31
0
39
0
210
0
220
0
230
1
0
LINE
5
99
100
AcDbEntity
8
1
62
256
6
ByLayer
370
18
48
1
60
0
100
AcDbLine
10
45.931706
20
-0.269198
30
0
11
45.86389
21
-0.585487
31
0
39
0
210
0
220
0
230
1
0
LINE
5
9A
100
AcDbEntity
8
SK1
62
256
6
ByLayer
370
18
48
1
60
0
100
AcDbLine
10
0
20
-3
30
0
11
0
21
3
31
0
39
0
210
0
220
0
230
1
0
LINE
5
9B
100
AcDbEntity
8
SK1
62
256
6
ByLayer
370
18
48
1
60
0
100
AcDbLine
10
-35.278312
20
3
30
0
11
-35.278312
21
-3
31
0
39
0
210
0
220
0
230
1
0
LINE
5
9C
100
AcDbEntity
8
SK1
62
256
6
ByLayer
370
13
48
1
60
0
100
AcDbLine
10
-35.4
20
1.272129
30
0
11
-35.4
21
0.197567
31
0
39
0
210
0
220
0
230
1
0
LINE
5
9D
100
AcDbEntity
8
SK1
62
256
6
ByLayer
370
18
48
1
60
0
100
AcDbLine
10
-36
20
-0.418632
30
0
11
-36
21
-1.75
31
0
39
0
210
0
220
0
230
1
0
LINE
5
9E
100
AcDbEntity
8
SK1
62
256
6
ByLayer
370
18
48
1
60
0
100
AcDbLine
10
-35.3
20
-0.058841
30
0
11
-35.3
21
1.214896
31
0
39
0
210
0
220
0
230
1
0
LINE
5
9F
100
AcDbEntity
8
SK1
62
256
6
ByLayer
370
18
48
1
60
0
100
AcDbLine
10
-36
20
1.051064
30
0
11
-36
21
0.418632
31
0
39
0
210
0
220
0
230
1
0
LINE
5
A0
100
AcDbEntity
8
SK1
62
256
6
ByLayer
370
18
48
1
60
0
100
AcDbLine
10
-36
20
1.75
30
0
11
-36
21
1.051064
31
0
39
0
210
0
220
0
230
1
0
MTEXT
5
F7
100
AcDbEntity
8
SK6
62
256
6
ByLayer
370
13
48
1
60
0
100
AcDbMText
10
7.129169
20
35.182694
30
0
210
0
220
0
230
1
1
\W0.7542;R840-0560-50-A1A1220
40
3.5
41
0
44
1.084337
50
0
71
8
72
5
7
iso_b_vert
0
DIMENSION
5
104
100
AcDbEntity
8
SK2
62
256
6
ByLayer
370
13
48
1
60
0
100
AcDbDimension
2
DimnDraft3D1
10
45.05
20
-13.013398
30
0
11
21.300059
21
-13.013398
31
0
70
32
71
5
72
1
41
1
210
0
220
0
230
1
3
Standard
100
AcDbAlignedDimension
13
0
23
-1.5875
33
0
14
45.05
24
-4.3875
34
0
50
0
100
AcDbRotatedDimension
1001
ACAD
1000
DSTYLE
1002
{
1070
   279
1070
     0
1070
   172
1070
     1
1070
   173
1070
     1
1070
   340
1005
F8
1070
   271
1070
     2
1070
   272
1070
     2
1070
    77
1070
     1
1070
    73
1070
     0
1070
   171
1070
     3
1070
   274
1070
     4
1070
   177
1070
    35
1070
   176
1070
    35
1070
   178
1070
    35
1070
    48
1040
-0.005
1070
    41
1041
3.5
1070
   147
1041
1.75
1070
    42
1041
1.5875
1070
    44
1041
2.0
1070
   140
1041
3.5
1070
   343
1005
0
1070
   344
1005
0
1002
}
0
DIMENSION
5
10E
100
AcDbEntity
8
SK2
62
256
6
ByLayer
370
13
48
1
60
0
100
AcDbDimension
2
DimnDraft3D2
10
46
20
-31.692985
30
0
11
5.3913
21
-31.692985
31
0
70
32
71
5
72
1
41
1
210
0
220
0
230
1
3
Standard
100
AcDbAlignedDimension
13
-36
23
-4.5875
33
0
14
46
24
-1.5875
34
0
50
0
100
AcDbRotatedDimension
1001
ACAD
1000
DSTYLE
1002
{
1070
   279
1070
     0
1070
   172
1070
     1
1070
   173
1070
     1
1070
   340
1005
F8
1070
   271
1070
     2
1070
   272
1070
     2
1070
    77
1070
     1
1070
    73
1070
     0
1070
   171
1070
     3
1070
   274
1070
     4
1070
   177
1070
    35
1070
   176
1070
    35
1070
   178
1070
    35
1070
    48
1040
-0.005
1070
    41
1041
3.5
1070
   147
1041
1.75
1070
    42
1041
1.5875
1070
    44
1041
2.0
1070
   140
1041
3.5
1070
   343
1005
0
1070
   344
1005
0
1002
}
0
DIMENSION
5
118
100
AcDbEntity
8
SK2
62
256
6
ByLayer
370
13
48
1
60
0
100
AcDbDimension
2
DimnDraft3D3
10
46
20
14.409119
30
0
11
31.525
21
14.409119
31
0
70
32
71
5
72
1
41
1
210
0
220
0
230
1
3
Standard
100
AcDbAlignedDimension
13
17.05
23
4.3875
33
0
14
46
24
1.5875
34
0
50
0
100
AcDbRotatedDimension
1001
ACAD
1000
DSTYLE
1002
{
1070
   279
1070
     0
1070
   172
1070
     1
1070
   173
1070
     1
1070
   340
1005
F8
1070
   271
1070
     2
1070
   272
1070
     2
1070
    77
1070
     1
1070
    73
1070
     0
1070
   171
1070
     3
1070
   274
1070
     4
1070
   177
1070
    35
1070
   176
1070
    35
1070
   178
1070
    35
1070
    48
1040
-0.005
1070
    41
1041
3.5
1070
   147
1041
1.75
1070
    42
1041
1.5875
1070
    44
1041
2.0
1070
   140
1041
3.5
1070
   343
1005
0
1070
   344
1005
0
1002
}
0
DIMENSION
5
122
100
AcDbEntity
8
SK2
62
256
6
ByLayer
370
13
48
1
60
0
100
AcDbDimension
2
DimnDraft3D4
10
45.05
20
-15.602503
30
0
11
55.981425
21
-15.602503
31
0
70
32
71
5
72
1
41
1
210
0
220
0
230
1
3
Standard
100
AcDbAlignedDimension
13
46
23
-1.5875
33
0
14
45.05
24
-4.3875
34
0
50
0
100
AcDbRotatedDimension
1001
ACAD
1000
DSTYLE
1002
{
1070
   279
1070
     0
1070
   172
1070
     1
1070
   173
1070
     1
1070
   340
1005
F8
1070
   271
1070
     2
1070
   272
1070
     2
1070
    77
1070
     1
1070
    73
1070
     0
1070
   171
1070
     3
1070
   274
1070
     4
1070
   177
1070
    35
1070
   176
1070
    35
1070
   178
1070
    35
1070
    48
1040
-0.005
1070
    41
1041
3.5
1070
   147
1041
1.75
1070
    42
1041
1.5875
1070
    44
1041
2.0
1070
   140
1041
3.5
1070
   343
1005
0
1070
   344
1005
0
1002
}
0
DIMENSION
5
12C
100
AcDbEntity
8
SK2
62
256
6
ByLayer
370
13
48
1
60
0
100
AcDbDimension
2
DimnDraft3D5
10
45.05
20
-21.343428
30
0
11
2.310676
21
-21.343428
31
0
70
32
71
5
72
1
41
1
210
0
220
0
230
1
3
Standard
100
AcDbAlignedDimension
13
-36
23
-4.5875
33
0
14
45.05
24
-4.3875
34
0
50
0
100
AcDbRotatedDimension
1001
ACAD
1000
DSTYLE
1002
{
1070
   279
1070
     0
1070
   172
1070
     1
1070
   173
1070
     1
1070
   340
1005
F8
1070
   271
1070
     2
1070
   272
1070
     2
1070
    77
1070
     1
1070
    73
1070
     0
1070
   171
1070
     3
1070
   274
1070
     4
1070
   177
1070
    35
1070
   176
1070
    35
1070
   178
1070
    35
1070
    48
1040
-0.005
1070
    41
1041
3.5
1070
   147
1041
1.75
1070
    42
1041
1.5875
1070
    44
1041
2.0
1070
   140
1041
3.5
1070
   343
1005
0
1070
   344
1005
0
1002
}
0
DIMENSION
5
137
100
AcDbEntity
8
SK2
62
256
6
ByLayer
370
13
48
1
60
0
100
AcDbDimension
2
DimnDraft3D6
10
-46.625163
20
3
30
0
11
-47.250163
21
21.47418
31
0
70
33
71
5
72
1
41
1
210
0
220
0
230
1
3
Standard
100
AcDbAlignedDimension
13
-37.5875
23
-3
33
0
14
-37.5875
24
3
34
0
1001
ACAD
1000
DSTYLE
1002
{
1070
   279
1070
     0
1070
    74
1070
     0
1070
   173
1070
     1
1070
   340
1005
F8
1070
   271
1070
     3
1070
   272
1070
     2
1070
    77
1070
     1
1070
    73
1070
     0
1070
   171
1070
     3
1070
   274
1070
     4
1070
   177
1070
    35
1070
   176
1070
    35
1070
   178
1070
    35
1070
    48
1040
-0.005
1070
    41
1041
3.5
1070
   147
1041
1.75
1070
    42
1041
1.5875
1070
    44
1041
2.0
1070
   140
1041
3.5
1070
   343
1005
0
1070
   344
1005
0
1002
}
0
DIMENSION
5
142
100
AcDbEntity
8
2
62
256
6
ByLayer
370
13
48
1
60
0
100
AcDbDimension
2
DimnDraft3D7
10
60.083343
20
2.8
30
0
11
55.458343
21
19.867266
31
0
70
33
71
5
72
1
41
1
210
0
220
0
230
1
3
Standard
100
AcDbAlignedDimension
13
46.6375
23
-2.8
33
0
14
46.6375
24
2.8
34
0
1001
ACAD
1000
DSTYLE
1002
{
1070
   279
1070
     0
1070
    74
1070
     0
1070
   173
1070
     1
1070
   340
1005
F8
1070
   271
1070
     3
1070
   272
1070
     2
1070
    77
1070
     1
1070
    73
1070
     0
1070
   171
1070
     3
1070
   274
1070
     4
1070
   177
1070
    35
1070
   176
1070
    35
1070
   178
1070
    35
1070
    48
1040
-0.005
1070
    41
1041
3.5
1070
   147
1041
1.75
1070
    42
1041
1.5875
1070
    44
1041
2.0
1070
   140
1041
3.5
1070
   343
1005
0
1070
   344
1005
0
1002
}
0
ENDSEC
0
SECTION
2
OBJECTS
0
DICTIONARY
5
1ad
330
0
100
AcDbDictionary
280
0
281
1
3
ACAD_GROUP
350
1ae
3
ACAD_MLINESTYLE
350
1af
0
DICTIONARY
5
1ae
330
0
100
AcDbDictionary
280
0
281
1
0
DICTIONARY
5
1af
330
0
100
AcDbDictionary
280
0
281
1
3
Standard
350
18
0
MLINESTYLE
5
18
330
1af
100
AcDbMlineStyle
2
Standard
70
0
3

62
256
51
90
52
90
71
2
49
-0.5
62
256
6
ByLayer
49
0.5
62
256
6
ByLayer
0
RASTERVARIABLES
5
19b
330

100
AcDbRasterVariables
90
0
70
1
71
1
72
1
0
ENDSEC
0
EOF
