0
SECTION
2
HEADER
9
$ACADVER
1
AC1015
9
$DWGCODEPAGE
3
ANSI_1252
9
$HANDSEED
5
19d
9
$ANGBASE
50
0
9
$ANGDIR
70
0
9
$ATTMODE
70
1
9
$AUNITS
70
0
9
$AUPREC
70
0
9
$CECOLOR
62
256
9
$CELTSCALE
40
1
9
$CELTYPE
6
ByLayer
9
$CELWEIGHT
370
18
9
$CLAYER
8
0
9
$CMLJUST
70
0
9
$CMLSCALE
40
1
9
$CMLSTYLE
2
Standard
9
$DIMSTYLE
2
Standard
9
$TEXTSIZE
40
0.2
9
$TEXTSTYLE
7
Standard
9
$LUNITS
70
2
9
$LUPREC
70
4
9
$EXTNAMES
290
1
9
$INSUNITS
70
4
9
$LTSCALE
40
1
9
$LWDISPLAY
290
1
9
$PDMODE
70
0
9
$PDSIZE
40
0
9
$PLINEGEN
70
0
0
ENDSEC
0
SECTION
2
CLASSES
0
CLASS
1
RASTERVARIABLES
2
AcDbRasterVariables
3
ISM
90
0
280
0
281
0
0
ENDSEC
0
SECTION
2
TABLES
0
TABLE
2
VPORT
5
193
100
AcDbSymbolTable
0
VPORT
5
1
100
AcDbSymbolTableRecord
100
AcDbViewportTableRecord
2
*Active
70
0
10
0
20
0
11
1
21
1
12
-1
22
1
13
0
23
0
14
0.5
24
0.5
15
10
25
10
16
0
26
0
36
1
17
0
27
0
37
0
0
ENDTAB
0
TABLE
2
LTYPE
5
194
100
AcDbSymbolTable
0
LTYPE
5
14
100
AcDbSymbolTableRecord
100
AcDbLinetypeTableRecord
70
0
2
ByBlock
3

72
65
73
0
40
0
0
LTYPE
5
15
100
AcDbSymbolTableRecord
100
AcDbLinetypeTableRecord
70
0
2
ByLayer
3

72
65
73
0
40
0
0
LTYPE
5
16
100
AcDbSymbolTableRecord
100
AcDbLinetypeTableRecord
70
0
2
CONTINUOUS
3
Solid line
72
65
73
0
40
0
0
LTYPE
5
6A
100
AcDbSymbolTableRecord
100
AcDbLinetypeTableRecord
70
0
2
CENTER
3
____ _ ____ _ ____ _ ____
72
65
73
4
40
47.5
49
22
74
0
49
-8.5
74
0
49
8.5
74
0
49
-8.5
74
0
0
LTYPE
5
6B
100
AcDbSymbolTableRecord
100
AcDbLinetypeTableRecord
70
0
2
DASHED
3
__ __ __ __ __ __ __ __ __
72
65
73
2
40
25.72
49
12.86
74
0
49
-12.86
74
0
0
ENDTAB
0
TABLE
2
LAYER
5
195
100
AcDbSymbolTable
0
LAYER
5
10
100
AcDbSymbolTableRecord
100
AcDbLayerTableRecord
2
0
70
0
62
7
6
CONTINUOUS
290
1
370
-3
390
0
0
LAYER
5
6D
100
AcDbSymbolTableRecord
100
AcDbLayerTableRecord
2
81
70
0
62
-3
6
CONTINUOUS
290
1
370
-3
390
0
0
LAYER
5
6F
100
AcDbSymbolTableRecord
100
AcDbLayerTableRecord
2
80
70
0
62
-6
6
CONTINUOUS
290
1
370
-3
390
0
0
LAYER
5
74
100
AcDbSymbolTableRecord
100
AcDbLayerTableRecord
2
2
70
0
62
7
6
CONTINUOUS
290
1
370
-3
390
0
0
LAYER
5
78
100
AcDbSymbolTableRecord
100
AcDbLayerTableRecord
2
1
70
0
62
4
6
CONTINUOUS
290
1
370
-3
390
0
0
LAYER
5
86
100
AcDbSymbolTableRecord
100
AcDbLayerTableRecord
2
4
70
0
62
-2
6
CENTER
290
1
370
-3
390
0
0
LAYER
5
17f
100
AcDbSymbolTableRecord
100
AcDbLayerTableRecord
2
SK2
70
0
62
7
6
CONTINUOUS
290
1
370
-3
390
0
0
LAYER
5
180
100
AcDbSymbolTableRecord
100
AcDbLayerTableRecord
2
SK1
70
0
62
4
6
CONTINUOUS
290
1
370
-3
390
0
0
LAYER
5
181
100
AcDbSymbolTableRecord
100
AcDbLayerTableRecord
2
SK4
70
0
62
2
6
CENTER
290
1
370
-3
390
0
0
LAYER
5
182
100
AcDbSymbolTableRecord
100
AcDbLayerTableRecord
2
SK6
70
0
62
5
6
CONTINUOUS
290
1
370
-3
390
0
0
ENDTAB
0
TABLE
2
STYLE
5
196
100
AcDbSymbolTable
0
STYLE
5
11
100
AcDbSymbolTableRecord
100
AcDbTextStyleTableRecord
2
Standard
3
txt
70
0
71
0
40
0
41
1
42
0
50
0
0
STYLE
5
DB
100
AcDbSymbolTableRecord
100
AcDbTextStyleTableRecord
2
iso_b_vert
3
simplex.shx
70
0
71
0
40
0
41
1
42
0
50
0
0
STYLE
5
DC
100
AcDbSymbolTableRecord
100
AcDbTextStyleTableRecord
2
DWGDirectTextStyle
3
simplex
70
0
71
0
40
0
41
1
42
0
50
0
0
ENDTAB
0
TABLE
2
DIMSTYLE
5
197
100
AcDbSymbolTable
100
AcDbDimStyleTable
0
DIMSTYLE
105
27
100
AcDbSymbolTableRecord
100
AcDbDimStyleTableRecord
2
Standard
70
0
3
<>
41
0.18
42
0.0625
44
0.18
140
0.18
147
0.09
73
0
74
0
77
1
271
2
275
0
278
52
280
0
340
11
0
ENDTAB
0
TABLE
2
VIEW
5
198
100
AcDbSymbolTable
0
ENDTAB
0
TABLE
2
UCS
5
199
100
AcDbSymbolTable
0
ENDTAB
0
TABLE
2
APPID
5
19a
100
AcDbSymbolTable
0
APPID
5
12
100
AcDbSymbolTableRecord
100
AcDbRegAppTableRecord
2
ACAD
70
0
0
ENDTAB
0
TABLE
2
BLOCK_RECORD
5
19b
100
AcDbSymbolTable
0
BLOCK_RECORD
5
1F
100
AcDbSymbolTableRecord
100
AcDbBlockTableRecord
2
*Model_Space
340
0
70
0
0
BLOCK_RECORD
5
1B
100
AcDbSymbolTableRecord
100
AcDbBlockTableRecord
2
*Paper_Space
340
0
70
0
0
BLOCK_RECORD
5
23
100
AcDbSymbolTableRecord
100
AcDbBlockTableRecord
2
*Paper_Space0
340
0
70
0
0
BLOCK_RECORD
5
DE
100
AcDbSymbolTableRecord
100
AcDbBlockTableRecord
2
DimnDraft3D1
340
0
70
0
0
BLOCK_RECORD
5
E8
100
AcDbSymbolTableRecord
100
AcDbBlockTableRecord
2
DimnDraft3D2
340
0
70
0
0
BLOCK_RECORD
5
F2
100
AcDbSymbolTableRecord
100
AcDbBlockTableRecord
2
DimnDraft3D3
340
0
70
0
0
BLOCK_RECORD
5
FC
100
AcDbSymbolTableRecord
100
AcDbBlockTableRecord
2
DimnDraft3D4
340
0
70
0
0
BLOCK_RECORD
5
106
100
AcDbSymbolTableRecord
100
AcDbBlockTableRecord
2
DimnDraft3D5
340
0
70
0
0
BLOCK_RECORD
5
110
100
AcDbSymbolTableRecord
100
AcDbBlockTableRecord
2
DimnDraft3D6
340
0
70
0
0
BLOCK_RECORD
5
11B
100
AcDbSymbolTableRecord
100
AcDbBlockTableRecord
2
DimnDraft3D7
340
0
70
0
0
ENDTAB
0
ENDSEC
0
SECTION
2
BLOCKS
0
BLOCK
5
20
100
AcDbEntity
8
0
100
AcDbBlockBegin
2
*Model_Space
70
0
10
0
20
0
30
0
3
*Model_Space
0
ENDBLK
5
21
100
AcDbEntity
8
0
100
AcDbBlockEnd
0
BLOCK
5
1C
100
AcDbEntity
8
0
100
AcDbBlockBegin
2
*Paper_Space
70
0
10
0
20
0
30
0
3
*Paper_Space
0
ENDBLK
5
1D
100
AcDbEntity
8
0
100
AcDbBlockEnd
0
BLOCK
5
24
100
AcDbEntity
8
0
100
AcDbBlockBegin
2
*Paper_Space0
70
0
10
0
20
0
30
0
3
*Paper_Space0
0
ENDBLK
5
25
100
AcDbEntity
8
0
100
AcDbBlockEnd
0
BLOCK
5
E5
100
AcDbEntity
8
0
100
AcDbBlockBegin
2
DimnDraft3D1
70
0
10
0
20
0
30
0
3
DimnDraft3D1
0
MTEXT
5
DF
100
AcDbEntity
8
SK2
62
256
6
ByLayer
370
13
48
1
60
0
100
AcDbMText
10
8.851375
20
-12.138398
30
0
210
0
220
0
230
1
1
\W0.7317;29,05
40
3.5
41
0
44
1.084337
50
0
71
7
72
5
7
iso_b_vert
0
LINE
5
E0
100
AcDbEntity
8
SK2
62
256
6
ByLayer
370
13
48
1
60
0
100
AcDbLine
10
0
20
-1.5875
30
0
11
0
21
-15.013398
31
0
39
0
210
0
220
0
230
1
0
LINE
5
E1
100
AcDbEntity
8
SK2
62
256
6
ByLayer
370
13
48
1
60
0
100
AcDbLine
10
29.05
20
-4.3875
30
0
11
29.05
21
-15.013398
31
0
39
0
210
0
220
0
230
1
0
LINE
5
E2
100
AcDbEntity
8
SK2
62
256
6
ByLayer
370
13
48
1
60
0
100
AcDbLine
10
0
20
-13.013398
30
0
11
29.05
21
-13.013398
31
0
39
0
210
0
220
0
230
1
0
SOLID
5
E3
100
AcDbEntity
8
SK2
62
256
6
ByLayer
370
13
48
1
60
0
100
AcDbTrace
10
0
20
-13.013398
30
0
11
3.499998
21
-12.552615
31
0
12
3.500002
22
-13.474182
32
0
13
0
23
-13.013398
33
0
39
0
210
0
220
0
230
1
0
SOLID
5
E4
100
AcDbEntity
8
SK2
62
256
6
ByLayer
370
13
48
1
60
0
100
AcDbTrace
10
29.05
20
-13.013398
30
0
11
25.550002
21
-13.474182
31
0
12
25.549998
22
-12.552615
32
0
13
29.05
23
-13.013398
33
0
39
0
210
0
220
0
230
1
0
ENDBLK
5
E6
100
AcDbEntity
8
0
100
AcDbBlockEnd
0
BLOCK
5
EF
100
AcDbEntity
8
0
100
AcDbBlockBegin
2
DimnDraft3D2
70
0
10
0
20
0
30
0
3
DimnDraft3D2
0
MTEXT
5
E9
100
AcDbEntity
8
SK2
62
256
6
ByLayer
370
13
48
1
60
0
100
AcDbMText
10
-7.057384
20
-30.817985
30
0
210
0
220
0
230
1
1
\W0.7317;66,00
40
3.5
41
0
44
1.084337
50
0
71
7
72
5
7
iso_b_vert
0
LINE
5
EA
100
AcDbEntity
8
SK2
62
256
6
ByLayer
370
13
48
1
60
0
100
AcDbLine
10
-36
20
-4.5875
30
0
11
-36
21
-33.692985
31
0
39
0
210
0
220
0
230
1
0
LINE
5
EB
100
AcDbEntity
8
SK2
62
256
6
ByLayer
370
13
48
1
60
0
100
AcDbLine
10
30
20
-1.5875
30
0
11
30
21
-33.692985
31
0
39
0
210
0
220
0
230
1
0
LINE
5
EC
100
AcDbEntity
8
SK2
62
256
6
ByLayer
370
13
48
1
60
0
100
AcDbLine
10
-36
20
-31.692985
30
0
11
30
21
-31.692985
31
0
39
0
210
0
220
0
230
1
0
SOLID
5
ED
100
AcDbEntity
8
SK2
62
256
6
ByLayer
370
13
48
1
60
0
100
AcDbTrace
10
-36
20
-31.692985
30
0
11
-32.500002
21
-31.232202
31
0
12
-32.499998
22
-32.153769
32
0
13
-36
23
-31.692985
33
0
39
0
210
0
220
0
230
1
0
SOLID
5
EE
100
AcDbEntity
8
SK2
62
256
6
ByLayer
370
13
48
1
60
0
100
AcDbTrace
10
30
20
-31.692985
30
0
11
26.500002
21
-32.153769
31
0
12
26.499998
22
-31.232202
32
0
13
30
23
-31.692985
33
0
39
0
210
0
220
0
230
1
0
ENDBLK
5
F0
100
AcDbEntity
8
0
100
AcDbBlockEnd
0
BLOCK
5
F9
100
AcDbEntity
8
0
100
AcDbBlockBegin
2
DimnDraft3D3
70
0
10
0
20
0
30
0
3
DimnDraft3D3
0
MTEXT
5
F3
100
AcDbEntity
8
SK2
62
256
6
ByLayer
370
13
48
1
60
0
100
AcDbMText
10
17.113816
20
15.284119
30
0
210
0
220
0
230
1
1
\W0.6713;17,75
40
3.5
41
0
44
1.084337
50
0
71
7
72
5
7
iso_b_vert
0
LINE
5
F4
100
AcDbEntity
8
SK2
62
256
6
ByLayer
370
13
48
1
60
0
100
AcDbLine
10
12.25
20
4.3875
30
0
11
12.25
21
16.409119
31
0
39
0
210
0
220
0
230
1
0
LINE
5
F5
100
AcDbEntity
8
SK2
62
256
6
ByLayer
370
13
48
1
60
0
100
AcDbLine
10
30
20
1.5875
30
0
11
30
21
16.409119
31
0
39
0
210
0
220
0
230
1
0
LINE
5
F6
100
AcDbEntity
8
SK2
62
256
6
ByLayer
370
13
48
1
60
0
100
AcDbLine
10
12.25
20
14.409119
30
0
11
30
21
14.409119
31
0
39
0
210
0
220
0
230
1
0
SOLID
5
F7
100
AcDbEntity
8
SK2
62
256
6
ByLayer
370
13
48
1
60
0
100
AcDbTrace
10
12.25
20
14.409119
30
0
11
15.749998
21
14.869903
31
0
12
15.750002
22
13.948335
32
0
13
12.25
23
14.409119
33
0
39
0
210
0
220
0
230
1
0
SOLID
5
F8
100
AcDbEntity
8
SK2
62
256
6
ByLayer
370
13
48
1
60
0
100
AcDbTrace
10
30
20
14.409119
30
0
11
26.500002
21
13.948335
31
0
12
26.499998
22
14.869903
32
0
13
30
23
14.409119
33
0
39
0
210
0
220
0
230
1
0
ENDBLK
5
FA
100
AcDbEntity
8
0
100
AcDbBlockEnd
0
BLOCK
5
103
100
AcDbEntity
8
0
100
AcDbBlockBegin
2
DimnDraft3D4
70
0
10
0
20
0
30
0
3
DimnDraft3D4
0
MTEXT
5
FD
100
AcDbEntity
8
SK2
62
256
6
ByLayer
370
13
48
1
60
0
100
AcDbMText
10
36.840636
20
-14.727503
30
0
210
0
220
0
230
1
1
\W0.7150;0,95
40
3.5
41
0
44
1.084337
50
0
71
7
72
5
7
iso_b_vert
0
LINE
5
FE
100
AcDbEntity
8
SK2
62
256
6
ByLayer
370
13
48
1
60
0
100
AcDbLine
10
30
20
-1.5875
30
0
11
30
21
-17.602503
31
0
39
0
210
0
220
0
230
1
0
LINE
5
FF
100
AcDbEntity
8
SK2
62
256
6
ByLayer
370
13
48
1
60
0
100
AcDbLine
10
29.05
20
-4.3875
30
0
11
29.05
21
-17.602503
31
0
39
0
210
0
220
0
230
1
0
LINE
5
100
100
AcDbEntity
8
SK2
62
256
6
ByLayer
370
13
48
1
60
0
100
AcDbLine
10
20.3
20
-15.602503
30
0
11
43.997215
21
-15.602503
31
0
39
0
210
0
220
0
230
1
0
SOLID
5
101
100
AcDbEntity
8
SK2
62
256
6
ByLayer
370
13
48
1
60
0
100
AcDbTrace
10
30
20
-15.602503
30
0
11
33.499998
21
-15.141719
31
0
12
33.500002
22
-16.063287
32
0
13
30
23
-15.602503
33
0
39
0
210
0
220
0
230
1
0
SOLID
5
102
100
AcDbEntity
8
SK2
62
256
6
ByLayer
370
13
48
1
60
0
100
AcDbTrace
10
29.05
20
-15.602503
30
0
11
25.550002
21
-16.063287
31
0
12
25.549998
22
-15.141719
32
0
13
29.05
23
-15.602503
33
0
39
0
210
0
220
0
230
1
0
ENDBLK
5
104
100
AcDbEntity
8
0
100
AcDbBlockEnd
0
BLOCK
5
10D
100
AcDbEntity
8
0
100
AcDbBlockBegin
2
DimnDraft3D5
70
0
10
0
20
0
30
0
3
DimnDraft3D5
0
MTEXT
5
107
100
AcDbEntity
8
SK2
62
256
6
ByLayer
370
13
48
1
60
0
100
AcDbMText
10
-10.138008
20
-20.468428
30
0
210
0
220
0
230
1
1
\W0.7317;65,05
40
3.5
41
0
44
1.084337
50
0
71
7
72
5
7
iso_b_vert
0
LINE
5
108
100
AcDbEntity
8
SK2
62
256
6
ByLayer
370
13
48
1
60
0
100
AcDbLine
10
-36
20
-4.5875
30
0
11
-36
21
-23.343428
31
0
39
0
210
0
220
0
230
1
0
LINE
5
109
100
AcDbEntity
8
SK2
62
256
6
ByLayer
370
13
48
1
60
0
100
AcDbLine
10
29.05
20
-4.3875
30
0
11
29.05
21
-23.343428
31
0
39
0
210
0
220
0
230
1
0
LINE
5
10A
100
AcDbEntity
8
SK2
62
256
6
ByLayer
370
13
48
1
60
0
100
AcDbLine
10
-36
20
-21.343428
30
0
11
29.05
21
-21.343428
31
0
39
0
210
0
220
0
230
1
0
SOLID
5
10B
100
AcDbEntity
8
SK2
62
256
6
ByLayer
370
13
48
1
60
0
100
AcDbTrace
10
-36
20
-21.343428
30
0
11
-32.500002
21
-20.882645
31
0
12
-32.499998
22
-21.804212
32
0
13
-36
23
-21.343428
33
0
39
0
210
0
220
0
230
1
0
SOLID
5
10C
100
AcDbEntity
8
SK2
62
256
6
ByLayer
370
13
48
1
60
0
100
AcDbTrace
10
29.05
20
-21.343428
30
0
11
25.550002
21
-21.804212
31
0
12
25.549998
22
-20.882645
32
0
13
29.05
23
-21.343428
33
0
39
0
210
0
220
0
230
1
0
ENDBLK
5
10E
100
AcDbEntity
8
0
100
AcDbBlockEnd
0
BLOCK
5
118
100
AcDbEntity
8
0
100
AcDbBlockBegin
2
DimnDraft3D6
70
0
10
0
20
0
30
0
3
DimnDraft3D6
0
MTEXT
5
111
100
AcDbEntity
8
SK2
62
256
6
ByLayer
370
13
48
1
60
0
100
AcDbMText
10
-46.375163
20
22.34918
30
0
210
0
220
0
230
1
1
\W0.7317;6,000
40
3.5
41
0
44
1.084337
50
90
71
7
72
5
7
iso_b_vert
0
MTEXT
5
112
100
AcDbEntity
8
SK2
62
256
6
ByLayer
370
13
48
1
60
0
100
AcDbMText
10
-46.375163
20
17.126524
30
0
210
0
220
0
230
1
1
%%c
40
3.5
41
0
44
1.084337
50
90
71
7
72
5
7
iso_b_vert
0
LINE
5
113
100
AcDbEntity
8
SK2
62
256
6
ByLayer
370
13
48
1
60
0
100
AcDbLine
10
-37.5875
20
-3
30
0
11
-46.625163
21
-3
31
0
39
0
210
0
220
0
230
1
0
LINE
5
114
100
AcDbEntity
8
SK2
62
256
6
ByLayer
370
13
48
1
60
0
100
AcDbLine
10
-37.5875
20
3
30
0
11
-46.625163
21
3
31
0
39
0
210
0
220
0
230
1
0
LINE
5
115
100
AcDbEntity
8
SK2
62
256
6
ByLayer
370
13
48
1
60
0
100
AcDbLine
10
-44.625163
20
32.121549
30
0
11
-44.625163
21
-11.75
31
0
39
0
210
0
220
0
230
1
0
SOLID
5
116
100
AcDbEntity
8
SK2
62
256
6
ByLayer
370
13
48
1
60
0
100
AcDbTrace
10
-44.625163
20
-3
30
0
11
-44.164379
21
-6.499998
31
0
12
-45.085946
22
-6.500002
32
0
13
-44.625163
23
-3
33
0
39
0
210
0
220
0
230
1
0
SOLID
5
117
100
AcDbEntity
8
SK2
62
256
6
ByLayer
370
13
48
1
60
0
100
AcDbTrace
10
-44.625163
20
3
30
0
11
-45.085946
21
6.499998
31
0
12
-44.164379
22
6.500002
32
0
13
-44.625163
23
3
33
0
39
0
210
0
220
0
230
1
0
ENDBLK
5
119
100
AcDbEntity
8
0
100
AcDbBlockEnd
0
BLOCK
5
123
100
AcDbEntity
8
0
100
AcDbBlockBegin
2
DimnDraft3D7
70
0
10
0
20
0
30
0
3
DimnDraft3D7
0
MTEXT
5
11C
100
AcDbEntity
8
2
62
256
6
ByLayer
370
13
48
1
60
0
100
AcDbMText
10
40.333343
20
20.742266
30
0
210
0
220
0
230
1
1
\W0.7317;5,600
40
3.5
41
0
44
1.084337
50
90
71
7
72
5
7
iso_b_vert
0
MTEXT
5
11D
100
AcDbEntity
8
2
62
256
6
ByLayer
370
13
48
1
60
0
100
AcDbMText
10
40.333343
20
15.51961
30
0
210
0
220
0
230
1
1
%%c
40
3.5
41
0
44
1.084337
50
90
71
7
72
5
7
iso_b_vert
0
LINE
5
11E
100
AcDbEntity
8
2
62
256
6
ByLayer
370
13
48
1
60
0
100
AcDbLine
10
30.6375
20
-2.8
30
0
11
44.083343
21
-2.8
31
0
39
0
210
0
220
0
230
1
0
LINE
5
11F
100
AcDbEntity
8
2
62
256
6
ByLayer
370
13
48
1
60
0
100
AcDbLine
10
30.6375
20
2.8
30
0
11
44.083343
21
2.8
31
0
39
0
210
0
220
0
230
1
0
LINE
5
120
100
AcDbEntity
8
2
62
256
6
ByLayer
370
13
48
1
60
0
100
AcDbLine
10
42.083343
20
30.514635
30
0
11
42.083343
21
-11.55
31
0
39
0
210
0
220
0
230
1
0
SOLID
5
121
100
AcDbEntity
8
2
62
256
6
ByLayer
370
13
48
1
60
0
100
AcDbTrace
10
42.083343
20
-2.8
30
0
11
42.544126
21
-6.299998
31
0
12
41.622559
22
-6.300002
32
0
13
42.083343
23
-2.8
33
0
39
0
210
0
220
0
230
1
0
SOLID
5
122
100
AcDbEntity
8
2
62
256
6
ByLayer
370
13
48
1
60
0
100
AcDbTrace
10
42.083343
20
2.8
30
0
11
41.622559
21
6.299998
31
0
12
42.544126
22
6.300002
32
0
13
42.083343
23
2.8
33
0
39
0
210
0
220
0
230
1
0
ENDBLK
5
124
100
AcDbEntity
8
0
100
AcDbBlockEnd
0
ENDSEC
0
SECTION
2
ENTITIES
0
ARC
5
97
100
AcDbEntity
8
1
62
256
6
ByLayer
370
18
48
1
60
0
100
AcDbCircle
39
0
10
0
20
2.8
30
0
40
0.199999999999996
210
0
220
0
230
1
100
AcDbArc
50
27.18495
51
90
0
ARC
5
98
100
AcDbEntity
8
1
62
256
6
ByLayer
370
18
48
1
60
0
100
AcDbCircle
39
0
10
-0.355815
20
-2.982746
30
0
40
0.200000000000003
210
0
220
0
230
-1
100
AcDbArc
50
27.18495
51
90.034377
0
ARC
5
99
100
AcDbEntity
8
1
62
256
6
ByLayer
370
18
48
1
60
0
100
AcDbCircle
39
0
10
0
20
-2.8
30
0
40
0.199999999999996
210
0
220
0
230
1
100
AcDbArc
50
270
51
332.81505
0
ARC
5
9A
100
AcDbEntity
8
1
62
256
6
ByLayer
370
18
48
1
60
0
100
AcDbCircle
39
0
10
-0.355815
20
2.982746
30
0
40
0.200000000000003
210
0
220
0
230
-1
100
AcDbArc
50
269.965623
51
332.81505
0
ELLIPSE
5
9B
100
AcDbEntity
8
1
62
256
6
ByLayer
370
18
48
1
60
0
100
AcDbEllipse
10
4.25
20
-2.899282
30
0
11
0.25
21
0
31
0
210
0
220
0
230
1
40
1
41
1.56996357252813
42
2.65534020072665
0
ELLIPSE
5
9C
100
AcDbEntity
8
1
62
256
6
ByLayer
370
18
48
1
60
0
100
AcDbEllipse
10
4.25
20
2.899282
30
0
11
0.25
21
0
31
0
210
0
220
0
230
1
40
1
41
-2.65593398605594
42
-1.56286300651918
0
ELLIPSE
5
9D
100
AcDbEntity
8
1
62
256
6
ByLayer
370
13
48
1
60
0
100
AcDbEllipse
10
29.611103
20
1.29534
30
0
11
1.69423334571562
21
-1.16652783637245
31
0
210
0
220
0
230
-1
40
0.533762
41
1.44484622741651
42
1.70768639754637
0
ELLIPSE
5
9E
100
AcDbEntity
8
1
62
256
6
ByLayer
370
18
48
1
60
0
100
AcDbEllipse
10
30.05652
20
-0.01699
30
0
11
0.135544944364372
21
-0.427068209900807
31
0
210
0
220
0
230
-1
40
0.100282
41
1.70905320449149
42
2.33653286888251
0
ELLIPSE
5
9F
100
AcDbEntity
8
1
62
256
6
ByLayer
370
18
48
1
60
0
100
AcDbEllipse
10
30.05652
20
0.01699
30
0
11
0.135544944360393
21
0.427068209890635
31
0
210
0
220
0
230
-1
40
0.100282
41
-2.33653286888051
42
-1.70905320447679
0
ELLIPSE
5
A0
100
AcDbEntity
8
1
62
256
6
ByLayer
370
18
48
1
60
0
100
AcDbEllipse
10
29.43654
20
-1.418538
30
0
11
0.436111509033135
21
1.17459539610101
31
0
210
0
220
0
230
-1
40
0.131755
41
0.736518128023917
42
1.4824129023849
0
ELLIPSE
5
A1
100
AcDbEntity
8
1
62
256
6
ByLayer
370
18
48
1
60
0
100
AcDbEllipse
10
30.00026
20
0.000612
30
0
11
1.0385581569246
21
2.79718740679543
31
0
210
0
220
0
230
-1
40
0.131755
41
2.8475360258515
42
2.96460970563683
0
ELLIPSE
5
A2
100
AcDbEntity
8
1
62
256
6
ByLayer
370
18
48
1
60
0
100
AcDbEllipse
10
30.00026
20
-0.000612
30
0
11
1.03855815289971
21
-2.79718739477545
31
0
210
0
220
0
230
-1
40
0.131755
41
-2.96460970525265
42
-2.84753602521102
0
ELLIPSE
5
A3
100
AcDbEntity
8
1
62
256
6
ByLayer
370
13
48
1
60
0
100
AcDbEllipse
10
29.801009
20
1.418538
30
0
11
1.76184792624227
21
-0.8256555247682
31
0
210
0
220
0
230
-1
40
0.475307
41
1.57786895925367
42
1.85991700750858
0
ELLIPSE
5
A4
100
AcDbEntity
8
1
62
256
6
ByLayer
370
18
48
1
60
0
100
AcDbEllipse
10
29.43654
20
1.418538
30
0
11
0.436111509008171
21
-1.17459539604941
31
0
210
0
220
0
230
-1
40
0.131755
41
-1.48241290241656
42
-0.736518128026252
0
ELLIPSE
5
A5
100
AcDbEntity
8
1
62
256
6
ByLayer
370
18
48
1
60
0
100
AcDbEllipse
10
29.860742
20
0.099172
30
0
11
0.0727819104916415
21
0.301917195720677
31
0
210
0
220
0
230
-1
40
0.478434
41
1.69097746240899
42
2.45976119973567
0
ELLIPSE
5
A6
100
AcDbEntity
8
1
62
256
6
ByLayer
370
13
48
1
60
0
100
AcDbEllipse
10
29.396119
20
0.374848
30
0
11
0.153082081612425
21
0.258003636193769
31
0
210
0
220
0
230
1
40
0.454519
41
0.917105603404763
42
2.31336900500029
0
POINT
5
6C
100
AcDbEntity
8
81
62
256
6
ByLayer
370
18
48
1
60
0
100
AcDbPoint
10
30
20
0
30
0
39
0
210
0
220
0
230
1
50
360
0
POINT
5
6E
100
AcDbEntity
8
80
62
256
6
ByLayer
370
18
48
1
60
0
100
AcDbPoint
10
0
20
0
30
0
39
0
210
0
220
0
230
1
50
360
0
POINT
5
70
100
AcDbEntity
8
SK2
62
256
6
ByLayer
370
18
48
1
60
1
100
AcDbPoint
10
-36
20
-3
30
0
39
0
210
0
220
0
230
1
50
360
0
POINT
5
72
100
AcDbEntity
8
SK2
62
256
6
ByLayer
370
18
48
1
60
1
100
AcDbPoint
10
-36
20
3
30
0
39
0
210
0
220
0
230
1
50
360
0
POINT
5
73
100
AcDbEntity
8
2
62
256
6
ByLayer
370
18
48
1
60
1
100
AcDbPoint
10
29.05
20
-2.8
30
0
39
0
210
0
220
0
230
1
50
360
0
POINT
5
75
100
AcDbEntity
8
2
62
256
6
ByLayer
370
18
48
1
60
1
100
AcDbPoint
10
29.05
20
2.8
30
0
39
0
210
0
220
0
230
1
50
360
0
SPLINE
5
A7
100
AcDbEntity
8
1
62
256
6
ByLayer
370
18
48
1
60
0
100
AcDbSpline
70
4
71
2
72
6
73
3
40
0
40
0
40
0
40
1
40
1
40
1
41
1
10
4.2510953161611
20
-2.64876880574212
30
0
41
1
10
5.17280398722747
20
-2.65112395855269
30
0
41
1
10
6.09451725822007
20
-2.65067108011641
30
0
0
SPLINE
5
A8
100
AcDbEntity
8
1
62
256
6
ByLayer
370
18
48
1
60
0
100
AcDbSpline
70
4
71
3
72
11
73
7
40
0
40
0
40
0
40
0
40
0.0575321563359608
40
0.244946096966913
40
0.43555684631353
40
1
40
1
40
1
40
1
41
1
10
21.6926942642502
20
-0.718476055542197
30
0
41
1
10
21.692594795109
20
-0.718532493438261
30
0
41
1
10
21.6929661368829
20
-0.719152194257305
30
0
41
1
10
21.7002109117008
20
-0.723431192906446
30
0
41
1
10
21.7513767330505
20
-0.749338499385971
30
0
41
1
10
21.818900423108
20
-0.787146906041755
30
0
41
1
10
21.8876134406508
20
-0.826020413058473
30
0
0
SPLINE
5
A9
100
AcDbEntity
8
1
62
256
6
ByLayer
370
18
48
1
60
0
100
AcDbSpline
70
4
71
2
72
6
73
3
40
0
40
0
40
0
40
1
40
1
40
1
41
1
10
28.5244789986955
20
-2.6625109438821
30
0
41
1
10
28.7711635764442
20
-2.66208309564831
30
0
41
1
10
29.0178500472347
20
-2.66301283357714
30
0
0
SPLINE
5
AA
100
AcDbEntity
8
1
62
256
6
ByLayer
370
18
48
1
60
0
100
AcDbSpline
70
4
71
3
72
20
73
16
40
0
40
0
40
0
40
0
40
0.0972723377385653
40
0.170217442094487
40
0.220201621181632
40
0.266247047866416
40
0.314836273194678
40
0.411877945758518
40
0.503408655560305
40
0.615714798045045
40
0.733573381308375
40
0.779924475477743
40
0.843273691356475
40
0.930047427492555
40
1
40
1
40
1
40
1
41
1
10
13.6306255578558
20
-2.65372976266238
30
0
41
1
10
13.8683735279544
20
-2.65405751745948
30
0
41
1
10
14.2844926855408
20
-2.65446492932489
30
0
41
1
10
14.8233954562618
20
-2.65438191487772
30
0
41
1
10
15.2365113304159
20
-2.65441238729039
30
0
41
1
10
15.5902162573815
20
-2.65499557285807
30
0
41
1
10
16.0591587649707
20
-2.65560821165999
30
0
41
1
10
16.6393550965014
20
-2.65481346759884
30
0
41
1
10
17.3754317884282
20
-2.65684043349901
30
0
41
1
10
18.1624262619798
20
-2.65427612055441
30
0
41
1
10
18.8388991418382
20
-2.65644168812801
30
0
41
1
10
19.3956153172496
20
-2.65768368130139
30
0
41
1
10
19.8762427988345
20
-2.65624910651422
30
0
41
1
10
20.4146590809785
20
-2.65592907129911
30
0
41
1
10
20.798045979819
20
-2.65691055072713
30
0
41
1
10
20.9691613390051
20
-2.65757458810623
30
0
0
SPLINE
5
AB
100
AcDbEntity
8
1
62
256
6
ByLayer
370
18
48
1
60
0
100
AcDbSpline
70
4
71
3
72
8
73
4
40
0
40
0
40
0
40
0
40
1
40
1
40
1
40
1
41
1
10
20.9922179909242
20
-2.65766542898692
30
0
41
1
10
21.010099210153
20
-2.65773693773019
30
0
41
1
10
21.0279803885586
20
-2.65781090667861
30
0
41
1
10
21.0458615318681
20
-2.65788731875892
30
0
0
SPLINE
5
AC
100
AcDbEntity
8
1
62
256
6
ByLayer
370
18
48
1
60
0
100
AcDbSpline
70
4
71
3
72
21
73
17
40
0
40
0
40
0
40
0
40
0.0821302189231986
40
0.170437763181102
40
0.22996540030955
40
0.282165541360747
40
0.334003164619497
40
0.433813478661934
40
0.536864647378684
40
0.605415954009955
40
0.68071624223646
40
0.760071538746962
40
0.838650752821879
40
0.907010140501878
40
0.979938640594058
40
1
40
1
40
1
40
1
41
1
10
21.0410450392734
20
2.65785027841349
30
0
41
1
10
20.8732868428913
20
2.65716795749003
30
0
41
1
10
20.5251288586713
20
2.65618994415166
30
0
41
1
10
20.0551049831179
20
2.6560104995275
30
0
41
1
10
19.6464961672315
20
2.65690500625658
30
0
41
1
10
19.3123204157446
20
2.65760444687163
30
0
41
1
10
18.8957557076501
20
2.65642255170081
30
0
41
1
10
18.3752963262091
20
2.65569594931455
30
0
41
1
10
17.8206823961011
20
2.65502232506751
30
0
41
1
10
17.3161554533102
20
2.65643744801787
30
0
41
1
10
16.8600415546097
20
2.65560326113666
30
0
41
1
10
16.383440809705
20
2.65499725904263
30
0
41
1
10
15.9210225809175
20
2.65558152762029
30
0
41
1
10
15.4717255358929
20
2.65469204614919
30
0
41
1
10
15.1420511787456
20
2.65444993762537
30
0
41
1
10
14.9520347299215
20
2.65444108502928
30
0
41
1
10
14.9110407380334
20
2.65444282561532
30
0
0
SPLINE
5
AD
100
AcDbEntity
8
1
62
256
6
ByLayer
370
18
48
1
60
0
100
AcDbSpline
70
4
71
2
72
6
73
3
40
0
40
0
40
0
40
1
40
1
40
1
41
1
10
6.09742273022201
20
2.65067166098916
30
0
41
1
10
5.17425671960339
20
2.65112646189664
30
0
41
1
10
4.25109531616107
20
2.64876880574212
30
0
0
SPLINE
5
AE
100
AcDbEntity
8
1
62
256
6
ByLayer
370
18
48
1
60
0
100
AcDbSpline
70
4
71
3
72
18
73
14
40
0
40
0
40
0
40
0
40
0.192880729606341
40
0.192880729606341
40
0.385761459212682
40
0.385761459212682
40
0.578642188819023
40
0.578642188819023
40
0.771522918425364
40
0.771522918425364
40
0.964403648031705
40
0.964403648031705
40
1
40
1
40
1
40
1
41
1
10
9.85169145504466
20
-2.21091327052542
30
0
41
1
10
10.0539743132734
20
-2.28367415702775
30
0
41
1
10
10.2558185771375
20
-2.34931419005744
30
0
41
1
10
10.6578810174899
20
-2.46782007021395
30
0
41
1
10
10.8577156600849
20
-2.52089983006042
30
0
41
1
10
11.2577122989376
20
-2.61268828739264
30
0
41
1
10
11.4577875308982
20
-2.65157970877095
30
0
41
1
10
11.8572662374245
20
-2.71576776778977
30
0
41
1
10
12.0570599429317
20
-2.74079102692369
30
0
41
1
10
12.4584665790379
20
-2.77609498361147
30
0
41
1
10
12.6595293788668
20
-2.78655613536702
30
0
41
1
10
12.8985942535707
20
-2.79001257545286
30
0
41
1
10
12.9358844755366
20
-2.79029285242692
30
0
41
1
10
12.9731996536902
20
-2.79031615515544
30
0
0
SPLINE
5
AF
100
AcDbEntity
8
1
62
256
6
ByLayer
370
18
48
1
60
0
100
AcDbSpline
70
4
71
3
72
22
73
18
40
0
40
0
40
0
40
0
40
0.114204011173397
40
0.114204011173397
40
0.240746295291483
40
0.240746295291483
40
0.36728857940957
40
0.36728857940957
40
0.493830863527656
40
0.493830863527656
40
0.620373147645742
40
0.620373147645742
40
0.746915431763828
40
0.746915431763828
40
0.873457715881914
40
0.873457715881914
40
1
40
1
40
1
40
1
41
1
10
24.3575137257755
20
2.04141732630927
30
0
41
1
10
24.537653168525
20
2.11383515539544
30
0
41
1
10
24.7175426624854
20
2.1822467388414
30
0
41
1
10
25.0984645855017
20
2.31547358888667
30
0
41
1
10
25.2991730010911
20
2.37971036587217
30
0
41
1
10
25.7015736047227
20
2.49623639341374
30
0
41
1
10
25.904509584314
20
2.54811616840792
30
0
41
1
10
26.3080294602728
20
2.6372083316007
30
0
41
1
10
26.5083960527612
20
2.67489956175422
30
0
41
1
10
26.9087312843571
20
2.73541218056789
30
0
41
1
10
27.1088338415386
20
2.75829860041046
30
0
41
1
10
27.5079171854155
20
2.78976922946796
30
0
41
1
10
27.7071491057382
20
2.79818272857906
30
0
41
1
10
28.1071126942689
20
2.80020763899944
30
0
41
1
10
28.3073582720569
20
2.79389764636022
30
0
41
1
10
28.7085565187735
20
2.76615206483623
30
0
41
1
10
28.9106211646551
20
2.744885159235
30
0
41
1
10
29.1130989644088
20
2.71616936231672
30
0
0
SPLINE
5
B0
100
AcDbEntity
8
1
62
256
6
ByLayer
370
18
48
1
60
0
100
AcDbSpline
70
4
71
3
72
20
73
16
40
0
40
0
40
0
40
0
40
0.136323175728158
40
0.136323175728158
40
0.272646351456317
40
0.272646351456317
40
0.545292702912631
40
0.545292702912631
40
0.681615878640789
40
0.681615878640789
40
0.749777466504866
40
0.749777466504866
40
0.817939054368943
40
0.817939054368943
40
1
40
1
40
1
40
1
41
1
10
4.20035015912242
20
1.00493270063114
30
0
41
1
10
4.46155028208309
20
0.865011565049457
30
0
41
1
10
4.72246481047458
20
0.720796175855867
30
0
41
1
10
5.24508946224452
20
0.426096894254641
30
0
41
1
10
5.50496728708288
20
0.276703925046291
30
0
41
1
10
6.28096934264411
20
-0.1711386739602
30
0
41
1
10
6.79481263181637
20
-0.469131233058192
30
0
41
1
10
7.5697044232154
20
-0.898863436814707
30
0
41
1
10
7.82868052064526
20
-1.03924788552635
30
0
41
1
10
8.21935547009974
20
-1.24343843560376
30
0
41
1
10
8.35016727836322
20
-1.3104978333549
30
0
41
1
10
8.6106234652712
20
-1.44073318383818
30
0
41
1
10
8.74048885029737
20
-1.50406644025597
30
0
41
1
10
9.21611798641933
20
-1.72977633124202
30
0
41
1
10
9.56013112137234
20
-1.88084807164967
30
0
41
1
10
9.90416501382711
20
-2.01613485265162
30
0
0
SPLINE
5
B1
100
AcDbEntity
8
1
62
256
6
ByLayer
370
13
48
1
60
0
100
AcDbSpline
70
4
71
3
72
18
73
14
40
0
40
0
40
0
40
0
40
0.106618237534076
40
0.106618237534076
40
0.267069248485841
40
0.267069248485841
40
0.427520259437606
40
0.427520259437606
40
0.74842228134114
40
0.74842228134114
40
0.908873292292905
40
0.908873292292905
40
1
40
1
40
1
40
1
41
1
10
9.90416442064341
20
-2.0161346193899
30
0
41
1
10
10.0753405378167
20
-2.08344737401137
30
0
41
1
10
10.2465217934624
20
-2.14685237377697
30
0
41
1
10
10.6759683389597
20
-2.29507590712393
30
0
41
1
10
10.9345644148132
20
-2.37461303855613
30
0
41
1
10
11.4544940557301
20
-2.51283378269719
30
0
41
1
10
11.716389118996
20
-2.57143301717736
30
0
41
1
10
12.4945652122689
20
-2.71033548435898
30
0
41
1
10
13.0088206758806
20
-2.75544611497708
30
0
41
1
10
13.7819881358352
20
-2.75045434108247
30
0
41
1
10
14.0402025380698
20
-2.73684645090717
30
0
41
1
10
14.4472448640018
20
-2.69625238117351
30
0
41
1
10
14.5953551656616
20
-2.67751393596271
30
0
41
1
10
14.7435099189636
20
-2.65492035882812
30
0
0
SPLINE
5
B2
100
AcDbEntity
8
1
62
256
6
ByLayer
370
18
48
1
60
0
100
AcDbSpline
70
4
71
3
72
30
73
26
40
0
40
0
40
0
40
0
40
0.249999999999999
40
0.249999999999999
40
0.499999999999998
40
0.499999999999998
40
0.624999999999992
40
0.624999999999992
40
0.687499999999989
40
0.687499999999989
40
0.749999999999986
40
0.749999999999986
40
0.812499999999984
40
0.812499999999984
40
0.843749999999986
40
0.843749999999986
40
0.874999999999989
40
0.874999999999989
40
0.906249999999992
40
0.906249999999992
40
0.937499999999995
40
0.937499999999995
40
0.968749999999997
40
0.968749999999997
40
1
40
1
40
1
40
1
41
1
10
26.7196562158089
20
0.988804186847119
30
0
41
1
10
26.9101175437905
20
0.839980224436516
30
0
41
1
10
27.1056874687066
20
0.70279785698682
30
0
41
1
10
27.4975788474284
20
0.469590129626937
30
0
41
1
10
27.6945525851273
20
0.372199728212991
30
0
41
1
10
27.9919592891864
20
0.262485247667883
30
0
41
1
10
28.0919700451814
20
0.231915728859065
30
0
41
1
10
28.2402084177762
20
0.197595774264442
30
0
41
1
10
28.2893083371221
20
0.18805771124596
30
0
41
1
10
28.3868109962784
20
0.173044556171959
30
0
41
1
10
28.43535892835
20
0.167135878384528
30
0
41
1
10
28.528607634169
20
0.167743991611331
30
0
41
1
10
28.5727775257337
20
0.173578402650833
30
0
41
1
10
28.6327013806413
20
0.196594891146077
30
0
41
1
10
28.6519413925833
20
0.206425677399352
30
0
41
1
10
28.6870835107463
20
0.23055409315333
30
0
41
1
10
28.7030383251629
20
0.244763746029264
30
0
41
1
10
28.7309711472467
20
0.278461967985805
30
0
41
1
10
28.7427373022474
20
0.298149674699602
30
0
41
1
10
28.7603999683155
20
0.341547533529024
30
0
41
1
10
28.7665736099364
20
0.365431477827002
30
0
41
1
10
28.7737359623056
20
0.417258060119366
30
0
41
1
10
28.7745881426419
20
0.444353538843274
30
0
41
1
10
28.7718954031158
20
0.500449298467856
30
0
41
1
10
28.7683189464237
20
0.529585489743226
30
0
41
1
10
28.7630794666005
20
0.558670857666783
30
0
0
SPLINE
5
B3
100
AcDbEntity
8
1
62
256
6
ByLayer
370
18
48
1
60
0
100
AcDbSpline
70
4
71
3
72
8
73
4
40
0
40
0
40
0
40
0
40
1
40
1
40
1
40
1
41
1
10
4.08293059437975
20
1.08783989928119
30
0
41
1
10
4.0954584682114
20
1.07495656493526
30
0
41
1
10
4.10924503896621
20
1.06335394359573
30
0
41
1
10
4.12447595544486
20
1.05321893046946
30
0
0
SPLINE
5
B4
100
AcDbEntity
8
1
62
256
6
ByLayer
370
18
48
1
60
0
100
AcDbSpline
70
4
71
3
72
8
73
4
40
0
40
0
40
0
40
0
40
1
40
1
40
1
40
1
41
1
10
9.85087415229717
20
2.21062840280223
30
0
41
1
10
9.69994328700631
20
2.15651936027623
30
0
41
1
10
9.5483346581922
20
2.09993010119126
30
0
41
1
10
9.39593117261015
20
2.04126823607459
30
0
0
SPLINE
5
B5
100
AcDbEntity
8
1
62
256
6
ByLayer
370
18
48
1
60
0
100
AcDbSpline
70
4
71
3
72
14
73
10
40
0
40
0
40
0
40
0
40
0.25
40
0.25
40
0.5
40
0.5
40
0.75
40
0.75
40
1
40
1
40
1
40
1
41
1
10
4.25133983453418
20
-2.41890156889747
30
0
41
1
10
4.23069184356342
20
-2.41327672048328
30
0
41
1
10
4.2098951608472
20
-2.41022947913058
30
0
41
1
10
4.16796687195315
20
-2.4101732629766
30
0
41
1
10
4.14675460346717
20
-2.41328835459157
30
0
41
1
10
4.10666589919938
20
-2.42675252131593
30
0
41
1
10
4.08730044393701
20
-2.43735552678649
30
0
41
1
10
4.05375784451638
20
-2.4653605787519
30
0
41
1
10
4.03902164437392
20
-2.48327462334979
30
0
41
1
10
4.02782965189664
20
-2.50345010309997
30
0
0
SPLINE
5
B6
100
AcDbEntity
8
1
62
256
6
ByLayer
370
18
48
1
60
0
100
AcDbSpline
70
4
71
3
72
58
73
54
40
0
40
0
40
0
40
0
40
0.0625000000000068
40
0.0625000000000068
40
0.125000000000014
40
0.125000000000014
40
0.250000000000027
40
0.250000000000027
40
0.375000000000041
40
0.375000000000041
40
0.437500000000048
40
0.437500000000048
40
0.500000000000056
40
0.500000000000056
40
0.562500000000064
40
0.562500000000064
40
0.625000000000071
40
0.625000000000071
40
0.628906250000071
40
0.628906250000071
40
0.630859375000071
40
0.630859375000071
40
0.632812500000071
40
0.632812500000071
40
0.640625000000069
40
0.640625000000069
40
0.656250000000065
40
0.656250000000065
40
0.687500000000058
40
0.687500000000058
40
0.703125000000055
40
0.703125000000055
40
0.718750000000052
40
0.718750000000052
40
0.726562500000051
40
0.726562500000051
40
0.734375000000049
40
0.734375000000049
40
0.750000000000046
40
0.750000000000046
40
0.765625000000043
40
0.765625000000043
40
0.78125000000004
40
0.78125000000004
40
0.812500000000034
40
0.812500000000034
40
0.843750000000028
40
0.843750000000028
40
0.875000000000022
40
0.875000000000022
40
0.937500000000011
40
0.937500000000011
40
1
40
1
40
1
40
1
41
1
10
9.85087415229719
20
-2.21062840280223
30
0
41
1
10
9.63448671854201
20
-2.13305303852812
30
0
41
1
10
9.41670617244159
20
-2.05037970100983
30
0
41
1
10
8.97766873690662
20
-1.87723943518782
30
0
41
1
10
8.75621203086479
20
-1.78667530013226
30
0
41
1
10
8.09141461681088
20
-1.51018805210762
30
0
41
1
10
7.64557980576814
20
-1.3186096124185
30
0
41
1
10
6.73971213123613
20
-0.947981899238385
30
0
41
1
10
6.27957938991651
20
-0.769171592862676
30
0
41
1
10
5.57321361464994
20
-0.530326573324459
30
0
41
1
10
5.33508885103265
20
-0.455573495351047
30
0
41
1
10
4.85293034248244
20
-0.318462902394913
30
0
41
1
10
4.60941636887264
20
-0.256278767264035
30
0
41
1
10
4.11959778946152
20
-0.14703320309286
30
0
41
1
10
3.87270001712832
20
-0.0998284689661944
30
0
41
1
10
3.37684631126245
20
-0.0218088942527288
30
0
41
1
10
3.12780270082885
20
0.0090568407635203
30
0
41
1
10
2.8619434986212
20
0.032723749188392
30
0
41
1
10
2.84631241365088
20
0.0335785662389867
30
0
41
1
10
2.82293659325737
20
0.0306327609094126
30
0
41
1
10
2.81518681524085
20
0.0290404222770348
30
0
41
1
10
2.80045680348388
20
0.024270904072722
30
0
41
1
10
2.7935674419914
20
0.0206688176418481
30
0
41
1
10
2.75914927244798
20
0.0025848331505927
30
0
41
1
10
2.73182929221042
20
-0.0123107420820929
30
0
41
1
10
2.65069989170075
20
-0.0583458158503731
30
0
41
1
10
2.59751544235738
20
-0.0909530193996773
30
0
41
1
10
2.44324608847296
20
-0.194616580934195
30
0
41
1
10
2.3472102398907
20
-0.27115233472054
30
0
41
1
10
2.21986982963773
20
-0.403992313256424
30
0
41
1
10
2.17991597875243
20
-0.451824885339931
30
0
41
1
10
2.10964438342722
20
-0.553695129385773
30
0
41
1
10
2.07970776515697
20
-0.607049726430205
30
0
41
1
10
2.04440858896697
20
-0.691477399879147
30
0
41
1
10
2.03423526989559
20
-0.720501487536097
30
0
41
1
10
2.0179074743233
20
-0.778492169844696
30
0
41
1
10
2.0116645276664
20
-0.807626725371875
30
0
41
1
10
1.99867926610375
20
-0.895419860122672
30
0
41
1
10
1.99783140872552
20
-0.955277745728637
30
0
41
1
10
2.01071458332709
20
-1.07103140238334
30
0
41
1
10
2.02416610914085
20
-1.12705499738561
30
0
41
1
10
2.06231431914955
20
-1.23556559772356
30
0
41
1
10
2.08644432166508
20
-1.28660462239387
30
0
41
1
10
2.1697654333573
20
-1.43256410066451
30
0
41
1
10
2.24042837295013
20
-1.52103014059361
30
0
41
1
10
2.39387252772249
20
-1.68044207294722
30
0
41
1
10
2.47719043742131
20
-1.75216448974948
30
0
41
1
10
2.65210765886246
20
-1.88493526921678
30
0
41
1
10
2.74416944055156
20
-1.94610626097776
30
0
41
1
10
3.02561110690902
20
-2.11506545885686
30
0
41
1
10
3.22058756736635
20
-2.20927670740377
30
0
41
1
10
3.61854303378834
20
-2.3736896641274
30
0
41
1
10
3.82168272540588
20
-2.44357795047205
30
0
41
1
10
4.02782965188143
20
-2.50345010309562
30
0
0
SPLINE
5
B7
100
AcDbEntity
8
1
62
256
6
ByLayer
370
18
48
1
60
0
100
AcDbSpline
70
4
71
3
72
8
73
4
40
0
40
0
40
0
40
0
40
1
40
1
40
1
40
1
41
1
10
4.12386454042218
20
1.06029072897647
30
0
41
1
10
4.10910451958918
20
1.06826317424131
30
0
41
1
10
4.09547497380186
20
1.07746840262905
30
0
41
1
10
4.08293059437915
20
1.08783989928122
30
0
0
SPLINE
5
B8
100
AcDbEntity
8
1
62
256
6
ByLayer
370
18
48
1
60
0
100
AcDbSpline
70
4
71
3
72
16
73
12
40
0
40
0
40
0
40
0
40
0.216826169243544
40
0.216826169243544
40
0.433652338487089
40
0.433652338487089
40
0.650478507730633
40
0.650478507730633
40
0.867304676974178
40
0.867304676974178
40
1
40
1
40
1
40
1
41
1
10
6.46860048977078
20
-2.64271925857648
30
0
41
1
10
6.6806361906124
20
-2.63376402463311
30
0
41
1
10
6.89233777337549
20
-2.6165846554843
30
0
41
1
10
7.31507493105056
20
-2.56688332985428
30
0
41
1
10
7.52609044188296
20
-2.53386144532456
30
0
41
1
10
7.94937690798221
20
-2.45332594554657
30
0
41
1
10
8.16183356888737
20
-2.40554226773378
30
0
41
1
10
8.58420296291632
20
-2.29794279782408
30
0
41
1
10
8.79459275661125
20
-2.23810074831638
30
0
41
1
10
9.13269571556373
20
-2.12981530138549
30
0
41
1
10
9.26075299722729
20
-2.08598792231499
30
0
41
1
10
9.38874673185211
20
-2.0400788317182
30
0
0
SPLINE
5
B9
100
AcDbEntity
8
1
62
256
6
ByLayer
370
18
48
1
60
0
100
AcDbSpline
70
4
71
3
72
24
73
20
40
0
40
0
40
0
40
0
40
0.108734527732908
40
0.108734527732908
40
0.220142711766294
40
0.220142711766294
40
0.331550895799681
40
0.331550895799681
40
0.442959079833067
40
0.442959079833067
40
0.554367263866454
40
0.554367263866454
40
0.66577544789984
40
0.66577544789984
40
0.777183631933227
40
0.777183631933227
40
0.888591815966614
40
0.888591815966614
40
1
40
1
40
1
40
1
41
1
10
21.0381951515601
20
2.6586324557147
30
0
41
1
10
21.2448845610961
20
2.65909428431991
30
0
41
1
10
21.4522644279044
20
2.65112610959221
30
0
41
1
10
21.8694244199549
20
2.62071578285855
30
0
41
1
10
22.0795723167848
20
2.59820059472321
30
0
41
1
10
22.4992390563379
20
2.53954699204667
30
0
41
1
10
22.7088135864489
20
2.50201175759204
30
0
41
1
10
23.1274724206384
20
2.41245199858884
30
0
41
1
10
23.3368613274085
20
2.36021493354406
30
0
41
1
10
23.7567091856356
20
2.24348647466283
30
0
41
1
10
23.9668070004903
20
2.17880222524985
30
0
41
1
10
24.389040188844
20
2.03451416598625
30
0
41
1
10
24.6018463726169
20
1.95572645938248
30
0
41
1
10
25.0257120716392
20
1.78757484732068
30
0
41
1
10
25.2371734391851
20
1.69852885564484
30
0
41
1
10
25.6605568467687
20
1.51093845749938
30
0
41
1
10
25.8721983098821
20
1.41139793499048
30
0
41
1
10
26.2964825083905
20
1.20454351126747
30
0
41
1
10
26.5086885453726
20
1.09788306662404
30
0
41
1
10
26.719656215809
20
0.988804186847091
30
0
0
SPLINE
5
BA
100
AcDbEntity
8
1
62
256
6
ByLayer
370
18
48
1
60
0
100
AcDbSpline
70
4
71
3
72
14
73
10
40
0
40
0
40
0
40
0
40
0.25
40
0.25
40
0.5
40
0.5
40
0.75
40
0.75
40
1
40
1
40
1
40
1
41
1
10
6.46842802977397
20
-2.64272654046724
30
0
41
1
10
6.28022338581275
20
-2.65063346666628
30
0
41
1
10
6.09338532779603
20
-2.65188875891985
30
0
41
1
10
5.72138570817589
20
-2.64342103796523
30
0
41
1
10
5.5362640706918
20
-2.63318197088941
30
0
41
1
10
5.16718978014768
20
-2.59834427640215
30
0
41
1
10
4.98322776323164
20
-2.57384744129348
30
0
41
1
10
4.61609720387676
20
-2.50885508810367
30
0
41
1
10
4.4326360007222
20
-2.46828959186308
30
0
41
1
10
4.25133983540752
20
-2.41890156913553
30
0
0
SPLINE
5
BB
100
AcDbEntity
8
1
62
256
6
ByLayer
370
18
48
1
60
0
100
AcDbSpline
70
4
71
3
72
8
73
4
40
0
40
0
40
0
40
0
40
1
40
1
40
1
40
1
41
1
10
29.0428110817398
20
-2.77697328935409
30
0
41
1
10
29.0477404802293
20
-2.7639436225997
30
0
41
1
10
29.0526655320505
20
-2.75090807534858
30
0
41
1
10
29.0575860930161
20
-2.73786703658024
30
0
0
SPLINE
5
BC
100
AcDbEntity
8
1
62
256
6
ByLayer
370
18
48
1
60
0
100
AcDbSpline
70
4
71
3
72
16
73
12
40
0
40
0
40
0
40
0
40
0.25
40
0.25
40
0.500000000000001
40
0.500000000000001
40
0.625000000000001
40
0.625000000000001
40
0.75
40
0.75
40
1
40
1
40
1
40
1
41
1
10
28.7630794666005
20
0.558670857666783
30
0
41
1
10
28.7579314330453
20
0.587248589634299
30
0
41
1
10
28.7566150642051
20
0.616466187730538
30
0
41
1
10
28.7624742445759
20
0.676590056635405
30
0
41
1
10
28.769654896319
20
0.706695785047089
30
0
41
1
10
28.7882582671817
20
0.750096123480688
30
0
41
1
10
28.7955279646305
20
0.764214957342887
30
0
41
1
10
28.8138306054715
20
0.789928483065324
30
0
41
1
10
28.825003546003
20
0.801661368200996
30
0
41
1
10
28.861931900126
20
0.831173948213234
30
0
41
1
10
28.8917187115315
20
0.844004800164981
30
0
41
1
10
28.9225383107206
20
0.85127881425089
30
0
0
SPLINE
5
BD
100
AcDbEntity
8
1
62
256
6
ByLayer
370
18
48
1
60
0
100
AcDbSpline
70
4
71
3
72
12
73
8
40
0
40
0
40
0
40
0
40
0.250000000000004
40
0.250000000000004
40
0.500000000000008
40
0.500000000000008
40
1
40
1
40
1
40
1
41
1
10
29.0575860930019
20
-2.73786703657331
30
0
41
1
10
29.0625892462612
20
-2.72460710217274
30
0
41
1
10
29.0672161193075
20
-2.71098585865337
30
0
41
1
10
29.0742586313269
20
-2.68666745341665
30
0
41
1
10
29.076630298293
20
-2.67604236747698
30
0
41
1
10
29.0796395064825
20
-2.65318962827806
30
0
41
1
10
29.0767280790592
20
-2.64905770487036
30
0
41
1
10
29.0716412854324
20
-2.65162660333965
30
0
0
SPLINE
5
BE
100
AcDbEntity
8
1
62
256
6
ByLayer
370
18
48
1
60
0
100
AcDbSpline
70
4
71
3
72
14
73
10
40
0
40
0
40
0
40
0
40
0.395214459920128
40
0.395214459920128
40
0.598880732946826
40
0.598880732946826
40
0.802547005973524
40
0.802547005973524
40
1
40
1
40
1
40
1
41
1
10
29.0253134942578
20
-2.65388362097204
30
0
41
1
10
28.5217785107936
20
-2.67703798202837
30
0
41
1
10
28.0215720540551
20
-2.6551332760514
30
0
41
1
10
27.2604215780508
20
-2.55621629007328
30
0
41
1
10
27.0004311027512
20
-2.51093613529363
30
0
41
1
10
26.4800723421926
20
-2.3982444766236
30
0
41
1
10
26.2214941759581
20
-2.33124833406075
30
0
41
1
10
25.7138138353843
20
-2.18024878626366
30
0
41
1
10
25.4646239974004
20
-2.09687694374904
30
0
41
1
10
25.2154462235743
20
-2.0052980916193
30
0
0
SPLINE
5
BF
100
AcDbEntity
8
1
62
256
6
ByLayer
370
13
48
1
60
0
100
AcDbSpline
70
4
71
3
72
26
73
22
40
0
40
0
40
0
40
0
40
0.106937711976171
40
0.106937711976171
40
0.210709760093956
40
0.210709760093956
40
0.26259578415285
40
0.26259578415285
40
0.314481808211744
40
0.314481808211744
40
0.522025904447324
40
0.522025904447324
40
0.625797952565114
40
0.625797952565114
40
0.67768397662401
40
0.67768397662401
40
0.729570000682905
40
0.729570000682905
40
0.937114096918483
40
0.937114096918483
40
1
40
1
40
1
40
1
41
1
10
25.2154452849599
20
-2.00529774665577
30
0
41
1
10
24.9505860053134
20
-1.90795554034614
30
0
41
1
10
24.685740355071
20
-1.80134083768775
30
0
41
1
10
24.1622447295125
20
-1.57497181234845
30
0
41
1
10
23.903587781651
20
-1.45578310833301
30
0
41
1
10
23.5131742008295
20
-1.26693484626284
30
0
41
1
10
23.3829136950807
20
-1.20239724396066
30
0
41
1
10
23.1235464448636
20
-1.0714038119381
30
0
41
1
10
22.994195257391
20
-1.00483709752743
30
0
41
1
10
22.3486227902901
20
-0.667518635928701
30
0
41
1
10
21.8360513997595
20
-0.383090623888279
30
0
41
1
10
21.063348184741
20
0.0478506981899045
30
0
41
1
10
20.8050953299017
20
0.192156112482166
30
0
41
1
10
20.4157175495512
20
0.407839875222948
30
0
41
1
10
20.285273427246
20
0.47970734753963
30
0
41
1
10
20.0252918715606
20
0.621646910247733
30
0
41
1
10
19.8957047682951
20
0.691755313135445
30
0
41
1
10
19.2492829402704
20
1.03714948766753
30
0
41
1
10
18.7370782542308
20
1.29710999111424
30
0
41
1
10
18.0679942981996
20
1.60199698367521
30
0
41
1
10
17.9122752794155
20
1.67049499988744
30
0
41
1
10
17.756243756714
20
1.73629784526039
30
0
0
SPLINE
5
C0
100
AcDbEntity
8
1
62
256
6
ByLayer
370
13
48
1
60
0
100
AcDbSpline
70
4
71
3
72
24
73
20
40
0
40
0
40
0
40
0
40
0.170118618845681
40
0.170118618845681
40
0.255177928268521
40
0.255177928268521
40
0.340237237691361
40
0.340237237691361
40
0.510355856537042
40
0.510355856537042
40
0.595415165959882
40
0.595415165959882
40
0.680474475382722
40
0.680474475382722
40
0.850593094228402
40
0.850593094228402
40
0.935652403651242
40
0.935652403651242
40
1
40
1
40
1
40
1
41
1
10
4.25044245051672
20
1.04614949086641
30
0
41
1
10
4.25051074979868
20
1.20814278224918
30
0
41
1
10
4.25056607056951
20
1.36128376897912
30
0
41
1
10
4.25063680020327
20
1.5779015884626
30
0
41
1
10
4.25065836731034
20
1.6480887148999
30
0
41
1
10
4.25069781134488
20
1.78146170486349
30
0
41
1
10
4.25071579895717
20
1.84496856620893
30
0
41
1
10
4.25076641426276
20
2.02613589114966
30
0
41
1
10
4.25079582020371
20
2.13481562884098
30
0
41
1
10
4.25083928957181
20
2.27746137684977
30
0
41
1
10
4.25085352821614
20
2.32115606084267
30
0
41
1
10
4.2508823815009
20
2.40088576046114
30
0
41
1
10
4.25089705169614
20
2.43701463834225
30
0
41
1
10
4.25094198957618
20
2.53231091676832
30
0
41
1
10
4.2509734268009
20
2.57904766983393
30
0
41
1
10
4.25102484988804
20
2.62432740457143
30
0
41
1
10
4.2510426934781
20
2.6352589669867
30
0
41
1
10
4.25107522926558
20
2.64684472661321
30
0
41
1
10
4.2510895715663
20
2.64931113249415
30
0
41
1
10
4.25110406688219
20
2.64928123031791
30
0
0
SPLINE
5
C1
100
AcDbEntity
8
1
62
256
6
ByLayer
370
18
48
1
60
0
100
AcDbSpline
70
4
71
3
72
12
73
8
40
0
40
0
40
0
40
0
40
0.12916120936857
40
0.12916120936857
40
0.564580604684285
40
0.564580604684285
40
1
40
1
40
1
40
1
41
1
10
4.02767578825262
20
-2.78493711038158
30
0
41
1
10
4.02768283916558
20
-2.78496483224126
30
0
41
1
10
4.02768995251239
20
-2.78338633550769
30
0
41
1
10
4.02772099301768
20
-2.7694642006972
30
0
41
1
10
4.02774498742261
20
-2.74083955283339
30
0
41
1
10
4.02779055651678
20
-2.64838444778579
30
0
41
1
10
4.02781224360768
20
-2.58359683459969
30
0
41
1
10
4.02782965189658
20
-2.50345010309999
30
0
0
SPLINE
5
C2
100
AcDbEntity
8
1
62
256
6
ByLayer
370
13
48
1
60
0
100
AcDbSpline
70
4
71
3
72
10
73
6
40
0
40
0
40
0
40
0
40
0.5
40
0.5
40
1
40
1
40
1
40
1
41
1
10
4.02723345211399
20
1.19327546435514
30
0
41
1
10
4.037668023023
20
1.17413034662491
30
0
41
1
10
4.0511969277417
20
1.15597233474836
30
0
41
1
10
4.08390426401081
20
1.12356477817284
30
0
41
1
10
4.10274621373318
20
1.10949496653808
30
0
41
1
10
4.12447595544486
20
1.09785092574899
30
0
0
SPLINE
5
C3
100
AcDbEntity
8
1
62
256
6
ByLayer
370
18
48
1
60
0
100
AcDbSpline
70
4
71
3
72
10
73
6
40
0
40
0
40
0
40
0
40
0.5
40
0.5
40
1
40
1
40
1
40
1
41
1
10
4.0829305943781
20
1.08783989928202
30
0
41
1
10
4.06643145623127
20
1.10148112857601
30
0
41
1
10
4.05261028225195
20
1.11769586550514
30
0
41
1
10
4.03307403837823
20
1.15347210688321
30
0
41
1
10
4.02722806331431
20
1.17315808106912
30
0
41
1
10
4.02723345211422
20
1.19327546435275
30
0
0
SPLINE
5
C4
100
AcDbEntity
8
1
62
256
6
ByLayer
370
18
48
1
60
0
100
AcDbSpline
70
4
71
3
72
8
73
4
40
0
40
0
40
0
40
0
40
1
40
1
40
1
40
1
41
1
10
29.0716412854348
20
-2.65162660333843
30
0
41
1
10
29.0567074261324
20
-2.65916840099933
30
0
41
1
10
29.0430766052431
20
-2.66295911975905
30
0
41
1
10
29.0307719590213
20
-2.66293215689152
30
0
0
SPLINE
5
C5
100
AcDbEntity
8
1
62
256
6
ByLayer
370
18
48
1
60
0
100
AcDbSpline
70
4
71
3
72
20
73
16
40
0
40
0
40
0
40
0
40
0.250000000000018
40
0.250000000000018
40
0.500000000000037
40
0.500000000000037
40
0.625000000000028
40
0.625000000000028
40
0.750000000000018
40
0.750000000000018
40
0.875000000000009
40
0.875000000000009
40
0.937500000000004
40
0.937500000000004
40
1
40
1
40
1
40
1
41
1
10
28.9225383107205
20
0.851278814250776
30
0
41
1
10
29.0000092292345
20
0.869563430772217
30
0
41
1
10
29.0768402131246
20
0.890537599693857
30
0
41
1
10
29.2269660876005
20
0.940725134355688
30
0
41
1
10
29.3008555721771
20
0.969886651108652
30
0
41
1
10
29.4056672511285
20
1.02572994568021
30
0
41
1
10
29.4393533249796
20
1.04628836316095
30
0
41
1
10
29.5028329790944
20
1.09356891484447
30
0
41
1
10
29.5323226341528
20
1.12009972461451
30
0
41
1
10
29.5825410558299
20
1.18083987523002
30
0
41
1
10
29.6033490560569
20
1.21554533832892
30
0
41
1
10
29.6222430031333
20
1.2723238401914
30
0
41
1
10
29.6265361890564
20
1.29219369844796
30
0
41
1
10
29.6308266961385
20
1.33185266995326
30
0
41
1
10
29.6309331217091
20
1.35189727647881
30
0
41
1
10
29.6291899614693
20
1.37209361647146
30
0
0
SPLINE
5
C6
100
AcDbEntity
8
1
62
256
6
ByLayer
370
18
48
1
60
0
100
AcDbSpline
70
4
71
3
72
8
73
4
40
0
40
0
40
0
40
0
40
1
40
1
40
1
40
1
41
1
10
6.09541069250147
20
2.65002004642744
30
0
41
1
10
6.21934375097214
20
2.65029144377155
30
0
41
1
10
6.34363611370352
20
2.64796934664798
30
0
41
1
10
6.4684280297719
20
2.64272654046732
30
0
0
SPLINE
5
C7
100
AcDbEntity
8
1
62
256
6
ByLayer
370
18
48
1
60
0
100
AcDbSpline
70
4
71
3
72
14
73
10
40
0
40
0
40
0
40
0
40
0.0363336318566606
40
0.0363336318566606
40
0.551732069328585
40
0.551732069328585
40
0.809431288064548
40
0.809431288064548
40
1
40
1
40
1
40
1
41
1
10
13.6694439737013
20
-2.65375080101418
30
0
41
1
10
13.6331309717335
20
-2.65373825687678
30
0
41
1
10
13.596829761851
20
-2.6534977647672
30
0
41
1
10
13.0457375003594
20
-2.6464047078498
30
0
41
1
10
12.5320687152163
20
-2.59319161033977
30
0
41
1
10
11.7549850764565
20
-2.44550874018432
30
0
41
1
10
11.4936017863257
20
-2.38457859280547
30
0
41
1
10
11.0422205210444
20
-2.26143837160626
30
0
41
1
10
10.85103604498
20
-2.20371569539591
30
0
41
1
10
10.6602527388873
20
-2.14097654200862
30
0
0
SPLINE
5
C8
100
AcDbEntity
8
1
62
256
6
ByLayer
370
13
48
1
60
0
100
AcDbSpline
70
4
71
3
72
22
73
18
40
0
40
0
40
0
40
0
40
0.0315355578010725
40
0.0315355578010725
40
0.273651668350805
40
0.273651668350805
40
0.334180695988237
40
0.334180695988237
40
0.394709723625669
40
0.394709723625669
40
0.515767778900535
40
0.515767778900535
40
0.757883889450268
40
0.757883889450268
40
0.878941944725134
40
0.878941944725134
40
1
40
1
40
1
40
1
41
1
10
10.6602527390077
20
-2.14097654204824
30
0
41
1
10
10.5930466383595
20
-2.11887579359524
30
0
41
1
10
10.5258903188782
20
-2.09615255067479
30
0
41
1
10
9.9434530589003
20
-1.89370377519109
30
0
41
1
10
9.43029770733074
20
-1.67866291613791
30
0
41
1
10
8.78340777197519
20
-1.37605417790229
30
0
41
1
10
8.65373636239659
20
-1.31383755405884
30
0
41
1
10
8.39369574951135
20
-1.18618257004732
30
0
41
1
10
8.26313638581632
20
-1.12060031258341
30
0
41
1
10
7.87318010708228
20
-0.921171386436498
30
0
41
1
10
7.61461259413676
20
-0.784416952946458
30
0
41
1
10
6.84079738111964
20
-0.366971602812356
30
0
41
1
10
6.3274345134061
20
-0.0790979103666984
30
0
41
1
10
5.55249888529062
20
0.351231248590096
30
0
41
1
10
5.29304982562275
20
0.494411883026629
30
0
41
1
10
4.77147493098829
20
0.775956174791105
30
0
41
1
10
4.51108988105545
20
0.913330252734738
30
0
41
1
10
4.25044245051663
20
1.04614949086647
30
0
0
SPLINE
5
C9
100
AcDbEntity
8
1
62
256
6
ByLayer
370
18
48
1
60
0
100
AcDbSpline
70
4
71
3
72
18
73
14
40
0
40
0
40
0
40
0
40
0.007335397125008
40
0.007335397125008
40
0.174929473368416
40
0.174929473368416
40
0.342523549611825
40
0.342523549611825
40
0.677711702098642
40
0.677711702098642
40
0.845305778342051
40
0.845305778342051
40
1
40
1
40
1
40
1
41
1
10
8.07014032960001
20
-1.50060374297709
30
0
41
1
10
8.06639354522247
20
-1.5038592652827
30
0
41
1
10
8.06264722838952
20
-1.50711621158388
30
0
41
1
10
7.97331934268149
20
-1.58481659876912
30
0
41
1
10
7.88791334454595
20
-1.66000158552055
30
0
41
1
10
7.71589690329927
20
-1.81011470647829
30
0
41
1
10
7.62883448797942
20
-1.88542315216378
30
0
41
1
10
7.36661223901424
20
-2.10474060547568
30
0
41
1
10
7.191230006355
20
-2.24135578133345
30
0
41
1
10
6.91709570107747
20
-2.41935869281699
30
0
41
1
10
6.8233159355776
20
-2.47444449146417
30
0
41
1
10
6.64301153549926
20
-2.56803218332365
30
0
41
1
10
6.55609292386362
20
-2.60780416086931
30
0
41
1
10
6.46852177182467
20
-2.64275067346128
30
0
0
SPLINE
5
CA
100
AcDbEntity
8
1
62
256
6
ByLayer
370
13
48
1
60
0
100
AcDbSpline
70
4
71
3
72
14
73
10
40
0
40
0
40
0
40
0
40
0.0572335179188982
40
0.0572335179188982
40
0.528616758959449
40
0.528616758959449
40
0.764308379479725
40
0.764308379479725
40
1
40
1
40
1
40
1
41
1
10
4.25110410511425
20
-2.64928114566172
30
0
41
1
10
4.2511087580983
20
-2.64927013831274
30
0
41
1
10
4.25111342683252
20
-2.64900192225167
30
0
41
1
10
4.25115663945263
20
-2.64415731052
30
0
41
1
10
4.25119613200363
20
-2.62272217053504
30
0
41
1
10
4.25125339544664
20
-2.56518275240927
30
0
41
1
10
4.25127218226891
20
-2.54165905444043
30
0
41
1
10
4.25130790952846
20
-2.48611189655838
30
0
41
1
10
4.25132465998587
20
-2.45440877949295
30
0
41
1
10
4.25133983453415
20
-2.41890156891486
30
0
0
SPLINE
5
CB
100
AcDbEntity
8
1
62
256
6
ByLayer
370
18
48
1
60
0
100
AcDbSpline
70
4
71
3
72
22
73
18
40
0
40
0
40
0
40
0
40
0.124999999999996
40
0.124999999999996
40
0.187499999999996
40
0.187499999999996
40
0.249999999999997
40
0.249999999999997
40
0.374999999999997
40
0.374999999999997
40
0.499999999999998
40
0.499999999999998
40
0.749999999999999
40
0.749999999999999
40
0.874999999999999
40
0.874999999999999
40
1
40
1
40
1
40
1
41
1
10
26.7196562158086
20
0.988804186846892
30
0
41
1
10
26.7483161315828
20
0.865834916911041
30
0
41
1
10
26.7878842380539
20
0.742773375484148
30
0
41
1
10
26.8615345804155
20
0.558060116187903
30
0
41
1
10
26.8886359317139
20
0.496161554458382
30
0
41
1
10
26.9466296679529
20
0.374033313756911
30
0
41
1
10
26.9774580655734
20
0.313871982283359
30
0
41
1
10
27.0748977469054
20
0.135830130935346
30
0
41
1
10
27.146457555863
20
0.0203888147691771
30
0
41
1
10
27.3008596797952
20
-0.204932497948533
30
0
41
1
10
27.3828799580454
20
-0.313558874397671
30
0
41
1
10
27.6373884977207
20
-0.625482674639528
30
0
41
1
10
27.8195975516207
20
-0.817125756553764
30
0
41
1
10
28.1071384538847
20
-1.08608531077067
30
0
41
1
10
28.2049234632935
20
-1.17212937391543
30
0
41
1
10
28.4026412262869
20
-1.33674119037272
30
0
41
1
10
28.5027850629212
20
-1.41549755825446
30
0
41
1
10
28.6041225143282
20
-1.49095670301136
30
0
0
SPLINE
5
CC
100
AcDbEntity
8
1
62
256
6
ByLayer
370
18
48
1
60
0
100
AcDbSpline
70
4
71
3
72
20
73
16
40
0
40
0
40
0
40
0
40
0.124999999999999
40
0.124999999999999
40
0.249999999999999
40
0.249999999999999
40
0.499999999999997
40
0.499999999999997
40
0.624999999999998
40
0.624999999999998
40
0.749999999999998
40
0.749999999999998
40
0.874999999999999
40
0.874999999999999
40
1
40
1
40
1
40
1
41
1
10
29.0307719590229
20
-2.66293215689149
30
0
41
1
10
28.9909668937208
20
-2.66288139090409
30
0
41
1
10
28.9531422238791
20
-2.65687379359596
30
0
41
1
10
28.8816524429148
20
-2.63234706269452
30
0
41
1
10
28.8477756971383
20
-2.61364227017864
30
0
41
1
10
28.7546302625246
20
-2.53838648995304
30
0
41
1
10
28.7041036596712
20
-2.46382510653035
30
0
41
1
10
28.6466852045113
20
-2.31325513069251
30
0
41
1
10
28.6305638221813
20
-2.25596782892691
30
0
41
1
10
28.6057721497303
20
-2.13091840580907
30
0
41
1
10
28.596977074168
20
-2.06309865081573
30
0
41
1
10
28.5865297130038
20
-1.9169554204702
30
0
41
1
10
28.5848766113397
20
-1.838633145166
30
0
41
1
10
28.5889896448825
20
-1.67107834942942
30
0
41
1
10
28.5947865320946
20
-1.58250585325331
30
0
41
1
10
28.6041225143283
20
-1.49095670301136
30
0
0
SPLINE
5
CD
100
AcDbEntity
8
1
62
256
6
ByLayer
370
18
48
1
60
0
100
AcDbSpline
70
4
71
3
72
44
73
40
40
0
40
0
40
0
40
0
40
0.0999675107697688
40
0.0999675107697688
40
0.124959388462212
40
0.124959388462212
40
0.149951266154655
40
0.149951266154655
40
0.199935021539539
40
0.199935021539539
40
0.299902532309307
40
0.299902532309307
40
0.324894410001749
40
0.324894410001749
40
0.349886287694191
40
0.349886287694191
40
0.399870043079075
40
0.399870043079075
40
0.499837553848842
40
0.499837553848842
40
0.549821309233726
40
0.549821309233726
40
0.59980506461861
40
0.59980506461861
40
0.699772575388377
40
0.699772575388377
40
0.749756330773261
40
0.749756330773261
40
0.799740086158145
40
0.799740086158145
40
0.899707596927912
40
0.899707596927912
40
0.924699474620355
40
0.924699474620355
40
0.949691352312797
40
0.949691352312797
40
0.999675107697681
40
0.999675107697681
40
1
40
1
40
1
40
1
41
1
10
29.0428110817398
20
-2.77697328935409
30
0
41
1
10
28.5210193672476
20
-2.81599020997055
30
0
41
1
10
28.0020594881235
20
-2.80450181748421
30
0
41
1
10
27.3488785904244
20
-2.72786712261299
30
0
41
1
10
27.2178713277813
20
-2.70938306928207
30
0
41
1
10
26.9570772280208
20
-2.66653125526915
30
0
41
1
10
26.8270745474056
20
-2.6421452874776
30
0
41
1
10
26.4378635701023
20
-2.56045603295422
30
0
41
1
10
26.1794571763952
20
-2.49462668222236
30
0
41
1
10
25.4050087517649
20
-2.26536645091215
30
0
41
1
10
24.8896503815943
20
-2.07021924105666
30
0
41
1
10
24.2378823331989
20
-1.78162939784713
30
0
41
1
10
24.1068507978922
20
-1.72152889631315
30
0
41
1
10
23.8456895444375
20
-1.59804496761987
30
0
41
1
10
23.7155072698793
20
-1.53465455755571
30
0
41
1
10
23.3258940370831
20
-1.33998029648461
30
0
41
1
10
23.0673747031462
20
-1.20422320856446
30
0
41
1
10
22.2926656696376
20
-0.783654699255351
30
0
41
1
10
21.7776159413061
20
-0.485070991006069
30
0
41
1
10
20.9963636022854
20
-0.0276844222229613
30
0
41
1
10
20.7338735480534
20
0.126752316826782
30
0
41
1
10
20.2138990031908
20
0.430620141751803
30
0
41
1
10
19.9551451854154
20
0.580393057906804
30
0
41
1
10
19.1800347502831
20
1.01911926706092
30
0
41
1
10
18.6650816161418
20
1.29789748040281
30
0
41
1
10
17.8848356974715
20
1.67830186084794
30
0
41
1
10
17.6222930537366
20
1.79911901158749
30
0
41
1
10
17.1013233757033
20
2.02155533360147
30
0
41
1
10
16.8422584492906
20
2.12361756005501
30
0
41
1
10
16.0668430742132
20
2.40003306666733
30
0
41
1
10
15.5519133587522
20
2.54425044671669
30
0
41
1
10
14.9023651584424
20
2.66676169718681
30
0
41
1
10
14.7721378114831
20
2.68835961417267
30
0
41
1
10
14.5108192040032
20
2.72555222237489
30
0
41
1
10
14.3796898127762
20
2.74113260149812
30
0
41
1
10
13.98830423125
20
2.77833666062651
30
0
41
1
10
13.7290698059712
20
2.79066741259078
30
0
41
1
10
13.4687810745668
20
2.79061349362223
30
0
41
1
10
13.4671001565003
20
2.79061262472948
30
0
41
1
10
13.4654192599018
20
2.790611235195
30
0
0
SPLINE
5
CE
100
AcDbEntity
8
1
62
256
6
ByLayer
370
18
48
1
60
0
100
AcDbSpline
70
4
71
3
72
18
73
14
40
0
40
0
40
0
40
0
40
0.25
40
0.25
40
0.499999999999999
40
0.499999999999999
40
0.624999999999999
40
0.624999999999999
40
0.75
40
0.75
40
0.875
40
0.875
40
1
40
1
40
1
40
1
41
1
10
29.6291899614694
20
-1.3720936164714
30
0
41
1
10
29.5870832026677
20
-1.48566349901887
30
0
41
1
10
29.5448124211781
20
-1.59906091000229
30
0
41
1
10
29.4596721244497
20
-1.82522615719839
30
0
41
1
10
29.4168453183335
20
-1.93809081479137
30
0
41
1
10
29.3524077550278
20
-2.10701476947594
30
0
41
1
10
29.3308855671197
20
-2.16317789900336
30
0
41
1
10
29.2876692717097
20
-2.27492500933394
30
0
41
1
10
29.2660059361556
20
-2.33061265216804
30
0
41
1
10
29.2226228565231
20
-2.44179791339525
30
0
41
1
10
29.2008889957658
20
-2.49724797666983
30
0
41
1
10
29.1571554162257
20
-2.60725250235788
30
0
41
1
10
29.1351579434081
20
-2.66181453079565
30
0
41
1
10
29.1130989644312
20
-2.71616936229446
30
0
0
SPLINE
5
CF
100
AcDbEntity
8
1
62
256
6
ByLayer
370
18
48
1
60
0
100
AcDbSpline
70
4
71
3
72
28
73
24
40
0
40
0
40
0
40
0
40
0.0284416022695253
40
0.0284416022695253
40
0.123089164021307
40
0.123089164021307
40
0.312384287524871
40
0.312384287524871
40
0.359708068400763
40
0.359708068400763
40
0.407031849276654
40
0.407031849276654
40
0.501679411028438
40
0.501679411028438
40
0.690974534532004
40
0.690974534532004
40
0.738298315407896
40
0.738298315407896
40
0.785622096283789
40
0.785622096283789
40
0.880269658035574
40
0.880269658035574
40
1
40
1
40
1
40
1
41
1
10
17.1881342522217
20
1.95607870424359
30
0
41
1
10
17.2660813138884
20
1.92440808083629
30
0
41
1
10
17.3438989988411
20
1.89200274571652
30
0
41
1
10
17.680198032323
20
1.74870362632308
30
0
41
1
10
17.9375791740433
20
1.63074292377945
30
0
41
1
10
18.7085669949705
20
1.25737087343816
30
0
41
1
10
19.2212927389967
20
0.982842504452464
30
0
41
1
10
19.8688969063077
20
0.620399509334959
30
0
41
1
10
19.9987422604673
20
0.546931836256675
30
0
41
1
10
20.2592975697968
20
0.398371257110398
30
0
41
1
10
20.3899454316875
20
0.323304236166337
30
0
41
1
10
20.7798111550049
20
0.0983815426629064
30
0
41
1
10
21.0383411593598
20
-0.0516012307456037
30
0
41
1
10
21.8119106598925
20
-0.498059381310043
30
0
41
1
10
22.3249709665523
20
-0.791005619078106
30
0
41
1
10
22.9716319844523
20
-1.13626923459188
30
0
41
1
10
23.1012225009295
20
-1.20429355309685
30
0
41
1
10
23.3611258102054
20
-1.33792783612256
30
0
41
1
10
23.4917352666822
20
-1.40367621854517
30
0
41
1
10
23.88267066704
20
-1.59542828585447
30
0
41
1
10
24.1416035401264
20
-1.71586744659109
30
0
41
1
10
24.7261992414095
20
-1.96972264422214
30
0
41
1
10
25.0513885409935
20
-2.09804474195269
30
0
41
1
10
25.3769702789304
20
-2.21104469395641
30
0
0
SPLINE
5
D0
100
AcDbEntity
8
1
62
256
6
ByLayer
370
13
48
1
60
0
100
AcDbSpline
70
4
71
3
72
14
73
10
40
0
40
0
40
0
40
0
40
0.155224815338497
40
0.155224815338497
40
0.366418611503875
40
0.366418611503875
40
0.577612407669252
40
0.577612407669252
40
1
40
1
40
1
40
1
41
1
10
25.3769702788341
20
-2.21104469392304
30
0
41
1
10
25.5661372193517
20
-2.27669903723853
30
0
41
1
10
25.7554366372858
20
-2.3371810056712
30
0
41
1
10
26.2033907263163
20
-2.46687918082279
30
0
41
1
10
26.4624609959715
20
-2.5313619405371
30
0
41
1
10
26.9840298100928
20
-2.63775904675322
30
0
41
1
10
27.2441738520679
20
-2.67916144736992
30
0
41
1
10
28.0216796938374
20
-2.76697048024397
30
0
41
1
10
28.5376796309709
20
-2.77735478315276
30
0
41
1
10
29.0575860930001
20
-2.73786703657342
30
0
0
SPLINE
5
D1
100
AcDbEntity
8
1
62
256
6
ByLayer
370
18
48
1
60
0
100
AcDbSpline
70
4
71
3
72
68
73
64
40
0
40
0
40
0
40
0
40
0.0096909189090759
40
0.0096909189090759
40
0.0450591003766089
40
0.0450591003766089
40
0.080427281844142
40
0.080427281844142
40
0.115795463311675
40
0.115795463311675
40
0.151163644779208
40
0.151163644779208
40
0.186531826246741
40
0.186531826246741
40
0.221900007714274
40
0.221900007714274
40
0.257268189181807
40
0.257268189181807
40
0.29263637064934
40
0.29263637064934
40
0.328004552116873
40
0.328004552116873
40
0.363372733584406
40
0.363372733584406
40
0.398740915051939
40
0.398740915051939
40
0.434109096519472
40
0.434109096519472
40
0.469477277987005
40
0.469477277987005
40
0.504845459454538
40
0.504845459454538
40
0.540213640922072
40
0.540213640922072
40
0.575581822389605
40
0.575581822389605
40
0.593265913123371
40
0.593265913123371
40
0.610950003857137
40
0.610950003857137
40
0.64631818532467
40
0.64631818532467
40
0.664002276058436
40
0.664002276058436
40
0.681686366792203
40
0.681686366792203
40
0.717054548259736
40
0.717054548259736
40
0.752422729727269
40
0.752422729727269
40
0.787790911194802
40
0.787790911194802
40
0.823159092662335
40
0.823159092662335
40
0.858527274129868
40
0.858527274129868
40
0.893895455597401
40
0.893895455597401
40
0.929263637064934
40
0.929263637064934
40
0.964631818532467
40
0.964631818532467
40
1
40
1
40
1
40
1
41
1
10
24.3593945996727
20
-2.04316922001289
30
0
41
1
10
24.301947107875
20
-2.06372874323378
30
0
41
1
10
24.2445155010523
20
-2.08384791206237
30
0
41
1
10
23.9775625808168
20
-2.17530556379498
30
0
41
1
10
23.7680089249289
20
-2.24013088652703
30
0
41
1
10
23.347604447173
20
-2.35743110150381
30
0
41
1
10
23.1370948191036
20
-2.41021110260402
30
0
41
1
10
22.7143048580987
20
-2.50101312024631
30
0
41
1
10
22.5012915112614
20
-2.5392624236259
30
0
41
1
10
22.0773315901599
20
-2.59851147541994
30
0
41
1
10
21.8657423365453
20
-2.62108973427678
30
0
41
1
10
21.4420072171127
20
-2.6517660787537
30
0
41
1
10
21.2301053651105
20
-2.65960965624308
30
0
41
1
10
20.8054517964689
20
-2.65750896788634
30
0
41
1
10
20.593731777135
20
-2.64677651748136
30
0
41
1
10
20.1720522380554
20
-2.61355057217784
30
0
41
1
10
19.9620590750914
20
-2.58978736529644
30
0
41
1
10
19.5422962406946
20
-2.52759311430995
30
0
41
1
10
19.3326597296116
20
-2.48908670659728
30
0
41
1
10
18.9136163155809
20
-2.3958430830634
30
0
41
1
10
18.7036947881326
20
-2.34256518897297
30
0
41
1
10
18.2828038027582
20
-2.22183205550246
30
0
41
1
10
18.07199150304
20
-2.15436393185584
30
0
41
1
10
17.6481675302961
20
-2.00836077417341
30
0
41
1
10
17.4352672015128
20
-1.92922334375751
30
0
41
1
10
17.0117989623495
20
-1.75872316819559
30
0
41
1
10
16.8001945219925
20
-1.66768049506968
30
0
41
1
10
16.3764730870887
20
-1.47736086367243
30
0
41
1
10
16.1644337504926
20
-1.37741972326353
30
0
41
1
10
15.7399863584146
20
-1.16997166313288
30
0
41
1
10
15.5287950495627
20
-1.06296819692264
30
0
41
1
10
15.1081185035662
20
-0.843485206099132
30
0
41
1
10
14.8983531609778
20
-0.731533556659457
30
0
41
1
10
14.4790089653918
20
-0.50489119491948
30
0
41
1
10
14.2698295321284
20
-0.389513240751171
30
0
41
1
10
13.9555727717026
20
-0.215033223595526
30
0
41
1
10
13.8506834427183
20
-0.156668208451009
30
0
41
1
10
13.6406905602826
20
-0.0399322448934925
30
0
41
1
10
13.5355925705959
20
0.0184992209860297
30
0
41
1
10
13.2200694810186
20
0.194239806956887
30
0
41
1
10
13.0093094143879
20
0.311808372916175
30
0
41
1
10
12.6912226763785
20
0.486584227809146
30
0
41
1
10
12.584928977297
20
0.544707230024784
30
0
41
1
10
12.3730589873448
20
0.659724003984422
30
0
41
1
10
12.2672915891719
20
0.71660887335139
30
0
41
1
10
11.9499462790317
20
0.885682249094742
30
0
41
1
10
11.7383275289801
20
0.995586898321676
30
0
41
1
10
11.3149077313791
20
1.20971636241165
30
0
41
1
10
11.1026744007311
20
1.31458136641004
30
0
41
1
10
10.6791079860869
20
1.51447277581175
30
0
41
1
10
10.4684941140849
20
1.60998082402969
30
0
41
1
10
10.0487775286546
20
1.78878754538877
30
0
41
1
10
9.83927582429413
20
1.87231313997907
30
0
41
1
10
9.42063250013729
20
2.03018506918963
30
0
41
1
10
9.21176533008114
20
2.10453560377343
30
0
41
1
10
8.79298975438689
20
2.23856952093829
30
0
41
1
10
8.58325921390121
20
2.2981840702455
30
0
41
1
10
8.16268905931042
20
2.40532347919157
30
0
41
1
10
7.9516351465073
20
2.45285617852181
30
0
41
1
10
7.52734236257592
20
2.53366303055802
30
0
41
1
10
7.31583200887621
20
2.56678252388102
30
0
41
1
10
6.89251406472113
20
2.61657569900328
30
0
41
1
10
6.6806534827551
20
2.63376329430713
30
0
41
1
10
6.46860048977078
20
2.64271925857648
30
0
0
SPLINE
5
D2
100
AcDbEntity
8
1
62
256
6
ByLayer
370
18
48
1
60
0
100
AcDbSpline
70
4
71
3
72
68
73
64
40
0
40
0
40
0
40
0
40
0.0332701179402493
40
0.0332701179402493
40
0.0665402358804986
40
0.0665402358804986
40
0.0998103538207479
40
0.0998103538207479
40
0.133080471760997
40
0.133080471760997
40
0.166350589701246
40
0.166350589701246
40
0.199620707641496
40
0.199620707641496
40
0.232890825581745
40
0.232890825581745
40
0.266160943521994
40
0.266160943521994
40
0.299431061462244
40
0.299431061462244
40
0.332701179402493
40
0.332701179402493
40
0.365971297342742
40
0.365971297342742
40
0.399241415282992
40
0.399241415282992
40
0.465781651163489
40
0.465781651163489
40
0.499051769103738
40
0.499051769103738
40
0.532321887043986
40
0.532321887043986
40
0.565592004984234
40
0.565592004984234
40
0.598862122924483
40
0.598862122924483
40
0.632132240864731
40
0.632132240864731
40
0.66540235880498
40
0.66540235880498
40
0.698672476745228
40
0.698672476745228
40
0.715307535715352
40
0.715307535715352
40
0.731942594685476
40
0.731942594685476
40
0.765212712625726
40
0.765212712625726
40
0.798482830565975
40
0.798482830565975
40
0.831752948506224
40
0.831752948506224
40
0.865023066446474
40
0.865023066446474
40
0.898293184386723
40
0.898293184386723
40
0.931563302326972
40
0.931563302326972
40
0.964833420267221
40
0.964833420267221
40
0.998103538207471
40
0.998103538207471
40
1
40
1
40
1
40
1
41
1
10
9.8516914550446
20
2.21091327052542
30
0
41
1
10
10.0539743132734
20
2.28367415702775
30
0
41
1
10
10.2558185771375
20
2.34931419005744
30
0
41
1
10
10.65788101749
20
2.46782007021398
30
0
41
1
10
10.857715660085
20
2.52089983006044
30
0
41
1
10
11.2577122989377
20
2.6126882873927
30
0
41
1
10
11.4577875308984
20
2.65157970877098
30
0
41
1
10
11.8572662374247
20
2.7157677677898
30
0
41
1
10
12.0570599429321
20
2.74079102692375
30
0
41
1
10
12.4584665790383
20
2.7760949836115
30
0
41
1
10
12.6595293788672
20
2.78655613536702
30
0
41
1
10
13.0631673029719
20
2.79239200022488
30
0
41
1
10
13.2662872183783
20
2.78772809397898
30
0
41
1
10
13.6689710765365
20
2.76363638395304
30
0
41
1
10
13.8690655051772
20
2.74406639283961
30
0
41
1
10
14.2694650177899
20
2.69092211291817
30
0
41
1
10
14.4695482494682
20
2.65737884247318
30
0
41
1
10
14.8687304689685
20
2.57587835710598
30
0
41
1
10
15.0684834058669
20
2.5282592157557
30
0
41
1
10
15.4692619922777
20
2.42007542064772
30
0
41
1
10
15.6697086675684
20
2.3590138217038
30
0
41
1
10
16.0724467555372
20
2.22408961052105
30
0
41
1
10
16.2757792902485
20
2.15041773152174
30
0
41
1
10
16.6792543136263
20
1.99207638995119
30
0
41
1
10
16.8796546703215
20
1.90713465431091
30
0
41
1
10
17.4810037312823
20
1.64062141056203
30
0
41
1
10
17.8792180809223
20
1.44355769467967
30
0
41
1
10
18.4793712012016
20
1.12896320352724
30
0
41
1
10
18.6792050569658
20
1.0198441315855
30
0
41
1
10
19.081004489596
20
0.797094953369282
30
0
41
1
10
19.2833256258773
20
0.683374385674057
30
0
41
1
10
19.6878348081929
20
0.45070388890511
30
0
41
1
10
19.8888932643846
20
0.333187870388343
30
0
41
1
10
20.290538131602
20
0.0991440756320401
30
0
41
1
10
20.4905992474083
20
-0.0183175924411501
30
0
41
1
10
20.8897122909545
20
-0.253211525585414
30
0
41
1
10
21.0895852939898
20
-0.369221295604262
30
0
41
1
10
21.4891885498101
20
-0.599731541105399
30
0
41
1
10
21.6886687032333
20
-0.714645438547336
30
0
41
1
10
22.0896452131547
20
-0.939246753126156
30
0
41
1
10
22.2910105832477
20
-1.04917099938425
30
0
41
1
10
22.5937690858378
20
-1.21146023772027
30
0
41
1
10
22.6949713063431
20
-1.26513687848811
30
0
41
1
10
22.8969314926685
20
-1.3697721076847
30
0
41
1
10
22.9977704693879
20
-1.4209116001125
30
0
41
1
10
23.299676125635
20
-1.57117818250748
30
0
41
1
10
23.4998434836323
20
-1.66755775800792
30
0
41
1
10
23.8995115015648
20
-1.85054291361331
30
0
41
1
10
24.0994436495149
20
-1.9366219058106
30
0
41
1
10
24.4987931394169
20
-2.09899233813795
30
0
41
1
10
24.6980203738846
20
-2.17541884877051
30
0
41
1
10
25.0984645855041
20
-2.31547358888741
30
0
41
1
10
25.2991730010934
20
-2.37971036587291
30
0
41
1
10
25.7015736047251
20
-2.49623639341436
30
0
41
1
10
25.9045095843165
20
-2.54811616840851
30
0
41
1
10
26.3080294602753
20
-2.63720833160119
30
0
41
1
10
26.5083960527637
20
-2.67489956175464
30
0
41
1
10
26.9087312843597
20
-2.7354121805682
30
0
41
1
10
27.1088338415412
20
-2.75829860041071
30
0
41
1
10
27.5079171854181
20
-2.78976922946811
30
0
41
1
10
27.7071491057409
20
-2.79818272857915
30
0
41
1
10
27.9185302534052
20
-2.79925289571639
30
0
41
1
10
27.9299304638957
20
-2.79928681537783
30
0
41
1
10
27.9413315481026
20
-2.79929689825778
30
0
0
SPLINE
5
D3
100
AcDbEntity
8
1
62
256
6
ByLayer
370
18
48
1
60
0
100
AcDbSpline
70
4
71
3
72
25
73
21
40
0
40
0
40
0
40
0
40
0.0876572435519256
40
0.0876572435519256
40
0.175314487103851
40
0.175314487103851
40
0.350628974207702
40
0.350628974207702
40
0.438286217759628
40
0.438286217759628
40
0.525943461311554
40
0.525943461311554
40
0.701257948415405
40
0.701257948415405
40
0.78891519196733
40
0.78891519196733
40
0.876572435519256
40
0.964229679071182
40
0.964229679071182
40
1
40
1
40
1
40
1
41
1
10
4.02723345211422
20
1.19327546435582
30
0
41
1
10
4.02725578518067
20
1.27664890817025
30
0
41
1
10
4.02727636435114
20
1.35789317893625
30
0
41
1
10
4.02731462021697
20
1.51611219204693
30
0
41
1
10
4.02733227484237
20
1.5930273339703
30
0
41
1
10
4.02738100837701
20
1.8135015785667
30
0
41
1
10
4.02740823414067
20
1.94828240188301
30
0
41
1
10
4.0274452050046
20
2.13217950149888
30
0
41
1
10
4.02745693562051
20
2.19070015215871
30
0
41
1
10
4.02747937522295
20
2.29978596115774
30
0
41
1
10
4.02749006538488
20
2.35026070706843
30
0
41
1
10
4.02752144690666
20
2.4898130969232
30
0
41
1
10
4.02754148905862
20
2.56713471694846
30
0
41
1
10
4.02757291350395
20
2.65876271052451
30
0
41
1
10
4.02758352510267
20
2.68493773939926
30
0
41
1
10
4.02760502153939
20
2.72810156397213
30
0
41
1
10
4.027626872816
20
2.76232570880367
30
0
41
1
10
4.02764971726663
20
2.77885675360793
30
0
41
1
10
4.02766616555709
20
2.78414922476455
30
0
41
1
10
4.02767098611787
20
2.78492320792046
30
0
41
1
10
4.02767583613684
20
2.78493727395065
30
0
0
SPLINE
5
D4
100
AcDbEntity
8
1
62
256
6
ByLayer
370
18
48
1
60
0
100
AcDbSpline
70
4
71
3
72
8
73
4
40
0
40
0
40
0
40
0
40
1
40
1
40
1
40
1
41
1
10
29.0428110817398
20
2.77697328935409
30
0
41
1
10
28.8381573840816
20
2.79227624808959
30
0
41
1
10
28.6338754911425
20
2.79981464703152
30
0
41
1
10
28.4295773000134
20
2.79961536684124
30
0
0
SPLINE
5
D5
100
AcDbEntity
8
1
62
256
6
ByLayer
370
18
48
1
60
0
100
AcDbSpline
70
4
71
3
72
32
73
28
40
0
40
0
40
0
40
0
40
0.0614442711364894
40
0.0614442711364894
40
0.133640865664449
40
0.133640865664449
40
0.27803405472037
40
0.27803405472037
40
0.314132351984351
40
0.314132351984351
40
0.350230649248331
40
0.350230649248331
40
0.422427243776294
40
0.422427243776294
40
0.56682043283222
40
0.56682043283222
40
0.602918730096202
40
0.602918730096202
40
0.639017027360183
40
0.639017027360183
40
0.711213621888146
40
0.711213621888146
40
0.855606810944073
40
0.855606810944073
40
0.927803405472037
40
0.927803405472037
40
1
40
1
40
1
40
1
41
1
10
14.9163538950322
20
-2.66332647066406
30
0
41
1
10
14.6944395665313
20
-2.70213287396587
30
0
41
1
10
14.4712189477367
20
-2.73242619779975
30
0
41
1
10
13.9888662658093
20
-2.77829015031696
30
0
41
1
10
13.7298690452407
20
-2.7906376931559
30
0
41
1
10
12.9544564403223
20
-2.79056655888988
30
0
41
1
10
12.4391658810344
20
-2.74127364284297
30
0
41
1
10
11.7895887898448
20
-2.61939110700101
30
0
41
1
10
11.6593379499329
20
-2.59202717753755
30
0
41
1
10
11.3980204388917
20
-2.53132596932679
30
0
41
1
10
11.2668990244351
20
-2.49794891772177
30
0
41
1
10
10.8755580031018
20
-2.39004525614112
30
0
41
1
10
10.616138557424
20
-2.30751656219007
30
0
41
1
10
9.83992790094226
20
-2.03112564998591
30
0
41
1
10
9.32508734268509
20
-1.80850364336808
30
0
41
1
10
8.67589698184719
20
-1.49325038720147
30
0
41
1
10
8.54577156245847
20
-1.42836260559721
30
0
41
1
10
8.28483258393933
20
-1.29500871664226
30
0
41
1
10
8.15373138372394
20
-1.22635994848224
30
0
41
1
10
7.76184575736011
20
-1.01736950943268
30
0
41
1
10
7.50210818424853
20
-0.873917046128526
30
0
41
1
10
6.72509998207113
20
-0.435289888559623
30
0
41
1
10
6.21005394669646
20
-0.13181379112163
30
0
41
1
10
5.43208544785537
20
0.323020726960777
30
0
41
1
10
5.17145908154473
20
0.474530593056897
30
0
41
1
10
4.64744334581764
20
0.772938358595923
30
0
41
1
10
4.38579825654762
20
0.918810426309278
30
0
41
1
10
4.12386454042144
20
1.06029072897687
30
0
0
SPLINE
5
D6
100
AcDbEntity
8
1
62
256
6
ByLayer
370
18
48
1
60
0
100
AcDbSpline
70
4
71
3
72
8
73
4
40
0
40
0
40
0
40
0
40
1
40
1
40
1
40
1
41
1
10
4.12447595544486
20
1.05321893046946
30
0
41
1
10
4.14814726135504
20
1.03531919669788
30
0
41
1
10
4.17386470324129
20
1.01912057704288
30
0
41
1
10
4.20035015912245
20
1.00493270063114
30
0
0
SPLINE
5
D7
100
AcDbEntity
8
1
62
256
6
ByLayer
370
13
48
1
60
0
100
AcDbSpline
70
4
71
3
72
10
73
6
40
0
40
0
40
0
40
0
40
0.5
40
0.5
40
1
40
1
40
1
40
1
41
1
10
4.25044245051674
20
1.04614949086641
30
0
41
1
10
4.22842748683829
20
1.05287534663017
30
0
41
1
10
4.20684438406283
20
1.06053814032418
30
0
41
1
10
4.1645663654017
20
1.07781496310108
30
0
41
1
10
4.14379079578961
20
1.08750092749347
30
0
41
1
10
4.12447595544486
20
1.09785092574899
30
0
0
SPLINE
5
D8
100
AcDbEntity
8
1
62
256
6
ByLayer
370
18
48
1
60
0
100
AcDbSpline
70
4
71
3
72
18
73
14
40
0
40
0
40
0
40
0
40
0.249999999999995
40
0.249999999999995
40
0.499999999999991
40
0.499999999999991
40
0.624999999999993
40
0.624999999999993
40
0.749999999999995
40
0.749999999999995
40
0.874999999999998
40
0.874999999999998
40
1
40
1
40
1
40
1
41
1
10
29.6291899614694
20
1.37209361647149
30
0
41
1
10
29.5870832026677
20
1.48566349901893
30
0
41
1
10
29.544812421178
20
1.59906091000235
30
0
41
1
10
29.4596721244497
20
1.82522615719844
30
0
41
1
10
29.4168453183335
20
1.93809081479142
30
0
41
1
10
29.3524077550278
20
2.10701476947599
30
0
41
1
10
29.3308855671198
20
2.16317789900342
30
0
41
1
10
29.2876692717098
20
2.274925009334
30
0
41
1
10
29.2660059361555
20
2.3306126521681
30
0
41
1
10
29.2226228565231
20
2.44179791339528
30
0
41
1
10
29.2008889957658
20
2.49724797666988
30
0
41
1
10
29.1571554162257
20
2.60725250235791
30
0
41
1
10
29.1351579434081
20
2.66181453079568
30
0
41
1
10
29.1130989644312
20
2.71616936229452
30
0
0
SPLINE
5
D9
100
AcDbEntity
8
1
62
256
6
ByLayer
370
18
48
1
60
0
100
AcDbSpline
70
4
71
3
72
10
73
6
40
0
40
0
40
0
40
0
40
0.379689188969662
40
0.379689188969662
40
1
40
1
40
1
40
1
41
1
10
9.85127506465693
20
2.21083006626355
30
0
41
1
10
9.80404830768123
20
2.18586924199275
30
0
41
1
10
9.75679943302765
20
2.16068896244312
30
0
41
1
10
9.63227631399531
20
2.09378258275146
30
0
41
1
10
9.55494422778935
20
2.05169011824228
30
0
41
1
10
9.47744606789905
20
2.00904331623576
30
0
0
LINE
5
76
100
AcDbEntity
8
81
62
256
6
ByLayer
370
18
48
1
60
0
100
AcDbLine
10
30
20
0
30
0
11
35
21
0
31
0
39
0
210
0
220
0
230
1
0
LINE
5
77
100
AcDbEntity
8
1
62
256
6
ByLayer
370
18
48
1
60
0
100
AcDbLine
10
4.027674
20
2.784949
30
0
11
0.355935
21
2.782746
31
0
39
0
210
0
220
0
230
1
0
LINE
5
79
100
AcDbEntity
8
1
62
256
6
ByLayer
370
18
48
1
60
0
100
AcDbLine
10
13.467133
20
2.790612
30
0
11
12.973494
21
2.790316
31
0
39
0
210
0
220
0
230
1
0
LINE
5
7A
100
AcDbEntity
8
1
62
256
6
ByLayer
370
18
48
1
60
0
100
AcDbLine
10
12.973494
20
-2.790316
30
0
11
13.467052
21
-2.790612
31
0
39
0
210
0
220
0
230
1
0
LINE
5
7B
100
AcDbEntity
8
1
62
256
6
ByLayer
370
18
48
1
60
0
100
AcDbLine
10
0.355935
20
-2.782746
30
0
11
4.027674
21
-2.784949
31
0
39
0
210
0
220
0
230
1
0
LINE
5
7C
100
AcDbEntity
8
SK1
62
256
6
ByLayer
370
18
48
1
60
0
100
AcDbLine
10
-35.278312
20
3
30
0
11
-36
21
1.75
31
0
39
0
210
0
220
0
230
1
0
LINE
5
7E
100
AcDbEntity
8
SK1
62
256
6
ByLayer
370
18
48
1
60
0
100
AcDbLine
10
-36
20
-1.75
30
0
11
-35.278312
21
-3
31
0
39
0
210
0
220
0
230
1
0
LINE
5
7F
100
AcDbEntity
8
SK1
62
256
6
ByLayer
370
18
48
1
60
0
100
AcDbLine
10
0
20
3
30
0
11
-35.278312
21
3
31
0
39
0
210
0
220
0
230
1
0
LINE
5
80
100
AcDbEntity
8
SK1
62
256
6
ByLayer
370
18
48
1
60
0
100
AcDbLine
10
-35.278312
20
-3
30
0
11
0
21
-3
31
0
39
0
210
0
220
0
230
1
0
LINE
5
81
100
AcDbEntity
8
1
62
256
6
ByLayer
370
18
48
1
60
0
100
AcDbLine
10
28.432428
20
2.799592
30
0
11
27.944277
21
2.799299
31
0
39
0
210
0
220
0
230
1
0
LINE
5
82
100
AcDbEntity
8
1
62
256
6
ByLayer
370
18
48
1
60
0
100
AcDbLine
10
27.944277
20
-2.799299
30
0
11
28.432364
21
-2.799592
31
0
39
0
210
0
220
0
230
1
0
LINE
5
83
100
AcDbEntity
8
SK4
62
256
6
ByLayer
370
18
48
0.05
60
0
100
AcDbLine
10
35
20
0
30
0
11
-41
21
0
31
0
39
0
210
0
220
0
230
1
0
LINE
5
85
100
AcDbEntity
8
4
62
256
6
ByLayer
370
18
48
0.05
60
0
100
AcDbLine
10
30
20
0
30
0
11
0
21
0
31
0
39
0
210
0
220
0
230
1
0
LINE
5
87
100
AcDbEntity
8
80
62
256
6
ByLayer
370
18
48
1
60
0
100
AcDbLine
10
0
20
0
30
0
11
-5
21
0
31
0
39
0
210
0
220
0
230
1
0
LINE
5
88
100
AcDbEntity
8
1
62
256
6
ByLayer
370
18
48
1
60
0
100
AcDbLine
10
0
20
-3
30
0
11
0
21
3
31
0
39
0
210
0
220
0
230
1
0
LINE
5
89
100
AcDbEntity
8
1
62
256
6
ByLayer
370
13
48
1
60
0
100
AcDbLine
10
29.86357
20
0.58698
30
0
11
29.396119
21
0.58698
31
0
39
0
210
0
220
0
230
1
0
LINE
5
8A
100
AcDbEntity
8
1
62
256
6
ByLayer
370
18
48
1
60
0
100
AcDbLine
10
29.931706
20
-0.269198
30
0
11
29.86357
21
-0.58698
31
0
39
0
210
0
220
0
230
1
0
LINE
5
8B
100
AcDbEntity
8
1
62
256
6
ByLayer
370
18
48
1
60
0
100
AcDbLine
10
30
20
0
30
0
11
29.030772
21
-2.662932
31
0
39
0
210
0
220
0
230
1
0
LINE
5
8C
100
AcDbEntity
8
1
62
256
6
ByLayer
370
18
48
1
60
0
100
AcDbLine
10
30
20
0
30
0
11
29.995422
21
-0.028404
31
0
39
0
210
0
220
0
230
1
0
LINE
5
8D
100
AcDbEntity
8
1
62
256
6
ByLayer
370
13
48
1
60
0
100
AcDbLine
10
29.396119
20
0.58698
30
0
11
29.931706
21
0.269198
31
0
39
0
210
0
220
0
230
1
0
LINE
5
8E
100
AcDbEntity
8
1
62
256
6
ByLayer
370
18
48
1
60
0
100
AcDbLine
10
29.995422
20
0.028404
30
0
11
30
21
0
31
0
39
0
210
0
220
0
230
1
0
LINE
5
8F
100
AcDbEntity
8
1
62
256
6
ByLayer
370
13
48
1
60
0
100
AcDbLine
10
29.206212
20
0.25165
30
0
11
29.895266
21
-0.157188
31
0
39
0
210
0
220
0
230
1
0
LINE
5
90
100
AcDbEntity
8
1
62
256
6
ByLayer
370
18
48
1
60
0
100
AcDbLine
10
29.931706
20
0.269198
30
0
11
29.86357
21
0.58698
31
0
39
0
210
0
220
0
230
1
0
LINE
5
91
100
AcDbEntity
8
1
62
256
6
ByLayer
370
13
48
1
60
0
100
AcDbLine
10
0.177907
20
2.891373
30
0
11
0.177907
21
-2.891373
31
0
39
0
210
0
220
0
230
1
0
LINE
5
92
100
AcDbEntity
8
1
62
256
6
ByLayer
370
13
48
1
60
0
100
AcDbLine
10
0.355935
20
2.782746
30
0
11
0.355935
21
-2.782746
31
0
39
0
210
0
220
0
230
1
0
LINE
5
93
100
AcDbEntity
8
1
62
256
6
ByLayer
370
18
48
1
60
0
100
AcDbLine
10
28.604123
20
-1.490957
30
0
11
29.895266
21
-0.157188
31
0
39
0
210
0
220
0
230
1
0
LINE
5
94
100
AcDbEntity
8
SK1
62
256
6
ByLayer
370
18
48
1
60
0
100
AcDbLine
10
-35.278312
20
3
30
0
11
-35.278312
21
-3
31
0
39
0
210
0
220
0
230
1
0
LINE
5
95
100
AcDbEntity
8
SK1
62
256
6
ByLayer
370
18
48
1
60
0
100
AcDbLine
10
0
20
-3
30
0
11
0
21
3
31
0
39
0
210
0
220
0
230
1
0
LINE
5
96
100
AcDbEntity
8
SK1
62
256
6
ByLayer
370
18
48
1
60
0
100
AcDbLine
10
-36
20
1.75
30
0
11
-36
21
-1.75
31
0
39
0
210
0
220
0
230
1
0
MTEXT
5
DA
100
AcDbEntity
8
SK6
62
256
6
ByLayer
370
13
48
1
60
0
100
AcDbMText
10
-0.870831
20
35.182694
30
0
210
0
220
0
230
1
1
\W0.7670;R840-0560-30-A0A1220
40
3.5
41
0
44
1.084337
50
0
71
8
72
5
7
iso_b_vert
0
DIMENSION
5
E7
100
AcDbEntity
8
SK2
62
256
6
ByLayer
370
13
48
1
60
0
100
AcDbDimension
2
DimnDraft3D1
10
29.05
20
-13.013398
30
0
11
13.300059
21
-13.013398
31
0
70
32
71
5
72
1
41
1
210
0
220
0
230
1
3
Standard
100
AcDbAlignedDimension
13
0
23
-1.5875
33
0
14
29.05
24
-4.3875
34
0
50
0
100
AcDbRotatedDimension
1001
ACAD
1000
DSTYLE
1002
{
1070
   279
1070
     0
1070
   172
1070
     1
1070
   173
1070
     1
1070
   340
1005
DB
1070
   271
1070
     2
1070
   272
1070
     2
1070
    77
1070
     1
1070
    73
1070
     0
1070
   171
1070
     3
1070
   274
1070
     4
1070
   177
1070
    35
1070
   176
1070
    35
1070
   178
1070
    35
1070
    48
1040
-0.005
1070
    41
1041
3.5
1070
   147
1041
1.75
1070
    42
1041
1.5875
1070
    44
1041
2.0
1070
   140
1041
3.5
1070
   343
1005
0
1070
   344
1005
0
1002
}
0
DIMENSION
5
F1
100
AcDbEntity
8
SK2
62
256
6
ByLayer
370
13
48
1
60
0
100
AcDbDimension
2
DimnDraft3D2
10
30
20
-31.692985
30
0
11
-2.6087
21
-31.692985
31
0
70
32
71
5
72
1
41
1
210
0
220
0
230
1
3
Standard
100
AcDbAlignedDimension
13
-36
23
-4.5875
33
0
14
30
24
-1.5875
34
0
50
0
100
AcDbRotatedDimension
1001
ACAD
1000
DSTYLE
1002
{
1070
   279
1070
     0
1070
   172
1070
     1
1070
   173
1070
     1
1070
   340
1005
DB
1070
   271
1070
     2
1070
   272
1070
     2
1070
    77
1070
     1
1070
    73
1070
     0
1070
   171
1070
     3
1070
   274
1070
     4
1070
   177
1070
    35
1070
   176
1070
    35
1070
   178
1070
    35
1070
    48
1040
-0.005
1070
    41
1041
3.5
1070
   147
1041
1.75
1070
    42
1041
1.5875
1070
    44
1041
2.0
1070
   140
1041
3.5
1070
   343
1005
0
1070
   344
1005
0
1002
}
0
DIMENSION
5
FB
100
AcDbEntity
8
SK2
62
256
6
ByLayer
370
13
48
1
60
0
100
AcDbDimension
2
DimnDraft3D3
10
30
20
14.409119
30
0
11
21.125
21
14.409119
31
0
70
32
71
5
72
1
41
1
210
0
220
0
230
1
3
Standard
100
AcDbAlignedDimension
13
12.25
23
4.3875
33
0
14
30
24
1.5875
34
0
50
0
100
AcDbRotatedDimension
1001
ACAD
1000
DSTYLE
1002
{
1070
   279
1070
     0
1070
   172
1070
     1
1070
   173
1070
     1
1070
   340
1005
DB
1070
   271
1070
     2
1070
   272
1070
     2
1070
    77
1070
     1
1070
    73
1070
     0
1070
   171
1070
     3
1070
   274
1070
     4
1070
   177
1070
    35
1070
   176
1070
    35
1070
   178
1070
    35
1070
    48
1040
-0.005
1070
    41
1041
3.5
1070
   147
1041
1.75
1070
    42
1041
1.5875
1070
    44
1041
2.0
1070
   140
1041
3.5
1070
   343
1005
0
1070
   344
1005
0
1002
}
0
DIMENSION
5
105
100
AcDbEntity
8
SK2
62
256
6
ByLayer
370
13
48
1
60
0
100
AcDbDimension
2
DimnDraft3D4
10
29.05
20
-15.602503
30
0
11
39.981425
21
-15.602503
31
0
70
32
71
5
72
1
41
1
210
0
220
0
230
1
3
Standard
100
AcDbAlignedDimension
13
30
23
-1.5875
33
0
14
29.05
24
-4.3875
34
0
50
0
100
AcDbRotatedDimension
1001
ACAD
1000
DSTYLE
1002
{
1070
   279
1070
     0
1070
   172
1070
     1
1070
   173
1070
     1
1070
   340
1005
DB
1070
   271
1070
     2
1070
   272
1070
     2
1070
    77
1070
     1
1070
    73
1070
     0
1070
   171
1070
     3
1070
   274
1070
     4
1070
   177
1070
    35
1070
   176
1070
    35
1070
   178
1070
    35
1070
    48
1040
-0.005
1070
    41
1041
3.5
1070
   147
1041
1.75
1070
    42
1041
1.5875
1070
    44
1041
2.0
1070
   140
1041
3.5
1070
   343
1005
0
1070
   344
1005
0
1002
}
0
DIMENSION
5
10F
100
AcDbEntity
8
SK2
62
256
6
ByLayer
370
13
48
1
60
0
100
AcDbDimension
2
DimnDraft3D5
10
29.05
20
-21.343428
30
0
11
-5.689324
21
-21.343428
31
0
70
32
71
5
72
1
41
1
210
0
220
0
230
1
3
Standard
100
AcDbAlignedDimension
13
-36
23
-4.5875
33
0
14
29.05
24
-4.3875
34
0
50
0
100
AcDbRotatedDimension
1001
ACAD
1000
DSTYLE
1002
{
1070
   279
1070
     0
1070
   172
1070
     1
1070
   173
1070
     1
1070
   340
1005
DB
1070
   271
1070
     2
1070
   272
1070
     2
1070
    77
1070
     1
1070
    73
1070
     0
1070
   171
1070
     3
1070
   274
1070
     4
1070
   177
1070
    35
1070
   176
1070
    35
1070
   178
1070
    35
1070
    48
1040
-0.005
1070
    41
1041
3.5
1070
   147
1041
1.75
1070
    42
1041
1.5875
1070
    44
1041
2.0
1070
   140
1041
3.5
1070
   343
1005
0
1070
   344
1005
0
1002
}
0
DIMENSION
5
11A
100
AcDbEntity
8
SK2
62
256
6
ByLayer
370
13
48
1
60
0
100
AcDbDimension
2
DimnDraft3D6
10
-46.625163
20
3
30
0
11
-47.250163
21
21.47418
31
0
70
33
71
5
72
1
41
1
210
0
220
0
230
1
3
Standard
100
AcDbAlignedDimension
13
-37.5875
23
-3
33
0
14
-37.5875
24
3
34
0
1001
ACAD
1000
DSTYLE
1002
{
1070
   279
1070
     0
1070
    74
1070
     0
1070
   173
1070
     1
1070
   340
1005
DB
1070
   271
1070
     3
1070
   272
1070
     2
1070
    77
1070
     1
1070
    73
1070
     0
1070
   171
1070
     3
1070
   274
1070
     4
1070
   177
1070
    35
1070
   176
1070
    35
1070
   178
1070
    35
1070
    48
1040
-0.005
1070
    41
1041
3.5
1070
   147
1041
1.75
1070
    42
1041
1.5875
1070
    44
1041
2.0
1070
   140
1041
3.5
1070
   343
1005
0
1070
   344
1005
0
1002
}
0
DIMENSION
5
125
100
AcDbEntity
8
2
62
256
6
ByLayer
370
13
48
1
60
0
100
AcDbDimension
2
DimnDraft3D7
10
44.083343
20
2.8
30
0
11
39.458343
21
19.867266
31
0
70
33
71
5
72
1
41
1
210
0
220
0
230
1
3
Standard
100
AcDbAlignedDimension
13
30.6375
23
-2.8
33
0
14
30.6375
24
2.8
34
0
1001
ACAD
1000
DSTYLE
1002
{
1070
   279
1070
     0
1070
    74
1070
     0
1070
   173
1070
     1
1070
   340
1005
DB
1070
   271
1070
     3
1070
   272
1070
     2
1070
    77
1070
     1
1070
    73
1070
     0
1070
   171
1070
     3
1070
   274
1070
     4
1070
   177
1070
    35
1070
   176
1070
    35
1070
   178
1070
    35
1070
    48
1040
-0.005
1070
    41
1041
3.5
1070
   147
1041
1.75
1070
    42
1041
1.5875
1070
    44
1041
2.0
1070
   140
1041
3.5
1070
   343
1005
0
1070
   344
1005
0
1002
}
0
ENDSEC
0
SECTION
2
OBJECTS
0
DICTIONARY
5
190
330
0
100
AcDbDictionary
280
0
281
1
3
ACAD_GROUP
350
191
3
ACAD_MLINESTYLE
350
192
0
DICTIONARY
5
191
330
0
100
AcDbDictionary
280
0
281
1
0
DICTIONARY
5
192
330
0
100
AcDbDictionary
280
0
281
1
3
Standard
350
18
0
MLINESTYLE
5
18
330
192
100
AcDbMlineStyle
2
Standard
70
0
3

62
256
51
90
52
90
71
2
49
-0.5
62
256
6
ByLayer
49
0.5
62
256
6
ByLayer
0
RASTERVARIABLES
5
17e
330

100
AcDbRasterVariables
90
0
70
1
71
1
72
1
0
ENDSEC
0
EOF
