0
SECTION
2
HEADER
9
$ACADVER
1
AC1015
9
$DWGCODEPAGE
3
ANSI_1252
9
$HANDSEED
5
1b3
9
$ANGBASE
50
0
9
$ANGDIR
70
0
9
$ATTMODE
70
1
9
$AUNITS
70
0
9
$AUPREC
70
0
9
$CECOLOR
62
256
9
$CELTSCALE
40
1
9
$CELTYPE
6
ByLayer
9
$CELWEIGHT
370
18
9
$CLAYER
8
0
9
$CMLJUST
70
0
9
$CMLSCALE
40
1
9
$CMLSTYLE
2
Standard
9
$DIMSTYLE
2
Standard
9
$TEXTSIZE
40
0.2
9
$TEXTSTYLE
7
Standard
9
$LUNITS
70
2
9
$LUPREC
70
4
9
$EXTNAMES
290
1
9
$INSUNITS
70
4
9
$LTSCALE
40
1
9
$LWDISPLAY
290
1
9
$PDMODE
70
0
9
$PDSIZE
40
0
9
$PLINEGEN
70
0
0
ENDSEC
0
SECTION
2
CLASSES
0
CLASS
1
RASTERVARIABLES
2
AcDbRasterVariables
3
ISM
90
0
280
0
281
0
0
ENDSEC
0
SECTION
2
TABLES
0
TABLE
2
VPORT
5
1a9
100
AcDbSymbolTable
0
VPORT
5
1
100
AcDbSymbolTableRecord
100
AcDbViewportTableRecord
2
*Active
70
0
10
0
20
0
11
1
21
1
12
-1
22
1
13
0
23
0
14
0.5
24
0.5
15
10
25
10
16
0
26
0
36
1
17
0
27
0
37
0
0
ENDTAB
0
TABLE
2
LTYPE
5
1aa
100
AcDbSymbolTable
0
LTYPE
5
14
100
AcDbSymbolTableRecord
100
AcDbLinetypeTableRecord
70
0
2
ByBlock
3

72
65
73
0
40
0
0
LTYPE
5
15
100
AcDbSymbolTableRecord
100
AcDbLinetypeTableRecord
70
0
2
ByLayer
3

72
65
73
0
40
0
0
LTYPE
5
16
100
AcDbSymbolTableRecord
100
AcDbLinetypeTableRecord
70
0
2
CONTINUOUS
3
Solid line
72
65
73
0
40
0
0
LTYPE
5
6A
100
AcDbSymbolTableRecord
100
AcDbLinetypeTableRecord
70
0
2
CENTER
3
____ _ ____ _ ____ _ ____
72
65
73
4
40
47.5
49
22
74
0
49
-8.5
74
0
49
8.5
74
0
49
-8.5
74
0
0
LTYPE
5
6B
100
AcDbSymbolTableRecord
100
AcDbLinetypeTableRecord
70
0
2
DASHED
3
__ __ __ __ __ __ __ __ __
72
65
73
2
40
25.72
49
12.86
74
0
49
-12.86
74
0
0
ENDTAB
0
TABLE
2
LAYER
5
1ab
100
AcDbSymbolTable
0
LAYER
5
10
100
AcDbSymbolTableRecord
100
AcDbLayerTableRecord
2
0
70
0
62
7
6
CONTINUOUS
290
1
370
-3
390
0
0
LAYER
5
6D
100
AcDbSymbolTableRecord
100
AcDbLayerTableRecord
2
81
70
0
62
-3
6
CONTINUOUS
290
1
370
-3
390
0
0
LAYER
5
6F
100
AcDbSymbolTableRecord
100
AcDbLayerTableRecord
2
80
70
0
62
-6
6
CONTINUOUS
290
1
370
-3
390
0
0
LAYER
5
74
100
AcDbSymbolTableRecord
100
AcDbLayerTableRecord
2
2
70
0
62
7
6
CONTINUOUS
290
1
370
-3
390
0
0
LAYER
5
78
100
AcDbSymbolTableRecord
100
AcDbLayerTableRecord
2
1
70
0
62
4
6
CONTINUOUS
290
1
370
-3
390
0
0
LAYER
5
88
100
AcDbSymbolTableRecord
100
AcDbLayerTableRecord
2
4
70
0
62
-2
6
CENTER
290
1
370
-3
390
0
0
LAYER
5
195
100
AcDbSymbolTableRecord
100
AcDbLayerTableRecord
2
SK2
70
0
62
7
6
CONTINUOUS
290
1
370
-3
390
0
0
LAYER
5
196
100
AcDbSymbolTableRecord
100
AcDbLayerTableRecord
2
SK1
70
0
62
4
6
CONTINUOUS
290
1
370
-3
390
0
0
LAYER
5
197
100
AcDbSymbolTableRecord
100
AcDbLayerTableRecord
2
SK4
70
0
62
2
6
CENTER
290
1
370
-3
390
0
0
LAYER
5
198
100
AcDbSymbolTableRecord
100
AcDbLayerTableRecord
2
SK6
70
0
62
5
6
CONTINUOUS
290
1
370
-3
390
0
0
ENDTAB
0
TABLE
2
STYLE
5
1ac
100
AcDbSymbolTable
0
STYLE
5
11
100
AcDbSymbolTableRecord
100
AcDbTextStyleTableRecord
2
Standard
3
txt
70
0
71
0
40
0
41
1
42
0
50
0
0
STYLE
5
F1
100
AcDbSymbolTableRecord
100
AcDbTextStyleTableRecord
2
iso_b_vert
3
simplex.shx
70
0
71
0
40
0
41
1
42
0
50
0
0
STYLE
5
F2
100
AcDbSymbolTableRecord
100
AcDbTextStyleTableRecord
2
DWGDirectTextStyle
3
simplex
70
0
71
0
40
0
41
1
42
0
50
0
0
ENDTAB
0
TABLE
2
DIMSTYLE
5
1ad
100
AcDbSymbolTable
100
AcDbDimStyleTable
0
DIMSTYLE
105
27
100
AcDbSymbolTableRecord
100
AcDbDimStyleTableRecord
2
Standard
70
0
3
<>
41
0.18
42
0.0625
44
0.18
140
0.18
147
0.09
73
0
74
0
77
1
271
2
275
0
278
52
280
0
340
11
0
ENDTAB
0
TABLE
2
VIEW
5
1ae
100
AcDbSymbolTable
0
ENDTAB
0
TABLE
2
UCS
5
1af
100
AcDbSymbolTable
0
ENDTAB
0
TABLE
2
APPID
5
1b0
100
AcDbSymbolTable
0
APPID
5
12
100
AcDbSymbolTableRecord
100
AcDbRegAppTableRecord
2
ACAD
70
0
0
ENDTAB
0
TABLE
2
BLOCK_RECORD
5
1b1
100
AcDbSymbolTable
0
BLOCK_RECORD
5
1F
100
AcDbSymbolTableRecord
100
AcDbBlockTableRecord
2
*Model_Space
340
0
70
0
0
BLOCK_RECORD
5
1B
100
AcDbSymbolTableRecord
100
AcDbBlockTableRecord
2
*Paper_Space
340
0
70
0
0
BLOCK_RECORD
5
23
100
AcDbSymbolTableRecord
100
AcDbBlockTableRecord
2
*Paper_Space0
340
0
70
0
0
BLOCK_RECORD
5
F4
100
AcDbSymbolTableRecord
100
AcDbBlockTableRecord
2
DimnDraft3D1
340
0
70
0
0
BLOCK_RECORD
5
FE
100
AcDbSymbolTableRecord
100
AcDbBlockTableRecord
2
DimnDraft3D2
340
0
70
0
0
BLOCK_RECORD
5
108
100
AcDbSymbolTableRecord
100
AcDbBlockTableRecord
2
DimnDraft3D3
340
0
70
0
0
BLOCK_RECORD
5
112
100
AcDbSymbolTableRecord
100
AcDbBlockTableRecord
2
DimnDraft3D4
340
0
70
0
0
BLOCK_RECORD
5
11C
100
AcDbSymbolTableRecord
100
AcDbBlockTableRecord
2
DimnDraft3D5
340
0
70
0
0
BLOCK_RECORD
5
126
100
AcDbSymbolTableRecord
100
AcDbBlockTableRecord
2
DimnDraft3D6
340
0
70
0
0
BLOCK_RECORD
5
131
100
AcDbSymbolTableRecord
100
AcDbBlockTableRecord
2
DimnDraft3D7
340
0
70
0
0
ENDTAB
0
ENDSEC
0
SECTION
2
BLOCKS
0
BLOCK
5
20
100
AcDbEntity
8
0
100
AcDbBlockBegin
2
*Model_Space
70
0
10
0
20
0
30
0
3
*Model_Space
0
ENDBLK
5
21
100
AcDbEntity
8
0
100
AcDbBlockEnd
0
BLOCK
5
1C
100
AcDbEntity
8
0
100
AcDbBlockBegin
2
*Paper_Space
70
0
10
0
20
0
30
0
3
*Paper_Space
0
ENDBLK
5
1D
100
AcDbEntity
8
0
100
AcDbBlockEnd
0
BLOCK
5
24
100
AcDbEntity
8
0
100
AcDbBlockBegin
2
*Paper_Space0
70
0
10
0
20
0
30
0
3
*Paper_Space0
0
ENDBLK
5
25
100
AcDbEntity
8
0
100
AcDbBlockEnd
0
BLOCK
5
FB
100
AcDbEntity
8
0
100
AcDbBlockBegin
2
DimnDraft3D1
70
0
10
0
20
0
30
0
3
DimnDraft3D1
0
MTEXT
5
F5
100
AcDbEntity
8
SK2
62
256
6
ByLayer
370
13
48
1
60
0
100
AcDbMText
10
22.361375
20
-12.118398
30
0
210
0
220
0
230
1
1
\W0.7317;56,06
40
3.5
41
0
44
1.084337
50
0
71
7
72
5
7
iso_b_vert
0
LINE
5
F6
100
AcDbEntity
8
SK2
62
256
6
ByLayer
370
13
48
1
60
0
100
AcDbLine
10
0
20
-1.5875
30
0
11
0
21
-14.993398
31
0
39
0
210
0
220
0
230
1
0
LINE
5
F7
100
AcDbEntity
8
SK2
62
256
6
ByLayer
370
13
48
1
60
0
100
AcDbLine
10
56.06
20
-4.3675
30
0
11
56.06
21
-14.993398
31
0
39
0
210
0
220
0
230
1
0
LINE
5
F8
100
AcDbEntity
8
SK2
62
256
6
ByLayer
370
13
48
1
60
0
100
AcDbLine
10
0
20
-12.993398
30
0
11
56.06
21
-12.993398
31
0
39
0
210
0
220
0
230
1
0
SOLID
5
F9
100
AcDbEntity
8
SK2
62
256
6
ByLayer
370
13
48
1
60
0
100
AcDbTrace
10
0
20
-12.993398
30
0
11
3.499998
21
-12.532615
31
0
12
3.500002
22
-13.454182
32
0
13
0
23
-12.993398
33
0
39
0
210
0
220
0
230
1
0
SOLID
5
FA
100
AcDbEntity
8
SK2
62
256
6
ByLayer
370
13
48
1
60
0
100
AcDbTrace
10
56.06
20
-12.993398
30
0
11
52.560002
21
-13.454182
31
0
12
52.559998
22
-12.532615
32
0
13
56.06
23
-12.993398
33
0
39
0
210
0
220
0
230
1
0
ENDBLK
5
FC
100
AcDbEntity
8
0
100
AcDbBlockEnd
0
BLOCK
5
105
100
AcDbEntity
8
0
100
AcDbBlockBegin
2
DimnDraft3D2
70
0
10
0
20
0
30
0
3
DimnDraft3D2
0
MTEXT
5
FF
100
AcDbEntity
8
SK2
62
256
6
ByLayer
370
13
48
1
60
0
100
AcDbMText
10
6.452616
20
-30.817985
30
0
210
0
220
0
230
1
1
\W0.7317;93,00
40
3.5
41
0
44
1.084337
50
0
71
7
72
5
7
iso_b_vert
0
LINE
5
100
100
AcDbEntity
8
SK2
62
256
6
ByLayer
370
13
48
1
60
0
100
AcDbLine
10
-36
20
-4.5875
30
0
11
-36
21
-33.692985
31
0
39
0
210
0
220
0
230
1
0
LINE
5
101
100
AcDbEntity
8
SK2
62
256
6
ByLayer
370
13
48
1
60
0
100
AcDbLine
10
57
20
-1.5875
30
0
11
57
21
-33.692985
31
0
39
0
210
0
220
0
230
1
0
LINE
5
102
100
AcDbEntity
8
SK2
62
256
6
ByLayer
370
13
48
1
60
0
100
AcDbLine
10
-36
20
-31.692985
30
0
11
57
21
-31.692985
31
0
39
0
210
0
220
0
230
1
0
SOLID
5
103
100
AcDbEntity
8
SK2
62
256
6
ByLayer
370
13
48
1
60
0
100
AcDbTrace
10
-36
20
-31.692985
30
0
11
-32.500002
21
-31.232202
31
0
12
-32.499998
22
-32.153769
32
0
13
-36
23
-31.692985
33
0
39
0
210
0
220
0
230
1
0
SOLID
5
104
100
AcDbEntity
8
SK2
62
256
6
ByLayer
370
13
48
1
60
0
100
AcDbTrace
10
57
20
-31.692985
30
0
11
53.500002
21
-32.153769
31
0
12
53.499998
22
-31.232202
32
0
13
57
23
-31.692985
33
0
39
0
210
0
220
0
230
1
0
ENDBLK
5
106
100
AcDbEntity
8
0
100
AcDbBlockEnd
0
BLOCK
5
10F
100
AcDbEntity
8
0
100
AcDbBlockBegin
2
DimnDraft3D3
70
0
10
0
20
0
30
0
3
DimnDraft3D3
0
MTEXT
5
109
100
AcDbEntity
8
SK2
62
256
6
ByLayer
370
13
48
1
60
0
100
AcDbMText
10
29.472895
20
15.264119
30
0
210
0
220
0
230
1
1
\W0.7845;45,42
40
3.5
41
0
44
1.084337
50
0
71
7
72
5
7
iso_b_vert
0
LINE
5
10A
100
AcDbEntity
8
SK2
62
256
6
ByLayer
370
13
48
1
60
0
100
AcDbLine
10
11.58
20
4.3675
30
0
11
11.58
21
16.389119
31
0
39
0
210
0
220
0
230
1
0
LINE
5
10B
100
AcDbEntity
8
SK2
62
256
6
ByLayer
370
13
48
1
60
0
100
AcDbLine
10
57
20
1.5875
30
0
11
57
21
16.389119
31
0
39
0
210
0
220
0
230
1
0
LINE
5
10C
100
AcDbEntity
8
SK2
62
256
6
ByLayer
370
13
48
1
60
0
100
AcDbLine
10
11.58
20
14.389119
30
0
11
57
21
14.389119
31
0
39
0
210
0
220
0
230
1
0
SOLID
5
10D
100
AcDbEntity
8
SK2
62
256
6
ByLayer
370
13
48
1
60
0
100
AcDbTrace
10
11.58
20
14.389119
30
0
11
15.079998
21
14.849903
31
0
12
15.080002
22
13.928335
32
0
13
11.58
23
14.389119
33
0
39
0
210
0
220
0
230
1
0
SOLID
5
10E
100
AcDbEntity
8
SK2
62
256
6
ByLayer
370
13
48
1
60
0
100
AcDbTrace
10
57
20
14.389119
30
0
11
53.500002
21
13.928335
31
0
12
53.499998
22
14.849903
32
0
13
57
23
14.389119
33
0
39
0
210
0
220
0
230
1
0
ENDBLK
5
110
100
AcDbEntity
8
0
100
AcDbBlockEnd
0
BLOCK
5
119
100
AcDbEntity
8
0
100
AcDbBlockBegin
2
DimnDraft3D4
70
0
10
0
20
0
30
0
3
DimnDraft3D4
0
MTEXT
5
113
100
AcDbEntity
8
SK2
62
256
6
ByLayer
370
13
48
1
60
0
100
AcDbMText
10
63.656425
20
-14.707503
30
0
210
0
220
0
230
1
1
\W0.7383;0,94
40
3.5
41
0
44
1.084337
50
0
71
7
72
5
7
iso_b_vert
0
LINE
5
114
100
AcDbEntity
8
SK2
62
256
6
ByLayer
370
13
48
1
60
0
100
AcDbLine
10
57
20
-1.5875
30
0
11
57
21
-17.582503
31
0
39
0
210
0
220
0
230
1
0
LINE
5
115
100
AcDbEntity
8
SK2
62
256
6
ByLayer
370
13
48
1
60
0
100
AcDbLine
10
56.06
20
-4.3675
30
0
11
56.06
21
-17.582503
31
0
39
0
210
0
220
0
230
1
0
LINE
5
116
100
AcDbEntity
8
SK2
62
256
6
ByLayer
370
13
48
1
60
0
100
AcDbLine
10
47.31
20
-15.582503
30
0
11
71.181425
21
-15.582503
31
0
39
0
210
0
220
0
230
1
0
SOLID
5
117
100
AcDbEntity
8
SK2
62
256
6
ByLayer
370
13
48
1
60
0
100
AcDbTrace
10
57
20
-15.582503
30
0
11
60.499998
21
-15.121719
31
0
12
60.500002
22
-16.043287
32
0
13
57
23
-15.582503
33
0
39
0
210
0
220
0
230
1
0
SOLID
5
118
100
AcDbEntity
8
SK2
62
256
6
ByLayer
370
13
48
1
60
0
100
AcDbTrace
10
56.06
20
-15.582503
30
0
11
52.560002
21
-16.043287
31
0
12
52.559998
22
-15.121719
32
0
13
56.06
23
-15.582503
33
0
39
0
210
0
220
0
230
1
0
ENDBLK
5
11A
100
AcDbEntity
8
0
100
AcDbBlockEnd
0
BLOCK
5
123
100
AcDbEntity
8
0
100
AcDbBlockBegin
2
DimnDraft3D5
70
0
10
0
20
0
30
0
3
DimnDraft3D5
0
MTEXT
5
11D
100
AcDbEntity
8
SK2
62
256
6
ByLayer
370
13
48
1
60
0
100
AcDbMText
10
3.371992
20
-20.468428
30
0
210
0
220
0
230
1
1
\W0.7317;92,06
40
3.5
41
0
44
1.084337
50
0
71
7
72
5
7
iso_b_vert
0
LINE
5
11E
100
AcDbEntity
8
SK2
62
256
6
ByLayer
370
13
48
1
60
0
100
AcDbLine
10
-36
20
-4.5875
30
0
11
-36
21
-23.343428
31
0
39
0
210
0
220
0
230
1
0
LINE
5
11F
100
AcDbEntity
8
SK2
62
256
6
ByLayer
370
13
48
1
60
0
100
AcDbLine
10
56.06
20
-4.3675
30
0
11
56.06
21
-23.343428
31
0
39
0
210
0
220
0
230
1
0
LINE
5
120
100
AcDbEntity
8
SK2
62
256
6
ByLayer
370
13
48
1
60
0
100
AcDbLine
10
-36
20
-21.343428
30
0
11
56.06
21
-21.343428
31
0
39
0
210
0
220
0
230
1
0
SOLID
5
121
100
AcDbEntity
8
SK2
62
256
6
ByLayer
370
13
48
1
60
0
100
AcDbTrace
10
-36
20
-21.343428
30
0
11
-32.500002
21
-20.882645
31
0
12
-32.499998
22
-21.804212
32
0
13
-36
23
-21.343428
33
0
39
0
210
0
220
0
230
1
0
SOLID
5
122
100
AcDbEntity
8
SK2
62
256
6
ByLayer
370
13
48
1
60
0
100
AcDbTrace
10
56.06
20
-21.343428
30
0
11
52.560002
21
-21.804212
31
0
12
52.559998
22
-20.882645
32
0
13
56.06
23
-21.343428
33
0
39
0
210
0
220
0
230
1
0
ENDBLK
5
124
100
AcDbEntity
8
0
100
AcDbBlockEnd
0
BLOCK
5
12E
100
AcDbEntity
8
0
100
AcDbBlockBegin
2
DimnDraft3D6
70
0
10
0
20
0
30
0
3
DimnDraft3D6
0
MTEXT
5
127
100
AcDbEntity
8
SK2
62
256
6
ByLayer
370
13
48
1
60
0
100
AcDbMText
10
-46.375163
20
22.34918
30
0
210
0
220
0
230
1
1
\W0.7317;6,000
40
3.5
41
0
44
1.084337
50
90
71
7
72
5
7
iso_b_vert
0
MTEXT
5
128
100
AcDbEntity
8
SK2
62
256
6
ByLayer
370
13
48
1
60
0
100
AcDbMText
10
-46.375163
20
17.126524
30
0
210
0
220
0
230
1
1
%%c
40
3.5
41
0
44
1.084337
50
90
71
7
72
5
7
iso_b_vert
0
LINE
5
129
100
AcDbEntity
8
SK2
62
256
6
ByLayer
370
13
48
1
60
0
100
AcDbLine
10
-37.5875
20
-3
30
0
11
-46.625163
21
-3
31
0
39
0
210
0
220
0
230
1
0
LINE
5
12A
100
AcDbEntity
8
SK2
62
256
6
ByLayer
370
13
48
1
60
0
100
AcDbLine
10
-37.5875
20
3
30
0
11
-46.625163
21
3
31
0
39
0
210
0
220
0
230
1
0
LINE
5
12B
100
AcDbEntity
8
SK2
62
256
6
ByLayer
370
13
48
1
60
0
100
AcDbLine
10
-44.625163
20
32.121549
30
0
11
-44.625163
21
-11.75
31
0
39
0
210
0
220
0
230
1
0
SOLID
5
12C
100
AcDbEntity
8
SK2
62
256
6
ByLayer
370
13
48
1
60
0
100
AcDbTrace
10
-44.625163
20
-3
30
0
11
-44.164379
21
-6.499998
31
0
12
-45.085946
22
-6.500002
32
0
13
-44.625163
23
-3
33
0
39
0
210
0
220
0
230
1
0
SOLID
5
12D
100
AcDbEntity
8
SK2
62
256
6
ByLayer
370
13
48
1
60
0
100
AcDbTrace
10
-44.625163
20
3
30
0
11
-45.085946
21
6.499998
31
0
12
-44.164379
22
6.500002
32
0
13
-44.625163
23
3
33
0
39
0
210
0
220
0
230
1
0
ENDBLK
5
12F
100
AcDbEntity
8
0
100
AcDbBlockEnd
0
BLOCK
5
139
100
AcDbEntity
8
0
100
AcDbBlockBegin
2
DimnDraft3D7
70
0
10
0
20
0
30
0
3
DimnDraft3D7
0
MTEXT
5
132
100
AcDbEntity
8
2
62
256
6
ByLayer
370
13
48
1
60
0
100
AcDbMText
10
67.333343
20
20.722266
30
0
210
0
220
0
230
1
1
\W0.7317;5,560
40
3.5
41
0
44
1.084337
50
90
71
7
72
5
7
iso_b_vert
0
MTEXT
5
133
100
AcDbEntity
8
2
62
256
6
ByLayer
370
13
48
1
60
0
100
AcDbMText
10
67.333343
20
15.49961
30
0
210
0
220
0
230
1
1
%%c
40
3.5
41
0
44
1.084337
50
90
71
7
72
5
7
iso_b_vert
0
LINE
5
134
100
AcDbEntity
8
2
62
256
6
ByLayer
370
13
48
1
60
0
100
AcDbLine
10
57.6475
20
-2.78
30
0
11
71.083343
21
-2.78
31
0
39
0
210
0
220
0
230
1
0
LINE
5
135
100
AcDbEntity
8
2
62
256
6
ByLayer
370
13
48
1
60
0
100
AcDbLine
10
57.6475
20
2.78
30
0
11
71.083343
21
2.78
31
0
39
0
210
0
220
0
230
1
0
LINE
5
136
100
AcDbEntity
8
2
62
256
6
ByLayer
370
13
48
1
60
0
100
AcDbLine
10
69.083343
20
30.494635
30
0
11
69.083343
21
-11.53
31
0
39
0
210
0
220
0
230
1
0
SOLID
5
137
100
AcDbEntity
8
2
62
256
6
ByLayer
370
13
48
1
60
0
100
AcDbTrace
10
69.083343
20
-2.78
30
0
11
69.544126
21
-6.279998
31
0
12
68.622559
22
-6.280002
32
0
13
69.083343
23
-2.78
33
0
39
0
210
0
220
0
230
1
0
SOLID
5
138
100
AcDbEntity
8
2
62
256
6
ByLayer
370
13
48
1
60
0
100
AcDbTrace
10
69.083343
20
2.78
30
0
11
68.622559
21
6.279998
31
0
12
69.544126
22
6.280002
32
0
13
69.083343
23
2.78
33
0
39
0
210
0
220
0
230
1
0
ENDBLK
5
13A
100
AcDbEntity
8
0
100
AcDbBlockEnd
0
ENDSEC
0
SECTION
2
ENTITIES
0
ARC
5
9D
100
AcDbEntity
8
1
62
256
6
ByLayer
370
18
48
1
60
0
100
AcDbCircle
39
0
10
0
20
2.2
30
0
40
0.799999999999998
210
0
220
0
230
1
100
AcDbArc
50
57.328476
51
90
0
ARC
5
9E
100
AcDbEntity
8
1
62
256
6
ByLayer
370
18
48
1
60
0
100
AcDbCircle
39
0
10
-0.863715
20
-3.546847
30
0
40
0.800000000000002
210
0
220
0
230
-1
100
AcDbArc
50
57.328476
51
90.034377
0
ARC
5
9F
100
AcDbEntity
8
1
62
256
6
ByLayer
370
18
48
1
60
0
100
AcDbCircle
39
0
10
-0.863715
20
3.546847
30
0
40
0.800000000000002
210
0
220
0
230
-1
100
AcDbArc
50
269.965623
51
302.671524
0
ARC
5
A0
100
AcDbEntity
8
1
62
256
6
ByLayer
370
18
48
1
60
0
100
AcDbCircle
39
0
10
0
20
-2.2
30
0
40
0.799999999999998
210
0
220
0
230
1
100
AcDbArc
50
270
51
302.671524
0
ELLIPSE
5
A1
100
AcDbEntity
8
1
62
256
6
ByLayer
370
13
48
1
60
0
100
AcDbEllipse
10
56.399843
20
0.372353
30
0
11
0.153082081612418
21
0.258003636193773
31
0
210
0
220
0
230
1
40
0.454519
41
0.917105603404792
42
2.31336900500025
0
ELLIPSE
5
A2
100
AcDbEntity
8
1
62
256
6
ByLayer
370
18
48
1
60
0
100
AcDbEllipse
10
56.440125
20
-1.410103
30
0
11
0.432996426808828
21
1.16620542895092
31
0
210
0
220
0
230
-1
40
0.131755
41
0.736518128025391
42
1.48106111812719
0
ELLIPSE
5
A3
100
AcDbEntity
8
1
62
256
6
ByLayer
370
18
48
1
60
0
100
AcDbEllipse
10
57.000258
20
-0.000607
30
0
11
1.03113983948591
21
-2.77720737191609
31
0
210
0
220
0
230
-1
40
0.131755
41
-2.9645405500914
42
-2.84755378773284
0
ELLIPSE
5
A4
100
AcDbEntity
8
1
62
256
6
ByLayer
370
13
48
1
60
0
100
AcDbEllipse
10
56.802429
20
1.410103
30
0
11
1.75208937767675
21
-0.81918537372874
31
0
210
0
220
0
230
-1
40
0.474862
41
1.57855742672956
42
1.860466868242
0
ELLIPSE
5
A5
100
AcDbEntity
8
1
62
256
6
ByLayer
370
18
48
1
60
0
100
AcDbEllipse
10
57.05659
20
0.017317
30
0
11
0.135544944375806
21
0.427068209930132
31
0
210
0
220
0
230
-1
40
0.100282
41
-2.33653286888202
42
-1.70934345334386
0
ELLIPSE
5
A6
100
AcDbEntity
8
1
62
256
6
ByLayer
370
18
48
1
60
0
100
AcDbEllipse
10
57.000258
20
0.000607
30
0
11
1.03113983460482
21
2.77720735742361
31
0
210
0
220
0
230
-1
40
0.131755
41
2.84755378695403
42
2.9645405496225
0
ELLIPSE
5
A7
100
AcDbEntity
8
1
62
256
6
ByLayer
370
18
48
1
60
0
100
AcDbEllipse
10
56.440125
20
1.410103
30
0
11
0.432996426834823
21
-1.16620542900505
31
0
210
0
220
0
230
-1
40
0.131755
41
-1.48106111809515
42
-0.736518128024831
0
ELLIPSE
5
A8
100
AcDbEntity
8
1
62
256
6
ByLayer
370
13
48
1
60
0
100
AcDbEllipse
10
9.175369
20
-2.588723
30
0
11
0.0341358991615139
21
-0.0939932996996858
31
0
210
0
220
0
230
1
40
0.555727
41
-2.79754762453281
42
-1.50172411420418
0
ELLIPSE
5
A9
100
AcDbEntity
8
1
62
256
6
ByLayer
370
13
48
1
60
0
100
AcDbEllipse
10
56.612523
20
1.286906
30
0
11
1.68459136739274
21
-1.15988906010817
31
0
210
0
220
0
230
-1
40
0.533762
41
1.44484622742595
42
1.70706610839137
0
ELLIPSE
5
AA
100
AcDbEntity
8
1
62
256
6
ByLayer
370
18
48
1
60
0
100
AcDbEllipse
10
57.05659
20
-0.017317
30
0
11
0.135544944360612
21
-0.427068209891274
31
0
210
0
220
0
230
-1
40
0.100282
41
1.70934345329081
42
2.33653286888135
0
ELLIPSE
5
AB
100
AcDbEntity
8
1
62
256
6
ByLayer
370
18
48
1
60
0
100
AcDbEllipse
10
56.860749
20
0.098883
30
0
11
0.0727819104962254
21
0.301917195697387
31
0
210
0
220
0
230
-1
40
0.478434
41
1.69068721353201
42
2.45976119971576
0
ELLIPSE
5
AC
100
AcDbEntity
8
1
62
256
6
ByLayer
370
13
48
1
60
0
100
AcDbEllipse
10
9.250201
20
-2.583172
30
0
11
0.0174306744720309
21
0.0984691402798364
31
0
210
0
220
0
230
1
40
0.470363
41
0.357240242225791
42
1.90060373081227
0
POINT
5
6C
100
AcDbEntity
8
81
62
256
6
ByLayer
370
18
48
1
60
0
100
AcDbPoint
10
57
20
0
30
0
39
0
210
0
220
0
230
1
50
360
0
POINT
5
6E
100
AcDbEntity
8
80
62
256
6
ByLayer
370
18
48
1
60
0
100
AcDbPoint
10
0
20
0
30
0
39
0
210
0
220
0
230
1
50
360
0
POINT
5
70
100
AcDbEntity
8
SK2
62
256
6
ByLayer
370
18
48
1
60
1
100
AcDbPoint
10
-36
20
-3
30
0
39
0
210
0
220
0
230
1
50
360
0
POINT
5
72
100
AcDbEntity
8
SK2
62
256
6
ByLayer
370
18
48
1
60
1
100
AcDbPoint
10
-36
20
3
30
0
39
0
210
0
220
0
230
1
50
360
0
POINT
5
73
100
AcDbEntity
8
2
62
256
6
ByLayer
370
18
48
1
60
1
100
AcDbPoint
10
56.06
20
-2.78
30
0
39
0
210
0
220
0
230
1
50
360
0
POINT
5
75
100
AcDbEntity
8
2
62
256
6
ByLayer
370
18
48
1
60
1
100
AcDbPoint
10
56.06
20
2.78
30
0
39
0
210
0
220
0
230
1
50
360
0
SPLINE
5
AD
100
AcDbEntity
8
1
62
256
6
ByLayer
370
18
48
1
60
0
100
AcDbSpline
70
4
71
3
72
11
73
7
40
0
40
0
40
0
40
0
40
0.145242057070867
40
0.345714358569172
40
0.628711119289048
40
1
40
1
40
1
40
1
41
1
10
18.7561462160548
20
-0.708136733827899
30
0
41
1
10
18.7561534549405
20
-0.707954403145067
30
0
41
1
10
18.759636845546
20
-0.709122965442248
30
0
41
1
10
18.7851437005674
20
-0.722277228557743
30
0
41
1
10
18.880131315127
20
-0.773034613007667
30
0
41
1
10
18.9607673569964
20
-0.817594218903707
30
0
41
1
10
19.0143824353134
20
-0.847474479355355
30
0
0
SPLINE
5
AE
100
AcDbEntity
8
1
62
256
6
ByLayer
370
18
48
1
60
0
100
AcDbSpline
70
4
71
3
72
22
73
18
40
0
40
0
40
0
40
0
40
0.0880457631223555
40
0.156126244654065
40
0.209379965201041
40
0.262177953506047
40
0.315306687565153
40
0.36910615168671
40
0.428155073194085
40
0.495363293082144
40
0.602673287197628
40
0.702551498054478
40
0.782340152135698
40
0.825732994545763
40
0.869427354335647
40
0.935184622964588
40
1
40
1
40
1
40
1
41
1
10
25.7106457109364
20
-2.62551863911557
30
0
41
1
10
25.9270084482095
20
-2.62554892553192
30
0
41
1
10
26.3106762144819
20
-2.62573646958484
30
0
41
1
10
26.8252199560785
20
-2.62629601406508
30
0
41
1
10
27.2531540244382
20
-2.62698226721329
30
0
41
1
10
27.6443379127705
20
-2.62665287761803
30
0
41
1
10
28.0368676127326
20
-2.62635878155609
30
0
41
1
10
28.4447562660511
20
-2.62756749638387
30
0
41
1
10
28.8872473722849
20
-2.62783655058868
30
0
41
1
10
29.461240305743
20
-2.62939158266585
30
0
41
1
10
30.1355685759095
20
-2.62571174273989
30
0
41
1
10
30.8408107990461
20
-2.63155765546438
30
0
41
1
10
31.3889788986945
20
-2.62780288602866
30
0
41
1
10
31.7990783563639
20
-2.62893725120978
30
0
41
1
10
32.1746859841026
20
-2.62972900450723
30
0
41
1
10
32.6029484889786
20
-2.63069026295867
30
0
41
1
10
32.9238316160717
20
-2.63049919323987
30
0
41
1
10
33.0831165451944
20
-2.63025932302986
30
0
0
SPLINE
5
AF
100
AcDbEntity
8
1
62
256
6
ByLayer
370
18
48
1
60
0
100
AcDbSpline
70
4
71
3
72
21
73
17
40
0
40
0
40
0
40
0
40
0.093992229615274
40
0.164267927647461
40
0.212397468776298
40
0.25562424775204
40
0.301248955589948
40
0.38750382163926
40
0.467836165020581
40
0.529345660654594
40
0.601174000310884
40
0.68289277887276
40
0.742054532753096
40
0.809250138723434
40
0.90496490329665
40
1
40
1
40
1
40
1
41
1
10
10.684884312805
20
-2.61658020860753
30
0
41
1
10
10.9173175749788
20
-2.61675998159166
30
0
41
1
10
11.3237208323569
20
-2.61706844714058
30
0
41
1
10
11.8500872178277
20
-2.61755970795011
30
0
41
1
10
12.2502722712713
20
-2.61779139831015
30
0
41
1
10
12.5894839582947
20
-2.61779615936857
30
0
41
1
10
13.0232791621075
20
-2.61770321002416
30
0
41
1
10
13.5489614726708
20
-2.61917996521996
30
0
41
1
10
14.1140081230004
20
-2.61815876549466
30
0
41
1
10
14.6433103635617
20
-2.61916066428523
30
0
41
1
10
15.1760509409692
20
-2.62021690109054
30
0
41
1
10
15.7029708384487
20
-2.61855550451062
30
0
41
1
10
16.218414148437
20
-2.62032760299084
30
0
41
1
10
16.7685225590009
20
-2.62113295012503
30
0
41
1
10
17.4075049243102
20
-2.62092387821147
30
0
41
1
10
17.8800081176023
20
-2.62154885998021
30
0
41
1
10
18.1154149505881
20
-2.62190690143893
30
0
0
SPLINE
5
B0
100
AcDbEntity
8
1
62
256
6
ByLayer
370
18
48
1
60
0
100
AcDbSpline
70
4
71
3
72
21
73
17
40
0
40
0
40
0
40
0
40
0.106202360376194
40
0.182749950259067
40
0.23110228207137
40
0.273696825856845
40
0.318531879415794
40
0.40804079023004
40
0.492853031291335
40
0.58926195181915
40
0.698340811012694
40
0.740730543650028
40
0.785185553298637
40
0.8471538330008
40
0.9287076396593
40
1
40
1
40
1
40
1
41
1
10
40.637302790145
20
-2.63464763981986
30
0
41
1
10
40.8991078661235
20
-2.63487923429332
30
0
41
1
10
41.3497369344993
20
-2.635165901688
30
0
41
1
10
41.9206248518993
20
-2.63477261136799
30
0
41
1
10
42.3336119482959
20
-2.63497295853233
30
0
41
1
10
42.6685670145883
20
-2.63602290104649
30
0
41
1
10
43.1054238537074
20
-2.63656152330159
30
0
41
1
10
43.6464364943508
20
-2.63487363255857
30
0
41
1
10
44.3147981278075
20
-2.63812980165577
30
0
41
1
10
45.0314640152549
20
-2.6341915343815
30
0
41
1
10
45.6433983957158
20
-2.63855403726336
30
0
41
1
10
46.1270745124655
20
-2.63780950111271
30
0
41
1
10
46.4944515423337
20
-2.63723653300932
30
0
41
1
10
46.958473916912
20
-2.63623674874111
30
0
41
1
10
47.4888113930344
20
-2.63770605908812
30
0
41
1
10
47.8661126616906
20
-2.63830089074844
30
0
41
1
10
48.0420951365238
20
-2.63866422040633
30
0
0
SPLINE
5
B1
100
AcDbEntity
8
1
62
256
6
ByLayer
370
18
48
1
60
0
100
AcDbSpline
70
4
71
3
72
12
73
8
40
0
40
0
40
0
40
0
40
0.0275599271686638
40
0.192890116275752
40
0.349359919557005
40
0.601586159668506
40
1
40
1
40
1
40
1
41
1
10
33.7296270157466
20
-0.713129079133921
30
0
41
1
10
33.7296013333024
20
-0.713149287809046
30
0
41
1
10
33.7298587071938
20
-0.713473147873316
30
0
41
1
10
33.7362748540451
20
-0.716545491731608
30
0
41
1
10
33.7714196709344
20
-0.73304101544116
30
0
41
1
10
33.8415327608346
20
-0.769505951236539
30
0
41
1
10
33.9005298253807
20
-0.802397212166198
30
0
41
1
10
33.9401077547062
20
-0.825266538043877
30
0
0
SPLINE
5
B2
100
AcDbEntity
8
1
62
256
6
ByLayer
370
18
48
1
60
0
100
AcDbSpline
70
4
71
2
72
6
73
3
40
0
40
0
40
0
40
1
40
1
40
1
41
1
10
55.5877546395239
20
-2.64361910628844
30
0
41
1
10
55.812532319211
20
-2.64134223234396
30
0
41
1
10
56.0373234914548
20
-2.64428032781359
30
0
0
SPLINE
5
B3
100
AcDbEntity
8
1
62
256
6
ByLayer
370
18
48
1
60
0
100
AcDbSpline
70
4
71
3
72
21
73
17
40
0
40
0
40
0
40
0
40
0.0764783447109113
40
0.165049832615631
40
0.228586621269543
40
0.318632864774985
40
0.410539480735284
40
0.496215101620861
40
0.582826223959813
40
0.643789518438423
40
0.708640363385795
40
0.777775061608049
40
0.847329001383928
40
0.911416674183753
40
0.984681959833889
40
1
40
1
40
1
40
1
41
1
10
18.1082247798815
20
2.62168600627521
30
0
41
1
10
17.952405502695
20
2.6211246117422
30
0
41
1
10
17.6160829281051
20
2.62020154271355
30
0
41
1
10
17.1500635009901
20
2.62186581062795
30
0
41
1
10
16.6564207847887
20
2.62068583997171
30
0
41
1
10
16.1562758882411
20
2.62020305303625
30
0
41
1
10
15.6106318727257
20
2.61866006693293
30
0
41
1
10
15.072091145298
20
2.62030156392169
30
0
41
1
10
14.5966050384981
20
2.61891897573381
30
0
41
1
10
14.163575332278
20
2.61825846717258
30
0
41
1
10
13.7661763434358
20
2.6190639868048
30
0
41
1
10
13.3512584507339
20
2.61831797214205
30
0
41
1
10
12.9378978758186
20
2.61774213759173
30
0
41
1
10
12.5161069210374
20
2.61778699799578
30
0
41
1
10
12.2049161388382
20
2.61779343115757
30
0
41
1
10
12.0243321494268
20
2.61771034204156
30
0
41
1
10
11.9931047655495
20
2.61769380483673
30
0
0
SPLINE
5
B4
100
AcDbEntity
8
1
62
256
6
ByLayer
370
18
48
1
60
0
100
AcDbSpline
70
4
71
3
72
11
73
7
40
0
40
0
40
0
40
0
40
0.120485680748783
40
0.282069137727499
40
0.486345973953284
40
1
40
1
40
1
40
1
41
1
10
48.7034116913364
20
-0.71622341090719
30
0
41
1
10
48.7035262170503
20
-0.716536699032133
30
0
41
1
10
48.7068535664612
20
-0.718764168581373
30
0
41
1
10
48.7354588833888
20
-0.733683582672285
30
0
41
1
10
48.8101230044422
20
-0.773118432082697
30
0
41
1
10
48.8880841002047
20
-0.815326079667244
30
0
41
1
10
48.9548080250929
20
-0.851778249868374
30
0
0
SPLINE
5
B5
100
AcDbEntity
8
1
62
256
6
ByLayer
370
18
48
1
60
0
100
AcDbSpline
70
4
71
3
72
22
73
18
40
0
40
0
40
0
40
0
40
0.0711615587010113
40
0.156913144362605
40
0.218690480037011
40
0.287983351202291
40
0.352856257388207
40
0.41559091860024
40
0.47514321797532
40
0.541557238912813
40
0.608594218477426
40
0.68400602042607
40
0.763160014433459
40
0.840966955653755
40
0.908688093215226
40
0.981634375676835
40
1
40
1
40
1
40
1
41
1
10
48.0275038416165
20
2.63862321367083
30
0
41
1
10
47.8828429387303
20
2.6383817639981
30
0
41
1
10
47.5637397526808
20
2.63789914088781
30
0
41
1
10
47.1186019841344
20
2.63600534083679
30
0
41
1
10
46.6769650612719
20
2.63661423904429
30
0
41
1
10
46.2793657141222
20
2.63766182518168
30
0
41
1
10
45.8783545704707
20
2.63813382732801
30
0
41
1
10
45.4973864590902
20
2.63799617134128
30
0
41
1
10
45.1132340325789
20
2.63501828965428
30
0
41
1
10
44.7203380802263
20
2.63628423109645
30
0
41
1
10
44.2951508906997
20
2.63744229302114
30
0
41
1
10
43.8440244953142
20
2.63554940555216
30
0
41
1
10
43.3709731632165
20
2.63596156941907
30
0
41
1
10
42.913580068926
20
2.63656093996423
30
0
41
1
10
42.468811654781
20
2.63528903991292
30
0
41
1
10
42.145097250127
20
2.63501074140848
30
0
41
1
10
41.9592128904092
20
2.63501700976596
30
0
41
1
10
41.9218254385368
20
2.63502280558899
30
0
0
SPLINE
5
B6
100
AcDbEntity
8
1
62
256
6
ByLayer
370
18
48
1
60
0
100
AcDbSpline
70
4
71
3
72
20
73
16
40
0
40
0
40
0
40
0
40
0.0629738950243026
40
0.136711604847356
40
0.186490667561853
40
0.229991537918571
40
0.274771483853659
40
0.321263010770791
40
0.45481751956113
40
0.607124250860876
40
0.72426407642952
40
0.822903695134163
40
0.918134436346176
40
0.992946206618723
40
1
40
1
40
1
40
1
41
1
10
33.0829118314597
20
2.63033116094573
30
0
41
1
10
32.954284272681
20
2.63059592930981
30
0
41
1
10
32.6750438099402
20
2.6309506224992
30
0
41
1
10
32.2941334172258
20
2.62951678349401
30
0
41
1
10
31.952989689337
20
2.62960430496008
30
0
41
1
10
31.6710044193844
20
2.6283194354333
30
0
41
1
10
31.3957228357417
20
2.6283343235265
30
0
41
1
10
30.9365094085769
20
2.63036989984471
30
0
41
1
10
30.2576642261886
20
2.62671606339452
30
0
41
1
10
29.4345203769954
20
2.62926485767636
30
0
41
1
10
28.6826866795092
20
2.62782145873953
30
0
41
1
10
28.0474347138671
20
2.62625224705889
30
0
41
1
10
27.4986406331829
20
2.62687899580487
30
0
41
1
10
27.1369120577459
20
2.62680769429863
30
0
41
1
10
26.9696987466349
20
2.62662160388552
30
0
41
1
10
26.95529113418
20
2.62660459307244
30
0
0
SPLINE
5
B7
100
AcDbEntity
8
1
62
256
6
ByLayer
370
18
48
1
60
0
100
AcDbSpline
70
4
71
3
72
75
73
71
40
0
40
0
40
0
40
0
40
0.0118252908118593
40
0.0118252908118593
40
0.0500496666258369
40
0.0500496666258369
40
0.0882740424398143
40
0.0882740424398143
40
0.164722794067769
40
0.164722794067769
40
0.202947169881747
40
0.202947169881747
40
0.241171545695724
40
0.241171545695724
40
0.394069048951634
40
0.394069048951634
40
0.432293424765611
40
0.432293424765611
40
0.4514056126726
40
0.4514056126726
40
0.456183659649347
40
0.458572683137721
40
0.459169939009814
40
0.459169939009814
40
0.459468566945861
40
0.459468566945861
40
0.459767194881907
40
0.459767194881907
40
0.460961706626094
40
0.460961706626094
40
0.470517800579588
40
0.470517800579588
40
0.508742176393562
40
0.508742176393562
40
0.546966552207537
40
0.546966552207537
40
0.623415303835486
40
0.623415303835486
40
0.699864055463435
40
0.699864055463435
40
0.718976243370422
40
0.718976243370422
40
0.728532337323916
40
0.728532337323916
40
0.738088431277409
40
0.738088431277409
40
0.739282943021596
40
0.739282943021596
40
0.740477454765782
40
0.740477454765782
40
0.740776082701829
40
0.740776082701829
40
0.741074710637876
40
0.741671966509969
40
0.742866478254156
40
0.747644525230903
40
0.747644525230903
40
0.757200619184396
40
0.757200619184396
40
0.776312807091382
40
0.776312807091382
40
0.814537182905355
40
0.814537182905355
40
0.852761558719328
40
0.852761558719328
40
0.929210310347275
40
0.929210310347275
40
0.967434686161248
40
0.967434686161248
40
1
40
1
40
1
40
1
41
1
10
14.7876512723479
20
1.49840139377019
30
0
41
1
10
14.7571527110236
20
1.50615220011568
30
0
41
1
10
14.7266394251549
20
1.51363089827493
30
0
41
1
10
14.5974209358337
20
1.54407267545119
30
0
41
1
10
14.4985429513914
20
1.56431263235393
30
0
41
1
10
14.3000797076172
20
1.59760798249556
30
0
41
1
10
14.2002093245816
20
1.61066448951607
30
0
41
1
10
13.9029462747299
20
1.63691059208429
30
0
41
1
10
13.7069935345024
20
1.63729900883112
30
0
41
1
10
13.4137181108223
20
1.6090829579108
30
0
41
1
10
13.3160495073025
20
1.59490609393561
30
0
41
1
10
13.1202370311788
20
1.55686514860059
30
0
41
1
10
13.0218430867329
20
1.53292792656671
30
0
41
1
10
12.5294640062566
20
1.39012170721978
30
0
41
1
10
12.1495091367585
20
1.20717441261695
30
0
41
1
10
11.6601590684136
20
0.935883267574354
30
0
41
1
10
11.562315370715
20
0.87987629304331
30
0
41
1
10
11.4152911351299
20
0.794215006401771
30
0
41
1
10
11.366276325258
20
0.765406487515435
30
0
41
1
10
11.3049704679936
20
0.72917511531756
30
0
41
1
10
11.2865762522526
20
0.718289326750892
30
0
41
1
10
11.2666469362487
20
0.706474242180064
30
0
41
1
10
11.2589813339844
20
0.701926631863671
30
0
41
1
10
11.2566816266834
20
0.7005621533566
30
0
41
1
10
11.2559298792061
20
0.699876505957263
30
0
41
1
10
11.2566884543294
20
0.69829324420067
30
0
41
1
10
11.2572695986961
20
0.697627094024199
30
0
41
1
10
11.2601657944968
20
0.694387831293653
30
0
41
1
10
11.2628513408414
20
0.692170181419755
30
0
41
1
10
11.2869201694533
20
0.672282783811312
30
0
41
1
10
11.310139962008
20
0.657005540575142
30
0
41
1
10
11.4246996938249
20
0.578925686546228
30
0
41
1
10
11.5182288324877
20
0.519332542264323
30
0
41
1
10
11.7051522433628
20
0.40020546487915
30
0
41
1
10
11.7989134787457
20
0.341180867337641
30
0
41
1
10
12.08056659831
20
0.164941770663035
30
0
41
1
10
12.2684607690538
20
0.0481175907995635
30
0
41
1
10
12.6444843985875
20
-0.184230349697145
30
0
41
1
10
12.8325233818573
20
-0.299987158396277
30
0
41
1
10
13.0660450429978
20
-0.445874347000085
30
0
41
1
10
13.1126753523403
20
-0.47511095955096
30
0
41
1
10
13.1823055901973
20
-0.519249368541921
30
0
41
1
10
13.2054646836533
20
-0.53400705004222
30
0
41
1
10
13.2515292102898
20
-0.563762883905468
30
0
41
1
10
13.274637977083
20
-0.578614955713505
30
0
41
1
10
13.2995524439545
20
-0.596201755275956
30
0
41
1
10
13.302298971355
20
-0.598172039388828
30
0
41
1
10
13.3076736975655
20
-0.602201093736113
30
0
41
1
10
13.3104600574326
20
-0.604141308494235
30
0
41
1
10
13.3131732780756
20
-0.607143423940698
30
0
41
1
10
13.3134868730279
20
-0.60789729457386
30
0
41
1
10
13.3121131509809
20
-0.608421654523795
30
0
41
1
10
13.310052576785
20
-0.609207214164798
30
0
41
1
10
13.3052446504074
20
-0.611033311252839
30
0
41
1
10
13.2901345039709
20
-0.616729183154149
30
0
41
1
10
13.2763990203789
20
-0.621775723566202
30
0
41
1
10
13.2434361006314
20
-0.633630942703746
30
0
41
1
10
13.2214691686708
20
-0.641190605686489
30
0
41
1
10
13.1555623577165
20
-0.662819128300754
30
0
41
1
10
13.1115820623155
20
-0.675844646468391
30
0
41
1
10
12.9799329052718
20
-0.710407962337996
30
0
41
1
10
12.8924018550751
20
-0.727503324400914
30
0
41
1
10
12.7162174751577
20
-0.749120716119336
30
0
41
1
10
12.6271380193
20
-0.753619095104
30
0
41
1
10
12.3585224271203
20
-0.747023789868194
30
0
41
1
10
12.1790676533072
20
-0.716003875903255
30
0
41
1
10
11.898883568612
20
-0.632506688487297
30
0
41
1
10
11.803035540844
20
-0.598251314300711
30
0
41
1
10
11.6254913550368
20
-0.526416670345725
30
0
41
1
10
11.5435197217967
20
-0.490054995177587
30
0
41
1
10
11.4610246389721
20
-0.451049093223503
30
0
0
SPLINE
5
B8
100
AcDbEntity
8
1
62
256
6
ByLayer
370
18
48
1
60
0
100
AcDbSpline
70
4
71
3
72
18
73
14
40
0
40
0
40
0
40
0
40
0.25
40
0.25
40
0.5
40
0.5
40
0.625
40
0.625
40
0.75
40
0.75
40
0.875
40
0.875
40
1
40
1
40
1
40
1
41
1
10
55.9291751207826
20
0.846754532936245
30
0
41
1
10
56.0063028563179
20
0.864694593898577
30
0
41
1
10
56.0829488387224
20
0.885155122730595
30
0
41
1
10
56.2326688088765
20
0.934251314986625
30
0
41
1
10
56.3059334581309
20
0.962643175788685
30
0
41
1
10
56.4108277535959
20
1.01778803825806
30
0
41
1
10
56.4445068778496
20
1.03810004675748
30
0
41
1
10
56.5077476431976
20
1.08483222835582
30
0
41
1
10
56.5372668318877
20
1.11132387968198
30
0
41
1
10
56.5866840065653
20
1.17146376516553
30
0
41
1
10
56.6071819329239
20
1.20639460787302
30
0
41
1
10
56.6316021475066
20
1.28168661625253
30
0
41
1
10
56.635545395941
20
1.32249809406889
30
0
41
1
10
56.6319635127312
20
1.36241391959882
30
0
0
SPLINE
5
B9
100
AcDbEntity
8
1
62
256
6
ByLayer
370
13
48
1
60
0
100
AcDbSpline
70
4
71
3
72
8
73
4
40
0
40
0
40
0
40
0
40
1
40
1
40
1
40
1
41
1
10
9.12501183394767
20
-2.63070937659458
30
0
41
1
10
9.1252122904566
20
-2.62518487774915
30
0
41
1
10
9.12541322621507
20
-2.61966024956425
30
0
41
1
10
9.12561464192123
20
-2.61413549075431
30
0
0
SPLINE
5
BA
100
AcDbEntity
8
1
62
256
6
ByLayer
370
18
48
1
60
0
100
AcDbSpline
70
4
71
3
72
14
73
10
40
0
40
0
40
0
40
0
40
0.223534926618699
40
0.223534926618699
40
0.462600629528812
40
0.462600629528812
40
0.701666332438925
40
0.701666332438925
40
1
40
1
40
1
40
1
41
1
10
40.6834238948073
20
-2.63464639401965
30
0
41
1
10
40.4567324917608
20
-2.63469671081921
30
0
41
1
10
40.229900031651
20
-2.62580448444572
30
0
41
1
10
39.759137231314
20
-2.58895394797267
30
0
41
1
10
39.515021057786
20
-2.55971408870062
30
0
41
1
10
39.0237447633956
20
-2.4805192985574
30
0
41
1
10
38.7793699518076
20
-2.43094699753982
30
0
41
1
10
38.232238140288
20
-2.29930642318806
30
0
41
1
10
37.9296526183884
20
-2.21215984462245
30
0
41
1
10
37.6271216649472
20
-2.11221513697134
30
0
0
SPLINE
5
BB
100
AcDbEntity
8
1
62
256
6
ByLayer
370
13
48
1
60
0
100
AcDbSpline
70
4
71
3
72
26
73
22
40
0
40
0
40
0
40
0
40
0.070163172190936
40
0.070163172190936
40
0.163454713224216
40
0.163454713224216
40
0.256746254257496
40
0.256746254257496
40
0.350037795290776
40
0.350037795290776
40
0.443329336324057
40
0.443329336324057
40
0.629912418390617
40
0.629912418390617
40
0.816495500457177
40
0.816495500457177
40
0.863141270973815
40
0.863141270973815
40
0.909787041490453
40
0.909787041490453
40
1
40
1
40
1
40
1
41
1
10
37.6271216650038
20
-2.11221513699002
30
0
41
1
10
37.4447943345607
20
-2.05198112942691
30
0
41
1
10
37.2624868242065
20
-1.98709864792318
30
0
41
1
10
36.8372635423383
20
-1.82576393941341
30
0
41
1
10
36.5940468467938
20
-1.72609265309316
30
0
41
1
10
36.105091590116
20
-1.51310204715372
30
0
41
1
10
35.8588693583872
20
-1.39940909069642
30
0
41
1
10
35.3687456669047
20
-1.1624484438486
30
0
41
1
10
35.1240193438224
20
-1.0392106437516
30
0
41
1
10
34.6339641858214
20
-0.785295693457556
30
0
41
1
10
34.3881596339201
20
-0.654292909522638
30
0
41
1
10
33.6520091272602
20
-0.255741685593648
30
0
41
1
10
33.1636235989742
20
0.0169561244773888
30
0
41
1
10
32.1805961607216
20
0.556327032086443
30
0
41
1
10
31.6925166053103
20
0.819219891192489
30
0
41
1
10
31.080759914875
20
1.12798076608775
30
0
41
1
10
30.9583075215551
20
1.18872646469367
30
0
41
1
10
30.7129686108511
20
1.30780202192679
30
0
41
1
10
30.5899010437033
20
1.36621960254769
30
0
41
1
10
30.2301016769681
20
1.53280203234496
30
0
41
1
10
29.9942628517087
20
1.63683345378098
30
0
41
1
10
29.75906406838
20
1.73433487011513
30
0
0
SPLINE
5
BC
100
AcDbEntity
8
1
62
256
6
ByLayer
370
18
48
1
60
0
100
AcDbSpline
70
4
71
3
72
12
73
8
40
0
40
0
40
0
40
0
40
0.0084281669824512
40
0.0084281669824512
40
0.504214083491226
40
0.504214083491226
40
1
40
1
40
1
40
1
41
1
10
10.7290846733105
20
-2.61661520834053
30
0
41
1
10
10.7249568793157
20
-2.61660531141547
30
0
41
1
10
10.7208290140447
20
-2.61659247974083
30
0
41
1
10
10.4738755250952
20
-2.61564924272821
30
0
41
1
10
10.2307300276946
20
-2.60455997517764
30
0
41
1
10
9.74227690877976
20
-2.56180694942171
30
0
41
1
10
9.49639731504462
20
-2.53001643830257
30
0
41
1
10
9.25033450539914
20
-2.48805270592234
30
0
0
SPLINE
5
BD
100
AcDbEntity
8
1
62
256
6
ByLayer
370
18
48
1
60
0
100
AcDbSpline
70
4
71
3
72
16
73
12
40
0
40
0
40
0
40
0
40
0.25
40
0.25
40
0.5
40
0.5
40
0.625
40
0.625
40
0.75
40
0.75
40
1
40
1
40
1
40
1
41
1
10
55.7703085875155
20
0.553640207661942
30
0
41
1
10
55.7650094675369
20
0.582291654549692
30
0
41
1
10
55.7635110212954
20
0.61159630347521
30
0
41
1
10
55.7691103355168
20
0.671895695536449
30
0
41
1
10
55.7761458646828
20
0.702102043853586
30
0
41
1
10
55.7950096504411
20
0.745538980425295
30
0
41
1
10
55.8024025456126
20
0.759796339432398
30
0
41
1
10
55.8207471037018
20
0.785787966481678
30
0
41
1
10
55.8317623582856
20
0.797372833426721
30
0
41
1
10
55.8687595080164
20
0.826948317682564
30
0
41
1
10
55.898405697458
20
0.839597505362832
30
0
41
1
10
55.929175120782
20
0.846754532940309
30
0
0
SPLINE
5
BE
100
AcDbEntity
8
1
62
256
6
ByLayer
370
18
48
1
60
0
100
AcDbSpline
70
4
71
3
72
20
73
16
40
0
40
0
40
0
40
0
40
0.124999999999999
40
0.124999999999999
40
0.249999999999997
40
0.249999999999997
40
0.499999999999998
40
0.499999999999998
40
0.624999999999999
40
0.624999999999999
40
0.749999999999999
40
0.749999999999999
40
0.875
40
0.875
40
1
40
1
40
1
40
1
41
1
10
56.0377491385188
20
-2.64376251377448
30
0
41
1
10
55.9982227068947
20
-2.64373807637401
30
0
41
1
10
55.9606587104484
20
-2.6378145180536
30
0
41
1
10
55.8896554170943
20
-2.61356846889424
30
0
41
1
10
55.856009023562
20
-2.59506659149147
30
0
41
1
10
55.7634388766558
20
-2.52053673587167
30
0
41
1
10
55.7132162424889
20
-2.44664915505331
30
0
41
1
10
55.6561152377865
20
-2.29741699011845
30
0
41
1
10
55.64007210718
20
-2.2406295741948
30
0
41
1
10
55.6153719412795
20
-2.11658283210988
30
0
41
1
10
55.6066000854772
20
-2.04930560282588
30
0
41
1
10
55.5961492022508
20
-1.90433684877254
30
0
41
1
10
55.5944693821323
20
-1.82664648790492
30
0
41
1
10
55.5984722584551
20
-1.66045549149786
30
0
41
1
10
55.6041909808195
20
-1.57251692546731
30
0
41
1
10
55.6134287606504
20
-1.48163911325329
30
0
0
SPLINE
5
BF
100
AcDbEntity
8
1
62
256
6
ByLayer
370
18
48
1
60
0
100
AcDbSpline
70
4
71
3
72
18
73
14
40
0
40
0
40
0
40
0
40
0.250000000000008
40
0.250000000000008
40
0.375000000000011
40
0.375000000000011
40
0.500000000000015
40
0.500000000000015
40
0.750000000000013
40
0.750000000000013
40
0.875000000000006
40
0.875000000000006
40
1
40
1
40
1
40
1
41
1
10
56.6319635127313
20
1.36241391959885
30
0
41
1
10
56.5902281104188
20
1.47514229321726
30
0
41
1
10
56.5482240537284
20
1.58779763109939
30
0
41
1
10
56.484705995755
20
1.75605877954769
30
0
41
1
10
56.4634590554905
20
1.8120373673359
30
0
41
1
10
56.4209846009359
20
1.92402291803452
30
0
41
1
10
56.3997309820039
20
1.9799917504298
30
0
41
1
10
56.3358074445688
20
2.14766062334135
30
0
41
1
10
56.2929114200983
20
2.25924702024594
30
0
41
1
10
56.2280503956416
20
2.42416818136269
30
0
41
1
10
56.2064157029239
20
2.47908035563725
30
0
41
1
10
56.1630498432024
20
2.58849096856841
30
0
41
1
10
56.1413160042162
20
2.64297794827195
30
0
41
1
10
56.1194224685767
20
2.69678005953989
30
0
0
SPLINE
5
C0
100
AcDbEntity
8
1
62
256
6
ByLayer
370
18
48
1
60
0
100
AcDbSpline
70
4
71
3
72
12
73
8
40
0
40
0
40
0
40
0
40
0.25
40
0.25
40
0.5
40
0.5
40
1
40
1
40
1
40
1
41
1
10
56.0641469465262
20
-2.71880873563001
30
0
41
1
10
56.0691414485279
20
-2.70556240391531
30
0
41
1
10
56.0737591771513
20
-2.69196156912756
30
0
41
1
10
56.0807944883955
20
-2.66767260553888
30
0
41
1
10
56.0831702849625
20
-2.65704998731943
30
0
41
1
10
56.0862030485466
20
-2.63416414264518
30
0
41
1
10
56.0833100396031
20
-2.62999755959564
30
0
41
1
10
56.0782308315581
20
-2.63255911575922
30
0
0
SPLINE
5
C1
100
AcDbEntity
8
1
62
256
6
ByLayer
370
18
48
1
60
0
100
AcDbSpline
70
4
71
3
72
26
73
22
40
0
40
0
40
0
40
0
40
0.13235154163163
40
0.13235154163163
40
0.226620008977009
40
0.226620008977009
40
0.273754242649698
40
0.273754242649698
40
0.320888476322387
40
0.320888476322387
40
0.509425411013147
40
0.509425411013147
40
0.603693878358527
40
0.603693878358527
40
0.650828112031218
40
0.650828112031218
40
0.697962345703908
40
0.697962345703908
40
0.886499280394669
40
0.886499280394669
40
1
40
1
40
1
40
1
41
1
10
14.0319944218981
20
2.02073503815294
30
0
41
1
10
14.3730137603349
20
1.89079910646822
30
0
41
1
10
14.7134744229776
20
1.74544402018381
30
0
41
1
10
15.2989677721652
20
1.47462025647044
30
0
41
1
10
15.5432159885103
20
1.35537174065374
30
0
41
1
10
15.9116474865637
20
1.16792098023848
30
0
41
1
10
16.0349117833279
20
1.10393821577824
30
0
41
1
10
16.2802803231065
20
0.974534368511058
30
0
41
1
10
16.4026357102839
20
0.908995958992051
30
0
41
1
10
17.0131582670317
20
0.577804827632889
30
0
41
1
10
17.497557927808
20
0.301665965731644
30
0
41
1
10
18.2264772781786
20
-0.114454864971861
30
0
41
1
10
18.4698622812845
20
-0.253437669496123
30
0
41
1
10
18.8365255228203
20
-0.4606066553321
30
0
41
1
10
18.9590235823298
20
-0.529422775976627
30
0
41
1
10
19.2047331482623
20
-0.666289896971449
30
0
41
1
10
19.3279748252971
20
-0.734353904342157
30
0
41
1
10
19.9411375729436
20
-1.06919985348668
30
0
41
1
10
20.4264132254543
20
-1.32139493688436
30
0
41
1
10
21.2043190488648
20
-1.68691542312496
30
0
41
1
10
21.4967229035376
20
-1.81564377991819
30
0
41
1
10
21.7904344324054
20
-1.93389178150429
30
0
0
SPLINE
5
C2
100
AcDbEntity
8
1
62
256
6
ByLayer
370
13
48
1
60
0
100
AcDbSpline
70
4
71
3
72
20
73
16
40
0
40
0
40
0
40
0
40
0.118291880601922
40
0.118291880601922
40
0.266902711654666
40
0.266902711654666
40
0.41551354270741
40
0.41551354270741
40
0.489818958233784
40
0.489818958233784
40
0.564124373760158
40
0.564124373760158
40
0.712735204812903
40
0.712735204812903
40
1
40
1
40
1
40
1
41
1
10
21.7904344323611
20
-1.93389178148644
30
0
41
1
10
21.9846094255372
20
-2.01206646189411
30
0
41
1
10
22.179355955466
20
-2.08566056083535
30
0
41
1
10
22.6208538451814
20
-2.24016864821539
30
0
41
1
10
22.8668202739364
20
-2.31752155419414
30
0
41
1
10
23.3576109667703
20
-2.45294269649887
30
0
41
1
10
23.6028275394907
20
-2.51119959434919
30
0
41
1
10
23.971425732341
20
-2.58341293969389
30
0
41
1
10
24.0946096889371
20
-2.6049768828814
30
0
41
1
10
24.3401541757106
20
-2.64268063769634
30
0
41
1
10
24.462594578586
20
-2.65885266626017
30
0
41
1
10
24.8290920074988
20
-2.69941968470695
30
0
41
1
10
25.0723349192793
20
-2.7158776373075
30
0
41
1
10
25.7845512489417
20
-2.73284301537086
30
0
41
1
10
26.2526226429763
20
-2.70430586752255
30
0
41
1
10
26.7242946130793
20
-2.63646787215433
30
0
0
SPLINE
5
C3
100
AcDbEntity
8
1
62
256
6
ByLayer
370
13
48
1
60
0
100
AcDbSpline
70
4
71
3
72
14
73
10
40
0
40
0
40
0
40
0
40
0.196386662162547
40
0.196386662162547
40
0.408927109945666
40
0.408927109945666
40
0.621467557728784
40
0.621467557728784
40
1
40
1
40
1
40
1
41
1
10
40.7597015472722
20
2.7284158294693
30
0
41
1
10
40.9837727722801
20
2.72086052259317
30
0
41
1
10
41.2077982937128
20
2.70424441626938
30
0
41
1
10
41.6752823999792
20
2.65085717981168
30
0
41
1
10
41.9187610005463
20
2.61258276056634
30
0
41
1
10
42.4081974959315
20
2.51525782904054
30
0
41
1
10
42.6546254927604
20
2.45597588283954
30
0
41
1
10
43.3341349197386
20
2.26625339063034
30
0
41
1
10
43.765490672846
20
2.11569858800345
30
0
41
1
10
44.1973790562249
20
1.94134042187537
30
0
0
SPLINE
5
C4
100
AcDbEntity
8
1
62
256
6
ByLayer
370
18
48
1
60
0
100
AcDbSpline
70
4
71
3
72
28
73
24
40
0
40
0
40
0
40
0
40
0.0212362674562384
40
0.0212362674562384
40
0.118201160486279
40
0.118201160486279
40
0.166683607001297
40
0.166683607001297
40
0.215166053516314
40
0.215166053516314
40
0.409095839576377
40
0.409095839576377
40
0.603025625636441
40
0.603025625636441
40
0.699990518666474
40
0.699990518666474
40
0.796955411696508
40
0.796955411696508
40
0.893920304726541
40
0.893920304726541
40
0.990885197756575
40
0.990885197756575
40
1
40
1
40
1
40
1
41
1
10
44.1973790562275
20
1.94134042187429
30
0
41
1
10
44.2504887345457
20
1.91989945130967
30
0
41
1
10
44.3036064672074
20
1.89809853037457
30
0
41
1
10
44.5993498141012
20
1.77480536094657
30
0
41
1
10
44.8421103578337
20
1.66609315024647
30
0
41
1
10
45.2075103263977
20
1.49296988282782
30
0
41
1
10
45.3295441093071
20
1.43363151979287
30
0
41
1
10
45.5743829620534
20
1.31212493946686
30
0
41
1
10
45.6974419402615
20
1.24980715647078
30
0
41
1
10
46.3113161691381
20
0.932672304455366
30
0
41
1
10
46.7963149320424
20
0.662662912341773
30
0
41
1
10
47.7658504320868
20
0.110736060298137
30
0
41
1
10
48.2506315219904
20
-0.170790932708343
30
0
41
1
10
48.9855631363528
20
-0.587791801043579
30
0
41
1
10
49.2317173008175
20
-0.725497261029801
30
0
41
1
10
49.7218411432597
20
-0.993057542057954
30
0
41
1
10
49.9665768777734
20
-1.12336143848771
30
0
41
1
10
50.4568867823399
20
-1.37460312525198
30
0
41
1
10
50.703114135393
20
-1.49565223035816
30
0
41
1
10
51.1918582886095
20
-1.72319334666713
30
0
41
1
10
51.4350290389876
20
-1.83003136405154
30
0
41
1
10
51.7004627422531
20
-1.93852135857489
30
0
41
1
10
51.7232649628714
20
-1.94777544899424
30
0
41
1
10
51.7460628573235
20
-1.95696106432939
30
0
0
SPLINE
5
C5
100
AcDbEntity
8
1
62
256
6
ByLayer
370
13
48
1
60
0
100
AcDbSpline
70
4
71
3
72
14
73
10
40
0
40
0
40
0
40
0
40
0.322722534078723
40
0.322722534078723
40
0.492041900559042
40
0.492041900559042
40
0.661361267039362
40
0.661361267039362
40
1
40
1
40
1
40
1
41
1
10
51.7460628564628
20
-1.95696106398265
30
0
41
1
10
52.2083211023713
20
-2.14321187947471
30
0
41
1
10
52.6688007287545
20
-2.30131048898613
30
0
41
1
10
53.3758532829692
20
-2.4910399777599
30
0
41
1
10
53.6200605239646
20
-2.5470913990128
30
0
41
1
10
54.1116060330507
20
-2.63905453128669
30
0
41
1
10
54.3561182174634
20
-2.67450093965357
30
0
41
1
10
55.0883363295564
20
-2.74880135698686
30
0
41
1
10
55.5746287253332
20
-2.75563021523143
30
0
41
1
10
56.06414694653
20
-2.71880873562972
30
0
0
SPLINE
5
C6
100
AcDbEntity
8
1
62
256
6
ByLayer
370
18
48
1
60
0
100
AcDbSpline
70
4
71
3
72
68
73
64
40
0
40
0
40
0
40
0
40
0.0143793666334413
40
0.0143793666334413
40
0.0504932702952116
40
0.0504932702952116
40
0.086607173956982
40
0.086607173956982
40
0.122721077618752
40
0.122721077618752
40
0.158834981280523
40
0.158834981280523
40
0.194948884942293
40
0.194948884942293
40
0.231062788604064
40
0.231062788604064
40
0.267176692265834
40
0.267176692265834
40
0.303290595927604
40
0.303290595927604
40
0.32134754775849
40
0.32134754775849
40
0.339404499589375
40
0.339404499589375
40
0.375518403251143
40
0.375518403251143
40
0.393575355082028
40
0.393575355082028
40
0.411632306912912
40
0.411632306912912
40
0.447746210574682
40
0.447746210574682
40
0.483860114236453
40
0.483860114236453
40
0.519974017898223
40
0.519974017898223
40
0.556087921559993
40
0.556087921559993
40
0.592201825221764
40
0.592201825221764
40
0.628315728883534
40
0.628315728883534
40
0.664429632545305
40
0.664429632545305
40
0.700543536207075
40
0.700543536207075
40
0.736657439868845
40
0.736657439868845
40
0.772771343530616
40
0.772771343530616
40
0.808885247192386
40
0.808885247192386
40
0.844999150854156
40
0.844999150854156
40
0.881113054515927
40
0.881113054515927
40
0.917226958177697
40
0.917226958177697
40
0.953340861839468
40
0.953340861839468
40
0.989454765501238
40
0.989454765501238
40
1
40
1
40
1
40
1
41
1
10
51.3615136131812
20
-2.0269502256649
30
0
41
1
10
51.2735802189446
20
-2.05819761196912
30
0
41
1
10
51.1856739173841
20
-2.08845202736117
30
0
41
1
10
50.8774072483871
20
-2.19102480831603
30
0
41
1
10
50.6572896266502
20
-2.25713056749439
30
0
41
1
10
50.2165288144217
20
-2.3730092500706
30
0
41
1
10
49.9960083904388
20
-2.42383800823455
30
0
41
1
10
49.554881950008
20
-2.51126253378169
30
0
41
1
10
49.334146671984
20
-2.54694228424353
30
0
41
1
10
48.8933098253727
20
-2.60036557629823
30
0
41
1
10
48.6729884983827
20
-2.6189087780136
30
0
41
1
10
48.2326499683858
20
-2.63992608205589
30
0
41
1
10
48.0116210624592
20
-2.64198378177085
30
0
41
1
10
47.5702378381477
20
-2.62760784018138
30
0
41
1
10
47.3498608378621
20
-2.61165015947193
30
0
41
1
10
46.9097663789585
20
-2.5644196704375
30
0
41
1
10
46.6894740907499
20
-2.53313917840086
30
0
41
1
10
46.247448746213
20
-2.45447420468514
30
0
41
1
10
46.0272070267004
20
-2.40730577031982
30
0
41
1
10
45.6989928614955
20
-2.3244291188702
30
0
41
1
10
45.5897908488348
20
-2.29495220987636
30
0
41
1
10
45.3714950068011
20
-2.23164346958495
30
0
41
1
10
45.2623893145342
20
-2.19817657052528
30
0
41
1
10
44.9350962823082
20
-2.09462563944024
30
0
41
1
10
44.7170554600352
20
-2.02005823191808
30
0
41
1
10
44.3903970187018
20
-1.89752495964231
30
0
41
1
10
44.2814858298686
20
-1.85504357613195
30
0
41
1
10
44.063211397215
20
-1.76703066095413
30
0
41
1
10
43.9538435897675
20
-1.72108762675981
30
0
41
1
10
43.6251970497835
20
-1.58018437191478
30
0
41
1
10
43.405455037256
20
-1.4819904261067
30
0
41
1
10
42.9644444898985
20
-1.27346339920533
30
0
41
1
10
42.7441583920507
20
-1.16473286490108
30
0
41
1
10
42.3037382909466
20
-0.94097850293511
30
0
41
1
10
42.0835049466767
20
-0.826535764094132
30
0
41
1
10
41.6433563995153
20
-0.591441389439638
30
0
41
1
10
41.4224698095529
20
-0.471342729068368
30
0
41
1
10
40.9816248771309
20
-0.230106716542622
30
0
41
1
10
40.7614777226246
20
-0.10882599212934
30
0
41
1
10
40.3218523327271
20
0.135312069110114
30
0
41
1
10
40.1017558713742
20
0.257034780099985
30
0
41
1
10
39.6601129814717
20
0.498144150470466
30
0
41
1
10
39.4396458204106
20
0.617255155019762
30
0
41
1
10
39.0001667661583
20
0.851469061654143
30
0
41
1
10
38.7803954538493
20
0.965430751604401
30
0
41
1
10
38.3397125250077
20
1.18701910602505
30
0
41
1
10
38.1186309857307
20
1.29489720114108
30
0
41
1
10
37.6786997523894
20
1.50187997712598
30
0
41
1
10
37.4589944331477
20
1.59973704859902
30
0
41
1
10
37.0188317799522
20
1.78530565186429
30
0
41
1
10
36.7985658518625
20
1.87318562629514
30
0
41
1
10
36.3577076443102
20
2.03713404250493
30
0
41
1
10
36.1378151418349
20
2.11153854649552
30
0
41
1
10
35.6976917495293
20
2.24635419669201
30
0
41
1
10
35.4776341536207
20
2.30779495953658
30
0
41
1
10
35.0377192202021
20
2.41605091509498
30
0
41
1
10
34.8169927761279
20
2.46233133158458
30
0
41
1
10
34.3765324671745
20
2.53733377425638
30
0
41
1
10
34.1565475530606
20
2.56697310289601
30
0
41
1
10
33.7171123243273
20
2.6090057351737
30
0
41
1
10
33.4969375884036
20
2.62261828561603
30
0
41
1
10
33.2118668713635
20
2.62964125714384
30
0
41
1
10
33.1474859485222
20
2.6304858465673
30
0
41
1
10
33.0831508387661
20
2.63057867837108
30
0
0
SPLINE
5
C7
100
AcDbEntity
8
1
62
256
6
ByLayer
370
18
48
1
60
0
100
AcDbSpline
70
4
71
3
72
36
73
32
40
0
40
0
40
0
40
0
40
0.0043149771637067
40
0.0043149771637067
40
0.0706939786861262
40
0.0706939786861262
40
0.137072980208546
40
0.137072980208546
40
0.203451981730965
40
0.203451981730965
40
0.269830983253384
40
0.269830983253384
40
0.336209984775804
40
0.336209984775804
40
0.402588986298223
40
0.402588986298223
40
0.468967987820643
40
0.468967987820643
40
0.535346989343062
40
0.535346989343062
40
0.601725990865482
40
0.601725990865482
40
0.668104992387901
40
0.668104992387901
40
0.73448399391032
40
0.73448399391032
40
0.80086299543274
40
0.80086299543274
40
0.86724199695516
40
0.86724199695516
40
1
40
1
40
1
40
1
41
1
10
21.4223655292722
20
-2.01682227150096
30
0
41
1
10
21.4080292829155
20
-2.02186090076037
30
0
41
1
10
21.3936926094631
20
-2.02687501843866
30
0
41
1
10
21.15879994077
20
-2.10862637999392
30
0
41
1
10
20.9383075240566
20
-2.17935098078928
30
0
41
1
10
20.4973622632215
20
-2.30625269421228
30
0
41
1
10
20.276107108855
20
-2.36111952810788
30
0
41
1
10
19.8345232495454
20
-2.45664527236832
30
0
41
1
10
19.6139784899249
20
-2.49594037289776
30
0
41
1
10
19.1733012310087
20
-2.56028673762734
30
0
41
1
10
18.9522710422339
20
-2.58501691230185
30
0
41
1
10
18.510094752834
20
-2.61675031475784
30
0
41
1
10
18.2895520910163
20
-2.62284296704306
30
0
41
1
10
17.8491778156672
20
-2.61890100627954
30
0
41
1
10
17.6287644260233
20
-2.60970595770405
30
0
41
1
10
17.1867775856031
20
-2.57437344644214
30
0
41
1
10
16.9655353641506
20
-2.54811890059145
30
0
41
1
10
16.5251099910135
20
-2.47782340842212
30
0
41
1
10
16.304880461551
20
-2.43518268267437
30
0
41
1
10
15.8635568568366
20
-2.33385583639327
30
0
41
1
10
15.6422084000403
20
-2.27599681323653
30
0
41
1
10
15.201182964376
20
-2.14597444086291
30
0
41
1
10
14.9809347044376
20
-2.07398859764058
30
0
41
1
10
14.5400092060922
20
-1.91636518325328
30
0
41
1
10
14.319417729201
20
-1.83108150057544
30
0
41
1
10
13.8780515924719
20
-1.6494056339572
30
0
41
1
10
13.6575629976224
20
-1.55335956798047
30
0
41
1
10
13.2179838501588
20
-1.35224146558082
30
0
41
1
10
12.9986430946465
20
-1.24736583672328
30
0
41
1
10
12.3418105990916
20
-0.920898987150991
30
0
41
1
10
11.9029055093855
20
-0.691242263111832
30
0
41
1
10
11.4612055606534
20
-0.451134634035128
30
0
0
SPLINE
5
C8
100
AcDbEntity
8
1
62
256
6
ByLayer
370
18
48
1
60
0
100
AcDbSpline
70
4
71
3
72
8
73
4
40
0
40
0
40
0
40
0
40
1
40
1
40
1
40
1
41
1
10
14.7876515428589
20
1.49840132502337
30
0
41
1
10
14.788096508908
20
1.4981826017989
30
0
41
1
10
14.7885414749571
20
1.49796385837067
30
0
41
1
10
14.7889864410062
20
1.4977450947475
30
0
0
SPLINE
5
C9
100
AcDbEntity
8
1
62
256
6
ByLayer
370
18
48
1
60
0
100
AcDbSpline
70
4
71
3
72
22
73
18
40
0
40
0
40
0
40
0
40
0.125000000000005
40
0.125000000000005
40
0.187500000000007
40
0.187500000000007
40
0.250000000000009
40
0.250000000000009
40
0.375000000000008
40
0.375000000000008
40
0.500000000000006
40
0.500000000000006
40
0.750000000000003
40
0.750000000000003
40
0.875000000000002
40
0.875000000000002
40
1
40
1
40
1
40
1
41
1
10
53.7441364361016
20
0.967507795446323
30
0
41
1
10
53.7733828232782
20
0.845804226067685
30
0
41
1
10
53.8133014142424
20
0.724168966060773
30
0
41
1
10
53.8871222407469
20
0.541805320360623
30
0
41
1
10
53.9142075569059
20
0.480752110517472
30
0
41
1
10
53.9721698760198
20
0.360112383114341
30
0
41
1
10
54.0029326090009
20
0.300706621197776
30
0
41
1
10
54.1000246918156
20
0.124954144793975
30
0
41
1
10
54.1711446683453
20
0.0110654375698971
30
0
41
1
10
54.3241967135487
20
-0.211164435251362
30
0
41
1
10
54.4055590466052
20
-0.318579746068991
30
0
41
1
10
54.657583060168
20
-0.626735084846871
30
0
41
1
10
54.837713347985
20
-0.81599692774077
30
0
41
1
10
55.1217088448812
20
-1.08146377147065
30
0
41
1
10
55.2185359932627
20
-1.16662191989985
30
0
41
1
10
55.4141346863663
20
-1.32932999234902
30
0
41
1
10
55.5131938382624
20
-1.40713888557184
30
0
41
1
10
55.6134287606504
20
-1.48163911325327
30
0
0
SPLINE
5
CA
100
AcDbEntity
8
1
62
256
6
ByLayer
370
18
48
1
60
0
100
AcDbSpline
70
4
71
3
72
10
73
6
40
0
40
0
40
0
40
0
40
0.5
40
0.5
40
1
40
1
40
1
40
1
41
1
10
9.0841971380078
20
-2.62190875710562
30
0
41
1
10
9.0674606383451
20
-2.61739651661236
30
0
41
1
10
9.0534146554613
20
-2.61188624984058
30
0
41
1
10
9.03354680564573
20
-2.59919990054493
30
0
41
1
10
9.0275782528087
20
-2.59196130064166
30
0
41
1
10
9.02758003048515
20
-2.58424851227812
30
0
0
SPLINE
5
CB
100
AcDbEntity
8
1
62
256
6
ByLayer
370
18
48
1
60
0
100
AcDbSpline
70
4
71
3
72
42
73
38
40
0
40
0
40
0
40
0
40
0.0940604456570913
40
0.0940604456570913
40
0.141090668485638
40
0.141090668485638
40
0.188120891314185
40
0.188120891314185
40
0.282181336971278
40
0.282181336971278
40
0.329211559799826
40
0.329211559799826
40
0.376241782628373
40
0.376241782628373
40
0.470302228285469
40
0.470302228285469
40
0.517332451114015
40
0.517332451114015
40
0.564362673942562
40
0.564362673942562
40
0.658423119599655
40
0.658423119599655
40
0.705453342428203
40
0.705453342428203
40
0.728968453842478
40
0.728968453842478
40
0.752483565256753
40
0.752483565256753
40
0.846544010913846
40
0.846544010913846
40
0.893574233742394
40
0.893574233742394
40
0.917089345156667
40
0.917089345156667
40
0.940604456570939
40
0.940604456570939
40
1
40
1
40
1
40
1
41
1
10
56.0496856400856
20
-2.75711311067605
30
0
41
1
10
55.5589538466847
20
-2.79356233757483
30
0
41
1
10
55.0700465601429
20
-2.78569448162401
30
0
41
1
10
54.3315534682052
20
-2.70781856121067
30
0
41
1
10
54.085737981187
20
-2.67087279717259
30
0
41
1
10
53.597149389908
20
-2.57683877680159
30
0
41
1
10
53.3538099234011
20
-2.51967288054266
30
0
41
1
10
52.6245491881716
20
-2.31962199629726
30
0
41
1
10
52.1394686356594
20
-2.14806089256217
30
0
41
1
10
51.4043922871127
20
-1.84175038207806
30
0
41
1
10
51.1572688854073
20
-1.73102680194606
30
0
41
1
10
50.667000986005
20
-1.49841506107472
30
0
41
1
10
50.4231166667306
20
-1.3762947220404
30
0
41
1
10
49.6931567165428
20
-0.995847630160796
30
0
41
1
10
49.2083164053632
20
-0.724176229039671
30
0
41
1
10
48.4758529532275
20
-0.302574179759915
30
0
41
1
10
48.2303189967031
20
-0.159527309478733
30
0
41
1
10
47.7377489377405
20
0.12733229344596
30
0
41
1
10
47.4929694601043
20
0.269842775489195
30
0
41
1
10
46.7613444964352
20
0.691648102996538
30
0
41
1
10
46.2766768204743
20
0.964254197122983
30
0
41
1
10
45.5455936843962
20
1.34592743951797
30
0
41
1
10
45.301361585582
20
1.46884080248216
30
0
41
1
10
44.9331181261819
20
1.64489814790511
30
0
41
1
10
44.8097343869668
20
1.70223472654882
30
0
41
1
10
44.5637186848973
20
1.81290629232882
30
0
41
1
10
44.4410494521107
20
1.86627677706636
30
0
41
1
10
43.8289817745473
20
2.12296803855395
30
0
41
1
10
43.3440483445531
20
2.29652215010921
30
0
41
1
10
42.6141961826137
20
2.49985308560096
30
0
41
1
10
42.37065403754
20
2.55827348186253
30
0
41
1
10
42.0037075322561
20
2.63069275734566
30
0
41
1
10
41.8811167552815
20
2.65229722491844
30
0
41
1
10
41.6351906440164
20
2.69026313192998
30
0
41
1
10
41.5117108027508
20
2.70662956019692
30
0
41
1
10
41.0783643579605
20
2.75446285819669
30
0
41
1
10
40.7701495927559
20
2.77117168395483
30
0
41
1
10
40.4627020657103
20
2.77057808083438
30
0
0
SPLINE
5
CC
100
AcDbEntity
8
1
62
256
6
ByLayer
370
18
48
1
60
0
100
AcDbSpline
70
4
71
3
72
46
73
42
40
0
40
0
40
0
40
0
40
0.015306357544545
40
0.015306357544545
40
0.0599292669727022
40
0.0599292669727022
40
0.0822407216867805
40
0.0822407216867805
40
0.104552176400859
40
0.104552176400859
40
0.193797995257172
40
0.193797995257172
40
0.283043814113485
40
0.283043814113485
40
0.305355268827563
40
0.305355268827563
40
0.327666723541641
40
0.327666723541641
40
0.372289632969797
40
0.372289632969797
40
0.461535451826112
40
0.461535451826112
40
0.506158361254269
40
0.506158361254269
40
0.550781270682426
40
0.550781270682426
40
0.640027089538742
40
0.640027089538742
40
0.684649998966899
40
0.684649998966899
40
0.729272908395057
40
0.729272908395057
40
0.818518727251372
40
0.818518727251372
40
0.863141636679528
40
0.863141636679528
40
0.907764546107685
40
0.907764546107685
40
0.997010364964
40
0.997010364964
40
1
40
1
40
1
40
1
41
1
10
26.9802428246314
20
-2.63169492007358
30
0
41
1
10
26.8967853301477
20
-2.6463657022673
30
0
41
1
10
26.8133195486473
20
-2.65982656457703
30
0
41
1
10
26.4863821925022
20
-2.70773142059178
30
0
41
1
10
26.2426206662087
20
-2.73296810096113
30
0
41
1
10
25.8753640526161
20
-2.75457622153775
30
0
41
1
10
25.7526841347166
20
-2.75907407768256
30
0
41
1
10
25.506652751251
20
-2.76255381845769
30
0
41
1
10
25.3830994638375
20
-2.76151778564338
30
0
41
1
10
24.7680383412415
20
-2.74252803934905
30
0
41
1
10
24.2814083814683
20
-2.68342811570733
30
0
41
1
10
23.3081439182026
20
-2.48416649810295
30
0
41
1
10
22.8211146564039
20
-2.34428102094967
30
0
41
1
10
22.205270180436
20
-2.1229763384454
30
0
41
1
10
22.0817674668383
20
-2.07640166337004
30
0
41
1
10
21.835944495308
20
-1.97968186098345
30
0
41
1
10
21.7133590379336
20
-1.92944204160833
30
0
41
1
10
21.3463133575874
20
-1.77349276615146
30
0
41
1
10
21.1025661623439
20
-1.66255160183158
30
0
41
1
10
20.3721141942932
20
-1.31192924984151
30
0
41
1
10
19.8862128701984
20
-1.05441439734705
30
0
41
1
10
19.1502783148499
20
-0.6456339226973
30
0
41
1
10
18.9027598941748
20
-0.50514771238656
30
0
41
1
10
18.4114261857718
20
-0.223224023693376
30
0
41
1
10
18.1670087615901
20
-0.0816036636210242
30
0
41
1
10
17.4354793351771
20
0.341704512303181
30
0
41
1
10
16.9499694168743
20
0.621622313427622
30
0
41
1
10
16.2164672059645
20
1.02324252556133
30
0
41
1
10
15.9710144526116
20
1.15421469923695
30
0
41
1
10
15.4772794704049
20
1.40704293867631
30
0
41
1
10
15.2319471272877
20
1.52738536025799
30
0
41
1
10
14.4984943814384
20
1.86779471761153
30
0
41
1
10
14.0130401483581
20
2.06735763787179
30
0
41
1
10
13.2811181010771
20
2.31481352195826
30
0
41
1
10
13.0366484762508
20
2.38878792591831
30
0
41
1
10
12.5450302729157
20
2.51772908447748
30
0
41
1
10
12.2974920540297
20
2.57265718690405
30
0
41
1
10
11.561816500776
20
2.70457438080024
30
0
41
1
10
11.0764319826049
20
2.75008144361411
30
0
41
1
10
10.5743472979375
20
2.75263271730805
30
0
41
1
10
10.5580721013002
20
2.75266716378334
30
0
41
1
10
10.5417956202177
20
2.75265335229756
30
0
0
SPLINE
5
CD
100
AcDbEntity
8
1
62
256
6
ByLayer
370
18
48
1
60
0
100
AcDbSpline
70
4
71
3
72
8
73
4
40
0
40
0
40
0
40
0
40
1
40
1
40
1
40
1
41
1
10
9.1250118339473
20
-2.63070937660476
30
0
41
1
10
9.11031472188142
20
-2.62821178867443
30
0
41
1
10
9.09672466493927
20
-2.62528623838563
30
0
41
1
10
9.0841971380089
20
-2.62190875710616
30
0
0
SPLINE
5
CE
100
AcDbEntity
8
1
62
256
6
ByLayer
370
18
48
1
60
0
100
AcDbSpline
70
4
71
3
72
28
73
24
40
0
40
0
40
0
40
0
40
0.125
40
0.125
40
0.25
40
0.25
40
0.499999999999999
40
0.499999999999999
40
0.624999999999999
40
0.624999999999999
40
0.687499999999999
40
0.687499999999999
40
0.749999999999999
40
0.749999999999999
40
0.812499999999999
40
0.812499999999999
40
0.874999999999998
40
0.874999999999998
40
0.906249999999998
40
0.906249999999998
40
0.937499999999999
40
0.937499999999999
40
1
40
1
40
1
40
1
41
1
10
53.7441364361021
20
0.967507795446494
30
0
41
1
10
53.8389117185004
20
0.894613249848646
30
0
41
1
10
53.9345340775297
20
0.824564243406314
30
0
41
1
10
54.1279923077862
20
0.69190196348822
30
0
41
1
10
54.225814001604
20
0.629358346581142
30
0
41
1
10
54.5186964380892
20
0.457110864138912
30
0
41
1
10
54.7144931090968
20
0.361542652488595
30
0
41
1
10
55.0092048836515
20
0.254346825401598
30
0
41
1
10
55.1079974568662
20
0.224601293003502
30
0
41
1
10
55.2551393793371
20
0.191140927480063
30
0
41
1
10
55.3038757095075
20
0.181870553606672
30
0
41
1
10
55.4005667325046
20
0.167358893412541
30
0
41
1
10
55.448791147656
20
0.161315669663338
30
0
41
1
10
55.5408112503635
20
0.163494482569746
30
0
41
1
10
55.5844520300533
20
0.171051530583583
30
0
41
1
10
55.663521552891
20
0.201607170947909
30
0
41
1
10
55.6995244585736
20
0.225241751518354
30
0
41
1
10
55.7406299845882
20
0.275484757418667
30
0
41
1
10
55.7523753301974
20
0.295012896246817
30
0
41
1
10
55.7698327702318
20
0.338118112856989
30
0
41
1
10
55.7756703304499
20
0.361874465749054
30
0
41
1
10
55.7851452101551
20
0.439270221515812
30
0
41
1
10
55.7810684608186
20
0.495463389680196
30
0
41
1
10
55.7703085875155
20
0.553640207661942
30
0
0
SPLINE
5
CF
100
AcDbEntity
8
1
62
256
6
ByLayer
370
18
48
1
60
0
100
AcDbSpline
70
4
71
3
72
80
73
76
40
0
40
0
40
0
40
0
40
0.0084564607592341
40
0.0084564607592341
40
0.0258568453625577
40
0.0258568453625577
40
0.0606576145692042
40
0.0606576145692042
40
0.0780579991725271
40
0.0780579991725271
40
0.0954583837758499
40
0.0954583837758499
40
0.130259152982496
40
0.130259152982496
40
0.14765953758582
40
0.14765953758582
40
0.165059922189143
40
0.165059922189143
40
0.199860691395789
40
0.199860691395789
40
0.217261075999112
40
0.217261075999112
40
0.234661460602434
40
0.234661460602434
40
0.26946222980908
40
0.26946222980908
40
0.304262999015727
40
0.304262999015727
40
0.339063768222373
40
0.339063768222373
40
0.37386453742902
40
0.37386453742902
40
0.408665306635666
40
0.408665306635666
40
0.443466075842313
40
0.443466075842313
40
0.478266845048959
40
0.478266845048959
40
0.513067614255606
40
0.513067614255606
40
0.547868383462253
40
0.547868383462253
40
0.565268768065576
40
0.565268768065576
40
0.582669152668899
40
0.582669152668899
40
0.617469921875547
40
0.617469921875547
40
0.634870306478872
40
0.634870306478872
40
0.652270691082197
40
0.652270691082197
40
0.687071460288847
40
0.687071460288847
40
0.704471844892173
40
0.704471844892173
40
0.721872229495498
40
0.721872229495498
40
0.75667299870215
40
0.75667299870215
40
0.774073383305476
40
0.774073383305476
40
0.791473767908802
40
0.791473767908802
40
0.826274537115453
40
0.826274537115453
40
0.861075306322105
40
0.861075306322105
40
0.895876075528756
40
0.895876075528756
40
0.930676844735408
40
0.930676844735408
40
0.965477613942059
40
0.965477613942059
40
1
40
1
40
1
40
1
41
1
10
21.4071170419483
20
2.00640752186047
30
0
41
1
10
21.4594320477221
20
2.0274265913385
30
0
41
1
10
21.5117478801089
20
2.04807504737804
30
0
41
1
10
21.6719255845027
20
2.10982485155884
30
0
41
1
10
21.7799577971283
20
2.14954606854917
30
0
41
1
10
22.1044462540569
20
2.26366045927802
30
0
41
1
10
22.3216833046082
20
2.33307547607657
30
0
41
1
10
22.6455265116613
20
2.42672808574648
30
0
41
1
10
22.7530933346284
20
2.45629120016508
30
0
41
1
10
22.9685929447358
20
2.51118467859098
30
0
41
1
10
23.0765489310658
20
2.53652228750519
30
0
41
1
10
23.4006715292452
20
2.60660471570722
30
0
41
1
10
23.6171930169086
20
2.64543678925773
30
0
41
1
10
23.9417699681534
20
2.69183956122751
30
0
41
1
10
24.0495327161003
20
2.7053096785715
30
0
41
1
10
24.2651588287535
20
2.72787842797069
30
0
41
1
10
24.373132003329
20
2.73696686026355
30
0
41
1
10
24.6971873007724
20
2.75791761441471
30
0
41
1
10
24.9134281303851
20
2.76350390155594
30
0
41
1
10
25.2374745500062
20
2.75914014241008
30
0
41
1
10
25.3454518005574
20
2.75551897202448
30
0
41
1
10
25.5612798722838
20
2.74396698950926
30
0
41
1
10
25.6691232364806
20
2.73609840011457
30
0
41
1
10
25.9922488001694
20
2.70643032595118
30
0
41
1
10
26.2070855571071
20
2.67860079617381
30
0
41
1
10
26.6348209523348
20
2.6066778583226
30
0
41
1
10
26.8473957761889
20
2.56221688813875
30
0
41
1
10
27.2746694490311
20
2.45941900215729
30
0
41
1
10
27.4887435542308
20
2.40082213759479
30
0
41
1
10
27.9169715913748
20
2.26837502609257
30
0
41
1
10
28.1306649118721
20
2.19387757682461
30
0
41
1
10
28.5620669137602
20
2.03317763224791
30
0
41
1
10
28.779400224601
20
1.94643835677766
30
0
41
1
10
29.2113627816308
20
1.76115570352823
30
0
41
1
10
29.4260225138357
20
1.66154005081143
30
0
41
1
10
29.8576347245655
20
1.45507235712759
30
0
41
1
10
30.0744470561687
20
1.34756911436114
30
0
41
1
10
30.5072134890647
20
1.12366574775743
30
0
41
1
10
30.7220348305669
20
1.00651510145227
30
0
41
1
10
31.1533613315532
20
0.769528566842013
30
0
41
1
10
31.3695670259479
20
0.649272263816499
30
0
41
1
10
31.6939974769511
20
0.465089200684759
30
0
41
1
10
31.802260000876
20
0.40301134687374
30
0
41
1
10
32.0179966765503
20
0.277780362542416
30
0
41
1
10
32.1256166838755
20
0.214759363018345
30
0
41
1
10
32.4491935916992
20
0.027008384386022
30
0
41
1
10
32.6652922761508
20
-0.0974060929200675
30
0
41
1
10
32.9892778651704
20
-0.284168201018474
30
0
41
1
10
33.097256358566
20
-0.346427567132139
30
0
41
1
10
33.3130478774038
20
-0.471183600096168
30
0
41
1
10
33.4209464644583
20
-0.533701761112894
30
0
41
1
10
33.7442989521572
20
-0.717566024521716
30
0
41
1
10
33.9594659992991
20
-0.836533126251993
30
0
41
1
10
34.280902154936
20
-1.01104665154898
30
0
41
1
10
34.3878389565945
20
-1.0685365985637
30
0
41
1
10
34.6011718569456
20
-1.18232539427939
30
0
41
1
10
34.7074976338093
20
-1.23872487279303
30
0
41
1
10
35.0272088194928
20
-1.40367651802569
30
0
41
1
10
35.2410213389144
20
-1.50853806103822
30
0
41
1
10
35.5619115653465
20
-1.65952376883479
30
0
41
1
10
35.6689175656375
20
-1.70877348195444
30
0
41
1
10
35.8829088876461
20
-1.8052104239693
30
0
41
1
10
35.9897876735065
20
-1.85253287034695
30
0
41
1
10
36.3116234423455
20
-1.98966506065156
30
0
41
1
10
36.5285320805837
20
-2.07474483412514
30
0
41
1
10
36.9610731810147
20
-2.23201363937349
30
0
41
1
10
37.1763444904912
20
-2.30448385232455
30
0
41
1
10
37.6065862979265
20
-2.43504299376377
30
0
41
1
10
37.8226841630862
20
-2.49222117946172
30
0
41
1
10
38.2555887048903
20
-2.59168995532988
30
0
41
1
10
38.4715375766657
20
-2.63389934416648
30
0
41
1
10
38.901759793014
20
-2.70189004274718
30
0
41
1
10
39.1176140264106
20
-2.7272038268886
30
0
41
1
10
39.5480193581361
20
-2.76122632163404
30
0
41
1
10
39.7627617003967
20
-2.77003691605336
30
0
41
1
10
39.9763871380889
20
-2.77031223475203
30
0
0
SPLINE
5
D0
100
AcDbEntity
8
1
62
256
6
ByLayer
370
18
48
1
60
0
100
AcDbSpline
70
4
71
3
72
22
73
18
40
0
40
0
40
0
40
0
40
0.0499463508235811
40
0.0499463508235811
40
0.185668300705926
40
0.185668300705926
40
0.321390250588271
40
0.321390250588271
40
0.457112200470617
40
0.457112200470617
40
0.592834150352963
40
0.592834150352963
40
0.728556100235308
40
0.728556100235308
40
0.864278050117653
40
0.864278050117653
40
1
40
1
40
1
40
1
41
1
10
51.3704401030904
20
2.02848877604651
30
0
41
1
10
51.4498334331955
20
2.05997381956226
30
0
41
1
10
51.5291721844401
20
2.09065245888794
30
0
41
1
10
51.8238234691118
20
2.20178366359883
30
0
41
1
10
52.0384163495865
20
2.27733811324478
30
0
41
1
10
52.4707597528975
20
2.41223455291939
30
0
41
1
10
52.6872692690885
20
2.47218165139967
30
0
41
1
10
53.1182671438398
20
2.57723352275863
30
0
41
1
10
53.3326614861332
20
2.6224945085776
30
0
41
1
10
53.7641562196429
20
2.69553325161058
30
0
41
1
10
53.9811964465498
20
2.72386558874496
30
0
41
1
10
54.4118288648316
20
2.76381499542592
30
0
41
1
10
54.6251864523185
20
2.77542759288332
30
0
41
1
10
55.0528691551755
20
2.78151318949273
30
0
41
1
10
55.2666714073071
20
2.7762332416535
30
0
41
1
10
55.6933849439255
20
2.74910233022098
30
0
41
1
10
55.9057246855481
20
2.72692512330687
30
0
41
1
10
56.1194224685577
20
2.69678005955871
30
0
0
SPLINE
5
D1
100
AcDbEntity
8
1
62
256
6
ByLayer
370
18
48
1
60
0
100
AcDbSpline
70
4
71
3
72
12
73
8
40
0
40
0
40
0
40
0
40
0.25
40
0.25
40
0.499999999999999
40
0.499999999999999
40
1
40
1
40
1
40
1
41
1
10
9.02776935310891
20
0.968495349567121
30
0
41
1
10
9.03884751237183
20
0.962496819771502
30
0
41
1
10
9.05340788536961
20
0.954603075957579
30
0
41
1
10
9.08682290946922
20
0.936178448263661
30
0
41
1
10
9.10601239793527
20
0.925455299659575
30
0
41
1
10
9.16599232214674
20
0.891240687707324
30
0
41
1
10
9.20945753664913
20
0.86550390465689
30
0
41
1
10
9.25065134067242
20
0.840218680621177
30
0
0
SPLINE
5
D2
100
AcDbEntity
8
1
62
256
6
ByLayer
370
18
48
1
60
0
100
AcDbSpline
70
4
71
3
72
8
73
4
40
0
40
0
40
0
40
0
40
1
40
1
40
1
40
1
41
1
10
56.0496856400854
20
-2.75711311067605
30
0
41
1
10
56.0545102817147
20
-2.74435038510399
30
0
41
1
10
56.0593307609774
20
-2.73158213958217
30
0
41
1
10
56.0641469465416
20
-2.71880873563481
30
0
0
SPLINE
5
D3
100
AcDbEntity
8
1
62
256
6
ByLayer
370
18
48
1
60
0
100
AcDbSpline
70
4
71
3
72
50
73
46
40
0
40
0
40
0
40
0
40
0.0632391066508597
40
0.0632391066508597
40
0.126478213301719
40
0.126478213301719
40
0.189717319952579
40
0.189717319952579
40
0.252956426603439
40
0.252956426603439
40
0.284575979928869
40
0.284575979928869
40
0.316195533254298
40
0.316195533254298
40
0.37943463990516
40
0.37943463990516
40
0.41105419323059
40
0.41105419323059
40
0.442673746556021
40
0.442673746556021
40
0.505912853206882
40
0.505912853206882
40
0.537532406532312
40
0.537532406532312
40
0.569151959857741
40
0.569151959857741
40
0.632391066508601
40
0.632391066508601
40
0.664010619834031
40
0.664010619834031
40
0.695630173159461
40
0.695630173159461
40
0.758869279810321
40
0.758869279810321
40
0.79048883313575
40
0.79048883313575
40
0.82210838646118
40
0.82210838646118
40
0.885347493112041
40
0.885347493112041
40
0.916967046437471
40
0.916967046437471
40
0.948586599762901
40
0.948586599762901
40
1
40
1
40
1
40
1
41
1
10
14.7889864410062
20
1.49774509474747
30
0
41
1
10
15.0049340518253
20
1.39158090326635
30
0
41
1
10
15.2208051630138
20
1.28289406068396
30
0
41
1
10
15.6512805142133
20
1.05903427919921
30
0
41
1
10
15.8658190591161
20
0.943744750235368
30
0
41
1
10
16.2931318883519
20
0.705730718303215
30
0
41
1
10
16.5072738835326
20
0.58529324809237
30
0
41
1
10
16.9366895720935
20
0.341973750764481
30
0
41
1
10
17.1517576419415
20
0.218743947613433
30
0
41
1
10
17.4744051626018
20
0.0304924444608901
30
0
41
1
10
17.5821275489655
20
-0.032535336394119
30
0
41
1
10
17.7986656332431
20
-0.15777776894177
30
0
41
1
10
17.9069357993163
20
-0.2199815602211
30
0
41
1
10
18.23093650817
20
-0.405385727585809
30
0
41
1
10
18.4461521917642
20
-0.527501932380346
30
0
41
1
10
18.7671511880252
20
-0.709523152751558
30
0
41
1
10
18.8739268718478
20
-0.769855408978486
30
0
41
1
10
19.087994364613
20
-0.888227776245202
30
0
41
1
10
19.1951568321859
20
-0.946492133357083
30
0
41
1
10
19.5167897776501
20
-1.11895286847101
30
0
41
1
10
19.7314397319498
20
-1.23077842233883
30
0
41
1
10
20.0531243232159
20
-1.3946469281924
30
0
41
1
10
20.1602798375406
20
-1.448649103799
30
0
41
1
10
20.375599116694
20
-1.55363735670971
30
0
41
1
10
20.4836564246535
20
-1.60479393764822
30
0
41
1
10
20.8087381756626
20
-1.75468743058676
30
0
41
1
10
21.0254425853973
20
-1.84922409016633
30
0
41
1
10
21.3488474896619
20
-1.98324217599784
30
0
41
1
10
21.4563421579647
20
-2.02671569211785
30
0
41
1
10
21.6719255845002
20
-2.1098248515579
30
0
41
1
10
21.7799577971258
20
-2.14954606854826
30
0
41
1
10
22.1044462540544
20
-2.26366045927716
30
0
41
1
10
22.3216833046057
20
-2.33307547607578
30
0
41
1
10
22.6455265116589
20
-2.42672808574579
30
0
41
1
10
22.753093334626
20
-2.45629120016443
30
0
41
1
10
22.9685929447334
20
-2.51118467859041
30
0
41
1
10
23.0765489310634
20
-2.53652228750462
30
0
41
1
10
23.4006715292428
20
-2.60660471570677
30
0
41
1
10
23.617193016906
20
-2.6454367892573
30
0
41
1
10
23.941769968151
20
-2.6918395612272
30
0
41
1
10
24.0495327160979
20
-2.70530967857121
30
0
41
1
10
24.2651588287512
20
-2.72787842797047
30
0
41
1
10
24.3731320033266
20
-2.73696686026338
30
0
41
1
10
24.6567884293297
20
-2.75530575517263
30
0
41
1
10
24.8325612371969
20
-2.76112156056948
30
0
41
1
10
25.0082464708176
20
-2.76133629082838
30
0
0
SPLINE
5
D4
100
AcDbEntity
8
1
62
256
6
ByLayer
370
18
48
1
60
0
100
AcDbSpline
70
4
71
3
72
76
73
72
40
0
40
0
40
0
40
0
40
0.0196568620480668
40
0.0196568620480668
40
0.0544343678319123
40
0.0544343678319123
40
0.0892118736157578
40
0.0892118736157578
40
0.123989379399603
40
0.123989379399603
40
0.158766885183449
40
0.158766885183449
40
0.193544390967295
40
0.193544390967295
40
0.22832189675114
40
0.22832189675114
40
0.263099402534986
40
0.263099402534986
40
0.297876908318831
40
0.297876908318831
40
0.332654414102677
40
0.332654414102677
40
0.367431919886522
40
0.367431919886522
40
0.402209425670368
40
0.402209425670368
40
0.436986931454214
40
0.436986931454214
40
0.471764437238059
40
0.471764437238059
40
0.489153190129981
40
0.489153190129981
40
0.506541943021903
40
0.506541943021903
40
0.541319448805749
40
0.541319448805749
40
0.558708201697671
40
0.558708201697671
40
0.576096954589594
40
0.576096954589594
40
0.610874460373439
40
0.610874460373439
40
0.628263213265362
40
0.628263213265362
40
0.645651966157285
40
0.645651966157285
40
0.680429471941132
40
0.680429471941132
40
0.697818224833056
40
0.697818224833056
40
0.715206977724979
40
0.715206977724979
40
0.749984483508827
40
0.749984483508827
40
0.76737323640075
40
0.76737323640075
40
0.784761989292674
40
0.784761989292674
40
0.819539495076523
40
0.819539495076523
40
0.854317000860372
40
0.854317000860372
40
0.889094506644221
40
0.889094506644221
40
0.923872012428069
40
0.923872012428069
40
0.958649518211918
40
0.958649518211918
40
0.993427023995767
40
0.993427023995767
40
1
40
1
40
1
40
1
41
1
10
36.3780110704642
20
2.0138839607288
30
0
41
1
10
36.5001188915012
20
2.06242901395427
30
0
41
1
10
36.6225626864764
20
2.10893368006552
30
0
41
1
10
36.961073181013
20
2.23201363937292
30
0
41
1
10
37.1763444904896
20
2.30448385232398
30
0
41
1
10
37.6065862979248
20
2.43504299376335
30
0
41
1
10
37.8226841630845
20
2.4922211794613
30
0
41
1
10
38.2555887048886
20
2.59168995532954
30
0
41
1
10
38.4715375766642
20
2.6338993441662
30
0
41
1
10
38.9017597930124
20
2.70189004274698
30
0
41
1
10
39.1176140264091
20
2.72720382688843
30
0
41
1
10
39.5497477501994
20
2.76136294682331
30
0
41
1
10
39.7662250243156
20
2.77017848176763
30
0
41
1
10
40.1968846682076
20
2.77045597800881
30
0
41
1
10
40.4126713950269
20
2.76201347565902
30
0
41
1
10
40.8444274541385
20
2.72853815879458
30
0
41
1
10
41.060225559834
20
2.70343838968233
30
0
41
1
10
41.4916621055315
20
2.63572983708005
30
0
41
1
10
41.7075511548451
20
2.59399599047441
30
0
41
1
10
42.139290409164
20
2.49534419908986
30
0
41
1
10
42.3549745159154
20
2.43830057884043
30
0
41
1
10
42.7855551859706
20
2.30784241499973
30
0
41
1
10
43.0020585791812
20
2.235552596497
30
0
41
1
10
43.4341440828513
20
2.07881095562485
30
0
41
1
10
43.6498722378305
20
1.99403973514228
30
0
41
1
10
44.0799915140099
20
1.81047124569829
30
0
41
1
10
44.2959173729589
20
1.71311184876967
30
0
41
1
10
44.7287049078495
20
1.50949568437679
30
0
41
1
10
44.9446437748868
20
1.40316177616782
30
0
41
1
10
45.2672164100821
20
1.2357706273051
30
0
41
1
10
45.3746118601779
20
1.17878617649268
30
0
41
1
10
45.5901095873799
20
1.06397014341292
30
0
41
1
10
45.6980764280519
20
1.00593424263349
30
0
41
1
10
46.0223868237885
20
0.829581922979088
30
0
41
1
10
46.2390339041806
20
0.709148270675882
30
0
41
1
10
46.5606255915516
20
0.524950718798692
30
0
41
1
10
46.6674095390385
20
0.462880264371222
30
0
41
1
10
46.8812646405886
20
0.339352801291142
30
0
41
1
10
46.988220718219
20
0.27769299382507
30
0
41
1
10
47.3089093078978
20
0.0925558394798998
30
0
41
1
10
47.5225029008244
20
-0.0310089727923071
30
0
41
1
10
47.8419758712133
20
-0.217644122791853
30
0
41
1
10
47.9482301297597
20
-0.280216032659922
30
0
41
1
10
48.1614283388698
20
-0.4040488720849
30
0
41
1
10
48.2683284309314
20
-0.465387005687006
30
0
41
1
10
48.5896021047527
20
-0.648243454125861
30
0
41
1
10
48.804591015318
20
-0.768531949583149
30
0
41
1
10
49.1277287435703
20
-0.947492679413187
30
0
41
1
10
49.2355642971986
20
-1.00714929079655
30
0
41
1
10
49.4511217949444
20
-1.1239610405155
30
0
41
1
10
49.559022930629
20
-1.18107938510326
30
0
41
1
10
49.8827245833282
20
-1.34925105880683
30
0
41
1
10
50.0985666376502
20
-1.45707479332964
30
0
41
1
10
50.4217709427592
20
-1.61320344134549
30
0
41
1
10
50.5293001569278
20
-1.6644561605525
30
0
41
1
10
50.7448062368034
20
-1.76413778949083
30
0
41
1
10
50.8529787858157
20
-1.81239089405511
30
0
41
1
10
51.177106532574
20
-1.95229112076078
30
0
41
1
10
51.3930482992093
20
-2.03931173124607
30
0
41
1
10
51.8238234691109
20
-2.20178366359855
30
0
41
1
10
52.0384163495857
20
-2.2773381132445
30
0
41
1
10
52.4707597528965
20
-2.4122345529191
30
0
41
1
10
52.6872692690876
20
-2.47218165139944
30
0
41
1
10
53.118267143839
20
-2.57723352275843
30
0
41
1
10
53.3326614861324
20
-2.62249450857743
30
0
41
1
10
53.7641562196421
20
-2.69553325161047
30
0
41
1
10
53.9811964465489
20
-2.72386558874484
30
0
41
1
10
54.4118288648309
20
-2.76381499542586
30
0
41
1
10
54.6251864523179
20
-2.77542759288329
30
0
41
1
10
54.8794439877129
20
-2.7790454824659
30
0
41
1
10
54.9198587750016
20
-2.77932327444913
30
0
41
1
10
54.9602694219672
20
-2.77930401854644
30
0
0
SPLINE
5
D5
100
AcDbEntity
8
1
62
256
6
ByLayer
370
13
48
1
60
0
100
AcDbSpline
70
4
71
3
72
10
73
6
40
0
40
0
40
0
40
0
40
0.5
40
0.5
40
1
40
1
40
1
40
1
41
1
10
9.02758003048496
20
-2.5842485122773
30
0
41
1
10
9.03811692278163
20
-2.56891282424814
30
0
41
1
10
9.05175958479816
20
-2.55422235617732
30
0
41
1
10
9.0847454311062
20
-2.52779777388662
30
0
41
1
10
9.10373319192354
20
-2.51623041231761
30
0
41
1
10
9.12561464192129
20
-2.50663683959763
30
0
0
SPLINE
5
D6
100
AcDbEntity
8
1
62
256
6
ByLayer
370
18
48
1
60
0
100
AcDbSpline
70
4
71
3
72
18
73
14
40
0
40
0
40
0
40
0
40
0.24999999999999
40
0.24999999999999
40
0.37499999999999
40
0.37499999999999
40
0.49999999999999
40
0.49999999999999
40
0.74999999999999
40
0.74999999999999
40
0.874999999999995
40
0.874999999999995
40
1
40
1
40
1
40
1
41
1
10
56.6319635127312
20
-1.36241391959888
30
0
41
1
10
56.5902281104187
20
-1.47514229321732
30
0
41
1
10
56.5482240537283
20
-1.58779763109951
30
0
41
1
10
56.4847059957548
20
-1.75605877954786
30
0
41
1
10
56.4634590554905
20
-1.81203736733608
30
0
41
1
10
56.4209846009359
20
-1.92402291803472
30
0
41
1
10
56.3997309820039
20
-1.97999175043003
30
0
41
1
10
56.3358074445687
20
-2.14766062334161
30
0
41
1
10
56.2929114200982
20
-2.25924702024622
30
0
41
1
10
56.2280503956414
20
-2.42416818136303
30
0
41
1
10
56.2064157029238
20
-2.47908035563759
30
0
41
1
10
56.1630498432024
20
-2.58849096856878
30
0
41
1
10
56.141316004216
20
-2.64297794827235
30
0
41
1
10
56.1194224685765
20
-2.69678005954029
30
0
0
SPLINE
5
D7
100
AcDbEntity
8
1
62
256
6
ByLayer
370
18
48
1
60
0
100
AcDbSpline
70
4
71
3
72
64
73
60
40
0
40
0
40
0
40
0
40
0.0342646898382808
40
0.0342646898382808
40
0.0704088252616774
40
0.0704088252616774
40
0.106552960685074
40
0.106552960685074
40
0.14269709610847
40
0.14269709610847
40
0.178841231531867
40
0.178841231531867
40
0.214985366955263
40
0.214985366955263
40
0.25112950237866
40
0.25112950237866
40
0.287273637802056
40
0.287273637802056
40
0.323417773225453
40
0.323417773225453
40
0.359561908648849
40
0.359561908648849
40
0.395706044072246
40
0.395706044072246
40
0.431850179495642
40
0.431850179495642
40
0.467994314919039
40
0.467994314919039
40
0.486066382630737
40
0.486066382630737
40
0.504138450342436
40
0.504138450342436
40
0.540282585765832
40
0.540282585765832
40
0.576426721189229
40
0.576426721189229
40
0.612570856612625
40
0.612570856612625
40
0.648714992036022
40
0.648714992036022
40
0.66678705974772
40
0.66678705974772
40
0.684859127459418
40
0.684859127459418
40
0.721003262882813
40
0.721003262882813
40
0.757147398306208
40
0.757147398306208
40
0.793291533729602
40
0.793291533729602
40
0.865579804576394
40
0.865579804576394
40
0.90172393999979
40
0.90172393999979
40
0.937868075423185
40
0.937868075423185
40
0.974012210846581
40
0.974012210846581
40
1
40
1
40
1
40
1
41
1
10
18.1134632925397
20
2.62116109947056
30
0
41
1
10
18.3225886579683
20
2.62201402628637
30
0
41
1
10
18.5315535968321
20
2.61543584478483
30
0
41
1
10
18.9607164402736
20
2.5841624183432
30
0
41
1
10
19.1808416431375
20
2.55934881193909
30
0
41
1
10
19.6215370627806
20
2.49466789986363
30
0
41
1
10
19.8427044842316
20
2.45504927124946
30
0
41
1
10
20.2835424645161
20
2.35933099278043
30
0
41
1
10
20.5034686097262
20
2.30462522294289
30
0
41
1
10
20.9434249518818
20
2.17774494909224
30
0
41
1
10
21.1644275750561
20
2.10677509924778
30
0
41
1
10
21.6060612638527
20
1.95285260250287
30
0
41
1
10
21.8262557767761
20
1.87030647021598
30
0
41
1
10
22.2661838463037
20
1.69225868921308
30
0
41
1
10
22.4865498970634
20
1.59811963226338
30
0
41
1
10
22.9281505932366
20
1.39908861565345
30
0
41
1
10
23.1489989509499
20
1.29360274281728
30
0
41
1
10
23.5892825069885
20
1.07599771350576
30
0
41
1
10
23.8096712915672
20
0.964589608728318
30
0
41
1
10
24.2506855939285
20
0.735994988083831
30
0
41
1
10
24.4716989895576
20
0.617694053590128
30
0
41
1
10
24.912566973957
20
0.377952167680434
30
0
41
1
10
25.1330586383587
20
0.257581190728843
30
0
41
1
10
25.573952963162
20
0.0156614724378699
30
0
41
1
10
25.794197647858
20
-0.106273801016187
30
0
41
1
10
26.235685030426
20
-0.349699446658264
30
0
41
1
10
26.4566113168709
20
-0.469586968666988
30
0
41
1
10
26.7874256567191
20
-0.647098435243549
30
0
41
1
10
26.8976236525941
20
-0.706034843371384
30
0
41
1
10
27.1179193498775
20
-0.822537957823698
30
0
41
1
10
27.2279930412696
20
-0.880256316968257
30
0
41
1
10
27.558561121284
20
-1.05111506724569
30
0
41
1
10
27.7800751008777
20
-1.16130775716323
30
0
41
1
10
28.2217406121058
20
-1.37410817267997
30
0
41
1
10
28.4419992503884
20
-1.47725501824746
30
0
41
1
10
28.8824862679506
20
-1.67283175393223
30
0
41
1
10
29.1034651494723
20
-1.76570108593194
30
0
41
1
10
29.5457322899013
20
-1.93805840856521
30
0
41
1
10
29.7654363993096
20
-2.01741369187673
30
0
41
1
10
30.0939588984781
20
-2.12743614149446
30
0
41
1
10
30.2034211561763
20
-2.16244921744854
30
0
41
1
10
30.4222424568731
20
-2.22970826497698
30
0
41
1
10
30.5315679218452
20
-2.26181476557522
30
0
41
1
10
30.8592598407119
20
-2.35109924256881
30
0
41
1
10
31.077300077008
20
-2.40218338784115
30
0
41
1
10
31.5137784407704
20
-2.48969460197495
30
0
41
1
10
31.7326830015805
20
-2.52655559409698
30
0
41
1
10
32.1717584866503
20
-2.58446173912336
30
0
41
1
10
32.39221797401
20
-2.60519788916943
30
0
41
1
10
33.0545167063818
20
-2.64269404465898
30
0
41
1
10
33.4950631635359
20
-2.63019769332686
30
0
41
1
10
34.1562964613747
20
-2.56702073106325
30
0
41
1
10
34.3777413976953
20
-2.53716751450216
30
0
41
1
10
34.8189855745696
20
-2.46195210631043
30
0
41
1
10
35.0390302802867
20
-2.41576134965553
30
0
41
1
10
35.4792480529666
20
-2.30736451926225
30
0
41
1
10
35.7001858046472
20
-2.24565620256041
30
0
41
1
10
36.0801529224775
20
-2.129152922918
30
0
41
1
10
36.2386509027874
20
-2.0768608799778
30
0
41
1
10
36.3969454276111
20
-2.02088169635095
30
0
0
SPLINE
5
D8
100
AcDbEntity
8
1
62
256
6
ByLayer
370
18
48
1
60
0
100
AcDbSpline
70
4
71
3
72
24
73
20
40
0
40
0
40
0
40
0
40
0.0764211485195601
40
0.0764211485195601
40
0.191868504954615
40
0.191868504954615
40
0.30731586138967
40
0.30731586138967
40
0.422763217824725
40
0.422763217824725
40
0.53821057425978
40
0.53821057425978
40
0.653657930694836
40
0.653657930694836
40
0.76910528712989
40
0.76910528712989
40
0.884552643564946
40
0.884552643564946
40
1
40
1
40
1
40
1
41
1
10
48.0336844903667
20
2.63902208558238
30
0
41
1
10
48.1790353877151
20
2.63936491957389
30
0
41
1
10
48.3242963749923
20
2.63581530396169
30
0
41
1
10
48.6892579125614
20
2.61769346922324
30
0
41
1
10
48.9099831711385
20
2.59874672355528
30
0
41
1
10
49.3500474568773
20
2.54458275433561
30
0
41
1
10
49.5694347690682
20
2.50867466242556
30
0
41
1
10
50.0082349347419
20
2.42109993838625
30
0
41
1
10
50.2281777039422
20
2.37021118473373
30
0
41
1
10
50.6689203642917
20
2.25379395144697
30
0
41
1
10
50.8884621041017
20
2.18753770782988
30
0
41
1
10
51.327032713616
20
2.04121613137221
30
0
41
1
10
51.5466533346196
20
1.96172336271653
30
0
41
1
10
51.9864625870566
20
1.79052400264246
30
0
41
1
10
52.2067522736335
20
1.69864830503118
30
0
41
1
10
52.6457016328795
20
1.50497385571813
30
0
41
1
10
52.8652495147204
20
1.40360875276087
30
0
41
1
10
53.3045158310028
20
1.19178456124152
30
0
41
1
10
53.5243001507789
20
1.08124142458573
30
0
41
1
10
53.7441364360902
20
0.967507795452633
30
0
0
SPLINE
5
D9
100
AcDbEntity
8
1
62
256
6
ByLayer
370
18
48
1
60
0
100
AcDbSpline
70
4
71
3
72
8
73
4
40
0
40
0
40
0
40
0
40
1
40
1
40
1
40
1
41
1
10
56.0496856400855
20
2.75711311067607
30
0
41
1
10
55.8453195616817
20
2.77229245234972
30
0
41
1
10
55.6411327113755
20
2.77978087896943
30
0
41
1
10
55.4367308327191
20
2.77959022035228
30
0
0
SPLINE
5
DA
100
AcDbEntity
8
1
62
256
6
ByLayer
370
18
48
1
60
0
100
AcDbSpline
70
4
71
3
72
46
73
42
40
0
40
0
40
0
40
0
40
0.0332783202764979
40
0.0332783202764979
40
0.122491478758479
40
0.122491478758479
40
0.16709805799947
40
0.16709805799947
40
0.189401347619966
40
0.189401347619966
40
0.211704637240462
40
0.211704637240462
40
0.300917795722444
40
0.300917795722444
40
0.390130954204425
40
0.390130954204425
40
0.41243424382492
40
0.41243424382492
40
0.434737533445415
40
0.434737533445415
40
0.479344112686406
40
0.479344112686406
40
0.568557271168387
40
0.568557271168387
40
0.590860560788881
40
0.590860560788881
40
0.613163850409375
40
0.613163850409375
40
0.657770429650363
40
0.657770429650363
40
0.746983588132341
40
0.746983588132341
40
0.79159016737333
40
0.79159016737333
40
0.83619674661432
40
0.83619674661432
40
0.9254099050963
40
0.9254099050963
40
0.97001648433729
40
0.97001648433729
40
1
40
1
40
1
40
1
41
1
10
41.9418981273494
20
-2.64091146187266
30
0
41
1
10
41.7584125276624
20
-2.67318000741335
30
0
41
1
10
41.5744415224296
20
-2.69964279783176
30
0
41
1
10
40.9015498499812
20
-2.77414556340159
30
0
41
1
10
40.4162182861655
20
-2.78478644467322
30
0
41
1
10
39.6868242451626
20
-2.73598393212524
30
0
41
1
10
39.4433558433824
20
-2.70894820805887
30
0
41
1
10
39.0766783681565
20
-2.65237326914678
30
0
41
1
10
38.9542086320003
20
-2.63084260948
30
0
41
1
10
38.7086149908816
20
-2.58244251040316
30
0
41
1
10
38.5852258514324
20
-2.55550295599534
30
0
41
1
10
37.9700490562221
20
-2.4085108162563
30
0
41
1
10
37.4834807827807
20
-2.25225544795333
30
0
41
1
10
36.5112961550111
20
-1.87459395614482
30
0
41
1
10
36.0248675560228
20
-1.65416171991578
30
0
41
1
10
35.4102851764197
20
-1.34618209999891
30
0
41
1
10
35.2868001303134
20
-1.28293755855944
30
0
41
1
10
35.040930771984
20
-1.15464034793021
30
0
41
1
10
34.9183343513936
20
-1.08948386014103
30
0
41
1
10
34.551318532963
20
-0.891412933620472
30
0
41
1
10
34.3077010219741
20
-0.755848558145232
30
0
41
1
10
33.5777518215347
20
-0.342541578983798
30
0
41
1
10
33.0923774026103
20
-0.0580938067599277
30
0
41
1
10
32.4800671655115
20
0.296170953626103
30
0
41
1
10
32.3573216520941
20
0.366952248253256
30
0
41
1
10
32.1110748042459
20
0.50804290106214
30
0
41
1
10
31.9876466250842
20
0.578325133382805
30
0
41
1
10
31.6191707914886
20
0.78622822269827
30
0
41
1
10
31.374887288678
20
0.921531122957589
30
0
41
1
10
30.6438330934455
20
1.31398544980189
30
0
41
1
10
30.1586564444607
20
1.55739557537055
30
0
41
1
10
29.4262884908112
20
1.88315055741489
30
0
41
1
10
29.1812519216201
20
1.98497141329659
30
0
41
1
10
28.6881412703572
20
2.1732109833072
30
0
41
1
10
28.4425573933815
20
2.25858752544008
30
0
41
1
10
27.7094630235689
20
2.48580493794606
30
0
41
1
10
27.224233262569
20
2.59920400071857
30
0
41
1
10
26.4933384372847
20
2.70691412506173
30
0
41
1
10
26.2491816356211
20
2.73240297120071
30
0
41
1
10
25.8387581334499
20
2.75684678812411
30
0
41
1
10
25.6729275488074
20
2.76172009127686
30
0
41
1
10
25.5074510437187
20
2.76161086005547
30
0
0
SPLINE
5
DB
100
AcDbEntity
8
1
62
256
6
ByLayer
370
18
48
1
60
0
100
AcDbSpline
70
4
71
3
72
12
73
8
40
0
40
0
40
0
40
0
40
0.493414392805342
40
0.493414392805342
40
0.74670719640267
40
0.74670719640267
40
1
40
1
40
1
40
1
41
1
10
12.0227269561597
20
-2.62187634053842
30
0
41
1
10
11.546154355142
20
-2.70571181102935
30
0
41
1
10
11.073028500383
20
-2.74965272488754
30
0
41
1
10
10.3545717682914
20
-2.75397303374294
30
0
41
1
10
10.1103615258719
20
-2.7445941211891
30
0
41
1
10
9.61932652115979
20
-2.70399252927243
30
0
41
1
10
9.37197663519612
20
-2.67267791464428
30
0
41
1
10
9.12501183394778
20
-2.63070937660484
30
0
0
SPLINE
5
DC
100
AcDbEntity
8
1
62
256
6
ByLayer
370
13
48
1
60
0
100
AcDbSpline
70
4
71
3
72
8
73
4
40
0
40
0
40
0
40
0
40
1
40
1
40
1
40
1
41
1
10
9.12561464192129
20
-2.61413549075453
30
0
41
1
10
9.14908959553554
20
-2.60529757980743
30
0
41
1
10
9.17451983508187
20
-2.60312891071291
30
0
41
1
10
9.20073549254172
20
-2.60730548302092
30
0
0
SPLINE
5
DD
100
AcDbEntity
8
1
62
256
6
ByLayer
370
18
48
1
60
0
100
AcDbSpline
70
4
71
3
72
8
73
4
40
0
40
0
40
0
40
0
40
1
40
1
40
1
40
1
41
1
10
56.0782308315602
20
-2.63255911575817
30
0
41
1
10
56.0634436093956
20
-2.64001663663913
30
0
41
1
10
56.0499418918406
20
-2.64377361348306
30
0
41
1
10
56.0377491385174
20
-2.64376251377448
30
0
0
SPLINE
5
DE
100
AcDbEntity
8
1
62
256
6
ByLayer
370
18
48
1
60
0
100
AcDbSpline
70
4
71
3
72
14
73
10
40
0
40
0
40
0
40
0
40
0.25
40
0.25
40
0.5
40
0.5
40
0.75
40
0.75
40
1
40
1
40
1
40
1
41
1
10
9.25065134106003
20
0.840218680383259
30
0
41
1
10
9.43038182581935
20
0.729898070746316
30
0
41
1
10
9.61154125048287
20
0.61979127981391
30
0
41
1
10
9.97649297599094
20
0.400082561727657
30
0
41
1
10
10.1606382563704
20
0.290285643496304
30
0
41
1
10
10.5299608362719
20
0.0730432315713188
30
0
41
1
10
10.7150323945725
20
-0.0343191699283523
30
0
41
1
10
11.0866211951921
20
-0.245594253960206
30
0
41
1
10
11.2731217317494
20
-0.349552129103103
30
0
41
1
10
11.4608084231223
20
-0.450918748466933
30
0
0
SPLINE
5
DF
100
AcDbEntity
8
1
62
256
6
ByLayer
370
18
48
1
60
0
100
AcDbSpline
70
4
71
3
72
29
73
25
40
0
40
0
40
0
40
0
40
0.0624999999999999
40
0.0624999999999999
40
0.125
40
0.125
40
0.25
40
0.25
40
0.312499999999999
40
0.312499999999999
40
0.374999999999999
40
0.374999999999999
40
0.499999999999999
40
0.499999999999999
40
0.562499999999999
40
0.562499999999999
40
0.624999999999999
40
0.687499999999999
40
0.687499999999999
40
0.749999999999999
40
0.749999999999999
40
0.875
40
0.875
40
1
40
1
40
1
40
1
41
1
10
9.02758003048513
20
-2.58424851227662
30
0
41
1
10
9.02758724159273
20
-2.55296176050698
30
0
41
1
10
9.02759288619097
20
-2.51750497559294
30
0
41
1
10
9.02760162928539
20
-2.43823219828602
30
0
41
1
10
9.02760471628767
20
-2.39436168425931
30
0
41
1
10
9.02761097643841
20
-2.25255308541813
30
0
41
1
10
9.0276112611713
20
-2.14387032212994
30
0
41
1
10
9.02760969001486
20
-1.95969491917071
30
0
41
1
10
9.02760882185191
20
-1.89439192229608
30
0
41
1
10
9.02760702671677
20
-1.75821599320088
30
0
41
1
10
9.02760610703103
20
-1.68763007551334
30
0
41
1
10
9.02760408898433
20
-1.46858849848917
30
0
41
1
10
9.02760375633235
20
-1.31291966612969
30
0
41
1
10
9.02760736495583
20
-1.06449983174608
30
0
41
1
10
9.02760924673177
20
-0.979695099091003
30
0
41
1
10
9.02761453859353
20
-0.808674603918064
30
0
41
1
10
9.02762136716106
20
-0.635503167932512
30
0
41
1
10
9.02763150219448
20
-0.458078550061401
30
0
41
1
10
9.02764333011149
20
-0.278489312422891
30
0
41
1
10
9.02765013585218
20
-0.187113788540501
30
0
41
1
10
9.02767257865597
20
0.0851951562568445
30
0
41
1
10
9.02769028885405
20
0.265048812198529
30
0
41
1
10
9.02772875144746
20
0.621445421911119
30
0
41
1
10
9.02774969613506
20
0.799445947442479
30
0
41
1
10
9.02776935310894
20
0.968495349567121
30
0
0
SPLINE
5
E0
100
AcDbEntity
8
1
62
256
6
ByLayer
370
13
48
1
60
0
100
AcDbSpline
70
4
71
3
72
8
73
4
40
0
40
0
40
0
40
0
40
1
40
1
40
1
40
1
41
1
10
9.0841971380095
20
-2.62190875710772
30
0
41
1
10
9.09670856251631
20
-2.61903206322
30
0
41
1
10
9.1104541379469
20
-2.61642313020258
30
0
41
1
10
9.12561464192129
20
-2.61413549075453
30
0
0
SPLINE
5
E1
100
AcDbEntity
8
1
62
256
6
ByLayer
370
18
48
1
60
0
100
AcDbSpline
70
4
71
3
72
14
73
10
40
0
40
0
40
0
40
0
40
0.350342901657471
40
0.350342901657471
40
0.60421345921206
40
0.60421345921206
40
0.858084016766649
40
0.858084016766649
40
1
40
1
40
1
40
1
41
1
10
55.6241024037461
20
-2.64362646147711
30
0
41
1
10
55.2875980153011
20
-2.64288554541798
30
0
41
1
10
54.9518261021435
20
-2.62227760751696
30
0
41
1
10
54.3713068070419
20
-2.55315624685883
30
0
41
1
10
54.1267373497981
20
-2.5138482696851
30
0
41
1
10
53.6360570535056
20
-2.41540704707919
30
0
41
1
10
53.3922026342598
20
-2.35668605035505
30
0
41
1
10
53.0132883427864
20
-2.25155690926195
30
0
41
1
10
52.8776745124349
20
-2.2111343480108
30
0
41
1
10
52.7421947892576
20
-2.16812503748591
30
0
0
SPLINE
5
E2
100
AcDbEntity
8
1
62
256
6
ByLayer
370
13
48
1
60
0
100
AcDbSpline
70
4
71
3
72
24
73
20
40
0
40
0
40
0
40
0
40
0.133055599981878
40
0.133055599981878
40
0.225391791265123
40
0.225391791265123
40
0.317727982548367
40
0.317727982548367
40
0.410064173831612
40
0.410064173831612
40
0.502400365114857
40
0.502400365114857
40
0.687072747681346
40
0.687072747681346
40
0.871745130247835
40
0.871745130247835
40
0.964081321531079
40
0.964081321531079
40
1
40
1
40
1
40
1
41
1
10
52.7421947892591
20
-2.16812503748642
30
0
41
1
10
52.3929607814419
20
-2.05725742175912
30
0
41
1
10
52.0446178941897
20
-1.92920127389127
30
0
41
1
10
51.4526160195487
20
-1.68722300585478
30
0
41
1
10
51.2095516713248
20
-1.58096822955363
30
0
41
1
10
50.7210830980399
20
-1.35577395475283
30
0
41
1
10
50.4751596725362
20
-1.23657043598547
30
0
41
1
10
49.9854557813431
20
-0.990163077553916
30
0
41
1
10
49.7409828841385
20
-0.862779346630106
30
0
41
1
10
49.2513695460661
20
-0.602049402940395
30
0
41
1
10
49.0054797645014
20
-0.468299615207513
30
0
41
1
10
48.2716431729491
20
-0.0646875960032958
30
0
41
1
10
47.7872052417981
20
0.206425323543016
30
0
41
1
10
46.8180927644474
20
0.734907189787634
30
0
41
1
10
46.3332849881519
20
0.992085604174122
30
0
41
1
10
45.5972082668588
20
1.3517542516677
30
0
41
1
10
45.3523332530478
20
1.46642061652443
30
0
41
1
10
45.0142905766239
20
1.61673798685055
30
0
41
1
10
44.9197395172629
20
1.65782746651919
30
0
41
1
10
44.8252687314523
20
1.69785392790828
30
0
0
SPLINE
5
E3
100
AcDbEntity
8
1
62
256
6
ByLayer
370
18
48
1
60
0
100
AcDbSpline
70
4
71
3
72
16
73
12
40
0
40
0
40
0
40
0
40
0.125155356278557
40
0.125155356278557
40
0.365380195035906
40
0.365380195035906
40
0.605605033793254
40
0.605605033793254
40
0.845829872550601
40
0.845829872550601
40
1
40
1
40
1
40
1
41
1
10
25.7325724033578
20
-2.62551010816191
30
0
41
1
10
25.6062038264641
20
-2.62577243020476
30
0
41
1
10
25.4798302063039
20
-2.62325930940986
30
0
41
1
10
25.1106034801863
20
-2.60779819096194
30
0
41
1
10
24.8674755805271
20
-2.58740308298638
30
0
41
1
10
24.3791470096069
20
-2.52631158451112
30
0
41
1
10
24.1332504468507
20
-2.48537879493117
30
0
41
1
10
23.6422952731442
20
-2.38406525270688
30
0
41
1
10
23.3973215334001
20
-2.32383588198024
30
0
41
1
10
22.9948510223823
20
-2.21025332902025
30
0
41
1
10
22.8372789776934
20
-2.16209832467177
30
0
41
1
10
22.6796735973351
20
-2.11046097400489
30
0
0
SPLINE
5
E4
100
AcDbEntity
8
1
62
256
6
ByLayer
370
13
48
1
60
0
100
AcDbSpline
70
4
71
3
72
28
73
24
40
0
40
0
40
0
40
0
40
0.0338453692529558
40
0.0338453692529558
40
0.222805833617713
40
0.222805833617713
40
0.41176629798247
40
0.41176629798247
40
0.459006414073659
40
0.459006414073659
40
0.506246530164848
40
0.506246530164848
40
0.600726762347227
40
0.600726762347227
40
0.789687226711986
40
0.789687226711986
40
0.836927342803175
40
0.836927342803175
40
0.884167458894364
40
0.884167458894364
40
0.978647691076741
40
0.978647691076741
40
1
40
1
40
1
40
1
41
1
10
22.6796745473382
20
-2.11046128526101
30
0
41
1
10
22.5917020293098
20
-2.0816382430213
30
0
41
1
10
22.5037191248419
20
-2.05173021512846
30
0
41
1
10
21.9246972095429
20
-1.84801403525268
30
0
41
1
10
21.4390975337449
20
-1.64507572436472
30
0
41
1
10
20.4683673980173
20
-1.1953926645123
30
0
41
1
10
19.9831895137313
20
-0.948586206224377
30
0
41
1
10
19.3705315509988
20
-0.623040271442648
30
0
41
1
10
19.247433098763
20
-0.556965706970573
30
0
41
1
10
19.0020189410327
20
-0.424272465817694
30
0
41
1
10
18.8796498461142
20
-0.357627484829635
30
0
41
1
10
18.5133200860906
20
-0.157238507548556
30
0
41
1
10
18.2700550766447
20
-0.0231930715319777
30
0
41
1
10
17.5414511188843
20
0.377271893439826
30
0
41
1
10
17.0572048786934
20
0.6418250574485
30
0
41
1
10
16.4470760454411
20
0.957158221084541
30
0
41
1
10
16.3248129462251
20
1.01946301390276
30
0
41
1
10
16.0796581178737
20
1.14227460139597
30
0
41
1
10
15.9565361355317
20
1.20288446600441
30
0
41
1
10
15.5885100035558
20
1.38023206466588
30
0
41
1
10
15.3444705743007
20
1.49275651713364
30
0
41
1
10
15.0460708537539
20
1.622567368006
30
0
41
1
10
14.991100053486
20
1.64616428438367
30
0
41
1
10
14.9361568556139
20
1.66941873998124
30
0
0
SPLINE
5
E5
100
AcDbEntity
8
1
62
256
6
ByLayer
370
13
48
1
60
0
100
AcDbSpline
70
4
71
3
72
30
73
26
40
0
40
0
40
0
40
0
40
0.125
40
0.125
40
0.1875
40
0.1875
40
0.25
40
0.25
40
0.375
40
0.375
40
0.4375
40
0.4375
40
0.5
40
0.5
40
0.625
40
0.625
40
0.6875
40
0.6875
40
0.75
40
0.75
40
0.875
40
0.875
40
0.9375
40
0.9375
40
1
40
1
40
1
40
1
41
1
10
9.2503345053992
20
-2.48805270592234
30
0
41
1
10
9.25035762151506
20
-2.43436973115379
30
0
41
1
10
9.25036978844693
20
-2.36498215748324
30
0
41
1
10
9.25037831653498
20
-2.23767007923587
30
0
41
1
10
9.25037951896306
20
-2.19115249805029
30
0
41
1
10
9.25037974997156
20
-2.09201869220999
30
0
41
1
10
9.25037879840309
20
-2.03924454831875
30
0
41
1
10
9.25037443098134
20
-1.87148737679681
30
0
41
1
10
9.25036951703825
20
-1.74676602798283
30
0
41
1
10
9.25036512383116
20
-1.54127968967924
30
0
41
1
10
9.25036416433073
20
-1.47036733461593
30
0
41
1
10
9.25036405283475
20
-1.32373935022622
30
0
41
1
10
9.25036491364543
20
-1.24773056351617
30
0
41
1
10
9.25037109924097
20
-1.01591725367535
30
0
41
1
10
9.25038006240766
20
-0.855671243211901
30
0
41
1
10
9.25040251579125
20
-0.606873234992747
30
0
41
1
10
9.25041149250495
20
-0.522463519516208
30
0
41
1
10
9.25043247927948
20
-0.350964906876754
30
0
41
1
10
9.25044443674784
20
-0.264391104015715
30
0
41
1
10
9.25048373447362
20
-0.0059780870494706
30
0
41
1
10
9.25051465223032
20
0.165463019737814
30
0
41
1
10
9.25056478491319
20
0.421387075337918
30
0
41
1
10
9.25058215788442
20
0.506735328208975
30
0
41
1
10
9.25061711244615
20
0.675918584451495
30
0
41
1
10
9.25063450296696
20
0.758864998610562
30
0
41
1
10
9.25065134067236
20
0.840218680382947
30
0
0
SPLINE
5
E6
100
AcDbEntity
8
1
62
256
6
ByLayer
370
18
48
1
60
0
100
AcDbSpline
70
4
71
3
72
62
73
58
40
0
40
0
40
0
40
0
40
0.0624999999999973
40
0.0624999999999973
40
0.124999999999995
40
0.124999999999995
40
0.249999999999989
40
0.249999999999989
40
0.374999999999984
40
0.374999999999984
40
0.437499999999981
40
0.437499999999981
40
0.499999999999978
40
0.499999999999978
40
0.562499999999975
40
0.562499999999975
40
0.593749999999974
40
0.593749999999974
40
0.609374999999973
40
0.617187499999974
40
0.621093749999974
40
0.621093749999974
40
0.624999999999974
40
0.624999999999974
40
0.628906249999975
40
0.628906249999975
40
0.632812499999975
40
0.632812499999975
40
0.640624999999976
40
0.640624999999976
40
0.656249999999977
40
0.656249999999977
40
0.687499999999979
40
0.687499999999979
40
0.70312499999998
40
0.70312499999998
40
0.718749999999981
40
0.718749999999981
40
0.734374999999982
40
0.734374999999982
40
0.749999999999983
40
0.749999999999983
40
0.765624999999984
40
0.765624999999984
40
0.781249999999985
40
0.781249999999985
40
0.796874999999986
40
0.796874999999986
40
0.812499999999987
40
0.812499999999987
40
0.84374999999999
40
0.84374999999999
40
0.874999999999992
40
0.874999999999992
40
0.937499999999996
40
0.937499999999996
40
1
40
1
40
1
40
1
41
1
10
14.7876483210913
20
1.49839655270742
30
0
41
1
10
14.5717755630963
20
1.60347710360756
30
0
41
1
10
14.3544747043502
20
1.70146778806083
30
0
41
1
10
13.9163379810576
20
1.88354509965234
30
0
41
1
10
13.6954826890495
20
1.96756690848633
30
0
41
1
10
13.0324497624895
20
2.19655083827752
30
0
41
1
10
12.5876712351743
20
2.3191134086502
30
0
41
1
10
11.6840334812546
20
2.5097787742738
30
0
41
1
10
11.2250806049226
20
2.57781985328805
30
0
41
1
10
10.520866454701
20
2.64927801374793
30
0
41
1
10
10.283522042071
20
2.66806744922002
30
0
41
1
10
9.80308614658907
20
2.69788322979795
30
0
41
1
10
9.56054318652747
20
2.70888023711274
30
0
41
1
10
9.07274428156566
20
2.72544447700125
30
0
41
1
10
8.82693274120186
20
2.73104435647133
30
0
41
1
10
8.45676007746164
20
2.73699850738018
30
0
41
1
10
8.33309959644896
20
2.73857319561014
30
0
41
1
10
8.14719398692276
20
2.74047922371884
30
0
41
1
10
8.05413746011695
20
2.74131769654772
30
0
41
1
10
7.94538758845118
20
2.74212426850716
30
0
41
1
10
7.89874081397392
20
2.74243584264977
30
0
41
1
10
7.86763411373457
20
2.7426362671689
30
0
41
1
10
7.85199668448513
20
2.74275972246011
30
0
41
1
10
7.82112510017313
20
2.7426073769953
30
0
41
1
10
7.8053180029641
20
2.74238339998803
30
0
41
1
10
7.77759947153663
20
2.741275612149
30
0
41
1
10
7.7642140101197
20
2.74062319125406
30
0
41
1
10
7.7236272736381
20
2.73864137874634
30
0
41
1
10
7.69680046087967
20
2.73716672231095
30
0
41
1
10
7.61708702911926
20
2.73220271387802
30
0
41
1
10
7.5651377750516
20
2.72818785892596
30
0
41
1
10
7.41446516696897
20
2.71332576332219
30
0
41
1
10
7.3200592168638
20
2.6998467358444
30
0
41
1
10
7.19582282554097
20
2.66857597729836
30
0
41
1
10
7.15822188026135
20
2.6564593210619
30
0
41
1
10
7.09270681387213
20
2.62754745931866
30
0
41
1
10
7.06466269419849
20
2.6104927668197
30
0
41
1
10
7.02335526409735
20
2.57191527732502
30
0
41
1
10
7.00967218281471
20
2.55030470935881
30
0
41
1
10
6.99750512944613
20
2.50156886753174
30
0
41
1
10
6.99932351298901
20
2.4751608442632
30
0
41
1
10
7.0165185936327
20
2.41967421925162
30
0
41
1
10
7.03207362468362
20
2.39020834528009
30
0
41
1
10
7.07266967439773
20
2.33088523008456
30
0
41
1
10
7.09775447748072
20
2.30072586447002
30
0
41
1
10
7.15517172693643
20
2.2394271853687
30
0
41
1
10
7.18758321217575
20
2.20826383848632
30
0
41
1
10
7.25643458387029
20
2.14644133680051
30
0
41
1
10
7.29307456009704
20
2.11557141261164
30
0
41
1
10
7.40804355575543
20
2.02285773205702
30
0
41
1
10
7.49154192231774
20
1.96075664769037
30
0
41
1
10
7.66640219341508
20
1.83621342228287
30
0
41
1
10
7.75685605185413
20
1.77444345303462
30
0
41
1
10
8.03426989021128
20
1.58941826617175
30
0
41
1
10
8.2271523401896
20
1.46639588360961
30
0
41
1
10
8.62213876832763
20
1.21833123691934
30
0
41
1
10
8.82487527178489
20
1.09305598779855
30
0
41
1
10
9.0277693530137
20
0.968495349625584
30
0
0
SPLINE
5
E7
100
AcDbEntity
8
1
62
256
6
ByLayer
370
18
48
1
60
0
100
AcDbSpline
70
2053
71
3
72
46
73
42
40
0
40
0
40
0
40
0
40
0.0312500000000014
40
0.0312500000000014
40
0.0625000000000028
40
0.0625000000000028
40
0.0937500000000041
40
0.0937500000000041
40
0.125000000000005
40
0.125000000000005
40
0.156250000000007
40
0.156250000000007
40
0.187500000000008
40
0.187500000000008
40
0.250000000000011
40
0.250000000000011
40
0.28125000000001
40
0.28125000000001
40
0.31250000000001
40
0.31250000000001
40
0.375000000000009
40
0.375000000000009
40
0.437500000000008
40
0.437500000000008
40
0.500000000000007
40
0.500000000000007
40
0.562500000000006
40
0.562500000000006
40
0.625000000000005
40
0.625000000000005
40
0.687500000000004
40
0.687500000000004
40
0.750000000000003
40
0.750000000000003
40
0.812500000000003
40
0.812500000000003
40
0.875000000000002
40
0.875000000000002
40
0.937500000000001
40
0.937500000000001
40
1
40
1
40
1
40
1
41
1
10
56.3575884388646
20
-1.33484672359208
30
0
41
1
10
56.3693591148913
20
-1.3177589133671
30
0
41
1
10
56.3808693093137
20
-1.29948949013891
30
0
41
1
10
56.4033284633376
20
-1.26040473509249
30
0
41
1
10
56.4143962489907
20
-1.23933884558798
30
0
41
1
10
56.4352158865685
20
-1.19548344847433
30
0
41
1
10
56.4449300356682
20
-1.17283160626806
30
0
41
1
10
56.4627709928226
20
-1.12587561048494
30
0
41
1
10
56.4707278407261
20
-1.10193423737286
30
0
41
1
10
56.4839424187794
20
-1.05505451124517
30
0
41
1
10
56.4893654907116
20
-1.03144753575876
30
0
41
1
10
56.4969871930121
20
-0.987119803085591
30
0
41
1
10
56.4992608633521
20
-0.966227852002163
30
0
41
1
10
56.5014645995647
20
-0.908269932147192
30
0
41
1
10
56.4966438708541
20
-0.877785393175145
30
0
41
1
10
56.4827432024946
20
-0.845392022147252
30
0
41
1
10
56.4769404505035
20
-0.836671565408722
30
0
41
1
10
56.4637051613275
20
-0.82355023871682
30
0
41
1
10
56.4562551964568
20
-0.819056499824995
30
0
41
1
10
56.4316275211873
20
-0.811231760156289
30
0
41
1
10
56.4127530248805
20
-0.813628613643345
30
0
41
1
10
56.3712632420756
20
-0.83189304246801
30
0
41
1
10
56.3492998406072
20
-0.847455986752124
30
0
41
1
10
56.3033236002086
20
-0.89119218377175
30
0
41
1
10
56.2797268990432
20
-0.919073870174117
30
0
41
1
10
56.2332534220486
20
-0.985972740825872
30
0
41
1
10
56.2100145284485
20
-1.02564978308771
30
0
41
1
10
56.1681867214289
20
-1.11334812960988
30
0
41
1
10
56.1495161313305
20
-1.16186464138679
30
0
41
1
10
56.1229407112037
20
-1.25634532600208
30
0
41
1
10
56.1150964977168
20
-1.30227265519937
30
0
41
1
10
56.1121289186356
20
-1.37924990942673
30
0
41
1
10
56.116879608522
20
-1.41027129361086
30
0
41
1
10
56.1352754720835
20
-1.45392592587655
30
0
41
1
10
56.1489195113247
20
-1.46711520726052
30
0
41
1
10
56.1814908120837
20
-1.47784585395604
30
0
41
1
10
56.2006244947546
20
-1.47550647680583
30
0
41
1
10
56.2418579798331
20
-1.45734728854853
30
0
41
1
10
56.2642802537582
20
-1.44136759103512
30
0
41
1
10
56.3100585505851
20
-1.39750946466714
30
0
41
1
10
56.3340470868112
20
-1.36902234404204
30
0
41
1
10
56.3575884388646
20
-1.33484672359208
30
0
0
SPLINE
5
E8
100
AcDbEntity
8
1
62
256
6
ByLayer
370
13
48
1
60
0
100
AcDbSpline
70
4
71
3
72
12
73
8
40
0
40
0
40
0
40
0
40
0.279096265074452
40
0.279096265074452
40
0.558192530148904
40
0.558192530148904
40
1
40
1
40
1
40
1
41
1
10
9.20073549254175
20
-2.60730548302092
30
0
41
1
10
9.44710553043222
20
-2.64655615904715
30
0
41
1
10
9.69326653693784
20
-2.67514209805634
30
0
41
1
10
10.1821104627273
20
-2.71067676710158
30
0
41
1
10
10.4253903103381
20
-2.71774416164192
30
0
41
1
10
11.0528899333376
20
-2.7087246593058
30
0
41
1
10
11.4367515493462
20
-2.6767248900608
30
0
41
1
10
11.8224996929937
20
-2.61866270582911
30
0
0
SPLINE
5
E9
100
AcDbEntity
8
1
62
256
6
ByLayer
370
18
48
1
60
0
100
AcDbSpline
70
4
71
3
72
26
73
22
40
0
40
0
40
0
40
0
40
0.0744178061628588
40
0.0744178061628588
40
0.169456495529628
40
0.169456495529628
40
0.216975840213011
40
0.216975840213011
40
0.264495184896393
40
0.264495184896393
40
0.45457256362992
40
0.45457256362992
40
0.644649942363446
40
0.644649942363446
40
0.739688631730209
40
0.739688631730209
40
0.834727321096973
40
0.834727321096973
40
0.929766010463736
40
0.929766010463736
40
1
40
1
40
1
40
1
41
1
10
29.1286286319124
20
1.97620955878347
30
0
41
1
10
29.3186923722591
20
1.90137553699165
30
0
41
1
10
29.5088423283438
20
1.82175704847361
30
0
41
1
10
29.9427349322159
20
1.63038575210544
30
0
41
1
10
30.1867736081305
20
1.5159879821563
30
0
41
1
10
30.5551051925566
20
1.33509743334676
30
0
41
1
10
30.6783167482043
20
1.27318774839503
30
0
41
1
10
30.9238903733872
20
1.14727336273356
30
0
41
1
10
31.0464561155157
20
1.08316247740353
30
0
41
1
10
31.6587703299138
20
0.757832381178389
30
0
41
1
10
32.1473679412538
20
0.482257071837609
30
0
41
1
10
33.1313914683787
20
-0.0797400969076421
30
0
41
1
10
33.6201921041662
20
-0.362205704210851
30
0
41
1
10
34.3572233752303
20
-0.772977415662524
30
0
41
1
10
34.6032655428892
20
-0.907557873872832
30
0
41
1
10
35.0938022152159
20
-1.16755243080163
30
0
41
1
10
35.338779399816
20
-1.29332048516358
30
0
41
1
10
35.8294538667636
20
-1.53436379616667
30
0
41
1
10
36.0759586323117
20
-1.6495598541633
30
0
41
1
10
36.501367329477
20
-1.83624661674276
30
0
41
1
10
36.681438528682
20
-1.91154362447125
30
0
41
1
10
36.8611057622221
20
-1.982510299669
30
0
0
SPLINE
5
EA
100
AcDbEntity
8
1
62
256
6
ByLayer
370
13
48
1
60
0
100
AcDbSpline
70
4
71
3
72
18
73
14
40
0
40
0
40
0
40
0
40
0.039123948015107
40
0.039123948015107
40
0.338929127934055
40
0.338929127934055
40
0.488831717893532
40
0.488831717893532
40
0.638734307853009
40
0.638734307853009
40
0.938539487771971
40
0.938539487771971
40
1
40
1
40
1
40
1
41
1
10
36.8611057625062
20
-1.98251029978121
30
0
41
1
10
36.9245592530469
20
-2.00757376385511
30
0
41
1
10
36.9879623566774
20
-2.03209710262857
30
0
41
1
10
37.5369009841264
20
-2.23975076723318
30
0
41
1
10
38.0209064201981
20
-2.39026671170833
30
0
41
1
10
38.7517140613909
20
-2.55889497817068
30
0
41
1
10
38.9965358144285
20
-2.6055569356665
30
0
41
1
10
39.4882174514433
20
-2.67783039835945
30
0
41
1
10
39.7324876357807
20
-2.70317204155205
30
0
41
1
10
40.4626679117396
20
-2.74732377338575
30
0
41
1
10
40.9463558099262
20
-2.73410145635879
30
0
41
1
10
41.5319275672258
20
-2.66722847083736
30
0
41
1
10
41.6316328318904
20
-2.65408216816965
30
0
41
1
10
41.7314734306639
20
-2.63917589463409
30
0
0
SPLINE
5
EB
100
AcDbEntity
8
1
62
256
6
ByLayer
370
13
48
1
60
0
100
AcDbSpline
70
4
71
3
72
10
73
6
40
0
40
0
40
0
40
0
40
0.5
40
0.5
40
1
40
1
40
1
40
1
41
1
10
9.2503345053992
20
-2.48805270592234
30
0
41
1
10
9.22855191718736
20
-2.48581271721403
30
0
41
1
10
9.20719407796162
20
-2.48626854825784
30
0
41
1
10
9.16534999841903
20
-2.49242981225325
30
0
41
1
10
9.14477430518815
20
-2.49823659085453
30
0
41
1
10
9.12561464192129
20
-2.50663683959763
30
0
0
SPLINE
5
EC
100
AcDbEntity
8
SK1
62
256
6
ByLayer
370
18
48
1
60
0
100
AcDbSpline
70
4
71
3
72
8
73
4
40
0
40
0
40
0
40
0
40
1
40
1
40
1
40
1
41
1
10
-36
20
-1.53839318476344
30
0
41
1
10
-35.8061863788745
20
-1.75759430933056
30
0
41
1
10
-35.6038183496577
20
-1.97428835558077
30
0
41
1
10
-35.4
20
-2.19052562131765
30
0
0
SPLINE
5
ED
100
AcDbEntity
8
SK1
62
256
6
ByLayer
370
18
48
1
60
0
100
AcDbSpline
70
4
71
3
72
14
73
10
40
0
40
0
40
0
40
0
40
0.125000000000001
40
0.125000000000001
40
0.250000000000001
40
0.250000000000001
40
0.500000000000002
40
0.500000000000002
40
1
40
1
40
1
40
1
41
1
10
-35.3
20
-1.18033179447389
30
0
41
1
10
-35.3
20
-1.17021415208365
30
0
41
1
10
-35.3017593723636
20
-1.15901165822135
30
0
41
1
10
-35.3069353411979
20
-1.13750501146987
30
0
41
1
10
-35.3102739075534
20
-1.12724251043818
30
0
41
1
10
-35.3215583577555
20
-1.09728469613722
30
0
41
1
10
-35.3303095934911
20
-1.0795029641578
30
0
41
1
10
-35.358391202053
20
-1.02943089069163
30
0
41
1
10
-35.378655954467
20
-1.00203226222692
30
0
41
1
10
-35.4
20
-0.979387696349619
30
0
0
SPLINE
5
EE
100
AcDbEntity
8
SK1
62
256
6
ByLayer
370
18
48
1
60
0
100
AcDbSpline
70
4
71
3
72
14
73
10
40
0
40
0
40
0
40
0
40
0.5
40
0.5
40
0.75
40
0.75
40
0.875
40
0.875
40
1
40
1
40
1
40
1
41
1
10
-35.3999999999999
20
-2.19052562131836
30
0
41
1
10
-35.3787677796885
20
-2.21305154831848
30
0
41
1
10
-35.3584290958895
20
-2.23070690572064
30
0
41
1
10
-35.3303626450498
20
-2.24648401739464
30
0
41
1
10
-35.3215171954455
20
-2.24988099090356
30
0
41
1
10
-35.3102812516991
20
-2.2491744887183
30
0
41
1
10
-35.3068890218584
20
-2.24792465947303
30
0
41
1
10
-35.3017585680987
20
-2.24203664520704
30
0
41
1
10
-35.3
20
-2.23727708584144
30
0
41
1
10
-35.3
20
-2.22998466277954
30
0
0
SPLINE
5
EF
100
AcDbEntity
8
SK1
62
256
6
ByLayer
370
18
48
1
60
0
100
AcDbSpline
70
4
71
3
72
8
73
4
40
0
40
0
40
0
40
0
40
1
40
1
40
1
40
1
41
1
10
-35.4
20
-0.979387696349619
30
0
41
1
10
-35.6037671791476
20
-0.763204719008343
30
0
41
1
10
-35.8060911221569
20
-0.546564118687371
30
0
41
1
10
-36
20
-0.327255259795407
30
0
0
LINE
5
76
100
AcDbEntity
8
81
62
256
6
ByLayer
370
18
48
1
60
0
100
AcDbLine
10
57
20
0
30
0
11
62
21
0
31
0
39
0
210
0
220
0
230
1
0
LINE
5
77
100
AcDbEntity
8
1
62
256
6
ByLayer
370
18
48
1
60
0
100
AcDbLine
10
10.543927
20
2.752655
30
0
11
0.864195
21
2.746847
31
0
39
0
210
0
220
0
230
1
0
LINE
5
79
100
AcDbEntity
8
1
62
256
6
ByLayer
370
18
48
1
60
0
100
AcDbLine
10
25.508782
20
2.761634
30
0
11
25.012007
21
2.761336
31
0
39
0
210
0
220
0
230
1
0
LINE
5
7A
100
AcDbEntity
8
1
62
256
6
ByLayer
370
18
48
1
60
0
100
AcDbLine
10
40.473633
20
2.770612
30
0
11
39.982864
21
2.770318
31
0
39
0
210
0
220
0
230
1
0
LINE
5
7B
100
AcDbEntity
8
1
62
256
6
ByLayer
370
18
48
1
60
0
100
AcDbLine
10
55.438912
20
2.779592
30
0
11
54.951519
21
2.779299
31
0
39
0
210
0
220
0
230
1
0
LINE
5
7C
100
AcDbEntity
8
1
62
256
6
ByLayer
370
18
48
1
60
0
100
AcDbLine
10
54.951519
20
-2.779299
30
0
11
55.439011
21
-2.779592
31
0
39
0
210
0
220
0
230
1
0
LINE
5
7D
100
AcDbEntity
8
1
62
256
6
ByLayer
370
18
48
1
60
0
100
AcDbLine
10
39.982864
20
-2.770318
30
0
11
40.47336
21
-2.770612
31
0
39
0
210
0
220
0
230
1
0
LINE
5
7E
100
AcDbEntity
8
1
62
256
6
ByLayer
370
18
48
1
60
0
100
AcDbLine
10
25.012007
20
-2.761336
30
0
11
25.508572
21
-2.761633
31
0
39
0
210
0
220
0
230
1
0
LINE
5
7F
100
AcDbEntity
8
1
62
256
6
ByLayer
370
18
48
1
60
0
100
AcDbLine
10
0.864195
20
-2.746847
30
0
11
10.543734
21
-2.752655
31
0
39
0
210
0
220
0
230
1
0
LINE
5
80
100
AcDbEntity
8
SK1
62
256
6
ByLayer
370
18
48
1
60
0
100
AcDbLine
10
-35.278312
20
3
30
0
11
-36
21
1.75
31
0
39
0
210
0
220
0
230
1
0
LINE
5
82
100
AcDbEntity
8
SK1
62
256
6
ByLayer
370
18
48
1
60
0
100
AcDbLine
10
-36
20
-1.75
30
0
11
-35.278312
21
-3
31
0
39
0
210
0
220
0
230
1
0
LINE
5
83
100
AcDbEntity
8
SK1
62
256
6
ByLayer
370
18
48
1
60
0
100
AcDbLine
10
0
20
3
30
0
11
-35.278312
21
3
31
0
39
0
210
0
220
0
230
1
0
LINE
5
84
100
AcDbEntity
8
SK1
62
256
6
ByLayer
370
18
48
1
60
0
100
AcDbLine
10
-35.278312
20
-3
30
0
11
0
21
-3
31
0
39
0
210
0
220
0
230
1
0
LINE
5
85
100
AcDbEntity
8
SK4
62
256
6
ByLayer
370
18
48
0.05
60
0
100
AcDbLine
10
62
20
0
30
0
11
-41
21
0
31
0
39
0
210
0
220
0
230
1
0
LINE
5
87
100
AcDbEntity
8
4
62
256
6
ByLayer
370
18
48
0.05
60
0
100
AcDbLine
10
57
20
0
30
0
11
0
21
0
31
0
39
0
210
0
220
0
230
1
0
LINE
5
89
100
AcDbEntity
8
80
62
256
6
ByLayer
370
18
48
1
60
0
100
AcDbLine
10
0
20
0
30
0
11
-5
21
0
31
0
39
0
210
0
220
0
230
1
0
LINE
5
8A
100
AcDbEntity
8
1
62
256
6
ByLayer
370
13
48
1
60
0
100
AcDbLine
10
56.209936
20
0.249156
30
0
11
56.895273
21
-0.157477
31
0
39
0
210
0
220
0
230
1
0
LINE
5
8B
100
AcDbEntity
8
1
62
256
6
ByLayer
370
18
48
1
60
0
100
AcDbLine
10
56.931776
20
-0.268872
30
0
11
56.864105
21
-0.584485
31
0
39
0
210
0
220
0
230
1
0
LINE
5
8C
100
AcDbEntity
8
1
62
256
6
ByLayer
370
18
48
1
60
0
100
AcDbLine
10
57
20
0
30
0
11
56.037749
21
-2.643763
31
0
39
0
210
0
220
0
230
1
0
LINE
5
8D
100
AcDbEntity
8
1
62
256
6
ByLayer
370
13
48
1
60
0
100
AcDbLine
10
56.864105
20
0.584485
30
0
11
56.399843
21
0.584485
31
0
39
0
210
0
220
0
230
1
0
LINE
5
8E
100
AcDbEntity
8
1
62
256
6
ByLayer
370
13
48
1
60
0
100
AcDbLine
10
56.399843
20
0.584485
30
0
11
56.931776
21
0.268872
31
0
39
0
210
0
220
0
230
1
0
LINE
5
8F
100
AcDbEntity
8
1
62
256
6
ByLayer
370
18
48
1
60
0
100
AcDbLine
10
0
20
-3
30
0
11
0
21
3
31
0
39
0
210
0
220
0
230
1
0
LINE
5
90
100
AcDbEntity
8
1
62
256
6
ByLayer
370
13
48
1
60
0
100
AcDbLine
10
0.431858
20
2.873423
30
0
11
0.431858
21
-2.873423
31
0
39
0
210
0
220
0
230
1
0
LINE
5
91
100
AcDbEntity
8
1
62
256
6
ByLayer
370
13
48
1
60
0
100
AcDbLine
10
0.864195
20
2.746847
30
0
11
0.864195
21
-2.746847
31
0
39
0
210
0
220
0
230
1
0
LINE
5
92
100
AcDbEntity
8
1
62
256
6
ByLayer
370
18
48
1
60
0
100
AcDbLine
10
57
20
0
30
0
11
56.995454
21
-0.028201
31
0
39
0
210
0
220
0
230
1
0
LINE
5
93
100
AcDbEntity
8
1
62
256
6
ByLayer
370
18
48
1
60
0
100
AcDbLine
10
56.995454
20
0.028201
30
0
11
57
21
0
31
0
39
0
210
0
220
0
230
1
0
LINE
5
94
100
AcDbEntity
8
1
62
256
6
ByLayer
370
18
48
1
60
0
100
AcDbLine
10
55.613429
20
-1.481639
30
0
11
56.895273
21
-0.157477
31
0
39
0
210
0
220
0
230
1
0
LINE
5
95
100
AcDbEntity
8
1
62
256
6
ByLayer
370
18
48
1
60
0
100
AcDbLine
10
56.931776
20
0.268872
30
0
11
56.864105
21
0.584485
31
0
39
0
210
0
220
0
230
1
0
LINE
5
96
100
AcDbEntity
8
SK1
62
256
6
ByLayer
370
18
48
1
60
0
100
AcDbLine
10
-36
20
1.75
30
0
11
-36
21
-0.327255
31
0
39
0
210
0
220
0
230
1
0
LINE
5
97
100
AcDbEntity
8
SK1
62
256
6
ByLayer
370
18
48
1
60
0
100
AcDbLine
10
-35.3
20
-2.229985
30
0
11
-35.3
21
-1.180332
31
0
39
0
210
0
220
0
230
1
0
LINE
5
98
100
AcDbEntity
8
SK1
62
256
6
ByLayer
370
18
48
1
60
0
100
AcDbLine
10
-35.278312
20
3
30
0
11
-35.278312
21
-3
31
0
39
0
210
0
220
0
230
1
0
LINE
5
99
100
AcDbEntity
8
SK1
62
256
6
ByLayer
370
13
48
1
60
0
100
AcDbLine
10
-35.4
20
-0.979371
30
0
11
-35.4
21
-2.190526
31
0
39
0
210
0
220
0
230
1
0
LINE
5
9A
100
AcDbEntity
8
SK1
62
256
6
ByLayer
370
18
48
1
60
0
100
AcDbLine
10
-36
20
-0.327267
30
0
11
-36
21
-1.538393
31
0
39
0
210
0
220
0
230
1
0
LINE
5
9B
100
AcDbEntity
8
SK1
62
256
6
ByLayer
370
18
48
1
60
0
100
AcDbLine
10
-36
20
-1.75
30
0
11
-36
21
-1.538393
31
0
39
0
210
0
220
0
230
1
0
LINE
5
9C
100
AcDbEntity
8
SK1
62
256
6
ByLayer
370
18
48
1
60
0
100
AcDbLine
10
0
20
-3
30
0
11
0
21
3
31
0
39
0
210
0
220
0
230
1
0
MTEXT
5
F0
100
AcDbEntity
8
SK6
62
256
6
ByLayer
370
13
48
1
60
0
100
AcDbMText
10
12.629169
20
35.162694
30
0
210
0
220
0
230
1
1
\W0.7542;R840-0556-70-A1A1220
40
3.5
41
0
44
1.084337
50
0
71
8
72
5
7
iso_b_vert
0
DIMENSION
5
FD
100
AcDbEntity
8
SK2
62
256
6
ByLayer
370
13
48
1
60
0
100
AcDbDimension
2
DimnDraft3D1
10
56.06
20
-12.993398
30
0
11
26.810059
21
-12.993398
31
0
70
32
71
5
72
1
41
1
210
0
220
0
230
1
3
Standard
100
AcDbAlignedDimension
13
0
23
-1.5875
33
0
14
56.06
24
-4.3675
34
0
50
0
100
AcDbRotatedDimension
1001
ACAD
1000
DSTYLE
1002
{
1070
   279
1070
     0
1070
   172
1070
     1
1070
   173
1070
     1
1070
   340
1005
F1
1070
   271
1070
     2
1070
   272
1070
     2
1070
    77
1070
     1
1070
    73
1070
     0
1070
   171
1070
     3
1070
   274
1070
     4
1070
   177
1070
    35
1070
   176
1070
    35
1070
   178
1070
    35
1070
    48
1040
-0.005
1070
    41
1041
3.5
1070
   147
1041
1.75
1070
    42
1041
1.5875
1070
    44
1041
2.0
1070
   140
1041
3.5
1070
   343
1005
0
1070
   344
1005
0
1002
}
0
DIMENSION
5
107
100
AcDbEntity
8
SK2
62
256
6
ByLayer
370
13
48
1
60
0
100
AcDbDimension
2
DimnDraft3D2
10
57
20
-31.692985
30
0
11
10.9013
21
-31.692985
31
0
70
32
71
5
72
1
41
1
210
0
220
0
230
1
3
Standard
100
AcDbAlignedDimension
13
-36
23
-4.5875
33
0
14
57
24
-1.5875
34
0
50
0
100
AcDbRotatedDimension
1001
ACAD
1000
DSTYLE
1002
{
1070
   279
1070
     0
1070
   172
1070
     1
1070
   173
1070
     1
1070
   340
1005
F1
1070
   271
1070
     2
1070
   272
1070
     2
1070
    77
1070
     1
1070
    73
1070
     0
1070
   171
1070
     3
1070
   274
1070
     4
1070
   177
1070
    35
1070
   176
1070
    35
1070
   178
1070
    35
1070
    48
1040
-0.005
1070
    41
1041
3.5
1070
   147
1041
1.75
1070
    42
1041
1.5875
1070
    44
1041
2.0
1070
   140
1041
3.5
1070
   343
1005
0
1070
   344
1005
0
1002
}
0
DIMENSION
5
111
100
AcDbEntity
8
SK2
62
256
6
ByLayer
370
13
48
1
60
0
100
AcDbDimension
2
DimnDraft3D3
10
57
20
14.389119
30
0
11
34.29
21
14.389119
31
0
70
32
71
5
72
1
41
1
210
0
220
0
230
1
3
Standard
100
AcDbAlignedDimension
13
11.58
23
4.3675
33
0
14
57
24
1.5875
34
0
50
0
100
AcDbRotatedDimension
1001
ACAD
1000
DSTYLE
1002
{
1070
   279
1070
     0
1070
   172
1070
     1
1070
   173
1070
     1
1070
   340
1005
F1
1070
   271
1070
     2
1070
   272
1070
     2
1070
    77
1070
     1
1070
    73
1070
     0
1070
   171
1070
     3
1070
   274
1070
     4
1070
   177
1070
    35
1070
   176
1070
    35
1070
   178
1070
    35
1070
    48
1040
-0.005
1070
    41
1041
3.5
1070
   147
1041
1.75
1070
    42
1041
1.5875
1070
    44
1041
2.0
1070
   140
1041
3.5
1070
   343
1005
0
1070
   344
1005
0
1002
}
0
DIMENSION
5
11B
100
AcDbEntity
8
SK2
62
256
6
ByLayer
370
13
48
1
60
0
100
AcDbDimension
2
DimnDraft3D4
10
56.06
20
-15.582503
30
0
11
66.981425
21
-15.582503
31
0
70
32
71
5
72
1
41
1
210
0
220
0
230
1
3
Standard
100
AcDbAlignedDimension
13
57
23
-1.5875
33
0
14
56.06
24
-4.3675
34
0
50
0
100
AcDbRotatedDimension
1001
ACAD
1000
DSTYLE
1002
{
1070
   279
1070
     0
1070
   172
1070
     1
1070
   173
1070
     1
1070
   340
1005
F1
1070
   271
1070
     2
1070
   272
1070
     2
1070
    77
1070
     1
1070
    73
1070
     0
1070
   171
1070
     3
1070
   274
1070
     4
1070
   177
1070
    35
1070
   176
1070
    35
1070
   178
1070
    35
1070
    48
1040
-0.005
1070
    41
1041
3.5
1070
   147
1041
1.75
1070
    42
1041
1.5875
1070
    44
1041
2.0
1070
   140
1041
3.5
1070
   343
1005
0
1070
   344
1005
0
1002
}
0
DIMENSION
5
125
100
AcDbEntity
8
SK2
62
256
6
ByLayer
370
13
48
1
60
0
100
AcDbDimension
2
DimnDraft3D5
10
56.06
20
-21.343428
30
0
11
7.820676
21
-21.343428
31
0
70
32
71
5
72
1
41
1
210
0
220
0
230
1
3
Standard
100
AcDbAlignedDimension
13
-36
23
-4.5875
33
0
14
56.06
24
-4.3675
34
0
50
0
100
AcDbRotatedDimension
1001
ACAD
1000
DSTYLE
1002
{
1070
   279
1070
     0
1070
   172
1070
     1
1070
   173
1070
     1
1070
   340
1005
F1
1070
   271
1070
     2
1070
   272
1070
     2
1070
    77
1070
     1
1070
    73
1070
     0
1070
   171
1070
     3
1070
   274
1070
     4
1070
   177
1070
    35
1070
   176
1070
    35
1070
   178
1070
    35
1070
    48
1040
-0.005
1070
    41
1041
3.5
1070
   147
1041
1.75
1070
    42
1041
1.5875
1070
    44
1041
2.0
1070
   140
1041
3.5
1070
   343
1005
0
1070
   344
1005
0
1002
}
0
DIMENSION
5
130
100
AcDbEntity
8
SK2
62
256
6
ByLayer
370
13
48
1
60
0
100
AcDbDimension
2
DimnDraft3D6
10
-46.625163
20
3
30
0
11
-47.250163
21
21.47418
31
0
70
33
71
5
72
1
41
1
210
0
220
0
230
1
3
Standard
100
AcDbAlignedDimension
13
-37.5875
23
-3
33
0
14
-37.5875
24
3
34
0
1001
ACAD
1000
DSTYLE
1002
{
1070
   279
1070
     0
1070
    74
1070
     0
1070
   173
1070
     1
1070
   340
1005
F1
1070
   271
1070
     3
1070
   272
1070
     2
1070
    77
1070
     1
1070
    73
1070
     0
1070
   171
1070
     3
1070
   274
1070
     4
1070
   177
1070
    35
1070
   176
1070
    35
1070
   178
1070
    35
1070
    48
1040
-0.005
1070
    41
1041
3.5
1070
   147
1041
1.75
1070
    42
1041
1.5875
1070
    44
1041
2.0
1070
   140
1041
3.5
1070
   343
1005
0
1070
   344
1005
0
1002
}
0
DIMENSION
5
13B
100
AcDbEntity
8
2
62
256
6
ByLayer
370
13
48
1
60
0
100
AcDbDimension
2
DimnDraft3D7
10
71.083343
20
2.78
30
0
11
66.458343
21
19.847266
31
0
70
33
71
5
72
1
41
1
210
0
220
0
230
1
3
Standard
100
AcDbAlignedDimension
13
57.6475
23
-2.78
33
0
14
57.6475
24
2.78
34
0
1001
ACAD
1000
DSTYLE
1002
{
1070
   279
1070
     0
1070
    74
1070
     0
1070
   173
1070
     1
1070
   340
1005
F1
1070
   271
1070
     3
1070
   272
1070
     2
1070
    77
1070
     1
1070
    73
1070
     0
1070
   171
1070
     3
1070
   274
1070
     4
1070
   177
1070
    35
1070
   176
1070
    35
1070
   178
1070
    35
1070
    48
1040
-0.005
1070
    41
1041
3.5
1070
   147
1041
1.75
1070
    42
1041
1.5875
1070
    44
1041
2.0
1070
   140
1041
3.5
1070
   343
1005
0
1070
   344
1005
0
1002
}
0
ENDSEC
0
SECTION
2
OBJECTS
0
DICTIONARY
5
1a6
330
0
100
AcDbDictionary
280
0
281
1
3
ACAD_GROUP
350
1a7
3
ACAD_MLINESTYLE
350
1a8
0
DICTIONARY
5
1a7
330
0
100
AcDbDictionary
280
0
281
1
0
DICTIONARY
5
1a8
330
0
100
AcDbDictionary
280
0
281
1
3
Standard
350
18
0
MLINESTYLE
5
18
330
1a8
100
AcDbMlineStyle
2
Standard
70
0
3

62
256
51
90
52
90
71
2
49
-0.5
62
256
6
ByLayer
49
0.5
62
256
6
ByLayer
0
RASTERVARIABLES
5
194
330

100
AcDbRasterVariables
90
0
70
1
71
1
72
1
0
ENDSEC
0
EOF
