0
SECTION
2
HEADER
9
$ACADVER
1
AC1015
9
$DWGCODEPAGE
3
ANSI_1252
9
$HANDSEED
5
1b6
9
$ANGBASE
50
0
9
$ANGDIR
70
0
9
$ATTMODE
70
1
9
$AUNITS
70
0
9
$AUPREC
70
0
9
$CECOLOR
62
256
9
$CELTSCALE
40
1
9
$CELTYPE
6
ByLayer
9
$CELWEIGHT
370
18
9
$CLAYER
8
0
9
$CMLJUST
70
0
9
$CMLSCALE
40
1
9
$CMLSTYLE
2
Standard
9
$DIMSTYLE
2
Standard
9
$TEXTSIZE
40
0.2
9
$TEXTSTYLE
7
Standard
9
$LUNITS
70
2
9
$LUPREC
70
4
9
$EXTNAMES
290
1
9
$INSUNITS
70
4
9
$LTSCALE
40
1
9
$LWDISPLAY
290
1
9
$PDMODE
70
0
9
$PDSIZE
40
0
9
$PLINEGEN
70
0
0
ENDSEC
0
SECTION
2
CLASSES
0
CLASS
1
RASTERVARIABLES
2
AcDbRasterVariables
3
ISM
90
0
280
0
281
0
0
ENDSEC
0
SECTION
2
TABLES
0
TABLE
2
VPORT
5
1ac
100
AcDbSymbolTable
0
VPORT
5
1
100
AcDbSymbolTableRecord
100
AcDbViewportTableRecord
2
*Active
70
0
10
0
20
0
11
1
21
1
12
-1
22
1
13
0
23
0
14
0.5
24
0.5
15
10
25
10
16
0
26
0
36
1
17
0
27
0
37
0
0
ENDTAB
0
TABLE
2
LTYPE
5
1ad
100
AcDbSymbolTable
0
LTYPE
5
14
100
AcDbSymbolTableRecord
100
AcDbLinetypeTableRecord
70
0
2
ByBlock
3

72
65
73
0
40
0
0
LTYPE
5
15
100
AcDbSymbolTableRecord
100
AcDbLinetypeTableRecord
70
0
2
ByLayer
3

72
65
73
0
40
0
0
LTYPE
5
16
100
AcDbSymbolTableRecord
100
AcDbLinetypeTableRecord
70
0
2
CONTINUOUS
3
Solid line
72
65
73
0
40
0
0
LTYPE
5
6A
100
AcDbSymbolTableRecord
100
AcDbLinetypeTableRecord
70
0
2
CENTER
3
____ _ ____ _ ____ _ ____
72
65
73
4
40
47.5
49
22
74
0
49
-8.5
74
0
49
8.5
74
0
49
-8.5
74
0
0
LTYPE
5
6B
100
AcDbSymbolTableRecord
100
AcDbLinetypeTableRecord
70
0
2
DASHED
3
__ __ __ __ __ __ __ __ __
72
65
73
2
40
25.72
49
12.86
74
0
49
-12.86
74
0
0
ENDTAB
0
TABLE
2
LAYER
5
1ae
100
AcDbSymbolTable
0
LAYER
5
10
100
AcDbSymbolTableRecord
100
AcDbLayerTableRecord
2
0
70
0
62
7
6
CONTINUOUS
290
1
370
-3
390
0
0
LAYER
5
6D
100
AcDbSymbolTableRecord
100
AcDbLayerTableRecord
2
81
70
0
62
-3
6
CONTINUOUS
290
1
370
-3
390
0
0
LAYER
5
6F
100
AcDbSymbolTableRecord
100
AcDbLayerTableRecord
2
80
70
0
62
-6
6
CONTINUOUS
290
1
370
-3
390
0
0
LAYER
5
74
100
AcDbSymbolTableRecord
100
AcDbLayerTableRecord
2
2
70
0
62
7
6
CONTINUOUS
290
1
370
-3
390
0
0
LAYER
5
78
100
AcDbSymbolTableRecord
100
AcDbLayerTableRecord
2
1
70
0
62
4
6
CONTINUOUS
290
1
370
-3
390
0
0
LAYER
5
88
100
AcDbSymbolTableRecord
100
AcDbLayerTableRecord
2
4
70
0
62
-2
6
CENTER
290
1
370
-3
390
0
0
LAYER
5
198
100
AcDbSymbolTableRecord
100
AcDbLayerTableRecord
2
SK2
70
0
62
7
6
CONTINUOUS
290
1
370
-3
390
0
0
LAYER
5
199
100
AcDbSymbolTableRecord
100
AcDbLayerTableRecord
2
SK1
70
0
62
4
6
CONTINUOUS
290
1
370
-3
390
0
0
LAYER
5
19a
100
AcDbSymbolTableRecord
100
AcDbLayerTableRecord
2
SK4
70
0
62
2
6
CENTER
290
1
370
-3
390
0
0
LAYER
5
19b
100
AcDbSymbolTableRecord
100
AcDbLayerTableRecord
2
SK6
70
0
62
5
6
CONTINUOUS
290
1
370
-3
390
0
0
ENDTAB
0
TABLE
2
STYLE
5
1af
100
AcDbSymbolTable
0
STYLE
5
11
100
AcDbSymbolTableRecord
100
AcDbTextStyleTableRecord
2
Standard
3
txt
70
0
71
0
40
0
41
1
42
0
50
0
0
STYLE
5
F4
100
AcDbSymbolTableRecord
100
AcDbTextStyleTableRecord
2
iso_b_vert
3
simplex.shx
70
0
71
0
40
0
41
1
42
0
50
0
0
STYLE
5
F5
100
AcDbSymbolTableRecord
100
AcDbTextStyleTableRecord
2
DWGDirectTextStyle
3
simplex
70
0
71
0
40
0
41
1
42
0
50
0
0
ENDTAB
0
TABLE
2
DIMSTYLE
5
1b0
100
AcDbSymbolTable
100
AcDbDimStyleTable
0
DIMSTYLE
105
27
100
AcDbSymbolTableRecord
100
AcDbDimStyleTableRecord
2
Standard
70
0
3
<>
41
0.18
42
0.0625
44
0.18
140
0.18
147
0.09
73
0
74
0
77
1
271
2
275
0
278
52
280
0
340
11
0
ENDTAB
0
TABLE
2
VIEW
5
1b1
100
AcDbSymbolTable
0
ENDTAB
0
TABLE
2
UCS
5
1b2
100
AcDbSymbolTable
0
ENDTAB
0
TABLE
2
APPID
5
1b3
100
AcDbSymbolTable
0
APPID
5
12
100
AcDbSymbolTableRecord
100
AcDbRegAppTableRecord
2
ACAD
70
0
0
ENDTAB
0
TABLE
2
BLOCK_RECORD
5
1b4
100
AcDbSymbolTable
0
BLOCK_RECORD
5
1F
100
AcDbSymbolTableRecord
100
AcDbBlockTableRecord
2
*Model_Space
340
0
70
0
0
BLOCK_RECORD
5
1B
100
AcDbSymbolTableRecord
100
AcDbBlockTableRecord
2
*Paper_Space
340
0
70
0
0
BLOCK_RECORD
5
23
100
AcDbSymbolTableRecord
100
AcDbBlockTableRecord
2
*Paper_Space0
340
0
70
0
0
BLOCK_RECORD
5
F7
100
AcDbSymbolTableRecord
100
AcDbBlockTableRecord
2
DimnDraft3D1
340
0
70
0
0
BLOCK_RECORD
5
101
100
AcDbSymbolTableRecord
100
AcDbBlockTableRecord
2
DimnDraft3D2
340
0
70
0
0
BLOCK_RECORD
5
10B
100
AcDbSymbolTableRecord
100
AcDbBlockTableRecord
2
DimnDraft3D3
340
0
70
0
0
BLOCK_RECORD
5
115
100
AcDbSymbolTableRecord
100
AcDbBlockTableRecord
2
DimnDraft3D4
340
0
70
0
0
BLOCK_RECORD
5
11F
100
AcDbSymbolTableRecord
100
AcDbBlockTableRecord
2
DimnDraft3D5
340
0
70
0
0
BLOCK_RECORD
5
129
100
AcDbSymbolTableRecord
100
AcDbBlockTableRecord
2
DimnDraft3D6
340
0
70
0
0
BLOCK_RECORD
5
134
100
AcDbSymbolTableRecord
100
AcDbBlockTableRecord
2
DimnDraft3D7
340
0
70
0
0
ENDTAB
0
ENDSEC
0
SECTION
2
BLOCKS
0
BLOCK
5
20
100
AcDbEntity
8
0
100
AcDbBlockBegin
2
*Model_Space
70
0
10
0
20
0
30
0
3
*Model_Space
0
ENDBLK
5
21
100
AcDbEntity
8
0
100
AcDbBlockEnd
0
BLOCK
5
1C
100
AcDbEntity
8
0
100
AcDbBlockBegin
2
*Paper_Space
70
0
10
0
20
0
30
0
3
*Paper_Space
0
ENDBLK
5
1D
100
AcDbEntity
8
0
100
AcDbBlockEnd
0
BLOCK
5
24
100
AcDbEntity
8
0
100
AcDbBlockBegin
2
*Paper_Space0
70
0
10
0
20
0
30
0
3
*Paper_Space0
0
ENDBLK
5
25
100
AcDbEntity
8
0
100
AcDbBlockEnd
0
BLOCK
5
FE
100
AcDbEntity
8
0
100
AcDbBlockBegin
2
DimnDraft3D1
70
0
10
0
20
0
30
0
3
DimnDraft3D1
0
MTEXT
5
F8
100
AcDbEntity
8
SK2
62
256
6
ByLayer
370
13
48
1
60
0
100
AcDbMText
10
16.677164
20
-12.118398
30
0
210
0
220
0
230
1
1
\W0.7581;45,06
40
3.5
41
0
44
1.084337
50
0
71
7
72
5
7
iso_b_vert
0
LINE
5
F9
100
AcDbEntity
8
SK2
62
256
6
ByLayer
370
13
48
1
60
0
100
AcDbLine
10
0
20
-1.5875
30
0
11
0
21
-14.993398
31
0
39
0
210
0
220
0
230
1
0
LINE
5
FA
100
AcDbEntity
8
SK2
62
256
6
ByLayer
370
13
48
1
60
0
100
AcDbLine
10
45.06
20
-4.3675
30
0
11
45.06
21
-14.993398
31
0
39
0
210
0
220
0
230
1
0
LINE
5
FB
100
AcDbEntity
8
SK2
62
256
6
ByLayer
370
13
48
1
60
0
100
AcDbLine
10
0
20
-12.993398
30
0
11
45.06
21
-12.993398
31
0
39
0
210
0
220
0
230
1
0
SOLID
5
FC
100
AcDbEntity
8
SK2
62
256
6
ByLayer
370
13
48
1
60
0
100
AcDbTrace
10
0
20
-12.993398
30
0
11
3.499998
21
-12.532615
31
0
12
3.500002
22
-13.454182
32
0
13
0
23
-12.993398
33
0
39
0
210
0
220
0
230
1
0
SOLID
5
FD
100
AcDbEntity
8
SK2
62
256
6
ByLayer
370
13
48
1
60
0
100
AcDbTrace
10
45.06
20
-12.993398
30
0
11
41.560002
21
-13.454182
31
0
12
41.559998
22
-12.532615
32
0
13
45.06
23
-12.993398
33
0
39
0
210
0
220
0
230
1
0
ENDBLK
5
FF
100
AcDbEntity
8
0
100
AcDbBlockEnd
0
BLOCK
5
108
100
AcDbEntity
8
0
100
AcDbBlockBegin
2
DimnDraft3D2
70
0
10
0
20
0
30
0
3
DimnDraft3D2
0
MTEXT
5
102
100
AcDbEntity
8
SK2
62
256
6
ByLayer
370
13
48
1
60
0
100
AcDbMText
10
0.952616
20
-30.817985
30
0
210
0
220
0
230
1
1
\W0.7317;82,00
40
3.5
41
0
44
1.084337
50
0
71
7
72
5
7
iso_b_vert
0
LINE
5
103
100
AcDbEntity
8
SK2
62
256
6
ByLayer
370
13
48
1
60
0
100
AcDbLine
10
-36
20
-4.5875
30
0
11
-36
21
-33.692985
31
0
39
0
210
0
220
0
230
1
0
LINE
5
104
100
AcDbEntity
8
SK2
62
256
6
ByLayer
370
13
48
1
60
0
100
AcDbLine
10
46
20
-1.5875
30
0
11
46
21
-33.692985
31
0
39
0
210
0
220
0
230
1
0
LINE
5
105
100
AcDbEntity
8
SK2
62
256
6
ByLayer
370
13
48
1
60
0
100
AcDbLine
10
-36
20
-31.692985
30
0
11
46
21
-31.692985
31
0
39
0
210
0
220
0
230
1
0
SOLID
5
106
100
AcDbEntity
8
SK2
62
256
6
ByLayer
370
13
48
1
60
0
100
AcDbTrace
10
-36
20
-31.692985
30
0
11
-32.500002
21
-31.232202
31
0
12
-32.499998
22
-32.153769
32
0
13
-36
23
-31.692985
33
0
39
0
210
0
220
0
230
1
0
SOLID
5
107
100
AcDbEntity
8
SK2
62
256
6
ByLayer
370
13
48
1
60
0
100
AcDbTrace
10
46
20
-31.692985
30
0
11
42.500002
21
-32.153769
31
0
12
42.499998
22
-31.232202
32
0
13
46
23
-31.692985
33
0
39
0
210
0
220
0
230
1
0
ENDBLK
5
109
100
AcDbEntity
8
0
100
AcDbBlockEnd
0
BLOCK
5
112
100
AcDbEntity
8
0
100
AcDbBlockBegin
2
DimnDraft3D3
70
0
10
0
20
0
30
0
3
DimnDraft3D3
0
MTEXT
5
10C
100
AcDbEntity
8
SK2
62
256
6
ByLayer
370
13
48
1
60
0
100
AcDbMText
10
26.997105
20
15.264119
30
0
210
0
220
0
230
1
1
\W0.7495;28,74
40
3.5
41
0
44
1.084337
50
0
71
7
72
5
7
iso_b_vert
0
LINE
5
10D
100
AcDbEntity
8
SK2
62
256
6
ByLayer
370
13
48
1
60
0
100
AcDbLine
10
17.26
20
4.3675
30
0
11
17.26
21
16.389119
31
0
39
0
210
0
220
0
230
1
0
LINE
5
10E
100
AcDbEntity
8
SK2
62
256
6
ByLayer
370
13
48
1
60
0
100
AcDbLine
10
46
20
1.5875
30
0
11
46
21
16.389119
31
0
39
0
210
0
220
0
230
1
0
LINE
5
10F
100
AcDbEntity
8
SK2
62
256
6
ByLayer
370
13
48
1
60
0
100
AcDbLine
10
17.26
20
14.389119
30
0
11
46
21
14.389119
31
0
39
0
210
0
220
0
230
1
0
SOLID
5
110
100
AcDbEntity
8
SK2
62
256
6
ByLayer
370
13
48
1
60
0
100
AcDbTrace
10
17.26
20
14.389119
30
0
11
20.759998
21
14.849903
31
0
12
20.760002
22
13.928335
32
0
13
17.26
23
14.389119
33
0
39
0
210
0
220
0
230
1
0
SOLID
5
111
100
AcDbEntity
8
SK2
62
256
6
ByLayer
370
13
48
1
60
0
100
AcDbTrace
10
46
20
14.389119
30
0
11
42.500002
21
13.928335
31
0
12
42.499998
22
14.849903
32
0
13
46
23
14.389119
33
0
39
0
210
0
220
0
230
1
0
ENDBLK
5
113
100
AcDbEntity
8
0
100
AcDbBlockEnd
0
BLOCK
5
11C
100
AcDbEntity
8
0
100
AcDbBlockBegin
2
DimnDraft3D4
70
0
10
0
20
0
30
0
3
DimnDraft3D4
0
MTEXT
5
116
100
AcDbEntity
8
SK2
62
256
6
ByLayer
370
13
48
1
60
0
100
AcDbMText
10
52.656425
20
-14.707503
30
0
210
0
220
0
230
1
1
\W0.7383;0,94
40
3.5
41
0
44
1.084337
50
0
71
7
72
5
7
iso_b_vert
0
LINE
5
117
100
AcDbEntity
8
SK2
62
256
6
ByLayer
370
13
48
1
60
0
100
AcDbLine
10
46
20
-1.5875
30
0
11
46
21
-17.582503
31
0
39
0
210
0
220
0
230
1
0
LINE
5
118
100
AcDbEntity
8
SK2
62
256
6
ByLayer
370
13
48
1
60
0
100
AcDbLine
10
45.06
20
-4.3675
30
0
11
45.06
21
-17.582503
31
0
39
0
210
0
220
0
230
1
0
LINE
5
119
100
AcDbEntity
8
SK2
62
256
6
ByLayer
370
13
48
1
60
0
100
AcDbLine
10
36.31
20
-15.582503
30
0
11
60.181425
21
-15.582503
31
0
39
0
210
0
220
0
230
1
0
SOLID
5
11A
100
AcDbEntity
8
SK2
62
256
6
ByLayer
370
13
48
1
60
0
100
AcDbTrace
10
46
20
-15.582503
30
0
11
49.499998
21
-15.121719
31
0
12
49.500002
22
-16.043287
32
0
13
46
23
-15.582503
33
0
39
0
210
0
220
0
230
1
0
SOLID
5
11B
100
AcDbEntity
8
SK2
62
256
6
ByLayer
370
13
48
1
60
0
100
AcDbTrace
10
45.06
20
-15.582503
30
0
11
41.560002
21
-16.043287
31
0
12
41.559998
22
-15.121719
32
0
13
45.06
23
-15.582503
33
0
39
0
210
0
220
0
230
1
0
ENDBLK
5
11D
100
AcDbEntity
8
0
100
AcDbBlockEnd
0
BLOCK
5
126
100
AcDbEntity
8
0
100
AcDbBlockBegin
2
DimnDraft3D5
70
0
10
0
20
0
30
0
3
DimnDraft3D5
0
MTEXT
5
120
100
AcDbEntity
8
SK2
62
256
6
ByLayer
370
13
48
1
60
0
100
AcDbMText
10
-1.690508
20
-20.468428
30
0
210
0
220
0
230
1
1
\W0.6713;81,06
40
3.5
41
0
44
1.084337
50
0
71
7
72
5
7
iso_b_vert
0
LINE
5
121
100
AcDbEntity
8
SK2
62
256
6
ByLayer
370
13
48
1
60
0
100
AcDbLine
10
-36
20
-4.5875
30
0
11
-36
21
-23.343428
31
0
39
0
210
0
220
0
230
1
0
LINE
5
122
100
AcDbEntity
8
SK2
62
256
6
ByLayer
370
13
48
1
60
0
100
AcDbLine
10
45.06
20
-4.3675
30
0
11
45.06
21
-23.343428
31
0
39
0
210
0
220
0
230
1
0
LINE
5
123
100
AcDbEntity
8
SK2
62
256
6
ByLayer
370
13
48
1
60
0
100
AcDbLine
10
-36
20
-21.343428
30
0
11
45.06
21
-21.343428
31
0
39
0
210
0
220
0
230
1
0
SOLID
5
124
100
AcDbEntity
8
SK2
62
256
6
ByLayer
370
13
48
1
60
0
100
AcDbTrace
10
-36
20
-21.343428
30
0
11
-32.500002
21
-20.882645
31
0
12
-32.499998
22
-21.804212
32
0
13
-36
23
-21.343428
33
0
39
0
210
0
220
0
230
1
0
SOLID
5
125
100
AcDbEntity
8
SK2
62
256
6
ByLayer
370
13
48
1
60
0
100
AcDbTrace
10
45.06
20
-21.343428
30
0
11
41.560002
21
-21.804212
31
0
12
41.559998
22
-20.882645
32
0
13
45.06
23
-21.343428
33
0
39
0
210
0
220
0
230
1
0
ENDBLK
5
127
100
AcDbEntity
8
0
100
AcDbBlockEnd
0
BLOCK
5
131
100
AcDbEntity
8
0
100
AcDbBlockBegin
2
DimnDraft3D6
70
0
10
0
20
0
30
0
3
DimnDraft3D6
0
MTEXT
5
12A
100
AcDbEntity
8
SK2
62
256
6
ByLayer
370
13
48
1
60
0
100
AcDbMText
10
-46.375163
20
22.34918
30
0
210
0
220
0
230
1
1
\W0.7317;6,000
40
3.5
41
0
44
1.084337
50
90
71
7
72
5
7
iso_b_vert
0
MTEXT
5
12B
100
AcDbEntity
8
SK2
62
256
6
ByLayer
370
13
48
1
60
0
100
AcDbMText
10
-46.375163
20
17.126524
30
0
210
0
220
0
230
1
1
%%c
40
3.5
41
0
44
1.084337
50
90
71
7
72
5
7
iso_b_vert
0
LINE
5
12C
100
AcDbEntity
8
SK2
62
256
6
ByLayer
370
13
48
1
60
0
100
AcDbLine
10
-37.5875
20
-3
30
0
11
-46.625163
21
-3
31
0
39
0
210
0
220
0
230
1
0
LINE
5
12D
100
AcDbEntity
8
SK2
62
256
6
ByLayer
370
13
48
1
60
0
100
AcDbLine
10
-37.5875
20
3
30
0
11
-46.625163
21
3
31
0
39
0
210
0
220
0
230
1
0
LINE
5
12E
100
AcDbEntity
8
SK2
62
256
6
ByLayer
370
13
48
1
60
0
100
AcDbLine
10
-44.625163
20
32.121549
30
0
11
-44.625163
21
-11.75
31
0
39
0
210
0
220
0
230
1
0
SOLID
5
12F
100
AcDbEntity
8
SK2
62
256
6
ByLayer
370
13
48
1
60
0
100
AcDbTrace
10
-44.625163
20
-3
30
0
11
-44.164379
21
-6.499998
31
0
12
-45.085946
22
-6.500002
32
0
13
-44.625163
23
-3
33
0
39
0
210
0
220
0
230
1
0
SOLID
5
130
100
AcDbEntity
8
SK2
62
256
6
ByLayer
370
13
48
1
60
0
100
AcDbTrace
10
-44.625163
20
3
30
0
11
-45.085946
21
6.499998
31
0
12
-44.164379
22
6.500002
32
0
13
-44.625163
23
3
33
0
39
0
210
0
220
0
230
1
0
ENDBLK
5
132
100
AcDbEntity
8
0
100
AcDbBlockEnd
0
BLOCK
5
13C
100
AcDbEntity
8
0
100
AcDbBlockBegin
2
DimnDraft3D7
70
0
10
0
20
0
30
0
3
DimnDraft3D7
0
MTEXT
5
135
100
AcDbEntity
8
2
62
256
6
ByLayer
370
13
48
1
60
0
100
AcDbMText
10
56.333343
20
20.722266
30
0
210
0
220
0
230
1
1
\W0.7317;5,560
40
3.5
41
0
44
1.084337
50
90
71
7
72
5
7
iso_b_vert
0
MTEXT
5
136
100
AcDbEntity
8
2
62
256
6
ByLayer
370
13
48
1
60
0
100
AcDbMText
10
56.333343
20
15.49961
30
0
210
0
220
0
230
1
1
%%c
40
3.5
41
0
44
1.084337
50
90
71
7
72
5
7
iso_b_vert
0
LINE
5
137
100
AcDbEntity
8
2
62
256
6
ByLayer
370
13
48
1
60
0
100
AcDbLine
10
46.6475
20
-2.78
30
0
11
60.083343
21
-2.78
31
0
39
0
210
0
220
0
230
1
0
LINE
5
138
100
AcDbEntity
8
2
62
256
6
ByLayer
370
13
48
1
60
0
100
AcDbLine
10
46.6475
20
2.78
30
0
11
60.083343
21
2.78
31
0
39
0
210
0
220
0
230
1
0
LINE
5
139
100
AcDbEntity
8
2
62
256
6
ByLayer
370
13
48
1
60
0
100
AcDbLine
10
58.083343
20
30.494635
30
0
11
58.083343
21
-11.53
31
0
39
0
210
0
220
0
230
1
0
SOLID
5
13A
100
AcDbEntity
8
2
62
256
6
ByLayer
370
13
48
1
60
0
100
AcDbTrace
10
58.083343
20
-2.78
30
0
11
58.544126
21
-6.279998
31
0
12
57.622559
22
-6.280002
32
0
13
58.083343
23
-2.78
33
0
39
0
210
0
220
0
230
1
0
SOLID
5
13B
100
AcDbEntity
8
2
62
256
6
ByLayer
370
13
48
1
60
0
100
AcDbTrace
10
58.083343
20
2.78
30
0
11
57.622559
21
6.279998
31
0
12
58.544126
22
6.280002
32
0
13
58.083343
23
2.78
33
0
39
0
210
0
220
0
230
1
0
ENDBLK
5
13D
100
AcDbEntity
8
0
100
AcDbBlockEnd
0
ENDSEC
0
SECTION
2
ENTITIES
0
ARC
5
9E
100
AcDbEntity
8
1
62
256
6
ByLayer
370
18
48
1
60
0
100
AcDbCircle
39
0
10
0
20
2.2
30
0
40
0.799999999999999
210
0
220
0
230
1
100
AcDbArc
50
57.768523
51
90
0
ARC
5
9F
100
AcDbEntity
8
1
62
256
6
ByLayer
370
18
48
1
60
0
100
AcDbCircle
39
0
10
-0.853346
20
3.55344
30
0
40
0.800000000000002
210
0
220
0
230
-1
100
AcDbArc
50
269.965623
51
302.231477
0
ARC
5
A0
100
AcDbEntity
8
1
62
256
6
ByLayer
370
18
48
1
60
0
100
AcDbCircle
39
0
10
-0.853346
20
-3.55344
30
0
40
0.800000000000002
210
0
220
0
230
-1
100
AcDbArc
50
57.768523
51
90.034377
0
ARC
5
A1
100
AcDbEntity
8
1
62
256
6
ByLayer
370
18
48
1
60
0
100
AcDbCircle
39
0
10
0
20
-2.2
30
0
40
0.799999999999999
210
0
220
0
230
1
100
AcDbArc
50
270
51
302.231477
0
ELLIPSE
5
A2
100
AcDbEntity
8
1
62
256
6
ByLayer
370
18
48
1
60
0
100
AcDbEllipse
10
4.25
20
-2.870202
30
0
11
-0.25
21
3.06151588455594E-17
31
0
210
0
220
0
230
1
40
0.999994
41
-1.57110825934294
42
-0.508511237734238
0
ELLIPSE
5
A3
100
AcDbEntity
8
1
62
256
6
ByLayer
370
18
48
1
60
0
100
AcDbEllipse
10
4.25
20
2.870202
30
0
11
-0.25
21
3.06151588455594E-17
31
0
210
0
220
0
230
1
40
0.999994
41
0.50580888960759
42
1.57890454411006
0
ELLIPSE
5
A4
100
AcDbEntity
8
1
62
256
6
ByLayer
370
13
48
1
60
0
100
AcDbEllipse
10
4.250252
20
1.591204
30
0
11
0.0419579724472707
21
0.0907718488746047
31
0
210
0
220
0
230
1
40
0.291146
41
-2.34966520234799
42
-2.12949328109035
0
ELLIPSE
5
A5
100
AcDbEntity
8
1
62
256
6
ByLayer
370
13
48
1
60
0
100
AcDbEllipse
10
45.614189
20
1.285917
30
0
11
1.68459136740509
21
-1.15988906011294
31
0
210
0
220
0
230
-1
40
0.533762
41
1.44484622742957
42
1.70725657479763
0
ELLIPSE
5
A6
100
AcDbEntity
8
1
62
256
6
ByLayer
370
18
48
1
60
0
100
AcDbEllipse
10
46.05659
20
-0.017317
30
0
11
0.135544944412086
21
-0.427068210020274
31
0
210
0
220
0
230
-1
40
0.100282
41
1.70934345349093
42
2.33653286892402
0
ELLIPSE
5
A7
100
AcDbEntity
8
1
62
256
6
ByLayer
370
13
48
1
60
0
100
AcDbEllipse
10
45.401509
20
0.371365
30
0
11
0.15308208161242
21
0.258003636193772
31
0
210
0
220
0
230
1
40
0.454519
41
0.917105603404794
42
2.31336900500021
0
ELLIPSE
5
A8
100
AcDbEntity
8
1
62
256
6
ByLayer
370
18
48
1
60
0
100
AcDbEllipse
10
46.000258
20
0.000607
30
0
11
1.03113985711905
21
2.77720742434383
31
0
210
0
220
0
230
-1
40
0.131755
41
2.84842561431353
42
2.9645584265294
0
ELLIPSE
5
A9
100
AcDbEntity
8
1
62
256
6
ByLayer
370
18
48
1
60
0
100
AcDbEllipse
10
46.05659
20
0.017317
30
0
11
0.135544944408338
21
0.427068210012134
31
0
210
0
220
0
230
-1
40
0.100282
41
-2.33653286889521
42
-1.70934345345948
0
ELLIPSE
5
AA
100
AcDbEntity
8
1
62
256
6
ByLayer
370
18
48
1
60
0
100
AcDbEllipse
10
45.440337
20
-1.409115
30
0
11
0.432996426824993
21
1.16620542898464
31
0
210
0
220
0
230
-1
40
0.131755
41
0.736518128025968
42
1.49246877138375
0
ELLIPSE
5
AB
100
AcDbEntity
8
1
62
256
6
ByLayer
370
18
48
1
60
0
100
AcDbEllipse
10
46.000258
20
-0.000607
30
0
11
1.03113985869607
21
-2.777207429037
31
0
210
0
220
0
230
-1
40
0.131755
41
-2.96455842668118
42
-2.848425614565
0
ELLIPSE
5
AC
100
AcDbEntity
8
1
62
256
6
ByLayer
370
18
48
1
60
0
100
AcDbEllipse
10
45.440337
20
1.409115
30
0
11
0.432996426819404
21
-1.16620542897281
31
0
210
0
220
0
230
-1
40
0.131755
41
-1.49246877138903
42
-0.736518128023389
0
ELLIPSE
5
AD
100
AcDbEntity
8
1
62
256
6
ByLayer
370
13
48
1
60
0
100
AcDbEllipse
10
45.804095
20
1.409115
30
0
11
1.75208937807303
21
-0.819185373852214
31
0
210
0
220
0
230
-1
40
0.474862
41
1.57855742678883
42
1.86251646337927
0
ELLIPSE
5
AE
100
AcDbEntity
8
1
62
256
6
ByLayer
370
18
48
1
60
0
100
AcDbEllipse
10
45.860749
20
0.098883
30
0
11
0.0727819104943578
21
0.301917195707035
31
0
210
0
220
0
230
-1
40
0.478434
41
1.69068721356315
42
2.45976119972392
0
POINT
5
6C
100
AcDbEntity
8
81
62
256
6
ByLayer
370
18
48
1
60
0
100
AcDbPoint
10
46
20
0
30
0
39
0
210
0
220
0
230
1
50
360
0
POINT
5
6E
100
AcDbEntity
8
80
62
256
6
ByLayer
370
18
48
1
60
0
100
AcDbPoint
10
0
20
0
30
0
39
0
210
0
220
0
230
1
50
360
0
POINT
5
70
100
AcDbEntity
8
SK2
62
256
6
ByLayer
370
18
48
1
60
1
100
AcDbPoint
10
-36
20
-3
30
0
39
0
210
0
220
0
230
1
50
360
0
POINT
5
72
100
AcDbEntity
8
SK2
62
256
6
ByLayer
370
18
48
1
60
1
100
AcDbPoint
10
-36
20
3
30
0
39
0
210
0
220
0
230
1
50
360
0
POINT
5
73
100
AcDbEntity
8
2
62
256
6
ByLayer
370
18
48
1
60
1
100
AcDbPoint
10
45.06
20
-2.78
30
0
39
0
210
0
220
0
230
1
50
360
0
POINT
5
75
100
AcDbEntity
8
2
62
256
6
ByLayer
370
18
48
1
60
1
100
AcDbPoint
10
45.06
20
2.78
30
0
39
0
210
0
220
0
230
1
50
360
0
SPLINE
5
AF
100
AcDbEntity
8
1
62
256
6
ByLayer
370
18
48
1
60
0
100
AcDbSpline
70
4
71
1
72
4
73
2
40
0
40
0
40
1
40
1
41
1
10
4.04350680658899
20
1.65154190326715
30
0
41
1
10
4.04737389627843
20
1.64436358812392
30
0
0
SPLINE
5
B0
100
AcDbEntity
8
1
62
256
6
ByLayer
370
18
48
1
60
0
100
AcDbSpline
70
4
71
3
72
21
73
17
40
0
40
0
40
0
40
0
40
0.108216611022277
40
0.205349334224935
40
0.291325047433928
40
0.365931243513732
40
0.449049148904926
40
0.528209590329132
40
0.611093861325771
40
0.690010880720118
40
0.721408811700151
40
0.750462006888651
40
0.79431025211358
40
0.855349631681555
40
0.93346190408303
40
1
40
1
40
1
40
1
41
1
10
14.6688307972197
20
-2.62559936655722
30
0
41
1
10
14.932263799743
20
-2.62378241932927
30
0
41
1
10
15.4335770650994
20
-2.62182118721307
30
0
41
1
10
16.1561200530666
20
-2.62629432256549
30
0
41
1
10
16.7858411871342
20
-2.62798234052605
30
0
41
1
10
17.3920463059035
20
-2.62681631918727
30
0
41
1
10
17.9784368097364
20
-2.62988569762879
30
0
41
1
10
18.5863326925412
20
-2.62696074589763
30
0
41
1
10
19.1835448978607
20
-2.63114107224914
30
0
41
1
10
19.6624947181054
20
-2.62913264275431
30
0
41
1
10
20.0078913427597
20
-2.62914276327689
30
0
41
1
10
20.2662137320954
20
-2.63004245232855
30
0
41
1
10
20.5983172041486
20
-2.63135823552662
30
0
41
1
10
21.0518476911492
20
-2.62954363221323
30
0
41
1
10
21.5616731577128
20
-2.63183311053589
30
0
41
1
10
21.9202259438562
20
-2.6314119363937
30
0
41
1
10
22.0851637534797
20
-2.63117391939898
30
0
0
SPLINE
5
B1
100
AcDbEntity
8
1
62
256
6
ByLayer
370
18
48
1
60
0
100
AcDbSpline
70
4
71
3
72
11
73
7
40
0
40
0
40
0
40
0
40
0.205638814378789
40
0.350309837275962
40
0.533527283324559
40
1
40
1
40
1
40
1
41
1
10
22.7252452140327
20
-0.709607933700994
30
0
41
1
10
22.7246216258783
20
-0.709606953640645
30
0
41
1
10
22.7294303655096
20
-0.712386345130028
30
0
41
1
10
22.7599877589669
20
-0.728108597935233
30
0
41
1
10
22.8354720738634
20
-0.766577338721731
30
0
41
1
10
22.9117930213627
20
-0.80824525957749
30
0
41
1
10
22.9779662512206
20
-0.845033792668005
30
0
0
SPLINE
5
B2
100
AcDbEntity
8
1
62
256
6
ByLayer
370
18
48
1
60
0
100
AcDbSpline
70
4
71
3
72
20
73
16
40
0
40
0
40
0
40
0
40
0.100511176708615
40
0.201541268921281
40
0.292662601027067
40
0.357201356653029
40
0.417443744231452
40
0.509873383884776
40
0.596052429558075
40
0.666369124203956
40
0.72988419823366
40
0.790408571644066
40
0.862324166780255
40
0.937955716796967
40
1
40
1
40
1
40
1
41
1
10
29.6358928879888
20
-2.63474276438333
30
0
41
1
10
29.8834306949381
20
-2.63350387208519
30
0
41
1
10
30.381304182967
20
-2.63212579139557
30
0
41
1
10
31.1205122173795
20
-2.63378634023295
30
0
41
1
10
31.7528621955286
20
-2.63720031026594
30
0
41
1
10
32.295775052537
20
-2.63537952276673
30
0
41
1
10
32.8394715874205
20
-2.6375350471522
30
0
41
1
10
33.4388326710506
20
-2.63610218891111
30
0
41
1
10
34.0632061339152
20
-2.63851758326399
30
0
41
1
10
34.6144995787718
20
-2.63761171002165
30
0
41
1
10
35.1035414387171
20
-2.63754102630449
30
0
41
1
10
35.588527643066
20
-2.63858066237557
30
0
41
1
10
36.0978412920694
20
-2.62908444643713
30
0
41
1
10
36.6312904738354
20
-2.63634958063869
30
0
41
1
10
36.9645966310534
20
-2.63795666976614
30
0
41
1
10
37.1134616492841
20
-2.63900885924602
30
0
0
SPLINE
5
B3
100
AcDbEntity
8
1
62
256
6
ByLayer
370
18
48
1
60
0
100
AcDbSpline
70
4
71
2
72
6
73
3
40
0
40
0
40
0
40
1
40
1
40
1
41
1
10
7.01004277583934
20
0.0092935584087002
30
0
41
1
10
7.01004074071096
20
0.0093321297956948
30
0
41
1
10
7.0100387055864
20
0.0093707120735473
30
0
0
SPLINE
5
B4
100
AcDbEntity
8
1
62
256
6
ByLayer
370
18
48
1
60
0
100
AcDbSpline
70
4
71
2
72
6
73
3
40
0
40
0
40
0
40
1
40
1
40
1
41
1
10
44.6106536482517
20
-2.64362297944245
30
0
41
1
10
44.8077911238115
20
-2.6437437858597
30
0
41
1
10
45.0007641846632
20
-2.64166720169874
30
0
0
SPLINE
5
B5
100
AcDbEntity
8
1
62
256
6
ByLayer
370
18
48
1
60
0
100
AcDbSpline
70
4
71
3
72
19
73
15
40
0
40
0
40
0
40
0
40
0.0750547165204952
40
0.181177368284968
40
0.279580059965915
40
0.357009595357808
40
0.423172986245127
40
0.500173633480922
40
0.592511488307751
40
0.70424885298425
40
0.777075336513235
40
0.855095660947486
40
0.965251424330584
40
1
40
1
40
1
40
1
41
1
10
37.1137630866073
20
2.63901095215709
30
0
41
1
10
36.9646740088758
20
2.63784648454117
30
0
41
1
10
36.6020506127108
20
2.63591207999448
30
0
41
1
10
36.01080858475
20
2.62952425969297
30
0
41
1
10
35.4447313242481
20
2.63975938328662
30
0
41
1
10
34.9437236445662
20
2.63687270781659
30
0
41
1
10
34.4858789727044
20
2.63820116647719
30
0
41
1
10
33.9973436633185
20
2.63800756294165
30
0
41
1
10
33.4142892425129
20
2.63623631084204
30
0
41
1
10
32.8394643936238
20
2.63752152662695
30
0
41
1
10
32.2957767344436
20
2.63538268385852
30
0
41
1
10
31.7528615174762
20
2.63719903588782
30
0
41
1
10
31.2985867833145
20
2.63474769633854
30
0
41
1
10
30.9986407213244
20
2.63372386614159
30
0
41
1
10
30.9265855272347
20
2.63351637927946
30
0
0
SPLINE
5
B6
100
AcDbEntity
8
1
62
256
6
ByLayer
370
18
48
1
60
0
100
AcDbSpline
70
4
71
3
72
11
73
7
40
0
40
0
40
0
40
0
40
0.194151566243344
40
0.307468602591052
40
0.477962642942544
40
1
40
1
40
1
40
1
41
1
10
37.6883475454503
20
-0.708587863711529
30
0
41
1
10
37.6881206535546
20
-0.708677938670945
30
0
41
1
10
37.6916063535105
20
-0.710702484455652
30
0
41
1
10
37.7118969594341
20
-0.721360949973871
30
0
41
1
10
37.7896662021513
20
-0.761719370782174
30
0
41
1
10
37.8671724463067
20
-0.803524569004509
30
0
41
1
10
37.9407177795506
20
-0.843555338166794
30
0
0
SPLINE
5
B7
100
AcDbEntity
8
1
62
256
6
ByLayer
370
18
48
1
60
0
100
AcDbSpline
70
4
71
3
72
20
73
16
40
0
40
0
40
0
40
0
40
0.0808568901774041
40
0.175741205189238
40
0.249886784891587
40
0.321931945639709
40
0.376575382186141
40
0.446746584227872
40
0.523202664266788
40
0.597754784184144
40
0.669276240671927
40
0.770240983801471
40
0.860866407862055
40
0.965302579090271
40
1
40
1
40
1
40
1
41
1
10
22.0853591963161
20
2.63117384210031
30
0
41
1
10
21.9203562356927
20
2.631411989974
30
0
41
1
10
21.5617364329125
20
2.63183500773138
30
0
41
1
10
21.0518547204495
20
2.62953719549159
30
0
41
1
10
20.5599780494804
20
2.63152951415776
30
0
41
1
10
20.1500905479415
20
2.62934750556204
30
0
41
1
10
19.7486278324789
20
2.6289135154899
30
0
41
1
10
19.33783920893
20
2.63084149423185
30
0
41
1
10
18.8865123002008
20
2.62838023635055
30
0
41
1
10
18.4324499732317
20
2.62789730930382
30
0
41
1
10
17.9282116595343
20
2.62959649977378
30
0
41
1
10
17.3920517497739
20
2.62682344587134
30
0
41
1
10
16.785839562375
20
2.62798021352015
30
0
41
1
10
16.3236659830544
20
2.62674338474554
30
0
41
1
10
16.0411595081838
20
2.62536256916437
30
0
41
1
10
15.9706374326465
20
2.62501958453959
30
0
0
SPLINE
5
B8
100
AcDbEntity
8
1
62
256
6
ByLayer
370
18
48
1
60
0
100
AcDbSpline
70
4
71
3
72
11
73
7
40
0
40
0
40
0
40
0
40
0.124451207936099
40
0.390125180556371
40
0.706708100653879
40
1
40
1
40
1
40
1
41
1
10
4.25102813989793
20
-2.62011900156912
30
0
41
1
10
4.37020568509061
20
-2.6207061311689
30
0
41
1
10
4.74380071713526
20
-2.6222261878055
30
0
41
1
10
5.42055268431938
20
-2.62238701691101
30
0
41
1
10
6.25906077653695
20
-2.62132032462853
30
0
41
1
10
6.84305769177553
20
-2.62217655599326
30
0
41
1
10
7.12389726320771
20
-2.62275880147709
30
0
0
SPLINE
5
B9
100
AcDbEntity
8
1
62
256
6
ByLayer
370
18
48
1
60
0
100
AcDbSpline
70
4
71
3
72
11
73
7
40
0
40
0
40
0
40
0
40
0.167720140852304
40
0.43525576591135
40
0.74094370713099
40
1
40
1
40
1
40
1
41
1
10
7.14278070734628
20
2.62278184082334
30
0
41
1
10
6.98151076466286
20
2.62260681307492
30
0
41
1
10
6.56269221794747
20
2.622213938002
30
0
41
1
10
5.84766948764471
20
2.62019222082151
30
0
41
1
10
5.04428196098431
20
2.62223053301094
30
0
41
1
10
4.50038703753296
20
2.62063989080178
30
0
41
1
10
4.25105344741004
20
2.6197171426688
30
0
0
SPLINE
5
BA
100
AcDbEntity
8
1
62
256
6
ByLayer
370
18
48
1
60
0
100
AcDbSpline
70
4
71
3
72
12
73
8
40
0
40
0
40
0
40
0
40
0.25
40
0.25
40
0.5
40
0.5
40
1
40
1
40
1
40
1
41
1
10
45.0641400357479
20
-2.71881078880085
30
0
41
1
10
45.0691356813204
20
-2.70556255823561
30
0
41
1
10
45.073754551872
20
-2.69195897568454
30
0
41
1
10
45.0807903994724
20
-2.66766659131812
30
0
41
1
10
45.0831652841447
20
-2.65704426399989
30
0
41
1
10
45.0861941043426
20
-2.63416456387659
30
0
41
1
10
45.0832987019798
20
-2.63000249810432
30
0
41
1
10
45.0782185253642
20
-2.63256487093184
30
0
0
SPLINE
5
BB
100
AcDbEntity
8
1
62
256
6
ByLayer
370
18
48
1
60
0
100
AcDbSpline
70
4
71
3
72
20
73
16
40
0
40
0
40
0
40
0
40
0.262673438402377
40
0.262673438402377
40
0.394010157603565
40
0.394010157603565
40
0.525346876804753
40
0.525346876804753
40
0.656683596005941
40
0.656683596005941
40
0.78802031520713
40
0.78802031520713
40
0.919357034408318
40
0.919357034408318
40
1
40
1
40
1
40
1
41
1
10
9.80926366891595
20
-1.75289735802173
30
0
41
1
10
10.1773736615198
20
-1.91953797751299
30
0
41
1
10
10.5448486410312
20
-2.0652080435467
30
0
41
1
10
11.0913282289792
20
-2.25849526909585
30
0
41
1
10
11.273176038037
20
-2.31803159063094
30
0
41
1
10
11.6380348196281
20
-2.42581232781885
30
0
41
1
10
11.8207035813286
20
-2.47442892313262
30
0
41
1
10
12.1860171603797
20
-2.56134633618785
30
0
41
1
10
12.36839981932
20
-2.59972636703179
30
0
41
1
10
12.735925173397
20
-2.66407437485361
30
0
41
1
10
12.9210419692209
20
-2.69040410029751
30
0
41
1
10
13.2897481232136
20
-2.73100908796394
30
0
41
1
10
13.4731689144266
20
-2.74537823699663
30
0
41
1
10
13.7698100178075
20
-2.75840641950205
30
0
41
1
10
13.8828710372592
20
-2.76102180671148
30
0
41
1
10
13.9960539415361
20
-2.76131656189071
30
0
0
SPLINE
5
BC
100
AcDbEntity
8
1
62
256
6
ByLayer
370
18
48
1
60
0
100
AcDbSpline
70
4
71
3
72
72
73
68
40
0
40
0
40
0
40
0
40
0.0226471667563944
40
0.0226471667563944
40
0.0523683944890654
40
0.0523683944890654
40
0.0820896222217355
40
0.0820896222217355
40
0.111810849954406
40
0.111810849954406
40
0.141532077687076
40
0.141532077687076
40
0.171253305419746
40
0.171253305419746
40
0.200974533152416
40
0.200974533152416
40
0.230695760885086
40
0.230695760885086
40
0.260416988617756
40
0.260416988617756
40
0.290138216350426
40
0.290138216350426
40
0.319859444083097
40
0.319859444083097
40
0.349580671815767
40
0.349580671815767
40
0.379301899548437
40
0.379301899548437
40
0.409023127281107
40
0.409023127281107
40
0.438744355013777
40
0.438744355013777
40
0.468465582746447
40
0.468465582746447
40
0.498186810479117
40
0.498186810479117
40
0.527908038211787
40
0.527908038211787
40
0.557629265944458
40
0.557629265944458
40
0.587350493677128
40
0.587350493677128
40
0.617071721409798
40
0.617071721409798
40
0.646792949142468
40
0.646792949142468
40
0.676514176875138
40
0.676514176875138
40
0.706235404607808
40
0.706235404607808
40
0.735956632340478
40
0.735956632340478
40
0.765677860073148
40
0.765677860073148
40
0.795399087805818
40
0.795399087805818
40
0.825120315538489
40
0.825120315538489
40
0.854841543271159
40
0.854841543271159
40
0.884562771003829
40
0.884562771003829
40
0.944005226469169
40
0.944005226469169
40
0.973726454201839
40
0.973726454201839
40
1
40
1
40
1
40
1
41
1
10
25.3864655415975
20
2.0159585289104
30
0
41
1
10
25.5266915982041
20
2.07170299585371
30
0
41
1
10
25.6666811310693
20
2.12498504303954
30
0
41
1
10
25.9899762164003
20
2.24221167634053
30
0
41
1
10
26.1740069052134
20
2.30338251741821
30
0
41
1
10
26.5431288267754
20
2.41524158790361
30
0
41
1
10
26.727589126929
20
2.46584514303535
30
0
41
1
10
27.0948131109149
20
2.55650350916306
30
0
41
1
10
27.2782076227432
20
2.59615960328335
30
0
41
1
10
27.6463893338436
20
2.66320937284459
30
0
41
1
10
27.831048923056
20
2.69089254059432
30
0
41
1
10
28.1994669131707
20
2.73439362322154
30
0
41
1
10
28.3826771473324
20
2.75014306117461
30
0
41
1
10
28.7504508339263
20
2.76894889579444
30
0
41
1
10
28.9345838337845
20
2.77219810686205
30
0
41
1
10
29.3028288299003
20
2.76639790093404
30
0
41
1
10
29.4867761913183
20
2.75718494070949
30
0
41
1
10
29.854583470871
20
2.72651070129405
30
0
41
1
10
30.0387156409826
20
2.70520544057081
30
0
41
1
10
30.4067097386944
20
2.65065619991364
30
0
41
1
10
30.5903932631987
20
2.61728247733106
30
0
41
1
10
30.9579928155765
20
2.53839816319302
30
0
41
1
10
31.1425806573168
20
2.49343996127578
30
0
41
1
10
31.5108573562232
20
2.39300228249598
30
0
41
1
10
31.6947864379643
20
2.3374379932641
30
0
41
1
10
32.0617365167459
20
2.21489734731861
30
0
41
1
10
32.2454773939319
20
2.14857880495947
30
0
41
1
10
32.6145689547798
20
2.0072300331484
30
0
41
1
10
32.7988313955156
20
1.93226546144143
30
0
41
1
10
33.166220490529
20
1.77300632621638
30
0
41
1
10
33.3493120639022
20
1.68859027985545
30
0
41
1
10
33.7173138077484
20
1.51434256749795
30
0
41
1
10
33.9020418791059
20
1.42379795518002
30
0
41
1
10
34.2704148468369
20
1.23606761314215
30
0
41
1
10
34.4535415715359
20
1.13826344824338
30
0
41
1
10
34.8209216811097
20
0.939850219329514
30
0
41
1
10
35.0050124538698
20
0.839028165286891
30
0
41
1
10
35.3733743186376
20
0.633168999723836
30
0
41
1
10
35.5575385677326
20
0.52755285867417
30
0
41
1
10
35.9247971755523
20
0.314858704397068
30
0
41
1
10
36.1087802427296
20
0.208744940834464
30
0
41
1
10
36.4767186031157
20
-0.0042563486753124
30
0
41
1
10
36.6606338104281
20
-0.111214018661684
30
0
41
1
10
37.0282091063211
20
-0.32632476192731
30
0
41
1
10
37.2123659443739
20
-0.432836825468826
30
0
41
1
10
37.5804221526853
20
-0.642160569441472
30
0
41
1
10
37.7643846115073
20
-0.745382497918996
30
0
41
1
10
38.1315575592797
20
-0.949920242201955
30
0
41
1
10
38.3151293743299
20
-1.05092290720736
30
0
41
1
10
38.6838423907486
20
-1.24590542867995
30
0
41
1
10
38.8680190468631
20
-1.34031654939642
30
0
41
1
10
39.2355036244793
20
-1.52376484347459
30
0
41
1
10
39.4184553739626
20
-1.61325746118811
30
0
41
1
10
39.7862086225198
20
-1.78287547277563
30
0
41
1
10
39.9709489499233
20
-1.86364913752183
30
0
41
1
10
40.3392444588439
20
-2.01683856961517
30
0
41
1
10
40.5225071337742
20
-2.08967022155167
30
0
41
1
10
40.889401485916
20
-2.22518355505804
30
0
41
1
10
41.0734400645749
20
-2.28750019519211
30
0
41
1
10
41.4418714834626
20
-2.40224961856987
30
0
41
1
10
41.6262151539813
20
-2.45472536946383
30
0
41
1
10
42.1765680235489
20
-2.5956507733153
30
0
41
1
10
42.5448273098554
20
-2.66561614740416
30
0
41
1
10
43.0965308333605
20
-2.7360843090176
30
0
41
1
10
43.2801637170713
20
-2.75339988889038
30
0
41
1
10
43.6266263576481
20
-2.77418846264283
30
0
41
1
10
43.7892194022978
20
-2.77915538692469
30
0
41
1
10
43.9516586234832
20
-2.77930007145545
30
0
0
SPLINE
5
BD
100
AcDbEntity
8
1
62
256
6
ByLayer
370
18
48
1
60
0
100
AcDbSpline
70
4
71
3
72
20
73
16
40
0
40
0
40
0
40
0
40
0.0860581461736292
40
0.0860581461736292
40
0.216621268148823
40
0.216621268148823
40
0.477747512099216
40
0.477747512099216
40
0.608310634074412
40
0.608310634074412
40
0.738873756049608
40
0.738873756049608
40
0.869436878024804
40
0.869436878024804
40
1
40
1
40
1
40
1
41
1
10
44.9979973610008
20
-2.64170539708923
30
0
41
1
10
44.9728256437442
20
-2.63902770753819
30
0
41
1
10
44.9485217306109
20
-2.63374463350115
30
0
41
1
10
44.8896019957418
20
-2.61367062966161
30
0
41
1
10
44.855950061501
20
-2.59520148165473
30
0
41
1
10
44.7633134076137
20
-2.52072808064955
30
0
41
1
10
44.7130627629647
20
-2.44686982965177
30
0
41
1
10
44.6559282334458
20
-2.29770512113055
30
0
41
1
10
44.6398726413577
20
-2.24094191525538
30
0
41
1
10
44.6151409960537
20
-2.11689224680884
30
0
41
1
10
44.6063566718959
20
-2.04961538156144
30
0
41
1
10
44.5958829205114
20
-1.90465745325494
30
0
41
1
10
44.5941927196329
20
-1.82697752470531
30
0
41
1
10
44.5981729529642
20
-1.66082378233577
30
0
41
1
10
44.6038823627188
20
-1.57285897767738
30
0
41
1
10
44.6131134824167
20
-1.48196480001386
30
0
0
SPLINE
5
BE
100
AcDbEntity
8
1
62
256
6
ByLayer
370
18
48
1
60
0
100
AcDbSpline
70
4
71
3
72
22
73
18
40
0
40
0
40
0
40
0
40
0.125
40
0.125
40
0.1875
40
0.1875
40
0.25
40
0.25
40
0.375
40
0.375
40
0.5
40
0.5
40
0.75
40
0.75
40
0.875
40
0.875
40
1
40
1
40
1
40
1
41
1
10
42.7432519916801
20
0.968988237526844
30
0
41
1
10
42.7725227600089
20
0.847239233096332
30
0
41
1
10
42.8124988197729
20
0.725568322359351
30
0
41
1
10
42.8864524800027
20
0.543164008331075
30
0
41
1
10
42.913588833262
20
0.482100868603908
30
0
41
1
10
42.9716648329468
20
0.361430189762132
30
0
41
1
10
43.0024860551492
20
0.302012552866557
30
0
41
1
10
43.099734551173
20
0.126222066463555
30
0
41
1
10
43.1709145156346
20
0.0122951016096806
30
0
41
1
10
43.3239874205265
20
-0.210045592439315
30
0
41
1
10
43.4053338036547
20
-0.31755523688318
30
0
41
1
10
43.6573037740105
20
-0.626011619510734
30
0
41
1
10
43.8373553532415
20
-0.815535217167053
30
0
41
1
10
44.1212595032035
20
-1.0813636865052
30
0
41
1
10
44.2181037377511
20
-1.16666458385947
30
0
41
1
10
44.4137473443286
20
-1.32955593726609
30
0
41
1
10
44.5128364622179
20
-1.40743290986973
30
0
41
1
10
44.6131134824166
20
-1.48196480001386
30
0
0
SPLINE
5
BF
100
AcDbEntity
8
1
62
256
6
ByLayer
370
13
48
1
60
0
100
AcDbSpline
70
4
71
3
72
10
73
6
40
0
40
0
40
0
40
0
40
0.5
40
0.5
40
1
40
1
40
1
40
1
41
1
10
4.12535258317476
20
1.58541753990954
30
0
41
1
10
4.10355141398492
20
1.59856841678805
30
0
41
1
10
4.08463094472529
20
1.61448030170825
30
0
41
1
10
4.05175664819137
20
1.65112456635583
30
0
41
1
10
4.03814751215987
20
1.67164374454379
30
0
41
1
10
4.02763171870578
20
1.69326046482308
30
0
0
SPLINE
5
C0
100
AcDbEntity
8
1
62
256
6
ByLayer
370
18
48
1
60
0
100
AcDbSpline
70
4
71
3
72
18
73
14
40
0
40
0
40
0
40
0
40
0.25
40
0.25
40
0.499999999999999
40
0.499999999999999
40
0.624999999999999
40
0.624999999999999
40
0.75
40
0.75
40
0.875
40
0.875
40
1
40
1
40
1
40
1
41
1
10
44.7716728097819
20
0.552893823207114
30
0
41
1
10
44.7662039022281
20
0.581627369887826
30
0
41
1
10
44.7644024282422
20
0.611053476949962
30
0
41
1
10
44.7690560351608
20
0.671636021272434
30
0
41
1
10
44.775487311421
20
0.702149815185038
30
0
41
1
10
44.7935734265152
20
0.745969234317045
30
0
41
1
10
44.8008826798962
20
0.760376747513789
30
0
41
1
10
44.819204104866
20
0.786437333310573
30
0
41
1
10
44.8302732968755
20
0.798128622528708
30
0
41
1
10
44.854890104977
20
0.817915331671685
30
0
41
1
10
44.8687146746712
20
0.826226456277823
30
0
41
1
10
44.8973227747842
20
0.839312925861805
30
0
41
1
10
44.9122340644759
20
0.844232050526983
30
0
41
1
10
44.9276293019341
20
0.847863313239458
30
0
0
SPLINE
5
C1
100
AcDbEntity
8
1
62
256
6
ByLayer
370
18
48
1
60
0
100
AcDbSpline
70
2053
71
3
72
46
73
42
40
0
40
0
40
0
40
0
40
0.0312500000000018
40
0.0312500000000018
40
0.0625000000000036
40
0.0625000000000036
40
0.0937500000000054
40
0.0937500000000054
40
0.125000000000007
40
0.125000000000007
40
0.156250000000009
40
0.156250000000009
40
0.187500000000011
40
0.187500000000011
40
0.250000000000015
40
0.250000000000015
40
0.281250000000017
40
0.281250000000017
40
0.312500000000019
40
0.312500000000019
40
0.375000000000017
40
0.375000000000017
40
0.437500000000016
40
0.437500000000016
40
0.500000000000014
40
0.500000000000014
40
0.562500000000012
40
0.562500000000012
40
0.625000000000011
40
0.625000000000011
40
0.687500000000009
40
0.687500000000009
40
0.750000000000007
40
0.750000000000007
40
0.812500000000005
40
0.812500000000005
40
0.875000000000004
40
0.875000000000004
40
0.937500000000002
40
0.937500000000002
40
1
40
1
40
1
40
1
41
1
10
45.3575935168666
20
-1.33482592529359
30
0
41
1
10
45.3693661367192
20
-1.31773756875359
30
0
41
1
10
45.3808784962812
20
-1.29946783682541
30
0
41
1
10
45.4033424357667
20
-1.26038280323908
30
0
41
1
10
45.4144127452618
20
-1.2393172686937
30
0
41
1
10
45.4352391880999
20
-1.19545954439113
30
0
41
1
10
45.4449569484705
20
-1.17280626460192
30
0
41
1
10
45.4628054334906
20
-1.12584659063194
30
0
41
1
10
45.4707669473684
20
-1.10190059782349
30
0
41
1
10
45.4839895589133
20
-1.05501267309467
30
0
41
1
10
45.4894165477748
20
-1.03140092489034
30
0
41
1
10
45.4970450537596
20
-0.987061333069448
30
0
41
1
10
45.4993212804421
20
-0.966164819361353
30
0
41
1
10
45.501530593594
20
-0.908190208274249
30
0
41
1
10
45.4967098908233
20
-0.877699348387438
30
0
41
1
10
45.4828065139363
20
-0.845301564668773
30
0
41
1
10
45.4770024045688
20
-0.836580569282432
30
0
41
1
10
45.4637640065163
20
-0.823459590982054
30
0
41
1
10
45.4563122126135
20
-0.81896664026857
30
0
41
1
10
45.4316783634053
20
-0.811145784911162
30
0
41
1
10
45.412800134363
20
-0.813547020839252
30
0
41
1
10
45.3713010877336
20
-0.83182193670217
30
0
41
1
10
45.3493346414424
20
-0.847389642171152
30
0
41
1
10
45.3033496873309
20
-0.89113666311485
30
0
41
1
10
45.2797504737496
20
-0.919021319333325
30
0
41
1
10
45.2332684988779
20
-0.985927647411984
30
0
41
1
10
45.2100258050365
20
-1.02560607717493
30
0
41
1
10
45.1681864076949
20
-1.11331016375567
30
0
41
1
10
45.1495081535288
20
-1.161830596318
30
0
41
1
10
45.1229152090706
20
-1.25632902587884
30
0
41
1
10
45.1150617391505
20
-1.30227015577844
30
0
41
1
10
45.1120831623208
20
-1.37927121374722
30
0
41
1
10
45.1168323556736
20
-1.41030263174432
30
0
41
1
10
45.1352314045507
20
-1.45396371642468
30
0
41
1
10
45.148879653021
20
-1.46715056394888
30
0
41
1
10
45.181460960392
20
-1.47787071956739
30
0
41
1
10
45.2005995180871
20
-1.47552342389946
30
0
41
1
10
45.2418434634903
20
-1.45734858520478
30
0
41
1
10
45.264269195085
20
-1.44136222527663
30
0
41
1
10
45.3100559554634
20
-1.39749322305113
30
0
41
1
10
45.3340482771614
20
-1.36900263837359
30
0
41
1
10
45.3575935168666
20
-1.33482592529359
30
0
0
SPLINE
5
C2
100
AcDbEntity
8
1
62
256
6
ByLayer
370
18
48
1
60
0
100
AcDbSpline
70
4
71
3
72
8
73
4
40
0
40
0
40
0
40
0
40
1
40
1
40
1
40
1
41
1
10
45.0496759556188
20
-2.75711946310417
30
0
41
1
10
45.0545015004933
20
-2.74435528748285
30
0
41
1
10
45.0593229036431
20
-2.7315856096084
30
0
41
1
10
45.064140035765
20
-2.71881078879954
30
0
0
SPLINE
5
C3
100
AcDbEntity
8
1
62
256
6
ByLayer
370
18
48
1
60
0
100
AcDbSpline
70
4
71
3
72
44
73
40
40
0
40
0
40
0
40
0
40
0.0820479812531747
40
0.0820479812531747
40
0.123071971879763
40
0.123071971879763
40
0.164095962506351
40
0.164095962506351
40
0.246143943759528
40
0.246143943759528
40
0.287167934386116
40
0.287167934386116
40
0.328191925012705
40
0.328191925012705
40
0.410239906265883
40
0.410239906265883
40
0.492287887519062
40
0.492287887519062
40
0.53331187814565
40
0.53331187814565
40
0.574335868772239
40
0.574335868772239
40
0.656383850025417
40
0.656383850025417
40
0.697407840652007
40
0.697407840652007
40
0.738431831278598
40
0.738431831278598
40
0.820479812531778
40
0.820479812531778
40
0.902527793784959
40
0.902527793784959
40
0.923039789098254
40
0.923039789098254
40
0.943551784411549
40
0.943551784411549
40
0.984575775038139
40
0.984575775038139
40
1
40
1
40
1
40
1
41
1
10
45.0496759556181
20
-2.75711946311736
30
0
41
1
10
44.6216485627331
20
-2.78893665996463
30
0
41
1
10
44.1950138220694
20
-2.78694417921346
30
0
41
1
10
43.5524156038104
20
-2.73381934856963
30
0
41
1
10
43.3371578683001
20
-2.70759990662944
30
0
41
1
10
42.9092804802256
20
-2.6392557190463
30
0
41
1
10
42.6963200173651
20
-2.59716680836013
30
0
41
1
10
42.0589695613867
20
-2.44847351183321
30
0
41
1
10
41.6361107789278
20
-2.31943061033508
30
0
41
1
10
40.9991327162409
20
-2.08632318331084
30
0
41
1
10
40.7863748963071
20
-2.00201331479167
30
0
41
1
10
40.3590166408356
20
-1.82108125982566
30
0
41
1
10
40.1436460728829
20
-1.72408712526317
30
0
41
1
10
39.5015963905638
20
-1.42022141623636
30
0
41
1
10
39.077426281716
20
-1.20024446159539
30
0
41
1
10
38.2301052180864
20
-0.736541936983201
30
0
41
1
10
37.8065088555948
20
-0.493518331612791
30
0
41
1
10
37.1654120550606
20
-0.121903123255549
30
0
41
1
10
36.9499675752153
20
0.0036258082313907
30
0
41
1
10
36.5216412476559
20
0.252692991796977
30
0
41
1
10
36.3085342871017
20
0.37627294112886
30
0
41
1
10
35.6711047842129
20
0.7420209046156
30
0
41
1
10
35.2478932771675
20
0.977872134191216
30
0
41
1
10
34.6112025553631
20
1.31229748832411
30
0
41
1
10
34.3985136822
20
1.42030450054759
30
0
41
1
10
33.9712478317167
20
1.62780617011265
30
0
41
1
10
33.7558997690418
20
1.72772047182815
30
0
41
1
10
33.1133306263216
20
2.00987872223413
30
0
41
1
10
32.6887233136367
20
2.17341849122985
30
0
41
1
10
31.8410190717507
20
2.44618075468193
30
0
41
1
10
31.4171203512533
20
2.55462202485933
30
0
41
1
10
30.8834427340203
20
2.65163506653977
30
0
41
1
10
30.7764788921431
20
2.66908180200247
30
0
41
1
10
30.5619611708944
20
2.69995383715832
30
0
41
1
10
30.4542996607021
20
2.71338594132467
30
0
41
1
10
30.132656895181
20
2.74729449385632
30
0
41
1
10
29.9192968136398
20
2.76151132456371
30
0
41
1
10
29.6265731904842
20
2.76966414605008
30
0
41
1
10
29.5466675467443
20
2.77071986118321
30
0
41
1
10
29.4668181488393
20
2.77060826507506
30
0
0
SPLINE
5
C4
100
AcDbEntity
8
1
62
256
6
ByLayer
370
18
48
1
60
0
100
AcDbSpline
70
4
71
3
72
28
73
24
40
0
40
0
40
0
40
0
40
0.13891262008513
40
0.13891262008513
40
0.354184465063848
40
0.354184465063848
40
0.408002426308528
40
0.408002426308528
40
0.461820387553208
40
0.461820387553208
40
0.569456310042566
40
0.569456310042566
40
0.677092232531925
40
0.677092232531925
40
0.730910193776604
40
0.730910193776604
40
0.784728155021283
40
0.784728155021283
40
0.892364077510642
40
0.892364077510642
40
0.946182038755321
40
0.946182038755321
40
1
40
1
40
1
40
1
41
1
10
16.0164059079105
20
-2.62523613166115
30
0
41
1
10
15.4687289573552
20
-2.72379725056726
30
0
41
1
10
14.921165868707
20
-2.77028823772727
30
0
41
1
10
13.5048507637883
20
-2.74483864409729
30
0
41
1
10
12.6633908122765
20
-2.59453081594509
30
0
41
1
10
11.5969810069284
20
-2.26256222544791
30
0
41
1
10
11.3830551848916
20
-2.18888923949814
30
0
41
1
10
10.952739182436
20
-2.02780335134764
30
0
41
1
10
10.7384066925504
20
-1.94117608945291
30
0
41
1
10
10.0981742426049
20
-1.66581027906295
30
0
41
1
10
9.67443354872373
20
-1.46112688477373
30
0
41
1
10
8.82503479553858
20
-1.02183239990993
30
0
41
1
10
8.3996992052756
20
-0.786713077115309
30
0
41
1
10
7.75454021875194
20
-0.42034362408242
30
0
41
1
10
7.53984469244057
20
-0.296807274750648
30
0
41
1
10
7.1127673449669
20
-0.0501679719085928
30
0
41
1
10
6.89997570743927
20
0.0731740515838908
30
0
41
1
10
6.26251905359794
20
0.440969656150486
30
0
41
1
10
5.83894395388805
20
0.68348308482723
30
0
41
1
10
5.19939069237785
20
1.03229679220587
30
0
41
1
10
4.98552564161739
20
1.14610826773335
30
0
41
1
10
4.55549902699445
20
1.36718784579716
30
0
41
1
10
4.33997858286946
20
1.4741062738469
30
0
41
1
10
4.12475402657364
20
1.57622056796256
30
0
0
SPLINE
5
C5
100
AcDbEntity
8
1
62
256
6
ByLayer
370
18
48
1
60
0
100
AcDbSpline
70
4
71
3
72
10
73
6
40
0
40
0
40
0
40
0
40
0.5
40
0.5
40
1
40
1
40
1
40
1
41
1
10
4.08436964145633
20
1.59999002976562
30
0
41
1
10
4.0675994267593
20
1.61206109647043
30
0
41
1
10
4.0535222690736
20
1.62643812387228
30
0
41
1
10
4.03361054686957
20
1.65810296822093
30
0
41
1
10
4.02762707667623
20
1.67552891822993
30
0
41
1
10
4.027631718706
20
1.69326046482055
30
0
0
SPLINE
5
C6
100
AcDbEntity
8
1
62
256
6
ByLayer
370
13
48
1
60
0
100
AcDbSpline
70
4
71
3
72
20
73
16
40
0
40
0
40
0
40
0
40
0.210953228302763
40
0.210953228302763
40
0.316429842454144
40
0.316429842454144
40
0.421906456605525
40
0.421906456605525
40
0.632859684908287
40
0.632859684908287
40
0.738336299059668
40
0.738336299059668
40
0.843812913211049
40
0.843812913211049
40
1
40
1
40
1
40
1
41
1
10
4.2504205367533
20
1.53272946418673
30
0
41
1
10
4.25048751580587
20
1.67414599893183
30
0
41
1
10
4.25054522826525
20
1.80376211956099
30
0
41
1
10
4.25062336042902
20
1.98073092225803
30
0
41
1
10
4.2506480474772
20
2.03692015041537
30
0
41
1
10
4.25069456832998
20
2.14134825896224
30
0
41
1
10
4.25071651993315
20
2.18985592611466
30
0
41
1
10
4.25077978374156
20
2.32447587069322
30
0
41
1
10
4.25081865780783
20
2.39996793314325
30
0
41
1
10
4.25087579306864
20
2.48993488341682
30
0
41
1
10
4.25089445270913
20
2.51575269459713
30
0
41
1
10
4.25093157549011
20
2.55909812298216
30
0
41
1
10
4.25095010481908
20
2.57665131271548
30
0
41
1
10
4.2509956560319
20
2.60928332675786
30
0
41
1
10
4.25102263317692
20
2.61937549323451
30
0
41
1
10
4.25104965645124
20
2.62018312290809
30
0
0
SPLINE
5
C7
100
AcDbEntity
8
1
62
256
6
ByLayer
370
18
48
1
60
0
100
AcDbSpline
70
4
71
3
72
20
73
16
40
0
40
0
40
0
40
0
40
0.250000000000032
40
0.250000000000032
40
0.500000000000064
40
0.500000000000064
40
0.625000000000061
40
0.625000000000061
40
0.750000000000058
40
0.750000000000058
40
0.812500000000044
40
0.812500000000044
40
0.875000000000029
40
0.875000000000029
40
1
40
1
40
1
40
1
41
1
10
44.9276293019341
20
0.847863313239458
30
0
41
1
10
45.0052492869668
20
0.866171478875629
30
0
41
1
10
45.0824496092685
20
0.887029781237914
30
0
41
1
10
45.233067396876
20
0.937035798219426
30
0
41
1
10
45.3066115358292
20
0.965912119909348
30
0
41
1
10
45.4113456014587
20
1.02195850897087
30
0
41
1
10
45.4455094432396
20
1.04299062420551
30
0
41
1
10
45.5086894005541
20
1.09103571636234
30
0
41
1
10
45.5382310370578
20
1.1185306940761
30
0
41
1
10
45.5746706317866
20
1.165209371879
30
0
41
1
10
45.5855388377257
20
1.18168337167378
30
0
41
1
10
45.6041632639522
20
1.21688224500105
30
0
41
1
10
45.6119010369274
20
1.23574178684746
30
0
41
1
10
45.6287057600381
20
1.29332891773325
30
0
41
1
10
45.6316085653887
20
1.33456985014328
30
0
41
1
10
45.6274005658045
20
1.37473666000506
30
0
0
SPLINE
5
C8
100
AcDbEntity
8
1
62
256
6
ByLayer
370
18
48
1
60
0
100
AcDbSpline
70
4
71
3
72
14
73
10
40
0
40
0
40
0
40
0
40
0.0617723637970721
40
0.0617723637970721
40
0.27996513606672
40
0.27996513606672
40
0.716350680606016
40
0.716350680606016
40
1
40
1
40
1
40
1
41
1
10
44.6177539243285
20
-2.64359195490872
30
0
41
1
10
44.5571701146176
20
-2.64341145138428
30
0
41
1
10
44.4966269723379
20
-2.64258788789377
30
0
41
1
10
44.2225707361475
20
-2.63594873530926
30
0
41
1
10
44.0100350708589
20
-2.62282596276663
30
0
41
1
10
43.3744052818226
20
-2.56048660295582
30
0
41
1
10
42.9532556294155
20
-2.48832055924095
30
0
41
1
10
42.256672531743
20
-2.32244494109423
30
0
41
1
10
41.9818763707504
20
-2.24509802279638
30
0
41
1
10
41.705705206276
20
-2.15647128679723
30
0
0
SPLINE
5
C9
100
AcDbEntity
8
1
62
256
6
ByLayer
370
13
48
1
60
0
100
AcDbSpline
70
4
71
3
72
28
73
24
40
0
40
0
40
0
40
0
40
0.0566164090921614
40
0.0566164090921614
40
0.0970563611872678
40
0.0970563611872678
40
0.137496313282374
40
0.137496313282374
40
0.218376217472587
40
0.218376217472587
40
0.380136025853016
40
0.380136025853016
40
0.461015930043231
40
0.461015930043231
40
0.541895834233446
40
0.541895834233446
40
0.703655642613871
40
0.703655642613871
40
0.865415450994297
40
0.865415450994297
40
0.946295355184509
40
0.946295355184509
40
1
40
1
40
1
40
1
41
1
10
41.7057052062632
20
-2.15647128679308
30
0
41
1
10
41.5569957320268
20
-2.1087485806994
30
0
41
1
10
41.407887577825
20
-2.0577553102828
30
0
41
1
10
41.1513261789662
20
-1.96492525165809
30
0
41
1
10
41.0440546060495
20
-1.92459040051679
30
0
41
1
10
40.8304374748076
20
-1.84142066155667
30
0
41
1
10
40.7239020417258
20
-1.79852147958749
30
0
41
1
10
40.4049358548642
20
-1.66617103996492
30
0
41
1
10
40.1931383389491
20
-1.57307474289294
30
0
41
1
10
39.5589487081557
20
-1.2813727370914
30
0
41
1
10
39.1376625362634
20
-1.07047314708325
30
0
41
1
10
38.5034448965837
20
-0.737019522897327
30
0
41
1
10
38.2916009347177
20
-0.623121929151068
30
0
41
1
10
37.8660198367042
20
-0.391525908432044
30
0
41
1
10
37.6515341745912
20
-0.273370868302322
30
0
41
1
10
37.010279766391
20
0.0810297186610001
30
0
41
1
10
36.5866405749467
20
0.316580043176799
30
0
41
1
10
35.7409558439164
20
0.775433419610124
30
0
41
1
10
35.318241537454
20
0.997460955323277
30
0
41
1
10
34.6800971210439
20
1.31189316438508
30
0
41
1
10
34.4660435162733
20
1.41371865601286
30
0
41
1
10
34.109931794225
20
1.57513344612821
30
0
41
1
10
33.9682707267873
20
1.63722333080105
30
0
41
1
10
33.8269768490256
20
1.69700029548815
30
0
0
SPLINE
5
CA
100
AcDbEntity
8
1
62
256
6
ByLayer
370
18
48
1
60
0
100
AcDbSpline
70
4
71
3
72
16
73
12
40
0
40
0
40
0
40
0
40
0.0772985347818559
40
0.0772985347818559
40
0.500846545759385
40
0.500846545759385
40
0.712620551248154
40
0.712620551248154
40
0.924394556736921
40
0.924394556736921
40
1
40
1
40
1
40
1
41
1
10
14.706871970344
20
-2.6256325376232
30
0
41
1
10
14.6295808439007
20
-2.62555755846287
30
0
41
1
10
14.5523095791917
20
-2.62444315294653
30
0
41
1
10
14.0516244472271
20
-2.61048785915895
30
0
41
1
10
13.6283264127564
20
-2.56768324220997
30
0
41
1
10
12.9880375174279
20
-2.45741102606991
30
0
41
1
10
12.7730512157145
20
-2.41278644593001
30
0
41
1
10
12.345666725634
20
-2.30983412870816
30
0
41
1
10
12.1328991449773
20
-2.25145502542864
30
0
41
1
10
11.8448190340018
20
-2.16360068647381
30
0
41
1
10
11.7690942005317
20
-2.13967691364425
30
0
41
1
10
11.6934136588026
20
-2.11496733009227
30
0
0
SPLINE
5
CB
100
AcDbEntity
8
1
62
256
6
ByLayer
370
13
48
1
60
0
100
AcDbSpline
70
4
71
3
72
24
73
20
40
0
40
0
40
0
40
0
40
0.141114093365015
40
0.141114093365015
40
0.227002684028515
40
0.227002684028515
40
0.312891274692015
40
0.312891274692015
40
0.484668456019014
40
0.484668456019014
40
0.570557046682512
40
0.570557046682512
40
0.65644563734601
40
0.65644563734601
40
0.828222818673006
40
0.828222818673006
40
0.914111409336503
40
0.914111409336503
40
1
40
1
40
1
40
1
41
1
10
11.6934136591519
20
-2.1149673302063
30
0
41
1
10
11.3451254819041
20
-2.00125176186617
30
0
41
1
10
10.9977753671058
20
-1.87089337218387
30
0
41
1
10
10.4372827332344
20
-1.63829877234468
30
0
41
1
10
10.2248547344688
20
-1.54498955916745
30
0
41
1
10
9.79839617895914
20
-1.34896947403431
30
0
41
1
10
9.58377516369245
20
-1.24597228108115
30
0
41
1
10
8.94079652038923
20
-0.927064119468525
30
0
41
1
10
8.51395535694846
20
-0.701373490889551
30
0
41
1
10
7.87078546704012
20
-0.352900550649224
30
0
41
1
10
7.65640124291056
20
-0.235375261313124
30
0
41
1
10
7.23009503338778
20
-0.001066014413027
30
0
41
1
10
7.01769167378319
20
0.115991284982726
30
0
41
1
10
6.38142763801753
20
0.464474175757573
30
0
41
1
10
5.95871273985142
20
0.693597259968612
30
0
41
1
10
5.32120113748451
20
1.02230410132552
30
0
41
1
10
5.10812528778683
20
1.12937354890266
30
0
41
1
10
4.67994345648668
20
1.33688686120442
30
0
41
1
10
4.46495970495161
20
1.43723425766214
30
0
41
1
10
4.25042053675321
20
1.53272946418679
30
0
0
SPLINE
5
CC
100
AcDbEntity
8
1
62
256
6
ByLayer
370
13
48
1
60
0
100
AcDbSpline
70
4
71
3
72
16
73
12
40
0
40
0
40
0
40
0
40
0.0756283778192732
40
0.0756283778192732
40
0.383752251879515
40
0.383752251879515
40
0.691876125939757
40
0.691876125939757
40
0.845938062969879
40
0.845938062969879
40
1
40
1
40
1
40
1
41
1
10
4.25105120749495
20
-2.62021928236609
30
0
41
1
10
4.25106016667664
20
-2.62036926267535
30
0
41
1
10
4.25106913147147
20
-2.61949907777344
30
0
41
1
10
4.25111469675639
20
-2.60992583120884
30
0
41
1
10
4.25115181129522
20
-2.58471686664905
30
0
41
1
10
4.25122181445545
20
-2.50203026991079
30
0
41
1
10
4.25125507473118
20
-2.44472996031948
30
0
41
1
10
4.25129928195096
20
-2.33456226203131
30
0
41
1
10
4.25131311478359
20
-2.29349520114906
30
0
41
1
10
4.25133757952483
20
-2.20452339132211
30
0
41
1
10
4.25134823881757
20
-2.15664884891186
30
0
41
1
10
4.25135697203748
20
-2.10546912073275
30
0
0
SPLINE
5
CD
100
AcDbEntity
8
1
62
256
6
ByLayer
370
18
48
1
60
0
100
AcDbSpline
70
4
71
3
72
30
73
26
40
0
40
0
40
0
40
0
40
0.124999999999997
40
0.124999999999997
40
0.249999999999994
40
0.249999999999994
40
0.499999999999977
40
0.499999999999977
40
0.624999999999968
40
0.624999999999968
40
0.687499999999969
40
0.687499999999969
40
0.74999999999997
40
0.74999999999997
40
0.812499999999971
40
0.812499999999971
40
0.843749999999976
40
0.843749999999976
40
0.87499999999998
40
0.87499999999998
40
0.937499999999989
40
0.937499999999989
40
0.968749999999995
40
0.968749999999995
40
1
40
1
40
1
40
1
41
1
10
42.7432519916804
20
0.968988237527071
30
0
41
1
10
42.8379639762659
20
0.895796634964256
30
0
41
1
10
42.9335861137887
20
0.825567394965361
30
0
41
1
10
43.1271499791424
20
0.692658709306357
30
0
41
1
10
43.2245024261757
20
0.630391159764088
30
0
41
1
10
43.516651058529
20
0.458463766685782
30
0
41
1
10
43.7122234008357
20
0.362910049066272
30
0
41
1
10
44.007104670124
20
0.25557141347673
30
0
41
1
10
44.1061483655216
20
0.225735778431186
30
0
41
1
10
44.2532223781753
20
0.19225210373483
30
0
41
1
10
44.3019539741482
20
0.182966207476198
30
0
41
1
10
44.3986316210837
20
0.168415842618316
30
0
41
1
10
44.4468204512892
20
0.162855793270808
30
0
41
1
10
44.5389654445218
20
0.164043857731769
30
0
41
1
10
44.5828597932513
20
0.16976317221031
30
0
41
1
10
44.6428695781115
20
0.192064492455387
30
0
41
1
10
44.6620355697281
20
0.201904297880986
30
0
41
1
10
44.6965663642664
20
0.226213768332485
30
0
41
1
10
44.7120489989479
20
0.240778745670667
30
0
41
1
10
44.7527135009724
20
0.292292665586984
30
0
41
1
10
44.7709122104172
20
0.335924221070854
30
0
41
1
10
44.7824432795346
20
0.41252542959765
30
0
41
1
10
44.7835965476351
20
0.439241264970491
30
0
41
1
10
44.7810110591052
20
0.494822360361866
30
0
41
1
10
44.7771917770947
20
0.523897263409907
30
0
41
1
10
44.7716728097819
20
0.552893823207114
30
0
0
SPLINE
5
CE
100
AcDbEntity
8
1
62
256
6
ByLayer
370
18
48
1
60
0
100
AcDbSpline
70
4
71
3
72
8
73
4
40
0
40
0
40
0
40
0
40
1
40
1
40
1
40
1
41
1
10
45.0496759556182
20
2.75711946311736
30
0
41
1
10
44.8453354639956
20
2.77230900881909
30
0
41
1
10
44.6411700927951
20
2.77980346394386
30
0
41
1
10
44.4368350105394
20
2.77961274209756
30
0
0
SPLINE
5
CF
100
AcDbEntity
8
1
62
256
6
ByLayer
370
18
48
1
60
0
100
AcDbSpline
70
4
71
3
72
42
73
38
40
0
40
0
40
0
40
0
40
0.0357688395691381
40
0.0357688395691381
40
0.074690021886115
40
0.074690021886115
40
0.152532386520071
40
0.152532386520071
40
0.19145356883705
40
0.19145356883705
40
0.230374751154029
40
0.230374751154029
40
0.386059480421946
40
0.386059480421946
40
0.424980662738924
40
0.424980662738924
40
0.463901845055902
40
0.463901845055902
40
0.541744209689859
40
0.541744209689859
40
0.580665392006838
40
0.580665392006838
40
0.619586574323817
40
0.619586574323817
40
0.697428938957776
40
0.697428938957776
40
0.775271303591735
40
0.775271303591735
40
0.814192485908715
40
0.814192485908715
40
0.853113668225694
40
0.853113668225694
40
0.930956032859654
40
0.930956032859654
40
0.969877215176634
40
0.969877215176634
40
1
40
1
40
1
40
1
41
1
10
30.9387023705784
20
-2.64143316527301
30
0
41
1
10
30.7417864837675
20
-2.6760307970128
30
0
41
1
10
30.5438977880959
20
-2.70393230651081
30
0
41
1
10
30.1336288359122
20
-2.74720064302466
30
0
41
1
10
29.9207479069371
20
-2.76142460747815
30
0
41
1
10
29.2835195279338
20
-2.77931076379562
30
0
41
1
10
28.8603599329395
20
-2.75819008098873
30
0
41
1
10
28.2227984083841
20
-2.67758238558866
30
0
41
1
10
28.0097254162101
20
-2.64258238574575
30
0
41
1
10
27.5815467685037
20
-2.55648323363408
30
0
41
1
10
27.3659689093512
20
-2.50519476922983
30
0
41
1
10
26.2965303187851
20
-2.21345943617126
30
0
41
1
10
25.4558061114069
20
-1.8662418256817
30
0
41
1
10
24.3859204476621
20
-1.33493245286221
30
0
41
1
10
24.17032079691
20
-1.2235269813948
30
0
41
1
10
23.7422006337881
20
-0.995715123210459
30
0
41
1
10
23.5291454142354
20
-0.878921901950235
30
0
41
1
10
22.8914721335742
20
-0.522514227829248
30
0
41
1
10
22.4681182063383
20
-0.277269714219045
30
0
41
1
10
21.8306154736287
20
0.0931667501634763
30
0
41
1
10
21.6176079916461
20
0.216908149427439
30
0
41
1
10
21.1896622653294
20
0.463315246935309
30
0
41
1
10
20.9740567913667
20
0.586490962199207
30
0
41
1
10
20.3316417299025
20
0.947170579064647
30
0
41
1
10
19.9070893372609
20
1.17632904648377
30
0
41
1
10
19.0587943337957
20
1.60215060706335
30
0
41
1
10
18.6345865499058
20
1.79809495558439
30
0
41
1
10
17.9930102365569
20
2.05875540877699
30
0
41
1
10
17.7774259553609
20
2.14027216882562
30
0
41
1
10
17.348772189749
20
2.28879026802969
30
0
41
1
10
17.1354836056007
20
2.35597859328826
30
0
41
1
10
16.4971354336626
20
2.53530921151
30
0
41
1
10
16.0738249095646
20
2.62539111059434
30
0
41
1
10
15.436192570637
20
2.71264136999784
30
0
41
1
10
15.223296220524
20
2.73378989818275
30
0
41
1
10
14.8440308741056
20
2.75665307163385
30
0
41
1
10
14.6775191784044
20
2.76166002026227
30
0
41
1
10
14.5112578294235
20
2.76162709629528
30
0
0
SPLINE
5
D0
100
AcDbEntity
8
1
62
256
6
ByLayer
370
18
48
1
60
0
100
AcDbSpline
70
4
71
3
72
8
73
4
40
0
40
0
40
0
40
0
40
1
40
1
40
1
40
1
41
1
10
4.08436964145813
20
1.59999002976534
30
0
41
1
10
4.09676103799146
20
1.5873754568195
30
0
41
1
10
4.11036319778577
20
1.57600636684228
30
0
41
1
10
4.12535258317476
20
1.56606547945265
30
0
0
SPLINE
5
D1
100
AcDbEntity
8
1
62
256
6
ByLayer
370
18
48
1
60
0
100
AcDbSpline
70
4
71
3
72
14
73
10
40
0
40
0
40
0
40
0
40
0.387993975492341
40
0.387993975492341
40
0.600942584354408
40
0.600942584354408
40
0.813891193216476
40
0.813891193216476
40
1
40
1
40
1
40
1
41
1
10
29.6770879729638
20
-2.63477158332483
30
0
41
1
10
29.291611942652
20
-2.63461738613546
30
0
41
1
10
28.9065214743287
20
-2.60864838092402
30
0
41
1
10
28.306927324979
20
-2.52865775862776
30
0
41
1
10
28.093779533591
20
-2.49262154049509
30
0
41
1
10
27.6651835321783
20
-2.40521269566449
30
0
41
1
10
27.4515165765934
20
-2.35416581602416
30
0
41
1
10
27.0529224022774
20
-2.24606546172964
30
0
41
1
10
26.8675403151392
20
-2.1905612769441
30
0
41
1
10
26.6823819835023
20
-2.13031881134802
30
0
0
SPLINE
5
D2
100
AcDbEntity
8
1
62
256
6
ByLayer
370
13
48
1
60
0
100
AcDbSpline
70
4
71
3
72
22
73
18
40
0
40
0
40
0
40
0
40
0.253468687707779
40
0.253468687707779
40
0.334551712659727
40
0.334551712659727
40
0.415634737611675
40
0.415634737611675
40
0.496717762563624
40
0.496717762563624
40
0.577800787515572
40
0.577800787515572
40
0.902132887323363
40
0.902132887323363
40
0.98321591227531
40
0.98321591227531
40
1
40
1
40
1
40
1
41
1
10
26.6823819834393
20
-2.1303188113275
30
0
41
1
10
26.0200960737904
20
-1.9148397898069
30
0
41
1
10
25.3606728799392
20
-1.63873945952403
30
0
41
1
10
24.4767524427779
20
-1.21550555192746
30
0
41
1
10
24.2626969859504
20
-1.10906003099873
30
0
41
1
10
23.8355949596322
20
-0.890864711483118
30
0
41
1
10
23.6223512812996
20
-0.778883931347934
30
0
41
1
10
23.1956553728344
20
-0.550646409377265
30
0
41
1
10
22.9821201227809
20
-0.434518653304366
30
0
41
1
10
22.5537596500359
20
-0.199834766005807
30
0
41
1
10
22.3393772378744
20
-0.0813344941774687
30
0
41
1
10
21.2743811060921
20
0.507154626619098
30
0
41
1
10
20.4342971557335
20
0.967830256638877
30
0
41
1
10
19.3655508103654
20
1.47130577314422
30
0
41
1
10
19.1508013335827
20
1.56826510831166
30
0
41
1
10
18.8934155081529
20
1.67819680886313
30
0
41
1
10
18.849311255568
20
1.69682226407406
30
0
41
1
10
18.8052400778297
20
1.71521576216358
30
0
0
SPLINE
5
D3
100
AcDbEntity
8
1
62
256
6
ByLayer
370
18
48
1
60
0
100
AcDbSpline
70
4
71
3
72
8
73
4
40
0
40
0
40
0
40
0
40
1
40
1
40
1
40
1
41
1
10
4.12535258317476
20
1.56606547945265
30
0
41
1
10
4.14888448973494
20
1.54727643785057
30
0
41
1
10
4.17439573879969
20
1.53157624048575
30
0
41
1
10
4.20068798422477
20
1.51915144317047
30
0
0
SPLINE
5
D4
100
AcDbEntity
8
1
62
256
6
ByLayer
370
18
48
1
60
0
100
AcDbSpline
70
4
71
3
72
12
73
8
40
0
40
0
40
0
40
0
40
0.250000000000002
40
0.250000000000002
40
0.500000000000004
40
0.500000000000004
40
1
40
1
40
1
40
1
41
1
10
4.2513569723591
20
-2.10546912073414
30
0
41
1
10
4.43063313983438
20
-2.17566373002393
30
0
41
1
10
4.61135000667085
20
-2.23778647979793
30
0
41
1
10
4.97548951010327
20
-2.34713250642571
30
0
41
1
10
5.159262011659
20
-2.39445042407488
30
0
41
1
10
5.71210648564164
20
-2.51533011074335
30
0
41
1
10
6.08217870731255
20
-2.56742532076976
30
0
41
1
10
6.4566878099686
20
-2.59679734041498
30
0
0
SPLINE
5
D5
100
AcDbEntity
8
1
62
256
6
ByLayer
370
13
48
1
60
0
100
AcDbSpline
70
4
71
3
72
8
73
4
40
0
40
0
40
0
40
0
40
1
40
1
40
1
40
1
41
1
10
4.20068798422477
20
1.51915144317047
30
0
41
1
10
4.36739496124872
20
1.440371545635
30
0
41
1
10
4.53437274186564
20
1.3586969449143
30
0
41
1
10
4.70097037131214
20
1.27485421059407
30
0
0
SPLINE
5
D6
100
AcDbEntity
8
1
62
256
6
ByLayer
370
18
48
1
60
0
100
AcDbSpline
70
4
71
3
72
24
73
20
40
0
40
0
40
0
40
0
40
0.0239793070667926
40
0.0239793070667926
40
0.1309991228077
40
0.1309991228077
40
0.345038754289512
40
0.345038754289512
40
0.452058570030419
40
0.452058570030419
40
0.559078385771327
40
0.559078385771327
40
0.773118017253139
40
0.773118017253139
40
0.880137832994046
40
0.880137832994046
40
0.987157648734953
40
0.987157648734953
40
1
40
1
40
1
40
1
41
1
10
4.70096955303595
20
1.27485462240372
30
0
41
1
10
4.74907726897081
20
1.25064370123036
30
0
41
1
10
4.79715328580446
20
1.22625198851353
30
0
41
1
10
5.05953410189073
20
1.09210780080639
30
0
41
1
10
5.27281720769895
20
0.979365409662819
30
0
41
1
10
5.9108566078028
20
0.634166891969159
30
0
41
1
10
6.33376112797922
20
0.39467105626818
30
0
41
1
10
6.97048108079392
20
0.0319809643275448
30
0
41
1
10
7.18306717866218
20
-0.0895743031514655
30
0
41
1
10
7.6098118729297
20
-0.332446071153726
30
0
41
1
10
7.82449171952493
20
-0.454056812120115
30
0
41
1
10
8.46850953417862
20
-0.813729494886275
30
0
41
1
10
8.89577160062692
20
-1.04557654531038
30
0
41
1
10
9.53964321503355
20
-1.37139883151079
30
0
41
1
10
9.75455340917568
20
-1.47631636392438
30
0
41
1
10
10.181399391597
20
-1.67533643374747
30
0
41
1
10
10.3939677414241
20
-1.76971892792054
30
0
41
1
10
10.6316495065044
20
-1.86899825287617
30
0
41
1
10
10.6571091631
20
-1.87955389393645
30
0
41
1
10
10.6825634758114
20
-1.89002715570805
30
0
0
SPLINE
5
D7
100
AcDbEntity
8
1
62
256
6
ByLayer
370
13
48
1
60
0
100
AcDbSpline
70
4
71
3
72
18
73
14
40
0
40
0
40
0
40
0
40
0.23656750910993
40
0.23656750910993
40
0.362401371171746
40
0.362401371171746
40
0.488235233233562
40
0.488235233233562
40
0.739902957357196
40
0.739902957357196
40
0.991570681480831
40
0.991570681480831
40
1
40
1
40
1
40
1
41
1
10
10.6825644006132
20
-1.8900275362208
30
0
41
1
10
11.0813492022982
20
-2.05410884108531
30
0
41
1
10
11.4788223760835
20
-2.19797054639827
30
0
41
1
10
12.0907494455915
20
-2.38166870183736
30
0
41
1
10
12.3037345879503
20
-2.43871995638313
30
0
41
1
10
12.7316361257552
20
-2.53824108385942
30
0
41
1
10
12.9469200306314
20
-2.58071464698043
30
0
41
1
10
13.5878544496881
20
-2.68337363196517
30
0
41
1
10
14.011339379409
20
-2.71967298132859
30
0
41
1
10
14.8587246694505
20
-2.72770130496016
30
0
41
1
10
15.2823080930976
20
-2.69930644377285
30
0
41
1
10
15.7241042097035
20
-2.63656341646774
30
0
41
1
10
15.7384292001356
20
-2.63449281583127
30
0
41
1
10
15.7527603494618
20
-2.63238526597539
30
0
0
SPLINE
5
D8
100
AcDbEntity
8
1
62
256
6
ByLayer
370
18
48
1
60
0
100
AcDbSpline
70
4
71
3
72
34
73
30
40
0
40
0
40
0
40
0
40
0.102195510995673
40
0.102195510995673
40
0.216253031306161
40
0.216253031306161
40
0.330310551616649
40
0.330310551616649
40
0.387339311771894
40
0.387339311771894
40
0.444368071927139
40
0.444368071927139
40
0.558425592237632
40
0.558425592237632
40
0.672483112548126
40
0.672483112548126
40
0.700997492625751
40
0.700997492625751
40
0.729511872703375
40
0.729511872703375
40
0.786540632858628
40
0.786540632858628
40
0.900598153169129
40
0.900598153169129
40
0.95762691332438
40
0.95762691332438
40
0.986141293402007
40
0.986141293402007
40
1
40
1
40
1
40
1
41
1
10
29.8957813395282
20
2.72281573939492
30
0
41
1
10
30.2755137599659
20
2.70379649446468
30
0
41
1
10
30.6563969626456
20
2.65873235222025
30
0
41
1
10
31.470026234349
20
2.50806591545418
30
0
41
1
10
31.8949952252615
20
2.3982190433577
30
0
41
1
10
32.7417725501331
20
2.12487394325132
30
0
41
1
10
33.1644930969576
20
1.96217481689177
30
0
41
1
10
33.8019073156019
20
1.68363318525698
30
0
41
1
10
34.0151911183245
20
1.5854790765716
30
0
41
1
10
34.4439459905213
20
1.37874365430014
30
0
41
1
10
34.6580742319781
20
1.27079724522207
30
0
41
1
10
35.2965740152361
20
0.938359599706416
30
0
41
1
10
35.7194736559113
20
0.70505772167644
30
0
41
1
10
36.5656165516876
20
0.225247802125295
30
0
41
1
10
36.9896489302375
20
-0.0198655977670228
30
0
41
1
10
37.5249311893395
20
-0.325774874954362
30
0
41
1
10
37.6323910494728
20
-0.387012158763184
30
0
41
1
10
37.846371280326
20
-0.50833020700145
30
0
41
1
10
37.9530605342915
20
-0.568508000040993
30
0
41
1
10
38.2724038724965
20
-0.747310170111717
30
0
41
1
10
38.4843080415961
20
-0.864237342268893
30
0
41
1
10
39.1186872618604
20
-1.20559172857415
30
0
41
1
10
39.5401165161774
20
-1.42008364953071
30
0
41
1
10
40.1747775248875
20
-1.71487350887497
30
0
41
1
10
40.3867791566308
20
-1.80860261501266
30
0
41
1
10
40.7061654968983
20
-1.94128829583332
30
0
41
1
10
40.8128596837681
20
-1.98419713773413
30
0
41
1
10
40.9718483171707
20
-2.04585282170197
30
0
41
1
10
41.0239520651392
20
-2.06569396247696
30
0
41
1
10
41.0760558752588
20
-2.08516195134072
30
0
0
SPLINE
5
D9
100
AcDbEntity
8
1
62
256
6
ByLayer
370
13
48
1
60
0
100
AcDbSpline
70
4
71
3
72
16
73
12
40
0
40
0
40
0
40
0
40
0.041072067781475
40
0.041072067781475
40
0.360714711854319
40
0.360714711854319
40
0.680357355927163
40
0.680357355927163
40
0.840178677963581
40
0.840178677963581
40
1
40
1
40
1
40
1
41
1
10
41.0760558758417
20
-2.08516195155855
30
0
41
1
10
41.1311559979249
20
-2.10574947789283
30
0
41
1
10
41.1862561895124
20
-2.12591970091867
30
0
41
1
10
41.6690905304952
20
-2.29889100850386
30
0
41
1
10
42.0922665611663
20
-2.424604791317
30
0
41
1
10
42.9368805723397
20
-2.61609948959307
30
0
41
1
10
43.3582217584235
20
-2.68195212724694
30
0
41
1
10
43.994505433352
20
-2.73265450859608
30
0
41
1
10
44.2073164087564
20
-2.74153392278694
30
0
41
1
10
44.6352008652426
20
-2.74269273442792
30
0
41
1
10
44.8499413347161
20
-2.73491973195101
30
0
41
1
10
45.0641400357648
20
-2.71881078879957
30
0
0
SPLINE
5
DA
100
AcDbEntity
8
1
62
256
6
ByLayer
370
18
48
1
60
0
100
AcDbSpline
70
4
71
3
72
63
73
59
40
0
40
0
40
0
40
0
40
0.0624999999999903
40
0.0624999999999903
40
0.124999999999981
40
0.124999999999981
40
0.249999999999961
40
0.249999999999961
40
0.374999999999942
40
0.374999999999942
40
0.437499999999932
40
0.437499999999932
40
0.499999999999923
40
0.499999999999923
40
0.562499999999913
40
0.562499999999913
40
0.593749999999907
40
0.593749999999907
40
0.609374999999903
40
0.617187499999902
40
0.621093749999901
40
0.621093749999901
40
0.6249999999999
40
0.6249999999999
40
0.628906249999899
40
0.628906249999899
40
0.630859374999899
40
0.630859374999899
40
0.632812499999899
40
0.640624999999901
40
0.640624999999901
40
0.656249999999905
40
0.656249999999905
40
0.687499999999914
40
0.687499999999914
40
0.703124999999918
40
0.703124999999918
40
0.718749999999922
40
0.718749999999922
40
0.734374999999927
40
0.734374999999927
40
0.749999999999931
40
0.749999999999931
40
0.765624999999936
40
0.765624999999936
40
0.78124999999994
40
0.78124999999994
40
0.796874999999944
40
0.796874999999944
40
0.812499999999948
40
0.812499999999948
40
0.843749999999957
40
0.843749999999957
40
0.874999999999966
40
0.874999999999966
40
0.937499999999983
40
0.937499999999983
40
1
40
1
40
1
40
1
41
1
10
9.80721064942389
20
-1.7519749308484
30
0
41
1
10
9.59090445656273
20
-1.6547800054116
30
0
41
1
10
9.37317476990884
20
-1.5544015715804
30
0
41
1
10
8.93419012108023
20
-1.34952098898296
30
0
41
1
10
8.7128694354854
20
-1.24498974658789
30
0
41
1
10
8.04846189939792
20
-0.932292408327896
30
0
41
1
10
7.6027959092861
20
-0.72403045724738
30
0
41
1
10
6.69736915675543
20
-0.332178439047993
30
0
41
1
10
6.23751324308415
20
-0.148826006680963
30
0
41
1
10
5.53187619537442
20
0.091281761920925
30
0
41
1
10
5.29404624068837
20
0.165546175410469
30
0
41
1
10
4.81261044446927
20
0.300558043250618
30
0
41
1
10
4.56953895901273
20
0.361133751721411
30
0
41
1
10
4.08067854558027
20
0.466771975064432
30
0
41
1
10
3.8343234422444
20
0.511969810500943
30
0
41
1
10
3.46332128985662
20
0.567609104578253
30
0
41
1
10
3.33938296183339
20
0.58414032086867
30
0
41
1
10
3.15305849603439
20
0.605873005056765
30
0
41
1
10
3.05979201990039
20
0.615973198861212
30
0
41
1
10
2.95079628379733
20
0.626404891192351
30
0
41
1
10
2.90404393973114
20
0.63058453987307
30
0
41
1
10
2.87286681538006
20
0.633306125505385
30
0
41
1
10
2.85720214945587
20
0.635144135073659
30
0
41
1
10
2.82619474827561
20
0.634166957402044
30
0
41
1
10
2.81037092292766
20
0.631823277449683
30
0
41
1
10
2.78901604451494
20
0.623024127967852
30
0
41
1
10
2.78236035503574
20
0.619246444386988
30
0
41
1
10
2.7687446944924
20
0.612242601297453
30
0
41
1
10
2.73477554939962
20
0.594597747839458
30
0
41
1
10
2.70116380525258
20
0.576261748209532
30
0
41
1
10
2.62125498490934
20
0.530780333728103
30
0
41
1
10
2.56921505940434
20
0.498626154674582
30
0
41
1
10
2.41816095093708
20
0.395741413865693
30
0
41
1
10
2.32346364810027
20
0.318652053538841
30
0
41
1
10
2.1985654370267
20
0.181720412127788
30
0
41
1
10
2.16072194806924
20
0.133362664896424
30
0
41
1
10
2.09467115604579
20
0.0297292383053502
30
0
41
1
10
2.06632557552209
20
-0.0262510139248491
30
0
41
1
10
2.02438052180054
20
-0.141129925577616
30
0
41
1
10
2.01036621107156
20
-0.200441713196881
30
0
41
1
10
1.99755775633008
20
-0.323135984263757
30
0
41
1
10
1.99907841945239
20
-0.384620240909783
30
0
41
1
10
2.01576923127561
20
-0.504882282889838
30
0
41
1
10
2.03111739952837
20
-0.564462345835182
30
0
41
1
10
2.07139607826471
20
-0.677412143037145
30
0
41
1
10
2.09636557485172
20
-0.731482081715399
30
0
41
1
10
2.1536208293474
20
-0.835912378733184
30
0
41
1
10
2.18597707045131
20
-0.886253498037604
30
0
41
1
10
2.25475638566172
20
-0.981746493311903
30
0
41
1
10
2.29138195713856
20
-1.02726426370876
30
0
41
1
10
2.40635615813315
20
-1.15863440173737
30
0
41
1
10
2.48996274640996
20
-1.2395872583817
30
0
41
1
10
2.66492758169085
20
-1.39123877653887
30
0
41
1
10
2.75546375313402
20
-1.46120247919731
30
0
41
1
10
3.03318475792071
20
-1.6585932355091
30
0
41
1
10
3.22635110307027
20
-1.77373914438652
30
0
41
1
10
3.62199852985958
20
-1.9823632453932
30
0
41
1
10
3.8249995866224
20
-2.07563870770588
30
0
41
1
10
4.02813329460363
20
-2.15859562118268
30
0
0
SPLINE
5
DB
100
AcDbEntity
8
1
62
256
6
ByLayer
370
18
48
1
60
0
100
AcDbSpline
70
4
71
3
72
18
73
14
40
0
40
0
40
0
40
0
40
0.25
40
0.25
40
0.5
40
0.5
40
0.625
40
0.625
40
0.75
40
0.75
40
0.875
40
0.875
40
1
40
1
40
1
40
1
41
1
10
45.6274005658044
20
-1.3747366600052
30
0
41
1
10
45.5859065818561
20
-1.48640918173132
30
0
41
1
10
45.5440829453376
20
-1.59776888653266
30
0
41
1
10
45.4603811972851
20
-1.82043660320693
30
0
41
1
10
45.4183650414811
20
-1.93172866514365
30
0
41
1
10
45.3548118185912
20
-2.09771276899397
30
0
41
1
10
45.3335153411142
20
-2.15280487084621
30
0
41
1
10
45.2908942611465
20
-2.26292986493684
30
0
41
1
10
45.2695751519417
20
-2.31797432180411
30
0
41
1
10
45.2267774101746
20
-2.42772740223614
30
0
41
1
10
45.2053295009281
20
-2.48239583330357
30
0
41
1
10
45.1622118253561
20
-2.59050925874669
30
0
41
1
10
45.1405426979094
20
-2.64398232090951
30
0
41
1
10
45.1188569439899
20
-2.69736739612901
30
0
0
SPLINE
5
DC
100
AcDbEntity
8
1
62
256
6
ByLayer
370
18
48
1
60
0
100
AcDbSpline
70
4
71
3
72
8
73
4
40
0
40
0
40
0
40
0
40
1
40
1
40
1
40
1
41
1
10
4.12475402657424
20
1.57622056796231
30
0
41
1
10
4.11022151404168
20
1.58311558628421
30
0
41
1
10
4.09677467815271
20
1.59106098334976
30
0
41
1
10
4.08436964145747
20
1.59999002976494
30
0
0
SPLINE
5
DD
100
AcDbEntity
8
1
62
256
6
ByLayer
370
18
48
1
60
0
100
AcDbSpline
70
4
71
3
72
22
73
18
40
0
40
0
40
0
40
0
40
0.108547265816237
40
0.108547265816237
40
0.217094531632475
40
0.217094531632475
40
0.434189063264949
40
0.434189063264949
40
0.542736329081187
40
0.542736329081187
40
0.651283594897424
40
0.651283594897424
40
0.868378126529899
40
0.868378126529899
40
0.976925392346136
40
0.976925392346136
40
1
40
1
40
1
40
1
41
1
10
4.027631718706
20
1.69326046482359
30
0
41
1
10
4.02765054980128
20
1.7651911523312
30
0
41
1
10
4.02766801578227
20
1.83419833847489
30
0
41
1
10
4.02770070348171
20
1.9663520741301
30
0
41
1
10
4.02771591586622
20
2.02947074997482
30
0
41
1
10
4.02775821452497
20
2.20687468878916
30
0
41
1
10
4.02778228760698
20
2.31050812390254
30
0
41
1
10
4.02781534628235
20
2.44406808355359
30
0
41
1
10
4.02782590233306
20
2.48509845472174
30
0
41
1
10
4.02784617506984
20
2.5585349995977
30
0
41
1
10
4.02785586301707
20
2.59086050492866
30
0
41
1
10
4.02788426567645
20
2.67502724354148
30
0
41
1
10
4.02790235426204
20
2.71418296443466
30
0
41
1
10
4.02793016914654
20
2.74668029625985
30
0
41
1
10
4.02793948735473
20
2.75299390181991
30
0
41
1
10
4.02795079138215
20
2.75518141629166
30
0
41
1
10
4.02795277511842
20
2.75536347627815
30
0
41
1
10
4.02795476128978
20
2.75534458594194
30
0
0
SPLINE
5
DE
100
AcDbEntity
8
1
62
256
6
ByLayer
370
13
48
1
60
0
100
AcDbSpline
70
4
71
3
72
10
73
6
40
0
40
0
40
0
40
0
40
0.5
40
0.5
40
1
40
1
40
1
40
1
41
1
10
4.25042053675327
20
1.53272946418673
30
0
41
1
10
4.22857412974096
20
1.53855637674673
30
0
41
1
10
4.20715396508086
20
1.54585795356448
30
0
41
1
10
4.16518888508057
20
1.5634502477802
30
0
41
1
10
4.14455682839474
20
1.5738331766016
30
0
41
1
10
4.12535258317476
20
1.58541753990954
30
0
0
SPLINE
5
DF
100
AcDbEntity
8
1
62
256
6
ByLayer
370
18
48
1
60
0
100
AcDbSpline
70
4
71
3
72
63
73
59
40
0
40
0
40
0
40
0
40
0.0949657924497069
40
0.0949657924497069
40
0.151920677105843
40
0.151920677105843
40
0.180398119433911
40
0.180398119433911
40
0.187517480015929
40
0.191077160306937
40
0.191967080379689
40
0.191967080379689
40
0.192412040416065
40
0.192412040416065
40
0.192857000452441
40
0.192857000452441
40
0.194636840597945
40
0.194636840597945
40
0.208875561761977
40
0.208875561761977
40
0.265830446418105
40
0.265830446418105
40
0.322785331074234
40
0.322785331074234
40
0.43669510038649
40
0.43669510038649
40
0.550604869698746
40
0.550604869698746
40
0.57908231202681
40
0.57908231202681
40
0.593321033190842
40
0.593321033190842
40
0.607559754354874
40
0.607559754354874
40
0.609339594500378
40
0.609339594500378
40
0.611119434645882
40
0.611119434645882
40
0.611564394682259
40
0.611564394682259
40
0.612009354718634
40
0.612899274791387
40
0.614679114936891
40
0.621798475518907
40
0.621798475518907
40
0.63603719668294
40
0.63603719668294
40
0.664514639011006
40
0.664514639011006
40
0.721469523667139
40
0.721469523667139
40
0.778424408323271
40
0.778424408323271
40
0.892334177635535
40
0.892334177635535
40
0.949289062291667
40
0.949289062291667
40
1
40
1
40
1
40
1
41
1
10
7.2503957782325
20
-0.564225485558808
30
0
41
1
10
7.08936882364597
20
-0.529755095441544
30
0
41
1
10
6.92818433540694
20
-0.507176015651083
30
0
41
1
10
6.66712720510605
20
-0.491739379462075
30
0
41
1
10
6.56928350740773
20
-0.49061864507587
30
0
41
1
10
6.42225927182264
20
-0.495898996705677
30
0
41
1
10
6.37324446195072
20
-0.49881736868133
30
0
41
1
10
6.31193860468625
20
-0.503898553203783
30
0
41
1
10
6.29354438894447
20
-0.505530365724638
30
0
41
1
10
6.27361507294196
20
-0.507471996723524
30
0
41
1
10
6.26594947067682
20
-0.508246590721257
30
0
41
1
10
6.26364976337581
20
-0.508480636658987
30
0
41
1
10
6.26289801589766
20
-0.508651190138721
30
0
41
1
10
6.26365659102055
20
-0.509369220903011
30
0
41
1
10
6.26423773538738
20
-0.50970540796672
30
0
41
1
10
6.26713393118791
20
-0.511349385022214
30
0
41
1
10
6.26981947753242
20
-0.512566502966649
30
0
41
1
10
6.29388830614428
20
-0.523481535062047
30
0
41
1
10
6.31710809869898
20
-0.532496714388941
30
0
41
1
10
6.43166783051589
20
-0.5781082662931
30
0
41
1
10
6.52519696917867
20
-0.613953420257189
30
0
41
1
10
6.71212038005379
20
-0.686070956029994
30
0
41
1
10
6.80588161543676
20
-0.722191876811308
30
0
41
1
10
7.0875347350011
20
-0.830977868294809
30
0
41
1
10
7.27542890574492
20
-0.904584838846148
30
0
41
1
10
7.65145253527868
20
-1.05394385471251
30
0
41
1
10
7.83949151854856
20
-1.12957944719804
30
0
41
1
10
8.07301317968913
20
-1.22761655280291
30
0
41
1
10
8.1196434890316
20
-1.24740507934493
30
0
41
1
10
8.18927372688859
20
-1.27768736383274
30
0
41
1
10
8.21243282034456
20
-1.28787774089267
30
0
41
1
10
8.2584973469811
20
-1.30870228349286
30
0
41
1
10
8.28160611377436
20
-1.31907176988281
30
0
41
1
10
8.30652058064592
20
-1.33229788118553
30
0
41
1
10
8.30926710804636
20
-1.33379679604974
30
0
41
1
10
8.31464183425692
20
-1.33695372878827
30
0
41
1
10
8.31742819412389
20
-1.33839953589506
30
0
41
1
10
8.32014141476685
20
-1.34123978040623
30
0
41
1
10
8.32045500972052
20
-1.3420915731098
30
0
41
1
10
8.31908128767353
20
-1.34328473483256
30
0
41
1
10
8.31702071347772
20
-1.34507464252567
30
0
41
1
10
8.31221278710058
20
-1.34925222161772
30
0
41
1
10
8.29710264066304
20
-1.36238870893553
30
0
41
1
10
8.2833671570715
20
-1.37435148612644
30
0
41
1
10
8.25040423732401
20
-1.40309386602985
30
0
41
1
10
8.22843730536323
20
-1.42229312453438
30
0
41
1
10
8.16253049440888
20
-1.4799690710893
30
0
41
1
10
8.1185501990083
20
-1.51855522329973
30
0
41
1
10
7.98690104196459
20
-1.63381641111374
30
0
41
1
10
7.89936999176709
20
-1.71014895787627
30
0
41
1
10
7.7231856118496
20
-1.85991626586056
30
0
41
1
10
7.63410615599241
20
-1.93368697706501
30
0
41
1
10
7.36549056381259
20
-2.144687413855
30
0
41
1
10
7.18603578999893
20
-2.27035645930218
30
0
41
1
10
6.90585170530369
20
-2.42464035567878
30
0
41
1
10
6.810003677536
20
-2.47057301128302
30
0
41
1
10
6.62877633009401
20
-2.54379570084396
30
0
41
1
10
6.54309422319517
20
-2.57282670114222
30
0
41
1
10
6.45682919684577
20
-2.59685090244784
30
0
0
SPLINE
5
E0
100
AcDbEntity
8
1
62
256
6
ByLayer
370
18
48
1
60
0
100
AcDbSpline
70
4
71
3
72
24
73
20
40
0
40
0
40
0
40
0
40
0.0231594951970878
40
0.0231594951970878
40
0.107376847805168
40
0.107376847805168
40
0.191594200413248
40
0.191594200413248
40
0.528463610845574
40
0.528463610845574
40
0.612680963453656
40
0.612680963453656
40
0.696898316061738
40
0.696898316061738
40
0.78111566866982
40
0.78111566866982
40
0.865333021277903
40
0.865333021277903
40
1
40
1
40
1
40
1
41
1
10
18.0882039232705
20
1.99198443752565
30
0
41
1
10
18.1464892124134
20
1.96923145727823
30
0
41
1
10
18.2047958762357
20
1.94602155219414
30
0
41
1
10
18.4752725156595
20
1.83634205132421
30
0
41
1
10
18.6878496985128
20
1.74447255195054
30
0
41
1
10
19.1148246411342
20
1.54995915717791
30
0
41
1
10
19.3299237090521
20
1.44676513516151
30
0
41
1
10
20.3997459646907
20
0.913220962565163
30
0
41
1
10
21.2398497049069
20
0.430517605431078
30
0
41
1
10
22.3060974959084
20
-0.18060196810265
30
0
41
1
10
22.5208404698283
20
-0.303455299023852
30
0
41
1
10
22.9496681974532
20
-0.546037296232043
30
0
41
1
10
23.1634331948197
20
-0.665724036102489
30
0
41
1
10
23.5905836578537
20
-0.900384729864072
30
0
41
1
10
23.8040450476786
20
-1.01524155623167
30
0
41
1
10
24.2316575334595
20
-1.23842384032483
30
0
41
1
10
24.4461033085229
20
-1.34703354233977
30
0
41
1
10
25.0034629878815
20
-1.6179541814052
30
0
41
1
10
25.3435483445202
20
-1.77186630111038
30
0
41
1
10
25.6826834396549
20
-1.9108929050621
30
0
0
SPLINE
5
E1
100
AcDbEntity
8
1
62
256
6
ByLayer
370
13
48
1
60
0
100
AcDbSpline
70
4
71
3
72
16
73
12
40
0
40
0
40
0
40
0
40
0.304073692458856
40
0.304073692458856
40
0.430720445210923
40
0.430720445210923
40
0.55736719796299
40
0.55736719796299
40
0.810660703467118
40
0.810660703467118
40
1
40
1
40
1
40
1
41
1
10
25.682683439537
20
-1.91089290501378
30
0
41
1
10
26.1918946921438
20
-2.11964131283489
30
0
41
1
10
26.6989635788314
20
-2.29483030412172
30
0
41
1
10
27.4231868013927
20
-2.48530375324285
30
0
41
1
10
27.6372843560879
20
-2.53429054203704
30
0
41
1
10
28.0662871370482
20
-2.61665928682711
30
0
41
1
10
28.2795943477995
20
-2.649788432501
30
0
41
1
10
28.9173948955518
20
-2.72505243125974
30
0
41
1
10
29.3400478627342
20
-2.74286627662295
30
0
41
1
10
30.0802012056732
20
-2.71756184187978
30
0
41
1
10
30.3974087561363
20
-2.68861752321473
30
0
41
1
10
30.7166499021014
20
-2.64149963385029
30
0
0
SPLINE
5
E2
100
AcDbEntity
8
1
62
256
6
ByLayer
370
18
48
1
60
0
100
AcDbSpline
70
4
71
3
72
8
73
4
40
0
40
0
40
0
40
0
40
1
40
1
40
1
40
1
41
1
10
9.80721460505578
20
-1.75196954097427
30
0
41
1
10
9.80789762634254
20
-1.7522788684681
30
0
41
1
10
9.80858064762924
20
-1.75258814082704
30
0
41
1
10
9.80926366891597
20
-1.75289735802176
30
0
0
SPLINE
5
E3
100
AcDbEntity
8
1
62
256
6
ByLayer
370
18
48
1
60
0
100
AcDbSpline
70
4
71
3
72
74
73
70
40
0
40
0
40
0
40
0
40
0.0260053180431886
40
0.0260053180431886
40
0.0557574227291633
40
0.0557574227291633
40
0.0855095274151379
40
0.0855095274151379
40
0.115261632101113
40
0.115261632101113
40
0.145013736787087
40
0.145013736787087
40
0.174765841473062
40
0.174765841473062
40
0.204517946159037
40
0.204517946159037
40
0.234270050845011
40
0.234270050845011
40
0.264022155530986
40
0.264022155530986
40
0.293774260216961
40
0.293774260216961
40
0.323526364902935
40
0.323526364902935
40
0.35327846958891
40
0.35327846958891
40
0.383030574274885
40
0.383030574274885
40
0.412782678960859
40
0.412782678960859
40
0.442534783646834
40
0.442534783646834
40
0.472286888332809
40
0.472286888332809
40
0.502038993018783
40
0.502038993018783
40
0.531791097704758
40
0.531791097704758
40
0.561543202390733
40
0.561543202390733
40
0.591295307076707
40
0.591295307076707
40
0.621047411762682
40
0.621047411762682
40
0.650799516448657
40
0.650799516448657
40
0.680551621134631
40
0.680551621134631
40
0.710303725820606
40
0.710303725820606
40
0.740055830506581
40
0.740055830506581
40
0.769807935192555
40
0.769807935192555
40
0.79956003987853
40
0.79956003987853
40
0.829312144564505
40
0.829312144564505
40
0.859064249250479
40
0.859064249250479
40
0.888816353936454
40
0.888816353936454
40
0.918568458622429
40
0.918568458622429
40
0.948320563308403
40
0.948320563308403
40
0.978072667994378
40
0.978072667994378
40
1
40
1
40
1
40
1
41
1
10
10.4299112934871
20
2.01514004312344
30
0
41
1
10
10.5901260513169
20
2.07822455797185
30
0
41
1
10
10.7499485325435
20
2.13775089759858
30
0
41
1
10
11.0913282289793
20
2.25849526909587
30
0
41
1
10
11.2731760380371
20
2.31803159063097
30
0
41
1
10
11.6380348196283
20
2.4258123278189
30
0
41
1
10
11.8207035813288
20
2.47442892313265
30
0
41
1
10
12.1860171603798
20
2.56134633618791
30
0
41
1
10
12.3683998193202
20
2.59972636703185
30
0
41
1
10
12.7359251733973
20
2.66407437485367
30
0
41
1
10
12.9210419692212
20
2.69040410029754
30
0
41
1
10
13.2897481232139
20
2.73100908796397
30
0
41
1
10
13.473168914427
20
2.74537823699663
30
0
41
1
10
13.8407500752003
20
2.76152203633376
30
0
41
1
10
14.0250989768114
20
2.76338493976556
30
0
41
1
10
14.3941478615672
20
2.75486782166797
30
0
41
1
10
14.5786020740011
20
2.74440693645508
30
0
41
1
10
14.9460160251487
20
2.71101551024276
30
0
41
1
10
15.1300683810619
20
2.68834161412207
30
0
41
1
10
15.4984954726942
20
2.63126731787168
30
0
41
1
10
15.6828278406414
20
2.59685336264732
30
0
41
1
10
16.0511964267524
20
2.51553275116663
30
0
41
1
10
16.2350733309036
20
2.46919828370923
30
0
41
1
10
16.6034148805082
20
2.36652199735005
30
0
41
1
10
16.7876156557055
20
2.30999729405832
30
0
41
1
10
17.1555147056069
20
2.18588751678462
30
0
41
1
10
17.3394047210282
20
2.11800805382438
30
0
41
1
10
17.7081974193481
20
1.9747874299415
30
0
41
1
10
17.892522471412
20
1.89906966815369
30
0
41
1
10
18.2605178899158
20
1.73882134145458
30
0
41
1
10
18.443771086543
20
1.65366679053164
30
0
41
1
10
18.8119530330053
20
1.47753756397367
30
0
41
1
10
18.9969342106589
20
1.38637483268999
30
0
41
1
10
19.3655297945052
20
1.19822565323975
30
0
41
1
10
19.5491251212279
20
1.10069988718357
30
0
41
1
10
19.9162967011387
20
0.900828890433331
30
0
41
1
10
20.1005421897234
20
0.799591438580592
30
0
41
1
10
20.469646174529
20
0.593438592927015
30
0
41
1
10
20.6541672744651
20
0.488612945331539
30
0
41
1
10
21.0213932859623
20
0.275921780087202
30
0
41
1
10
21.2051424039577
20
0.169333102073694
30
0
41
1
10
21.5734670216926
20
-0.0433473991155608
30
0
41
1
10
21.7580014371364
20
-0.149807503771854
30
0
41
1
10
22.1263914888574
20
-0.36357478577898
30
0
41
1
10
22.3098620962049
20
-0.470202156303685
30
0
41
1
10
22.677936253552
20
-0.678587996213679
30
0
41
1
10
22.8621085524551
20
-0.7810999537393
30
0
41
1
10
23.2302100272917
20
-0.983593615209173
30
0
41
1
10
23.4140624134319
20
-1.08427721817566
30
0
41
1
10
23.7824192806221
20
-1.27774345499117
30
0
41
1
10
23.9666475847133
20
-1.37112722690989
30
0
41
1
10
24.3346554055977
20
-1.55210610056034
30
0
41
1
10
24.518083576778
20
-1.64017011090323
30
0
41
1
10
24.8859010959451
20
-1.8082973797419
30
0
41
1
10
25.0707631782078
20
-1.88784482865105
30
0
41
1
10
25.4392200920597
20
-2.03816432456011
30
0
41
1
10
25.6230095774691
20
-2.10914975994416
30
0
41
1
10
25.9899762164018
20
-2.24221167634104
30
0
41
1
10
26.174006905215
20
-2.30338251741873
30
0
41
1
10
26.543128826777
20
-2.41524158790406
30
0
41
1
10
26.7275891269306
20
-2.46584514303578
30
0
41
1
10
27.0948131109166
20
-2.55650350916343
30
0
41
1
10
27.2782076227448
20
-2.5961596032837
30
0
41
1
10
27.6463893338453
20
-2.66320937284485
30
0
41
1
10
27.8310489230577
20
-2.69089254059455
30
0
41
1
10
28.1994669131724
20
-2.73439362322171
30
0
41
1
10
28.3826771473341
20
-2.75014306117475
30
0
41
1
10
28.7020887848262
20
-2.76647593829256
30
0
41
1
10
28.8377472840108
20
-2.77006338622863
30
0
41
1
10
28.9734367434172
20
-2.77031008057054
30
0
0
SPLINE
5
E4
100
AcDbEntity
8
1
62
256
6
ByLayer
370
18
48
1
60
0
100
AcDbSpline
70
4
71
3
72
22
73
18
40
0
40
0
40
0
40
0
40
0.0722410320343653
40
0.0722410320343653
40
0.18821090303007
40
0.18821090303007
40
0.304180774025774
40
0.304180774025774
40
0.536120516017183
40
0.536120516017183
40
0.652090387012887
40
0.652090387012887
40
0.768060258008591
40
0.768060258008591
40
0.884030129004296
40
0.884030129004296
40
1
40
1
40
1
40
1
41
1
10
40.363086680652
20
2.02521326113603
30
0
41
1
10
40.4774766572252
20
2.07104235863858
30
0
41
1
10
40.5916796865396
20
2.11521927445389
30
0
41
1
10
40.889401485919
20
2.22518355505906
30
0
41
1
10
41.0734400645778
20
2.28750019519308
30
0
41
1
10
41.4418714834655
20
2.40224961857075
30
0
41
1
10
41.6262151539843
20
2.45472536946465
30
0
41
1
10
42.1765680235519
20
2.59565077331592
30
0
41
1
10
42.5448273098584
20
2.6656161474047
30
0
41
1
10
43.0965308333636
20
2.73608430901794
30
0
41
1
10
43.2801637170745
20
2.75339988889064
30
0
41
1
10
43.6479585804925
20
2.77546844621375
30
0
41
1
10
43.8318916326627
20
2.78037649649954
30
0
41
1
10
44.1993030434071
20
2.77783918878131
30
0
41
1
10
44.3827831596194
20
2.77023876272077
30
0
41
1
10
44.7510524245183
20
2.74284961121657
30
0
41
1
10
44.9351167839976
20
2.72313276281832
30
0
41
1
10
45.1188569439736
20
2.69736739614325
30
0
0
SPLINE
5
E5
100
AcDbEntity
8
1
62
256
6
ByLayer
370
18
48
1
60
0
100
AcDbSpline
70
4
71
3
72
70
73
66
40
0
40
0
40
0
40
0
40
0.0251688078886395
40
0.0251688078886395
40
0.0561660274877172
40
0.0561660274877172
40
0.0871632470867949
40
0.0871632470867949
40
0.118160466685873
40
0.118160466685873
40
0.18015490588403
40
0.18015490588403
40
0.211152125483108
40
0.211152125483108
40
0.242149345082187
40
0.242149345082187
40
0.273146564681266
40
0.273146564681266
40
0.304143784280344
40
0.304143784280344
40
0.335141003879423
40
0.335141003879423
40
0.366138223478501
40
0.366138223478501
40
0.39713544307758
40
0.39713544307758
40
0.428132662676659
40
0.428132662676659
40
0.459129882275737
40
0.459129882275737
40
0.490127101874816
40
0.490127101874816
40
0.521124321473894
40
0.521124321473894
40
0.552121541072973
40
0.552121541072973
40
0.583118760672052
40
0.583118760672052
40
0.61411598027113
40
0.61411598027113
40
0.645113199870209
40
0.645113199870209
40
0.676110419469287
40
0.676110419469287
40
0.707107639068366
40
0.707107639068366
40
0.738104858667445
40
0.738104858667445
40
0.769102078266523
40
0.769102078266523
40
0.800099297865602
40
0.800099297865602
40
0.831096517464681
40
0.831096517464681
40
0.862093737063759
40
0.862093737063759
40
0.893090956662838
40
0.893090956662838
40
0.924088176261916
40
0.924088176261916
40
0.955085395860995
40
0.955085395860995
40
0.986082615460073
40
0.986082615460073
40
1
40
1
40
1
40
1
41
1
10
40.3712495423181
20
-2.0243917703844
30
0
41
1
10
40.2176822847183
20
-2.07905368589644
30
0
41
1
10
40.0639570398565
20
-2.13045557614848
30
0
41
1
10
39.7218160440962
20
-2.23757990842501
30
0
41
1
10
39.5335529249994
20
-2.29197346825873
30
0
41
1
10
39.1564595596501
20
-2.38873454856312
30
0
41
1
10
38.9675951625173
20
-2.43081089464371
30
0
41
1
10
38.5890639705078
20
-2.50367390522786
30
0
41
1
10
38.4000710011637
20
-2.53470896570451
30
0
41
1
10
37.8340060485461
20
-2.61078008727389
30
0
41
1
10
37.456272303402
20
-2.63841807354129
30
0
41
1
10
36.8889687682329
20
-2.6412023767835
30
0
41
1
10
36.7001838144683
20
-2.63539073340024
30
0
41
1
10
36.3226266864941
20
-2.60999336628637
30
0
41
1
10
36.1338589022091
20
-2.59125401841237
30
0
41
1
10
35.7565795932745
20
-2.54344988644226
30
0
41
1
10
35.5674524601251
20
-2.51383663437227
30
0
41
1
10
35.1891256701467
20
-2.44162734532441
30
0
41
1
10
35.0002235745491
20
-2.39935402101816
30
0
41
1
10
34.6230418314794
20
-2.30494443014706
30
0
41
1
10
34.4346900675473
20
-2.25250749290848
30
0
41
1
10
34.0569335576294
20
-2.13644387767081
30
0
41
1
10
33.8673358093436
20
-2.07222896162062
30
0
41
1
10
33.4891585105597
20
-1.93580687003225
30
0
41
1
10
33.3006754901141
20
-1.86314204557138
30
0
41
1
10
32.9231838676728
20
-1.70966612724575
30
0
41
1
10
32.7342810612404
20
-1.62839684477504
30
0
41
1
10
32.3560061201489
20
-1.45828428109346
30
0
41
1
10
32.1667657156502
20
-1.36945423872368
30
0
41
1
10
31.7889317583906
20
-1.18664878535614
30
0
41
1
10
31.6001214065106
20
-1.0925093854072
30
0
41
1
10
31.2224518463596
20
-0.898912438813255
30
0
41
1
10
31.0337860582202
20
-0.799568461509949
30
0
41
1
10
30.6557541607859
20
-0.597434990086867
30
0
41
1
10
30.466296436226
20
-0.494961746883604
30
0
41
1
10
30.0884055243209
20
-0.288556437439752
30
0
41
1
10
29.8997382667651
20
-0.184420346936434
30
0
41
1
10
29.5225609333529
20
0.0248377351614408
30
0
41
1
10
29.3337179394005
20
0.12942970938974
30
0
41
1
10
28.9549843840845
20
0.337622110866363
30
0
41
1
10
28.7657502305041
20
0.440838363503588
30
0
41
1
10
28.3883729292997
20
0.645751236678421
30
0
41
1
10
28.1997773909417
20
0.746828402845836
30
0
41
1
10
27.8219631268497
20
0.944349655768491
30
0
41
1
10
27.6326469815404
20
1.04077423713167
30
0
41
1
10
27.2541296846999
20
1.22977416267531
30
0
41
1
10
27.0653613500687
20
1.32202725697635
30
0
41
1
10
26.6875975732855
20
1.49838408090423
30
0
41
1
10
26.4986909653715
20
1.58268401398752
30
0
41
1
10
26.1207602650647
20
1.74396803685536
30
0
41
1
10
25.931629177926
20
1.8218488889994
30
0
41
1
10
25.5532246927552
20
1.96740360659714
30
0
41
1
10
25.3642532429671
20
2.03509455691727
30
0
41
1
10
24.9865819664815
20
2.16016467711486
30
0
41
1
10
24.7981016690397
20
2.21842583988396
30
0
41
1
10
24.4202322493786
20
2.32471538701336
30
0
41
1
10
24.2305700545151
20
2.37227922185315
30
0
41
1
10
23.8522764044455
20
2.45482101036134
30
0
41
1
10
23.6636735303209
20
2.49019228076031
30
0
41
1
10
23.2863369482235
20
2.55078320697544
30
0
41
1
10
23.0974722304982
20
2.57531211274869
30
0
41
1
10
22.7190765237669
20
2.61088575560189
30
0
41
1
10
22.5295036482921
20
2.62160833419046
30
0
41
1
10
22.2557450306413
20
2.62980031000453
30
0
41
1
10
22.1709286703918
20
2.63118930001681
30
0
41
1
10
22.0861090618059
20
2.63133237465345
30
0
0
SPLINE
5
E6
100
AcDbEntity
8
1
62
256
6
ByLayer
370
18
48
1
60
0
100
AcDbSpline
70
4
71
3
72
20
73
16
40
0
40
0
40
0
40
0
40
0.142734777494382
40
0.142734777494382
40
0.285612314578651
40
0.285612314578651
40
0.428489851662921
40
0.428489851662921
40
0.571367388747191
40
0.571367388747191
40
0.714244925831461
40
0.714244925831461
40
0.85712246291573
40
0.85712246291573
40
1
40
1
40
1
40
1
41
1
10
10.4281567979019
20
-2.01697798457326
30
0
41
1
10
10.2392966934789
20
-2.08350545825539
30
0
41
1
10
10.0506102415416
20
-2.14490196752706
30
0
41
1
10
9.67169060777314
20
-2.25839147560157
30
0
41
1
10
9.48238414413964
20
-2.31007189535319
30
0
41
1
10
9.10426204468325
20
-2.40183083621437
30
0
41
1
10
8.91565440311203
20
-2.44176824220059
30
0
41
1
10
8.53782814999161
20
-2.5100719594212
30
0
41
1
10
8.34846698062952
20
-2.53882407043611
30
0
41
1
10
7.96916393849023
20
-2.58392349769395
30
0
41
1
10
7.78015927430292
20
-2.60007487468681
30
0
41
1
10
7.40258141330969
20
-2.62033601892418
30
0
41
1
10
7.21375904160729
20
-2.62462857948049
30
0
41
1
10
6.83570780654696
20
-2.62056443222534
30
0
41
1
10
6.6464375183325
20
-2.6117596028692
30
0
41
1
10
6.45694786753606
20
-2.59681785023696
30
0
0
SPLINE
5
E7
100
AcDbEntity
8
1
62
256
6
ByLayer
370
18
48
1
60
0
100
AcDbSpline
70
4
71
3
72
18
73
14
40
0
40
0
40
0
40
0
40
0.250000000000005
40
0.250000000000005
40
0.50000000000001
40
0.50000000000001
40
0.625000000000007
40
0.625000000000007
40
0.750000000000005
40
0.750000000000005
40
0.875000000000002
40
0.875000000000002
40
1
40
1
40
1
40
1
41
1
10
45.6274005658043
20
1.3747366600052
30
0
41
1
10
45.5859065818561
20
1.48640918173135
30
0
41
1
10
45.5440829453375
20
1.59776888653266
30
0
41
1
10
45.4603811972851
20
1.82043660320693
30
0
41
1
10
45.4183650414811
20
1.93172866514368
30
0
41
1
10
45.3548118185912
20
2.097712768994
30
0
41
1
10
45.3335153411142
20
2.15280487084624
30
0
41
1
10
45.2908942611465
20
2.26292986493687
30
0
41
1
10
45.2695751519417
20
2.31797432180414
30
0
41
1
10
45.2267774101746
20
2.42772740223614
30
0
41
1
10
45.2053295009281
20
2.48239583330357
30
0
41
1
10
45.1622118253561
20
2.59050925874672
30
0
41
1
10
45.1405426979094
20
2.64398232090954
30
0
41
1
10
45.1188569439899
20
2.69736739612901
30
0
0
SPLINE
5
E8
100
AcDbEntity
8
1
62
256
6
ByLayer
370
18
48
1
60
0
100
AcDbSpline
70
4
71
3
72
15
73
11
40
0
40
0
40
0
40
0
40
0.11598317477402
40
0.263319312311684
40
0.263319312311684
40
0.410655449849347
40
0.410655449849347
40
0.705327724924673
40
0.705327724924673
40
1
40
1
40
1
40
1
41
1
10
4.0279547675201
20
-2.75534452602659
30
0
41
1
10
4.02796212261194
20
-2.75527301625604
30
0
41
1
10
4.02797889687409
20
-2.74885439012502
30
0
41
1
10
4.02799594951912
20
-2.72835828139907
30
0
41
1
10
4.02801519016583
20
-2.69644894258985
30
0
41
1
10
4.02802494179014
20
-2.67584961365293
30
0
41
1
10
4.02805369689889
20
-2.60150885037595
30
0
41
1
10
4.02807233298799
20
-2.53542015696561
30
0
41
1
10
4.02810637558096
20
-2.37077731366807
30
0
41
1
10
4.02812185131955
20
-2.27097813574386
30
0
41
1
10
4.02813329466923
20
-2.15859562120949
30
0
0
SPLINE
5
E9
100
AcDbEntity
8
1
62
256
6
ByLayer
370
18
48
1
60
0
100
AcDbSpline
70
4
71
3
72
12
73
8
40
0
40
0
40
0
40
0
40
0.25
40
0.25
40
0.499999999999999
40
0.499999999999999
40
1
40
1
40
1
40
1
41
1
10
4.02813329466926
20
-2.15859562120949
30
0
41
1
10
4.0392863069988
20
-2.14077051644764
30
0
41
1
10
4.05391149369424
20
-2.1254618196231
30
0
41
1
10
4.08743920367559
20
-2.10264349942935
30
0
41
1
10
4.10666221441699
20
-2.0948573847063
30
0
41
1
10
4.16672587977374
20
-2.08281003908414
30
0
41
1
10
4.21018097627046
20
-2.08934688319093
30
0
41
1
10
4.25135697203368
20
-2.10546912060673
30
0
0
SPLINE
5
EA
100
AcDbEntity
8
1
62
256
6
ByLayer
370
18
48
1
60
0
100
AcDbSpline
70
4
71
3
72
72
73
68
40
0
40
0
40
0
40
0
40
0.0245797960481552
40
0.0245797960481552
40
0.0556540352860167
40
0.0556540352860167
40
0.0867282745238781
40
0.0867282745238781
40
0.11780251376174
40
0.11780251376174
40
0.148876752999601
40
0.148876752999601
40
0.179950992237462
40
0.179950992237462
40
0.211025231475324
40
0.211025231475324
40
0.242099470713185
40
0.242099470713185
40
0.273173709951047
40
0.273173709951047
40
0.304247949188908
40
0.304247949188908
40
0.335322188426769
40
0.335322188426769
40
0.366396427664631
40
0.366396427664631
40
0.397470666902492
40
0.397470666902492
40
0.428544906140354
40
0.428544906140354
40
0.459619145378215
40
0.459619145378215
40
0.490693384616077
40
0.490693384616077
40
0.521767623853938
40
0.521767623853938
40
0.5528418630918
40
0.5528418630918
40
0.583916102329661
40
0.583916102329661
40
0.614990341567522
40
0.614990341567522
40
0.646064580805384
40
0.646064580805384
40
0.677138820043245
40
0.677138820043245
40
0.708213059281107
40
0.708213059281107
40
0.739287298518968
40
0.739287298518968
40
0.77036153775683
40
0.77036153775683
40
0.801435776994691
40
0.801435776994691
40
0.832510016232553
40
0.832510016232553
40
0.863584255470414
40
0.863584255470414
40
0.894658494708275
40
0.894658494708275
40
0.925732733946137
40
0.925732733946137
40
0.956806973183998
40
0.956806973183998
40
0.98788121242186
40
0.98788121242186
40
1
40
1
40
1
40
1
41
1
10
7.14331141629819
20
2.62304599949357
30
0
41
1
10
7.29281003667694
20
2.62257745294707
30
0
41
1
10
7.44221731549189
20
2.61821327280043
30
0
41
1
10
7.78049003131577
20
2.60005187225937
30
0
41
1
10
7.96975522450543
20
2.58386505318325
30
0
41
1
10
8.34896015974144
20
2.53875353723174
30
0
41
1
10
8.53816183849239
20
2.51001759557619
30
0
41
1
10
8.91592454711923
20
2.44171343520983
30
0
41
1
10
9.10455271574079
20
2.40176773592739
30
0
41
1
10
9.48283206123043
20
2.30995574782
30
0
41
1
10
9.67250742454397
20
2.25815848937631
30
0
41
1
10
10.0513105108897
20
2.14468053320698
30
0
41
1
10
10.2400748690019
20
2.0832476017018
30
0
41
1
10
10.6180727622468
20
1.95006223441385
30
0
41
1
10
10.8071350620401
20
1.87853692069348
30
0
41
1
10
11.1854256548375
20
1.72700533566007
30
0
41
1
10
11.3747613740362
20
1.64694358910998
30
0
41
1
10
11.7532556217664
20
1.47969895854248
30
0
41
1
10
11.9423277920669
20
1.39227685480213
30
0
41
1
10
12.3202202174269
20
1.21144299346628
30
0
41
1
10
12.5089080014808
20
1.11786296762534
30
0
41
1
10
12.8868515231063
20
0.925971511330772
30
0
41
1
10
13.0766825319758
20
0.827392981215695
30
0
41
1
10
13.4551799980193
20
0.627119918527256
30
0
41
1
10
13.64403488675
20
0.525257420739592
30
0
41
1
10
14.0214968336168
20
0.319275739615478
30
0
41
1
10
14.2104836246043
20
0.215651654489193
30
0
41
1
10
14.5892313944448
20
0.0074474942848326
30
0
41
1
10
14.7789133534469
20
-0.0971425439786913
30
0
41
1
10
15.1568517421795
20
-0.305728310876361
30
0
41
1
10
15.3456791662153
20
-0.40938225579103
30
0
41
1
10
15.7237790168055
20
-0.613372543419302
30
0
41
1
10
15.9129496082298
20
-0.714087849023514
30
0
41
1
10
16.2915717702471
20
-0.913161611893656
30
0
41
1
10
16.4808115818793
20
-1.01140240393764
30
0
41
1
10
16.8589618850646
20
-1.20039278703638
30
0
41
1
10
17.0479265527558
20
-1.29167491382657
30
0
41
1
10
17.4257732346175
20
-1.46914453516089
30
0
41
1
10
17.6145738220723
20
-1.55551999001884
30
0
41
1
10
17.993587751396
20
-1.7198191559078
30
0
41
1
10
18.1826810238362
20
-1.7967503294208
30
0
41
1
10
18.5604258461418
20
-1.94265309899893
30
0
41
1
10
18.7489030415706
20
-2.01174743000033
30
0
41
1
10
19.1266798322742
20
-2.14117038484733
30
0
41
1
10
19.3161826376872
20
-2.20053035993723
30
0
41
1
10
19.6948642191389
20
-2.30725260975007
30
0
41
1
10
19.8836202347129
20
-2.35541548856804
30
0
41
1
10
20.2611838844942
20
-2.44182448081261
30
0
41
1
10
20.4501512183608
20
-2.47978076229609
30
0
41
1
10
20.8284247089382
20
-2.54168644898422
30
0
41
1
10
21.0179528850819
20
-2.56657716002948
30
0
41
1
10
21.3960555088993
20
-2.6054605703828
30
0
41
1
10
21.5850682133478
20
-2.61925068548695
30
0
41
1
10
21.9630024423694
20
-2.63286985461252
30
0
41
1
10
22.1519194406464
20
-2.63291474182407
30
0
41
1
10
22.5299598960205
20
-2.62158712056825
30
0
41
1
10
22.7195326545239
20
-2.61085195492336
30
0
41
1
10
23.0977518621531
20
-2.57527672543114
30
0
41
1
10
23.2865909401904
20
-2.55074810897048
30
0
41
1
10
23.6639833103361
20
-2.49013684242115
30
0
41
1
10
23.8526624591475
20
-2.45474776670761
30
0
41
1
10
24.2312269011002
20
-2.37212487932342
30
0
41
1
10
24.4207317933332
20
-2.32458289911128
30
0
41
1
10
24.7984139764604
20
-2.21832994772194
30
0
41
1
10
24.9868571682054
20
-2.16007864571401
30
0
41
1
10
25.2493633661292
20
-2.07313964436543
30
0
41
1
10
25.3230457790322
20
-2.04795930067956
30
0
41
1
10
25.3967642085783
20
-2.02199490107512
30
0
0
SPLINE
5
EB
100
AcDbEntity
8
1
62
256
6
ByLayer
370
18
48
1
60
0
100
AcDbSpline
70
4
71
3
72
24
73
20
40
0
40
0
40
0
40
0
40
0.194847510818591
40
0.194847510818591
40
0.295491571966267
40
0.295491571966267
40
0.396135633113944
40
0.396135633113944
40
0.496779694261619
40
0.496779694261619
40
0.597423755409295
40
0.597423755409295
40
0.698067816556972
40
0.698067816556972
40
0.798711877704648
40
0.798711877704648
40
0.899355938852324
40
0.899355938852324
40
1
40
1
40
1
40
1
41
1
10
37.1153289461435
20
2.64000801898962
30
0
41
1
10
37.4810223877038
20
2.63657836123042
30
0
41
1
10
37.8463419406363
20
2.60913941418465
30
0
41
1
10
38.4005872579514
20
2.53463074215617
30
0
41
1
10
38.5898368316314
20
2.50353545285742
30
0
41
1
10
38.9678761097855
20
2.43074647192063
30
0
41
1
10
39.1565961900447
20
2.38870179752848
30
0
41
1
10
39.5336303457591
20
2.29195129306763
30
0
41
1
10
39.7219735081937
20
2.23753648209964
30
0
41
1
10
40.0999791921349
20
2.11917115550827
30
0
41
1
10
40.2894806818571
20
2.05485942916519
30
0
41
1
10
40.6670760630046
20
1.91665463898579
30
0
41
1
10
40.8553353692352
20
1.84252265568014
30
0
41
1
10
41.2326407184288
20
1.68714257282809
30
0
41
1
10
41.4215146119932
20
1.60570491402413
30
0
41
1
10
41.7997134195809
20
1.43470643218967
30
0
41
1
10
41.9885963175334
20
1.34499950257876
30
0
41
1
10
42.3658457578142
20
1.16064476231881
30
0
41
1
10
42.5545521603754
20
1.06610536031431
30
0
41
1
10
42.7432519916805
20
0.968988237527071
30
0
0
SPLINE
5
EC
100
AcDbEntity
8
1
62
256
6
ByLayer
370
18
48
1
60
0
100
AcDbSpline
70
4
71
3
72
8
73
4
40
0
40
0
40
0
40
0
40
1
40
1
40
1
40
1
41
1
10
45.0782185253642
20
-2.63256487093187
30
0
41
1
10
45.0634345973408
20
-2.64002168558497
30
0
41
1
10
45.049934647027
20
-2.64378316173369
30
0
41
1
10
45.0377423121876
20
-2.64378126896173
30
0
0
SPLINE
5
ED
100
AcDbEntity
8
SK1
62
256
6
ByLayer
370
18
48
1
60
0
100
AcDbSpline
70
4
71
3
72
8
73
4
40
0
40
0
40
0
40
0
40
1
40
1
40
1
40
1
41
1
10
-35.4
20
1.2721289669162
30
0
41
1
10
-35.6037694491256
20
1.19884476776363
30
0
41
1
10
-35.8061051627009
20
1.12540168975997
30
0
41
1
10
-36
20
1.05106405443578
30
0
0
SPLINE
5
EE
100
AcDbEntity
8
SK1
62
256
6
ByLayer
370
18
48
1
60
0
100
AcDbSpline
70
4
71
3
72
14
73
10
40
0
40
0
40
0
40
0
40
0.125000000000002
40
0.125000000000002
40
0.250000000000004
40
0.250000000000004
40
0.500000000000004
40
0.500000000000004
40
1
40
1
40
1
40
1
41
1
10
-35.3
20
1.21489608583298
30
0
41
1
10
-35.3
20
1.22495683992273
30
0
41
1
10
-35.3017593723636
20
1.23358704686547
30
0
41
1
10
-35.3069353411979
20
1.24757594300758
30
0
41
1
10
-35.3102739075534
20
1.2530060414033
30
0
41
1
10
-35.3215583577555
20
1.26665189831147
30
0
41
1
10
-35.3303095934911
20
1.27180920988889
30
0
41
1
10
-35.358391202053
20
1.28146355932239
30
0
41
1
10
-35.378655954467
20
1.27980519753015
30
0
41
1
10
-35.4
20
1.2721289669162
30
0
0
SPLINE
5
EF
100
AcDbEntity
8
SK1
62
256
6
ByLayer
370
18
48
1
60
0
100
AcDbSpline
70
4
71
3
72
8
73
4
40
0
40
0
40
0
40
0
40
1
40
1
40
1
40
1
41
1
10
-36
20
-0.418632071302369
30
0
41
1
10
-35.8060540431149
20
-0.344274837162686
30
0
41
1
10
-35.6037430884363
20
-0.270841877544456
30
0
41
1
10
-35.4
20
-0.197567158821954
30
0
0
SPLINE
5
F0
100
AcDbEntity
8
SK1
62
256
6
ByLayer
370
18
48
1
60
0
100
AcDbSpline
70
4
71
3
72
14
73
10
40
0
40
0
40
0
40
0
40
0.500000000000001
40
0.500000000000001
40
0.750000000000001
40
0.750000000000001
40
0.875
40
0.875
40
1
40
1
40
1
40
1
41
1
10
-35.3999999999999
20
0.197567158822693
30
0
41
1
10
-35.3787677796885
20
0.189931145335692
30
0
41
1
10
-35.3584290958895
20
0.176330482622291
30
0
41
1
10
-35.3303626450498
20
0.144401707165201
30
0
41
1
10
-35.3215171954455
20
0.131923100208439
30
0
41
1
10
-35.3102812516991
20
0.108454391686166
30
0
41
1
10
-35.3068890218584
20
0.0997968250220822
30
0
41
1
10
-35.3017585680987
20
0.0806391973974314
30
0
41
1
10
-35.3
20
0.0699159944611552
30
0
41
1
10
-35.3
20
0.0588405564733989
30
0
0
SPLINE
5
F1
100
AcDbEntity
8
SK1
62
256
6
ByLayer
370
18
48
1
60
0
100
AcDbSpline
70
4
71
3
72
8
73
4
40
0
40
0
40
0
40
0
40
1
40
1
40
1
40
1
41
1
10
-36
20
0.418632071302341
30
0
41
1
10
-35.8060540431149
20
0.344274837162686
30
0
41
1
10
-35.6037430884363
20
0.270841877544456
30
0
41
1
10
-35.4
20
0.197567158821926
30
0
0
SPLINE
5
F2
100
AcDbEntity
8
SK1
62
256
6
ByLayer
370
18
48
1
60
0
100
AcDbSpline
70
4
71
3
72
14
73
10
40
0
40
0
40
0
40
0
40
0.499999999999998
40
0.499999999999998
40
0.749999999999999
40
0.749999999999999
40
0.875
40
0.875
40
1
40
1
40
1
40
1
41
1
10
-35.3999999999999
20
-0.197567158822721
30
0
41
1
10
-35.3787677796885
20
-0.18993114533572
30
0
41
1
10
-35.3584290958895
20
-0.176330482622319
30
0
41
1
10
-35.3303626450498
20
-0.144401707165201
30
0
41
1
10
-35.3215171954455
20
-0.131923100208439
30
0
41
1
10
-35.3102812516991
20
-0.108454391686195
30
0
41
1
10
-35.3068890218584
20
-0.0997968250221106
30
0
41
1
10
-35.3017585680987
20
-0.0806391973974598
30
0
41
1
10
-35.3
20
-0.0699159944611836
30
0
41
1
10
-35.3
20
-0.0588405564734273
30
0
0
LINE
5
76
100
AcDbEntity
8
81
62
256
6
ByLayer
370
18
48
1
60
0
100
AcDbLine
10
46
20
0
30
0
11
51
21
0
31
0
39
0
210
0
220
0
230
1
0
LINE
5
77
100
AcDbEntity
8
1
62
256
6
ByLayer
370
18
48
1
60
0
100
AcDbLine
10
4.027949
20
2.755345
30
0
11
0.853826
21
2.753441
31
0
39
0
210
0
220
0
230
1
0
LINE
5
79
100
AcDbEntity
8
1
62
256
6
ByLayer
370
18
48
1
60
0
100
AcDbLine
10
14.508693
20
2.761634
30
0
11
14.013571
21
2.761336
31
0
39
0
210
0
220
0
230
1
0
LINE
5
7A
100
AcDbEntity
8
1
62
256
6
ByLayer
370
18
48
1
60
0
100
AcDbLine
10
44.439178
20
2.779592
30
0
11
43.952778
21
2.7793
31
0
39
0
210
0
220
0
230
1
0
LINE
5
7B
100
AcDbEntity
8
1
62
256
6
ByLayer
370
18
48
1
60
0
100
AcDbLine
10
43.952778
20
-2.7793
30
0
11
44.439051
21
-2.779592
31
0
39
0
210
0
220
0
230
1
0
LINE
5
7C
100
AcDbEntity
8
1
62
256
6
ByLayer
370
18
48
1
60
0
100
AcDbLine
10
28.982815
20
-2.770318
30
0
11
29.473395
21
-2.770612
31
0
39
0
210
0
220
0
230
1
0
LINE
5
7D
100
AcDbEntity
8
1
62
256
6
ByLayer
370
18
48
1
60
0
100
AcDbLine
10
14.013571
20
-2.761336
30
0
11
14.508285
21
-2.761633
31
0
39
0
210
0
220
0
230
1
0
LINE
5
7E
100
AcDbEntity
8
1
62
256
6
ByLayer
370
18
48
1
60
0
100
AcDbLine
10
0.853826
20
-2.753441
30
0
11
4.027949
21
-2.755345
31
0
39
0
210
0
220
0
230
1
0
LINE
5
7F
100
AcDbEntity
8
SK1
62
256
6
ByLayer
370
18
48
1
60
0
100
AcDbLine
10
-35.278312
20
3
30
0
11
-36
21
1.75
31
0
39
0
210
0
220
0
230
1
0
LINE
5
81
100
AcDbEntity
8
SK1
62
256
6
ByLayer
370
18
48
1
60
0
100
AcDbLine
10
-36
20
-1.75
30
0
11
-35.278312
21
-3
31
0
39
0
210
0
220
0
230
1
0
LINE
5
82
100
AcDbEntity
8
SK1
62
256
6
ByLayer
370
18
48
1
60
0
100
AcDbLine
10
0
20
3
30
0
11
-35.278312
21
3
31
0
39
0
210
0
220
0
230
1
0
LINE
5
83
100
AcDbEntity
8
SK1
62
256
6
ByLayer
370
18
48
1
60
0
100
AcDbLine
10
-35.278312
20
-3
30
0
11
0
21
-3
31
0
39
0
210
0
220
0
230
1
0
LINE
5
84
100
AcDbEntity
8
1
62
256
6
ByLayer
370
18
48
1
60
0
100
AcDbLine
10
29.47358
20
2.770612
30
0
11
28.982815
21
2.770318
31
0
39
0
210
0
220
0
230
1
0
LINE
5
85
100
AcDbEntity
8
SK4
62
256
6
ByLayer
370
18
48
0.05
60
0
100
AcDbLine
10
51
20
0
30
0
11
-41
21
0
31
0
39
0
210
0
220
0
230
1
0
LINE
5
87
100
AcDbEntity
8
4
62
256
6
ByLayer
370
18
48
0.05
60
0
100
AcDbLine
10
46
20
0
30
0
11
0
21
0
31
0
39
0
210
0
220
0
230
1
0
LINE
5
89
100
AcDbEntity
8
80
62
256
6
ByLayer
370
18
48
1
60
0
100
AcDbLine
10
0
20
0
30
0
11
-5
21
0
31
0
39
0
210
0
220
0
230
1
0
LINE
5
8A
100
AcDbEntity
8
1
62
256
6
ByLayer
370
18
48
1
60
0
100
AcDbLine
10
45.931776
20
0.268872
30
0
11
45.864317
21
0.583497
31
0
39
0
210
0
220
0
230
1
0
LINE
5
8B
100
AcDbEntity
8
1
62
256
6
ByLayer
370
13
48
1
60
0
100
AcDbLine
10
45.864317
20
0.583497
30
0
11
45.401509
21
0.583497
31
0
39
0
210
0
220
0
230
1
0
LINE
5
8C
100
AcDbEntity
8
1
62
256
6
ByLayer
370
13
48
1
60
0
100
AcDbLine
10
45.401509
20
0.583497
30
0
11
45.931776
21
0.268872
31
0
39
0
210
0
220
0
230
1
0
LINE
5
8D
100
AcDbEntity
8
1
62
256
6
ByLayer
370
18
48
1
60
0
100
AcDbLine
10
46
20
0
30
0
11
45.037742
21
-2.643781
31
0
39
0
210
0
220
0
230
1
0
LINE
5
8E
100
AcDbEntity
8
1
62
256
6
ByLayer
370
18
48
1
60
0
100
AcDbLine
10
44.613113
20
-1.481965
30
0
11
45.895273
21
-0.157477
31
0
39
0
210
0
220
0
230
1
0
LINE
5
8F
100
AcDbEntity
8
1
62
256
6
ByLayer
370
18
48
1
60
0
100
AcDbLine
10
46
20
0
30
0
11
45.995454
21
-0.028201
31
0
39
0
210
0
220
0
230
1
0
LINE
5
90
100
AcDbEntity
8
1
62
256
6
ByLayer
370
18
48
1
60
0
100
AcDbLine
10
45.995454
20
0.028201
30
0
11
46
21
0
31
0
39
0
210
0
220
0
230
1
0
LINE
5
91
100
AcDbEntity
8
1
62
256
6
ByLayer
370
13
48
1
60
0
100
AcDbLine
10
0.853826
20
2.753441
30
0
11
0.853826
21
-2.753441
31
0
39
0
210
0
220
0
230
1
0
LINE
5
92
100
AcDbEntity
8
1
62
256
6
ByLayer
370
18
48
1
60
0
100
AcDbLine
10
45.931776
20
-0.268872
30
0
11
45.864317
21
-0.583497
31
0
39
0
210
0
220
0
230
1
0
LINE
5
93
100
AcDbEntity
8
1
62
256
6
ByLayer
370
13
48
1
60
0
100
AcDbLine
10
45.211602
20
0.248167
30
0
11
45.895273
21
-0.157477
31
0
39
0
210
0
220
0
230
1
0
LINE
5
94
100
AcDbEntity
8
1
62
256
6
ByLayer
370
13
48
1
60
0
100
AcDbLine
10
0.426673
20
2.87672
30
0
11
0.426673
21
-2.87672
31
0
39
0
210
0
220
0
230
1
0
LINE
5
95
100
AcDbEntity
8
1
62
256
6
ByLayer
370
18
48
1
60
0
100
AcDbLine
10
0
20
-3
30
0
11
0
21
3
31
0
39
0
210
0
220
0
230
1
0
LINE
5
96
100
AcDbEntity
8
1
62
256
6
ByLayer
370
13
48
1
60
0
100
AcDbLine
10
4.125353
20
1.585418
30
0
11
4.120696
21
1.577852
31
0
39
0
210
0
220
0
230
1
0
LINE
5
97
100
AcDbEntity
8
SK1
62
256
6
ByLayer
370
18
48
1
60
0
100
AcDbLine
10
-35.3
20
-0.058841
30
0
11
-35.3
21
1.214896
31
0
39
0
210
0
220
0
230
1
0
LINE
5
98
100
AcDbEntity
8
SK1
62
256
6
ByLayer
370
18
48
1
60
0
100
AcDbLine
10
-36
20
-0.418632
30
0
11
-36
21
-1.75
31
0
39
0
210
0
220
0
230
1
0
LINE
5
99
100
AcDbEntity
8
SK1
62
256
6
ByLayer
370
13
48
1
60
0
100
AcDbLine
10
-35.4
20
1.272129
30
0
11
-35.4
21
0.197567
31
0
39
0
210
0
220
0
230
1
0
LINE
5
9A
100
AcDbEntity
8
SK1
62
256
6
ByLayer
370
18
48
1
60
0
100
AcDbLine
10
-36
20
1.75
30
0
11
-36
21
1.051064
31
0
39
0
210
0
220
0
230
1
0
LINE
5
9B
100
AcDbEntity
8
SK1
62
256
6
ByLayer
370
18
48
1
60
0
100
AcDbLine
10
-36
20
1.051064
30
0
11
-36
21
0.418632
31
0
39
0
210
0
220
0
230
1
0
LINE
5
9C
100
AcDbEntity
8
SK1
62
256
6
ByLayer
370
18
48
1
60
0
100
AcDbLine
10
0
20
-3
30
0
11
0
21
3
31
0
39
0
210
0
220
0
230
1
0
LINE
5
9D
100
AcDbEntity
8
SK1
62
256
6
ByLayer
370
18
48
1
60
0
100
AcDbLine
10
-35.278312
20
3
30
0
11
-35.278312
21
-3
31
0
39
0
210
0
220
0
230
1
0
MTEXT
5
F3
100
AcDbEntity
8
SK6
62
256
6
ByLayer
370
13
48
1
60
0
100
AcDbMText
10
7.129169
20
35.162694
30
0
210
0
220
0
230
1
1
\W0.7542;R840-0556-50-A1A1220
40
3.5
41
0
44
1.084337
50
0
71
8
72
5
7
iso_b_vert
0
DIMENSION
5
100
100
AcDbEntity
8
SK2
62
256
6
ByLayer
370
13
48
1
60
0
100
AcDbDimension
2
DimnDraft3D1
10
45.06
20
-12.993398
30
0
11
21.310059
21
-12.993398
31
0
70
32
71
5
72
1
41
1
210
0
220
0
230
1
3
Standard
100
AcDbAlignedDimension
13
0
23
-1.5875
33
0
14
45.06
24
-4.3675
34
0
50
0
100
AcDbRotatedDimension
1001
ACAD
1000
DSTYLE
1002
{
1070
   279
1070
     0
1070
   172
1070
     1
1070
   173
1070
     1
1070
   340
1005
F4
1070
   271
1070
     2
1070
   272
1070
     2
1070
    77
1070
     1
1070
    73
1070
     0
1070
   171
1070
     3
1070
   274
1070
     4
1070
   177
1070
    35
1070
   176
1070
    35
1070
   178
1070
    35
1070
    48
1040
-0.005
1070
    41
1041
3.5
1070
   147
1041
1.75
1070
    42
1041
1.5875
1070
    44
1041
2.0
1070
   140
1041
3.5
1070
   343
1005
0
1070
   344
1005
0
1002
}
0
DIMENSION
5
10A
100
AcDbEntity
8
SK2
62
256
6
ByLayer
370
13
48
1
60
0
100
AcDbDimension
2
DimnDraft3D2
10
46
20
-31.692985
30
0
11
5.4013
21
-31.692985
31
0
70
32
71
5
72
1
41
1
210
0
220
0
230
1
3
Standard
100
AcDbAlignedDimension
13
-36
23
-4.5875
33
0
14
46
24
-1.5875
34
0
50
0
100
AcDbRotatedDimension
1001
ACAD
1000
DSTYLE
1002
{
1070
   279
1070
     0
1070
   172
1070
     1
1070
   173
1070
     1
1070
   340
1005
F4
1070
   271
1070
     2
1070
   272
1070
     2
1070
    77
1070
     1
1070
    73
1070
     0
1070
   171
1070
     3
1070
   274
1070
     4
1070
   177
1070
    35
1070
   176
1070
    35
1070
   178
1070
    35
1070
    48
1040
-0.005
1070
    41
1041
3.5
1070
   147
1041
1.75
1070
    42
1041
1.5875
1070
    44
1041
2.0
1070
   140
1041
3.5
1070
   343
1005
0
1070
   344
1005
0
1002
}
0
DIMENSION
5
114
100
AcDbEntity
8
SK2
62
256
6
ByLayer
370
13
48
1
60
0
100
AcDbDimension
2
DimnDraft3D3
10
46
20
14.389119
30
0
11
31.63
21
14.389119
31
0
70
32
71
5
72
1
41
1
210
0
220
0
230
1
3
Standard
100
AcDbAlignedDimension
13
17.26
23
4.3675
33
0
14
46
24
1.5875
34
0
50
0
100
AcDbRotatedDimension
1001
ACAD
1000
DSTYLE
1002
{
1070
   279
1070
     0
1070
   172
1070
     1
1070
   173
1070
     1
1070
   340
1005
F4
1070
   271
1070
     2
1070
   272
1070
     2
1070
    77
1070
     1
1070
    73
1070
     0
1070
   171
1070
     3
1070
   274
1070
     4
1070
   177
1070
    35
1070
   176
1070
    35
1070
   178
1070
    35
1070
    48
1040
-0.005
1070
    41
1041
3.5
1070
   147
1041
1.75
1070
    42
1041
1.5875
1070
    44
1041
2.0
1070
   140
1041
3.5
1070
   343
1005
0
1070
   344
1005
0
1002
}
0
DIMENSION
5
11E
100
AcDbEntity
8
SK2
62
256
6
ByLayer
370
13
48
1
60
0
100
AcDbDimension
2
DimnDraft3D4
10
45.06
20
-15.582503
30
0
11
55.981425
21
-15.582503
31
0
70
32
71
5
72
1
41
1
210
0
220
0
230
1
3
Standard
100
AcDbAlignedDimension
13
46
23
-1.5875
33
0
14
45.06
24
-4.3675
34
0
50
0
100
AcDbRotatedDimension
1001
ACAD
1000
DSTYLE
1002
{
1070
   279
1070
     0
1070
   172
1070
     1
1070
   173
1070
     1
1070
   340
1005
F4
1070
   271
1070
     2
1070
   272
1070
     2
1070
    77
1070
     1
1070
    73
1070
     0
1070
   171
1070
     3
1070
   274
1070
     4
1070
   177
1070
    35
1070
   176
1070
    35
1070
   178
1070
    35
1070
    48
1040
-0.005
1070
    41
1041
3.5
1070
   147
1041
1.75
1070
    42
1041
1.5875
1070
    44
1041
2.0
1070
   140
1041
3.5
1070
   343
1005
0
1070
   344
1005
0
1002
}
0
DIMENSION
5
128
100
AcDbEntity
8
SK2
62
256
6
ByLayer
370
13
48
1
60
0
100
AcDbDimension
2
DimnDraft3D5
10
45.06
20
-21.343428
30
0
11
2.320676
21
-21.343428
31
0
70
32
71
5
72
1
41
1
210
0
220
0
230
1
3
Standard
100
AcDbAlignedDimension
13
-36
23
-4.5875
33
0
14
45.06
24
-4.3675
34
0
50
0
100
AcDbRotatedDimension
1001
ACAD
1000
DSTYLE
1002
{
1070
   279
1070
     0
1070
   172
1070
     1
1070
   173
1070
     1
1070
   340
1005
F4
1070
   271
1070
     2
1070
   272
1070
     2
1070
    77
1070
     1
1070
    73
1070
     0
1070
   171
1070
     3
1070
   274
1070
     4
1070
   177
1070
    35
1070
   176
1070
    35
1070
   178
1070
    35
1070
    48
1040
-0.005
1070
    41
1041
3.5
1070
   147
1041
1.75
1070
    42
1041
1.5875
1070
    44
1041
2.0
1070
   140
1041
3.5
1070
   343
1005
0
1070
   344
1005
0
1002
}
0
DIMENSION
5
133
100
AcDbEntity
8
SK2
62
256
6
ByLayer
370
13
48
1
60
0
100
AcDbDimension
2
DimnDraft3D6
10
-46.625163
20
3
30
0
11
-47.250163
21
21.47418
31
0
70
33
71
5
72
1
41
1
210
0
220
0
230
1
3
Standard
100
AcDbAlignedDimension
13
-37.5875
23
-3
33
0
14
-37.5875
24
3
34
0
1001
ACAD
1000
DSTYLE
1002
{
1070
   279
1070
     0
1070
    74
1070
     0
1070
   173
1070
     1
1070
   340
1005
F4
1070
   271
1070
     3
1070
   272
1070
     2
1070
    77
1070
     1
1070
    73
1070
     0
1070
   171
1070
     3
1070
   274
1070
     4
1070
   177
1070
    35
1070
   176
1070
    35
1070
   178
1070
    35
1070
    48
1040
-0.005
1070
    41
1041
3.5
1070
   147
1041
1.75
1070
    42
1041
1.5875
1070
    44
1041
2.0
1070
   140
1041
3.5
1070
   343
1005
0
1070
   344
1005
0
1002
}
0
DIMENSION
5
13E
100
AcDbEntity
8
2
62
256
6
ByLayer
370
13
48
1
60
0
100
AcDbDimension
2
DimnDraft3D7
10
60.083343
20
2.78
30
0
11
55.458343
21
19.847266
31
0
70
33
71
5
72
1
41
1
210
0
220
0
230
1
3
Standard
100
AcDbAlignedDimension
13
46.6475
23
-2.78
33
0
14
46.6475
24
2.78
34
0
1001
ACAD
1000
DSTYLE
1002
{
1070
   279
1070
     0
1070
    74
1070
     0
1070
   173
1070
     1
1070
   340
1005
F4
1070
   271
1070
     3
1070
   272
1070
     2
1070
    77
1070
     1
1070
    73
1070
     0
1070
   171
1070
     3
1070
   274
1070
     4
1070
   177
1070
    35
1070
   176
1070
    35
1070
   178
1070
    35
1070
    48
1040
-0.005
1070
    41
1041
3.5
1070
   147
1041
1.75
1070
    42
1041
1.5875
1070
    44
1041
2.0
1070
   140
1041
3.5
1070
   343
1005
0
1070
   344
1005
0
1002
}
0
ENDSEC
0
SECTION
2
OBJECTS
0
DICTIONARY
5
1a9
330
0
100
AcDbDictionary
280
0
281
1
3
ACAD_GROUP
350
1aa
3
ACAD_MLINESTYLE
350
1ab
0
DICTIONARY
5
1aa
330
0
100
AcDbDictionary
280
0
281
1
0
DICTIONARY
5
1ab
330
0
100
AcDbDictionary
280
0
281
1
3
Standard
350
18
0
MLINESTYLE
5
18
330
1ab
100
AcDbMlineStyle
2
Standard
70
0
3

62
256
51
90
52
90
71
2
49
-0.5
62
256
6
ByLayer
49
0.5
62
256
6
ByLayer
0
RASTERVARIABLES
5
197
330

100
AcDbRasterVariables
90
0
70
1
71
1
72
1
0
ENDSEC
0
EOF
