0
SECTION
2
HEADER
9
$ACADVER
1
AC1015
9
$DWGCODEPAGE
3
ANSI_1252
9
$HANDSEED
5
1b6
9
$ANGBASE
50
0
9
$ANGDIR
70
0
9
$ATTMODE
70
1
9
$AUNITS
70
0
9
$AUPREC
70
0
9
$CECOLOR
62
256
9
$CELTSCALE
40
1
9
$CELTYPE
6
ByLayer
9
$CELWEIGHT
370
18
9
$CLAYER
8
0
9
$CMLJUST
70
0
9
$CMLSCALE
40
1
9
$CMLSTYLE
2
Standard
9
$DIMSTYLE
2
Standard
9
$TEXTSIZE
40
0.2
9
$TEXTSTYLE
7
Standard
9
$LUNITS
70
2
9
$LUPREC
70
4
9
$EXTNAMES
290
1
9
$INSUNITS
70
4
9
$LTSCALE
40
1
9
$LWDISPLAY
290
1
9
$PDMODE
70
0
9
$PDSIZE
40
0
9
$PLINEGEN
70
0
0
ENDSEC
0
SECTION
2
CLASSES
0
CLASS
1
RASTERVARIABLES
2
AcDbRasterVariables
3
ISM
90
0
280
0
281
0
0
ENDSEC
0
SECTION
2
TABLES
0
TABLE
2
VPORT
5
1ac
100
AcDbSymbolTable
0
VPORT
5
1
100
AcDbSymbolTableRecord
100
AcDbViewportTableRecord
2
*Active
70
0
10
0
20
0
11
1
21
1
12
-1
22
1
13
0
23
0
14
0.5
24
0.5
15
10
25
10
16
0
26
0
36
1
17
0
27
0
37
0
0
ENDTAB
0
TABLE
2
LTYPE
5
1ad
100
AcDbSymbolTable
0
LTYPE
5
14
100
AcDbSymbolTableRecord
100
AcDbLinetypeTableRecord
70
0
2
ByBlock
3

72
65
73
0
40
0
0
LTYPE
5
15
100
AcDbSymbolTableRecord
100
AcDbLinetypeTableRecord
70
0
2
ByLayer
3

72
65
73
0
40
0
0
LTYPE
5
16
100
AcDbSymbolTableRecord
100
AcDbLinetypeTableRecord
70
0
2
CONTINUOUS
3
Solid line
72
65
73
0
40
0
0
LTYPE
5
6A
100
AcDbSymbolTableRecord
100
AcDbLinetypeTableRecord
70
0
2
CENTER
3
____ _ ____ _ ____ _ ____
72
65
73
4
40
47.5
49
22
74
0
49
-8.5
74
0
49
8.5
74
0
49
-8.5
74
0
0
LTYPE
5
6B
100
AcDbSymbolTableRecord
100
AcDbLinetypeTableRecord
70
0
2
DASHED
3
__ __ __ __ __ __ __ __ __
72
65
73
2
40
25.72
49
12.86
74
0
49
-12.86
74
0
0
ENDTAB
0
TABLE
2
LAYER
5
1ae
100
AcDbSymbolTable
0
LAYER
5
10
100
AcDbSymbolTableRecord
100
AcDbLayerTableRecord
2
0
70
0
62
7
6
CONTINUOUS
290
1
370
-3
390
0
0
LAYER
5
6D
100
AcDbSymbolTableRecord
100
AcDbLayerTableRecord
2
81
70
0
62
-3
6
CONTINUOUS
290
1
370
-3
390
0
0
LAYER
5
6F
100
AcDbSymbolTableRecord
100
AcDbLayerTableRecord
2
80
70
0
62
-6
6
CONTINUOUS
290
1
370
-3
390
0
0
LAYER
5
74
100
AcDbSymbolTableRecord
100
AcDbLayerTableRecord
2
2
70
0
62
7
6
CONTINUOUS
290
1
370
-3
390
0
0
LAYER
5
78
100
AcDbSymbolTableRecord
100
AcDbLayerTableRecord
2
1
70
0
62
4
6
CONTINUOUS
290
1
370
-3
390
0
0
LAYER
5
88
100
AcDbSymbolTableRecord
100
AcDbLayerTableRecord
2
4
70
0
62
-2
6
CENTER
290
1
370
-3
390
0
0
LAYER
5
198
100
AcDbSymbolTableRecord
100
AcDbLayerTableRecord
2
SK2
70
0
62
7
6
CONTINUOUS
290
1
370
-3
390
0
0
LAYER
5
199
100
AcDbSymbolTableRecord
100
AcDbLayerTableRecord
2
SK1
70
0
62
4
6
CONTINUOUS
290
1
370
-3
390
0
0
LAYER
5
19a
100
AcDbSymbolTableRecord
100
AcDbLayerTableRecord
2
SK4
70
0
62
2
6
CENTER
290
1
370
-3
390
0
0
LAYER
5
19b
100
AcDbSymbolTableRecord
100
AcDbLayerTableRecord
2
SK6
70
0
62
5
6
CONTINUOUS
290
1
370
-3
390
0
0
ENDTAB
0
TABLE
2
STYLE
5
1af
100
AcDbSymbolTable
0
STYLE
5
11
100
AcDbSymbolTableRecord
100
AcDbTextStyleTableRecord
2
Standard
3
txt
70
0
71
0
40
0
41
1
42
0
50
0
0
STYLE
5
F4
100
AcDbSymbolTableRecord
100
AcDbTextStyleTableRecord
2
iso_b_vert
3
simplex.shx
70
0
71
0
40
0
41
1
42
0
50
0
0
STYLE
5
F5
100
AcDbSymbolTableRecord
100
AcDbTextStyleTableRecord
2
DWGDirectTextStyle
3
simplex
70
0
71
0
40
0
41
1
42
0
50
0
0
ENDTAB
0
TABLE
2
DIMSTYLE
5
1b0
100
AcDbSymbolTable
100
AcDbDimStyleTable
0
DIMSTYLE
105
27
100
AcDbSymbolTableRecord
100
AcDbDimStyleTableRecord
2
Standard
70
0
3
<>
41
0.18
42
0.0625
44
0.18
140
0.18
147
0.09
73
0
74
0
77
1
271
2
275
0
278
52
280
0
340
11
0
ENDTAB
0
TABLE
2
VIEW
5
1b1
100
AcDbSymbolTable
0
ENDTAB
0
TABLE
2
UCS
5
1b2
100
AcDbSymbolTable
0
ENDTAB
0
TABLE
2
APPID
5
1b3
100
AcDbSymbolTable
0
APPID
5
12
100
AcDbSymbolTableRecord
100
AcDbRegAppTableRecord
2
ACAD
70
0
0
ENDTAB
0
TABLE
2
BLOCK_RECORD
5
1b4
100
AcDbSymbolTable
0
BLOCK_RECORD
5
1F
100
AcDbSymbolTableRecord
100
AcDbBlockTableRecord
2
*Model_Space
340
0
70
0
0
BLOCK_RECORD
5
1B
100
AcDbSymbolTableRecord
100
AcDbBlockTableRecord
2
*Paper_Space
340
0
70
0
0
BLOCK_RECORD
5
23
100
AcDbSymbolTableRecord
100
AcDbBlockTableRecord
2
*Paper_Space0
340
0
70
0
0
BLOCK_RECORD
5
F7
100
AcDbSymbolTableRecord
100
AcDbBlockTableRecord
2
DimnDraft3D1
340
0
70
0
0
BLOCK_RECORD
5
101
100
AcDbSymbolTableRecord
100
AcDbBlockTableRecord
2
DimnDraft3D2
340
0
70
0
0
BLOCK_RECORD
5
10B
100
AcDbSymbolTableRecord
100
AcDbBlockTableRecord
2
DimnDraft3D3
340
0
70
0
0
BLOCK_RECORD
5
115
100
AcDbSymbolTableRecord
100
AcDbBlockTableRecord
2
DimnDraft3D4
340
0
70
0
0
BLOCK_RECORD
5
11F
100
AcDbSymbolTableRecord
100
AcDbBlockTableRecord
2
DimnDraft3D5
340
0
70
0
0
BLOCK_RECORD
5
129
100
AcDbSymbolTableRecord
100
AcDbBlockTableRecord
2
DimnDraft3D6
340
0
70
0
0
BLOCK_RECORD
5
134
100
AcDbSymbolTableRecord
100
AcDbBlockTableRecord
2
DimnDraft3D7
340
0
70
0
0
ENDTAB
0
ENDSEC
0
SECTION
2
BLOCKS
0
BLOCK
5
20
100
AcDbEntity
8
0
100
AcDbBlockBegin
2
*Model_Space
70
0
10
0
20
0
30
0
3
*Model_Space
0
ENDBLK
5
21
100
AcDbEntity
8
0
100
AcDbBlockEnd
0
BLOCK
5
1C
100
AcDbEntity
8
0
100
AcDbBlockBegin
2
*Paper_Space
70
0
10
0
20
0
30
0
3
*Paper_Space
0
ENDBLK
5
1D
100
AcDbEntity
8
0
100
AcDbBlockEnd
0
BLOCK
5
24
100
AcDbEntity
8
0
100
AcDbBlockBegin
2
*Paper_Space0
70
0
10
0
20
0
30
0
3
*Paper_Space0
0
ENDBLK
5
25
100
AcDbEntity
8
0
100
AcDbBlockEnd
0
BLOCK
5
FE
100
AcDbEntity
8
0
100
AcDbBlockBegin
2
DimnDraft3D1
70
0
10
0
20
0
30
0
3
DimnDraft3D1
0
MTEXT
5
F8
100
AcDbEntity
8
SK2
62
256
6
ByLayer
370
13
48
1
60
0
100
AcDbMText
10
16.677164
20
-12.113398
30
0
210
0
220
0
230
1
1
\W0.7581;45,06
40
3.5
41
0
44
1.084337
50
0
71
7
72
5
7
iso_b_vert
0
LINE
5
F9
100
AcDbEntity
8
SK2
62
256
6
ByLayer
370
13
48
1
60
0
100
AcDbLine
10
0
20
-1.5875
30
0
11
0
21
-14.988398
31
0
39
0
210
0
220
0
230
1
0
LINE
5
FA
100
AcDbEntity
8
SK2
62
256
6
ByLayer
370
13
48
1
60
0
100
AcDbLine
10
45.06
20
-4.3625
30
0
11
45.06
21
-14.988398
31
0
39
0
210
0
220
0
230
1
0
LINE
5
FB
100
AcDbEntity
8
SK2
62
256
6
ByLayer
370
13
48
1
60
0
100
AcDbLine
10
0
20
-12.988398
30
0
11
45.06
21
-12.988398
31
0
39
0
210
0
220
0
230
1
0
SOLID
5
FC
100
AcDbEntity
8
SK2
62
256
6
ByLayer
370
13
48
1
60
0
100
AcDbTrace
10
0
20
-12.988398
30
0
11
3.499998
21
-12.527615
31
0
12
3.500002
22
-13.449182
32
0
13
0
23
-12.988398
33
0
39
0
210
0
220
0
230
1
0
SOLID
5
FD
100
AcDbEntity
8
SK2
62
256
6
ByLayer
370
13
48
1
60
0
100
AcDbTrace
10
45.06
20
-12.988398
30
0
11
41.560002
21
-13.449182
31
0
12
41.559998
22
-12.527615
32
0
13
45.06
23
-12.988398
33
0
39
0
210
0
220
0
230
1
0
ENDBLK
5
FF
100
AcDbEntity
8
0
100
AcDbBlockEnd
0
BLOCK
5
108
100
AcDbEntity
8
0
100
AcDbBlockBegin
2
DimnDraft3D2
70
0
10
0
20
0
30
0
3
DimnDraft3D2
0
MTEXT
5
102
100
AcDbEntity
8
SK2
62
256
6
ByLayer
370
13
48
1
60
0
100
AcDbMText
10
0.952616
20
-30.817985
30
0
210
0
220
0
230
1
1
\W0.7317;82,00
40
3.5
41
0
44
1.084337
50
0
71
7
72
5
7
iso_b_vert
0
LINE
5
103
100
AcDbEntity
8
SK2
62
256
6
ByLayer
370
13
48
1
60
0
100
AcDbLine
10
-36
20
-4.5875
30
0
11
-36
21
-33.692985
31
0
39
0
210
0
220
0
230
1
0
LINE
5
104
100
AcDbEntity
8
SK2
62
256
6
ByLayer
370
13
48
1
60
0
100
AcDbLine
10
46
20
-1.5875
30
0
11
46
21
-33.692985
31
0
39
0
210
0
220
0
230
1
0
LINE
5
105
100
AcDbEntity
8
SK2
62
256
6
ByLayer
370
13
48
1
60
0
100
AcDbLine
10
-36
20
-31.692985
30
0
11
46
21
-31.692985
31
0
39
0
210
0
220
0
230
1
0
SOLID
5
106
100
AcDbEntity
8
SK2
62
256
6
ByLayer
370
13
48
1
60
0
100
AcDbTrace
10
-36
20
-31.692985
30
0
11
-32.500002
21
-31.232202
31
0
12
-32.499998
22
-32.153769
32
0
13
-36
23
-31.692985
33
0
39
0
210
0
220
0
230
1
0
SOLID
5
107
100
AcDbEntity
8
SK2
62
256
6
ByLayer
370
13
48
1
60
0
100
AcDbTrace
10
46
20
-31.692985
30
0
11
42.500002
21
-32.153769
31
0
12
42.499998
22
-31.232202
32
0
13
46
23
-31.692985
33
0
39
0
210
0
220
0
230
1
0
ENDBLK
5
109
100
AcDbEntity
8
0
100
AcDbBlockEnd
0
BLOCK
5
112
100
AcDbEntity
8
0
100
AcDbBlockBegin
2
DimnDraft3D3
70
0
10
0
20
0
30
0
3
DimnDraft3D3
0
MTEXT
5
10C
100
AcDbEntity
8
SK2
62
256
6
ByLayer
370
13
48
1
60
0
100
AcDbMText
10
27.206316
20
15.259119
30
0
210
0
220
0
230
1
1
\W0.7402;28,69
40
3.5
41
0
44
1.084337
50
0
71
7
72
5
7
iso_b_vert
0
LINE
5
10D
100
AcDbEntity
8
SK2
62
256
6
ByLayer
370
13
48
1
60
0
100
AcDbLine
10
17.31
20
4.3625
30
0
11
17.31
21
16.384119
31
0
39
0
210
0
220
0
230
1
0
LINE
5
10E
100
AcDbEntity
8
SK2
62
256
6
ByLayer
370
13
48
1
60
0
100
AcDbLine
10
46
20
1.5875
30
0
11
46
21
16.384119
31
0
39
0
210
0
220
0
230
1
0
LINE
5
10F
100
AcDbEntity
8
SK2
62
256
6
ByLayer
370
13
48
1
60
0
100
AcDbLine
10
17.31
20
14.384119
30
0
11
46
21
14.384119
31
0
39
0
210
0
220
0
230
1
0
SOLID
5
110
100
AcDbEntity
8
SK2
62
256
6
ByLayer
370
13
48
1
60
0
100
AcDbTrace
10
17.31
20
14.384119
30
0
11
20.809998
21
14.844903
31
0
12
20.810002
22
13.923335
32
0
13
17.31
23
14.384119
33
0
39
0
210
0
220
0
230
1
0
SOLID
5
111
100
AcDbEntity
8
SK2
62
256
6
ByLayer
370
13
48
1
60
0
100
AcDbTrace
10
46
20
14.384119
30
0
11
42.500002
21
13.923335
31
0
12
42.499998
22
14.844903
32
0
13
46
23
14.384119
33
0
39
0
210
0
220
0
230
1
0
ENDBLK
5
113
100
AcDbEntity
8
0
100
AcDbBlockEnd
0
BLOCK
5
11C
100
AcDbEntity
8
0
100
AcDbBlockBegin
2
DimnDraft3D4
70
0
10
0
20
0
30
0
3
DimnDraft3D4
0
MTEXT
5
116
100
AcDbEntity
8
SK2
62
256
6
ByLayer
370
13
48
1
60
0
100
AcDbMText
10
52.656425
20
-14.702503
30
0
210
0
220
0
230
1
1
\W0.7383;0,94
40
3.5
41
0
44
1.084337
50
0
71
7
72
5
7
iso_b_vert
0
LINE
5
117
100
AcDbEntity
8
SK2
62
256
6
ByLayer
370
13
48
1
60
0
100
AcDbLine
10
46
20
-1.5875
30
0
11
46
21
-17.577503
31
0
39
0
210
0
220
0
230
1
0
LINE
5
118
100
AcDbEntity
8
SK2
62
256
6
ByLayer
370
13
48
1
60
0
100
AcDbLine
10
45.06
20
-4.3625
30
0
11
45.06
21
-17.577503
31
0
39
0
210
0
220
0
230
1
0
LINE
5
119
100
AcDbEntity
8
SK2
62
256
6
ByLayer
370
13
48
1
60
0
100
AcDbLine
10
36.31
20
-15.577503
30
0
11
60.181425
21
-15.577503
31
0
39
0
210
0
220
0
230
1
0
SOLID
5
11A
100
AcDbEntity
8
SK2
62
256
6
ByLayer
370
13
48
1
60
0
100
AcDbTrace
10
46
20
-15.577503
30
0
11
49.499998
21
-15.116719
31
0
12
49.500002
22
-16.038287
32
0
13
46
23
-15.577503
33
0
39
0
210
0
220
0
230
1
0
SOLID
5
11B
100
AcDbEntity
8
SK2
62
256
6
ByLayer
370
13
48
1
60
0
100
AcDbTrace
10
45.06
20
-15.577503
30
0
11
41.560002
21
-16.038287
31
0
12
41.559998
22
-15.116719
32
0
13
45.06
23
-15.577503
33
0
39
0
210
0
220
0
230
1
0
ENDBLK
5
11D
100
AcDbEntity
8
0
100
AcDbBlockEnd
0
BLOCK
5
126
100
AcDbEntity
8
0
100
AcDbBlockBegin
2
DimnDraft3D5
70
0
10
0
20
0
30
0
3
DimnDraft3D5
0
MTEXT
5
120
100
AcDbEntity
8
SK2
62
256
6
ByLayer
370
13
48
1
60
0
100
AcDbMText
10
-1.690508
20
-20.468428
30
0
210
0
220
0
230
1
1
\W0.6713;81,06
40
3.5
41
0
44
1.084337
50
0
71
7
72
5
7
iso_b_vert
0
LINE
5
121
100
AcDbEntity
8
SK2
62
256
6
ByLayer
370
13
48
1
60
0
100
AcDbLine
10
-36
20
-4.5875
30
0
11
-36
21
-23.343428
31
0
39
0
210
0
220
0
230
1
0
LINE
5
122
100
AcDbEntity
8
SK2
62
256
6
ByLayer
370
13
48
1
60
0
100
AcDbLine
10
45.06
20
-4.3625
30
0
11
45.06
21
-23.343428
31
0
39
0
210
0
220
0
230
1
0
LINE
5
123
100
AcDbEntity
8
SK2
62
256
6
ByLayer
370
13
48
1
60
0
100
AcDbLine
10
-36
20
-21.343428
30
0
11
45.06
21
-21.343428
31
0
39
0
210
0
220
0
230
1
0
SOLID
5
124
100
AcDbEntity
8
SK2
62
256
6
ByLayer
370
13
48
1
60
0
100
AcDbTrace
10
-36
20
-21.343428
30
0
11
-32.500002
21
-20.882645
31
0
12
-32.499998
22
-21.804212
32
0
13
-36
23
-21.343428
33
0
39
0
210
0
220
0
230
1
0
SOLID
5
125
100
AcDbEntity
8
SK2
62
256
6
ByLayer
370
13
48
1
60
0
100
AcDbTrace
10
45.06
20
-21.343428
30
0
11
41.560002
21
-21.804212
31
0
12
41.559998
22
-20.882645
32
0
13
45.06
23
-21.343428
33
0
39
0
210
0
220
0
230
1
0
ENDBLK
5
127
100
AcDbEntity
8
0
100
AcDbBlockEnd
0
BLOCK
5
131
100
AcDbEntity
8
0
100
AcDbBlockBegin
2
DimnDraft3D6
70
0
10
0
20
0
30
0
3
DimnDraft3D6
0
MTEXT
5
12A
100
AcDbEntity
8
SK2
62
256
6
ByLayer
370
13
48
1
60
0
100
AcDbMText
10
-46.375163
20
22.34918
30
0
210
0
220
0
230
1
1
\W0.7317;6,000
40
3.5
41
0
44
1.084337
50
90
71
7
72
5
7
iso_b_vert
0
MTEXT
5
12B
100
AcDbEntity
8
SK2
62
256
6
ByLayer
370
13
48
1
60
0
100
AcDbMText
10
-46.375163
20
17.126524
30
0
210
0
220
0
230
1
1
%%c
40
3.5
41
0
44
1.084337
50
90
71
7
72
5
7
iso_b_vert
0
LINE
5
12C
100
AcDbEntity
8
SK2
62
256
6
ByLayer
370
13
48
1
60
0
100
AcDbLine
10
-37.5875
20
-3
30
0
11
-46.625163
21
-3
31
0
39
0
210
0
220
0
230
1
0
LINE
5
12D
100
AcDbEntity
8
SK2
62
256
6
ByLayer
370
13
48
1
60
0
100
AcDbLine
10
-37.5875
20
3
30
0
11
-46.625163
21
3
31
0
39
0
210
0
220
0
230
1
0
LINE
5
12E
100
AcDbEntity
8
SK2
62
256
6
ByLayer
370
13
48
1
60
0
100
AcDbLine
10
-44.625163
20
32.121549
30
0
11
-44.625163
21
-11.75
31
0
39
0
210
0
220
0
230
1
0
SOLID
5
12F
100
AcDbEntity
8
SK2
62
256
6
ByLayer
370
13
48
1
60
0
100
AcDbTrace
10
-44.625163
20
-3
30
0
11
-44.164379
21
-6.499998
31
0
12
-45.085946
22
-6.500002
32
0
13
-44.625163
23
-3
33
0
39
0
210
0
220
0
230
1
0
SOLID
5
130
100
AcDbEntity
8
SK2
62
256
6
ByLayer
370
13
48
1
60
0
100
AcDbTrace
10
-44.625163
20
3
30
0
11
-45.085946
21
6.499998
31
0
12
-44.164379
22
6.500002
32
0
13
-44.625163
23
3
33
0
39
0
210
0
220
0
230
1
0
ENDBLK
5
132
100
AcDbEntity
8
0
100
AcDbBlockEnd
0
BLOCK
5
13C
100
AcDbEntity
8
0
100
AcDbBlockBegin
2
DimnDraft3D7
70
0
10
0
20
0
30
0
3
DimnDraft3D7
0
MTEXT
5
135
100
AcDbEntity
8
2
62
256
6
ByLayer
370
13
48
1
60
0
100
AcDbMText
10
56.333343
20
20.717266
30
0
210
0
220
0
230
1
1
\W0.7317;5,550
40
3.5
41
0
44
1.084337
50
90
71
7
72
5
7
iso_b_vert
0
MTEXT
5
136
100
AcDbEntity
8
2
62
256
6
ByLayer
370
13
48
1
60
0
100
AcDbMText
10
56.333343
20
15.49461
30
0
210
0
220
0
230
1
1
%%c
40
3.5
41
0
44
1.084337
50
90
71
7
72
5
7
iso_b_vert
0
LINE
5
137
100
AcDbEntity
8
2
62
256
6
ByLayer
370
13
48
1
60
0
100
AcDbLine
10
46.6475
20
-2.775
30
0
11
60.083343
21
-2.775
31
0
39
0
210
0
220
0
230
1
0
LINE
5
138
100
AcDbEntity
8
2
62
256
6
ByLayer
370
13
48
1
60
0
100
AcDbLine
10
46.6475
20
2.775
30
0
11
60.083343
21
2.775
31
0
39
0
210
0
220
0
230
1
0
LINE
5
139
100
AcDbEntity
8
2
62
256
6
ByLayer
370
13
48
1
60
0
100
AcDbLine
10
58.083343
20
30.489635
30
0
11
58.083343
21
-11.525
31
0
39
0
210
0
220
0
230
1
0
SOLID
5
13A
100
AcDbEntity
8
2
62
256
6
ByLayer
370
13
48
1
60
0
100
AcDbTrace
10
58.083343
20
-2.775
30
0
11
58.544126
21
-6.274998
31
0
12
57.622559
22
-6.275002
32
0
13
58.083343
23
-2.775
33
0
39
0
210
0
220
0
230
1
0
SOLID
5
13B
100
AcDbEntity
8
2
62
256
6
ByLayer
370
13
48
1
60
0
100
AcDbTrace
10
58.083343
20
2.775
30
0
11
57.622559
21
6.274998
31
0
12
58.544126
22
6.275002
32
0
13
58.083343
23
2.775
33
0
39
0
210
0
220
0
230
1
0
ENDBLK
5
13D
100
AcDbEntity
8
0
100
AcDbBlockEnd
0
ENDSEC
0
SECTION
2
ENTITIES
0
ARC
5
9E
100
AcDbEntity
8
1
62
256
6
ByLayer
370
18
48
1
60
0
100
AcDbCircle
39
0
10
0
20
2.2
30
0
40
0.800000000000001
210
0
220
0
230
1
100
AcDbArc
50
57.434603
51
90
0
ARC
5
9F
100
AcDbEntity
8
1
62
256
6
ByLayer
370
18
48
1
60
0
100
AcDbCircle
39
0
10
-0.861219
20
-3.548444
30
0
40
0.8
210
0
220
0
230
-1
100
AcDbArc
50
57.434603
51
90.034377
0
ARC
5
A0
100
AcDbEntity
8
1
62
256
6
ByLayer
370
18
48
1
60
0
100
AcDbCircle
39
0
10
0
20
-2.2
30
0
40
0.800000000000001
210
0
220
0
230
1
100
AcDbArc
50
270
51
302.565397
0
ARC
5
A1
100
AcDbEntity
8
1
62
256
6
ByLayer
370
18
48
1
60
0
100
AcDbCircle
39
0
10
-0.861219
20
3.548444
30
0
40
0.8
210
0
220
0
230
-1
100
AcDbArc
50
269.965623
51
302.565397
0
ELLIPSE
5
A2
100
AcDbEntity
8
1
62
256
6
ByLayer
370
18
48
1
60
0
100
AcDbEllipse
10
4.25
20
-2.865424
30
0
11
-0.25
21
3.06151588455594E-17
31
0
210
0
220
0
230
1
40
1
41
-1.57079393681247
42
-0.509352640471142
0
ELLIPSE
5
A3
100
AcDbEntity
8
1
62
256
6
ByLayer
370
18
48
1
60
0
100
AcDbEllipse
10
4.25
20
2.865424
30
0
11
-0.25
21
3.06151588455594E-17
31
0
210
0
220
0
230
1
40
1
41
0.507899326212889
42
1.57921084515595
0
ELLIPSE
5
A4
100
AcDbEntity
8
1
62
256
6
ByLayer
370
13
48
1
60
0
100
AcDbEllipse
10
45.402494
20
0.370709
30
0
11
0.153082081612418
21
0.258003636193773
31
0
210
0
220
0
230
1
40
0.454519
41
0.917105603404792
42
2.31336900500031
0
ELLIPSE
5
A5
100
AcDbEntity
8
1
62
256
6
ByLayer
370
18
48
1
60
0
100
AcDbEllipse
10
46.000258
20
0.000606
30
0
11
1.02928527599832
21
2.77221241044247
31
0
210
0
220
0
230
-1
40
0.131755
41
2.848346732526
42
2.96454171029497
0
ELLIPSE
5
A6
100
AcDbEntity
8
1
62
256
6
ByLayer
370
18
48
1
60
0
100
AcDbEllipse
10
46.056608
20
-0.017398
30
0
11
0.135544944396048
21
-0.427068209981257
31
0
210
0
220
0
230
-1
40
0.100282
41
1.70941603304152
42
2.33653286889081
0
ELLIPSE
5
A7
100
AcDbEntity
8
1
62
256
6
ByLayer
370
18
48
1
60
0
100
AcDbEllipse
10
46.000258
20
-0.000606
30
0
11
1.02928528703444
21
-2.77221244322716
31
0
210
0
220
0
230
-1
40
0.131755
41
-2.96454171135689
42
-2.84834673428602
0
ELLIPSE
5
A8
100
AcDbEntity
8
1
62
256
6
ByLayer
370
13
48
1
60
0
100
AcDbEllipse
10
45.614597
20
1.283777
30
0
11
1.68218087236613
21
-1.15822936574534
31
0
210
0
220
0
230
-1
40
0.533762
41
1.44484622738738
42
1.70711174583607
0
ELLIPSE
5
A9
100
AcDbEntity
8
1
62
256
6
ByLayer
370
18
48
1
60
0
100
AcDbEllipse
10
46.056608
20
0.017398
30
0
11
0.135544944414663
21
0.427068210026917
31
0
210
0
220
0
230
-1
40
0.100282
41
-2.33653286892109
42
-1.70941603312557
0
ELLIPSE
5
AA
100
AcDbEntity
8
1
62
256
6
ByLayer
370
18
48
1
60
0
100
AcDbEllipse
10
45.44124
20
1.406974
30
0
11
0.432217656243851
21
-1.16410793714524
31
0
210
0
220
0
230
-1
40
0.131755
41
-1.49213164707162
42
-0.736518128027084
0
ELLIPSE
5
AB
100
AcDbEntity
8
1
62
256
6
ByLayer
370
18
48
1
60
0
100
AcDbEllipse
10
45.44124
20
-1.406974
30
0
11
0.432217656240266
21
1.16410793713796
31
0
210
0
220
0
230
-1
40
0.131755
41
0.736518128028869
42
1.49213164707719
0
ELLIPSE
5
AC
100
AcDbEntity
8
1
62
256
6
ByLayer
370
13
48
1
60
0
100
AcDbEllipse
10
4.250252
20
1.589277
30
0
11
0.0418868703244698
21
0.0908046810160195
31
0
210
0
220
0
230
1
40
0.290922
41
-2.34819315394691
42
-2.13006465971072
0
ELLIPSE
5
AD
100
AcDbEntity
8
1
62
256
6
ByLayer
370
18
48
1
60
0
100
AcDbEllipse
10
45.86075
20
0.09881
30
0
11
0.0727819104933214
21
0.301917195712285
31
0
210
0
220
0
230
-1
40
0.478434
41
1.69061463394933
42
2.45976119972719
0
ELLIPSE
5
AE
100
AcDbEntity
8
1
62
256
6
ByLayer
370
13
48
1
60
0
100
AcDbEllipse
10
45.804504
20
1.406974
30
0
11
1.7496495471422
21
-0.817568174019141
31
0
210
0
220
0
230
-1
40
0.47475
41
1.578730613822
42
1.86280226638876
0
POINT
5
6C
100
AcDbEntity
8
81
62
256
6
ByLayer
370
18
48
1
60
0
100
AcDbPoint
10
46
20
0
30
0
39
0
210
0
220
0
230
1
50
360
0
POINT
5
6E
100
AcDbEntity
8
80
62
256
6
ByLayer
370
18
48
1
60
0
100
AcDbPoint
10
0
20
0
30
0
39
0
210
0
220
0
230
1
50
360
0
POINT
5
70
100
AcDbEntity
8
SK2
62
256
6
ByLayer
370
18
48
1
60
1
100
AcDbPoint
10
-36
20
-3
30
0
39
0
210
0
220
0
230
1
50
360
0
POINT
5
72
100
AcDbEntity
8
SK2
62
256
6
ByLayer
370
18
48
1
60
1
100
AcDbPoint
10
-36
20
3
30
0
39
0
210
0
220
0
230
1
50
360
0
POINT
5
73
100
AcDbEntity
8
2
62
256
6
ByLayer
370
18
48
1
60
1
100
AcDbPoint
10
45.06
20
-2.775
30
0
39
0
210
0
220
0
230
1
50
360
0
POINT
5
75
100
AcDbEntity
8
2
62
256
6
ByLayer
370
18
48
1
60
1
100
AcDbPoint
10
45.06
20
2.775
30
0
39
0
210
0
220
0
230
1
50
360
0
SPLINE
5
AF
100
AcDbEntity
8
1
62
256
6
ByLayer
370
18
48
1
60
0
100
AcDbSpline
70
4
71
1
72
4
73
2
40
0
40
0
40
1
40
1
41
1
10
4.04348652330396
20
1.64957430734981
30
0
41
1
10
4.04759687662497
20
1.64195915275889
30
0
0
SPLINE
5
B0
100
AcDbEntity
8
1
62
256
6
ByLayer
370
18
48
1
60
0
100
AcDbSpline
70
4
71
3
72
11
73
7
40
0
40
0
40
0
40
0
40
0.210630565365364
40
0.323309275806504
40
0.491861010209685
40
1
40
1
40
1
40
1
41
1
10
37.6918583750685
20
-0.708824929458757
30
0
41
1
10
37.6913526181149
20
-0.708737990903217
30
0
41
1
10
37.695140682345
20
-0.710817320767944
30
0
41
1
10
37.717716811457
20
-0.722638485522822
30
0
41
1
10
37.7968007552383
20
-0.763619482864613
30
0
41
1
10
37.8744084501593
20
-0.805392752109327
30
0
41
1
10
37.9470543166552
20
-0.844864409206878
30
0
0
SPLINE
5
B1
100
AcDbEntity
8
1
62
256
6
ByLayer
370
18
48
1
60
0
100
AcDbSpline
70
4
71
3
72
21
73
17
40
0
40
0
40
0
40
0
40
0.108089861855752
40
0.205239746764428
40
0.291270539618689
40
0.365924951851549
40
0.449071180888889
40
0.528227423755171
40
0.611098311004852
40
0.69001139117706
40
0.721439076936724
40
0.75054997433492
40
0.794429625138429
40
0.855455371759348
40
0.933509674954532
40
1
40
1
40
1
40
1
41
1
10
14.6707407971755
20
-2.6207992570142
30
0
41
1
10
14.9337279691199
20
-2.61898003056592
30
0
41
1
10
15.434521638425
20
-2.6170132831935
30
0
41
1
10
16.1565965009673
20
-2.62149530375316
30
0
41
1
10
16.7863390662744
20
-2.62318095023207
30
0
41
1
10
17.3925843135708
20
-2.62201910260316
30
0
41
1
10
17.978883755185
20
-2.62508082948764
30
0
41
1
10
18.5865226993702
20
-2.62216647666998
30
0
41
1
10
19.1834036092074
20
-2.62633184128487
30
0
41
1
10
19.6621619064958
20
-2.62433607047367
30
0
41
1
10
20.0076032011437
20
-2.62434078406227
30
0
41
1
10
20.2660970936613
20
-2.62523625667592
30
0
41
1
10
20.598233813067
20
-2.62655499926598
30
0
41
1
10
21.0514535472034
20
-2.62474234179436
30
0
41
1
10
21.5607450633915
20
-2.62702280565904
30
0
41
1
10
21.9188687157735
20
-2.62660535685481
30
0
41
1
10
22.0836112790212
20
-2.62636972971038
30
0
0
SPLINE
5
B2
100
AcDbEntity
8
1
62
256
6
ByLayer
370
18
48
1
60
0
100
AcDbSpline
70
4
71
3
72
20
73
16
40
0
40
0
40
0
40
0
40
0.1019972218969
40
0.204573466800392
40
0.297096257833643
40
0.362620066149716
40
0.42378038178576
40
0.517504120297556
40
0.604993581104599
40
0.676489910980076
40
0.740979655031274
40
0.802428301505656
40
0.875416201446611
40
0.95203706785967
40
1
40
1
40
1
40
1
41
1
10
29.637830357874
20
-2.62994293141841
30
0
41
1
10
29.8852684786994
20
-2.62870656529739
30
0
41
1
10
30.3830653310275
20
-2.62733029317761
30
0
41
1
10
31.1221758865136
20
-2.62899031277468
30
0
41
1
10
31.754623492432
20
-2.63239384481213
30
0
41
1
10
32.2975622075054
20
-2.63057677181249
30
0
41
1
10
32.8409775334811
20
-2.63272816714712
30
0
41
1
10
33.4400401011414
20
-2.63129794680145
30
0
41
1
10
34.0643834742203
20
-2.6337067676867
30
0
41
1
10
34.6159475404187
20
-2.6328031666489
30
0
41
1
10
35.1052707321165
20
-2.63273328100487
30
0
41
1
10
35.5902006325362
20
-2.63375453106536
30
0
41
1
10
36.0990333335129
20
-2.62423421918916
30
0
41
1
10
36.5943835861232
20
-2.63099729672334
30
0
41
1
10
36.8929919254361
20
-2.63275201403505
30
0
41
1
10
37.0068675030807
20
-2.63348685454906
30
0
0
SPLINE
5
B3
100
AcDbEntity
8
1
62
256
6
ByLayer
370
18
48
1
60
0
100
AcDbSpline
70
4
71
3
72
20
73
16
40
0
40
0
40
0
40
0
40
0.0809154205300797
40
0.175814137203928
40
0.250009470469903
40
0.322197091889057
40
0.376955878574833
40
0.447189622768101
40
0.523700984343296
40
0.598308581803873
40
0.669892423895056
40
0.770981923242736
40
0.861747039642216
40
0.966343602575451
40
1
40
1
40
1
40
1
41
1
10
22.0840773249166
20
2.62636954860327
30
0
41
1
10
21.9191794049175
20
2.62660548537929
30
0
41
1
10
21.5608985196453
20
2.62702487728984
30
0
41
1
10
21.0514606355674
20
2.62473621068992
30
0
41
1
10
20.5598311655716
20
2.62672572842686
30
0
41
1
10
20.149873478323
20
2.62454157285509
30
0
41
1
10
19.7483075986991
20
2.62411673165548
30
0
41
1
10
19.3376010653059
20
2.62603755165023
30
0
41
1
10
18.8865345840624
20
2.62357824419308
30
0
41
1
10
18.4327362111482
20
2.62310064057508
30
0
41
1
10
17.9286889650115
20
2.62479204268411
30
0
41
1
10
17.3925897337098
20
2.62202633016659
30
0
41
1
10
16.786337448363
20
2.62317879280408
30
0
41
1
10
16.3262654269614
20
2.62194939170877
30
0
41
1
10
16.0459441527155
20
2.62058149099653
30
0
41
1
10
15.9776344519078
20
2.62024854286867
30
0
0
SPLINE
5
B4
100
AcDbEntity
8
1
62
256
6
ByLayer
370
18
48
1
60
0
100
AcDbSpline
70
4
71
2
72
6
73
3
40
0
40
0
40
0
40
1
40
1
40
1
41
1
10
7.01190687498703
20
0.0091485677941137
30
0
41
1
10
7.01190483425915
20
0.0091859617892567
30
0
41
1
10
7.011902793535
20
0.0092233668759718
30
0
0
SPLINE
5
B5
100
AcDbEntity
8
1
62
256
6
ByLayer
370
18
48
1
60
0
100
AcDbSpline
70
4
71
2
72
6
73
3
40
0
40
0
40
0
40
1
40
1
40
1
41
1
10
44.6125502119934
20
-2.63882285060242
30
0
41
1
10
44.8096442606399
20
-2.63893956703143
30
0
41
1
10
45.002588583306
20
-2.63687171677188
30
0
0
SPLINE
5
B6
100
AcDbEntity
8
1
62
256
6
ByLayer
370
18
48
1
60
0
100
AcDbSpline
70
4
71
3
72
19
73
15
40
0
40
0
40
0
40
0
40
0.0747202287382295
40
0.180694467534264
40
0.279141889826692
40
0.356617341574535
40
0.422846292600749
40
0.500016263968083
40
0.592389203346996
40
0.704054895250421
40
0.776923402961911
40
0.854990726223691
40
0.965225567914078
40
1
40
1
40
1
40
1
41
1
10
37.1116516290402
20
2.63419428380195
30
0
41
1
10
36.963381629753
20
2.63302048888158
30
0
41
1
10
36.6020677841686
20
2.63106240686986
30
0
41
1
10
36.012026502983
20
2.62467532293212
30
0
41
1
10
35.4464386934596
20
2.63494043994498
30
0
41
1
10
34.9454199031684
20
2.63206624857324
30
0
41
1
10
34.4872571359312
20
2.63339256991443
30
0
41
1
10
33.9984521671698
20
2.63319615514018
30
0
41
1
10
33.4154656967669
20
2.63143226257901
30
0
41
1
10
32.8409703903195
20
2.63271459800464
30
0
41
1
10
32.2975638786841
20
2.63057994638197
30
0
41
1
10
31.7546228186088
20
2.63239256482052
30
0
41
1
10
31.3002678263122
20
2.62994867483042
30
0
41
1
10
31.0002779871918
20
2.62892670225423
30
0
41
1
10
30.9282115298159
20
2.62871953457255
30
0
0
SPLINE
5
B7
100
AcDbEntity
8
1
62
256
6
ByLayer
370
18
48
1
60
0
100
AcDbSpline
70
4
71
3
72
11
73
7
40
0
40
0
40
0
40
0
40
0.0934010422721121
40
0.201601886277844
40
0.500133785449411
40
1
40
1
40
1
40
1
41
1
10
22.7228585785939
20
-0.707516513803796
30
0
41
1
10
22.7227549234831
20
-0.707584134744707
30
0
41
1
10
22.7253190236075
20
-0.708989331025776
30
0
41
1
10
22.7467776301658
20
-0.719811786543403
30
0
41
1
10
22.8373344134283
20
-0.765394017050653
30
0
41
1
10
22.9225655013888
20
-0.81201042179265
30
0
41
1
10
22.9870181668781
20
-0.847831655646075
30
0
0
SPLINE
5
B8
100
AcDbEntity
8
1
62
256
6
ByLayer
370
18
48
1
60
0
100
AcDbSpline
70
4
71
3
72
11
73
7
40
0
40
0
40
0
40
0
40
0.167710386289741
40
0.435191132471008
40
0.740897413897821
40
1
40
1
40
1
40
1
41
1
10
7.14117712902825
20
2.61798873712078
30
0
41
1
10
6.98000792426052
20
2.61781125106654
30
0
41
1
10
6.56148773074244
20
2.61741403291509
30
0
41
1
10
5.8469039955807
20
2.61540131677111
30
0
41
1
10
5.04395363641686
20
2.61744512319754
30
0
41
1
10
4.50029839702566
20
2.61584731692909
30
0
41
1
10
4.25105879688383
20
2.61491952863057
30
0
0
SPLINE
5
B9
100
AcDbEntity
8
1
62
256
6
ByLayer
370
18
48
1
60
0
100
AcDbSpline
70
4
71
3
72
11
73
7
40
0
40
0
40
0
40
0
40
0.124446724504101
40
0.390122163550523
40
0.706671793889163
40
1
40
1
40
1
40
1
41
1
10
4.25103368023395
20
-2.6153233785129
30
0
41
1
10
4.3701372332828
20
-2.61591337956912
30
0
41
1
10
4.74351089606711
20
-2.61744069082428
30
0
41
1
10
5.41983261966436
20
-2.61760081285522
30
0
41
1
10
6.25785464159711
20
-2.61652398940046
30
0
41
1
10
6.84151314084568
20
-2.61738249272662
30
0
41
1
10
7.12222333989652
20
-2.61796681673084
30
0
0
SPLINE
5
BA
100
AcDbEntity
8
1
62
256
6
ByLayer
370
13
48
1
60
0
100
AcDbSpline
70
4
71
3
72
10
73
6
40
0
40
0
40
0
40
0
40
0.5
40
0.5
40
1
40
1
40
1
40
1
41
1
10
4.12551849175563
20
1.58329715187543
30
0
41
1
10
4.14470240830025
20
1.57174434324568
30
0
41
1
10
4.16530801534304
20
1.56139186692531
30
0
41
1
10
4.20721546138725
20
1.5438539488876
30
0
41
1
10
4.22860556603626
20
1.53657614421965
30
0
41
1
10
4.25042081923263
20
1.53076993040941
30
0
0
SPLINE
5
BB
100
AcDbEntity
8
1
62
256
6
ByLayer
370
18
48
1
60
0
100
AcDbSpline
70
4
71
3
72
15
73
11
40
0
40
0
40
0
40
0
40
0.116088489931817
40
0.263407074943181
40
0.263407074943181
40
0.410725659954545
40
0.410725659954545
40
0.705362829977273
40
0.705362829977273
40
1
40
1
40
1
40
1
41
1
10
4.02806175069188
20
-2.75034412122801
30
0
41
1
10
4.02806917655283
20
-2.75028681279753
30
0
41
1
10
4.02808608626214
20
-2.74390888005323
30
0
41
1
10
4.02810323989885
20
-2.72348330380703
30
0
41
1
10
4.02812256360187
20
-2.69169293283261
30
0
41
1
10
4.02813234678967
20
-2.67116815679242
30
0
41
1
10
4.02816117271931
20
-2.59706804343111
30
0
41
1
10
4.02817981419898
20
-2.53118703994693
30
0
41
1
10
4.02821380222008
20
-2.36707281824221
30
0
41
1
10
4.02822922031487
20
-2.2675838100059
30
0
41
1
10
4.02824058775363
20
-2.15552922120415
30
0
0
SPLINE
5
BC
100
AcDbEntity
8
1
62
256
6
ByLayer
370
18
48
1
60
0
100
AcDbSpline
70
4
71
3
72
22
73
18
40
0
40
0
40
0
40
0
40
0.125
40
0.125
40
0.1875
40
0.1875
40
0.25
40
0.25
40
0.375
40
0.375
40
0.5
40
0.5
40
0.75
40
0.75
40
0.875
40
0.875
40
1
40
1
40
1
40
1
41
1
10
42.7499514768122
20
0.962921908143414
30
0
41
1
10
42.7793912547644
20
0.841526663802711
30
0
41
1
10
42.8194613373549
20
0.720251312888223
30
0
41
1
10
42.8934459055649
20
0.538494825221704
30
0
41
1
10
42.9205692000364
20
0.477666816948243
30
0
41
1
10
42.9786189497246
20
0.357406311375712
30
0
41
1
10
43.0094124721914
20
0.298195984290459
30
0
41
1
10
43.1065372369618
20
0.123032599767271
30
0
41
1
10
43.1775808013862
20
0.0095305598052562
30
0
41
1
10
43.3302846061256
20
-0.211951474410824
30
0
41
1
10
43.4114604909019
20
-0.31911296374588
30
0
41
1
10
43.6627896405258
20
-0.626482186059633
30
0
41
1
10
43.8422989319225
20
-0.815309190262781
30
0
41
1
10
44.1252499141144
20
-1.08013571621373
30
0
41
1
10
44.2218158974057
20
-1.16516707520879
30
0
41
1
10
44.4168718389301
20
-1.32753159384399
30
0
41
1
10
44.5156567359201
20
-1.40515732756828
30
0
41
1
10
44.6156196163925
20
-1.4794499075156
30
0
0
SPLINE
5
BD
100
AcDbEntity
8
1
62
256
6
ByLayer
370
18
48
1
60
0
100
AcDbSpline
70
4
71
3
72
14
73
10
40
0
40
0
40
0
40
0
40
0.381914534833843
40
0.381914534833843
40
0.591296632848762
40
0.591296632848762
40
0.800678730863681
40
0.800678730863681
40
1
40
1
40
1
40
1
41
1
10
29.685019698285
20
-2.62997187980702
30
0
41
1
10
29.2990222468739
20
-2.63008583075566
30
0
41
1
10
28.9123691681999
20
-2.60436386953145
30
0
41
1
10
28.3089031174275
20
-2.52408987560841
30
0
41
1
10
28.0942436462413
20
-2.48779145417441
30
0
41
1
10
27.6680130260557
20
-2.4010112634586
30
0
41
1
10
27.4556934370058
20
-2.35042363703019
30
0
41
1
10
27.0421027955948
20
-2.23858911639039
30
0
41
1
10
26.8407178176496
20
-2.17801743235233
30
0
41
1
10
26.639306312556
20
-2.1117847574875
30
0
0
SPLINE
5
BE
100
AcDbEntity
8
1
62
256
6
ByLayer
370
13
48
1
60
0
100
AcDbSpline
70
4
71
3
72
24
73
20
40
0
40
0
40
0
40
0
40
0.0853664943561868
40
0.0853664943561868
40
0.166819296042292
40
0.166819296042292
40
0.248272097728397
40
0.248272097728397
40
0.411177701100608
40
0.411177701100608
40
0.492630502786713
40
0.492630502786713
40
0.574083304472819
40
0.574083304472819
40
0.899894511217241
40
0.899894511217241
40
0.981347312903347
40
0.981347312903347
40
1
40
1
40
1
40
1
41
1
10
26.6393053628726
20
-2.11178444519115
30
0
41
1
10
26.4175615053293
20
-2.03886560794331
30
0
41
1
10
26.1957854938514
20
-1.95908514452736
30
0
41
1
10
25.761435071405
20
-1.79073778019742
30
0
41
1
10
25.5488692905357
20
-1.70281484525509
30
0
41
1
10
25.1217682996145
20
-1.51656477292994
30
0
41
1
10
24.9070348955438
20
-1.41803152563014
30
0
41
1
10
24.2638158379328
20
-1.11060067833796
30
0
41
1
10
23.8372400946542
20
-0.891184687247346
30
0
41
1
10
23.1971345948375
20
-0.549412114779756
30
0
41
1
10
22.9835803476784
20
-0.433483045651883
30
0
41
1
10
22.5551860700021
20
-0.199206060118144
30
0
41
1
10
22.3407786851906
20
-0.0809085764087456
30
0
41
1
10
21.2756648234468
20
0.506570765702207
30
0
41
1
10
20.4354917573751
20
0.966436091498792
30
0
41
1
10
19.3667267376182
20
1.46895137272304
30
0
41
1
10
19.1519425647072
20
1.56573995625499
30
0
41
1
10
18.8898234270162
20
1.67747318820329
30
0
41
1
10
18.8410282325436
20
1.69801411081284
30
0
41
1
10
18.7922731561488
20
1.7182709084158
30
0
0
SPLINE
5
BF
100
AcDbEntity
8
1
62
256
6
ByLayer
370
18
48
1
60
0
100
AcDbSpline
70
4
71
3
72
8
73
4
40
0
40
0
40
0
40
0
40
1
40
1
40
1
40
1
41
1
10
4.1249239342761
20
1.5740552816487
30
0
41
1
10
4.11047324948004
20
1.58089756361855
30
0
41
1
10
4.09709418540535
20
1.58877808083605
30
0
41
1
10
4.08474332007398
20
1.59763089397546
30
0
0
SPLINE
5
C0
100
AcDbEntity
8
1
62
256
6
ByLayer
370
13
48
1
60
0
100
AcDbSpline
70
4
71
3
72
8
73
4
40
0
40
0
40
0
40
0
40
1
40
1
40
1
40
1
41
1
10
4.2007540601314
20
1.51720876257087
30
0
41
1
10
4.35677304107318
20
1.44362632992326
30
0
41
1
10
4.51303651314166
20
1.36750736167343
30
0
41
1
10
4.668967671422
20
1.28946955351944
30
0
0
SPLINE
5
C1
100
AcDbEntity
8
1
62
256
6
ByLayer
370
18
48
1
60
0
100
AcDbSpline
70
4
71
3
72
24
73
20
40
0
40
0
40
0
40
0
40
0.0291527275057557
40
0.0291527275057557
40
0.135523613702363
40
0.135523613702363
40
0.348265386095577
40
0.348265386095577
40
0.454636272292185
40
0.454636272292185
40
0.561007158488793
40
0.561007158488793
40
0.773748930882012
40
0.773748930882012
40
0.880119817078621
40
0.880119817078621
40
0.986490703275229
40
0.986490703275229
40
1
40
1
40
1
40
1
41
1
10
4.66896789248131
20
1.28946944288739
30
0
41
1
10
4.72783773324258
20
1.26000725261019
30
0
41
1
10
4.7866602077944
20
1.23027156154026
30
0
41
1
10
5.05974644127303
20
1.09092098489461
30
0
41
1
10
5.27303881873937
20
0.978387014958258
30
0
41
1
10
5.91115858476917
20
0.633789121150244
30
0
41
1
10
6.33418670351003
20
0.394660793760494
30
0
41
1
10
6.9711835073999
20
0.032458156906273
30
0
41
1
10
7.18387753938197
20
-0.0889446326931704
30
0
41
1
10
7.61086877084776
20
-0.331530723281133
30
0
41
1
10
7.82572324681456
20
-0.453027360879531
30
0
41
1
10
8.46985364885165
20
-0.812133622111674
30
0
41
1
10
8.89725501481831
20
-1.0436529455869
30
0
41
1
10
9.54141873146463
20
-1.36904647291445
30
0
41
1
10
9.75631409909317
20
-1.47376930933706
30
0
41
1
10
10.1831974647243
20
-1.67245226907343
30
0
41
1
10
10.3957999112688
20
-1.76668007966174
30
0
41
1
10
10.6350199634094
20
-1.86642102896616
30
0
41
1
10
10.6619709400106
20
-1.87756985743616
30
0
41
1
10
10.6889162002332
20
-1.88862655378966
30
0
0
SPLINE
5
C2
100
AcDbEntity
8
1
62
256
6
ByLayer
370
13
48
1
60
0
100
AcDbSpline
70
4
71
3
72
18
73
14
40
0
40
0
40
0
40
0
40
0.235746123229179
40
0.235746123229179
40
0.36161167051368
40
0.36161167051368
40
0.487477217798183
40
0.487477217798183
40
0.739208312367187
40
0.739208312367187
40
0.990939406936191
40
0.990939406936191
40
1
40
1
40
1
40
1
41
1
10
10.6889152751684
20
-1.88862617419929
30
0
41
1
10
11.0862990326492
20
-2.05168833513571
30
0
41
1
10
11.4824394861694
20
-2.1947119392172
30
0
41
1
10
12.0931551823731
20
-2.3776815933185
30
0
41
1
10
12.3062479325691
20
-2.43464332954079
30
0
41
1
10
12.7343873807327
20
-2.53399832400558
30
0
41
1
10
12.9497080929117
20
-2.57637449130718
30
0
41
1
10
13.5907200055703
20
-2.67877870905957
30
0
41
1
10
14.0143057589143
20
-2.71496327396099
30
0
41
1
10
14.8619692540658
20
-2.72283165651558
30
0
41
1
10
15.2857325808555
20
-2.69439309610954
30
0
41
1
10
15.728818402855
20
-2.63147512159475
30
0
41
1
10
15.744220400897
20
-2.62924628215046
30
0
41
1
10
15.7596292500214
20
-2.6269748576135
30
0
0
SPLINE
5
C3
100
AcDbEntity
8
1
62
256
6
ByLayer
370
13
48
1
60
0
100
AcDbSpline
70
4
71
3
72
16
73
12
40
0
40
0
40
0
40
0
40
0.356277573123639
40
0.356277573123639
40
0.449300468210102
40
0.449300468210102
40
0.542323363296564
40
0.542323363296564
40
0.728369153469497
40
0.728369153469497
40
1
40
1
40
1
40
1
41
1
10
29.8305727100384
20
2.72110553802275
30
0
41
1
10
30.2360273985249
20
2.70408832547747
30
0
41
1
10
30.6413866270128
20
2.65745989398962
30
0
41
1
10
31.156178043814
20
2.56189094857695
30
0
41
1
10
31.2629911855324
20
2.54016655995386
30
0
41
1
10
31.4772231294953
20
2.49281921779956
30
0
41
1
10
31.5847581704812
20
2.46712944943417
30
0
41
1
10
31.9059965963929
20
2.38473647982514
30
0
41
1
10
32.1189966126651
20
2.32258200924483
30
0
41
1
10
32.6414707149012
20
2.15364135201082
30
0
41
1
10
32.9504873085483
20
2.03968417846801
30
0
41
1
10
33.2595599111311
20
1.9134191776466
30
0
0
SPLINE
5
C4
100
AcDbEntity
8
1
62
256
6
ByLayer
370
18
48
1
60
0
100
AcDbSpline
70
4
71
3
72
24
73
20
40
0
40
0
40
0
40
0
40
0.0456257642629828
40
0.0456257642629828
40
0.130121050378831
40
0.130121050378831
40
0.214616336494678
40
0.214616336494678
40
0.383606908726378
40
0.383606908726378
40
0.552597480958077
40
0.552597480958077
40
0.637092767073927
40
0.637092767073927
40
0.721588053189777
40
0.721588053189777
40
0.89057862542148
40
0.89057862542148
40
1
40
1
40
1
40
1
41
1
10
33.2595589852914
20
1.91341955587859
30
0
41
1
10
33.3738675944642
20
1.86672122769903
30
0
41
1
10
33.4881838646368
20
1.81833937942375
30
0
41
1
10
33.8143892965822
20
1.67575648653704
30
0
41
1
10
34.0266975766656
20
1.5780652491708
30
0
41
1
10
34.4527740709868
20
1.3727383152532
30
0
41
1
10
34.6670846154853
20
1.26482673082793
30
0
41
1
10
35.3099501647437
20
0.930424519675569
30
0
41
1
10
35.734360089838
20
0.696430732755744
30
0
41
1
10
36.5808974409318
20
0.217018342124732
30
0
41
1
10
37.0038097747599
20
-0.0270177052097154
30
0
41
1
10
37.6423568414286
20
-0.391236463792268
30
0
41
1
10
37.8560519015007
20
-0.512426137197508
30
0
41
1
10
38.2851638634109
20
-0.752160876198303
30
0
41
1
10
38.4983730997432
20
-0.869519803024048
30
0
41
1
10
39.1356760964479
20
-1.21146138559561
30
0
41
1
10
39.5577000404163
20
-1.42543308967149
30
0
41
1
10
40.2535687375799
20
-1.7473369625516
30
0
41
1
10
40.5272434853615
20
-1.86600798649553
30
0
41
1
10
40.8021378673738
20
-1.9753076632864
30
0
0
SPLINE
5
C5
100
AcDbEntity
8
1
62
256
6
ByLayer
370
13
48
1
60
0
100
AcDbSpline
70
4
71
3
72
16
73
12
40
0
40
0
40
0
40
0
40
0.105145446979287
40
0.105145446979287
40
0.254287872482742
40
0.254287872482742
40
0.403430297986197
40
0.403430297986197
40
0.701715148993098
40
0.701715148993098
40
1
40
1
40
1
40
1
41
1
10
40.802137867222
20
-1.97530766322603
30
0
41
1
10
40.9517908746388
20
-2.0348106084017
30
0
41
1
10
41.1018053491548
20
-2.0915361359005
30
0
41
1
10
41.4658842790592
20
-2.22141019837088
30
0
41
1
10
41.6810484541206
20
-2.29162485518819
30
0
41
1
10
42.1075680138664
20
-2.41667284170595
30
0
41
1
10
42.319692289707
20
-2.47179548892592
30
0
41
1
10
42.9540913018251
20
-2.61432425548878
30
0
41
1
10
43.3743177580681
20
-2.67897579492137
30
0
41
1
10
44.2169036620434
20
-2.74483731076572
30
0
41
1
10
44.6392936005157
20
-2.74606724998728
30
0
41
1
10
45.0657792914108
20
-2.71404862413541
30
0
0
SPLINE
5
C6
100
AcDbEntity
8
1
62
256
6
ByLayer
370
18
48
1
60
0
100
AcDbSpline
70
4
71
3
72
46
73
42
40
0
40
0
40
0
40
0
40
0.0820513478352432
40
0.0820513478352432
40
0.123077021752866
40
0.123077021752866
40
0.164102695670488
40
0.164102695670488
40
0.246154043505736
40
0.246154043505736
40
0.28717971742336
40
0.28717971742336
40
0.328205391340985
40
0.328205391340985
40
0.410256739176236
40
0.410256739176236
40
0.492308087011487
40
0.492308087011487
40
0.533333760929114
40
0.533333760929114
40
0.574359434846741
40
0.574359434846741
40
0.656410782681992
40
0.656410782681992
40
0.697436456599618
40
0.697436456599618
40
0.717949293558431
40
0.717949293558431
40
0.738462130517245
40
0.738462130517245
40
0.820513478352501
40
0.820513478352501
40
0.902564826187756
40
0.902564826187756
40
0.92307766314657
40
0.92307766314657
40
0.943590500105383
40
0.943590500105383
40
0.984616174023013
40
0.984616174023013
40
1
40
1
40
1
40
1
41
1
10
45.0513942189421
20
-2.75215466445408
30
0
41
1
10
44.6233413068805
20
-2.78392023105624
30
0
41
1
10
44.196678633365
20
-2.78193270389511
30
0
41
1
10
43.5540471091527
20
-2.72890007931784
30
0
41
1
10
43.3387798311508
20
-2.70272597649452
30
0
41
1
10
42.9108756249846
20
-2.63449840348059
30
0
41
1
10
42.6979009047329
20
-2.59248111799476
30
0
41
1
10
42.0605099869729
20
-2.44404065078478
30
0
41
1
10
41.6376274846953
20
-2.31521617162582
30
0
41
1
10
41.0006316164081
20
-2.08251341744128
30
0
41
1
10
40.7878710411485
20
-1.99835112705881
30
0
41
1
10
40.3605161780147
20
-1.81774074489328
30
0
41
1
10
40.1451441779967
20
-1.72091864234761
30
0
41
1
10
39.5030148496464
20
-1.41755472437507
30
0
41
1
10
39.0788032458134
20
-1.19794403485884
30
0
41
1
10
38.2314354931482
20
-0.73504036135472
30
0
41
1
10
37.8078349196654
20
-0.492449400829088
30
0
41
1
10
37.1667791413444
20
-0.121525678675823
30
0
41
1
10
36.9513504038769
20
0.0037683887204878
30
0
41
1
10
36.5229430673068
20
0.252433112213709
30
0
41
1
10
36.30980179579
20
0.375810059158823
30
0
41
1
10
35.672288205645
20
0.740941108576948
30
0
41
1
10
35.2490497030714
20
0.976374532800662
30
0
41
1
10
34.6123715102279
20
1.31017314828412
30
0
41
1
10
34.3996961848865
20
1.41797173141751
30
0
41
1
10
34.0792840064827
20
1.57328983113908
30
0
41
1
10
33.9722418247388
20
1.62399244741681
30
0
41
1
10
33.7576459196396
20
1.72318418435859
30
0
41
1
10
33.6500514238195
20
1.77172276148352
30
0
41
1
10
33.1144375219705
20
2.00647308949323
30
0
41
1
10
32.6897567722231
20
2.16972114842346
30
0
41
1
10
31.8419906465244
20
2.44195529609766
30
0
41
1
10
31.4181060358212
20
2.55016129219658
30
0
41
1
10
30.8845145384788
20
2.64694687307471
30
0
41
1
10
30.7775714239918
20
2.66435151871201
30
0
41
1
10
30.5631028686265
20
2.6951473027672
30
0
41
1
10
30.4554305535412
20
2.70855071666412
30
0
41
1
10
30.1336821375286
20
2.74238793567943
30
0
41
1
10
29.9202641924314
20
2.75656547944266
30
0
41
1
10
29.627691400061
20
2.76467352420903
30
0
41
1
10
29.5479830604708
20
2.76572048979244
30
0
41
1
10
29.4683326314371
20
2.76560805459914
30
0
0
SPLINE
5
C7
100
AcDbEntity
8
1
62
256
6
ByLayer
370
18
48
1
60
0
100
AcDbSpline
70
4
71
3
72
30
73
26
40
0
40
0
40
0
40
0
40
0.13853554852976
40
0.13853554852976
40
0.24621860496354
40
0.24621860496354
40
0.353901661397319
40
0.353901661397319
40
0.407743189614209
40
0.407743189614209
40
0.4615847178311
40
0.4615847178311
40
0.56926777426488
40
0.56926777426488
40
0.676950830698661
40
0.676950830698661
40
0.730792358915551
40
0.730792358915551
40
0.784633887132441
40
0.784633887132441
40
0.892316943566221
40
0.892316943566221
40
0.94615847178311
40
0.94615847178311
40
1
40
1
40
1
40
1
41
1
10
16.0114323053813
20
-2.62168455378193
30
0
41
1
10
15.4655248551244
20
-2.71934012109426
30
0
41
1
10
14.9198754031691
20
-2.76529174049139
30
0
41
1
10
13.9359334885337
20
-2.74751558281267
30
0
41
1
10
13.5098650483686
20
-2.70601595233037
30
0
41
1
10
12.6603202367237
20
-2.56075112803416
30
0
41
1
10
12.2367559786726
20
-2.45682008664093
30
0
41
1
10
11.5971548303092
20
-2.25797425134866
30
0
41
1
10
11.3833432717146
20
-2.18444321645555
30
0
41
1
10
10.9533279765066
20
-2.02371321078755
30
0
41
1
10
10.738589800335
20
-1.93706083949056
30
0
41
1
10
10.0980115678466
20
-1.66196367715958
30
0
41
1
10
9.67416903684307
20
-1.45753927542228
30
0
41
1
10
8.82483694439347
20
-1.01898884872011
30
0
41
1
10
8.3996687667985
20
-0.784355565005086
30
0
41
1
10
7.75499449864665
20
-0.418904619245353
30
0
41
1
10
7.53991829470374
20
-0.295370195376762
30
0
41
1
10
7.11258087212116
20
-0.0490226465911974
30
0
41
1
10
6.89969502680202
20
0.0741502100674722
30
0
41
1
10
6.26206345106001
20
0.441368804979845
30
0
41
1
10
5.83851329096453
20
0.683401235584427
30
0
41
1
10
5.19923198699934
20
1.03138478035299
30
0
41
1
10
4.98549679787826
20
1.14490183259758
30
0
41
1
10
4.55581458728139
20
1.36536829746373
30
0
41
1
10
4.34016651424184
20
1.47213966693374
30
0
41
1
10
4.12492393427667
20
1.57405528164844
30
0
0
SPLINE
5
C8
100
AcDbEntity
8
1
62
256
6
ByLayer
370
18
48
1
60
0
100
AcDbSpline
70
4
71
3
72
74
73
70
40
0
40
0
40
0
40
0
40
0.0260632331029576
40
0.0260632331029576
40
0.0558135067051543
40
0.0558135067051543
40
0.0855637803073511
40
0.0855637803073511
40
0.115314053909548
40
0.115314053909548
40
0.145064327511745
40
0.145064327511745
40
0.174814601113941
40
0.174814601113941
40
0.204564874716138
40
0.204564874716138
40
0.234315148318335
40
0.234315148318335
40
0.264065421920532
40
0.264065421920532
40
0.293815695522728
40
0.293815695522728
40
0.323565969124925
40
0.323565969124925
40
0.353316242727122
40
0.353316242727122
40
0.383066516329318
40
0.383066516329318
40
0.412816789931515
40
0.412816789931515
40
0.442567063533712
40
0.442567063533712
40
0.472317337135909
40
0.472317337135909
40
0.502067610738106
40
0.502067610738106
40
0.561568157942499
40
0.561568157942499
40
0.591318431544696
40
0.591318431544696
40
0.621068705146893
40
0.621068705146893
40
0.635943841947991
40
0.635943841947991
40
0.650818978749089
40
0.650818978749089
40
0.680569252351286
40
0.680569252351286
40
0.710319525953483
40
0.710319525953483
40
0.740069799555679
40
0.740069799555679
40
0.769820073157876
40
0.769820073157876
40
0.799570346760073
40
0.799570346760073
40
0.82932062036227
40
0.82932062036227
40
0.859070893964466
40
0.859070893964466
40
0.888821167566662
40
0.888821167566662
40
0.918571441168858
40
0.918571441168858
40
0.948321714771054
40
0.948321714771054
40
0.97807198837325
40
0.97807198837325
40
1
40
1
40
1
40
1
41
1
10
10.4338093002218
20
2.01256222503611
30
0
41
1
10
10.5954585965284
20
2.07605780139974
30
0
41
1
10
10.7567090428679
20
2.13593697423269
30
0
41
1
10
11.1007064298806
20
2.25718099584796
30
0
41
1
10
11.2837916091502
20
2.3168164542061
30
0
41
1
10
11.6511013996163
20
2.42470540113624
30
0
41
1
10
11.8349947835776
20
2.47331903502416
30
0
41
1
10
12.202737470744
20
2.56011176214665
30
0
41
1
10
12.386375188594
20
2.59833169456542
30
0
41
1
10
12.7564649782884
20
2.66221118875123
30
0
41
1
10
12.9429514623243
20
2.68824549951972
30
0
41
1
10
13.3132333065313
20
2.72802329685075
30
0
41
1
10
13.4969993624728
20
2.74188242010106
30
0
41
1
10
13.8646284749024
20
2.75696853391702
30
0
41
1
10
14.0485302266546
20
2.7583136960892
30
0
41
1
10
14.4158298033403
20
2.74890767633914
30
0
41
1
10
14.5990314303678
20
2.73808551723556
30
0
41
1
10
14.9654902975969
20
2.70401471645485
30
0
41
1
10
15.1495036645922
20
2.68102999400534
30
0
41
1
10
15.5185811213314
20
2.6231666669681
30
0
41
1
10
15.7036095600726
20
2.58827012104257
30
0
41
1
10
16.0742801238712
20
2.50567309589999
30
0
41
1
10
16.2592022828619
20
2.45876024623874
30
0
41
1
10
16.6282187280298
20
2.35520220251971
30
0
41
1
10
16.8122510974344
20
2.29836520771474
30
0
41
1
10
17.1787915648014
20
2.17399981181401
30
0
41
1
10
17.3613304429489
20
2.10641698956144
30
0
41
1
10
17.7277899660304
20
1.96377591852379
30
0
41
1
10
17.9112684978066
20
1.88827540907962
30
0
41
1
10
18.2782237344849
20
1.72820741625324
30
0
41
1
10
18.4613080506001
20
1.64301967199469
30
0
41
1
10
18.829906351522
20
1.46670610193996
30
0
41
1
10
19.0154963772458
20
1.37523181196445
30
0
41
1
10
19.3869355877463
20
1.18553265507487
30
0
41
1
10
19.5712905849324
20
1.08741851328961
30
0
41
1
10
20.1227642645767
20
0.787445705435999
30
0
41
1
10
20.4902339824044
20
0.583335914524611
30
0
41
1
10
21.0383593609876
20
0.2662380771784
30
0
41
1
10
21.221477413007
20
0.160304258817064
30
0
41
1
10
21.5888481796136
20
-0.0514352336759885
30
0
41
1
10
21.7729692476326
20
-0.157469340448927
30
0
41
1
10
22.0493587553818
20
-0.317620139759185
30
0
41
1
10
22.1415051284676
20
-0.371223014957849
30
0
41
1
10
22.3264625528413
20
-0.477727907120027
30
0
41
1
10
22.4194380598672
20
-0.530643614989856
30
0
41
1
10
22.6976030513084
20
-0.687677416986133
30
0
41
1
10
22.8824134526798
20
-0.790248486995836
30
0
41
1
10
23.2502847095381
20
-0.992090448052721
30
0
41
1
10
23.4330300133755
20
-1.09182968370106
30
0
41
1
10
23.7994841113856
20
-1.28352523965955
30
0
41
1
10
23.9828257432244
20
-1.37613273047242
30
0
41
1
10
24.3492210845255
20
-1.55570754870669
30
0
41
1
10
24.5319099301827
20
-1.64317234561091
30
0
41
1
10
24.8985415049706
20
-1.81002401060837
30
0
41
1
10
25.082808447442
20
-1.88901322931145
30
0
41
1
10
25.4524547346098
20
-2.03919679244706
30
0
41
1
10
25.6383357103496
20
-2.11071855471934
30
0
41
1
10
26.0077124730886
20
-2.24385223278807
30
0
41
1
10
26.1920905320491
20
-2.30462089617774
30
0
41
1
10
26.560077453405
20
-2.41531341398957
30
0
41
1
10
26.7436314236143
20
-2.46529912624985
30
0
41
1
10
27.1092521399049
20
-2.55487440361543
30
0
41
1
10
27.2918860549347
20
-2.59397804385714
30
0
41
1
10
27.6583575929194
20
-2.66009756502544
30
0
41
1
10
27.8418795969312
20
-2.68735175950883
30
0
41
1
10
28.2089797805602
20
-2.73024120305041
30
0
41
1
10
28.3923758312571
20
-2.7458191797248
30
0
41
1
10
28.7134739033415
20
-2.76183849910416
30
0
41
1
10
28.8505365422609
20
-2.76526807990834
30
0
41
1
10
28.9872360464292
20
-2.76531696562321
30
0
0
SPLINE
5
C9
100
AcDbEntity
8
1
62
256
6
ByLayer
370
18
48
1
60
0
100
AcDbSpline
70
4
71
3
72
22
73
18
40
0
40
0
40
0
40
0
40
0.071271698347486
40
0.071271698347486
40
0.187362736054052
40
0.187362736054052
40
0.30345377376062
40
0.30345377376062
40
0.535635849173747
40
0.535635849173747
40
0.65172688688031
40
0.65172688688031
40
0.767817924586874
40
0.767817924586874
40
0.883908962293437
40
0.883908962293437
40
1
40
1
40
1
40
1
41
1
10
40.3709640533228
20
2.02421931897157
30
0
41
1
10
40.4831468938211
20
2.06902759577736
30
0
41
1
10
40.5952658546908
20
2.11228866084363
30
0
41
1
10
40.8904965647092
20
2.22111324044863
30
0
41
1
10
41.0742886170431
20
2.28324849148038
30
0
41
1
10
41.4427992960122
20
2.3978308337538
30
0
41
1
10
41.6275603866565
20
2.45037369397804
30
0
41
1
10
42.1827283289465
20
2.59216826984738
30
0
41
1
10
42.5514592653004
20
2.66163908298228
30
0
41
1
10
43.0999080233178
20
2.73136770588437
30
0
41
1
10
43.2824070410638
20
2.74850775262706
30
0
41
1
10
43.6484744433812
20
2.77042723395337
30
0
41
1
10
43.8317082618715
20
2.77533999638524
30
0
41
1
10
44.1980670830541
20
2.77290258582519
30
0
41
1
10
44.3809659826
20
2.76541729348662
30
0
41
1
10
44.7494976839591
20
2.73818912997223
30
0
41
1
10
44.9350261882076
20
2.71843331066089
30
0
41
1
10
45.1204927883632
20
2.69246303421175
30
0
0
SPLINE
5
CA
100
AcDbEntity
8
1
62
256
6
ByLayer
370
18
48
1
60
0
100
AcDbSpline
70
4
71
3
72
12
73
8
40
0
40
0
40
0
40
0
40
0.249999999999996
40
0.249999999999996
40
0.499999999999991
40
0.499999999999991
40
1
40
1
40
1
40
1
41
1
10
45.0657792913895
20
-2.71404862413701
30
0
41
1
10
45.0707727502551
20
-2.70080398146769
30
0
41
1
10
45.0753893713897
20
-2.68720561475897
30
0
41
1
10
45.0824236508884
20
-2.6629204355163
30
0
41
1
10
45.0847997594111
20
-2.65229846282784
30
0
41
1
10
45.0878350215995
20
-2.62940942725234
30
0
41
1
10
45.0849444724386
20
-2.6252381513269
30
0
41
1
10
45.0798663916478
20
-2.62779823117992
30
0
0
SPLINE
5
CB
100
AcDbEntity
8
1
62
256
6
ByLayer
370
18
48
1
60
0
100
AcDbSpline
70
4
71
3
72
20
73
16
40
0
40
0
40
0
40
0
40
0.0860584849684021
40
0.0860584849684021
40
0.216621558544345
40
0.216621558544345
40
0.47774770569623
40
0.47774770569623
40
0.608310779272172
40
0.608310779272172
40
0.738873852848115
40
0.738873852848115
40
0.869436926424058
40
0.869436926424058
40
1
40
1
40
1
40
1
41
1
10
44.9998204391634
20
-2.63690885001796
30
0
41
1
10
44.9746964865501
20
-2.63423622386469
30
0
41
1
10
44.9504387233715
20
-2.62896332548402
30
0
41
1
10
44.8916310358471
20
-2.60892850001926
30
0
41
1
10
44.8580434942743
20
-2.59049614148319
30
0
41
1
10
44.7655796152401
20
-2.51616817823842
30
0
41
1
10
44.7154222254779
20
-2.44245466608547
30
0
41
1
10
44.65839128596
20
-2.29358602913004
30
0
41
1
10
44.6423640811375
20
-2.23693590762102
30
0
41
1
10
44.6176738018927
20
-2.11312946991149
30
0
41
1
10
44.6089031783129
20
-2.04598477340008
30
0
41
1
10
44.5984426958579
20
-1.90131252867136
30
0
41
1
10
44.5967520677855
20
-1.82378610836329
30
0
41
1
10
44.6007164066248
20
-1.65796208319387
30
0
41
1
10
44.606410585994
20
-1.57016723431468
30
0
41
1
10
44.6156196163924
20
-1.47944990751563
30
0
0
SPLINE
5
CC
100
AcDbEntity
8
1
62
256
6
ByLayer
370
18
48
1
60
0
100
AcDbSpline
70
4
71
3
72
20
73
16
40
0
40
0
40
0
40
0
40
0.262639096073382
40
0.262639096073382
40
0.393958644110075
40
0.393958644110075
40
0.525278192146768
40
0.525278192146768
40
0.65659774018346
40
0.65659774018346
40
0.787917288220153
40
0.787917288220153
40
0.919236836256846
40
0.919236836256846
40
1
40
1
40
1
40
1
41
1
10
9.8101397780726
20
-1.74957551431101
30
0
41
1
10
10.180701828828
20
-1.91704746223243
30
0
41
1
10
10.5506236460055
20
-2.06330089252063
30
0
41
1
10
11.1007064298807
20
-2.25718099584799
30
0
41
1
10
11.2837916091504
20
-2.31681645420613
30
0
41
1
10
11.6511013996164
20
-2.42470540113627
30
0
41
1
10
11.8349947835778
20
-2.47331903502419
30
0
41
1
10
12.2027374707442
20
-2.5601117621467
30
0
41
1
10
12.3863751885942
20
-2.59833169456545
30
0
41
1
10
12.7564649782887
20
-2.66221118875126
30
0
41
1
10
12.9429514623246
20
-2.68824549951975
30
0
41
1
10
13.3132333065317
20
-2.72802329685078
30
0
41
1
10
13.4969993624731
20
-2.74188242010109
30
0
41
1
10
13.7938621687307
20
-2.75406455130749
30
0
41
1
10
13.9069433996465
20
-2.75635933156394
30
0
41
1
10
14.0199787154125
20
-2.75634464665353
30
0
0
SPLINE
5
CD
100
AcDbEntity
8
1
62
256
6
ByLayer
370
18
48
1
60
0
100
AcDbSpline
70
4
71
3
72
72
73
68
40
0
40
0
40
0
40
0
40
0.0225338938625177
40
0.0225338938625177
40
0.0522576612763788
40
0.0522576612763788
40
0.0819814286902401
40
0.0819814286902401
40
0.111705196104101
40
0.111705196104101
40
0.141428963517963
40
0.141428963517963
40
0.171152730931824
40
0.171152730931824
40
0.200876498345685
40
0.200876498345685
40
0.230600265759546
40
0.230600265759546
40
0.260324033173408
40
0.260324033173408
40
0.290047800587269
40
0.290047800587269
40
0.349495335414991
40
0.349495335414991
40
0.379219102828854
40
0.379219102828854
40
0.408942870242716
40
0.408942870242716
40
0.438666637656578
40
0.438666637656578
40
0.46839040507044
40
0.46839040507044
40
0.498114172484302
40
0.498114172484302
40
0.527837939898164
40
0.527837939898164
40
0.542699823605096
40
0.542699823605096
40
0.557561707312028
40
0.557561707312028
40
0.587285474725893
40
0.587285474725893
40
0.617009242139759
40
0.617009242139759
40
0.646733009553624
40
0.646733009553624
40
0.67645677696749
40
0.67645677696749
40
0.706180544381355
40
0.706180544381355
40
0.735904311795221
40
0.735904311795221
40
0.765628079209086
40
0.765628079209086
40
0.795351846622952
40
0.795351846622952
40
0.825075614036817
40
0.825075614036817
40
0.854799381450682
40
0.854799381450682
40
0.884523148864548
40
0.884523148864548
40
0.943970683692281
40
0.943970683692281
40
0.973694451106147
40
0.973694451106147
40
1
40
1
40
1
40
1
41
1
10
25.4019058748999
20
2.01795054624438
30
0
41
1
10
25.542310346687
20
2.07350763376641
30
0
41
1
10
25.6830099298057
20
2.12682038826983
30
0
41
1
10
26.0077124730906
20
2.24385223278875
30
0
41
1
10
26.1920905320511
20
2.30462089617839
30
0
41
1
10
26.5600774534071
20
2.41531341399016
30
0
41
1
10
26.7436314236164
20
2.46529912625041
30
0
41
1
10
27.1092521399071
20
2.55487440361591
30
0
41
1
10
27.2918860549369
20
2.59397804385756
30
0
41
1
10
27.6583575929216
20
2.66009756502578
30
0
41
1
10
27.8418795969335
20
2.68735175950914
30
0
41
1
10
28.2089797805625
20
2.73024120305064
30
0
41
1
10
28.3923758312595
20
2.74581917972497
30
0
41
1
10
28.7620767783915
20
2.76426325666532
30
0
41
1
10
28.948427498241
20
2.76728636369543
30
0
41
1
10
29.3182448570464
20
2.7608698094667
30
0
41
1
10
29.5017214645353
20
2.75134160281306
30
0
41
1
10
29.8687215499442
20
2.72021873047933
30
0
41
1
10
30.0522518925341
20
2.69874511121537
30
0
41
1
10
30.4187111831155
20
2.64402132488104
30
0
41
1
10
30.6014400239847
20
2.61062660797865
30
0
41
1
10
31.1495956658107
20
2.49267806347487
30
0
41
1
10
31.5179178139161
20
2.39289415496523
30
0
41
1
10
32.0717309645553
20
2.20781643765065
30
0
41
1
10
32.257468982045
20
2.1407606802905
30
0
41
1
10
32.6270345298732
20
1.99913568161824
30
0
41
1
10
32.8112383785238
20
1.92413800651536
30
0
41
1
10
33.1779262362538
20
1.76506671159393
30
0
41
1
10
33.3604368425386
20
1.68096432799283
30
0
41
1
10
33.7266347240959
20
1.50768976708159
30
0
41
1
10
33.909880686209
20
1.41794507661899
30
0
41
1
10
34.2761689491092
20
1.23146306555333
30
0
41
1
10
34.4588144212887
20
1.13404271322946
30
0
41
1
10
34.8263295433143
20
0.93589084173135
30
0
41
1
10
35.0110047881028
20
0.83490915639959
30
0
41
1
10
35.2889653836233
20
0.67978285665987
30
0
41
1
10
35.3818908940702
20
0.627414451604011
30
0
41
1
10
35.5668316723723
20
0.521934400742083
30
0
41
1
10
35.658931006009
20
0.468690834734332
30
0
41
1
10
35.9350303250803
20
0.309086641887546
30
0
41
1
10
36.119020031452
20
0.203180646503228
30
0
41
1
10
36.4861230442733
20
-0.0089753933634711
30
0
41
1
10
36.6691914520174
20
-0.115302327658412
30
0
41
1
10
37.0342809266099
20
-0.328568543118223
30
0
41
1
10
37.2171254159896
20
-0.434067705009397
30
0
41
1
10
37.5837826891108
20
-0.642188486573275
30
0
41
1
10
37.7674541168221
20
-0.745057619666909
30
0
41
1
10
38.1348926356754
20
-0.949384614761783
30
0
41
1
10
38.3189068180857
20
-1.05041023262268
30
0
41
1
10
38.6898963406831
20
-1.24615584905709
30
0
41
1
10
38.8753214702552
20
-1.34097437655652
30
0
41
1
10
39.2436188822755
20
-1.52439242574104
30
0
41
1
10
39.4264639527291
20
-1.61357243081289
30
0
41
1
10
39.79291389538
20
-1.78207329760511
30
0
41
1
10
39.9761667322722
20
-1.86197834899659
30
0
41
1
10
40.3422076563161
20
-2.01388054005935
30
0
41
1
10
40.52464324499
20
-2.08625655933631
30
0
41
1
10
40.8904965647131
20
-2.22111324045002
30
0
41
1
10
41.0742886170471
20
-2.28324849148166
30
0
41
1
10
41.4427992960163
20
-2.397830833755
30
0
41
1
10
41.6275603866607
20
-2.45037369397915
30
0
41
1
10
42.1827283289506
20
-2.59216826984826
30
0
41
1
10
42.5514592653046
20
-2.66163908298299
30
0
41
1
10
43.099908023322
20
-2.73136770588479
30
0
41
1
10
43.282407041068
20
-2.74850775262743
30
0
41
1
10
43.6274256584728
20
-2.76916686920947
30
0
41
1
10
43.7895673117916
20
-2.77413009529829
30
0
41
1
10
43.9516892766729
20
-2.77429860722646
30
0
0
SPLINE
5
CE
100
AcDbEntity
8
1
62
256
6
ByLayer
370
18
48
1
60
0
100
AcDbSpline
70
4
71
3
72
60
73
56
40
0
40
0
40
0
40
0
40
0.0624999999999815
40
0.0624999999999815
40
0.124999999999963
40
0.124999999999963
40
0.249999999999925
40
0.249999999999925
40
0.374999999999886
40
0.374999999999886
40
0.437499999999866
40
0.437499999999866
40
0.499999999999846
40
0.499999999999846
40
0.562499999999826
40
0.562499999999826
40
0.624999999999806
40
0.624999999999806
40
0.628906249999805
40
0.628906249999805
40
0.630859374999805
40
0.630859374999805
40
0.632812499999805
40
0.632812499999805
40
0.640624999999809
40
0.640624999999809
40
0.656249999999817
40
0.656249999999817
40
0.687499999999834
40
0.687499999999834
40
0.703124999999842
40
0.703124999999842
40
0.71874999999985
40
0.71874999999985
40
0.734374999999858
40
0.734374999999858
40
0.742187499999862
40
0.742187499999862
40
0.749999999999866
40
0.749999999999866
40
0.765624999999874
40
0.765624999999874
40
0.781249999999883
40
0.781249999999883
40
0.796874999999891
40
0.796874999999891
40
0.812499999999899
40
0.812499999999899
40
0.843749999999916
40
0.843749999999916
40
0.874999999999933
40
0.874999999999933
40
0.937499999999967
40
0.937499999999967
40
1
40
1
40
1
40
1
41
1
10
9.80931366200733
20
-1.74920977362382
30
0
41
1
10
9.59376193557009
20
-1.65254364824796
30
0
41
1
10
9.37679565739779
20
-1.55272840029096
30
0
41
1
10
8.93936962558661
20
-1.34901382821059
30
0
41
1
10
8.71883159654848
20
-1.24507944291577
30
0
41
1
10
8.05678749312401
20
-0.934139022238867
30
0
41
1
10
7.6127409433156
20
-0.727015086617428
30
0
41
1
10
6.71078263324057
20
-0.337031750209974
30
0
41
1
10
6.25277754592244
20
-0.154405355264714
30
0
41
1
10
5.55015632010969
20
0.0851091986380368
30
0
41
1
10
5.3133709106867
20
0.159257202110552
30
0
41
1
10
4.83410692505794
20
0.294215103735212
30
0
41
1
10
4.59202188942675
20
0.354888858117022
30
0
41
1
10
4.10526139106227
20
0.460874005441809
30
0
41
1
10
3.85997465185429
20
0.506335508833104
30
0
41
1
10
3.367387263719
20
0.581236026704289
30
0
41
1
10
3.12002754059424
20
0.610719986171631
30
0
41
1
10
2.85601476484439
20
0.633321391874262
30
0
41
1
10
2.84040195325991
20
0.63396446227739
30
0
41
1
10
2.81749354888666
20
0.63098292064376
30
0
41
1
10
2.80991312261335
20
0.629433728237217
30
0
41
1
10
2.79498542443201
20
0.62456999456424
30
0
41
1
10
2.78817270553992
20
0.620980017849973
30
0
41
1
10
2.75386871456999
20
0.603448691004587
30
0
41
1
10
2.72665468425035
20
0.588992281011059
30
0
41
1
10
2.64577076486756
20
0.544189573757194
30
0
41
1
10
2.59282351634596
20
0.512388197239943
30
0
41
1
10
2.43921102289659
20
0.410818554780462
30
0
41
1
10
2.34303050980566
20
0.335037140450112
30
0
41
1
10
2.21482529405583
20
0.200282374437762
30
0
41
1
10
2.1753308928204
20
0.152165551870496
30
0
41
1
10
2.10633426021713
20
0.0497636045489855
30
0
41
1
10
2.07629226421551
20
-0.0055878953125728
30
0
41
1
10
2.03052667068664
20
-0.120409663945026
30
0
41
1
10
2.01469523761557
20
-0.17962154806807
30
0
41
1
10
2.00238492696343
20
-0.271340550859549
30
0
41
1
10
2.00021203127324
20
-0.302597391819376
30
0
41
1
10
1.99979360103265
20
-0.364247704679542
30
0
41
1
10
2.00149842920797
20
-0.39482025285281
30
0
41
1
10
2.01186665868363
20
-0.485832261898054
30
0
41
1
10
2.02602648225695
20
-0.54614121774614
30
0
41
1
10
2.06460810752671
20
-0.660816175770833
30
0
41
1
10
2.08894351107614
20
-0.715597730653826
30
0
41
1
10
2.14516180864052
20
-0.821266638039987
30
0
41
1
10
2.1772414534874
20
-0.872339986771095
30
0
41
1
10
2.24574855798849
20
-0.969205200379548
30
0
41
1
10
2.28231747551663
20
-1.01530193051715
30
0
41
1
10
2.39725489670869
20
-1.14820828418198
30
0
41
1
10
2.48080677412392
20
-1.22974993770214
30
0
41
1
10
2.65668141807694
20
-1.38309466598386
30
0
41
1
10
2.7477304098295
20
-1.4537152821093
30
0
41
1
10
3.02704737338556
20
-1.65277944367537
30
0
41
1
10
3.22135292139461
20
-1.76865021209281
30
0
41
1
10
3.61926324650102
20
-1.97839642619286
30
0
41
1
10
3.82364385451353
20
-2.07217539378482
30
0
41
1
10
4.02824058701162
20
-2.15552922090186
30
0
0
SPLINE
5
CF
100
AcDbEntity
8
1
62
256
6
ByLayer
370
18
48
1
60
0
100
AcDbSpline
70
4
71
3
72
16
73
12
40
0
40
0
40
0
40
0
40
0.25
40
0.25
40
0.5
40
0.5
40
0.625
40
0.625
40
0.75
40
0.75
40
1
40
1
40
1
40
1
41
1
10
44.7735161985219
20
0.551618431344224
30
0
41
1
10
44.7680227493138
20
0.58034090838305
30
0
41
1
10
44.7661836716642
20
0.60975779573522
30
0
41
1
10
44.7707190095297
20
0.670324841324742
30
0
41
1
10
44.7770857497227
20
0.700842664090885
30
0
41
1
10
44.7950622102442
20
0.744674267394515
30
0
41
1
10
44.8022374537574
20
0.758918008253062
30
0
41
1
10
44.8203426748862
20
0.784903178313414
30
0
41
1
10
44.8314618802514
20
0.796762365720696
30
0
41
1
10
44.8683374542373
20
0.826597698221349
30
0
41
1
10
44.8981930069983
20
0.839551647078281
30
0
41
1
10
44.9291159580375
20
0.846847444820497
30
0
0
SPLINE
5
D0
100
AcDbEntity
8
1
62
256
6
ByLayer
370
18
48
1
60
0
100
AcDbSpline
70
4
71
3
72
12
73
8
40
0
40
0
40
0
40
0
40
0.25
40
0.25
40
0.5
40
0.5
40
1
40
1
40
1
40
1
41
1
10
4.25136174733126
20
-2.10229333877774
30
0
41
1
10
4.43020240720278
20
-2.17215704152176
30
0
41
1
10
4.61047666083871
20
-2.23399396446143
30
0
41
1
10
4.97371714940661
20
-2.34285545072188
30
0
41
1
10
5.15702948335576
20
-2.38997338371308
30
0
41
1
10
5.70851553541317
20
-2.51039133016846
30
0
41
1
10
6.07767232098155
20
-2.56235314514521
30
0
41
1
10
6.45121429232071
20
-2.59174403974325
30
0
0
SPLINE
5
D1
100
AcDbEntity
8
1
62
256
6
ByLayer
370
18
48
1
60
0
100
AcDbSpline
70
4
71
3
72
8
73
4
40
0
40
0
40
0
40
0
40
1
40
1
40
1
40
1
41
1
10
45.0513942189421
20
2.75215466445408
30
0
41
1
10
44.8470409290594
20
2.76731960751889
30
0
41
1
10
44.6428626564232
20
2.77480225841643
30
0
41
1
10
44.4385154648142
20
2.7746126814441
30
0
0
SPLINE
5
D2
100
AcDbEntity
8
1
62
256
6
ByLayer
370
18
48
1
60
0
100
AcDbSpline
70
4
71
3
72
44
73
40
40
0
40
0
40
0
40
0
40
0.0356590513147053
40
0.0356590513147053
40
0.0745876622058523
40
0.0745876622058523
40
0.152444883988148
40
0.152444883988148
40
0.191373494879296
40
0.191373494879296
40
0.230302105770444
40
0.230302105770444
40
0.386016549335035
40
0.386016549335035
40
0.424945160226182
40
0.424945160226182
40
0.463873771117329
40
0.463873771117329
40
0.541730992899623
40
0.541730992899623
40
0.58065960379077
40
0.58065960379077
40
0.619588214681917
40
0.619588214681917
40
0.69744543646421
40
0.69744543646421
40
0.775302658246504
40
0.775302658246504
40
0.814231269137651
40
0.814231269137651
40
0.853159880028798
40
0.853159880028798
40
0.931017101811092
40
0.931017101811092
40
0.969945712702238
40
0.969945712702238
40
0.989410018147812
40
0.989410018147812
40
1
40
1
40
1
40
1
41
1
10
30.9379046461415
20
-2.63709480163672
30
0
41
1
10
30.741652602039
20
-2.67145696066569
30
0
41
1
10
30.5443746070266
20
-2.69918972672787
30
0
41
1
10
30.1346249773565
20
-2.74229645172073
30
0
41
1
10
29.9216938419296
20
-2.75647997950159
30
0
41
1
10
29.2843548067933
20
-2.77427957233078
30
0
41
1
10
28.8611760283604
20
-2.75314730421505
30
0
41
1
10
28.2236808995495
20
-2.67263384335809
30
0
41
1
10
28.0106463007795
20
-2.63768394504757
30
0
41
1
10
27.5825809621055
20
-2.55173012761
30
0
41
1
10
27.3669800369654
20
-2.50051686978523
30
0
41
1
10
26.2971538681279
20
-2.20912074430547
30
0
41
1
10
25.4563701466273
20
-1.86238179791869
30
0
41
1
10
24.3868232316288
20
-1.33214509326001
30
0
41
1
10
24.1712282050334
20
-1.22093602663088
30
0
41
1
10
23.7429229424775
20
-0.993420263478669
30
0
41
1
10
23.5297945585067
20
-0.876789188447418
30
0
41
1
10
22.8919619110126
20
-0.520914140274385
30
0
41
1
10
22.4685815066348
20
-0.276087637559385
30
0
41
1
10
21.8311720991901
20
0.0936258370765586
30
0
41
1
10
21.6182183074326
20
0.217110686230882
30
0
41
1
10
21.1904290633175
20
0.46297617878821
30
0
41
1
10
20.9748670208661
20
0.585900892769445
30
0
41
1
10
20.3321255069628
20
0.946091930162822
30
0
41
1
10
19.9074475474303
20
1.17487688678179
30
0
41
1
10
19.0590906994598
20
1.59989043026579
30
0
41
1
10
18.6349479942139
20
1.79540093837713
30
0
41
1
10
17.9936343783884
20
2.05542140014333
30
0
41
1
10
17.7781442111699
20
2.13674012359331
30
0
41
1
10
17.3492398742508
20
2.28503195467462
30
0
41
1
10
17.1358522312198
20
2.35210198014897
30
0
41
1
10
16.4972861936504
20
2.5310773442726
30
0
41
1
10
16.0739349729346
20
2.62092114812427
30
0
41
1
10
15.4364126108352
20
2.70788824214921
30
0
41
1
10
15.2235813904565
20
2.72895483856442
30
0
41
1
10
14.9030288006485
20
2.74819462748809
30
0
41
1
10
14.795952995665
20
2.75254786811522
30
0
41
1
10
14.6301844820021
20
2.75603859752064
30
0
41
1
10
14.5716543868824
20
2.75664643369456
30
0
41
1
10
14.513141382552
20
2.75663254828578
30
0
0
SPLINE
5
D3
100
AcDbEntity
8
1
62
256
6
ByLayer
370
18
48
1
60
0
100
AcDbSpline
70
4
71
3
72
18
73
14
40
0
40
0
40
0
40
0
40
0.25
40
0.25
40
0.499999999999999
40
0.499999999999999
40
0.624999999999999
40
0.624999999999999
40
0.75
40
0.75
40
0.875
40
0.875
40
1
40
1
40
1
40
1
41
1
10
45.628108425419
20
1.37226533251052
30
0
41
1
10
45.5866654489888
20
1.48380516093474
30
0
41
1
10
45.5449080748677
20
1.59502499722777
30
0
41
1
10
45.4613360383672
20
1.81740636215881
30
0
41
1
10
45.419367284644
20
1.92855225844608
30
0
41
1
10
45.3559133665602
20
2.09427878213538
30
0
41
1
10
45.3346741275606
20
2.14921852153503
30
0
41
1
10
45.2921720921089
20
2.2590169772329
30
0
41
1
10
45.2709147212161
20
2.31389435410731
30
0
41
1
10
45.2282757112291
20
2.42322170192301
30
0
41
1
10
45.2069008587047
20
2.47769501447667
30
0
41
1
10
45.1638544107328
20
2.58562102703186
30
0
41
1
10
45.1421842976193
20
2.63907882534764
30
0
41
1
10
45.1204927883814
20
2.69246303419771
30
0
0
SPLINE
5
D4
100
AcDbEntity
8
1
62
256
6
ByLayer
370
18
48
1
60
0
100
AcDbSpline
70
4
71
3
72
14
73
10
40
0
40
0
40
0
40
0
40
0.268968741243053
40
0.268968741243053
40
0.681501340056432
40
0.681501340056432
40
0.887767639463121
40
0.887767639463121
40
1
40
1
40
1
40
1
41
1
10
44.6344486217313
20
-2.63883665101332
30
0
41
1
10
44.3570921483511
20
-2.63848507463126
30
0
41
1
10
44.0811109519262
20
-2.62465374276889
30
0
41
1
10
43.383331229486
20
-2.55679367951993
30
0
41
1
10
42.9622618357527
20
-2.48522355940867
30
0
41
1
10
42.3272012106733
20
-2.3346671441239
30
0
41
1
10
42.1149651675955
20
-2.27726894168481
30
0
41
1
10
41.7856956581587
20
-2.17791910765493
30
0
41
1
10
41.6692099260528
20
-2.14079095757265
30
0
41
1
10
41.5527808317814
20
-2.10181514203887
30
0
0
SPLINE
5
D5
100
AcDbEntity
8
1
62
256
6
ByLayer
370
13
48
1
60
0
100
AcDbSpline
70
4
71
3
72
24
73
20
40
0
40
0
40
0
40
0
40
0.0375713050738282
40
0.0375713050738282
40
0.202398901468877
40
0.202398901468877
40
0.367226497863927
40
0.367226497863927
40
0.449640296061449
40
0.449640296061449
40
0.532054094258972
40
0.532054094258972
40
0.696881690654013
40
0.696881690654013
40
0.861709287049054
40
0.861709287049054
40
0.944123085246577
40
0.944123085246577
40
1
40
1
40
1
40
1
41
1
10
41.552780831771
20
-2.10181514203535
30
0
41
1
10
41.4552306574663
20
-2.06915923568491
30
0
41
1
10
41.3577202425504
20
-2.03520628028511
30
0
41
1
10
40.8342703549408
20
-1.84617308999228
30
0
41
1
10
40.4119004837084
20
-1.66961117103003
30
0
41
1
10
39.5677558116678
20
-1.28238084896623
30
0
41
1
10
39.1459136348751
20
-1.07178373448545
30
0
41
1
10
38.5089205361256
20
-0.737591411576204
30
0
41
1
10
38.2957016564002
20
-0.623179740231336
30
0
41
1
10
37.8672189884958
20
-0.390435411848983
30
0
41
1
10
37.6540619116168
20
-0.273216608194616
30
0
41
1
10
37.0164913718127
20
0.0785012035427428
30
0
41
1
10
36.5939630810737
20
0.313018519241353
30
0
41
1
10
35.7479700291743
20
0.77130424875358
30
0
41
1
10
35.3238311349957
20
0.993813231070391
30
0
41
1
10
34.6815559757388
20
1.30973427650429
30
0
41
1
10
34.4678335521801
20
1.41117936326464
30
0
41
1
10
34.1109124003625
20
1.57269613081365
30
0
41
1
10
33.9669992359288
20
1.63563907692364
30
0
41
1
10
33.8233182094812
20
1.69625773948795
30
0
0
SPLINE
5
D6
100
AcDbEntity
8
1
62
256
6
ByLayer
370
18
48
1
60
0
100
AcDbSpline
70
4
71
3
72
16
73
12
40
0
40
0
40
0
40
0
40
0.0794208398514604
40
0.0794208398514604
40
0.51222651541525
40
0.51222651541525
40
0.728629353197144
40
0.728629353197144
40
0.945032190979039
40
0.945032190979039
40
1
40
1
40
1
40
1
41
1
10
14.7088139814152
20
-2.62083244174281
30
0
41
1
10
14.6310900363198
20
-2.62075746531892
30
0
41
1
10
14.5533872975513
20
-2.61963333138644
30
0
41
1
10
14.0522331516932
20
-2.60561740007725
30
0
41
1
10
13.6289269764569
20
-2.56282276449099
30
0
41
1
10
12.9886887930614
20
-2.45267127813261
30
0
41
1
10
12.7737080383048
20
-2.40810186235723
30
0
41
1
10
12.3462049614576
20
-2.30525070629181
30
0
41
1
10
12.1333868135885
20
-2.24693421687076
30
0
41
1
10
11.867121825886
20
-2.16584381587853
30
0
41
1
10
11.8132216789859
20
-2.14900900050151
30
0
41
1
10
11.7593475925852
20
-2.13177367101542
30
0
0
SPLINE
5
D7
100
AcDbEntity
8
1
62
256
6
ByLayer
370
13
48
1
60
0
100
AcDbSpline
70
4
71
3
72
24
73
20
40
0
40
0
40
0
40
0
40
0.148645849257126
40
0.148645849257126
40
0.233781264331414
40
0.233781264331414
40
0.318916679405702
40
0.318916679405702
40
0.489187509554277
40
0.489187509554277
40
0.574322924628563
40
0.574322924628563
40
0.65945833970285
40
0.65945833970285
40
0.829729169851425
40
0.829729169851425
40
0.914864584925712
40
0.914864584925712
40
1
40
1
40
1
40
1
41
1
10
11.7593475927521
20
-2.13177367106886
30
0
41
1
10
11.3890277595033
20
-2.01330141905751
30
0
41
1
10
11.0199392630001
20
-1.87590521114703
30
0
41
1
10
10.4376061788012
20
-1.63461933032639
30
0
41
1
10
10.2251908539361
20
-1.54146253110457
30
0
41
1
10
9.79878426915812
20
-1.34578272315315
30
0
41
1
10
9.58421690991622
20
-1.24298211509205
30
0
41
1
10
8.94110955116642
20
-0.924545395969631
30
0
41
1
10
8.51423086679682
20
-0.699221712277449
30
0
41
1
10
7.87109283457553
20
-0.351382829052625
30
0
41
1
10
7.65659307231675
20
-0.234004991893784
30
0
41
1
10
7.23015102278242
20
-4.62540568265E-05
30
0
41
1
10
7.01769319597318
20
0.116825802550693
30
0
41
1
10
6.38130847931575
20
0.464723881224728
30
0
41
1
10
5.95856835972114
20
0.693416206402219
30
0
41
1
10
5.32111855716079
20
1.02143741224037
30
0
41
1
10
5.10808002797674
20
1.12827179109527
30
0
41
1
10
4.68001012178792
20
1.33530708841752
30
0
41
1
10
4.46498647190879
20
1.4354660007682
30
0
41
1
10
4.25042081923266
20
1.53076993040941
30
0
0
SPLINE
5
D8
100
AcDbEntity
8
1
62
256
6
ByLayer
370
18
48
1
60
0
100
AcDbSpline
70
4
71
3
72
8
73
4
40
0
40
0
40
0
40
0
40
1
40
1
40
1
40
1
41
1
10
4.12551849175563
20
1.56397791294719
30
0
41
1
10
4.14902458198205
20
1.54524167423057
30
0
41
1
10
4.17449765483371
20
1.52959193648164
30
0
41
1
10
4.2007540601314
20
1.51720876257087
30
0
0
SPLINE
5
D9
100
AcDbEntity
8
1
62
256
6
ByLayer
370
18
48
1
60
0
100
AcDbSpline
70
4
71
3
72
59
73
55
40
0
40
0
40
0
40
0
40
0.0966409003832213
40
0.0966409003832213
40
0.153757577885531
40
0.153757577885531
40
0.182315916636685
40
0.182315916636685
40
0.18588570898058
40
0.187670605152527
40
0.188563053238501
40
0.188563053238501
40
0.189455501324474
40
0.189455501324474
40
0.193025293668369
40
0.193025293668369
40
0.196595086012263
40
0.196595086012263
40
0.21087425538784
40
0.21087425538784
40
0.26799093289015
40
0.26799093289015
40
0.325107610392461
40
0.325107610392461
40
0.439340965397081
40
0.439340965397081
40
0.553574320401701
40
0.553574320401701
40
0.582132659152856
40
0.582132659152856
40
0.596411828528434
40
0.596411828528434
40
0.599981620872328
40
0.599981620872328
40
0.601766517044275
40
0.601766517044275
40
0.602658965130249
40
0.602658965130249
40
0.603105189173235
40
0.603105189173235
40
0.603551413216222
40
0.61069099790401
40
0.61069099790401
40
0.667807675406313
40
0.667807675406313
40
0.78204103041092
40
0.78204103041092
40
0.839157707913223
40
0.839157707913223
40
0.896274385415526
40
0.896274385415526
40
0.953391062917829
40
0.953391062917829
40
1
40
1
40
1
40
1
41
1
10
7.23585003098512
20
-0.560219972410721
30
0
41
1
10
7.07113444449038
20
-0.52579900833635
30
0
41
1
10
6.90639999752065
20
-0.503895173209173
30
0
41
1
10
6.64133498856853
20
-0.490325379995795
30
0
41
1
10
6.54253025336854
20
-0.489992528727044
30
0
41
1
10
6.39438800395382
20
-0.496540242467091
30
0
41
1
10
6.34495864627002
20
-0.499895622769287
30
0
41
1
10
6.28934118432801
20
-0.504972236426312
30
0
41
1
10
6.28007112240107
20
-0.505845459725805
30
0
41
1
10
6.26925535525544
20
-0.50691157699282
30
0
41
1
10
6.26461987068487
20
-0.507378622675589
30
0
41
1
10
6.26152950999821
20
-0.50769223860209
30
0
41
1
10
6.26319208437423
20
-0.508691228128953
30
0
41
1
10
6.26924329747777
20
-0.511993160296242
30
0
41
1
10
6.27497097631974
20
-0.514363727252345
30
0
41
1
10
6.28616485384904
20
-0.519158035725184
30
0
41
1
10
6.29184836544582
20
-0.521520885706053
30
0
41
1
10
6.32042805237049
20
-0.533273517028874
30
0
41
1
10
6.34376130438056
20
-0.542492880114082
30
0
41
1
10
6.46068835653648
20
-0.588497091104983
30
0
41
1
10
6.55560059021224
20
-0.624883570193532
30
0
41
1
10
6.74552410631733
20
-0.697997006846208
30
0
41
1
10
6.84075731558488
20
-0.734628348651768
30
0
41
1
10
7.12680743290213
20
-0.844991766880042
30
0
41
1
10
7.31754076333465
20
-0.919836360128102
30
0
41
1
10
7.69936438398457
20
-1.0715224813558
30
0
41
1
10
7.89019713174432
20
-1.14839236604317
30
0
41
1
10
8.12688710124539
20
-1.24862832789614
30
0
41
1
10
8.17414563242264
20
-1.26887359326989
30
0
41
1
10
8.24444512287917
20
-1.30025345593785
30
0
41
1
10
8.26783702471243
20
-1.31079180999731
30
0
41
1
10
8.29646687314528
20
-1.32496124025459
30
0
41
1
10
8.30216293837202
20
-1.3278439905919
30
0
41
1
10
8.31053111862272
20
-1.33245226613985
30
0
41
1
10
8.31330068719333
20
-1.33402274794545
30
0
41
1
10
8.31724718216458
20
-1.33663361768146
30
0
41
1
10
8.3185841875777
20
-1.33750966104901
30
0
41
1
10
8.32016738280851
20
-1.33923203241056
30
0
41
1
10
8.32030700562399
20
-1.34006623868112
30
0
41
1
10
8.31895610719283
20
-1.34123593465068
30
0
41
1
10
8.30747350705724
20
-1.3511792428946
30
0
41
1
10
8.29599185232576
20
-1.3611372932703
30
0
41
1
10
8.19874030316186
20
-1.44558685106944
30
0
41
1
10
8.11221144770315
20
-1.52148129953463
30
0
41
1
10
7.8533586948173
20
-1.74677577000176
30
0
41
1
10
7.68192886272021
20
-1.89396257280089
30
0
41
1
10
7.41649359914413
20
-2.09819413282961
30
0
41
1
10
7.32715753807872
20
-2.16296077870109
30
0
41
1
10
7.14765255476968
20
-2.28207169272739
30
0
41
1
10
7.05710043912751
20
-2.33670135565987
30
0
41
1
10
6.87288747201487
20
-2.43462085631205
30
0
41
1
10
6.77860342749173
20
-2.47811315327269
30
0
41
1
10
6.606761924815
20
-2.54482431708399
30
0
41
1
10
6.5293449339145
20
-2.57037382775238
30
0
41
1
10
6.45154366277961
20
-2.59186854167757
30
0
0
SPLINE
5
DA
100
AcDbEntity
8
1
62
256
6
ByLayer
370
18
48
1
60
0
100
AcDbSpline
70
4
71
3
72
24
73
20
40
0
40
0
40
0
40
0
40
0.0212938204864556
40
0.0212938204864556
40
0.103193926671781
40
0.103193926671781
40
0.185094032857106
40
0.185094032857106
40
0.512694457598408
40
0.512694457598408
40
0.594594563783734
40
0.594594563783734
40
0.67649466996906
40
0.67649466996906
40
0.840294882339709
40
0.840294882339709
40
0.922194988525033
40
0.922194988525033
40
1
40
1
40
1
40
1
41
1
10
18.1020608574241
20
1.98370557330429
30
0
41
1
10
18.1571897588525
20
1.96216371518102
30
0
41
1
10
18.2123387240329
20
1.94021440350193
30
0
41
1
10
18.4797372933252
20
1.83191295792395
30
0
41
1
10
18.6924039994869
20
1.74011969490965
30
0
41
1
10
19.1195697020535
20
1.54576860015268
30
0
41
1
10
19.3347613785734
20
1.44266203118158
30
0
41
1
10
20.4047987970477
20
0.909755284883488
30
0
41
1
10
21.2451815068937
20
0.427639812531169
30
0
41
1
10
22.3118563325469
20
-0.182640259972317
30
0
41
1
10
22.5266957883213
20
-0.30531852060696
30
0
41
1
10
22.9556423718075
20
-0.547506808522428
30
0
41
1
10
23.1694707504472
20
-0.666997101380986
30
0
41
1
10
23.8104044518442
20
-1.01838552719096
30
0
41
1
10
24.2376623027985
20
-1.24286334897093
30
0
41
1
10
24.8819006909038
20
-1.55525904024012
30
0
41
1
10
25.0969522786892
20
-1.65503220162529
30
0
41
1
10
25.5137804521113
20
-1.83806947686537
30
0
41
1
10
25.7159334467875
20
-1.92214101912765
30
0
41
1
10
25.9176169561032
20
-2.00068026328228
30
0
0
SPLINE
5
DB
100
AcDbEntity
8
1
62
256
6
ByLayer
370
13
48
1
60
0
100
AcDbSpline
70
4
71
3
72
18
73
14
40
0
40
0
40
0
40
0
40
0.0065607527095648
40
0.0065607527095648
40
0.268992810532512
40
0.268992810532512
40
0.400208839443982
40
0.400208839443982
40
0.531424868355452
40
0.531424868355452
40
0.793856926178398
40
0.793856926178398
40
1
40
1
40
1
40
1
41
1
10
25.9176178878853
20
-2.00068062613525
30
0
41
1
10
25.9282327426976
20
-2.00481424371111
30
0
41
1
10
25.9388462970146
20
-2.00893253655209
30
0
41
1
10
26.3739545321348
20
-2.17715286644844
30
0
41
1
10
26.7965794136531
20
-2.3163939571881
30
0
41
1
10
27.4329406610493
20
-2.48285754942452
30
0
41
1
10
27.6455226662111
20
-2.5312321935937
30
0
41
1
10
28.0724342896544
20
-2.61278717260711
30
0
41
1
10
28.2875448768882
20
-2.64606117400424
30
0
41
1
10
28.9292362865129
20
-2.72107959372508
30
0
41
1
10
29.3531150082075
20
-2.73822273550775
30
0
41
1
10
30.1092186453994
20
-2.71139323096463
30
0
41
1
10
30.4417036239217
20
-2.67964743429863
30
0
41
1
10
30.7756626822674
20
-2.62821156176398
30
0
0
SPLINE
5
DC
100
AcDbEntity
8
1
62
256
6
ByLayer
370
18
48
1
60
0
100
AcDbSpline
70
4
71
3
72
8
73
4
40
0
40
0
40
0
40
0
40
1
40
1
40
1
40
1
41
1
10
45.0513942189421
20
-2.75215466445408
30
0
41
1
10
45.0561933893923
20
-2.73945796010224
30
0
41
1
10
45.0609884559518
20
-2.72675582879219
30
0
41
1
10
45.0657792914115
20
-2.71404862413502
30
0
0
SPLINE
5
DD
100
AcDbEntity
8
1
62
256
6
ByLayer
370
18
48
1
60
0
100
AcDbSpline
70
2053
71
3
72
50
73
46
40
0
40
0
40
0
40
0
40
0.0312499999999972
40
0.0312499999999972
40
0.0624999999999944
40
0.0624999999999944
40
0.0937499999999917
40
0.0937499999999917
40
0.124999999999989
40
0.124999999999989
40
0.156249999999986
40
0.156249999999986
40
0.187499999999983
40
0.187499999999983
40
0.249999999999977
40
0.249999999999977
40
0.281249999999976
40
0.281249999999976
40
0.312499999999974
40
0.312499999999974
40
0.374999999999977
40
0.374999999999977
40
0.43749999999998
40
0.43749999999998
40
0.499999999999982
40
0.499999999999982
40
0.531249999999983
40
0.531249999999983
40
0.562499999999984
40
0.562499999999984
40
0.593749999999986
40
0.593749999999986
40
0.624999999999987
40
0.624999999999987
40
0.687499999999989
40
0.687499999999989
40
0.749999999999991
40
0.749999999999991
40
0.812499999999993
40
0.812499999999993
40
0.874999999999996
40
0.874999999999996
40
0.937499999999998
40
0.937499999999998
40
1
40
1
40
1
40
1
41
1
10
45.2587793435862
20
-0.949254643402451
30
0
41
1
10
45.2469868228002
20
-0.966027843777681
30
0
41
1
10
45.2354350064002
20
-0.984008303555953
30
0
41
1
10
45.2128519660443
20
-1.02258035209906
30
0
41
1
10
45.2017007488808
20
-1.04342033946276
30
0
41
1
10
45.1806715178661
20
-1.08692383462838
30
0
41
1
10
45.1708336930941
20
-1.10944682942204
30
0
41
1
10
45.1527018360568
20
-1.15625207132001
30
0
41
1
10
45.1445800346971
20
-1.18017264590992
30
0
41
1
10
45.1310002582737
20
-1.22713378960449
30
0
41
1
10
45.1253721825202
20
-1.25084136573196
30
0
41
1
10
45.1173099169255
20
-1.29549718255117
30
0
41
1
10
45.1147988868378
20
-1.31662153502847
30
0
41
1
10
45.1118435460992
20
-1.37546396788869
30
0
41
1
10
45.1161317815615
20
-1.4067957685071
30
0
41
1
10
45.1293282034682
20
-1.4405461747854
30
0
41
1
10
45.1349102885483
20
-1.4497398178645
30
0
41
1
10
45.1477530085863
20
-1.46377651951917
30
0
41
1
10
45.155027268895
20
-1.46871422066567
30
0
41
1
10
45.1791931212736
20
-1.47781140287853
30
0
41
1
10
45.1978537746096
20
-1.47614848975562
30
0
41
1
10
45.2390608486692
20
-1.45910020571941
30
0
41
1
10
45.2609248057641
20
-1.44402645837047
30
0
41
1
10
45.3068442479277
20
-1.40108336831369
30
0
41
1
10
45.3303799836602
20
-1.37361079932776
30
0
41
1
10
45.3653217553278
20
-1.32391502290133
30
0
41
1
10
45.3770928627058
20
-1.30562613803434
30
0
41
1
10
45.3998046416839
20
-1.26687095519406
30
0
41
1
10
45.4107890674814
20
-1.24638342676121
30
0
41
1
10
45.4319081915981
20
-1.20286937618158
30
0
41
1
10
45.4419702976058
20
-1.17993012004621
30
0
41
1
10
45.4600963289879
20
-1.13343821112892
30
0
41
1
10
45.4683895730633
20
-1.10925532974846
30
0
41
1
10
45.489118178127
20
-1.03827155151231
30
0
41
1
10
45.4976542768612
20
-0.991826247422807
30
0
41
1
10
45.5017911685451
20
-0.913564724149438
30
0
41
1
10
45.4975016938002
20
-0.881744815678303
30
0
41
1
10
45.4797527389025
20
-0.836828731462845
30
0
41
1
10
45.4663329946316
20
-0.823112111781995
30
0
41
1
10
45.4341327350538
20
-0.811328145862717
30
0
41
1
10
45.4151741227103
20
-0.8131302196322
30
0
41
1
10
45.3742115490137
20
-0.830112754865809
30
0
41
1
10
45.3519368009336
20
-0.845421859030978
30
0
41
1
10
45.3063138826218
20
-0.887933787395667
30
0
41
1
10
45.2823643851583
20
-0.915708242651988
30
0
41
1
10
45.2587793435862
20
-0.949254643402451
30
0
0
SPLINE
5
DE
100
AcDbEntity
8
1
62
256
6
ByLayer
370
18
48
1
60
0
100
AcDbSpline
70
4
71
3
72
18
73
14
40
0
40
0
40
0
40
0
40
0.250000000000005
40
0.250000000000005
40
0.50000000000001
40
0.50000000000001
40
0.625000000000008
40
0.625000000000008
40
0.750000000000005
40
0.750000000000005
40
0.875000000000003
40
0.875000000000003
40
1
40
1
40
1
40
1
41
1
10
45.6281084254191
20
-1.37226533251055
30
0
41
1
10
45.5866654489889
20
-1.48380516093476
30
0
41
1
10
45.5449080748678
20
-1.5950249972278
30
0
41
1
10
45.4613360383673
20
-1.81740636215884
30
0
41
1
10
45.4193672846439
20
-1.92855225844608
30
0
41
1
10
45.3559133665601
20
-2.09427878213541
30
0
41
1
10
45.3346741275606
20
-2.14921852153506
30
0
41
1
10
45.2921720921089
20
-2.25901697723293
30
0
41
1
10
45.270914721216
20
-2.31389435410733
30
0
41
1
10
45.228275711229
20
-2.42322170192304
30
0
41
1
10
45.2069008587046
20
-2.47769501447667
30
0
41
1
10
45.1638544107328
20
-2.58562102703192
30
0
41
1
10
45.1421842976193
20
-2.63907882534767
30
0
41
1
10
45.1204927883814
20
-2.69246303419774
30
0
0
SPLINE
5
DF
100
AcDbEntity
8
1
62
256
6
ByLayer
370
18
48
1
60
0
100
AcDbSpline
70
4
71
3
72
30
73
26
40
0
40
0
40
0
40
0
40
0.124999999999998
40
0.124999999999998
40
0.249999999999995
40
0.249999999999995
40
0.500000000000001
40
0.500000000000001
40
0.625000000000003
40
0.625000000000003
40
0.687500000000005
40
0.687500000000005
40
0.750000000000006
40
0.750000000000006
40
0.812500000000007
40
0.812500000000007
40
0.875000000000009
40
0.875000000000009
40
0.906250000000006
40
0.906250000000006
40
0.937500000000004
40
0.937500000000004
40
0.968750000000002
40
0.968750000000002
40
1
40
1
40
1
40
1
41
1
10
42.7499514768126
20
0.962921908143642
30
0
41
1
10
42.8444794069236
20
0.890129079471109
30
0
41
1
10
42.9398741517657
20
0.82030320407921
30
0
41
1
10
43.1328710225588
20
0.688206927828276
30
0
41
1
10
43.2305830090285
20
0.625890189264339
30
0
41
1
10
43.5230568873229
20
0.454400034767474
30
0
41
1
10
43.7184777848067
20
0.359446905253122
30
0
41
1
10
44.0124237011973
20
0.253021680176005
30
0
41
1
10
44.1108894595647
20
0.223526554011244
30
0
41
1
10
44.2576417479671
20
0.190371497992544
30
0
41
1
10
44.3062385846296
20
0.181188354035044
30
0
41
1
10
44.4026700402899
20
0.166821705414009
30
0
41
1
10
44.4507255016375
20
0.161387372123045
30
0
41
1
10
44.5425544372519
20
0.162803756459766
30
0
41
1
10
44.5864196964856
20
0.168621928446385
30
0
41
1
10
44.6666169685327
20
0.199043445228142
30
0
41
1
10
44.7015507594436
20
0.223162450781871
30
0
41
1
10
44.7419452206146
20
0.274833281376061
30
0
41
1
10
44.7530428287607
20
0.294192114781083
30
0
41
1
10
44.7705613551951
20
0.337128151423542
30
0
41
1
10
44.7770159670891
20
0.361044911893515
30
0
41
1
10
44.7844909071385
20
0.411689200596527
30
0
41
1
10
44.7855850720462
20
0.43829083007526
30
0
41
1
10
44.7828863381899
20
0.493859659788768
30
0
41
1
10
44.7790287912468
20
0.522795862505063
30
0
41
1
10
44.7735161985219
20
0.551618431344224
30
0
0
SPLINE
5
E0
100
AcDbEntity
8
1
62
256
6
ByLayer
370
18
48
1
60
0
100
AcDbSpline
70
4
71
3
72
70
73
66
40
0
40
0
40
0
40
0
40
0.0248341499145004
40
0.0248341499145004
40
0.0558398701943013
40
0.0558398701943013
40
0.0868455904741021
40
0.0868455904741021
40
0.117851310753903
40
0.117851310753903
40
0.179862751313503
40
0.179862751313503
40
0.210868471593303
40
0.210868471593303
40
0.241874191873103
40
0.241874191873103
40
0.272879912152903
40
0.272879912152903
40
0.303885632432703
40
0.303885632432703
40
0.334891352712503
40
0.334891352712503
40
0.365897072992303
40
0.365897072992303
40
0.396902793272103
40
0.396902793272103
40
0.427908513551903
40
0.427908513551903
40
0.458914233831702
40
0.458914233831702
40
0.489919954111503
40
0.489919954111503
40
0.520925674391302
40
0.520925674391302
40
0.551931394671102
40
0.551931394671102
40
0.582937114950902
40
0.582937114950902
40
0.613942835230702
40
0.613942835230702
40
0.644948555510502
40
0.644948555510502
40
0.675954275790302
40
0.675954275790302
40
0.706959996070102
40
0.706959996070102
40
0.737965716349902
40
0.737965716349902
40
0.768971436629702
40
0.768971436629702
40
0.799977156909502
40
0.799977156909502
40
0.830982877189302
40
0.830982877189302
40
0.861988597469102
40
0.861988597469102
40
0.892994317748902
40
0.892994317748902
40
0.924000038028702
40
0.924000038028702
40
0.955005758308502
40
0.955005758308502
40
0.986011478588302
40
0.986011478588302
40
1
40
1
40
1
40
1
41
1
10
40.3643856312395
20
-2.02254649334924
30
0
41
1
10
40.2124630116565
20
-2.07645211012473
30
0
41
1
10
40.060476195863
20
-2.12713866698721
30
0
41
1
10
39.7204635422977
20
-2.23340687595984
30
0
41
1
10
39.5326408156133
20
-2.28755907059087
30
0
41
1
10
39.1574155403221
20
-2.38373948424777
30
0
41
1
10
38.9699860203902
20
-2.42546806524092
30
0
41
1
10
38.5952067580658
20
-2.4977057245159
30
0
41
1
10
38.4080392314381
20
-2.52854839058222
30
0
41
1
10
37.845920850861
20
-2.60464367917393
30
0
41
1
10
37.469424541608
20
-2.63287856989089
30
0
41
1
10
36.9009790065148
20
-2.6366421544588
30
0
41
1
10
36.7114826047577
20
-2.63114659259244
30
0
41
1
10
36.3329683987174
20
-2.60630477490872
30
0
41
1
10
36.1437528580058
20
-2.58775532830174
30
0
41
1
10
35.7656746379618
20
-2.54039735144659
30
0
41
1
10
35.5764927973804
20
-2.51105668675731
30
0
41
1
10
35.1968138028867
20
-2.43916338121522
30
0
41
1
10
35.0073153250405
20
-2.39699506475822
30
0
41
1
10
34.6290246166374
20
-2.30282633329844
30
0
41
1
10
34.4402200011719
20
-2.25047924537199
30
0
41
1
10
34.0616892903104
20
-2.13463809426338
30
0
41
1
10
33.8718668252117
20
-2.07057481977196
30
0
41
1
10
33.4923816719896
20
-1.93413195629628
30
0
41
1
10
33.3033282393791
20
-1.86144948845026
30
0
41
1
10
32.9248778828299
20
-1.70796240024575
30
0
41
1
10
32.7355859160153
20
-1.62671015915669
30
0
41
1
10
32.3566818610755
20
-1.45670655071768
30
0
41
1
10
32.167070671552
20
-1.3679106217765
30
0
41
1
10
31.7879708498633
20
-1.18483512775469
30
0
41
1
10
31.5986282341989
20
-1.09059549645809
30
0
41
1
10
31.2201025112218
20
-0.896912728653859
30
0
41
1
10
31.0310910306659
20
-0.797584942300176
30
0
41
1
10
30.6525734964052
20
-0.595531464523503
30
0
41
1
10
30.4623790772753
20
-0.492832531926098
30
0
41
1
10
30.0840000199144
20
-0.286517966151735
30
0
41
1
10
29.8956384209783
20
-0.18275119067178
30
0
41
1
10
29.5200007042846
20
0.025279485389035
30
0
41
1
10
29.3324948537751
20
0.128950010372449
30
0
41
1
10
28.9576487126321
20
0.334643834115383
30
0
41
1
10
28.770316018326
20
0.436626064416856
30
0
41
1
10
28.3959153778635
20
0.639590999527684
30
0
41
1
10
28.2085452251494
20
0.739931392164436
30
0
41
1
10
27.8325139072541
20
0.936347418877631
30
0
41
1
10
27.6438573344695
20
1.03238561325424
30
0
41
1
10
27.2655900442916
20
1.22104401498646
30
0
41
1
10
27.0758144772996
20
1.313811299332
30
0
41
1
10
26.6971084956644
20
1.49059719094549
30
0
41
1
10
26.5079051282868
20
1.57503390745657
30
0
41
1
10
26.1296778706292
20
1.73639119545911
30
0
41
1
10
25.9408378791296
20
1.81416163724438
30
0
41
1
10
25.5618752763803
20
1.96003553434519
30
0
41
1
10
25.3719058596612
20
2.0281339855423
30
0
41
1
10
24.9945029681965
20
2.15320662826417
30
0
41
1
10
24.8067250616864
20
2.21125271104557
30
0
41
1
10
24.4314871877606
20
2.31707240359148
30
0
41
1
10
24.244087858006
20
2.36427337511918
30
0
41
1
10
23.8695039294216
20
2.44655829430207
30
0
41
1
10
23.6824680612386
20
2.48190168398312
30
0
41
1
10
23.3079989092086
20
2.54280378517225
30
0
41
1
10
23.1203551302114
20
2.56765223988424
30
0
41
1
10
22.743903201047
20
2.60420562946456
30
0
41
1
10
22.5550854166936
20
2.61541333740701
30
0
41
1
10
22.2803094865056
20
2.62442617993918
30
0
41
1
10
22.1948102376868
20
2.62606564071911
30
0
41
1
10
22.1093100187814
20
2.62645115533266
30
0
0
SPLINE
5
E1
100
AcDbEntity
8
1
62
256
6
ByLayer
370
18
48
1
60
0
100
AcDbSpline
70
4
71
3
72
22
73
18
40
0
40
0
40
0
40
0
40
0.0009990563993739
40
0.0009990563993739
40
0.143713476913749
40
0.143713476913749
40
0.286427897428124
40
0.286427897428124
40
0.4291423179425
40
0.4291423179425
40
0.571856738456874
40
0.571856738456874
40
0.71457115897125
40
0.71457115897125
40
0.857285579485624
40
0.857285579485624
40
1
40
1
40
1
40
1
41
1
10
10.4360164027269
20
-2.00994724282811
30
0
41
1
10
10.4346905079474
20
-2.01041456876891
30
0
41
1
10
10.4333646254391
20
-2.01088164951253
30
0
41
1
10
10.2426392352494
20
-2.07803554216699
30
0
41
1
10
10.0536825496924
20
-2.13948427079475
30
0
41
1
10
9.67481489230457
20
-2.25292560055789
30
0
41
1
10
9.48473446526259
20
-2.30482352495267
30
0
41
1
10
9.10511506823607
20
-2.39690046218391
30
0
41
1
10
8.91594877491752
20
-2.4369166156774
30
0
41
1
10
8.53737105357345
20
-2.50530432766331
30
0
41
1
10
8.34786997021428
20
-2.5340442975052
30
0
41
1
10
7.96831576416815
20
-2.57912882622921
30
0
41
1
10
7.77837955913495
20
-2.59534423470677
30
0
41
1
10
7.39964214715945
20
-2.61560248545578
30
0
41
1
10
7.21029624590787
20
-2.61986728471507
30
0
41
1
10
6.8313184445073
20
-2.61569418192735
30
0
41
1
10
6.64164907225964
20
-2.60680216299193
30
0
41
1
10
6.45182063187858
20
-2.59179200386413
30
0
0
SPLINE
5
E2
100
AcDbEntity
8
1
62
256
6
ByLayer
370
18
48
1
60
0
100
AcDbSpline
70
4
71
3
72
8
73
4
40
0
40
0
40
0
40
0
40
1
40
1
40
1
40
1
41
1
10
45.0798663916472
20
-2.62779823118027
30
0
41
1
10
45.0651193637419
20
-2.63523284488002
30
0
41
1
10
45.0516525488589
20
-2.63898299931185
30
0
41
1
10
45.0394894917799
20
-2.63898093248375
30
0
0
SPLINE
5
E3
100
AcDbEntity
8
1
62
256
6
ByLayer
370
13
48
1
60
0
100
AcDbSpline
70
4
71
3
72
20
73
16
40
0
40
0
40
0
40
0
40
0.210928008258558
40
0.210928008258558
40
0.316392012387836
40
0.316392012387836
40
0.421856016517115
40
0.421856016517115
40
0.632784024775673
40
0.632784024775673
40
0.738248028904951
40
0.738248028904951
40
0.84371203303423
40
0.84371203303423
40
1
40
1
40
1
40
1
41
1
10
4.2504208192326
20
1.53076993040943
30
0
41
1
10
4.25048816382988
20
1.67171077259911
30
0
41
1
10
4.25054628541795
20
1.80089702451906
30
0
41
1
10
4.25062504895303
20
1.9772896921927
30
0
41
1
10
4.2506499513587
20
2.0333009445747
30
0
41
1
10
4.25069689560095
20
2.13740832010777
30
0
41
1
10
4.25071905524555
20
2.18577034088662
30
0
41
1
10
4.25078292221036
20
2.31999772250347
30
0
41
1
10
4.25082216551337
20
2.39527732896033
30
0
41
1
10
4.2508797924356
20
2.48505752753309
30
0
41
1
10
4.25089860111899
20
2.51082998917727
30
0
41
1
10
4.2509359890478
20
2.55412019487147
30
0
41
1
10
4.25095463623097
20
2.57166561497343
30
0
41
1
10
4.25100046092635
20
2.6043415512315
30
0
41
1
10
4.25102756887642
20
2.61448849475795
30
0
41
1
10
4.25105468469539
20
2.61537758989033
30
0
0
SPLINE
5
E4
100
AcDbEntity
8
1
62
256
6
ByLayer
370
13
48
1
60
0
100
AcDbSpline
70
4
71
3
72
18
73
14
40
0
40
0
40
0
40
0
40
0.0742575427340348
40
0.0742575427340348
40
0.228547952278362
40
0.228547952278362
40
0.38283836182269
40
0.38283836182269
40
0.691419180911345
40
0.691419180911345
40
0.845709590455673
40
0.845709590455673
40
1
40
1
40
1
40
1
41
1
10
4.25105670522075
20
-2.61542670729196
30
0
41
1
10
4.25106551189478
20
-2.61556612197052
30
0
41
1
10
4.25107432008292
20
-2.61472931633296
30
0
41
1
10
4.25110146188834
20
-2.60916035427411
30
0
41
1
10
4.25111981944383
20
-2.60116477797223
30
0
41
1
10
4.25115643781319
20
-2.5764307818051
30
0
41
1
10
4.25117457809088
20
-2.55973516598445
30
0
41
1
10
4.25122731665999
20
-2.49766079048348
30
0
41
1
10
4.25126052317415
20
-2.44034716611233
30
0
41
1
10
4.2513044433984
20
-2.33073545950748
30
0
41
1
10
4.25131811761744
20
-2.29009315152044
30
0
41
1
10
4.25134250412864
20
-2.20115674415297
30
0
41
1
10
4.2513530955768
20
-2.15334412601084
30
0
41
1
10
4.25136174695871
20
-2.10229333877618
30
0
0
SPLINE
5
E5
100
AcDbEntity
8
1
62
256
6
ByLayer
370
18
48
1
60
0
100
AcDbSpline
70
4
71
3
72
10
73
6
40
0
40
0
40
0
40
0
40
0.5
40
0.5
40
1
40
1
40
1
40
1
41
1
10
4.08474332007279
20
1.59763089397612
30
0
41
1
10
4.06792812093499
20
1.60968363780228
30
0
41
1
10
4.05381928206111
20
1.62401602240846
30
0
41
1
10
4.03375679536381
20
1.65577520107604
30
0
41
1
10
4.02772991533649
20
1.67331320651041
30
0
41
1
10
4.02773461197054
20
1.69104088482416
30
0
0
SPLINE
5
E6
100
AcDbEntity
8
1
62
256
6
ByLayer
370
13
48
1
60
0
100
AcDbSpline
70
4
71
3
72
10
73
6
40
0
40
0
40
0
40
0
40
0.5
40
0.5
40
1
40
1
40
1
40
1
41
1
10
4.02773461197035
20
1.69104088482681
30
0
41
1
10
4.03826628025976
20
1.66943722291893
30
0
41
1
10
4.05188890975049
20
1.6489334172513
30
0
41
1
10
4.08478500217316
20
1.61232232491932
30
0
41
1
10
4.10371331839355
20
1.59642851607862
30
0
41
1
10
4.1255184917556
20
1.58329715187543
30
0
0
SPLINE
5
E7
100
AcDbEntity
8
1
62
256
6
ByLayer
370
18
48
1
60
0
100
AcDbSpline
70
4
71
3
72
72
73
68
40
0
40
0
40
0
40
0
40
0.024398697011325
40
0.024398697011325
40
0.0554796965518454
40
0.0554796965518454
40
0.0865606960923657
40
0.0865606960923657
40
0.117641695632886
40
0.117641695632886
40
0.148722695173406
40
0.148722695173406
40
0.179803694713927
40
0.179803694713927
40
0.210884694254447
40
0.210884694254447
40
0.241965693794967
40
0.241965693794967
40
0.273046693335488
40
0.273046693335488
40
0.304127692876008
40
0.304127692876008
40
0.335208692416529
40
0.335208692416529
40
0.366289691957049
40
0.366289691957049
40
0.397370691497569
40
0.397370691497569
40
0.42845169103809
40
0.42845169103809
40
0.45953269057861
40
0.45953269057861
40
0.49061369011913
40
0.49061369011913
40
0.521694689659651
40
0.521694689659651
40
0.552775689200171
40
0.552775689200171
40
0.583856688740691
40
0.583856688740691
40
0.614937688281212
40
0.614937688281212
40
0.646018687821732
40
0.646018687821732
40
0.677099687362252
40
0.677099687362252
40
0.708180686902773
40
0.708180686902773
40
0.739261686443293
40
0.739261686443293
40
0.770342685983814
40
0.770342685983814
40
0.801423685524334
40
0.801423685524334
40
0.832504685064854
40
0.832504685064854
40
0.863585684605374
40
0.863585684605374
40
0.894666684145895
40
0.894666684145895
40
0.925747683686415
40
0.925747683686415
40
0.956828683226936
40
0.956828683226936
40
0.987909682767456
40
0.987909682767456
40
1
40
1
40
1
40
1
41
1
10
7.14221269455393
20
2.61825318968167
30
0
41
1
10
7.29071163591976
20
2.61777915528396
30
0
41
1
10
7.43912121565299
20
2.61346579132353
30
0
41
1
10
7.77656728242809
20
2.59547273703689
30
0
41
1
10
7.96600454133554
20
2.57935242245918
30
0
41
1
10
8.34555638176849
20
2.53436943265552
30
0
41
1
10
8.53493043311965
20
2.50569198593016
30
0
41
1
10
8.9130345698529
20
2.43749552467591
30
0
41
1
10
9.10183781038768
20
2.39761853147002
30
0
41
1
10
9.4804604380225
20
2.30593550783439
30
0
41
1
10
9.67030437253578
20
2.25419839953162
30
0
41
1
10
10.0494520055545
20
2.14082696732541
30
0
41
1
10
10.2383915906928
20
2.07945160537412
30
0
41
1
10
10.6167381521151
20
1.94639399059369
30
0
41
1
10
10.805971330509
20
1.87492852196792
30
0
41
1
10
11.1845995536044
20
1.72351075407624
30
0
41
1
10
11.374101578347
20
1.64350225575947
30
0
41
1
10
11.7529551668921
20
1.47639268963329
30
0
41
1
10
11.9422001857163
20
1.38903352266641
30
0
41
1
10
12.3204336308546
20
1.20832370713444
30
0
41
1
10
12.509283778428
20
1.11479583843203
30
0
41
1
10
12.8875780564454
20
0.923060667178845
30
0
41
1
10
13.0775841989037
20
0.824558898259113
30
0
41
1
10
13.4564309826378
20
0.624429140710788
30
0
41
1
10
13.6454515194409
20
0.522628835428606
30
0
41
1
10
14.0232617784056
20
0.316814526376874
30
0
41
1
10
14.2124299072682
20
0.213293925205903
30
0
41
1
10
14.591515193325
20
0.0052765423656922
30
0
41
1
10
14.7813670100691
20
-0.0992316705400924
30
0
41
1
10
15.1596512348953
20
-0.307629207079145
30
0
41
1
10
15.3486658370053
20
-0.41115128360471
30
0
41
1
10
15.7271100384829
20
-0.614906752657589
30
0
41
1
10
15.9164467341976
20
-0.715506056668573
30
0
41
1
10
16.295388216193
20
-0.914350386429078
30
0
41
1
10
16.4848240855575
20
-1.01244231177913
30
0
41
1
10
16.8633243188859
20
-1.20113001919947
30
0
41
1
10
17.0524571392687
20
-1.2922709305598
30
0
41
1
10
17.4306264678145
20
-1.46945573026269
30
0
41
1
10
17.6195829844179
20
-1.55566269329185
30
0
41
1
10
17.9989681999431
20
-1.71960396611189
30
0
41
1
10
18.1882377537903
20
-1.79635145016385
30
0
41
1
10
18.5663228552661
20
-1.94191543257318
30
0
41
1
10
18.7549674301839
20
-2.01084504818991
30
0
41
1
10
19.1331037782393
20
-2.13986894161644
30
0
41
1
10
19.3227642829914
20
-2.19898305929445
30
0
41
1
10
19.7018056297034
20
-2.30530391291282
30
0
41
1
10
19.8907248228589
20
-2.3532864951861
30
0
41
1
10
20.2686727313372
20
-2.43927112703679
30
0
41
1
10
20.457816900814
20
-2.47698058307594
30
0
41
1
10
20.8364262553406
20
-2.53841113942789
30
0
41
1
10
21.0261048392894
20
-2.56309682249523
30
0
41
1
10
21.4045829241559
20
-2.60153483695313
30
0
41
1
10
21.5937904883121
20
-2.61508568552855
30
0
41
1
10
21.9720694435809
20
-2.62819155757521
30
0
41
1
10
22.1611412392055
20
-2.62800633353819
30
0
41
1
10
22.539507125003
20
-2.61622725329161
30
0
41
1
10
22.7292799601009
20
-2.60528293117767
30
0
41
1
10
23.1078510525725
20
-2.56918533273094
30
0
41
1
10
23.296854322064
20
-2.54442167446649
30
0
41
1
10
23.6745571883288
20
-2.48337332923475
30
0
41
1
10
23.8634257784383
20
-2.44780971790794
30
0
41
1
10
24.2423148575639
20
-2.36474489731748
30
0
41
1
10
24.4320058154642
20
-2.31696354312587
30
0
41
1
10
24.8100237071991
20
-2.21028469428123
30
0
41
1
10
24.99865819566
20
-2.15190717870991
30
0
41
1
10
25.2612209046729
20
-2.0647838859478
30
0
41
1
10
25.3347805031067
20
-2.03959888628046
30
0
41
1
10
25.4083737787183
20
-2.01363379242966
30
0
0
SPLINE
5
E8
100
AcDbEntity
8
1
62
256
6
ByLayer
370
18
48
1
60
0
100
AcDbSpline
70
4
71
3
72
26
73
22
40
0
40
0
40
0
40
0
40
0.0952954977805555
40
0.0952954977805555
40
0.195818220249382
40
0.195818220249382
40
0.296340942718209
40
0.296340942718209
40
0.396863665187037
40
0.396863665187037
40
0.497386387655864
40
0.497386387655864
40
0.597909110124691
40
0.597909110124691
40
0.698431832593519
40
0.698431832593519
40
0.798954555062345
40
0.798954555062345
40
0.899477277531173
40
0.899477277531173
40
1
40
1
40
1
40
1
41
1
10
37.1084570809019
20
2.63524926210644
30
0
41
1
10
37.2877915959365
20
2.63367357529168
30
0
41
1
10
37.4674272683021
20
2.6262480543846
30
0
41
1
10
37.8358645062136
20
2.59988172881992
30
0
41
1
10
38.0248190321286
20
2.58027946369251
30
0
41
1
10
38.4024937028784
20
2.5294401172099
30
0
41
1
10
38.5914465794388
20
2.49839862675057
30
0
41
1
10
38.9705145045568
20
2.42539779262222
30
0
41
1
10
39.1597068029429
20
2.38322576347122
30
0
41
1
10
39.537231425577
20
2.28630742682447
30
0
41
1
10
39.7256818842186
20
2.23186814859952
30
0
41
1
10
40.1035921859555
20
2.11356822677138
30
0
41
1
10
40.2930184428716
20
2.04931406730492
30
0
41
1
10
40.6715913071158
20
1.91079230607184
30
0
41
1
10
40.8601953584585
20
1.83655305480346
30
0
41
1
10
41.2379284788415
20
1.68112217454421
30
0
41
1
10
41.4268637567273
20
1.59970544364316
30
0
41
1
10
41.8048758643753
20
1.42890269604018
30
0
41
1
10
41.9941272165997
20
1.33906832498624
30
0
41
1
10
42.3722775242752
20
1.15452237049973
30
0
41
1
10
42.5612195187405
20
1.05995721920229
30
0
41
1
10
42.7499514768126
20
0.962921908143613
30
0
0
SPLINE
5
E9
100
AcDbEntity
8
1
62
256
6
ByLayer
370
18
48
1
60
0
100
AcDbSpline
70
4
71
3
72
18
73
14
40
0
40
0
40
0
40
0
40
0.249999999999981
40
0.249999999999981
40
0.499999999999963
40
0.499999999999963
40
0.624999999999972
40
0.624999999999972
40
0.749999999999981
40
0.749999999999981
40
0.874999999999991
40
0.874999999999991
40
1
40
1
40
1
40
1
41
1
10
44.9291159580375
20
0.846847444820469
30
0
41
1
10
45.006670989747
20
0.865145369379064
30
0
41
1
10
45.0836238539836
20
0.885945217899348
30
0
41
1
10
45.2340519885108
20
0.935903484270312
30
0
41
1
10
45.3082235742257
20
0.965051699663007
30
0
41
1
10
45.412848676534
20
1.0211818263393
30
0
41
1
10
45.4464478923314
20
1.04191485601112
30
0
41
1
10
45.5095706651048
20
1.08996933611189
30
0
41
1
10
45.5385475268394
20
1.11689027590748
30
0
41
1
10
45.5873279188833
20
1.17918282898697
30
0
41
1
10
45.6066945494632
20
1.21450573859372
30
0
41
1
10
45.6293539416793
20
1.29154600582933
30
0
41
1
10
45.6322648506537
20
1.33207676433617
30
0
41
1
10
45.6281084254191
20
1.37226533251083
30
0
0
SPLINE
5
EA
100
AcDbEntity
8
1
62
256
6
ByLayer
370
18
48
1
60
0
100
AcDbSpline
70
4
71
3
72
12
73
8
40
0
40
0
40
0
40
0
40
0.250000000000015
40
0.250000000000015
40
0.50000000000003
40
0.50000000000003
40
1
40
1
40
1
40
1
41
1
10
4.02824058775366
20
-2.15552922120415
30
0
41
1
10
4.03940099430093
20
-2.13771991804109
30
0
41
1
10
4.05402462203699
20
-2.12242101682139
30
0
41
1
10
4.0875393917018
20
-2.09960450492784
30
0
41
1
10
4.10675202018967
20
-2.0918106096797
30
0
41
1
10
4.16677960921879
20
-2.07972486715568
30
0
41
1
10
4.21020990899683
20
-2.08621746540908
30
0
41
1
10
4.25136174695874
20
-2.10229333863219
30
0
0
SPLINE
5
EB
100
AcDbEntity
8
1
62
256
6
ByLayer
370
18
48
1
60
0
100
AcDbSpline
70
4
71
3
72
22
73
18
40
0
40
0
40
0
40
0
40
0.108568145379089
40
0.108568145379089
40
0.217136290758179
40
0.217136290758179
40
0.434272581516357
40
0.434272581516357
40
0.542840726895447
40
0.542840726895447
40
0.651408872274536
40
0.651408872274536
40
0.868545163032716
40
0.868545163032716
40
0.977113308411805
40
0.977113308411805
40
1
40
1
40
1
40
1
41
1
10
4.02773461197054
20
1.69104088482732
30
0
41
1
10
4.02775361738608
20
1.7627777578825
30
0
41
1
10
4.02777126019032
20
1.83159776592123
30
0
41
1
10
4.02780430440811
20
1.96339083183079
30
0
41
1
10
4.02781969823889
20
2.0263431206705
30
0
41
1
10
4.02786253212827
20
2.20327518683956
30
0
41
1
10
4.02788695334849
20
2.30662731843216
30
0
41
1
10
4.02792050911472
20
2.43982179363417
30
0
41
1
10
4.02793122683755
20
2.48073739740161
30
0
41
1
10
4.0279518136964
20
2.55398746180083
30
0
41
1
10
4.02796165072326
20
2.58623053940926
30
0
41
1
10
4.02799047526815
20
2.67018386927325
30
0
41
1
10
4.0280088114134
20
2.70924190381427
30
0
41
1
10
4.02803693961539
20
2.74167379694436
30
0
41
1
10
4.02804635561066
20
2.7479823812539
30
0
41
1
10
4.02805774605744
20
2.750173530225
30
0
41
1
10
4.02805973066995
20
2.75035747594316
30
0
41
1
10
4.0280617171816
20
2.75034436115035
30
0
0
SPLINE
5
EC
100
AcDbEntity
8
1
62
256
6
ByLayer
370
18
48
1
60
0
100
AcDbSpline
70
4
71
3
72
8
73
4
40
0
40
0
40
0
40
0
40
1
40
1
40
1
40
1
41
1
10
4.08474332007467
20
1.59763089397589
30
0
41
1
10
4.09708158210617
20
1.58512125012024
30
0
41
1
10
4.11061544620281
20
1.57384357640814
30
0
41
1
10
4.12551849175563
20
1.56397791294719
30
0
0
SPLINE
5
ED
100
AcDbEntity
8
SK1
62
256
6
ByLayer
370
18
48
1
60
0
100
AcDbSpline
70
4
71
3
72
14
73
10
40
0
40
0
40
0
40
0
40
0.500000000000001
40
0.500000000000001
40
0.75
40
0.75
40
0.875
40
0.875
40
1
40
1
40
1
40
1
41
1
10
-35.3999999999999
20
0.197567158822693
30
0
41
1
10
-35.3787677796885
20
0.189931145335692
30
0
41
1
10
-35.3584290958895
20
0.176330482622291
30
0
41
1
10
-35.3303626450498
20
0.144401707165201
30
0
41
1
10
-35.3215171954455
20
0.131923100208439
30
0
41
1
10
-35.3102812516991
20
0.108454391686166
30
0
41
1
10
-35.3068890218584
20
0.0997968250220822
30
0
41
1
10
-35.3017585680987
20
0.0806391973974314
30
0
41
1
10
-35.3
20
0.0699159944611552
30
0
41
1
10
-35.3
20
0.0588405564733989
30
0
0
SPLINE
5
EE
100
AcDbEntity
8
SK1
62
256
6
ByLayer
370
18
48
1
60
0
100
AcDbSpline
70
4
71
3
72
8
73
4
40
0
40
0
40
0
40
0
40
1
40
1
40
1
40
1
41
1
10
-35.4
20
1.2721289669162
30
0
41
1
10
-35.6037694491256
20
1.19884476776363
30
0
41
1
10
-35.8061051627009
20
1.12540168975997
30
0
41
1
10
-36
20
1.05106405443578
30
0
0
SPLINE
5
EF
100
AcDbEntity
8
SK1
62
256
6
ByLayer
370
18
48
1
60
0
100
AcDbSpline
70
4
71
3
72
14
73
10
40
0
40
0
40
0
40
0
40
0.5
40
0.5
40
0.75
40
0.75
40
0.875
40
0.875
40
1
40
1
40
1
40
1
41
1
10
-35.3999999999999
20
-0.197567158822721
30
0
41
1
10
-35.3787677796885
20
-0.18993114533572
30
0
41
1
10
-35.3584290958895
20
-0.176330482622319
30
0
41
1
10
-35.3303626450498
20
-0.144401707165201
30
0
41
1
10
-35.3215171954455
20
-0.131923100208439
30
0
41
1
10
-35.3102812516991
20
-0.108454391686195
30
0
41
1
10
-35.3068890218584
20
-0.0997968250221106
30
0
41
1
10
-35.3017585680987
20
-0.0806391973974598
30
0
41
1
10
-35.3
20
-0.0699159944611836
30
0
41
1
10
-35.3
20
-0.0588405564734273
30
0
0
SPLINE
5
F0
100
AcDbEntity
8
SK1
62
256
6
ByLayer
370
18
48
1
60
0
100
AcDbSpline
70
4
71
3
72
8
73
4
40
0
40
0
40
0
40
0
40
1
40
1
40
1
40
1
41
1
10
-36
20
-0.418632071302369
30
0
41
1
10
-35.8060540431149
20
-0.344274837162686
30
0
41
1
10
-35.6037430884363
20
-0.270841877544456
30
0
41
1
10
-35.4
20
-0.197567158821954
30
0
0
SPLINE
5
F1
100
AcDbEntity
8
SK1
62
256
6
ByLayer
370
18
48
1
60
0
100
AcDbSpline
70
4
71
3
72
8
73
4
40
0
40
0
40
0
40
0
40
1
40
1
40
1
40
1
41
1
10
-36
20
0.418632071302341
30
0
41
1
10
-35.8060540431149
20
0.344274837162686
30
0
41
1
10
-35.6037430884363
20
0.270841877544456
30
0
41
1
10
-35.4
20
0.197567158821926
30
0
0
SPLINE
5
F2
100
AcDbEntity
8
SK1
62
256
6
ByLayer
370
18
48
1
60
0
100
AcDbSpline
70
4
71
3
72
14
73
10
40
0
40
0
40
0
40
0
40
0.125
40
0.125
40
0.25
40
0.25
40
0.5
40
0.5
40
1
40
1
40
1
40
1
41
1
10
-35.3
20
1.21489608583298
30
0
41
1
10
-35.3
20
1.22495683992273
30
0
41
1
10
-35.3017593723636
20
1.23358704686547
30
0
41
1
10
-35.3069353411979
20
1.24757594300758
30
0
41
1
10
-35.3102739075534
20
1.2530060414033
30
0
41
1
10
-35.3215583577555
20
1.26665189831147
30
0
41
1
10
-35.3303095934911
20
1.27180920988889
30
0
41
1
10
-35.358391202053
20
1.28146355932239
30
0
41
1
10
-35.378655954467
20
1.27980519753015
30
0
41
1
10
-35.4
20
1.2721289669162
30
0
0
LINE
5
76
100
AcDbEntity
8
81
62
256
6
ByLayer
370
18
48
1
60
0
100
AcDbLine
10
46
20
0
30
0
11
51
21
0
31
0
39
0
210
0
220
0
230
1
0
LINE
5
77
100
AcDbEntity
8
1
62
256
6
ByLayer
370
18
48
1
60
0
100
AcDbLine
10
4.028056
20
2.750344
30
0
11
0.861699
21
2.748444
31
0
39
0
210
0
220
0
230
1
0
LINE
5
79
100
AcDbEntity
8
1
62
256
6
ByLayer
370
18
48
1
60
0
100
AcDbLine
10
14.510265
20
2.756633
30
0
11
14.014743
21
2.756336
31
0
39
0
210
0
220
0
230
1
0
LINE
5
7A
100
AcDbEntity
8
1
62
256
6
ByLayer
370
18
48
1
60
0
100
AcDbLine
10
29.475235
20
2.765612
30
0
11
28.984086
21
2.765318
31
0
39
0
210
0
220
0
230
1
0
LINE
5
7B
100
AcDbEntity
8
1
62
256
6
ByLayer
370
18
48
1
60
0
100
AcDbLine
10
44.440819
20
2.774592
30
0
11
43.95447
21
2.7743
31
0
39
0
210
0
220
0
230
1
0
LINE
5
7C
100
AcDbEntity
8
1
62
256
6
ByLayer
370
18
48
1
60
0
100
AcDbLine
10
43.95447
20
-2.7743
30
0
11
44.44069
21
-2.774592
31
0
39
0
210
0
220
0
230
1
0
LINE
5
7D
100
AcDbEntity
8
1
62
256
6
ByLayer
370
18
48
1
60
0
100
AcDbLine
10
28.984086
20
-2.765318
30
0
11
29.47505
21
-2.765612
31
0
39
0
210
0
220
0
230
1
0
LINE
5
7E
100
AcDbEntity
8
1
62
256
6
ByLayer
370
18
48
1
60
0
100
AcDbLine
10
14.014743
20
-2.756336
30
0
11
14.509897
21
-2.756633
31
0
39
0
210
0
220
0
230
1
0
LINE
5
7F
100
AcDbEntity
8
1
62
256
6
ByLayer
370
18
48
1
60
0
100
AcDbLine
10
0.861699
20
-2.748444
30
0
11
4.028056
21
-2.750344
31
0
39
0
210
0
220
0
230
1
0
LINE
5
80
100
AcDbEntity
8
SK1
62
256
6
ByLayer
370
18
48
1
60
0
100
AcDbLine
10
-35.278312
20
3
30
0
11
-36
21
1.75
31
0
39
0
210
0
220
0
230
1
0
LINE
5
82
100
AcDbEntity
8
SK1
62
256
6
ByLayer
370
18
48
1
60
0
100
AcDbLine
10
-36
20
-1.75
30
0
11
-35.278312
21
-3
31
0
39
0
210
0
220
0
230
1
0
LINE
5
83
100
AcDbEntity
8
SK1
62
256
6
ByLayer
370
18
48
1
60
0
100
AcDbLine
10
0
20
3
30
0
11
-35.278312
21
3
31
0
39
0
210
0
220
0
230
1
0
LINE
5
84
100
AcDbEntity
8
SK1
62
256
6
ByLayer
370
18
48
1
60
0
100
AcDbLine
10
-35.278312
20
-3
30
0
11
0
21
-3
31
0
39
0
210
0
220
0
230
1
0
LINE
5
85
100
AcDbEntity
8
SK4
62
256
6
ByLayer
370
18
48
0.05
60
0
100
AcDbLine
10
51
20
0
30
0
11
-41
21
0
31
0
39
0
210
0
220
0
230
1
0
LINE
5
87
100
AcDbEntity
8
4
62
256
6
ByLayer
370
18
48
0.05
60
0
100
AcDbLine
10
46
20
0
30
0
11
0
21
0
31
0
39
0
210
0
220
0
230
1
0
LINE
5
89
100
AcDbEntity
8
80
62
256
6
ByLayer
370
18
48
1
60
0
100
AcDbLine
10
0
20
0
30
0
11
-5
21
0
31
0
39
0
210
0
220
0
230
1
0
LINE
5
8A
100
AcDbEntity
8
1
62
256
6
ByLayer
370
13
48
1
60
0
100
AcDbLine
10
45.402494
20
0.582841
30
0
11
45.931793
21
0.26879
31
0
39
0
210
0
220
0
230
1
0
LINE
5
8B
100
AcDbEntity
8
1
62
256
6
ByLayer
370
18
48
1
60
0
100
AcDbLine
10
44.61562
20
-1.47945
30
0
11
45.895274
21
-0.157549
31
0
39
0
210
0
220
0
230
1
0
LINE
5
8C
100
AcDbEntity
8
1
62
256
6
ByLayer
370
18
48
1
60
0
100
AcDbLine
10
45.931793
20
0.26879
30
0
11
45.864458
21
0.582841
31
0
39
0
210
0
220
0
230
1
0
LINE
5
8D
100
AcDbEntity
8
1
62
256
6
ByLayer
370
13
48
1
60
0
100
AcDbLine
10
4.125518
20
1.583297
30
0
11
4.120843
21
1.575692
31
0
39
0
210
0
220
0
230
1
0
LINE
5
8E
100
AcDbEntity
8
1
62
256
6
ByLayer
370
18
48
1
60
0
100
AcDbLine
10
46
20
0
30
0
11
45.039489
21
-2.638981
31
0
39
0
210
0
220
0
230
1
0
LINE
5
8F
100
AcDbEntity
8
1
62
256
6
ByLayer
370
13
48
1
60
0
100
AcDbLine
10
45.212587
20
0.247512
30
0
11
45.895274
21
-0.157549
31
0
39
0
210
0
220
0
230
1
0
LINE
5
90
100
AcDbEntity
8
1
62
256
6
ByLayer
370
18
48
1
60
0
100
AcDbLine
10
45.931793
20
-0.26879
30
0
11
45.864458
21
-0.582841
31
0
39
0
210
0
220
0
230
1
0
LINE
5
91
100
AcDbEntity
8
1
62
256
6
ByLayer
370
18
48
1
60
0
100
AcDbLine
10
0
20
-3
30
0
11
0
21
3
31
0
39
0
210
0
220
0
230
1
0
LINE
5
92
100
AcDbEntity
8
1
62
256
6
ByLayer
370
18
48
1
60
0
100
AcDbLine
10
45.995463
20
0.02815
30
0
11
46
21
0
31
0
39
0
210
0
220
0
230
1
0
LINE
5
93
100
AcDbEntity
8
1
62
256
6
ByLayer
370
13
48
1
60
0
100
AcDbLine
10
0.861699
20
2.748444
30
0
11
0.861699
21
-2.748444
31
0
39
0
210
0
220
0
230
1
0
LINE
5
94
100
AcDbEntity
8
1
62
256
6
ByLayer
370
13
48
1
60
0
100
AcDbLine
10
45.864458
20
0.582841
30
0
11
45.402494
21
0.582841
31
0
39
0
210
0
220
0
230
1
0
LINE
5
95
100
AcDbEntity
8
1
62
256
6
ByLayer
370
13
48
1
60
0
100
AcDbLine
10
0.43061
20
2.874222
30
0
11
0.43061
21
-2.874222
31
0
39
0
210
0
220
0
230
1
0
LINE
5
96
100
AcDbEntity
8
1
62
256
6
ByLayer
370
18
48
1
60
0
100
AcDbLine
10
46
20
0
30
0
11
45.995463
21
-0.02815
31
0
39
0
210
0
220
0
230
1
0
LINE
5
97
100
AcDbEntity
8
SK1
62
256
6
ByLayer
370
18
48
1
60
0
100
AcDbLine
10
0
20
-3
30
0
11
0
21
3
31
0
39
0
210
0
220
0
230
1
0
LINE
5
98
100
AcDbEntity
8
SK1
62
256
6
ByLayer
370
18
48
1
60
0
100
AcDbLine
10
-35.278312
20
3
30
0
11
-35.278312
21
-3
31
0
39
0
210
0
220
0
230
1
0
LINE
5
99
100
AcDbEntity
8
SK1
62
256
6
ByLayer
370
18
48
1
60
0
100
AcDbLine
10
-36
20
1.75
30
0
11
-36
21
1.051064
31
0
39
0
210
0
220
0
230
1
0
LINE
5
9A
100
AcDbEntity
8
SK1
62
256
6
ByLayer
370
18
48
1
60
0
100
AcDbLine
10
-35.3
20
-0.058841
30
0
11
-35.3
21
1.214896
31
0
39
0
210
0
220
0
230
1
0
LINE
5
9B
100
AcDbEntity
8
SK1
62
256
6
ByLayer
370
18
48
1
60
0
100
AcDbLine
10
-36
20
-0.418632
30
0
11
-36
21
-1.75
31
0
39
0
210
0
220
0
230
1
0
LINE
5
9C
100
AcDbEntity
8
SK1
62
256
6
ByLayer
370
18
48
1
60
0
100
AcDbLine
10
-36
20
1.051064
30
0
11
-36
21
0.418632
31
0
39
0
210
0
220
0
230
1
0
LINE
5
9D
100
AcDbEntity
8
SK1
62
256
6
ByLayer
370
13
48
1
60
0
100
AcDbLine
10
-35.4
20
1.272129
30
0
11
-35.4
21
0.197567
31
0
39
0
210
0
220
0
230
1
0
MTEXT
5
F3
100
AcDbEntity
8
SK6
62
256
6
ByLayer
370
13
48
1
60
0
100
AcDbMText
10
7.129169
20
35.157694
30
0
210
0
220
0
230
1
1
\W0.7542;R840-0555-50-A1A1220
40
3.5
41
0
44
1.084337
50
0
71
8
72
5
7
iso_b_vert
0
DIMENSION
5
100
100
AcDbEntity
8
SK2
62
256
6
ByLayer
370
13
48
1
60
0
100
AcDbDimension
2
DimnDraft3D1
10
45.06
20
-12.988398
30
0
11
21.310059
21
-12.988398
31
0
70
32
71
5
72
1
41
1
210
0
220
0
230
1
3
Standard
100
AcDbAlignedDimension
13
0
23
-1.5875
33
0
14
45.06
24
-4.3625
34
0
50
0
100
AcDbRotatedDimension
1001
ACAD
1000
DSTYLE
1002
{
1070
   279
1070
     0
1070
   172
1070
     1
1070
   173
1070
     1
1070
   340
1005
F4
1070
   271
1070
     2
1070
   272
1070
     2
1070
    77
1070
     1
1070
    73
1070
     0
1070
   171
1070
     3
1070
   274
1070
     4
1070
   177
1070
    35
1070
   176
1070
    35
1070
   178
1070
    35
1070
    48
1040
-0.005
1070
    41
1041
3.5
1070
   147
1041
1.75
1070
    42
1041
1.5875
1070
    44
1041
2.0
1070
   140
1041
3.5
1070
   343
1005
0
1070
   344
1005
0
1002
}
0
DIMENSION
5
10A
100
AcDbEntity
8
SK2
62
256
6
ByLayer
370
13
48
1
60
0
100
AcDbDimension
2
DimnDraft3D2
10
46
20
-31.692985
30
0
11
5.4013
21
-31.692985
31
0
70
32
71
5
72
1
41
1
210
0
220
0
230
1
3
Standard
100
AcDbAlignedDimension
13
-36
23
-4.5875
33
0
14
46
24
-1.5875
34
0
50
0
100
AcDbRotatedDimension
1001
ACAD
1000
DSTYLE
1002
{
1070
   279
1070
     0
1070
   172
1070
     1
1070
   173
1070
     1
1070
   340
1005
F4
1070
   271
1070
     2
1070
   272
1070
     2
1070
    77
1070
     1
1070
    73
1070
     0
1070
   171
1070
     3
1070
   274
1070
     4
1070
   177
1070
    35
1070
   176
1070
    35
1070
   178
1070
    35
1070
    48
1040
-0.005
1070
    41
1041
3.5
1070
   147
1041
1.75
1070
    42
1041
1.5875
1070
    44
1041
2.0
1070
   140
1041
3.5
1070
   343
1005
0
1070
   344
1005
0
1002
}
0
DIMENSION
5
114
100
AcDbEntity
8
SK2
62
256
6
ByLayer
370
13
48
1
60
0
100
AcDbDimension
2
DimnDraft3D3
10
46
20
14.384119
30
0
11
31.655
21
14.384119
31
0
70
32
71
5
72
1
41
1
210
0
220
0
230
1
3
Standard
100
AcDbAlignedDimension
13
17.31
23
4.3625
33
0
14
46
24
1.5875
34
0
50
0
100
AcDbRotatedDimension
1001
ACAD
1000
DSTYLE
1002
{
1070
   279
1070
     0
1070
   172
1070
     1
1070
   173
1070
     1
1070
   340
1005
F4
1070
   271
1070
     2
1070
   272
1070
     2
1070
    77
1070
     1
1070
    73
1070
     0
1070
   171
1070
     3
1070
   274
1070
     4
1070
   177
1070
    35
1070
   176
1070
    35
1070
   178
1070
    35
1070
    48
1040
-0.005
1070
    41
1041
3.5
1070
   147
1041
1.75
1070
    42
1041
1.5875
1070
    44
1041
2.0
1070
   140
1041
3.5
1070
   343
1005
0
1070
   344
1005
0
1002
}
0
DIMENSION
5
11E
100
AcDbEntity
8
SK2
62
256
6
ByLayer
370
13
48
1
60
0
100
AcDbDimension
2
DimnDraft3D4
10
45.06
20
-15.577503
30
0
11
55.981425
21
-15.577503
31
0
70
32
71
5
72
1
41
1
210
0
220
0
230
1
3
Standard
100
AcDbAlignedDimension
13
46
23
-1.5875
33
0
14
45.06
24
-4.3625
34
0
50
0
100
AcDbRotatedDimension
1001
ACAD
1000
DSTYLE
1002
{
1070
   279
1070
     0
1070
   172
1070
     1
1070
   173
1070
     1
1070
   340
1005
F4
1070
   271
1070
     2
1070
   272
1070
     2
1070
    77
1070
     1
1070
    73
1070
     0
1070
   171
1070
     3
1070
   274
1070
     4
1070
   177
1070
    35
1070
   176
1070
    35
1070
   178
1070
    35
1070
    48
1040
-0.005
1070
    41
1041
3.5
1070
   147
1041
1.75
1070
    42
1041
1.5875
1070
    44
1041
2.0
1070
   140
1041
3.5
1070
   343
1005
0
1070
   344
1005
0
1002
}
0
DIMENSION
5
128
100
AcDbEntity
8
SK2
62
256
6
ByLayer
370
13
48
1
60
0
100
AcDbDimension
2
DimnDraft3D5
10
45.06
20
-21.343428
30
0
11
2.320676
21
-21.343428
31
0
70
32
71
5
72
1
41
1
210
0
220
0
230
1
3
Standard
100
AcDbAlignedDimension
13
-36
23
-4.5875
33
0
14
45.06
24
-4.3625
34
0
50
0
100
AcDbRotatedDimension
1001
ACAD
1000
DSTYLE
1002
{
1070
   279
1070
     0
1070
   172
1070
     1
1070
   173
1070
     1
1070
   340
1005
F4
1070
   271
1070
     2
1070
   272
1070
     2
1070
    77
1070
     1
1070
    73
1070
     0
1070
   171
1070
     3
1070
   274
1070
     4
1070
   177
1070
    35
1070
   176
1070
    35
1070
   178
1070
    35
1070
    48
1040
-0.005
1070
    41
1041
3.5
1070
   147
1041
1.75
1070
    42
1041
1.5875
1070
    44
1041
2.0
1070
   140
1041
3.5
1070
   343
1005
0
1070
   344
1005
0
1002
}
0
DIMENSION
5
133
100
AcDbEntity
8
SK2
62
256
6
ByLayer
370
13
48
1
60
0
100
AcDbDimension
2
DimnDraft3D6
10
-46.625163
20
3
30
0
11
-47.250163
21
21.47418
31
0
70
33
71
5
72
1
41
1
210
0
220
0
230
1
3
Standard
100
AcDbAlignedDimension
13
-37.5875
23
-3
33
0
14
-37.5875
24
3
34
0
1001
ACAD
1000
DSTYLE
1002
{
1070
   279
1070
     0
1070
    74
1070
     0
1070
   173
1070
     1
1070
   340
1005
F4
1070
   271
1070
     3
1070
   272
1070
     2
1070
    77
1070
     1
1070
    73
1070
     0
1070
   171
1070
     3
1070
   274
1070
     4
1070
   177
1070
    35
1070
   176
1070
    35
1070
   178
1070
    35
1070
    48
1040
-0.005
1070
    41
1041
3.5
1070
   147
1041
1.75
1070
    42
1041
1.5875
1070
    44
1041
2.0
1070
   140
1041
3.5
1070
   343
1005
0
1070
   344
1005
0
1002
}
0
DIMENSION
5
13E
100
AcDbEntity
8
2
62
256
6
ByLayer
370
13
48
1
60
0
100
AcDbDimension
2
DimnDraft3D7
10
60.083343
20
2.775
30
0
11
55.458343
21
19.842266
31
0
70
33
71
5
72
1
41
1
210
0
220
0
230
1
3
Standard
100
AcDbAlignedDimension
13
46.6475
23
-2.775
33
0
14
46.6475
24
2.775
34
0
1001
ACAD
1000
DSTYLE
1002
{
1070
   279
1070
     0
1070
    74
1070
     0
1070
   173
1070
     1
1070
   340
1005
F4
1070
   271
1070
     3
1070
   272
1070
     2
1070
    77
1070
     1
1070
    73
1070
     0
1070
   171
1070
     3
1070
   274
1070
     4
1070
   177
1070
    35
1070
   176
1070
    35
1070
   178
1070
    35
1070
    48
1040
-0.005
1070
    41
1041
3.5
1070
   147
1041
1.75
1070
    42
1041
1.5875
1070
    44
1041
2.0
1070
   140
1041
3.5
1070
   343
1005
0
1070
   344
1005
0
1002
}
0
ENDSEC
0
SECTION
2
OBJECTS
0
DICTIONARY
5
1a9
330
0
100
AcDbDictionary
280
0
281
1
3
ACAD_GROUP
350
1aa
3
ACAD_MLINESTYLE
350
1ab
0
DICTIONARY
5
1aa
330
0
100
AcDbDictionary
280
0
281
1
0
DICTIONARY
5
1ab
330
0
100
AcDbDictionary
280
0
281
1
3
Standard
350
18
0
MLINESTYLE
5
18
330
1ab
100
AcDbMlineStyle
2
Standard
70
0
3

62
256
51
90
52
90
71
2
49
-0.5
62
256
6
ByLayer
49
0.5
62
256
6
ByLayer
0
RASTERVARIABLES
5
197
330

100
AcDbRasterVariables
90
0
70
1
71
1
72
1
0
ENDSEC
0
EOF
