0
SECTION
2
HEADER
9
$ACADVER
1
AC1015
9
$DWGCODEPAGE
3
ANSI_1252
9
$HANDSEED
5
1a8
9
$ANGBASE
50
0
9
$ANGDIR
70
0
9
$ATTMODE
70
1
9
$AUNITS
70
0
9
$AUPREC
70
0
9
$CECOLOR
62
256
9
$CELTSCALE
40
1
9
$CELTYPE
6
ByLayer
9
$CELWEIGHT
370
18
9
$CLAYER
8
0
9
$CMLJUST
70
0
9
$CMLSCALE
40
1
9
$CMLSTYLE
2
Standard
9
$DIMSTYLE
2
Standard
9
$TEXTSIZE
40
0.2
9
$TEXTSTYLE
7
Standard
9
$LUNITS
70
2
9
$LUPREC
70
4
9
$EXTNAMES
290
1
9
$INSUNITS
70
4
9
$LTSCALE
40
1
9
$LWDISPLAY
290
1
9
$PDMODE
70
0
9
$PDSIZE
40
0
9
$PLINEGEN
70
0
0
ENDSEC
0
SECTION
2
CLASSES
0
CLASS
1
RASTERVARIABLES
2
AcDbRasterVariables
3
ISM
90
0
280
0
281
0
0
ENDSEC
0
SECTION
2
TABLES
0
TABLE
2
VPORT
5
19e
100
AcDbSymbolTable
0
VPORT
5
1
100
AcDbSymbolTableRecord
100
AcDbViewportTableRecord
2
*Active
70
0
10
0
20
0
11
1
21
1
12
-1
22
1
13
0
23
0
14
0.5
24
0.5
15
10
25
10
16
0
26
0
36
1
17
0
27
0
37
0
0
ENDTAB
0
TABLE
2
LTYPE
5
19f
100
AcDbSymbolTable
0
LTYPE
5
14
100
AcDbSymbolTableRecord
100
AcDbLinetypeTableRecord
70
0
2
ByBlock
3

72
65
73
0
40
0
0
LTYPE
5
15
100
AcDbSymbolTableRecord
100
AcDbLinetypeTableRecord
70
0
2
ByLayer
3

72
65
73
0
40
0
0
LTYPE
5
16
100
AcDbSymbolTableRecord
100
AcDbLinetypeTableRecord
70
0
2
CONTINUOUS
3
Solid line
72
65
73
0
40
0
0
LTYPE
5
6A
100
AcDbSymbolTableRecord
100
AcDbLinetypeTableRecord
70
0
2
CENTER
3
____ _ ____ _ ____ _ ____
72
65
73
4
40
47.5
49
22
74
0
49
-8.5
74
0
49
8.5
74
0
49
-8.5
74
0
0
LTYPE
5
6B
100
AcDbSymbolTableRecord
100
AcDbLinetypeTableRecord
70
0
2
DASHED
3
__ __ __ __ __ __ __ __ __
72
65
73
2
40
25.72
49
12.86
74
0
49
-12.86
74
0
0
ENDTAB
0
TABLE
2
LAYER
5
1a0
100
AcDbSymbolTable
0
LAYER
5
10
100
AcDbSymbolTableRecord
100
AcDbLayerTableRecord
2
0
70
0
62
7
6
CONTINUOUS
290
1
370
-3
390
0
0
LAYER
5
6D
100
AcDbSymbolTableRecord
100
AcDbLayerTableRecord
2
81
70
0
62
-3
6
CONTINUOUS
290
1
370
-3
390
0
0
LAYER
5
6F
100
AcDbSymbolTableRecord
100
AcDbLayerTableRecord
2
80
70
0
62
-6
6
CONTINUOUS
290
1
370
-3
390
0
0
LAYER
5
74
100
AcDbSymbolTableRecord
100
AcDbLayerTableRecord
2
2
70
0
62
7
6
CONTINUOUS
290
1
370
-3
390
0
0
LAYER
5
78
100
AcDbSymbolTableRecord
100
AcDbLayerTableRecord
2
1
70
0
62
4
6
CONTINUOUS
290
1
370
-3
390
0
0
LAYER
5
88
100
AcDbSymbolTableRecord
100
AcDbLayerTableRecord
2
4
70
0
62
-2
6
CENTER
290
1
370
-3
390
0
0
LAYER
5
18a
100
AcDbSymbolTableRecord
100
AcDbLayerTableRecord
2
SK2
70
0
62
7
6
CONTINUOUS
290
1
370
-3
390
0
0
LAYER
5
18b
100
AcDbSymbolTableRecord
100
AcDbLayerTableRecord
2
SK1
70
0
62
4
6
CONTINUOUS
290
1
370
-3
390
0
0
LAYER
5
18c
100
AcDbSymbolTableRecord
100
AcDbLayerTableRecord
2
SK4
70
0
62
2
6
CENTER
290
1
370
-3
390
0
0
LAYER
5
18d
100
AcDbSymbolTableRecord
100
AcDbLayerTableRecord
2
SK6
70
0
62
5
6
CONTINUOUS
290
1
370
-3
390
0
0
ENDTAB
0
TABLE
2
STYLE
5
1a1
100
AcDbSymbolTable
0
STYLE
5
11
100
AcDbSymbolTableRecord
100
AcDbTextStyleTableRecord
2
Standard
3
txt
70
0
71
0
40
0
41
1
42
0
50
0
0
STYLE
5
E6
100
AcDbSymbolTableRecord
100
AcDbTextStyleTableRecord
2
iso_b_vert
3
simplex.shx
70
0
71
0
40
0
41
1
42
0
50
0
0
STYLE
5
E7
100
AcDbSymbolTableRecord
100
AcDbTextStyleTableRecord
2
DWGDirectTextStyle
3
simplex
70
0
71
0
40
0
41
1
42
0
50
0
0
ENDTAB
0
TABLE
2
DIMSTYLE
5
1a2
100
AcDbSymbolTable
100
AcDbDimStyleTable
0
DIMSTYLE
105
27
100
AcDbSymbolTableRecord
100
AcDbDimStyleTableRecord
2
Standard
70
0
3
<>
41
0.18
42
0.0625
44
0.18
140
0.18
147
0.09
73
0
74
0
77
1
271
2
275
0
278
52
280
0
340
11
0
ENDTAB
0
TABLE
2
VIEW
5
1a3
100
AcDbSymbolTable
0
ENDTAB
0
TABLE
2
UCS
5
1a4
100
AcDbSymbolTable
0
ENDTAB
0
TABLE
2
APPID
5
1a5
100
AcDbSymbolTable
0
APPID
5
12
100
AcDbSymbolTableRecord
100
AcDbRegAppTableRecord
2
ACAD
70
0
0
ENDTAB
0
TABLE
2
BLOCK_RECORD
5
1a6
100
AcDbSymbolTable
0
BLOCK_RECORD
5
1F
100
AcDbSymbolTableRecord
100
AcDbBlockTableRecord
2
*Model_Space
340
0
70
0
0
BLOCK_RECORD
5
1B
100
AcDbSymbolTableRecord
100
AcDbBlockTableRecord
2
*Paper_Space
340
0
70
0
0
BLOCK_RECORD
5
23
100
AcDbSymbolTableRecord
100
AcDbBlockTableRecord
2
*Paper_Space0
340
0
70
0
0
BLOCK_RECORD
5
E9
100
AcDbSymbolTableRecord
100
AcDbBlockTableRecord
2
DimnDraft3D1
340
0
70
0
0
BLOCK_RECORD
5
F3
100
AcDbSymbolTableRecord
100
AcDbBlockTableRecord
2
DimnDraft3D2
340
0
70
0
0
BLOCK_RECORD
5
FD
100
AcDbSymbolTableRecord
100
AcDbBlockTableRecord
2
DimnDraft3D3
340
0
70
0
0
BLOCK_RECORD
5
107
100
AcDbSymbolTableRecord
100
AcDbBlockTableRecord
2
DimnDraft3D4
340
0
70
0
0
BLOCK_RECORD
5
111
100
AcDbSymbolTableRecord
100
AcDbBlockTableRecord
2
DimnDraft3D5
340
0
70
0
0
BLOCK_RECORD
5
11B
100
AcDbSymbolTableRecord
100
AcDbBlockTableRecord
2
DimnDraft3D6
340
0
70
0
0
BLOCK_RECORD
5
126
100
AcDbSymbolTableRecord
100
AcDbBlockTableRecord
2
DimnDraft3D7
340
0
70
0
0
ENDTAB
0
ENDSEC
0
SECTION
2
BLOCKS
0
BLOCK
5
20
100
AcDbEntity
8
0
100
AcDbBlockBegin
2
*Model_Space
70
0
10
0
20
0
30
0
3
*Model_Space
0
ENDBLK
5
21
100
AcDbEntity
8
0
100
AcDbBlockEnd
0
BLOCK
5
1C
100
AcDbEntity
8
0
100
AcDbBlockBegin
2
*Paper_Space
70
0
10
0
20
0
30
0
3
*Paper_Space
0
ENDBLK
5
1D
100
AcDbEntity
8
0
100
AcDbBlockEnd
0
BLOCK
5
24
100
AcDbEntity
8
0
100
AcDbBlockBegin
2
*Paper_Space0
70
0
10
0
20
0
30
0
3
*Paper_Space0
0
ENDBLK
5
25
100
AcDbEntity
8
0
100
AcDbBlockEnd
0
BLOCK
5
F0
100
AcDbEntity
8
0
100
AcDbBlockBegin
2
DimnDraft3D1
70
0
10
0
20
0
30
0
3
DimnDraft3D1
0
MTEXT
5
EA
100
AcDbEntity
8
SK2
62
256
6
ByLayer
370
13
48
1
60
0
100
AcDbMText
10
16.707164
20
-12.038398
30
0
210
0
220
0
230
1
1
\W0.7669;45,09
40
3.5
41
0
44
1.084337
50
0
71
7
72
5
7
iso_b_vert
0
LINE
5
EB
100
AcDbEntity
8
SK2
62
256
6
ByLayer
370
13
48
1
60
0
100
AcDbLine
10
0
20
-1.5875
30
0
11
0
21
-14.913398
31
0
39
0
210
0
220
0
230
1
0
LINE
5
EC
100
AcDbEntity
8
SK2
62
256
6
ByLayer
370
13
48
1
60
0
100
AcDbLine
10
45.09
20
-4.2875
30
0
11
45.09
21
-14.913398
31
0
39
0
210
0
220
0
230
1
0
LINE
5
ED
100
AcDbEntity
8
SK2
62
256
6
ByLayer
370
13
48
1
60
0
100
AcDbLine
10
0
20
-12.913398
30
0
11
45.09
21
-12.913398
31
0
39
0
210
0
220
0
230
1
0
SOLID
5
EE
100
AcDbEntity
8
SK2
62
256
6
ByLayer
370
13
48
1
60
0
100
AcDbTrace
10
0
20
-12.913398
30
0
11
3.499998
21
-12.452615
31
0
12
3.500002
22
-13.374182
32
0
13
0
23
-12.913398
33
0
39
0
210
0
220
0
230
1
0
SOLID
5
EF
100
AcDbEntity
8
SK2
62
256
6
ByLayer
370
13
48
1
60
0
100
AcDbTrace
10
45.09
20
-12.913398
30
0
11
41.590002
21
-13.374182
31
0
12
41.589998
22
-12.452615
32
0
13
45.09
23
-12.913398
33
0
39
0
210
0
220
0
230
1
0
ENDBLK
5
F1
100
AcDbEntity
8
0
100
AcDbBlockEnd
0
BLOCK
5
FA
100
AcDbEntity
8
0
100
AcDbBlockBegin
2
DimnDraft3D2
70
0
10
0
20
0
30
0
3
DimnDraft3D2
0
MTEXT
5
F4
100
AcDbEntity
8
SK2
62
256
6
ByLayer
370
13
48
1
60
0
100
AcDbMText
10
0.982616
20
-30.817985
30
0
210
0
220
0
230
1
1
\W0.7317;82,00
40
3.5
41
0
44
1.084337
50
0
71
7
72
5
7
iso_b_vert
0
LINE
5
F5
100
AcDbEntity
8
SK2
62
256
6
ByLayer
370
13
48
1
60
0
100
AcDbLine
10
-36
20
-4.5875
30
0
11
-36
21
-33.692985
31
0
39
0
210
0
220
0
230
1
0
LINE
5
F6
100
AcDbEntity
8
SK2
62
256
6
ByLayer
370
13
48
1
60
0
100
AcDbLine
10
46
20
-1.5875
30
0
11
46
21
-33.692985
31
0
39
0
210
0
220
0
230
1
0
LINE
5
F7
100
AcDbEntity
8
SK2
62
256
6
ByLayer
370
13
48
1
60
0
100
AcDbLine
10
-36
20
-31.692985
30
0
11
46
21
-31.692985
31
0
39
0
210
0
220
0
230
1
0
SOLID
5
F8
100
AcDbEntity
8
SK2
62
256
6
ByLayer
370
13
48
1
60
0
100
AcDbTrace
10
-36
20
-31.692985
30
0
11
-32.500002
21
-31.232202
31
0
12
-32.499998
22
-32.153769
32
0
13
-36
23
-31.692985
33
0
39
0
210
0
220
0
230
1
0
SOLID
5
F9
100
AcDbEntity
8
SK2
62
256
6
ByLayer
370
13
48
1
60
0
100
AcDbTrace
10
46
20
-31.692985
30
0
11
42.500002
21
-32.153769
31
0
12
42.499998
22
-31.232202
32
0
13
46
23
-31.692985
33
0
39
0
210
0
220
0
230
1
0
ENDBLK
5
FB
100
AcDbEntity
8
0
100
AcDbBlockEnd
0
BLOCK
5
104
100
AcDbEntity
8
0
100
AcDbBlockBegin
2
DimnDraft3D3
70
0
10
0
20
0
30
0
3
DimnDraft3D3
0
MTEXT
5
FE
100
AcDbEntity
8
SK2
62
256
6
ByLayer
370
13
48
1
60
0
100
AcDbMText
10
28.033816
20
15.184119
30
0
210
0
220
0
230
1
1
\W0.7211;27,91
40
3.5
41
0
44
1.084337
50
0
71
7
72
5
7
iso_b_vert
0
LINE
5
FF
100
AcDbEntity
8
SK2
62
256
6
ByLayer
370
13
48
1
60
0
100
AcDbLine
10
18.09
20
4.2875
30
0
11
18.09
21
16.309119
31
0
39
0
210
0
220
0
230
1
0
LINE
5
100
100
AcDbEntity
8
SK2
62
256
6
ByLayer
370
13
48
1
60
0
100
AcDbLine
10
46
20
1.5875
30
0
11
46
21
16.309119
31
0
39
0
210
0
220
0
230
1
0
LINE
5
101
100
AcDbEntity
8
SK2
62
256
6
ByLayer
370
13
48
1
60
0
100
AcDbLine
10
18.09
20
14.309119
30
0
11
46
21
14.309119
31
0
39
0
210
0
220
0
230
1
0
SOLID
5
102
100
AcDbEntity
8
SK2
62
256
6
ByLayer
370
13
48
1
60
0
100
AcDbTrace
10
18.09
20
14.309119
30
0
11
21.589998
21
14.769903
31
0
12
21.590002
22
13.848335
32
0
13
18.09
23
14.309119
33
0
39
0
210
0
220
0
230
1
0
SOLID
5
103
100
AcDbEntity
8
SK2
62
256
6
ByLayer
370
13
48
1
60
0
100
AcDbTrace
10
46
20
14.309119
30
0
11
42.500002
21
13.848335
31
0
12
42.499998
22
14.769903
32
0
13
46
23
14.309119
33
0
39
0
210
0
220
0
230
1
0
ENDBLK
5
105
100
AcDbEntity
8
0
100
AcDbBlockEnd
0
BLOCK
5
10E
100
AcDbEntity
8
0
100
AcDbBlockBegin
2
DimnDraft3D4
70
0
10
0
20
0
30
0
3
DimnDraft3D4
0
MTEXT
5
108
100
AcDbEntity
8
SK2
62
256
6
ByLayer
370
13
48
1
60
0
100
AcDbMText
10
53.278136
20
-14.627503
30
0
210
0
220
0
230
1
1
\W0.6993;0,91
40
3.5
41
0
44
1.084337
50
0
71
7
72
5
7
iso_b_vert
0
LINE
5
109
100
AcDbEntity
8
SK2
62
256
6
ByLayer
370
13
48
1
60
0
100
AcDbLine
10
46
20
-1.5875
30
0
11
46
21
-17.502503
31
0
39
0
210
0
220
0
230
1
0
LINE
5
10A
100
AcDbEntity
8
SK2
62
256
6
ByLayer
370
13
48
1
60
0
100
AcDbLine
10
45.09
20
-4.2875
30
0
11
45.09
21
-17.502503
31
0
39
0
210
0
220
0
230
1
0
LINE
5
10B
100
AcDbEntity
8
SK2
62
256
6
ByLayer
370
13
48
1
60
0
100
AcDbLine
10
36.34
20
-15.502503
30
0
11
59.559715
21
-15.502503
31
0
39
0
210
0
220
0
230
1
0
SOLID
5
10C
100
AcDbEntity
8
SK2
62
256
6
ByLayer
370
13
48
1
60
0
100
AcDbTrace
10
46
20
-15.502503
30
0
11
49.499998
21
-15.041719
31
0
12
49.500002
22
-15.963287
32
0
13
46
23
-15.502503
33
0
39
0
210
0
220
0
230
1
0
SOLID
5
10D
100
AcDbEntity
8
SK2
62
256
6
ByLayer
370
13
48
1
60
0
100
AcDbTrace
10
45.09
20
-15.502503
30
0
11
41.590002
21
-15.963287
31
0
12
41.589998
22
-15.041719
32
0
13
45.09
23
-15.502503
33
0
39
0
210
0
220
0
230
1
0
ENDBLK
5
10F
100
AcDbEntity
8
0
100
AcDbBlockEnd
0
BLOCK
5
118
100
AcDbEntity
8
0
100
AcDbBlockBegin
2
DimnDraft3D5
70
0
10
0
20
0
30
0
3
DimnDraft3D5
0
MTEXT
5
112
100
AcDbEntity
8
SK2
62
256
6
ByLayer
370
13
48
1
60
0
100
AcDbMText
10
-1.660508
20
-20.468428
30
0
210
0
220
0
230
1
1
\W0.6791;81,09
40
3.5
41
0
44
1.084337
50
0
71
7
72
5
7
iso_b_vert
0
LINE
5
113
100
AcDbEntity
8
SK2
62
256
6
ByLayer
370
13
48
1
60
0
100
AcDbLine
10
-36
20
-4.5875
30
0
11
-36
21
-23.343428
31
0
39
0
210
0
220
0
230
1
0
LINE
5
114
100
AcDbEntity
8
SK2
62
256
6
ByLayer
370
13
48
1
60
0
100
AcDbLine
10
45.09
20
-4.2875
30
0
11
45.09
21
-23.343428
31
0
39
0
210
0
220
0
230
1
0
LINE
5
115
100
AcDbEntity
8
SK2
62
256
6
ByLayer
370
13
48
1
60
0
100
AcDbLine
10
-36
20
-21.343428
30
0
11
45.09
21
-21.343428
31
0
39
0
210
0
220
0
230
1
0
SOLID
5
116
100
AcDbEntity
8
SK2
62
256
6
ByLayer
370
13
48
1
60
0
100
AcDbTrace
10
-36
20
-21.343428
30
0
11
-32.500002
21
-20.882645
31
0
12
-32.499998
22
-21.804212
32
0
13
-36
23
-21.343428
33
0
39
0
210
0
220
0
230
1
0
SOLID
5
117
100
AcDbEntity
8
SK2
62
256
6
ByLayer
370
13
48
1
60
0
100
AcDbTrace
10
45.09
20
-21.343428
30
0
11
41.590002
21
-21.804212
31
0
12
41.589998
22
-20.882645
32
0
13
45.09
23
-21.343428
33
0
39
0
210
0
220
0
230
1
0
ENDBLK
5
119
100
AcDbEntity
8
0
100
AcDbBlockEnd
0
BLOCK
5
123
100
AcDbEntity
8
0
100
AcDbBlockBegin
2
DimnDraft3D6
70
0
10
0
20
0
30
0
3
DimnDraft3D6
0
MTEXT
5
11C
100
AcDbEntity
8
SK2
62
256
6
ByLayer
370
13
48
1
60
0
100
AcDbMText
10
-46.375163
20
22.34918
30
0
210
0
220
0
230
1
1
\W0.7317;6,000
40
3.5
41
0
44
1.084337
50
90
71
7
72
5
7
iso_b_vert
0
MTEXT
5
11D
100
AcDbEntity
8
SK2
62
256
6
ByLayer
370
13
48
1
60
0
100
AcDbMText
10
-46.375163
20
17.126524
30
0
210
0
220
0
230
1
1
%%c
40
3.5
41
0
44
1.084337
50
90
71
7
72
5
7
iso_b_vert
0
LINE
5
11E
100
AcDbEntity
8
SK2
62
256
6
ByLayer
370
13
48
1
60
0
100
AcDbLine
10
-37.5875
20
-3
30
0
11
-46.625163
21
-3
31
0
39
0
210
0
220
0
230
1
0
LINE
5
11F
100
AcDbEntity
8
SK2
62
256
6
ByLayer
370
13
48
1
60
0
100
AcDbLine
10
-37.5875
20
3
30
0
11
-46.625163
21
3
31
0
39
0
210
0
220
0
230
1
0
LINE
5
120
100
AcDbEntity
8
SK2
62
256
6
ByLayer
370
13
48
1
60
0
100
AcDbLine
10
-44.625163
20
32.121549
30
0
11
-44.625163
21
-11.75
31
0
39
0
210
0
220
0
230
1
0
SOLID
5
121
100
AcDbEntity
8
SK2
62
256
6
ByLayer
370
13
48
1
60
0
100
AcDbTrace
10
-44.625163
20
-3
30
0
11
-44.164379
21
-6.499998
31
0
12
-45.085946
22
-6.500002
32
0
13
-44.625163
23
-3
33
0
39
0
210
0
220
0
230
1
0
SOLID
5
122
100
AcDbEntity
8
SK2
62
256
6
ByLayer
370
13
48
1
60
0
100
AcDbTrace
10
-44.625163
20
3
30
0
11
-45.085946
21
6.499998
31
0
12
-44.164379
22
6.500002
32
0
13
-44.625163
23
3
33
0
39
0
210
0
220
0
230
1
0
ENDBLK
5
124
100
AcDbEntity
8
0
100
AcDbBlockEnd
0
BLOCK
5
12E
100
AcDbEntity
8
0
100
AcDbBlockBegin
2
DimnDraft3D7
70
0
10
0
20
0
30
0
3
DimnDraft3D7
0
MTEXT
5
127
100
AcDbEntity
8
2
62
256
6
ByLayer
370
13
48
1
60
0
100
AcDbMText
10
56.333343
20
20.642266
30
0
210
0
220
0
230
1
1
\W0.7581;5,400
40
3.5
41
0
44
1.084337
50
90
71
7
72
5
7
iso_b_vert
0
MTEXT
5
128
100
AcDbEntity
8
2
62
256
6
ByLayer
370
13
48
1
60
0
100
AcDbMText
10
56.333343
20
15.41961
30
0
210
0
220
0
230
1
1
%%c
40
3.5
41
0
44
1.084337
50
90
71
7
72
5
7
iso_b_vert
0
LINE
5
129
100
AcDbEntity
8
2
62
256
6
ByLayer
370
13
48
1
60
0
100
AcDbLine
10
46.6775
20
-2.7
30
0
11
60.083343
21
-2.7
31
0
39
0
210
0
220
0
230
1
0
LINE
5
12A
100
AcDbEntity
8
2
62
256
6
ByLayer
370
13
48
1
60
0
100
AcDbLine
10
46.6775
20
2.7
30
0
11
60.083343
21
2.7
31
0
39
0
210
0
220
0
230
1
0
LINE
5
12B
100
AcDbEntity
8
2
62
256
6
ByLayer
370
13
48
1
60
0
100
AcDbLine
10
58.083343
20
30.783056
30
0
11
58.083343
21
-11.45
31
0
39
0
210
0
220
0
230
1
0
SOLID
5
12C
100
AcDbEntity
8
2
62
256
6
ByLayer
370
13
48
1
60
0
100
AcDbTrace
10
58.083343
20
-2.7
30
0
11
58.544126
21
-6.199998
31
0
12
57.622559
22
-6.200002
32
0
13
58.083343
23
-2.7
33
0
39
0
210
0
220
0
230
1
0
SOLID
5
12D
100
AcDbEntity
8
2
62
256
6
ByLayer
370
13
48
1
60
0
100
AcDbTrace
10
58.083343
20
2.7
30
0
11
57.622559
21
6.199998
31
0
12
58.544126
22
6.200002
32
0
13
58.083343
23
2.7
33
0
39
0
210
0
220
0
230
1
0
ENDBLK
5
12F
100
AcDbEntity
8
0
100
AcDbBlockEnd
0
ENDSEC
0
SECTION
2
ENTITIES
0
ARC
5
99
100
AcDbEntity
8
1
62
256
6
ByLayer
370
18
48
1
60
0
100
AcDbCircle
39
0
10
0
20
2.2
30
0
40
0.800000000000002
210
0
220
0
230
1
100
AcDbArc
50
52.743545
51
90
0
ARC
5
9A
100
AcDbEntity
8
1
62
256
6
ByLayer
370
18
48
1
60
0
100
AcDbCircle
39
0
10
-0.968614
20
-3.473494
30
0
40
0.799999999999998
210
0
220
0
230
-1
100
AcDbArc
50
52.743545
51
90.034377
0
ARC
5
9B
100
AcDbEntity
8
1
62
256
6
ByLayer
370
18
48
1
60
0
100
AcDbCircle
39
0
10
0
20
-2.2
30
0
40
0.800000000000002
210
0
220
0
230
1
100
AcDbArc
50
270
51
307.256455
0
ARC
5
9C
100
AcDbEntity
8
1
62
256
6
ByLayer
370
18
48
1
60
0
100
AcDbCircle
39
0
10
-0.968614
20
3.473494
30
0
40
0.799999999999998
210
0
220
0
230
-1
100
AcDbArc
50
269.965623
51
307.256455
0
ELLIPSE
5
9D
100
AcDbEntity
8
1
62
256
6
ByLayer
370
18
48
1
60
0
100
AcDbEllipse
10
4.25
20
-2.793515
30
0
11
-0.25
21
3.06151588455594E-17
31
0
210
0
220
0
230
1
40
1
41
-1.57179063532822
42
-0.523898091088301
0
ELLIPSE
5
9E
100
AcDbEntity
8
1
62
256
6
ByLayer
370
18
48
1
60
0
100
AcDbEllipse
10
4.25
20
2.793515
30
0
11
-0.25
21
3.06151588455594E-17
31
0
210
0
220
0
230
1
40
1
41
0.522349035511073
42
1.57886737653261
0
ELLIPSE
5
9F
100
AcDbEntity
8
1
62
256
6
ByLayer
370
18
48
1
60
0
100
AcDbEllipse
10
45.860776
20
0.097727
30
0
11
0.0727819104919233
21
0.301917195719262
31
0
210
0
220
0
230
-1
40
0.478434
41
1.68952510119933
42
2.45976119973408
0
ELLIPSE
5
A0
100
AcDbEntity
8
1
62
256
6
ByLayer
370
13
48
1
60
0
100
AcDbEllipse
10
45.617876
20
1.253362
30
0
11
1.6460234537078
21
-1.13333395480294
31
0
210
0
220
0
230
-1
40
0.533762
41
1.44484622741787
42
1.70285693498347
0
ELLIPSE
5
A1
100
AcDbEntity
8
1
62
256
6
ByLayer
370
18
48
1
60
0
100
AcDbEllipse
10
46.000251
20
-0.00059
30
0
11
1.00146665071125
21
-2.69728747241782
31
0
210
0
220
0
230
-1
40
0.131755
41
-2.96431887448312
42
-2.84752415976492
0
ELLIPSE
5
A2
100
AcDbEntity
8
1
62
256
6
ByLayer
370
18
48
1
60
0
100
AcDbEllipse
10
46.000251
20
0.00059
30
0
11
1.00146662933564
21
2.69728740884125
31
0
210
0
220
0
230
-1
40
0.131755
41
2.84752415624736
42
2.96431887236447
0
ELLIPSE
5
A3
100
AcDbEntity
8
1
62
256
6
ByLayer
370
18
48
1
60
0
100
AcDbEllipse
10
46.056871
20
-0.018623
30
0
11
0.135544944380444
21
-0.427068209941747
31
0
210
0
220
0
230
-1
40
0.100282
41
1.71050556575437
42
2.33653286888522
0
ELLIPSE
5
A4
100
AcDbEntity
8
1
62
256
6
ByLayer
370
13
48
1
60
0
100
AcDbEllipse
10
4.250257
20
1.560071
30
0
11
0.0408135785825362
21
0.0912921234460407
31
0
210
0
220
0
230
1
40
0.287456
41
-2.39667739744344
42
-2.13868869850388
0
ELLIPSE
5
A5
100
AcDbEntity
8
1
62
256
6
ByLayer
370
18
48
1
60
0
100
AcDbEllipse
10
45.454424
20
1.376559
30
0
11
0.420536098011154
21
-1.13264556055697
31
0
210
0
220
0
230
-1
40
0.131755
41
-1.49049257979677
42
-0.736518128024276
0
ELLIPSE
5
A6
100
AcDbEntity
8
1
62
256
6
ByLayer
370
18
48
1
60
0
100
AcDbEllipse
10
46.056871
20
0.018623
30
0
11
0.135544944443006
21
0.427068210098559
31
0
210
0
220
0
230
-1
40
0.100282
41
-2.33653286893749
42
-1.71050556600369
0
ELLIPSE
5
A7
100
AcDbEntity
8
1
62
256
6
ByLayer
370
13
48
1
60
0
100
AcDbEllipse
10
45.807782
20
1.376559
30
0
11
1.71304253541657
21
-0.793326896631919
31
0
210
0
220
0
230
-1
40
0.473019
41
1.58138102154363
42
1.86429696457954
0
ELLIPSE
5
A8
100
AcDbEntity
8
1
62
256
6
ByLayer
370
18
48
1
60
0
100
AcDbEllipse
10
45.454424
20
-1.376559
30
0
11
0.420536097967404
21
1.13264556046674
31
0
210
0
220
0
230
-1
40
0.131755
41
0.736518128029402
42
1.49049257985534
0
ELLIPSE
5
A9
100
AcDbEntity
8
1
62
256
6
ByLayer
370
13
48
1
60
0
100
AcDbEllipse
10
45.414413
20
0.362568
30
0
11
0.15308208161242
21
0.258003636193772
31
0
210
0
220
0
230
1
40
0.454519
41
0.917105603404794
42
2.31336900500025
0
POINT
5
6C
100
AcDbEntity
8
81
62
256
6
ByLayer
370
18
48
1
60
0
100
AcDbPoint
10
46
20
0
30
0
39
0
210
0
220
0
230
1
50
360
0
POINT
5
6E
100
AcDbEntity
8
80
62
256
6
ByLayer
370
18
48
1
60
0
100
AcDbPoint
10
0
20
0
30
0
39
0
210
0
220
0
230
1
50
360
0
POINT
5
70
100
AcDbEntity
8
SK2
62
256
6
ByLayer
370
18
48
1
60
1
100
AcDbPoint
10
-36
20
-3
30
0
39
0
210
0
220
0
230
1
50
360
0
POINT
5
72
100
AcDbEntity
8
SK2
62
256
6
ByLayer
370
18
48
1
60
1
100
AcDbPoint
10
-36
20
3
30
0
39
0
210
0
220
0
230
1
50
360
0
POINT
5
73
100
AcDbEntity
8
2
62
256
6
ByLayer
370
18
48
1
60
1
100
AcDbPoint
10
45.09
20
-2.7
30
0
39
0
210
0
220
0
230
1
50
360
0
POINT
5
75
100
AcDbEntity
8
2
62
256
6
ByLayer
370
18
48
1
60
1
100
AcDbPoint
10
45.09
20
2.7
30
0
39
0
210
0
220
0
230
1
50
360
0
SPLINE
5
AA
100
AcDbEntity
8
1
62
256
6
ByLayer
370
18
48
1
60
0
100
AcDbSpline
70
4
71
1
72
4
73
2
40
0
40
0
40
1
40
1
41
1
10
4.04564676256311
20
1.61528258402441
30
0
41
1
10
4.05525066443516
20
1.59799979066298
30
0
0
SPLINE
5
AB
100
AcDbEntity
8
1
62
256
6
ByLayer
370
18
48
1
60
0
100
AcDbSpline
70
4
71
3
72
21
73
17
40
0
40
0
40
0
40
0
40
0.102220512933573
40
0.186079849548019
40
0.251525507609086
40
0.298462735838504
40
0.33491307638455
40
0.403424667503529
40
0.477113048319439
40
0.537938229149918
40
0.595581898327873
40
0.658947455213903
40
0.724147095720094
40
0.794473240333406
40
0.89376610353012
40
1
40
1
40
1
40
1
41
1
10
29.6670526864557
20
-2.55784765507991
30
0
41
1
10
29.9182614915207
20
-2.55811090073843
30
0
41
1
10
30.3756271660072
20
-2.55856398857696
30
0
41
1
10
30.9942028048709
20
-2.55835524822925
30
0
41
1
10
31.4766848354699
20
-2.55920358509871
30
0
41
1
10
31.8426478119952
20
-2.55953295292503
30
0
41
1
10
32.2161567031371
20
-2.55912418542124
30
0
41
1
10
32.6554626046046
20
-2.55941025682353
30
0
41
1
10
33.1546212279518
20
-2.56049442748599
30
0
41
1
10
33.6271348924117
20
-2.55935476558594
30
0
41
1
10
34.0742332319298
20
-2.5616637946433
30
0
41
1
10
34.5322007475665
20
-2.56153307890324
30
0
41
1
10
35.0209012118574
20
-2.55966422733786
30
0
41
1
10
35.5960268117548
20
-2.56096491583492
30
0
41
1
10
36.2753684883395
20
-2.55969835568621
30
0
41
1
10
36.779722740879
20
-2.56147131003337
30
0
41
1
10
37.0403846927089
20
-2.56265753855189
30
0
0
SPLINE
5
AC
100
AcDbEntity
8
1
62
256
6
ByLayer
370
18
48
1
60
0
100
AcDbSpline
70
4
71
2
72
6
73
3
40
0
40
0
40
0
40
1
40
1
40
1
41
1
10
7.04073712796549
20
0.0066084202718173
30
0
41
1
10
7.04073497926061
20
0.0066268745268587
30
0
41
1
10
7.04073283055993
20
0.0066453432927176
30
0
0
SPLINE
5
AD
100
AcDbEntity
8
1
62
256
6
ByLayer
370
18
48
1
60
0
100
AcDbSpline
70
4
71
3
72
18
73
14
40
0
40
0
40
0
40
0
40
0.11452470827536
40
0.226815772993035
40
0.302985253625191
40
0.351793743671691
40
0.408597450963762
40
0.541238491192843
40
0.669181326997303
40
0.770751197223555
40
0.862345526683302
40
0.967889159665011
40
1
40
1
40
1
40
1
41
1
10
22.0614048727305
20
2.5540790362179
30
0
41
1
10
21.8295123724271
20
2.5539497268106
30
0
41
1
10
21.3702385043027
20
2.55366619714221
30
0
41
1
10
20.7569248070842
20
2.55412170668393
30
0
41
1
10
20.2763210261717
20
2.55323934633728
30
0
41
1
10
19.9086159852521
20
2.55196569051705
30
0
41
1
10
19.4261537140129
20
2.55354491247681
30
0
41
1
10
18.7835881100999
20
2.55040455975745
30
0
41
1
10
18.0500348333795
20
2.55294648129154
30
0
41
1
10
17.4006489110642
20
2.55007129176715
30
0
41
1
10
16.7937736335164
20
2.55107759000691
30
0
41
1
10
16.3359639147636
20
2.5498960987764
30
0
41
1
10
16.0585992498756
20
2.54851347173087
30
0
41
1
10
15.9938377426923
20
2.54818846114503
30
0
0
SPLINE
5
AE
100
AcDbEntity
8
1
62
256
6
ByLayer
370
18
48
1
60
0
100
AcDbSpline
70
4
71
3
72
20
73
16
40
0
40
0
40
0
40
0
40
0.106143137573419
40
0.203540622754066
40
0.290394739404195
40
0.365769675349028
40
0.449353697496437
40
0.538255613977602
40
0.631412322483513
40
0.71350831994286
40
0.744183334593071
40
0.787573757828913
40
0.849364520761485
40
0.929437310674227
40
1
40
1
40
1
40
1
41
1
10
14.6995624791335
20
-2.54873089563913
30
0
41
1
10
14.9558050138168
20
-2.54687818098722
30
0
41
1
10
15.4487322435786
20
-2.54482750145462
30
0
41
1
10
16.1637332438306
20
-2.54944691244952
30
0
41
1
10
16.7937724932351
20
-2.55109215663734
30
0
41
1
10
17.4006527231364
20
-2.55002259408684
30
0
41
1
10
18.0097521445107
20
-2.55297877254714
30
0
41
1
10
18.6635961389098
20
-2.55009366063274
30
0
41
1
10
19.31341760539
20
-2.55445908383132
30
0
41
1
10
19.8203101100667
20
-2.5518969492889
30
0
41
1
10
20.2041286954982
20
-2.552787323291
30
0
41
1
10
20.538499000232
20
-2.55452587503632
30
0
41
1
10
20.9942529703453
20
-2.55275037049432
30
0
41
1
10
21.5168746321799
20
-2.55474915104153
30
0
41
1
10
21.8875086067112
20
-2.55439468481035
30
0
41
1
10
22.0611317979148
20
-2.55420615591658
30
0
0
SPLINE
5
AF
100
AcDbEntity
8
1
62
256
6
ByLayer
370
18
48
1
60
0
100
AcDbSpline
70
4
71
2
72
6
73
3
40
0
40
0
40
0
40
1
40
1
40
1
41
1
10
44.6411251966607
20
-2.56682170161955
30
0
41
1
10
44.8374868878692
20
-2.56687996324246
30
0
41
1
10
45.0299155289957
20
-2.56493749095443
30
0
0
SPLINE
5
B0
100
AcDbEntity
8
1
62
256
6
ByLayer
370
18
48
1
60
0
100
AcDbSpline
70
4
71
3
72
11
73
7
40
0
40
0
40
0
40
0
40
0.0736648436179384
40
0.311019818437204
40
0.624350922572542
40
1
40
1
40
1
40
1
41
1
10
22.802861550419
20
-0.720260996865932
30
0
41
1
10
22.8026147959741
20
-0.720298664421392
30
0
41
1
10
22.8046447385472
20
-0.721916322727765
30
0
41
1
10
22.8583293064844
20
-0.747761832229571
30
0
41
1
10
22.9635250360808
20
-0.802092778280354
30
0
41
1
10
23.0591645992233
20
-0.852754711006128
30
0
41
1
10
23.1170738458218
20
-0.88385407218658
30
0
0
SPLINE
5
B1
100
AcDbEntity
8
1
62
256
6
ByLayer
370
18
48
1
60
0
100
AcDbSpline
70
4
71
3
72
11
73
7
40
0
40
0
40
0
40
0
40
0.167567808798238
40
0.434257303370281
40
0.740235731497258
40
1
40
1
40
1
40
1
41
1
10
7.11782057207415
20
2.54609191399669
30
0
41
1
10
6.95811611027636
20
2.54587427606114
30
0
41
1
10
6.54392314415995
20
2.5454055766096
30
0
41
1
10
5.83572143034922
20
2.54354303752328
30
0
41
1
10
5.03914482657166
20
2.545658045327
30
0
41
1
10
4.49899469523618
20
2.54395637913484
30
0
41
1
10
4.25114054720586
20
2.54295469486885
30
0
0
SPLINE
5
B2
100
AcDbEntity
8
1
62
256
6
ByLayer
370
18
48
1
60
0
100
AcDbSpline
70
4
71
3
72
11
73
7
40
0
40
0
40
0
40
0
40
0.294658075924202
40
0.39028764003207
40
0.536985396406129
40
1
40
1
40
1
40
1
41
1
10
37.7550418323402
20
-0.715255890048837
30
0
41
1
10
37.7553464717474
20
-0.715406198315293
30
0
41
1
10
37.7626043372322
20
-0.718491011523213
30
0
41
1
10
37.7929609207375
20
-0.733952202971039
30
0
41
1
10
37.8857743897107
20
-0.780433905760617
30
0
41
1
10
37.9738199314128
20
-0.826549643672337
30
0
41
1
10
38.0571921612044
20
-0.870695778900142
30
0
0
SPLINE
5
B3
100
AcDbEntity
8
1
62
256
6
ByLayer
370
18
48
1
60
0
100
AcDbSpline
70
4
71
3
72
22
73
18
40
0
40
0
40
0
40
0
40
0.0591146678368637
40
0.136567409545316
40
0.227691234013718
40
0.308114822144245
40
0.371091917245993
40
0.432278922100283
40
0.503851156029167
40
0.595553607027389
40
0.692233739863519
40
0.759438567513827
40
0.787549465039569
40
0.833995992107807
40
0.899890213484301
40
0.98515128148334
40
1
40
1
40
1
40
1
41
1
10
37.0942744472932
20
2.56218862614307
30
0
41
1
10
36.9797415640686
20
2.56151160415843
30
0
41
1
10
36.7118803362949
20
2.5601331834684
30
0
41
1
10
36.2419192254697
20
2.55096738068508
30
0
41
1
10
35.7366803514165
20
2.55995732188035
30
0
41
1
10
35.2671758599051
20
2.56082753025498
30
0
41
1
10
34.8471974034094
20
2.56023753349425
30
0
41
1
10
34.446374171036
20
2.56169715218223
30
0
41
1
10
33.9864079768616
20
2.56126202449559
30
0
41
1
10
33.4538130684104
20
2.559282538048
30
0
41
1
10
32.9301857495725
20
2.56062252885991
30
0
41
1
10
32.5367476154881
20
2.55911676627454
30
0
41
1
10
32.2469786602907
20
2.5589526706959
30
0
41
1
10
31.9593502295455
20
2.55903944850223
30
0
41
1
10
31.5546031882899
20
2.55882370432579
30
0
41
1
10
31.2144457036282
20
2.55811686500491
30
0
41
1
10
31.0093290128076
20
2.55802457994656
30
0
41
1
10
30.9789059672613
20
2.55801670593476
30
0
0
SPLINE
5
B4
100
AcDbEntity
8
1
62
256
6
ByLayer
370
18
48
1
60
0
100
AcDbSpline
70
4
71
3
72
11
73
7
40
0
40
0
40
0
40
0
40
0.124385720865613
40
0.390115541799866
40
0.70622277803173
40
1
40
1
40
1
40
1
41
1
10
4.25111905427582
20
-2.54338696928949
30
0
41
1
10
4.36913595931378
20
-2.54401829542917
30
0
41
1
10
4.73927848740641
20
-2.54565026071373
30
0
41
1
10
5.40933649724573
20
-2.54580421354643
30
0
41
1
10
6.24017791345369
20
-2.5445776324631
30
0
41
1
10
6.81880479696844
20
-2.54547164932259
30
0
41
1
10
7.09751823771333
20
-2.54608750501436
30
0
0
SPLINE
5
B5
100
AcDbEntity
8
1
62
256
6
ByLayer
370
18
48
1
60
0
100
AcDbSpline
70
4
71
3
72
72
73
68
40
0
40
0
40
0
40
0
40
0.026216022070067
40
0.026216022070067
40
0.0559707820323443
40
0.0559707820323443
40
0.0857255419946217
40
0.0857255419946217
40
0.115480301956899
40
0.115480301956899
40
0.145235061919177
40
0.145235061919177
40
0.174989821881454
40
0.174989821881454
40
0.204744581843731
40
0.204744581843731
40
0.234499341806009
40
0.234499341806009
40
0.264254101768286
40
0.264254101768286
40
0.294008861730563
40
0.294008861730563
40
0.323763621692841
40
0.323763621692841
40
0.353518381655118
40
0.353518381655118
40
0.383273141617396
40
0.383273141617396
40
0.413027901579673
40
0.413027901579673
40
0.44278266154195
40
0.44278266154195
40
0.472537421504228
40
0.472537421504228
40
0.502292181466505
40
0.502292181466505
40
0.561801701391059
40
0.561801701391059
40
0.591556461353336
40
0.591556461353336
40
0.621311221315614
40
0.621311221315614
40
0.651065981277891
40
0.651065981277891
40
0.680820741240168
40
0.680820741240168
40
0.710575501202446
40
0.710575501202446
40
0.740330261164723
40
0.740330261164723
40
0.770085021127001
40
0.770085021127001
40
0.799839781089278
40
0.799839781089278
40
0.829594541051555
40
0.829594541051555
40
0.859349301013833
40
0.859349301013833
40
0.889104060976111
40
0.889104060976111
40
0.918858820938389
40
0.918858820938389
40
0.948613580900668
40
0.948613580900668
40
0.978368340862945
40
0.978368340862945
40
1
40
1
40
1
40
1
41
1
10
10.4570011919118
20
1.95928249061365
30
0
41
1
10
10.6185205895216
20
2.02093643323929
30
0
41
1
10
10.7796629168264
20
2.07907463733173
30
0
41
1
10
11.1224296020459
20
2.19646552630374
30
0
41
1
10
11.3043515646839
20
2.25411342378035
30
0
41
1
10
11.6693234324544
20
2.35840293906207
30
0
41
1
10
11.8520453381277
20
2.40541194212642
30
0
41
1
10
12.217450570154
20
2.48941075958209
30
0
41
1
10
12.3998865251101
20
2.52647297168858
30
0
41
1
10
12.7674249871491
20
2.5885034759016
30
0
41
1
10
12.9524795375795
20
2.61382984460587
30
0
41
1
10
13.3210862307424
20
2.65279089428125
30
0
41
1
10
13.5044811032371
20
2.66651624598211
30
0
41
1
10
13.8720473488018
20
2.6817260512172
30
0
41
1
10
14.0563649022179
20
2.68330591904319
30
0
41
1
10
14.4253406965182
20
2.67458319112984
30
0
41
1
10
14.6097073018212
20
2.66419907098415
30
0
41
1
10
14.9770759254484
20
2.63132926961123
30
0
41
1
10
15.1611157904163
20
2.60910359231468
30
0
41
1
10
15.5294886392443
20
2.55326979513941
30
0
41
1
10
15.7138105202566
20
2.51964124572095
30
0
41
1
10
16.082060862474
20
2.44026285659953
30
0
41
1
10
16.2659166707132
20
2.39510221788083
30
0
41
1
10
16.6341909708855
20
2.29505479368339
30
0
41
1
10
16.8183636937549
20
2.2400037039489
30
0
41
1
10
17.1861982935031
20
2.11911143216776
30
0
41
1
10
17.3701015646877
20
2.0530364701103
30
0
41
1
10
17.7387846489146
20
1.91372355219494
30
0
41
1
10
17.9230633782785
20
1.84008289610909
30
0
41
1
10
18.2909828163066
20
1.68420120176913
30
0
41
1
10
18.474221954874
20
1.60133755570428
30
0
41
1
10
18.8424178716924
20
1.43014703705364
30
0
41
1
10
19.0273225142477
20
1.34156547991924
30
0
41
1
10
19.3957940468626
20
1.15872142250041
30
0
41
1
10
19.5793226896108
20
1.06386232951343
30
0
41
1
10
20.1301085903611
20
0.772596944085223
30
0
41
1
10
20.5006178015894
20
0.57259509206304
30
0
41
1
10
21.0513465794037
20
0.262689613411396
30
0
41
1
10
21.2351284560541
20
0.159270527634874
30
0
41
1
10
21.6034216238014
20
-0.0472085736631414
30
0
41
1
10
21.7879787318249
20
-0.150591636920978
30
0
41
1
10
22.1561467265595
20
-0.358188009397566
30
0
41
1
10
22.3396387995478
20
-0.461597745553831
30
0
41
1
10
22.70766782077
20
-0.663781288386986
30
0
41
1
10
22.8918148916638
20
-0.76325546764474
30
0
41
1
10
23.259852112192
20
-0.959834493991423
30
0
41
1
10
23.4436925158093
20
-1.05754945282703
30
0
41
1
10
23.8119682102684
20
-1.24510084515046
30
0
41
1
10
23.9961485410611
20
-1.33566170086627
30
0
41
1
10
24.3640744027573
20
-1.51122274623592
30
0
41
1
10
24.5474395452717
20
-1.5967450735975
30
0
41
1
10
24.9153542929588
20
-1.75966784452089
30
0
41
1
10
25.1001242322276
20
-1.83672801616325
30
0
41
1
10
25.4684484367029
20
-1.98240569755481
30
0
41
1
10
25.652141211993
20
-2.05127697738507
30
0
41
1
10
26.0191175349348
20
-2.18020528051321
30
0
41
1
10
26.2032107104863
20
-2.23939317705063
30
0
41
1
10
26.5723266493409
20
-2.34770368051252
30
0
41
1
10
26.7565959888935
20
-2.39667232307423
30
0
41
1
10
27.123676437864
20
-2.48444245842876
30
0
41
1
10
27.3071543601376
20
-2.52273165797448
30
0
41
1
10
27.675344942489
20
-2.58750081290708
30
0
41
1
10
27.8600247289444
20
-2.61422709644526
30
0
41
1
10
28.2281869871551
20
-2.65614983238646
30
0
41
1
10
28.4113993658527
20
-2.67126381780301
30
0
41
1
10
28.7289667459438
20
-2.68674117510406
30
0
41
1
10
28.862773846671
20
-2.69010484805952
30
0
41
1
10
28.9966068763835
20
-2.69031108680519
30
0
0
SPLINE
5
B6
100
AcDbEntity
8
1
62
256
6
ByLayer
370
18
48
1
60
0
100
AcDbSpline
70
4
71
3
72
22
73
18
40
0
40
0
40
0
40
0
40
0.0741738138773625
40
0.0741738138773625
40
0.189902087142691
40
0.189902087142691
40
0.305630360408019
40
0.305630360408019
40
0.537086906938675
40
0.537086906938675
40
0.652815180204006
40
0.652815180204006
40
0.768543453469338
40
0.768543453469338
40
0.884271726734668
40
0.884271726734668
40
1
40
1
40
1
40
1
41
1
10
40.3799271244014
20
1.96514781354435
30
0
41
1
10
40.4975539573848
20
2.01101954626984
30
0
41
1
10
40.6150039322421
20
2.05520066027577
30
0
41
1
10
40.9161774457156
20
2.16284969553814
30
0
41
1
10
41.1002369997716
20
2.22326853341991
30
0
41
1
10
41.4686951227544
20
2.33456673808305
30
0
41
1
10
41.6527382969706
20
2.38551388059031
30
0
41
1
10
42.2029762142656
20
2.52197753598912
30
0
41
1
10
42.5714492989359
20
2.58969828063846
30
0
41
1
10
43.1229412307594
20
2.65788263353397
30
0
41
1
10
43.3065352887023
20
2.67451407365229
30
0
41
1
10
43.674240369891
20
2.69573237389108
30
0
41
1
10
43.8581193419372
20
2.70041320192692
30
0
41
1
10
44.2253506013257
20
2.69774441056472
30
0
41
1
10
44.408977103981
20
2.69025236400648
30
0
41
1
10
44.7771500992604
20
2.66349914343729
30
0
41
1
10
44.9611406492282
20
2.64428078666941
30
0
41
1
10
45.144781612192
20
2.61915513757705
30
0
0
SPLINE
5
B7
100
AcDbEntity
8
1
62
256
6
ByLayer
370
18
48
1
60
0
100
AcDbSpline
70
4
71
3
72
14
73
10
40
0
40
0
40
0
40
0
40
0.182265337168246
40
0.182265337168246
40
0.393949253142243
40
0.393949253142243
40
0.817317085090228
40
0.817317085090228
40
1
40
1
40
1
40
1
41
1
10
29.7154261153049
20
-2.55787477097849
30
0
41
1
10
29.5312987475343
20
-2.55795442112424
30
0
41
1
10
29.3464807186206
20
-2.55232286176747
30
0
41
1
10
28.9493646789642
20
-2.52787979221773
30
0
41
1
10
28.7368392307567
20
-2.50709487644596
30
0
41
1
10
28.1007567575062
20
-2.42294706807064
30
0
41
1
10
27.6782694374263
20
-2.33766536268408
30
0
41
1
10
27.071430702213
20
-2.17698131849437
30
0
41
1
10
26.8882341535494
20
-2.12357617342187
30
0
41
1
10
26.7044470431494
20
-2.06540507688141
30
0
0
SPLINE
5
B8
100
AcDbEntity
8
1
62
256
6
ByLayer
370
13
48
1
60
0
100
AcDbSpline
70
4
71
3
72
24
73
20
40
0
40
0
40
0
40
0
40
0.0112628603606705
40
0.0112628603606705
40
0.0934726564219829
40
0.0934726564219829
40
0.257892248544608
40
0.257892248544608
40
0.422311840667233
40
0.422311840667233
40
0.504521636728546
40
0.504521636728546
40
0.586731432789859
40
0.586731432789859
40
0.915570617035111
40
0.915570617035111
40
0.997780413096424
40
0.997780413096424
40
1
40
1
40
1
40
1
41
1
10
26.7044470432651
20
-2.06540507691798
30
0
41
1
10
26.6752707505945
20
-2.05617038720615
30
0
41
1
10
26.6460795747546
20
-2.04681558733861
30
0
41
1
10
26.4036824015915
20
-1.96818824760712
30
0
41
1
10
26.1891274787858
20
-1.89241135841129
30
0
41
1
10
25.5465878204643
20
-1.64878949329861
30
0
41
1
10
25.1195499154093
20
-1.46522805237072
30
0
41
1
10
24.2619173519585
20
-1.06508079385108
30
0
41
1
10
23.835147381706
20
-0.851036734234157
30
0
41
1
10
23.1947565572435
20
-0.517989439813221
30
0
41
1
10
22.9810961953367
20
-0.405079319229031
30
0
41
1
10
22.5526228888743
20
-0.176905801463562
30
0
41
1
10
22.3382096119002
20
-0.0617919116675978
30
0
41
1
10
21.2727677351735
20
0.509525897171812
30
0
41
1
10
20.4321826197749
20
0.956143631768896
30
0
41
1
10
19.3640110889212
20
1.44258174116362
30
0
41
1
10
19.1490677612028
20
1.53632743686453
30
0
41
1
10
18.929812454512
20
1.62671832816039
30
0
41
1
10
18.9240490435561
20
1.62909083647853
30
0
41
1
10
18.9182862751946
20
1.63145953321907
30
0
0
SPLINE
5
B9
100
AcDbEntity
8
1
62
256
6
ByLayer
370
13
48
1
60
0
100
AcDbSpline
70
4
71
3
72
20
73
16
40
0
40
0
40
0
40
0
40
0.210649875332174
40
0.210649875332174
40
0.315974812998261
40
0.315974812998261
40
0.421299750664348
40
0.421299750664348
40
0.631949625996521
40
0.631949625996521
40
0.737274563662608
40
0.737274563662608
40
0.842599501328695
40
0.842599501328695
40
1
40
1
40
1
40
1
41
1
10
4.25042866109482
20
1.50107815134359
30
0
41
1
10
4.25050201385505
20
1.63648145918
30
0
41
1
10
4.25056658507833
20
1.76055836724129
30
0
41
1
10
4.25065516444246
20
1.92992472824446
30
0
41
1
10
4.25068338023559
20
1.98371068544384
30
0
41
1
10
4.25073680974515
20
2.08369772661808
30
0
41
1
10
4.25076214883285
20
2.13014223846855
30
0
41
1
10
4.25083525391113
20
2.25904254396195
30
0
41
1
10
4.25088022883597
20
2.33127212443449
30
0
41
1
10
4.25094552264466
20
2.41760840582415
30
0
41
1
10
4.25096668672865
20
2.44239925269139
30
0
41
1
10
4.2510083450959
20
2.48406754119696
30
0
41
1
10
4.25102891956504
20
2.50098117940311
30
0
41
1
10
4.2510791874532
20
2.53272440271442
30
0
41
1
10
4.25110847943648
20
2.54260193749929
30
0
41
1
10
4.25113722596672
20
2.54346872971422
30
0
0
SPLINE
5
BA
100
AcDbEntity
8
1
62
256
6
ByLayer
370
18
48
1
60
0
100
AcDbSpline
70
4
71
3
72
18
73
14
40
0
40
0
40
0
40
0
40
0.25
40
0.25
40
0.5
40
0.5
40
0.625
40
0.625
40
0.75
40
0.75
40
0.875
40
0.875
40
1
40
1
40
1
40
1
41
1
10
45.6369094233105
20
1.34093079447698
30
0
41
1
10
45.5968505575714
20
1.44890993986351
30
0
41
1
10
45.5563836140724
20
1.55666646320807
30
0
41
1
10
45.4754294230342
20
1.77199976076881
30
0
41
1
10
45.4348408979976
20
1.87950733935526
30
0
41
1
10
45.3733813858551
20
2.03994540929853
30
0
41
1
10
45.3527604532997
20
2.09324903936403
30
0
41
1
10
45.3114452526606
20
2.19967240070795
30
0
41
1
10
45.2907849163349
20
2.25287196840796
30
0
41
1
10
45.2493581090233
20
2.35880121955719
30
0
41
1
10
45.2285953688382
20
2.4115474201796
30
0
41
1
10
45.1868369670444
20
2.51600862098402
30
0
41
1
10
45.1658165130755
20
2.5676138592878
30
0
41
1
10
45.1447816121964
20
2.61915513756648
30
0
0
SPLINE
5
BB
100
AcDbEntity
8
1
62
256
6
ByLayer
370
18
48
1
60
0
100
AcDbSpline
70
4
71
3
72
38
73
34
40
0
40
0
40
0
40
0
40
0.0820883627272046
40
0.0820883627272046
40
0.123132544090807
40
0.123132544090807
40
0.164176725454409
40
0.164176725454409
40
0.246265088181614
40
0.246265088181614
40
0.287309269545216
40
0.287309269545216
40
0.328353450908818
40
0.328353450908818
40
0.492530176363221
40
0.492530176363221
40
0.533574357726822
40
0.533574357726822
40
0.574618539090422
40
0.574618539090422
40
0.65670690181762
40
0.65670690181762
40
0.738795264544819
40
0.738795264544819
40
0.820883627272017
40
0.820883627272017
40
0.902971989999216
40
0.902971989999216
40
0.944016171362815
40
0.944016171362815
40
0.985060352726414
40
0.985060352726414
40
1
40
1
40
1
40
1
41
1
10
45.0771496002664
20
-2.67769481630697
30
0
41
1
10
44.6487618424318
20
-2.7086729762855
30
0
41
1
10
44.2217399688528
20
-2.70675131324324
30
0
41
1
10
43.5786448071859
20
-2.65512161334507
30
0
41
1
10
43.363234686544
20
-2.62964341713172
30
0
41
1
10
42.9349059552285
20
-2.56322616187427
30
0
41
1
10
42.7216986202589
20
-2.5223326198736
30
0
41
1
10
42.0838676938703
20
-2.37766987879775
30
0
41
1
10
41.6607261345109
20
-2.25209510569599
30
0
41
1
10
41.023532084333
20
-2.02550430101704
30
0
41
1
10
40.8107504290624
20
-1.94357322473067
30
0
41
1
10
40.3834890756997
20
-1.76782048673505
30
0
41
1
10
40.1682169526192
20
-1.67363892201007
30
0
41
1
10
39.0960721414806
20
-1.18066772110413
30
0
41
1
10
38.2553933365638
20
-0.717183497932325
30
0
41
1
10
37.1880276091579
20
-0.116307574444164
30
0
41
1
10
36.9732044187942
20
0.0052379688072222
30
0
41
1
10
36.5435848445911
20
0.247912826043432
30
0
41
1
10
36.3299464135757
20
0.368299287653628
30
0
41
1
10
35.6910484111543
20
0.72403385393855
30
0
41
1
10
35.2675236054125
20
0.953465597042339
30
0
41
1
10
34.4185962895754
20
1.38571379968923
30
0
41
1
10
33.992936285379
20
1.58812674829213
30
0
41
1
10
33.1328356836135
20
1.95464971621755
30
0
41
1
10
32.7067765948233
20
2.1136659849893
30
0
41
1
10
31.8579048275405
20
2.37815772274567
30
0
41
1
10
31.4341447994559
20
2.48292898534754
30
0
41
1
10
30.7952420392531
20
2.59510671991072
30
0
41
1
10
30.5815700557242
20
2.6248869657008
30
0
41
1
10
30.1519616908185
20
2.66853012384959
30
0
41
1
10
29.9369671404329
20
2.68225090698701
30
0
41
1
10
29.6456919439946
20
2.68979697284629
30
0
41
1
10
29.5680681609497
20
2.69073326759403
30
0
41
1
10
29.4905273935885
20
2.69059971934422
30
0
0
SPLINE
5
BC
100
AcDbEntity
8
1
62
256
6
ByLayer
370
18
48
1
60
0
100
AcDbSpline
70
4
71
3
72
30
73
26
40
0
40
0
40
0
40
0
40
0.137236716379438
40
0.137236716379438
40
0.191159421605722
40
0.191159421605722
40
0.245082126832007
40
0.245082126832007
40
0.352927537284578
40
0.352927537284578
40
0.460772947737148
40
0.460772947737148
40
0.514695652963435
40
0.514695652963435
40
0.568618358189721
40
0.568618358189721
40
0.676463768642292
40
0.676463768642292
40
0.730386473868576
40
0.730386473868576
40
0.784309179094861
40
0.784309179094861
40
0.89215458954743
40
0.89215458954743
40
1
40
1
40
1
40
1
41
1
10
15.9988287469944
20
-2.55674755190117
30
0
41
1
10
15.4574675485602
20
-2.64865547654685
30
0
41
1
10
14.9189390825525
20
-2.69058169346979
30
0
41
1
10
14.162129134033
20
-2.67589892865175
30
0
41
1
10
13.9479753021186
20
-2.66366666140658
30
0
41
1
10
13.5172615697063
20
-2.6227599056368
30
0
41
1
10
13.3030564285869
20
-2.59432905321768
30
0
41
1
10
12.6625742710614
20
-2.48632475473241
30
0
41
1
10
12.2385754327322
20
-2.38390423692613
30
0
41
1
10
11.3887693640843
20
-2.12508778980831
30
0
41
1
10
10.9632532237066
20
-1.96840666827953
30
0
41
1
10
10.3181272547822
20
-1.69805527265382
30
0
41
1
10
10.1029969327333
20
-1.60231986633846
30
0
41
1
10
9.67552165616439
20
-1.40305025544589
30
0
41
1
10
9.4625662994639
20
-1.29927919271793
30
0
41
1
10
8.82470415843565
20
-0.977838130663855
30
0
41
1
10
8.40076334491479
20
-0.750101838862577
30
0
41
1
10
7.76149290701886
20
-0.397379121200032
30
0
41
1
10
7.54784125894156
20
-0.277953641226759
30
0
41
1
10
7.11843086612055
20
-0.0370978708342022
30
0
41
1
10
6.90263100865906
20
0.0843581790128667
30
0
41
1
10
6.26000455775227
20
0.444236852508169
30
0
41
1
10
5.83500561899103
20
0.680140617537489
30
0
41
1
10
4.98377071839377
20
1.12992362915551
30
0
41
1
10
4.55754670482034
20
1.34386721215691
30
0
41
1
10
4.12750459846606
20
1.54129278868149
30
0
0
SPLINE
5
BD
100
AcDbEntity
8
1
62
256
6
ByLayer
370
18
48
1
60
0
100
AcDbSpline
70
4
71
3
72
8
73
4
40
0
40
0
40
0
40
0
40
1
40
1
40
1
40
1
41
1
10
45.1045707482651
20
-2.55630469392452
30
0
41
1
10
45.0903827380949
20
-2.56340217824322
30
0
41
1
10
45.0774173983775
20
-2.56698077871951
30
0
41
1
10
45.0656970277122
20
-2.56697631929026
30
0
0
SPLINE
5
BE
100
AcDbEntity
8
1
62
256
6
ByLayer
370
18
48
1
60
0
100
AcDbSpline
70
4
71
3
72
22
73
18
40
0
40
0
40
0
40
0
40
0.10833639538728
40
0.10833639538728
40
0.216672790774559
40
0.216672790774559
40
0.433345581549119
40
0.433345581549119
40
0.541681976936399
40
0.541681976936399
40
0.650018372323678
40
0.650018372323678
40
0.866691163098238
40
0.866691163098238
40
0.975027558485517
40
0.975027558485517
40
1
40
1
40
1
40
1
41
1
10
4.02930951389357
20
1.65745404247511
30
0
41
1
10
4.02933114134529
20
1.72631640489055
30
0
41
1
10
4.02935144363809
20
1.79236091883846
30
0
41
1
10
4.02938985007722
20
1.91880680469114
30
0
41
1
10
4.02940797471581
20
1.97927951621889
30
0
41
1
10
4.02945887457088
20
2.14921079143034
30
0
41
1
10
4.02948854293885
20
2.24839006818925
30
0
41
1
10
4.02952959660382
20
2.37615979855045
30
0
41
1
10
4.02954274558124
20
2.41535423645868
30
0
41
1
10
4.02956809109543
20
2.48582646279075
30
0
41
1
10
4.02958018813547
20
2.51684059218951
30
0
41
1
10
4.02961541453473
20
2.59760686853272
30
0
41
1
10
4.02963751592517
20
2.63519830497955
30
0
41
1
10
4.02967043065195
20
2.66661879168527
30
0
41
1
10
4.02968134395249
20
2.67283209128593
30
0
41
1
10
4.02969453334413
20
2.67514320521715
30
0
41
1
10
4.02969699700759
20
2.67534960486023
30
0
41
1
10
4.02969945417158
20
2.67533026101054
30
0
0
SPLINE
5
BF
100
AcDbEntity
8
1
62
256
6
ByLayer
370
18
48
1
60
0
100
AcDbSpline
70
4
71
3
72
72
73
68
40
0
40
0
40
0
40
0
40
0.0208965631316976
40
0.0208965631316976
40
0.0519881110406397
40
0.0519881110406397
40
0.0830796589495819
40
0.0830796589495819
40
0.114171206858524
40
0.114171206858524
40
0.145262754767466
40
0.145262754767466
40
0.176354302676408
40
0.176354302676408
40
0.20744585058535
40
0.20744585058535
40
0.238537398494293
40
0.238537398494293
40
0.269628946403235
40
0.269628946403235
40
0.300720494312177
40
0.300720494312177
40
0.331812042221119
40
0.331812042221119
40
0.362903590130061
40
0.362903590130061
40
0.393995138039003
40
0.393995138039003
40
0.425086685947945
40
0.425086685947945
40
0.456178233856887
40
0.456178233856887
40
0.48726978176583
40
0.48726978176583
40
0.518361329674772
40
0.518361329674772
40
0.549452877583714
40
0.549452877583714
40
0.580544425492656
40
0.580544425492656
40
0.611635973401598
40
0.611635973401598
40
0.64272752131054
40
0.64272752131054
40
0.673819069219483
40
0.673819069219483
40
0.704910617128425
40
0.704910617128425
40
0.736002165037367
40
0.736002165037367
40
0.767093712946309
40
0.767093712946309
40
0.798185260855251
40
0.798185260855251
40
0.829276808764193
40
0.829276808764193
40
0.860368356673135
40
0.860368356673135
40
0.891459904582077
40
0.891459904582077
40
0.92255145249102
40
0.92255145249102
40
0.953643000399962
40
0.953643000399962
40
0.984734548308904
40
0.984734548308904
40
1
40
1
40
1
40
1
41
1
10
40.3866145262739
20
-1.95092332722993
30
0
41
1
10
40.2589249438518
20
-1.99558673943886
30
0
41
1
10
40.1310524971326
20
-2.03807749480183
30
0
41
1
10
39.8132560350853
20
-2.13806844542424
30
0
41
1
10
39.6235637404952
20
-2.19300156030616
30
0
41
1
10
39.2447938574521
20
-2.29212377324418
30
0
41
1
10
39.0553237881438
20
-2.33561231463452
30
0
41
1
10
38.6755109023467
20
-2.41093675389982
30
0
41
1
10
38.4849847011601
20
-2.44323299609888
30
0
41
1
10
38.1053282429895
20
-2.49724777119883
30
0
41
1
10
37.915790752133
20
-2.51866759530719
30
0
41
1
10
37.5363571474688
20
-2.54951884586822
30
0
41
1
10
37.3465565170139
20
-2.55904023731648
30
0
41
1
10
36.9668522649623
20
-2.56555734047578
30
0
41
1
10
36.7766935134541
20
-2.56228078795604
30
0
41
1
10
36.396895450176
20
-2.54162705188051
30
0
41
1
10
36.2070815848571
20
-2.52516221901959
30
0
41
1
10
35.8276876964741
20
-2.48278866153689
30
0
41
1
10
35.6383311431465
20
-2.45591738234225
30
0
41
1
10
35.2583627154391
20
-2.38924886693817
30
0
41
1
10
35.0677412694259
20
-2.34948075468171
30
0
41
1
10
34.6876746413399
20
-2.26132014350043
30
0
41
1
10
34.4982351064733
20
-2.21172953385991
30
0
41
1
10
34.1189258837235
20
-2.1017274711092
30
0
41
1
10
33.9290076432375
20
-2.04072787110306
30
0
41
1
10
33.5485308092559
20
-1.91019080245431
30
0
41
1
10
33.3582426187375
20
-1.84055610049464
30
0
41
1
10
32.9786761183019
20
-1.69278770779249
30
0
41
1
10
32.7889260525218
20
-1.6146150037051
30
0
41
1
10
32.4092151955107
20
-1.45090124368869
30
0
41
1
10
32.219382939211
20
-1.36579446636227
30
0
41
1
10
31.8393265639703
20
-1.18851919629975
30
0
41
1
10
31.6490097374155
20
-1.09694743514788
30
0
41
1
10
31.2691967272696
20
-0.909157503036738
30
0
41
1
10
31.0794315037398
20
-0.81318543302288
30
0
41
1
10
30.7002572265353
20
-0.617019328087849
30
0
41
1
10
30.5104916987338
20
-0.517342634500807
30
0
41
1
10
30.1297569417272
20
-0.315822996964698
30
0
41
1
10
29.9394328223338
20
-0.214359977936851
30
0
41
1
10
29.5598801016499
20
-0.0102820146449858
30
0
41
1
10
29.3703629204721
20
0.0921180649936275
30
0
41
1
10
28.9905578770583
20
0.295207516535271
30
0
41
1
10
28.800282444027
20
0.396048423237659
30
0
41
1
10
28.4195593158455
20
0.596640741316861
30
0
41
1
10
28.2298483268069
20
0.69611387603598
30
0
41
1
10
27.8501171988804
20
0.889824800421565
30
0
41
1
10
27.660227199256
20
0.984198949101625
30
0
41
1
10
27.2803067168313
20
1.16875754284547
30
0
41
1
10
27.090299184293
20
1.25963092605966
30
0
41
1
10
26.7098040196205
20
1.43346813132342
30
0
41
1
10
26.5198089096118
20
1.51641013287289
30
0
41
1
10
26.1400971881192
20
1.67469672757801
30
0
41
1
10
25.9506010973949
20
1.75099470269683
30
0
41
1
10
25.5709033991622
20
1.89440836202039
30
0
41
1
10
25.3803289578804
20
1.9614281406638
30
0
41
1
10
24.9997724820153
20
2.08504134281529
30
0
41
1
10
24.8099907983479
20
2.14246657452762
30
0
41
1
10
24.4305881117125
20
2.24764968233984
30
0
41
1
10
24.2407355499499
20
2.29458885733064
30
0
41
1
10
23.8604462199067
20
2.37644667189898
30
0
41
1
10
23.6698347703341
20
2.41166462960752
30
0
41
1
10
23.2897577277737
20
2.4722395188422
30
0
41
1
10
23.0998538660949
20
2.49700168817384
30
0
41
1
10
22.7199518509853
20
2.53268382014804
30
0
41
1
10
22.5299371742054
20
2.54346624666695
30
0
41
1
10
22.2466364239381
20
2.55261719784016
30
0
41
1
10
22.153218469088
20
2.55429554847078
30
0
41
1
10
22.0597835612152
20
2.55448215838459
30
0
0
SPLINE
5
C0
100
AcDbEntity
8
1
62
256
6
ByLayer
370
18
48
1
60
0
100
AcDbSpline
70
4
71
3
72
22
73
18
40
0
40
0
40
0
40
0
40
0.0213887792848571
40
0.0213887792848571
40
0.161190382244163
40
0.161190382244163
40
0.300991985203469
40
0.300991985203469
40
0.440793588162775
40
0.440793588162775
40
0.580595191122082
40
0.580595191122082
40
0.720396794081388
40
0.720396794081388
40
0.860198397040694
40
0.860198397040694
40
1
40
1
40
1
40
1
41
1
10
10.4488515662315
20
-1.9421116191528
30
0
41
1
10
10.4197126723982
20
-1.95218388940123
30
0
41
1
10
10.3905831195112
20
-1.9621386771687
30
0
41
1
10
10.1711614033235
20
-2.0362422204318
30
0
41
1
10
9.98151370741709
20
-2.09546522607823
30
0
41
1
10
9.60166035970374
20
-2.20448912636351
30
0
41
1
10
9.411565027905
20
-2.25391280630578
30
0
41
1
10
9.03088579191044
20
-2.34114410376051
30
0
41
1
10
8.84030080539216
20
-2.37934990334099
30
0
41
1
10
8.46051674694067
20
-2.44456757327265
30
0
41
1
10
8.27090472145753
20
-2.47151864169709
30
0
41
1
10
7.89220601663283
20
-2.51304204223811
30
0
41
1
10
7.70323457313924
20
-2.52761487021803
30
0
41
1
10
7.32528546773017
20
-2.54523286120892
30
0
41
1
10
7.13605374153218
20
-2.54839884423239
30
0
41
1
10
6.75674506130394
20
-2.54202704026329
30
0
41
1
10
6.56660399731902
20
-2.53202867197072
30
0
41
1
10
6.37608021812289
20
-2.51641982961323
30
0
0
SPLINE
5
C1
100
AcDbEntity
8
1
62
256
6
ByLayer
370
18
48
1
60
0
100
AcDbSpline
70
4
71
3
72
17
73
13
40
0
40
0
40
0
40
0
40
0.113563538711955
40
0.261302948926629
40
0.261302948926629
40
0.409042359141303
40
0.409042359141303
40
0.704521179570651
40
0.704521179570651
40
0.852260589785326
40
0.852260589785326
40
1
40
1
40
1
40
1
41
1
10
4.02969948029926
20
-2.67533004681246
30
0
41
1
10
4.02970767403468
20
-2.67526020461247
30
0
41
1
10
4.02972636108407
20
-2.66932350305274
30
0
41
1
10
4.02974477866064
20
-2.65025217717664
30
0
41
1
10
4.02976542358823
20
-2.62017705767946
30
0
41
1
10
4.02977570705596
20
-2.60075609858748
30
0
41
1
10
4.02980571504747
20
-2.53016041189002
30
0
41
1
10
4.02982451181506
20
-2.46730941782892
30
0
41
1
10
4.0298494944318
20
-2.35000551815031
30
0
41
1
10
4.0298572741593
20
-2.30703884295053
30
0
41
1
10
4.02987133382712
20
-2.21314614800625
30
0
41
1
10
4.02987756839073
20
-2.16240570726512
30
0
41
1
10
4.02988270792437
20
-2.10878116820123
30
0
0
SPLINE
5
C2
100
AcDbEntity
8
1
62
256
6
ByLayer
370
18
48
1
60
0
100
AcDbSpline
70
4
71
3
72
8
73
4
40
0
40
0
40
0
40
0
40
1
40
1
40
1
40
1
41
1
10
4.12803757268162
20
1.5323898712789
30
0
41
1
10
4.15115043365438
20
1.5144423526076
30
0
41
1
10
4.17604550808278
20
1.4995436486511
30
0
41
1
10
4.2017593637166
20
1.48777814585799
30
0
0
SPLINE
5
C3
100
AcDbEntity
8
1
62
256
6
ByLayer
370
18
48
1
60
0
100
AcDbSpline
70
4
71
3
72
14
73
10
40
0
40
0
40
0
40
0
40
0.279591322883232
40
0.279591322883232
40
0.49286023399531
40
0.49286023399531
40
0.706129145107387
40
0.706129145107387
40
1
40
1
40
1
40
1
41
1
10
44.6638734693765
20
-2.56683355799504
30
0
41
1
10
44.3846866168545
20
-2.56650156774737
30
0
41
1
10
44.1059624767887
20
-2.5528794408865
30
0
41
1
10
43.6140857387668
20
-2.50591130226957
30
0
41
1
10
43.4010487268533
20
-2.47799753567819
30
0
41
1
10
42.9736475543136
20
-2.40724534521905
30
0
41
1
10
42.7590129725977
20
-2.36429839895217
30
0
41
1
10
42.2522772116578
20
-2.2463094039008
30
0
41
1
10
41.9602608140202
20
-2.16510371370029
30
0
41
1
10
41.668771703945
20
-2.07244775135013
30
0
0
SPLINE
5
C4
100
AcDbEntity
8
1
62
256
6
ByLayer
370
13
48
1
60
0
100
AcDbSpline
70
4
71
3
72
20
73
16
40
0
40
0
40
0
40
0
40
0.20884523774216
40
0.20884523774216
40
0.288494360508687
40
0.288494360508687
40
0.368143483275213
40
0.368143483275213
40
0.527441728808262
40
0.527441728808262
40
0.68673997434131
40
0.68673997434131
40
0.846038219874359
40
0.846038219874359
40
1
40
1
40
1
40
1
41
1
10
41.6687726569693
20
-2.072448054289
30
0
41
1
10
41.1140997530675
20
-1.89613361962185
30
0
41
1
10
40.5613361648419
20
-1.67835767674694
30
0
41
1
10
39.7899937872975
20
-1.33343217494036
30
0
41
1
10
39.5754742907654
20
-1.23321558317954
30
0
41
1
10
39.1480206291247
20
-1.02667493981366
30
0
41
1
10
38.9352717559944
20
-0.920503325404155
30
0
41
1
10
38.2989883295317
20
-0.595172928357727
30
0
41
1
10
37.8769834212255
20
-0.369955647174123
30
0
41
1
10
37.0305088295423
20
0.0842950683343417
30
0
41
1
10
36.6061668167624
20
0.313576501301213
30
0
41
1
10
35.7489609100421
20
0.764545212797799
30
0
41
1
10
35.3244402425797
20
0.980846350733572
30
0
41
1
10
34.4919149814241
20
1.37764488783452
30
0
41
1
10
34.0834943940993
20
1.5587603562528
30
0
41
1
10
33.6733250025819
20
1.72198990501127
30
0
0
SPLINE
5
C5
100
AcDbEntity
8
1
62
256
6
ByLayer
370
18
48
1
60
0
100
AcDbSpline
70
4
71
3
72
16
73
12
40
0
40
0
40
0
40
0
40
0.0844548704094265
40
0.0844548704094265
40
0.504622221805648
40
0.504622221805648
40
0.714705897503756
40
0.714705897503756
40
0.924789573201863
40
0.924789573201863
40
1
40
1
40
1
40
1
41
1
10
14.7263759900258
20
-2.54874545892318
30
0
41
1
10
14.6411729941919
20
-2.54855717012302
30
0
41
1
10
14.5560134877703
20
-2.54714306737736
30
0
41
1
10
14.0472706009519
20
-2.53137927280605
30
0
41
1
10
13.6242186297978
20
-2.48814865095625
30
0
41
1
10
12.9852225476903
20
-2.37900074486322
30
0
41
1
10
12.771151767183
20
-2.33514941615755
30
0
41
1
10
12.3423488578077
20
-2.23343083277499
30
0
41
1
10
12.1289956952513
20
-2.17588450760036
30
0
41
1
10
11.8400988894646
20
-2.08941462770804
30
0
41
1
10
11.7640201741099
20
-2.06583219608532
30
0
41
1
10
11.6880037625836
20
-2.04148926256883
30
0
0
SPLINE
5
C6
100
AcDbEntity
8
1
62
256
6
ByLayer
370
13
48
1
60
0
100
AcDbSpline
70
4
71
3
72
20
73
16
40
0
40
0
40
0
40
0
40
0.312832714276712
40
0.312832714276712
40
0.398728624992124
40
0.398728624992124
40
0.484624535707536
40
0.484624535707536
40
0.656416357138358
40
0.656416357138358
40
0.742312267853768
40
0.742312267853768
40
0.828208178569179
40
0.828208178569179
40
1
40
1
40
1
40
1
41
1
10
11.688003762473
20
-2.04148926253342
30
0
41
1
10
10.9146801116714
20
-1.79384581500923
30
0
41
1
10
10.1478044246705
20
-1.46749631034174
30
0
41
1
10
9.15286150075968
20
-0.986619515069293
30
0
41
1
10
8.93855684575254
20
-0.879759762471451
30
0
41
1
10
8.51238654395058
20
-0.662673008624211
30
0
41
1
10
8.30003199343312
20
-0.55220030076012
30
0
41
1
10
7.66390498082802
20
-0.21737601322036
30
0
41
1
10
7.24102961231384
20
0.0103056568560476
30
0
41
1
10
6.6035757813317
20
0.349082128819134
30
0
41
1
10
6.39057872091098
20
0.461573134087189
30
0
41
1
10
5.96282580315443
20
0.684269002855416
30
0
41
1
10
5.74786461490041
20
0.794421108241863
30
0
41
1
10
5.10572387609434
20
1.11503338582611
30
0
41
1
10
4.67897024097317
20
1.31680150297106
30
0
41
1
10
4.25042866109476
20
1.50107815134362
30
0
0
SPLINE
5
C7
100
AcDbEntity
8
1
62
256
6
ByLayer
370
18
48
1
60
0
100
AcDbSpline
70
4
71
3
72
22
73
18
40
0
40
0
40
0
40
0
40
0.0391134912622992
40
0.0391134912622992
40
0.121458648241386
40
0.121458648241386
40
0.203803805220473
40
0.203803805220473
40
0.533184433136817
40
0.533184433136817
40
0.615529590115902
40
0.615529590115902
40
0.697874747094988
40
0.697874747094988
40
0.862565061053162
40
0.862565061053162
40
1
40
1
40
1
40
1
41
1
10
17.9585220300057
20
1.9938910931605
30
0
41
1
10
18.0592059538844
20
1.95706144890545
30
0
41
1
10
18.1599463353735
20
1.91887090410719
30
0
41
1
10
18.4730951421713
20
1.79621485194229
30
0
41
1
10
18.685887793633
20
1.70731610994028
30
0
41
1
10
19.1133557013499
20
1.51893078209466
30
0
41
1
10
19.328618601617
20
1.41896176514808
30
0
41
1
10
20.3977934623117
20
0.90250573529346
30
0
41
1
10
21.238327388211
20
0.433779830123086
30
0
41
1
10
22.3049952469584
20
-0.16017551503603
30
0
41
1
10
22.5197533223773
20
-0.279657708844184
30
0
41
1
10
22.9486695364779
20
-0.515805725352521
30
0
41
1
10
23.1625565013618
20
-0.632295116920375
30
0
41
1
10
23.8036097069832
20
-0.97504959999074
30
0
41
1
10
24.230940937161
20
-1.19426787026495
30
0
41
1
10
25.0185459777036
20
-1.5676164242002
30
0
41
1
10
25.375512703545
20
-1.72479624905759
30
0
41
1
10
25.7331349993056
20
-1.86660242801292
30
0
0
SPLINE
5
C8
100
AcDbEntity
8
1
62
256
6
ByLayer
370
13
48
1
60
0
100
AcDbSpline
70
4
71
3
72
20
73
16
40
0
40
0
40
0
40
0
40
0.0421860921515339
40
0.0421860921515339
40
0.169640042112821
40
0.169640042112821
40
0.297093992074109
40
0.297093992074109
40
0.552001891996685
40
0.552001891996685
40
0.679455841957969
40
0.679455841957969
40
0.806909791919253
40
0.806909791919253
40
1
40
1
40
1
40
1
41
1
10
25.7331340696955
20
-1.86660205939927
30
0
41
1
10
25.8040561540947
20
-1.89472444391734
30
0
41
1
10
25.87500402139
20
-1.92224219714535
30
0
41
1
10
26.1604671466962
20
-2.03038079689907
30
0
41
1
10
26.3752187703891
20
-2.10573782758951
30
0
41
1
10
26.8018879199049
20
-2.24231999296816
30
0
41
1
10
27.0143333042865
20
-2.30383543460184
30
0
41
1
10
27.6505372907485
20
-2.46712516185886
30
0
41
1
10
28.0731824223923
20
-2.5474293404159
30
0
41
1
10
28.7097589553974
20
-2.62196599521795
30
0
41
1
10
28.9224811104439
20
-2.6391683045598
30
0
41
1
10
29.349810822392
20
-2.65757104943222
30
0
41
1
10
29.5649911331956
20
-2.65875565584472
30
0
41
1
10
30.1024290307468
20
-2.64161248034446
30
0
41
1
10
30.4240359269545
20
-2.61296828565713
30
0
41
1
10
30.74500988175
20
-2.56691377207068
30
0
0
SPLINE
5
C9
100
AcDbEntity
8
1
62
256
6
ByLayer
370
18
48
1
60
0
100
AcDbSpline
70
4
71
3
72
72
73
68
40
0
40
0
40
0
40
0
40
0.021771091615866
40
0.021771091615866
40
0.0529169502647862
40
0.0529169502647862
40
0.0840628089137064
40
0.0840628089137064
40
0.115208667562627
40
0.115208667562627
40
0.146354526211547
40
0.146354526211547
40
0.177500384860467
40
0.177500384860467
40
0.208646243509387
40
0.208646243509387
40
0.239792102158307
40
0.239792102158307
40
0.270937960807227
40
0.270937960807227
40
0.302083819456148
40
0.302083819456148
40
0.333229678105068
40
0.333229678105068
40
0.364375536753988
40
0.364375536753988
40
0.395521395402908
40
0.395521395402908
40
0.426667254051828
40
0.426667254051828
40
0.457813112700749
40
0.457813112700749
40
0.488958971349669
40
0.488958971349669
40
0.520104829998589
40
0.520104829998589
40
0.551250688647509
40
0.551250688647509
40
0.582396547296429
40
0.582396547296429
40
0.61354240594535
40
0.61354240594535
40
0.64468826459427
40
0.64468826459427
40
0.67583412324319
40
0.67583412324319
40
0.70697998189211
40
0.70697998189211
40
0.73812584054103
40
0.73812584054103
40
0.769271699189951
40
0.769271699189951
40
0.800417557838871
40
0.800417557838871
40
0.831563416487791
40
0.831563416487791
40
0.862709275136711
40
0.862709275136711
40
0.893855133785631
40
0.893855133785631
40
0.925000992434552
40
0.925000992434552
40
0.956146851083472
40
0.956146851083472
40
0.987292709732392
40
0.987292709732392
40
1
40
1
40
1
40
1
41
1
10
7.11817331076469
20
2.54638078532315
30
0
41
1
10
7.25091404299644
20
2.54596935655891
30
0
41
1
10
7.38359042360244
20
2.54254347661035
30
0
41
1
10
7.70603500140257
20
2.52744305562993
30
0
41
1
10
7.89615333517892
20
2.512719855493
30
0
41
1
10
8.27724980312161
20
2.47070926251101
30
0
41
1
10
8.4673867694292
20
2.44351891380538
30
0
41
1
10
8.84699895632906
20
2.37806382352883
30
0
41
1
10
9.03658220566737
20
2.33994353626133
30
0
41
1
10
9.41662084955925
20
2.25264653178979
30
0
41
1
10
9.60706599158925
20
2.20304053793873
30
0
41
1
10
9.98780229538593
20
2.09355417789555
30
0
41
1
10
10.1775443922749
20
2.03419081485271
30
0
41
1
10
10.5574176228174
20
1.90568736725839
30
0
41
1
10
10.7473669970379
20
1.8364805875747
30
0
41
1
10
11.1273586299295
20
1.68957294247801
30
0
41
1
10
11.3174467108099
20
1.6117783588615
30
0
41
1
10
11.6980353175947
20
1.44958733302747
30
0
41
1
10
11.8880700549129
20
1.36467549219213
30
0
41
1
10
12.2677914356648
20
1.18879236555585
30
0
41
1
10
12.4573192461457
20
1.09756497495749
30
0
41
1
10
12.8370023157923
20
0.911013576852184
30
0
41
1
10
13.0276388221979
20
0.815194127134191
30
0
41
1
10
13.4081980567697
20
0.619946816281441
30
0
41
1
10
13.597980057714
20
0.520509477178308
30
0
41
1
10
13.977343951191
20
0.319701254289896
30
0
41
1
10
14.1672368001183
20
0.218812517522139
30
0
41
1
10
14.5475376390783
20
0.0158844619394927
30
0
41
1
10
14.7381279207279
20
-0.0862577157471947
30
0
41
1
10
15.1181336456205
20
-0.289949392688783
30
0
41
1
10
15.3080296501873
20
-0.391008157968429
30
0
41
1
10
15.6879023911829
20
-0.590081920197349
30
0
41
1
10
15.8778491129645
20
-0.68834815041447
30
0
41
1
10
16.2578467208705
20
-0.88256505430104
30
0
41
1
10
16.4483220987854
20
-0.978365435446307
30
0
41
1
10
16.8285030010046
20
-1.16301789363629
30
0
41
1
10
17.0183470505117
20
-1.25208583506037
30
0
41
1
10
17.3977296125662
20
-1.42526268712317
30
0
41
1
10
17.5873113541477
20
-1.50926088193691
30
0
41
1
10
17.9676340826445
20
-1.66935363456744
30
0
41
1
10
18.1582380454224
20
-1.74475826851531
30
0
41
1
10
18.5380580071657
20
-1.88718820511866
30
0
41
1
10
18.7275124278634
20
-1.9544552674609
30
0
41
1
10
19.1071282740424
20
-2.08031012284934
30
0
41
1
10
19.2970842175351
20
-2.13817786901728
30
0
41
1
10
19.6776178953608
20
-2.24211554727324
30
0
41
1
10
19.867723213339
20
-2.28906632604026
30
0
41
1
10
20.2476330073487
20
-2.37276997247136
30
0
41
1
10
20.4375530543938
20
-2.40966068361652
30
0
41
1
10
20.8173828506346
20
-2.46952815148541
30
0
41
1
10
21.0071886872157
20
-2.49343534296611
30
0
41
1
10
21.3877329327135
20
-2.53060873409848
30
0
41
1
10
21.5780785438136
20
-2.54375130213421
30
0
41
1
10
21.9579604631837
20
-2.55632334822346
30
0
41
1
10
22.1475964992395
20
-2.55576518789937
30
0
41
1
10
22.5270381101597
20
-2.5436103087485
30
0
41
1
10
22.7171950890309
20
-2.53288614294405
30
0
41
1
10
23.0980599621444
20
-2.49722611252355
30
0
41
1
10
23.2879534867583
20
-2.47248460994783
30
0
41
1
10
23.667216802069
20
-2.41212383729206
30
0
41
1
10
23.8569074515815
20
-2.37713007751466
30
0
41
1
10
24.2367736650305
20
-2.29551844646571
30
0
41
1
10
24.4271214304643
20
-2.24855139853335
30
0
41
1
10
24.8073591579748
20
-2.14325457289769
30
0
41
1
10
24.9971508570833
20
-2.08584084140688
30
0
41
1
10
25.2645215975965
20
-1.99906561125528
30
0
41
1
10
25.3419862373869
20
-1.97308014700744
30
0
41
1
10
25.419447263008
20
-1.94625983454642
30
0
0
SPLINE
5
CA
100
AcDbEntity
8
1
62
256
6
ByLayer
370
18
48
1
60
0
100
AcDbSpline
70
4
71
3
72
26
73
22
40
0
40
0
40
0
40
0
40
0.0105862313233833
40
0.0105862313233833
40
0.109527608191045
40
0.109527608191045
40
0.208468985058707
40
0.208468985058707
40
0.307410361926368
40
0.307410361926368
40
0.40635173879403
40
0.40635173879403
40
0.604234492529353
40
0.604234492529353
40
0.703175869397015
40
0.703175869397015
40
0.802117246264677
40
0.802117246264677
40
0.901058623132338
40
0.901058623132338
40
1
40
1
40
1
40
1
41
1
10
37.090243203426
20
2.56317323643924
30
0
41
1
10
37.1105371714663
20
2.56298807254825
30
0
41
1
10
37.1308351681162
20
2.56272761482555
30
0
41
1
10
37.3408961491895
20
2.55926036870014
30
0
41
1
10
37.5313315442735
20
2.54983351200136
30
0
41
1
10
37.9119536631848
20
2.51907138055537
30
0
41
1
10
38.1017126049282
20
2.49769006589665
30
0
41
1
10
38.4810786890931
20
2.44385941205997
30
0
41
1
10
38.6709854970653
20
2.41174626487234
30
0
41
1
10
39.0509943029651
20
2.33655687750851
30
0
41
1
10
39.2413723167841
20
2.29296170521226
30
0
41
1
10
39.8112034313969
20
2.14401082504054
30
0
41
1
10
40.1906947714364
20
2.02429783649811
30
0
41
1
10
40.7600940812654
20
1.81554900932741
30
0
41
1
10
40.950521308299
20
1.74136317499108
30
0
41
1
10
41.3308216589841
20
1.58627040818783
30
0
41
1
10
41.5206914998104
20
1.50508250114439
30
0
41
1
10
41.8999498713054
20
1.33494186553437
30
0
41
1
10
42.0894952704559
20
1.24620268220733
30
0
41
1
10
42.4696896564993
20
1.06411260573856
30
0
41
1
10
42.6602697971727
20
0.970342295587642
30
0
41
1
10
42.8501387137304
20
0.874071125578666
30
0
0
SPLINE
5
CB
100
AcDbEntity
8
1
62
256
6
ByLayer
370
18
48
1
60
0
100
AcDbSpline
70
4
71
3
72
12
73
8
40
0
40
0
40
0
40
0
40
0.250000000000002
40
0.250000000000002
40
0.500000000000004
40
0.500000000000004
40
1
40
1
40
1
40
1
41
1
10
4.25143618841878
20
-2.05400621499513
30
0
41
1
10
4.42429845890052
20
-2.11924011563013
30
0
41
1
10
4.59849654101262
20
-2.17706090176512
30
0
41
1
10
4.94939494554751
20
-2.27907786915992
30
0
41
1
10
5.12637956418828
20
-2.32334737221291
30
0
41
1
10
5.65919823142809
20
-2.43710398261257
30
0
41
1
10
6.01577938620886
20
-2.4870873095941
30
0
41
1
10
6.37608369208277
20
-2.51641931425047
30
0
0
SPLINE
5
CC
100
AcDbEntity
8
1
62
256
6
ByLayer
370
18
48
1
60
0
100
AcDbSpline
70
4
71
3
72
20
73
16
40
0
40
0
40
0
40
0
40
0.124999999999997
40
0.124999999999997
40
0.249999999999993
40
0.249999999999993
40
0.37499999999999
40
0.37499999999999
40
0.499999999999987
40
0.499999999999987
40
0.749999999999989
40
0.749999999999989
40
0.874999999999994
40
0.874999999999994
40
1
40
1
40
1
40
1
41
1
10
42.8501387137399
20
0.874071125573522
30
0
41
1
10
42.8819424488947
20
0.757765592448266
30
0
41
1
10
42.9233654811976
20
0.642158469477607
30
0
41
1
10
43.0227270977621
20
0.412143337048406
30
0
41
1
10
43.0812328793589
20
0.296986606495153
30
0
41
1
10
43.2082570536556
20
0.0758969294621181
30
0
41
1
10
43.2771291856325
20
-0.0310581325130102
30
0
41
1
10
43.4237393993964
20
-0.239030474287404
30
0
41
1
10
43.5018382696403
20
-0.340448141566043
30
0
41
1
10
43.7454653959596
20
-0.634026702422062
30
0
41
1
10
43.9174290636681
20
-0.812840927201364
30
0
41
1
10
44.1859023969015
20
-1.06241792951533
30
0
41
1
10
44.2771886521555
20
-1.14243114087375
30
0
41
1
10
44.4630551765143
20
-1.29662400743481
30
0
41
1
10
44.5577452622591
20
-1.37087546196506
30
0
41
1
10
44.6532048206431
20
-1.44173382427789
30
0
0
SPLINE
5
CD
100
AcDbEntity
8
1
62
256
6
ByLayer
370
18
48
1
60
0
100
AcDbSpline
70
4
71
3
72
20
73
16
40
0
40
0
40
0
40
0
40
0.263122712857598
40
0.263122712857598
40
0.394684069286397
40
0.394684069286397
40
0.526245425715196
40
0.526245425715196
40
0.657806782143994
40
0.657806782143994
40
0.789368138572793
40
0.789368138572793
40
0.920929495001592
40
0.920929495001592
40
1
40
1
40
1
40
1
41
1
10
9.84024921901033
20
-1.70663482559883
30
0
41
1
10
10.2082704657699
20
-1.86818272016615
30
0
41
1
10
10.5757725746768
20
-2.00924618097977
30
0
41
1
10
11.1224296020454
20
-2.1964655263036
30
0
41
1
10
11.3043515646834
20
-2.25411342378018
30
0
41
1
10
11.6693234324538
20
-2.3584029390619
30
0
41
1
10
11.8520453381271
20
-2.40541194212628
30
0
41
1
10
12.2174505701533
20
-2.48941075958194
30
0
41
1
10
12.3998865251094
20
-2.52647297168844
30
0
41
1
10
12.7674249871483
20
-2.58850347590149
30
0
41
1
10
12.9524795375786
20
-2.61382984460579
30
0
41
1
10
13.3210862307413
20
-2.65279089428114
30
0
41
1
10
13.504481103236
20
-2.66651624598205
30
0
41
1
10
13.7987208579887
20
-2.67869181818497
30
0
41
1
10
13.9093705372378
20
-2.68108612193817
30
0
41
1
10
14.0201342207388
20
-2.68132225343743
30
0
0
SPLINE
5
CE
100
AcDbEntity
8
1
62
256
6
ByLayer
370
18
48
1
60
0
100
AcDbSpline
70
4
71
3
72
72
73
68
40
0
40
0
40
0
40
0
40
0.0226821484997309
40
0.0226821484997309
40
0.0524104498799944
40
0.0524104498799944
40
0.0821387512602579
40
0.0821387512602579
40
0.111867052640521
40
0.111867052640521
40
0.141595354020785
40
0.141595354020785
40
0.171323655401048
40
0.171323655401048
40
0.201051956781312
40
0.201051956781312
40
0.230780258161575
40
0.230780258161575
40
0.260508559541839
40
0.260508559541839
40
0.290236860922102
40
0.290236860922102
40
0.319965162302365
40
0.319965162302365
40
0.349693463682629
40
0.349693463682629
40
0.379421765062892
40
0.379421765062892
40
0.409150066443156
40
0.409150066443156
40
0.438878367823419
40
0.438878367823419
40
0.468606669203683
40
0.468606669203683
40
0.498334970583946
40
0.498334970583946
40
0.52806327196421
40
0.52806327196421
40
0.557791573344473
40
0.557791573344473
40
0.587519874724737
40
0.587519874724737
40
0.617248176105
40
0.617248176105
40
0.646976477485264
40
0.646976477485264
40
0.676704778865527
40
0.676704778865527
40
0.706433080245791
40
0.706433080245791
40
0.736161381626054
40
0.736161381626054
40
0.765889683006318
40
0.765889683006318
40
0.795617984386581
40
0.795617984386581
40
0.825346285766844
40
0.825346285766844
40
0.855074587147108
40
0.855074587147108
40
0.884802888527371
40
0.884802888527371
40
0.944259491287898
40
0.944259491287898
40
0.973987792668162
40
0.973987792668162
40
1
40
1
40
1
40
1
41
1
10
25.4151601537142
20
1.96068476371869
30
0
41
1
10
25.5555140582234
20
2.01480562916834
30
0
41
1
10
25.6956312728875
20
2.06655616408872
30
0
41
1
10
26.0191175349289
20
2.18020528051122
30
0
41
1
10
26.2032107104804
20
2.23939317704878
30
0
41
1
10
26.5723266493351
20
2.34770368051093
30
0
41
1
10
26.7565959888873
20
2.39667232307264
30
0
41
1
10
27.1236764378576
20
2.48444245842734
30
0
41
1
10
27.3071543601312
20
2.5227316579732
30
0
41
1
10
27.6753449424825
20
2.58750081290606
30
0
41
1
10
27.8600247289381
20
2.61422709644438
30
0
41
1
10
28.2281869871484
20
2.65614983238584
30
0
41
1
10
28.4113993658458
20
2.67126381780253
30
0
41
1
10
28.7791673999713
20
2.68918781637737
30
0
41
1
10
28.9632855352879
20
2.69218666128131
30
0
41
1
10
29.33148093738
20
2.6862281173606
30
0
41
1
10
29.5153273332094
20
2.67709708006188
30
0
41
1
10
29.8831185877853
20
2.64702746763834
30
0
41
1
10
30.0672056122463
20
2.62619990754425
30
0
41
1
10
30.4351284895702
20
2.57292559770025
30
0
41
1
10
30.6187196376897
20
2.54030391703083
30
0
41
1
10
30.9864258565257
20
2.46341783740178
30
0
41
1
10
31.1709331793029
20
2.41970211560872
30
0
41
1
10
31.5390841559011
20
2.3219402491419
30
0
41
1
10
31.7229152881034
20
2.26780543620015
30
0
41
1
10
32.0898213723355
20
2.14847519522661
30
0
41
1
10
32.2738100603785
20
2.08401777518046
30
0
41
1
10
32.6426894731487
20
1.94665673526791
30
0
41
1
10
32.8268630119871
20
1.87378707468636
30
0
41
1
10
33.194054639296
20
1.71878883053114
30
0
41
1
10
33.377238487611
20
1.63681054163402
30
0
41
1
10
33.7453064435254
20
1.46751504570051
30
0
41
1
10
33.9300374054184
20
1.37951447466003
30
0
41
1
10
34.2981414017263
20
1.19704232303957
30
0
41
1
10
34.4812020527552
20
1.10194131843355
30
0
41
1
10
34.8486599576618
20
0.909368710122379
30
0
41
1
10
35.0327460834321
20
0.811433795067643
30
0
41
1
10
35.4010884552452
20
0.611359726821348
30
0
41
1
10
35.5850406039349
20
0.508576948835696
30
0
41
1
10
35.9522965569815
20
0.302253501471682
30
0
41
1
10
36.1362841674199
20
0.199306118779333
30
0
41
1
10
36.5041781659425
20
-0.0075533210171841
30
0
41
1
10
36.6879973322024
20
-0.111622539769485
30
0
41
1
10
37.0556439253356
20
-0.320601852610423
30
0
41
1
10
37.239725932417
20
-0.423688720638893
30
0
41
1
10
37.6076806456141
20
-0.626811405759383
30
0
41
1
10
37.7915913882911
20
-0.727045896603357
30
0
41
1
10
38.1586262552811
20
-0.92590729765476
30
0
41
1
10
38.3424722736503
20
-1.02379276503527
30
0
41
1
10
38.7109952884697
20
-1.21282207185837
30
0
41
1
10
38.895083970547
20
-1.30442100034679
30
0
41
1
10
39.2623798759745
20
-1.48259883511093
30
0
41
1
10
39.4453681981375
20
-1.56944153421111
30
0
41
1
10
39.8132775028708
20
-1.73388223669428
30
0
41
1
10
39.9979908210876
20
-1.81222910534149
30
0
41
1
10
40.3660139214795
20
-1.96084636782595
30
0
41
1
10
40.5491010097158
20
-2.03164485037345
30
0
41
1
10
40.916177445704
20
-2.16284969553416
30
0
41
1
10
41.1002369997599
20
-2.22326853341616
30
0
41
1
10
41.468695122743
20
-2.33456673807982
30
0
41
1
10
41.6527382969588
20
-2.38551388058716
30
0
41
1
10
42.2029762142533
20
-2.52197753598654
30
0
41
1
10
42.5714492989247
20
-2.58969828063653
30
0
41
1
10
43.1229412307471
20
-2.65788263353269
30
0
41
1
10
43.3065352886897
20
-2.6745140736513
30
0
41
1
10
43.6512584536511
20
-2.69440621000675
30
0
41
1
10
43.8121493145111
20
-2.6991503443214
30
0
41
1
10
43.9728662873159
20
-2.6992974097881
30
0
0
SPLINE
5
CF
100
AcDbEntity
8
1
62
256
6
ByLayer
370
18
48
1
60
0
100
AcDbSpline
70
4
71
3
72
18
73
14
40
0
40
0
40
0
40
0
40
0.25
40
0.25
40
0.5
40
0.5
40
0.625
40
0.625
40
0.75
40
0.75
40
0.875
40
0.875
40
1
40
1
40
1
40
1
41
1
10
44.9529793420311
20
0.830422283167536
30
0
41
1
10
45.028750283163
20
0.848242637715913
30
0
41
1
10
45.1037490693749
20
0.868420215053618
30
0
41
1
10
45.2511142547998
20
0.917090260765349
30
0
41
1
10
45.3231972042715
20
0.945267009165889
30
0
41
1
10
45.4251178369279
20
0.999410512627094
30
0
41
1
10
45.4583118514148
20
1.01967340473584
30
0
41
1
10
45.5200876359801
20
1.06619800744122
30
0
41
1
10
45.5488614261337
20
1.09264061893421
30
0
41
1
10
45.5967667372977
20
1.15321692167626
30
0
41
1
10
45.6156816538897
20
1.18731199956267
30
0
41
1
10
45.6380538082133
20
1.26231288202615
30
0
41
1
10
45.6409598089153
20
1.30180496043005
30
0
41
1
10
45.63690942331
20
1.34093079447689
30
0
0
SPLINE
5
D0
100
AcDbEntity
8
1
62
256
6
ByLayer
370
13
48
1
60
0
100
AcDbSpline
70
4
71
3
72
16
73
12
40
0
40
0
40
0
40
0
40
0.0721497693806174
40
0.0721497693806174
40
0.226791474483848
40
0.226791474483848
40
0.381433179587078
40
0.381433179587078
40
0.690716589793539
40
0.690716589793539
40
1
40
1
40
1
40
1
41
1
10
4.25113947610902
20
-2.54351819272409
30
0
41
1
10
4.25114844195508
20
-2.54364196024218
30
0
41
1
10
4.25115735534465
20
-2.54288778797775
30
0
41
1
10
4.25118523492415
20
-2.53776986692662
30
0
41
1
10
4.2512040220966
20
-2.53023662370541
30
0
41
1
10
4.25124106222782
20
-2.50680449713369
30
0
41
1
10
4.25125921214701
20
-2.49092049562577
30
0
41
1
10
4.2513113202055
20
-2.43179464792007
30
0
41
1
10
4.25134328062109
20
-2.37710495738133
30
0
41
1
10
4.2513982663335
20
-2.23756532513571
30
0
41
1
10
4.25142130367129
20
-2.15171917387985
30
0
41
1
10
4.25143618807667
20
-2.05400621499359
30
0
0
SPLINE
5
D1
100
AcDbEntity
8
1
62
256
6
ByLayer
370
13
48
1
60
0
100
AcDbSpline
70
4
71
3
72
10
73
6
40
0
40
0
40
0
40
0
40
0.5
40
0.5
40
1
40
1
40
1
40
1
41
1
10
4.02930951389237
20
1.65745404247235
30
0
41
1
10
4.04004883787115
20
1.63610732106611
30
0
41
1
10
4.05385935708608
20
1.61583149541789
30
0
41
1
10
4.08709906151807
20
1.57968796863685
30
0
41
1
10
4.10615677989111
20
1.56405394286696
30
0
41
1
10
4.12803757268165
20
1.55120789761384
30
0
0
SPLINE
5
D2
100
AcDbEntity
8
1
62
256
6
ByLayer
370
18
48
1
60
0
100
AcDbSpline
70
4
71
3
72
10
73
6
40
0
40
0
40
0
40
0
40
0.5
40
0.5
40
1
40
1
40
1
40
1
41
1
10
4.09054028793509
20
1.56196446260893
30
0
41
1
10
4.07262864115498
20
1.57400224284134
30
0
41
1
10
4.05748302118965
20
1.58854520841467
30
0
41
1
10
4.03587654693138
20
1.62103498723448
30
0
41
1
10
4.02930376059018
20
1.63913537365013
30
0
41
1
10
4.02930951389351
20
1.65745404247105
30
0
0
SPLINE
5
D3
100
AcDbEntity
8
1
62
256
6
ByLayer
370
13
48
1
60
0
100
AcDbSpline
70
4
71
3
72
10
73
6
40
0
40
0
40
0
40
0
40
0.5
40
0.5
40
1
40
1
40
1
40
1
41
1
10
4.12803757268165
20
1.55120789761384
30
0
41
1
10
4.1469108620131
20
1.54012753452335
30
0
41
1
10
4.16711343710594
20
1.53023041579468
30
0
41
1
10
4.20814888693798
20
1.51350210226516
30
0
41
1
10
4.22908441912429
20
1.50657761617703
30
0
41
1
10
4.25042866109479
20
1.50107815134359
30
0
0
SPLINE
5
D4
100
AcDbEntity
8
1
62
256
6
ByLayer
370
18
48
1
60
0
100
AcDbSpline
70
4
71
3
72
20
73
16
40
0
40
0
40
0
40
0
40
0.0861330510612169
40
0.0861330510612169
40
0.216685472338183
40
0.216685472338183
40
0.47779031489212
40
0.47779031489212
40
0.60834273616909
40
0.60834273616909
40
0.73889515744606
40
0.73889515744606
40
0.86944757872303
40
0.86944757872303
40
1
40
1
40
1
40
1
41
1
10
45.027231697324
20
-2.56496844286809
30
0
41
1
10
45.0028012002743
20
-2.56237430183427
30
0
41
1
10
44.9792132517042
20
-2.5572521839303
30
0
41
1
10
44.9220621982449
20
-2.53779767477908
30
0
41
1
10
44.8894336769477
20
-2.51991210878501
30
0
41
1
10
44.7995739058109
20
-2.44777549304735
30
0
41
1
10
44.7508140261954
20
-2.37624121837518
30
0
41
1
10
44.6953314490369
20
-2.2318037345899
30
0
41
1
10
44.679728863633
20
-2.17684385126034
30
0
41
1
10
44.6556610665789
20
-2.05669775120839
30
0
41
1
10
44.6470956763416
20
-1.99153929766746
30
0
41
1
10
44.6368333262205
20
-1.85115214224058
30
0
41
1
10
44.6351356465083
20
-1.77592449574161
30
0
41
1
10
44.6388621875045
20
-1.6150273256001
30
0
41
1
10
44.6443276016919
20
-1.52979438952494
30
0
41
1
10
44.6532048206447
20
-1.4417338242792
30
0
0
SPLINE
5
D5
100
AcDbEntity
8
1
62
256
6
ByLayer
370
18
48
1
60
0
100
AcDbSpline
70
4
71
3
72
12
73
8
40
0
40
0
40
0
40
0
40
0.250000000000005
40
0.250000000000005
40
0.500000000000009
40
0.500000000000009
40
1
40
1
40
1
40
1
41
1
10
45.0903546066943
20
-2.64262398438308
30
0
41
1
10
45.0953154940742
20
-2.62943292919022
30
0
41
1
10
45.0998986275608
20
-2.61591231863227
30
0
41
1
10
45.1069095198162
20
-2.59173381309156
30
0
41
1
10
45.1093030647492
20
-2.58111977127859
30
0
41
1
10
45.1124345629382
20
-2.55808956699187
30
0
41
1
10
45.1096171306376
20
-2.55378026524477
30
0
41
1
10
45.1045707482626
20
-2.55630469392577
30
0
0
SPLINE
5
D6
100
AcDbEntity
8
1
62
256
6
ByLayer
370
18
48
1
60
0
100
AcDbSpline
70
4
71
3
72
12
73
8
40
0
40
0
40
0
40
0
40
0.250000000000015
40
0.250000000000015
40
0.50000000000003
40
0.50000000000003
40
1
40
1
40
1
40
1
41
1
10
4.0298827079244
20
-2.10878116820123
30
0
41
1
10
4.04114999845248
20
-2.09121339036946
30
0
41
1
10
4.05574630460208
20
-2.07607079727555
30
0
41
1
10
4.08906201283068
20
-2.0533007353533
30
0
41
1
10
4.10811668545682
20
-2.04540113465941
30
0
41
1
10
4.16759612379721
20
-2.03276987709211
30
0
41
1
10
4.21064871815349
20
-2.03861404309166
30
0
41
1
10
4.25143618807675
20
-2.05400621486601
30
0
0
SPLINE
5
D7
100
AcDbEntity
8
1
62
256
6
ByLayer
370
18
48
1
60
0
100
AcDbSpline
70
4
71
3
72
8
73
4
40
0
40
0
40
0
40
0
40
1
40
1
40
1
40
1
41
1
10
4.12750459846765
20
1.54129278868075
30
0
41
1
10
4.11432723770426
20
1.54734230803558
30
0
41
1
10
4.10201783906098
20
1.55425080904328
30
0
41
1
10
4.09054028793648
20
1.5619644626083
30
0
0
SPLINE
5
D8
100
AcDbEntity
8
1
62
256
6
ByLayer
370
18
48
1
60
0
100
AcDbSpline
70
4
71
3
72
16
73
12
40
0
40
0
40
0
40
0
40
0.250000000000002
40
0.250000000000002
40
0.500000000000004
40
0.500000000000004
40
0.625000000000024
40
0.625000000000024
40
0.750000000000044
40
0.750000000000044
40
1
40
1
40
1
40
1
41
1
10
44.8014693066016
20
0.531662042718864
30
0
41
1
10
44.7955855483007
20
0.560590951974064
30
0
41
1
10
44.7932907312231
20
0.590242857661138
30
0
41
1
10
44.796788211714
20
0.651318902189558
30
0
41
1
10
44.8025819125445
20
0.682222689216388
30
0
41
1
10
44.8196424091959
20
0.726716974737712
30
0
41
1
10
44.826548455015
20
0.74147935955807
30
0
41
1
10
44.8443273021948
20
0.767811324317478
30
0
41
1
10
44.8551879483803
20
0.779709421554315
30
0
41
1
10
44.8921588674742
20
0.810187843606116
30
0
41
1
10
44.9219844765285
20
0.82313268792052
30
0
41
1
10
44.9529793420305
20
0.830422283168645
30
0
0
SPLINE
5
D9
100
AcDbEntity
8
1
62
256
6
ByLayer
370
18
48
1
60
0
100
AcDbSpline
70
4
71
3
72
8
73
4
40
0
40
0
40
0
40
0
40
1
40
1
40
1
40
1
41
1
10
45.0771496002668
20
2.67769481630694
30
0
41
1
10
44.8723867181322
20
2.6925019091905
30
0
41
1
10
44.6678003459975
20
2.69980212449175
30
0
41
1
10
44.4630535800976
20
2.6996096530884
30
0
0
SPLINE
5
DA
100
AcDbEntity
8
1
62
256
6
ByLayer
370
18
48
1
60
0
100
AcDbSpline
70
4
71
3
72
34
73
30
40
0
40
0
40
0
40
0
40
0.0350927003489151
40
0.0350927003489151
40
0.0740835819025758
40
0.0740835819025758
40
0.230047108117214
40
0.230047108117214
40
0.386010634331853
40
0.386010634331853
40
0.425001515885513
40
0.425001515885513
40
0.463992397439173
40
0.463992397439173
40
0.541974160546494
40
0.541974160546494
40
0.619955923653815
40
0.619955923653815
40
0.658946805207475
40
0.658946805207475
40
0.697937686761135
40
0.697937686761135
40
0.775919449868455
40
0.775919449868455
40
0.814910331422115
40
0.814910331422115
40
0.853901212975775
40
0.853901212975775
40
1
40
1
40
1
40
1
41
1
10
30.943693908012
20
-2.56880379540738
30
0
41
1
10
30.7513576880294
20
-2.60115506289006
30
0
41
1
10
30.5580090873023
20
-2.62732944966194
30
0
41
1
10
30.1496718307181
20
-2.66870775430559
30
0
41
1
10
29.9358777741627
20
-2.68229562803128
30
0
41
1
10
28.8703190710447
20
-2.70981843389652
30
0
41
1
10
28.0282694245688
20
-2.60228549853562
30
0
41
1
10
26.3067057675393
20
-2.14423401862644
30
0
41
1
10
25.4640204116171
20
-1.80432985080964
30
0
41
1
10
24.3985628113146
20
-1.28954882051579
30
0
41
1
10
24.1848050517703
20
-1.18215374741482
30
0
41
1
10
23.7550079944907
20
-0.959821282766285
30
0
41
1
10
23.5399304390549
20
-0.845198054955091
30
0
41
1
10
22.8989859610754
20
-0.497077002580852
30
0
41
1
10
22.4748378568555
20
-0.258106843464788
30
0
41
1
10
21.6257846311567
20
0.220862260752853
30
0
41
1
10
21.2006852669641
20
0.460508400500004
30
0
41
1
10
20.5571230108302
20
0.811083076067433
30
0
41
1
10
20.3414809939315
20
0.92632844574959
30
0
41
1
10
19.9134752366736
20
1.14859624157177
30
0
41
1
10
19.7003619570803
20
1.2561441866518
30
0
41
1
10
19.062476744997
20
1.56624971340008
30
0
41
1
10
18.6386773975084
20
1.75552984897303
30
0
41
1
10
18.0002725163974
20
2.00629889145901
30
0
41
1
10
17.786969520955
20
2.08429132291948
30
0
41
1
10
17.3584327863576
20
2.22778223569836
30
0
41
1
10
17.1426049280864
20
2.29344746508829
30
0
41
1
10
16.1251763878689
20
2.56879371998221
30
0
41
1
10
15.3356135447429
20
2.68204318067717
30
0
41
1
10
14.5352699430745
20
2.68163060695159
30
0
0
SPLINE
5
DB
100
AcDbEntity
8
1
62
256
6
ByLayer
370
18
48
1
60
0
100
AcDbSpline
70
4
71
3
72
56
73
52
40
0
40
0
40
0
40
0
40
0.0624999999999916
40
0.0624999999999916
40
0.124999999999983
40
0.124999999999983
40
0.249999999999968
40
0.249999999999968
40
0.374999999999953
40
0.374999999999953
40
0.437499999999945
40
0.437499999999945
40
0.499999999999937
40
0.499999999999937
40
0.624999999999922
40
0.624999999999922
40
0.632812499999922
40
0.632812499999922
40
0.636718749999922
40
0.636718749999922
40
0.638671874999922
40
0.638671874999922
40
0.640624999999921
40
0.640624999999921
40
0.656249999999924
40
0.656249999999924
40
0.68749999999993
40
0.68749999999993
40
0.703124999999933
40
0.703124999999933
40
0.718749999999936
40
0.718749999999936
40
0.726562499999938
40
0.726562499999938
40
0.73437499999994
40
0.73437499999994
40
0.749999999999944
40
0.749999999999944
40
0.781249999999951
40
0.781249999999951
40
0.796874999999955
40
0.796874999999955
40
0.812499999999958
40
0.812499999999958
40
0.843749999999965
40
0.843749999999965
40
0.874999999999972
40
0.874999999999972
40
0.937499999999986
40
0.937499999999986
40
1
40
1
40
1
40
1
41
1
10
9.83951469349915
20
-1.7063196880039
30
0
41
1
10
9.62493360437941
20
-1.61287135764999
30
0
41
1
10
9.4089400926805
20
-1.51648589762644
30
0
41
1
10
8.97356102382506
20
-1.3199516679224
30
0
41
1
10
8.75409551568887
20
-1.21976816575463
30
0
41
1
10
8.09533918937555
20
-0.920114978649792
30
0
41
1
10
7.65366192098418
20
-0.720628688890628
30
0
41
1
10
6.75767805527136
20
-0.344579506815109
30
0
41
1
10
6.30328832324292
20
-0.168230148304957
30
0
41
1
10
5.60752457979402
20
0.0639047722076498
30
0
41
1
10
5.37326112661657
20
0.135928134137402
30
0
41
1
10
4.89956178008367
20
0.267424147934918
30
0
41
1
10
4.65997355039875
20
0.326905247292416
30
0
41
1
10
3.93793525196514
20
0.48351954425317
30
0
41
1
10
3.45022682974664
20
0.559254422525839
30
0
41
1
10
2.92895606780723
20
0.606557922162494
30
0
41
1
10
2.89827848748487
20
0.609219294794457
30
0
41
1
10
2.85224008063324
20
0.613028741632661
30
0
41
1
10
2.83683789576435
20
0.613837137230689
30
0
41
1
10
2.81323051547946
20
0.610900005822202
30
0
41
1
10
2.80511812973165
20
0.609258879417865
30
0
41
1
10
2.79004437770851
20
0.604340300537501
30
0
41
1
10
2.78320076839944
20
0.600715974521847
30
0
41
1
10
2.7209255063284
20
0.569229060680414
30
0
41
1
10
2.66653212277956
20
0.539535358195053
30
0
41
1
10
2.50690504131063
20
0.4441059389884
30
0
41
1
10
2.40470328922299
20
0.371804322803229
30
0
41
1
10
2.26870944928527
20
0.247057405796596
30
0
41
1
10
2.22609886690014
20
0.202625274737812
30
0
41
1
10
2.14825328500842
20
0.106001251569893
30
0
41
1
10
2.11275590098919
20
0.0531322882106906
30
0
41
1
10
2.06968035138314
20
-0.0300724778396386
30
0
41
1
10
2.05691892050965
20
-0.0585474472934493
30
0
41
1
10
2.03493116827533
20
-0.117134663502867
30
0
41
1
10
2.02565831572642
20
-0.147495946920913
30
0
41
1
10
2.00424526940603
20
-0.239022199456002
30
0
41
1
10
1.9983171031715
20
-0.300661905591369
30
0
41
1
10
2.00461999362218
20
-0.487300948502622
30
0
41
1
10
2.04166803835682
20
-0.608311825235262
30
0
41
1
10
2.12182893606402
20
-0.771104538677548
30
0
41
1
10
2.15261151074495
20
-0.822707523318911
30
0
41
1
10
2.22019281362626
20
-0.921900239265284
30
0
41
1
10
2.25718355452028
20
-0.969655610613017
30
0
41
1
10
2.37313664927822
20
-1.1057289669003
30
0
41
1
10
2.45738735765647
20
-1.18783135761834
30
0
41
1
10
2.63422837917537
20
-1.34120743592749
30
0
41
1
10
2.72712652978902
20
-1.41250594981995
30
0
41
1
10
3.01342768899005
20
-1.61331821556468
30
0
41
1
10
3.21150543418725
20
-1.72838863531601
30
0
41
1
10
3.61528170414007
20
-1.93530365122373
30
0
41
1
10
3.82115491542177
20
-2.02677732283357
30
0
41
1
10
4.02988270746758
20
-2.10878116802178
30
0
0
SPLINE
5
DC
100
AcDbEntity
8
1
62
256
6
ByLayer
370
18
48
1
60
0
100
AcDbSpline
70
4
71
3
72
8
73
4
40
0
40
0
40
0
40
0
40
1
40
1
40
1
40
1
41
1
10
45.0771496002678
20
-2.67769481628062
30
0
41
1
10
45.0815548517964
20
-2.66600882636195
30
0
41
1
10
45.0859565534577
20
-2.6543184573286
30
0
41
1
10
45.0903546067149
20
-2.64262398438143
30
0
0
SPLINE
5
DD
100
AcDbEntity
8
1
62
256
6
ByLayer
370
18
48
1
60
0
100
AcDbSpline
70
4
71
3
72
18
73
14
40
0
40
0
40
0
40
0
40
0.25
40
0.25
40
0.5
40
0.5
40
0.625
40
0.625
40
0.75
40
0.75
40
0.875
40
0.875
40
1
40
1
40
1
40
1
41
1
10
45.6369094233104
20
-1.340930794477
30
0
41
1
10
45.5968505575714
20
-1.44890993986351
30
0
41
1
10
45.5563836140724
20
-1.55666646320807
30
0
41
1
10
45.4754294230343
20
-1.77199976076881
30
0
41
1
10
45.4348408979976
20
-1.87950733935526
30
0
41
1
10
45.3733813858551
20
-2.03994540929853
30
0
41
1
10
45.3527604532997
20
-2.09324903936403
30
0
41
1
10
45.3114452526606
20
-2.19967240070793
30
0
41
1
10
45.290784916335
20
-2.25287196840793
30
0
41
1
10
45.2493581090234
20
-2.35880121955717
30
0
41
1
10
45.2285953688382
20
-2.41154742017957
30
0
41
1
10
45.1868369670444
20
-2.51600862098394
30
0
41
1
10
45.1658165130756
20
-2.56761385928777
30
0
41
1
10
45.1447816121965
20
-2.61915513756642
30
0
0
SPLINE
5
DE
100
AcDbEntity
8
1
62
256
6
ByLayer
370
18
48
1
60
0
100
AcDbSpline
70
4
71
3
72
58
73
54
40
0
40
0
40
0
40
0
40
0.101120624821368
40
0.101120624821368
40
0.157828019376356
40
0.157828019376356
40
0.18618171665385
40
0.18618171665385
40
0.189725928813537
40
0.19149803489338
40
0.192384087933302
40
0.192827114453263
40
0.192827114453263
40
0.193270140973224
40
0.193270140973224
40
0.195042247053067
40
0.195042247053067
40
0.196814353132911
40
0.196814353132911
40
0.200358565292598
40
0.200358565292598
40
0.214535413931346
40
0.214535413931346
40
0.271242808486338
40
0.271242808486338
40
0.32795020304133
40
0.32795020304133
40
0.441364992151315
40
0.441364992151315
40
0.554779781261299
40
0.554779781261299
40
0.583133478538795
40
0.583133478538795
40
0.597310327177543
40
0.597310327177543
40
0.60085453933723
40
0.60085453933723
40
0.604398751496917
40
0.604398751496917
40
0.604841778016878
40
0.604841778016878
40
0.605284804536839
40
0.605284804536839
40
0.606170857576761
40
0.607942963656604
40
0.611487175816291
40
0.66819457037128
40
0.66819457037128
40
0.781609359481259
40
0.781609359481259
40
0.895024148591238
40
0.895024148591238
40
1
40
1
40
1
40
1
41
1
10
7.26349877538121
20
-0.553697779728367
30
0
41
1
10
7.08801450167104
20
-0.51655806177169
30
0
41
1
10
6.91251630686006
20
-0.492626214580781
30
0
41
1
10
6.63529960693953
20
-0.477971229055044
30
0
41
1
10
6.53549754888644
20
-0.477281411516628
30
0
41
1
10
6.3858186773667
20
-0.483103580034822
30
0
41
1
10
6.33588643354418
20
-0.486185799725149
30
0
41
1
10
6.2797103466456
20
-0.490921840386079
30
0
41
1
10
6.27034730425004
20
-0.491737609659879
30
0
41
1
10
6.25942336844943
20
-0.492735486514789
30
0
41
1
10
6.25396126209563
20
-0.493245954156407
30
0
41
1
10
6.25162033690418
20
-0.493467194719727
30
0
41
1
10
6.25005971428868
20
-0.493615236974961
30
0
41
1
10
6.24923011821488
20
-0.493766235193931
30
0
41
1
10
6.25118571988753
20
-0.495565855769371
30
0
41
1
10
6.25434526600895
20
-0.496740377021382
30
0
41
1
10
6.25975359737708
20
-0.499168629028361
30
0
41
1
10
6.26252847009528
20
-0.50035514044427
30
0
41
1
10
6.27092494657867
20
-0.5038870248205
30
0
41
1
10
6.27662743326991
20
-0.506201891731791
30
0
41
1
10
6.30530155094993
20
-0.517708610191249
30
0
41
1
10
6.3287184839798
20
-0.526707688059844
30
0
41
1
10
6.44607955370421
20
-0.571642034749402
30
0
41
1
10
6.54131101701122
20
-0.607152412520691
30
0
41
1
10
6.73186770728847
20
-0.678522881007353
30
0
41
1
10
6.82741199233431
20
-0.714285737596043
30
0
41
1
10
7.11438064762743
20
-0.822012990346053
30
0
41
1
10
7.30573825964962
20
-0.895037668708994
30
0
41
1
10
7.68879319594808
20
-1.04310702348405
30
0
41
1
10
7.88023289281295
20
-1.11817265296167
30
0
41
1
10
8.11781590045359
20
-1.21598001852919
30
0
41
1
10
8.16525336883822
20
-1.23573521202152
30
0
41
1
10
8.23590453194964
20
-1.26629142703214
30
0
41
1
10
8.25940270990742
20
-1.27657478226223
30
0
41
1
10
8.28831679942175
20
-1.2901997666261
30
0
41
1
10
8.29407565315262
20
-1.29296745414624
30
0
41
1
10
8.30544883815529
20
-1.29871299851536
30
0
41
1
10
8.31122158609432
20
-1.30153118206107
30
0
41
1
10
8.31699129510855
20
-1.30558189389427
30
0
41
1
10
8.31761874446127
20
-1.30604741790657
30
0
41
1
10
8.31876987553449
20
-1.30709599978462
30
0
41
1
10
8.31974749100701
20
-1.30795010310916
30
0
41
1
10
8.31764385752584
20
-1.30968717209595
30
0
41
1
10
8.31343655253229
20
-1.31316181177945
30
0
41
1
10
8.30361922151405
20
-1.32127273311033
30
0
41
1
10
8.20543856684338
20
-1.40244665484565
30
0
41
1
10
8.11002065690616
20
-1.48192800735606
30
0
41
1
10
7.8404931309046
20
-1.70383880595961
30
0
41
1
10
7.65887287417075
20
-1.84988517214828
30
0
41
1
10
7.293760969875
20
-2.11068223457349
30
0
41
1
10
7.10896659404273
20
-2.22629147193877
30
0
41
1
10
6.73711440611211
20
-2.40683163479301
30
0
41
1
10
6.55796781252755
20
-2.47139078751448
30
0
41
1
10
6.37608021778397
20
-2.51641982969713
30
0
0
SPLINE
5
DF
100
AcDbEntity
8
1
62
256
6
ByLayer
370
18
48
1
60
0
100
AcDbSpline
70
4
71
3
72
8
73
4
40
0
40
0
40
0
40
0
40
1
40
1
40
1
40
1
41
1
10
4.09054028793784
20
1.56196446260947
30
0
41
1
10
4.10201994669612
20
1.55102824632857
30
0
41
1
10
4.11447484787618
20
1.54112301703623
30
0
41
1
10
4.12803757268162
20
1.5323898712789
30
0
0
SPLINE
5
E0
100
AcDbEntity
8
1
62
256
6
ByLayer
370
18
48
1
60
0
100
AcDbSpline
70
4
71
3
72
20
73
16
40
0
40
0
40
0
40
0
40
0.18800414706393
40
0.18800414706393
40
0.282006220595893
40
0.282006220595893
40
0.376008294127857
40
0.376008294127857
40
0.564012441191784
40
0.564012441191784
40
0.658014514723748
40
0.658014514723748
40
0.752016588255712
40
0.752016588255712
40
1
40
1
40
1
40
1
41
1
10
4.20175936371663
20
1.48777814585796
30
0
41
1
10
4.63100182033676
20
1.29137612065364
30
0
41
1
10
5.05830980006644
20
1.07785170859839
30
0
41
1
10
5.70130974830118
20
0.740407685282634
30
0
41
1
10
5.9165933673934
20
0.624746511302106
30
0
41
1
10
6.34481757325787
20
0.391516115838385
30
0
41
1
10
6.55797243902128
20
0.273964464673696
30
0
41
1
10
7.19587637221514
20
-0.0790731771821243
30
0
41
1
10
7.61893152958169
20
-0.31519991748371
30
0
41
1
10
8.25546941448044
20
-0.660890828343298
30
0
41
1
10
8.46798642632163
20
-0.774683810550329
30
0
41
1
10
8.89455879633252
20
-0.997816678243936
30
0
41
1
10
9.10915777240015
20
-1.10742518861503
30
0
41
1
10
9.88985571931252
20
-1.4927442493819
30
0
41
1
10
10.4483017196555
20
-1.74255369057164
30
0
41
1
10
11.007291001626
20
-1.95227631232473
30
0
0
SPLINE
5
E1
100
AcDbEntity
8
1
62
256
6
ByLayer
370
13
48
1
60
0
100
AcDbSpline
70
4
71
3
72
18
73
14
40
0
40
0
40
0
40
0
40
0.180580841130769
40
0.180580841130769
40
0.313172057577944
40
0.313172057577944
40
0.445763274025119
40
0.445763274025119
40
0.71094570691947
40
0.71094570691947
40
0.97612813981382
40
0.97612813981382
40
1
40
1
40
1
40
1
41
1
10
11.0072910722283
20
-1.95227633881345
30
0
41
1
10
11.29587703346
20
-2.06054854610559
30
0
41
1
10
11.5846077947488
20
-2.15813647874813
30
0
41
1
10
12.0875474402696
20
-2.30634567757628
30
0
41
1
10
12.3011418485262
20
-2.36259495730243
30
0
41
1
10
12.7305319772579
20
-2.46093556760448
30
0
41
1
10
12.9447792511452
20
-2.50264248237167
30
0
41
1
10
13.5843082220995
20
-2.60425697678022
30
0
41
1
10
14.0075020775855
20
-2.64104589348355
30
0
41
1
10
14.8552150633955
20
-2.65182482238024
30
0
41
1
10
15.2794296898169
20
-2.62570215084327
30
0
41
1
10
15.7464265886311
20
-2.56275091482195
30
0
41
1
10
15.7850237669442
20
-2.55729293195708
30
0
41
1
10
15.8236355160098
20
-2.55158048369924
30
0
0
SPLINE
5
E2
100
AcDbEntity
8
1
62
256
6
ByLayer
370
18
48
1
60
0
100
AcDbSpline
70
4
71
3
72
24
73
20
40
0
40
0
40
0
40
0
40
0.0498794065229649
40
0.0498794065229649
40
0.210263875975821
40
0.210263875975821
40
0.370648345428678
40
0.370648345428678
40
0.531032814881534
40
0.531032814881534
40
0.691417284334391
40
0.691417284334391
40
0.771609519060818
40
0.771609519060818
40
0.81170563642403
40
0.81170563642403
40
0.851801753787243
40
0.851801753787243
40
1
40
1
40
1
40
1
41
1
10
33.2105474183914
20
1.8920522725227
30
0
41
1
10
33.343241704213
20
1.84005055148529
30
0
41
1
10
33.4755714082374
20
1.78593803436974
30
0
41
1
10
34.0323648422829
20
1.54973198088791
30
0
41
1
10
34.4550732365367
20
1.35045479190322
30
0
41
1
10
35.3023720753439
20
0.923055201164402
30
0
41
1
10
35.7277069057882
20
0.695032828675522
30
0
41
1
10
36.5855939212914
20
0.222724452481145
30
0
41
1
10
37.0100851860978
20
-0.0160168676787293
30
0
41
1
10
37.8569680764767
20
-0.486472853260693
30
0
41
1
10
38.2791607395756
20
-0.718553705760343
30
0
41
1
10
38.9160067353073
20
-1.05212367207454
30
0
41
1
10
39.1290107872283
20
-1.16066890044996
30
0
41
1
10
39.4501242650105
20
-1.31855482525432
30
0
41
1
10
39.5575751159387
20
-1.37042260687411
30
0
41
1
10
39.7716214933517
20
-1.47160473092188
30
0
41
1
10
39.8783729468992
20
-1.52099953968258
30
0
41
1
10
40.3786825478263
20
-1.74702342738112
30
0
41
1
10
40.7695612613296
20
-1.90757496394156
30
0
41
1
10
41.1603462844121
20
-2.04749646048555
30
0
0
SPLINE
5
E3
100
AcDbEntity
8
1
62
256
6
ByLayer
370
13
48
1
60
0
100
AcDbSpline
70
4
71
3
72
14
73
10
40
0
40
0
40
0
40
0
40
0.349800992337438
40
0.349800992337438
40
0.512350744253079
40
0.512350744253079
40
0.674900496168719
40
0.674900496168719
40
1
40
1
40
1
40
1
41
1
10
41.1603462844165
20
-2.04749646048708
30
0
41
1
10
41.6153991872043
20
-2.21042922250143
30
0
41
1
10
42.0703250492139
20
-2.34538840602016
30
0
41
1
10
42.7429393680706
20
-2.49448506292285
30
0
41
1
10
42.9579497880626
20
-2.53465485860633
30
0
41
1
10
43.3856959499957
20
-2.59905943213013
30
0
41
1
10
43.5988787484598
20
-2.62342678127879
30
0
41
1
10
44.2378114645129
20
-2.67270754858811
30
0
41
1
10
44.6629897684337
20
-2.67386780039035
30
0
41
1
10
45.0903546067146
20
-2.64262398438157
30
0
0
SPLINE
5
E4
100
AcDbEntity
8
1
62
256
6
ByLayer
370
18
48
1
60
0
100
AcDbSpline
70
4
71
3
72
32
73
28
40
0
40
0
40
0
40
0
40
0.249999999999982
40
0.249999999999982
40
0.374999999999974
40
0.374999999999974
40
0.499999999999965
40
0.499999999999965
40
0.624999999999956
40
0.624999999999956
40
0.687499999999957
40
0.687499999999957
40
0.749999999999958
40
0.749999999999958
40
0.781249999999964
40
0.781249999999964
40
0.812499999999969
40
0.812499999999969
40
0.843749999999975
40
0.843749999999975
40
0.87499999999998
40
0.87499999999998
40
0.906249999999985
40
0.906249999999985
40
0.937499999999991
40
0.937499999999991
40
1
40
1
40
1
40
1
41
1
10
42.8501387137402
20
0.874071125573749
30
0
41
1
10
43.0341482581042
20
0.740121552279192
30
0
41
1
10
43.2200486739446
20
0.61748111602688
30
0
41
1
10
43.5032230683608
20
0.459380556047563
30
0
41
1
10
43.5983093381094
20
0.410835937029134
30
0
41
1
10
43.7901349931122
20
0.32363383834948
30
0
41
1
10
43.8868349189779
20
0.285015210837116
30
0
41
1
10
44.07786935206
20
0.220246528759844
30
0
41
1
10
44.1726882114132
20
0.19396063851039
30
0
41
1
10
44.313720642177
20
0.164974715319318
30
0
41
1
10
44.3605886211586
20
0.157028806307551
30
0
41
1
10
44.4536461899704
20
0.144900791305872
30
0
41
1
10
44.4999683197969
20
0.140616878975322
30
0
41
1
10
44.566121462479
20
0.143361850981876
30
0
41
1
10
44.587651161206
20
0.145645769696472
30
0
41
1
10
44.6293267803414
20
0.153847053347676
30
0
41
1
10
44.6495415023155
20
0.159927031878226
30
0
41
1
10
44.6872050085166
20
0.176076304039128
30
0
41
1
10
44.7047522471235
20
0.186170790955515
30
0
41
1
10
44.7368227883654
20
0.211114790621167
30
0
41
1
10
44.751514390716
20
0.22612770189474
30
0
41
1
10
44.7765304039223
20
0.260321902243874
30
0
41
1
10
44.7868987887988
20
0.279485155307214
30
0
41
1
10
44.8030670974817
20
0.322223253875933
30
0
41
1
10
44.8087305750436
20
0.345789185613
30
0
41
1
10
44.8177701211692
20
0.41990471332403
30
0
41
1
10
44.8128310981144
20
0.475799068946515
30
0
41
1
10
44.8014693066017
20
0.531662042718892
30
0
0
LINE
5
76
100
AcDbEntity
8
81
62
256
6
ByLayer
370
18
48
1
60
0
100
AcDbLine
10
46
20
0
30
0
11
51
21
0
31
0
39
0
210
0
220
0
230
1
0
LINE
5
77
100
AcDbEntity
8
1
62
256
6
ByLayer
370
18
48
1
60
0
100
AcDbLine
10
4.029693
20
2.675331
30
0
11
0.969094
21
2.673494
31
0
39
0
210
0
220
0
230
1
0
LINE
5
79
100
AcDbEntity
8
1
62
256
6
ByLayer
370
18
48
1
60
0
100
AcDbLine
10
14.535063
20
2.681634
30
0
11
14.035882
21
2.681334
31
0
39
0
210
0
220
0
230
1
0
LINE
5
7A
100
AcDbEntity
8
1
62
256
6
ByLayer
370
18
48
1
60
0
100
AcDbLine
10
29.499763
20
2.690613
30
0
11
29.006015
21
2.690316
31
0
39
0
210
0
220
0
230
1
0
LINE
5
7B
100
AcDbEntity
8
1
62
256
6
ByLayer
370
18
48
1
60
0
100
AcDbLine
10
44.465498
20
2.699592
30
0
11
43.974151
21
2.699297
31
0
39
0
210
0
220
0
230
1
0
LINE
5
7C
100
AcDbEntity
8
1
62
256
6
ByLayer
370
18
48
1
60
0
100
AcDbLine
10
43.974151
20
-2.699297
30
0
11
44.465378
21
-2.699592
31
0
39
0
210
0
220
0
230
1
0
LINE
5
7D
100
AcDbEntity
8
1
62
256
6
ByLayer
370
18
48
1
60
0
100
AcDbLine
10
29.006015
20
-2.690316
30
0
11
29.499988
21
-2.690613
31
0
39
0
210
0
220
0
230
1
0
LINE
5
7E
100
AcDbEntity
8
1
62
256
6
ByLayer
370
18
48
1
60
0
100
AcDbLine
10
14.035882
20
-2.681334
30
0
11
14.534984
21
-2.681634
31
0
39
0
210
0
220
0
230
1
0
LINE
5
7F
100
AcDbEntity
8
1
62
256
6
ByLayer
370
18
48
1
60
0
100
AcDbLine
10
0.969094
20
-2.673494
30
0
11
4.029693
21
-2.675331
31
0
39
0
210
0
220
0
230
1
0
LINE
5
80
100
AcDbEntity
8
SK1
62
256
6
ByLayer
370
18
48
1
60
0
100
AcDbLine
10
-35.278312
20
3
30
0
11
-36
21
1.75
31
0
39
0
210
0
220
0
230
1
0
LINE
5
82
100
AcDbEntity
8
SK1
62
256
6
ByLayer
370
18
48
1
60
0
100
AcDbLine
10
-36
20
-1.75
30
0
11
-35.278312
21
-3
31
0
39
0
210
0
220
0
230
1
0
LINE
5
83
100
AcDbEntity
8
SK1
62
256
6
ByLayer
370
18
48
1
60
0
100
AcDbLine
10
0
20
3
30
0
11
-35.278312
21
3
31
0
39
0
210
0
220
0
230
1
0
LINE
5
84
100
AcDbEntity
8
SK1
62
256
6
ByLayer
370
18
48
1
60
0
100
AcDbLine
10
-35.278312
20
-3
30
0
11
0
21
-3
31
0
39
0
210
0
220
0
230
1
0
LINE
5
85
100
AcDbEntity
8
SK4
62
256
6
ByLayer
370
18
48
0.05
60
0
100
AcDbLine
10
51
20
0
30
0
11
-41
21
0
31
0
39
0
210
0
220
0
230
1
0
LINE
5
87
100
AcDbEntity
8
4
62
256
6
ByLayer
370
18
48
0.05
60
0
100
AcDbLine
10
46
20
0
30
0
11
0
21
0
31
0
39
0
210
0
220
0
230
1
0
LINE
5
89
100
AcDbEntity
8
80
62
256
6
ByLayer
370
18
48
1
60
0
100
AcDbLine
10
0
20
0
30
0
11
-5
21
0
31
0
39
0
210
0
220
0
230
1
0
LINE
5
8A
100
AcDbEntity
8
1
62
256
6
ByLayer
370
18
48
1
60
0
100
AcDbLine
10
46
20
0
30
0
11
45.995585
21
-0.027388
31
0
39
0
210
0
220
0
230
1
0
LINE
5
8B
100
AcDbEntity
8
1
62
256
6
ByLayer
370
13
48
1
60
0
100
AcDbLine
10
45.414413
20
0.5747
30
0
11
45.932056
21
0.267566
31
0
39
0
210
0
220
0
230
1
0
LINE
5
8C
100
AcDbEntity
8
1
62
256
6
ByLayer
370
18
48
1
60
0
100
AcDbLine
10
45.932056
20
-0.267566
30
0
11
45.866203
21
-0.5747
31
0
39
0
210
0
220
0
230
1
0
LINE
5
8D
100
AcDbEntity
8
1
62
256
6
ByLayer
370
18
48
1
60
0
100
AcDbLine
10
44.653205
20
-1.441734
30
0
11
45.8953
21
-0.158633
31
0
39
0
210
0
220
0
230
1
0
LINE
5
8E
100
AcDbEntity
8
1
62
256
6
ByLayer
370
13
48
1
60
0
100
AcDbLine
10
45.866203
20
0.5747
30
0
11
45.414413
21
0.5747
31
0
39
0
210
0
220
0
230
1
0
LINE
5
8F
100
AcDbEntity
8
1
62
256
6
ByLayer
370
18
48
1
60
0
100
AcDbLine
10
45.995585
20
0.027388
30
0
11
46
21
0
31
0
39
0
210
0
220
0
230
1
0
LINE
5
90
100
AcDbEntity
8
1
62
256
6
ByLayer
370
13
48
1
60
0
100
AcDbLine
10
0.484307
20
2.836747
30
0
11
0.484307
21
-2.836747
31
0
39
0
210
0
220
0
230
1
0
LINE
5
91
100
AcDbEntity
8
1
62
256
6
ByLayer
370
13
48
1
60
0
100
AcDbLine
10
0.969094
20
2.673494
30
0
11
0.969094
21
-2.673494
31
0
39
0
210
0
220
0
230
1
0
LINE
5
92
100
AcDbEntity
8
1
62
256
6
ByLayer
370
13
48
1
60
0
100
AcDbLine
10
45.224506
20
0.239371
30
0
11
45.8953
21
-0.158633
31
0
39
0
210
0
220
0
230
1
0
LINE
5
93
100
AcDbEntity
8
1
62
256
6
ByLayer
370
18
48
1
60
0
100
AcDbLine
10
46
20
0
30
0
11
45.065697
21
-2.566976
31
0
39
0
210
0
220
0
230
1
0
LINE
5
94
100
AcDbEntity
8
1
62
256
6
ByLayer
370
18
48
1
60
0
100
AcDbLine
10
0
20
-3
30
0
11
0
21
3
31
0
39
0
210
0
220
0
230
1
0
LINE
5
95
100
AcDbEntity
8
1
62
256
6
ByLayer
370
18
48
1
60
0
100
AcDbLine
10
45.932056
20
0.267566
30
0
11
45.866203
21
0.5747
31
0
39
0
210
0
220
0
230
1
0
LINE
5
96
100
AcDbEntity
8
SK1
62
256
6
ByLayer
370
18
48
1
60
0
100
AcDbLine
10
0
20
-3
30
0
11
0
21
3
31
0
39
0
210
0
220
0
230
1
0
LINE
5
97
100
AcDbEntity
8
SK1
62
256
6
ByLayer
370
18
48
1
60
0
100
AcDbLine
10
-36
20
1.75
30
0
11
-36
21
-1.75
31
0
39
0
210
0
220
0
230
1
0
LINE
5
98
100
AcDbEntity
8
SK1
62
256
6
ByLayer
370
18
48
1
60
0
100
AcDbLine
10
-35.278312
20
3
30
0
11
-35.278312
21
-3
31
0
39
0
210
0
220
0
230
1
0
MTEXT
5
E5
100
AcDbEntity
8
SK6
62
256
6
ByLayer
370
13
48
1
60
0
100
AcDbMText
10
7.129169
20
35.082694
30
0
210
0
220
0
230
1
1
\W0.7725;R840-0540-50-A0A1220
40
3.5
41
0
44
1.084337
50
0
71
8
72
5
7
iso_b_vert
0
DIMENSION
5
F2
100
AcDbEntity
8
SK2
62
256
6
ByLayer
370
13
48
1
60
0
100
AcDbDimension
2
DimnDraft3D1
10
45.09
20
-12.913398
30
0
11
21.340059
21
-12.913398
31
0
70
32
71
5
72
1
41
1
210
0
220
0
230
1
3
Standard
100
AcDbAlignedDimension
13
0
23
-1.5875
33
0
14
45.09
24
-4.2875
34
0
50
0
100
AcDbRotatedDimension
1001
ACAD
1000
DSTYLE
1002
{
1070
   279
1070
     0
1070
   172
1070
     1
1070
   173
1070
     1
1070
   340
1005
E6
1070
   271
1070
     2
1070
   272
1070
     2
1070
    77
1070
     1
1070
    73
1070
     0
1070
   171
1070
     3
1070
   274
1070
     4
1070
   177
1070
    35
1070
   176
1070
    35
1070
   178
1070
    35
1070
    48
1040
-0.005
1070
    41
1041
3.5
1070
   147
1041
1.75
1070
    42
1041
1.5875
1070
    44
1041
2.0
1070
   140
1041
3.5
1070
   343
1005
0
1070
   344
1005
0
1002
}
0
DIMENSION
5
FC
100
AcDbEntity
8
SK2
62
256
6
ByLayer
370
13
48
1
60
0
100
AcDbDimension
2
DimnDraft3D2
10
46
20
-31.692985
30
0
11
5.4313
21
-31.692985
31
0
70
32
71
5
72
1
41
1
210
0
220
0
230
1
3
Standard
100
AcDbAlignedDimension
13
-36
23
-4.5875
33
0
14
46
24
-1.5875
34
0
50
0
100
AcDbRotatedDimension
1001
ACAD
1000
DSTYLE
1002
{
1070
   279
1070
     0
1070
   172
1070
     1
1070
   173
1070
     1
1070
   340
1005
E6
1070
   271
1070
     2
1070
   272
1070
     2
1070
    77
1070
     1
1070
    73
1070
     0
1070
   171
1070
     3
1070
   274
1070
     4
1070
   177
1070
    35
1070
   176
1070
    35
1070
   178
1070
    35
1070
    48
1040
-0.005
1070
    41
1041
3.5
1070
   147
1041
1.75
1070
    42
1041
1.5875
1070
    44
1041
2.0
1070
   140
1041
3.5
1070
   343
1005
0
1070
   344
1005
0
1002
}
0
DIMENSION
5
106
100
AcDbEntity
8
SK2
62
256
6
ByLayer
370
13
48
1
60
0
100
AcDbDimension
2
DimnDraft3D3
10
46
20
14.309119
30
0
11
32.045
21
14.309119
31
0
70
32
71
5
72
1
41
1
210
0
220
0
230
1
3
Standard
100
AcDbAlignedDimension
13
18.09
23
4.2875
33
0
14
46
24
1.5875
34
0
50
0
100
AcDbRotatedDimension
1001
ACAD
1000
DSTYLE
1002
{
1070
   279
1070
     0
1070
   172
1070
     1
1070
   173
1070
     1
1070
   340
1005
E6
1070
   271
1070
     2
1070
   272
1070
     2
1070
    77
1070
     1
1070
    73
1070
     0
1070
   171
1070
     3
1070
   274
1070
     4
1070
   177
1070
    35
1070
   176
1070
    35
1070
   178
1070
    35
1070
    48
1040
-0.005
1070
    41
1041
3.5
1070
   147
1041
1.75
1070
    42
1041
1.5875
1070
    44
1041
2.0
1070
   140
1041
3.5
1070
   343
1005
0
1070
   344
1005
0
1002
}
0
DIMENSION
5
110
100
AcDbEntity
8
SK2
62
256
6
ByLayer
370
13
48
1
60
0
100
AcDbDimension
2
DimnDraft3D4
10
45.09
20
-15.502503
30
0
11
55.981425
21
-15.502503
31
0
70
32
71
5
72
1
41
1
210
0
220
0
230
1
3
Standard
100
AcDbAlignedDimension
13
46
23
-1.5875
33
0
14
45.09
24
-4.2875
34
0
50
0
100
AcDbRotatedDimension
1001
ACAD
1000
DSTYLE
1002
{
1070
   279
1070
     0
1070
   172
1070
     1
1070
   173
1070
     1
1070
   340
1005
E6
1070
   271
1070
     2
1070
   272
1070
     2
1070
    77
1070
     1
1070
    73
1070
     0
1070
   171
1070
     3
1070
   274
1070
     4
1070
   177
1070
    35
1070
   176
1070
    35
1070
   178
1070
    35
1070
    48
1040
-0.005
1070
    41
1041
3.5
1070
   147
1041
1.75
1070
    42
1041
1.5875
1070
    44
1041
2.0
1070
   140
1041
3.5
1070
   343
1005
0
1070
   344
1005
0
1002
}
0
DIMENSION
5
11A
100
AcDbEntity
8
SK2
62
256
6
ByLayer
370
13
48
1
60
0
100
AcDbDimension
2
DimnDraft3D5
10
45.09
20
-21.343428
30
0
11
2.350676
21
-21.343428
31
0
70
32
71
5
72
1
41
1
210
0
220
0
230
1
3
Standard
100
AcDbAlignedDimension
13
-36
23
-4.5875
33
0
14
45.09
24
-4.2875
34
0
50
0
100
AcDbRotatedDimension
1001
ACAD
1000
DSTYLE
1002
{
1070
   279
1070
     0
1070
   172
1070
     1
1070
   173
1070
     1
1070
   340
1005
E6
1070
   271
1070
     2
1070
   272
1070
     2
1070
    77
1070
     1
1070
    73
1070
     0
1070
   171
1070
     3
1070
   274
1070
     4
1070
   177
1070
    35
1070
   176
1070
    35
1070
   178
1070
    35
1070
    48
1040
-0.005
1070
    41
1041
3.5
1070
   147
1041
1.75
1070
    42
1041
1.5875
1070
    44
1041
2.0
1070
   140
1041
3.5
1070
   343
1005
0
1070
   344
1005
0
1002
}
0
DIMENSION
5
125
100
AcDbEntity
8
SK2
62
256
6
ByLayer
370
13
48
1
60
0
100
AcDbDimension
2
DimnDraft3D6
10
-46.625163
20
3
30
0
11
-47.250163
21
21.47418
31
0
70
33
71
5
72
1
41
1
210
0
220
0
230
1
3
Standard
100
AcDbAlignedDimension
13
-37.5875
23
-3
33
0
14
-37.5875
24
3
34
0
1001
ACAD
1000
DSTYLE
1002
{
1070
   279
1070
     0
1070
    74
1070
     0
1070
   173
1070
     1
1070
   340
1005
E6
1070
   271
1070
     3
1070
   272
1070
     2
1070
    77
1070
     1
1070
    73
1070
     0
1070
   171
1070
     3
1070
   274
1070
     4
1070
   177
1070
    35
1070
   176
1070
    35
1070
   178
1070
    35
1070
    48
1040
-0.005
1070
    41
1041
3.5
1070
   147
1041
1.75
1070
    42
1041
1.5875
1070
    44
1041
2.0
1070
   140
1041
3.5
1070
   343
1005
0
1070
   344
1005
0
1002
}
0
DIMENSION
5
130
100
AcDbEntity
8
2
62
256
6
ByLayer
370
13
48
1
60
0
100
AcDbDimension
2
DimnDraft3D7
10
60.083343
20
2.7
30
0
11
55.458343
21
19.767266
31
0
70
33
71
5
72
1
41
1
210
0
220
0
230
1
3
Standard
100
AcDbAlignedDimension
13
46.6775
23
-2.7
33
0
14
46.6775
24
2.7
34
0
1001
ACAD
1000
DSTYLE
1002
{
1070
   279
1070
     0
1070
    74
1070
     0
1070
   173
1070
     1
1070
   340
1005
E6
1070
   271
1070
     3
1070
   272
1070
     2
1070
    77
1070
     1
1070
    73
1070
     0
1070
   171
1070
     3
1070
   274
1070
     4
1070
   177
1070
    35
1070
   176
1070
    35
1070
   178
1070
    35
1070
    48
1040
-0.005
1070
    41
1041
3.5
1070
   147
1041
1.75
1070
    42
1041
1.5875
1070
    44
1041
2.0
1070
   140
1041
3.5
1070
   343
1005
0
1070
   344
1005
0
1002
}
0
ENDSEC
0
SECTION
2
OBJECTS
0
DICTIONARY
5
19b
330
0
100
AcDbDictionary
280
0
281
1
3
ACAD_GROUP
350
19c
3
ACAD_MLINESTYLE
350
19d
0
DICTIONARY
5
19c
330
0
100
AcDbDictionary
280
0
281
1
0
DICTIONARY
5
19d
330
0
100
AcDbDictionary
280
0
281
1
3
Standard
350
18
0
MLINESTYLE
5
18
330
19d
100
AcDbMlineStyle
2
Standard
70
0
3

62
256
51
90
52
90
71
2
49
-0.5
62
256
6
ByLayer
49
0.5
62
256
6
ByLayer
0
RASTERVARIABLES
5
189
330

100
AcDbRasterVariables
90
0
70
1
71
1
72
1
0
ENDSEC
0
EOF
